  0
SECTION
  2
HEADER
  9
$ACADVER
  1
AC1018
  9
$ACADMAINTVER
 70
   104
  9
$DWGCODEPAGE
  3
ANSI_936
  9
$LASTSAVEDBY
  1
bq.luo
  9
$INSBASE
 10
0.0
 20
0.0
 30
0.0
  9
$EXTMIN
 10
2834.810861735345
 20
591.6874416117642
 30
-0.0000000349181977
  9
$EXTMAX
 10
3132.065039191725
 20
801.7577838948435
 30
0.0000000814935718
  9
$LIMMIN
 10
0.0
 20
0.0
  9
$LIMMAX
 10
1189.0
 20
841.0
  9
$ORTHOMODE
 70
     1
  9
$REGENMODE
 70
     1
  9
$FILLMODE
 70
     1
  9
$QTEXTMODE
 70
     0
  9
$MIRRTEXT
 70
     1
  9
$LTSCALE
 40
65.395
  9
$ATTMODE
 70
     1
  9
$TEXTSIZE
 40
0.2
  9
$TRACEWID
 40
0.05
  9
$TEXTSTYLE
  7
txt字体
  9
$CLAYER
  8
Dim
  9
$CELTYPE
  6
ByLayer
  9
$CECOLOR
 62
   256
  9
$CELTSCALE
 40
1.0
  9
$DISPSILH
 70
     0
  9
$DIMSCALE
 40
1.0
  9
$DIMASZ
 40
1.5
  9
$DIMEXO
 40
0.2
  9
$DIMDLI
 40
0.2
  9
$DIMRND
 40
0.0
  9
$DIMDLE
 40
0.0
  9
$DIMEXE
 40
0.8
  9
$DIMTP
 40
0.0
  9
$DIMTM
 40
0.0
  9
$DIMTXT
 40
2.0
  9
$DIMCEN
 40
0.0
  9
$DIMTSZ
 40
0.0
  9
$DIMTOL
 70
     0
  9
$DIMLIM
 70
     0
  9
$DIMTIH
 70
     0
  9
$DIMTOH
 70
     0
  9
$DIMSE1
 70
     0
  9
$DIMSE2
 70
     0
  9
$DIMTAD
 70
     1
  9
$DIMZIN
 70
     8
  9
$DIMBLK
  1

  9
$DIMASO
 70
     1
  9
$DIMSHO
 70
     1
  9
$DIMPOST
  1

  9
$DIMAPOST
  1

  9
$DIMALT
 70
     0
  9
$DIMALTD
 70
     2
  9
$DIMALTF
 40
25.4
  9
$DIMLFAC
 40
1.0
  9
$DIMTOFL
 70
     0
  9
$DIMTVP
 40
0.0
  9
$DIMTIX
 70
     0
  9
$DIMSOXD
 70
     0
  9
$DIMSAH
 70
     0
  9
$DIMBLK1
  1

  9
$DIMBLK2
  1

  9
$DIMSTYLE
  2
01
  9
$DIMCLRD
 70
     1
  9
$DIMCLRE
 70
     6
  9
$DIMCLRT
 70
     4
  9
$DIMTFAC
 40
1.0
  9
$DIMGAP
 40
0.5
  9
$DIMJUST
 70
     0
  9
$DIMSD1
 70
     0
  9
$DIMSD2
 70
     0
  9
$DIMTOLJ
 70
     1
  9
$DIMTZIN
 70
     0
  9
$DIMALTZ
 70
     0
  9
$DIMALTTZ
 70
     0
  9
$DIMUPT
 70
     0
  9
$DIMDEC
 70
     1
  9
$DIMTDEC
 70
     1
  9
$DIMALTU
 70
     2
  9
$DIMALTTD
 70
     2
  9
$DIMTXSTY
  7
Romans字体
  9
$DIMAUNIT
 70
     0
  9
$DIMADEC
 70
     2
  9
$DIMALTRND
 40
0.0
  9
$DIMAZIN
 70
     2
  9
$DIMDSEP
 70
    46
  9
$DIMATFIT
 70
     3
  9
$DIMFRAC
 70
     0
  9
$DIMLDRBLK
  1

  9
$DIMLUNIT
 70
     2
  9
$DIMLWD
 70
    -2
  9
$DIMLWE
 70
    -2
  9
$DIMTMOVE
 70
     0
  9
$LUNITS
 70
     2
  9
$LUPREC
 70
     4
  9
$SKETCHINC
 40
0.1
  9
$FILLETRAD
 40
0.0
  9
$AUNITS
 70
     0
  9
$AUPREC
 70
     0
  9
$MENU
  1
acad
  9
$ELEVATION
 40
0.0
  9
$PELEVATION
 40
0.0
  9
$THICKNESS
 40
0.0
  9
$LIMCHECK
 70
     0
  9
$CHAMFERA
 40
0.0
  9
$CHAMFERB
 40
0.0
  9
$CHAMFERC
 40
0.0
  9
$CHAMFERD
 40
0.0
  9
$SKPOLY
 70
     0
  9
$TDCREATE
 40
2454351.702036852
  9
$TDUCREATE
 40
2454351.368703519
  9
$TDUPDATE
 40
2458050.732933565
  9
$TDUUPDATE
 40
2458050.399600232
  9
$TDINDWG
 40
1.4109537153
  9
$TDUSRTIMER
 40
1.4109491667
  9
$USRTIMER
 70
     1
  9
$ANGBASE
 50
0.0
  9
$ANGDIR
 70
     0
  9
$PDMODE
 70
     3
  9
$PDSIZE
 40
8.0
  9
$PLINEWID
 40
0.0
  9
$SPLFRAME
 70
     0
  9
$SPLINETYPE
 70
     6
  9
$SPLINESEGS
 70
     8
  9
$HANDSEED
  5
872AA
  9
$SURFTAB1
 70
     6
  9
$SURFTAB2
 70
     6
  9
$SURFTYPE
 70
     6
  9
$SURFU
 70
     6
  9
$SURFV
 70
     6
  9
$UCSBASE
  2

  9
$UCSNAME
  2

  9
$UCSORG
 10
0.0
 20
0.0
 30
0.0
  9
$UCSXDIR
 10
1.0
 20
0.0
 30
0.0
  9
$UCSYDIR
 10
0.0
 20
1.0
 30
0.0
  9
$UCSORTHOREF
  2

  9
$UCSORTHOVIEW
 70
     0
  9
$UCSORGTOP
 10
0.0
 20
0.0
 30
0.0
  9
$UCSORGBOTTOM
 10
0.0
 20
0.0
 30
0.0
  9
$UCSORGLEFT
 10
0.0
 20
0.0
 30
0.0
  9
$UCSORGRIGHT
 10
0.0
 20
0.0
 30
0.0
  9
$UCSORGFRONT
 10
0.0
 20
0.0
 30
0.0
  9
$UCSORGBACK
 10
0.0
 20
0.0
 30
0.0
  9
$PUCSBASE
  2

  9
$PUCSNAME
  2

  9
$PUCSORG
 10
0.0
 20
0.0
 30
0.0
  9
$PUCSXDIR
 10
1.0
 20
0.0
 30
0.0
  9
$PUCSYDIR
 10
0.0
 20
1.0
 30
0.0
  9
$PUCSORTHOREF
  2

  9
$PUCSORTHOVIEW
 70
     0
  9
$PUCSORGTOP
 10
0.0
 20
0.0
 30
0.0
  9
$PUCSORGBOTTOM
 10
0.0
 20
0.0
 30
0.0
  9
$PUCSORGLEFT
 10
0.0
 20
0.0
 30
0.0
  9
$PUCSORGRIGHT
 10
0.0
 20
0.0
 30
0.0
  9
$PUCSORGFRONT
 10
0.0
 20
0.0
 30
0.0
  9
$PUCSORGBACK
 10
0.0
 20
0.0
 30
0.0
  9
$USERI1
 70
     0
  9
$USERI2
 70
     0
  9
$USERI3
 70
     0
  9
$USERI4
 70
     0
  9
$USERI5
 70
     0
  9
$USERR1
 40
0.0
  9
$USERR2
 40
0.0
  9
$USERR3
 40
0.0
  9
$USERR4
 40
0.0
  9
$USERR5
 40
2.5
  9
$WORLDVIEW
 70
     1
  9
$SHADEDGE
 70
     3
  9
$SHADEDIF
 70
    70
  9
$TILEMODE
 70
     1
  9
$MAXACTVP
 70
    16
  9
$PINSBASE
 10
0.0
 20
0.0
 30
0.0
  9
$PLIMCHECK
 70
     0
  9
$PEXTMIN
 10
1.000000000000000E+20
 20
1.000000000000000E+20
 30
1.000000000000000E+20
  9
$PEXTMAX
 10
-1.000000000000000E+20
 20
-1.000000000000000E+20
 30
-1.000000000000000E+20
  9
$PLIMMIN
 10
0.0
 20
0.0
  9
$PLIMMAX
 10
12.0
 20
9.0
  9
$UNITMODE
 70
     0
  9
$VISRETAIN
 70
     0
  9
$PLINEGEN
 70
     1
  9
$PSLTSCALE
 70
     0
  9
$TREEDEPTH
 70
  3020
  9
$CMLSTYLE
  2
Standard
  9
$CMLJUST
 70
     0
  9
$CMLSCALE
 40
1.0
  9
$PROXYGRAPHICS
 70
     0
  9
$MEASUREMENT
 70
     1
  9
$CELWEIGHT
370
    -1
  9
$ENDCAPS
280
     0
  9
$JOINSTYLE
280
     0
  9
$LWDISPLAY
290
     0
  9
$INSUNITS
 70
     4
  9
$HYPERLINKBASE
  1

  9
$STYLESHEET
  1
monochrome.ctb
  9
$XEDIT
290
     1
  9
$CEPSNTYPE
380
     0
  9
$PSTYLEMODE
290
     1
  9
$FINGERPRINTGUID
  2

  9
$VERSIONGUID
  2
{24601D9D-7EF5-4CDF-874D-38DA4B6D1783}
  9
$EXTNAMES
290
     1
  9
$PSVPSCALE
 40
0.0
  9
$OLESTARTUP
290
     0
  9
$SORTENTS
280
   127
  9
$INDEXCTL
280
     0
  9
$HIDETEXT
280
     0
  9
$XCLIPFRAME
290
     0
  9
$HALOGAP
280
     0
  9
$OBSCOLOR
 70
   257
  9
$OBSLTYPE
280
     0
  9
$INTERSECTIONDISPLAY
280
     0
  9
$INTERSECTIONCOLOR
 70
   257
  9
$DIMASSOC
280
     2
  9
$PROJECTNAME
  1

  0
ENDSEC
  0
SECTION
  2
CLASSES
  0
CLASS
  1
ACDBDICTIONARYWDFLT
  2
AcDbDictionaryWithDefault
  3
ObjectDBX Classes
 90
        0
 91
        1
280
     0
281
     0
  0
CLASS
  1
IMAGE
  2
AcDbRasterImage
  3
ISM
 90
     2175
 91
        0
280
     0
281
     1
  0
CLASS
  1
DICTIONARYVAR
  2
AcDbDictionaryVar
  3
ObjectDBX Classes
 90
        0
 91
        9
280
     0
281
     0
  0
CLASS
  1
RASTERVARIABLES
  2
AcDbRasterVariables
  3
ISM
 90
        0
 91
        0
280
     0
281
     0
  0
CLASS
  1
IMAGEDEF
  2
AcDbRasterImageDef
  3
ISM
 90
        0
 91
        0
280
     0
281
     0
  0
CLASS
  1
IMAGEDEF_REACTOR
  2
AcDbRasterImageDefReactor
  3
ISM
 90
        1
 91
        0
280
     0
281
     0
  0
CLASS
  1
IDBUFFER
  2
AcDbIdBuffer
  3
ObjectDBX Classes
 90
        0
 91
        0
280
     0
281
     0
  0
CLASS
  1
SPATIAL_FILTER
  2
AcDbSpatialFilter
  3
ObjectDBX Classes
 90
        0
 91
        0
280
     0
281
     0
  0
CLASS
  1
SORTENTSTABLE
  2
AcDbSortentsTable
  3
ObjectDBX Classes
 90
        0
 91
        0
280
     0
281
     0
  0
CLASS
  1
LAYER_INDEX
  2
AcDbLayerIndex
  3
ObjectDBX Classes
 90
        0
 91
        0
280
     0
281
     0
  0
CLASS
  1
SPATIAL_INDEX
  2
AcDbSpatialIndex
  3
ObjectDBX Classes
 90
        0
 91
        0
280
     0
281
     0
  0
CLASS
  1
OBJECT_PTR
  2
CAseDLPNTableRecord
  3
ASE-LPNTableRecord
 90
        1
 91
        0
280
     0
281
     0
  0
CLASS
  1
PLOTSETTINGS
  2
AcDbPlotSettings
  3
ObjectDBX Classes
 90
        0
 91
        1
280
     0
281
     0
  0
CLASS
  1
WIPEOUT
  2
AcDbWipeout
  3
"WipeOut|Product Desc: Object Enabler for WipeOut entity                        |Company: Autodesk, Inc.                        |WEB Address: www.autodesk.com"
 90
     2175
 91
        0
280
     0
281
     1
  0
CLASS
  1
WIPEOUTVARIABLES
  2
AcDbWipeoutVariables
  3
"WipeOut|Product Desc:     WipeOut Dbx Application|Company:          Autodesk, Inc.|WEB Address:      www.autodesk.com"
 90
        0
 91
        0
280
     0
281
     0
  0
CLASS
  1
RTEXT
  2
RText
  3
RText|AutoCAD Express Tool|expresstools@autodesk.com
 90
        0
 91
        0
280
     0
281
     1
  0
CLASS
  1
ARCALIGNEDTEXT
  2
AcDbArcAlignedText
  3
ATEXT|AutoCAD Express Tool|expresstools@autodesk.com
 90
        0
 91
        0
280
     0
281
     1
  0
CLASS
  1
VLO-VL
  2
vlo_VL
  3
VL|AutoLISP based application
 90
      129
 91
        1
280
     0
281
     0
  0
CLASS
  1
DIMASSOC
  2
AcDbDimAssoc
  3
"AcDbDimAssoc|Product Desc:     AcDim ARX App For Dimension|Company:          Autodesk, Inc.|WEB Address:      www.autodesk.com"
 90
        0
 91
        3
280
     0
281
     0
  0
CLASS
  1
ACAD_EVALUATION_GRAPH
  2
AcDbEvalGraph
  3
ObjectDBX Classes
 90
     1153
 91
        0
280
     0
281
     0
  0
CLASS
  1
ACDB_DYNAMICBLOCKPURGEPREVENTER_VERSION
  2
AcDbDynamicBlockPurgePreventer
  3
ObjectDBX Classes
 90
     1153
 91
        0
280
     0
281
     0
  0
CLASS
  1
MATERIAL
  2
AcDbMaterial
  3
ObjectDBX Classes
 90
     1153
 91
        3
280
     0
281
     0
  0
CLASS
  1
VISUALSTYLE
  2
AcDbVisualStyle
  3
ObjectDBX Classes
 90
     4095
 91
       17
280
     0
281
     0
  0
CLASS
  1
TABLESTYLE
  2
AcDbTableStyle
  3
ObjectDBX Classes
 90
     4095
 91
        1
280
     0
281
     0
  0
CLASS
  1
SCALE
  2
AcDbScale
  3
ObjectDBX Classes
 90
     1153
 91
       33
280
     0
281
     0
  0
CLASS
  1
MLEADERSTYLE
  2
AcDbMLeaderStyle
  3
ACDB_MLEADERSTYLE_CLASS
 90
     4095
 91
        1
280
     0
281
     0
  0
CLASS
  1
CELLSTYLEMAP
  2
AcDbCellStyleMap
  3
ObjectDBX Classes
 90
     1152
 91
        2
280
     0
281
     0
  0
CLASS
  1
ACAECUSTOBJ
  2
AcAeEditorObj
  3
AcAeEditorObj
 90
     1024
 91
        0
280
     0
281
     0
  0
CLASS
  1
MULTILEADER
  2
AcDbMLeader
  3
ACDB_MLEADER_CLASS
 90
     1025
 91
        0
280
     0
281
     1
  0
ENDSEC
  0
SECTION
  2
TABLES
  0
TABLE
  2
VPORT
  5
8
102
{ACAD_XDICTIONARY
360
12DD3
102
}
330
0
100
AcDbSymbolTable
 70
     1
  0
VPORT
  5
12D1D
330
8
100
AcDbSymbolTableRecord
100
AcDbViewportTableRecord
  2
*Active
 70
     0
 10
0.0
 20
0.0
 11
1.0
 21
1.0
 12
2983.437950463535
 22
696.7226127533039
 13
0.0
 23
0.0
 14
1.0
 24
1.0
 15
0.0
 25
0.0
 16
0.0
 26
0.0
 36
1.0
 17
0.0
 27
0.0
 37
0.0
 40
211.6225861915749
 41
2.233045622688039
 42
50.0
 43
0.0
 44
0.0
 50
0.0
 51
0.0
 71
     0
 72
   100
 73
     1
 74
     1
 75
     0
 76
     0
 77
     0
 78
     0
281
     0
 65
     0
110
0.0
120
0.0
130
0.0
111
1.0
121
0.0
131
0.0
112
0.0
122
1.0
132
0.0
 79
     0
146
0.0
  0
ENDTAB
  0
TABLE
  2
LTYPE
  5
5
330
0
100
AcDbSymbolTable
 70
     3
  0
LTYPE
  5
14
330
5
100
AcDbSymbolTableRecord
100
AcDbLinetypeTableRecord
  2
ByBlock
 70
     0
  3

 72
    65
 73
     0
 40
0.0
  0
LTYPE
  5
15
330
5
100
AcDbSymbolTableRecord
100
AcDbLinetypeTableRecord
  2
ByLayer
 70
     0
  3

 72
    65
 73
     0
 40
0.0
  0
LTYPE
  5
16
330
5
100
AcDbSymbolTableRecord
100
AcDbLinetypeTableRecord
  2
CONTINUOUS
 70
     0
  3
Solid line
 72
    65
 73
     0
 40
0.0
  0
LTYPE
  5
1D9F6
330
5
100
AcDbSymbolTableRecord
100
AcDbLinetypeTableRecord
  2
CENTER
 70
     0
  3
____ _ ____ _ ____ _ ____ _ ____ _ ____ _ ____
 72
    65
 73
     4
 40
0.6
 49
0.375
 74
     0
 49
-0.075
 74
     0
 49
0.075
 74
     0
 49
-0.075
 74
     0
  0
LTYPE
  5
86DE9
330
5
100
AcDbSymbolTableRecord
100
AcDbLinetypeTableRecord
  2
CENTER2
 70
     0
  3
Center (.5x) ___ _ ___ _ ___ _ ___ _ ___ _ ___
 72
    65
 73
     4
 40
1.125
 49
0.75
 74
     0
 49
-0.125
 74
     0
 49
0.125
 74
     0
 49
-0.125
 74
     0
  0
ENDTAB
  0
TABLE
  2
LAYER
  5
2
102
{ACAD_XDICTIONARY
360
7EA
102
}
330
0
100
AcDbSymbolTable
 70
     9
  0
LAYER
  5
10
102
{ACAD_XDICTIONARY
360
12D81
102
}
330
2
100
AcDbSymbolTableRecord
100
AcDbLayerTableRecord
  2
0
 70
     0
 62
     7
  6
CONTINUOUS
370
    30
390
F
  0
LAYER
  5
7C8
330
2
100
AcDbSymbolTableRecord
100
AcDbLayerTableRecord
  2
Defpoints
 70
     0
 62
     7
  6
CONTINUOUS
290
     0
370
    -3
390
F
  0
LAYER
  5
876E
102
{ACAD_XDICTIONARY
360
12D8B
102
}
330
2
100
AcDbSymbolTableRecord
100
AcDbLayerTableRecord
  2
ASHADE
 70
     0
 62
     7
  6
CONTINUOUS
370
    35
390
F
  0
LAYER
  5
F6EE
102
{ACAD_XDICTIONARY
360
12D8D
102
}
330
2
100
AcDbSymbolTableRecord
100
AcDbLayerTableRecord
  2
图框
 70
     0
 62
     7
  6
CONTINUOUS
370
    20
390
F
  0
LAYER
  5
1508C
330
2
100
AcDbSymbolTableRecord
100
AcDbLayerTableRecord
  2
打标文字
 70
     0
 62
     3
  6
CONTINUOUS
370
    20
390
F
  0
LAYER
  5
1E3BF
102
{ACAD_XDICTIONARY
360
1E3C0
102
}
330
2
100
AcDbSymbolTableRecord
100
AcDbLayerTableRecord
  2
Dim
 70
     0
 62
     3
  6
CONTINUOUS
370
    15
390
F
  0
LAYER
  5
81D77
330
2
100
AcDbSymbolTableRecord
100
AcDbLayerTableRecord
  2
CEN
 70
     0
 62
     1
  6
CENTER
370
    15
390
F
1001
AcAecLayerStandard
1000

1000

  0
LAYER
  5
84714
102
{ACAD_XDICTIONARY
360
84715
102
}
330
2
100
AcDbSymbolTableRecord
100
AcDbLayerTableRecord
  2
1
 70
     0
 62
     7
  6
CONTINUOUS
370
    -3
390
F
  0
LAYER
  5
86DEA
330
2
100
AcDbSymbolTableRecord
100
AcDbLayerTableRecord
  2
HAT
 70
     0
 62
     6
  6
CONTINUOUS
370
    15
390
F
1001
AcAecLayerStandard
1000

1000

  0
ENDTAB
  0
TABLE
  2
STYLE
  5
3
330
0
100
AcDbSymbolTable
 70
     6
  0
STYLE
  5
11
330
3
100
AcDbSymbolTableRecord
100
AcDbTextStyleTableRecord
  2
STANDARD
 70
     0
 40
0.0
 41
0.75
 50
0.0
 71
     0
 42
0.2
  3
simfang_0.ttf
  4

1001
ACAD
1000
FangSong_GB2312
1071
    34353
  0
STYLE
  5
46E5B
330
3
100
AcDbSymbolTableRecord
100
AcDbTextStyleTableRecord
  2
txt字体
 70
     0
 40
0.0
 41
0.7
 50
0.0
 71
     0
 42
0.2
  3
txt.shx
  4

  0
STYLE
  5
474F8
330
3
100
AcDbSymbolTableRecord
100
AcDbTextStyleTableRecord
  2
Romans字体
 70
     0
 40
0.0
 41
0.75
 50
0.0
 71
     0
 42
0.2
  3
romans.shx
  4

  0
STYLE
  5
474F9
330
3
100
AcDbSymbolTableRecord
100
AcDbTextStyleTableRecord
  2
工程字
 70
     0
 40
0.0
 41
1.0
 50
0.0
 71
     0
 42
3.5
  3
gbenor.shx
  4
gbcbig.shx
  0
STYLE
  5
474FA
330
3
100
AcDbSymbolTableRecord
100
AcDbTextStyleTableRecord
  2
Chinese
 70
     0
 40
0.0
 41
1.0
 50
0.0
 71
     0
 42
2.5
  3
PMingLiU.ttf
  4

1001
ACAD
1000
PMingLiU
1071
    34834
  0
ENDTAB
  0
TABLE
  2
VIEW
  5
6
330
0
100
AcDbSymbolTable
 70
     0
  0
ENDTAB
  0
TABLE
  2
UCS
  5
7
330
0
100
AcDbSymbolTable
 70
     0
  0
ENDTAB
  0
TABLE
  2
APPID
  5
9
330
0
100
AcDbSymbolTable
 70
    46
  0
APPID
  5
206
330
9
100
AcDbSymbolTableRecord
100
AcDbRegAppTableRecord
  2
ACAD
 70
     0
  0
APPID
  5
7E2
330
9
100
AcDbSymbolTableRecord
100
AcDbRegAppTableRecord
  2
DCO15
 70
     0
  0
APPID
  5
7E3
330
9
100
AcDbSymbolTableRecord
100
AcDbRegAppTableRecord
  2
ACAD_PSEXT
 70
     0
  0
APPID
  5
7E4
330
9
100
AcDbSymbolTableRecord
100
AcDbRegAppTableRecord
  2
AcAecLayerStandard
 70
     0
  0
APPID
  5
7E5
330
9
100
AcDbSymbolTableRecord
100
AcDbRegAppTableRecord
  2
ACAD_DSTYLE_DIMEXT_LENGTH
 70
     0
  0
APPID
  5
7E6
330
9
100
AcDbSymbolTableRecord
100
AcDbRegAppTableRecord
  2
ACAD_DSTYLE_DIMEXT_ENABLED
 70
     0
  0
APPID
  5
7E7
330
9
100
AcDbSymbolTableRecord
100
AcDbRegAppTableRecord
  2
ACAD_DSTYLE_DIMJOGGED_JOGANGLE_SYMBOL
 70
     0
  0
APPID
  5
7E8
330
9
100
AcDbSymbolTableRecord
100
AcDbRegAppTableRecord
  2
ACAD_DSTYLE_DIMARC_LENGTH_SYMBOL
 70
     0
  0
APPID
  5
7E9
330
9
100
AcDbSymbolTableRecord
100
AcDbRegAppTableRecord
  2
ACAD_DSTYLE_DIMTEXT_FILL
 70
     0
  0
APPID
  5
1765
330
9
100
AcDbSymbolTableRecord
100
AcDbRegAppTableRecord
  2
GENIUS_GENTRA_14
 70
     0
  0
APPID
  5
1766
330
9
100
AcDbSymbolTableRecord
100
AcDbRegAppTableRecord
  2
GENIUS_GENODEF_13
 70
     0
  0
APPID
  5
1767
330
9
100
AcDbSymbolTableRecord
100
AcDbRegAppTableRecord
  2
GENIUS_GENOBJ-N-TIT_13
 70
     0
  0
APPID
  5
1768
330
9
100
AcDbSymbolTableRecord
100
AcDbRegAppTableRecord
  2
GENIUS_GENTITLE_13
 70
     0
  0
APPID
  5
1769
330
9
100
AcDbSymbolTableRecord
100
AcDbRegAppTableRecord
  2
GENIUS_GENOENT_13
 70
     0
  0
APPID
  5
176A
330
9
100
AcDbSymbolTableRecord
100
AcDbRegAppTableRecord
  2
GENIUS_GENOREF_13
 70
     0
  0
APPID
  5
176B
330
9
100
AcDbSymbolTableRecord
100
AcDbRegAppTableRecord
  2
GENIUS_GENOLIS_13
 70
     0
  0
APPID
  5
176C
330
9
100
AcDbSymbolTableRecord
100
AcDbRegAppTableRecord
  2
GENIUS_GENOBJ-N-SDF_13
 70
     0
  0
APPID
  5
176D
330
9
100
AcDbSymbolTableRecord
100
AcDbRegAppTableRecord
  2
GENIUS_GENSCREG_13
 70
     0
  0
APPID
  5
688B
330
9
100
AcDbSymbolTableRecord
100
AcDbRegAppTableRecord
  2
ACAD_DSTYLE_DIM_LINETYPE
 70
     0
  0
APPID
  5
688C
330
9
100
AcDbSymbolTableRecord
100
AcDbRegAppTableRecord
  2
ACAD_DSTYLE_DIM_EXT1_LINETYPE
 70
     0
  0
APPID
  5
688D
330
9
100
AcDbSymbolTableRecord
100
AcDbRegAppTableRecord
  2
ACAD_DSTYLE_DIM_EXT2_LINETYPE
 70
     0
  0
APPID
  5
688E
330
9
100
AcDbSymbolTableRecord
100
AcDbRegAppTableRecord
  2
ACAD_EXEMPT_FROM_CAD_STANDARDS
 70
     0
  0
APPID
  5
688F
330
9
100
AcDbSymbolTableRecord
100
AcDbRegAppTableRecord
  2
CAXA
 70
     0
  0
APPID
  5
6890
330
9
100
AcDbSymbolTableRecord
100
AcDbRegAppTableRecord
  2
AcDbBlockRepETag
 70
     0
  0
APPID
  5
6891
330
9
100
AcDbSymbolTableRecord
100
AcDbRegAppTableRecord
  2
ACAUTHENVIRON
 70
     0
  0
APPID
  5
6892
330
9
100
AcDbSymbolTableRecord
100
AcDbRegAppTableRecord
  2
AcDbDynamicBlockTrueName
 70
     0
  0
APPID
  5
6893
330
9
100
AcDbSymbolTableRecord
100
AcDbRegAppTableRecord
  2
AcDbDynamicBlockGUID
 70
     0
  0
APPID
  5
6894
330
9
100
AcDbSymbolTableRecord
100
AcDbRegAppTableRecord
  2
STD
 70
     0
  0
APPID
  5
6895
330
9
100
AcDbSymbolTableRecord
100
AcDbRegAppTableRecord
  2
AcDbBlockRepBTag
 70
     0
  0
APPID
  5
6896
330
9
100
AcDbSymbolTableRecord
100
AcDbRegAppTableRecord
  2
RAK
 70
     0
  0
APPID
  5
8770
330
9
100
AcDbSymbolTableRecord
100
AcDbRegAppTableRecord
  2
AVE_RENDER
 70
     0
  0
APPID
  5
8771
330
9
100
AcDbSymbolTableRecord
100
AcDbRegAppTableRecord
  2
AVE_ENTITY_MATERIAL
 70
     0
  0
APPID
  5
8772
330
9
100
AcDbSymbolTableRecord
100
AcDbRegAppTableRecord
  2
AVE_FINISH
 70
     0
  0
APPID
  5
8773
330
9
100
AcDbSymbolTableRecord
100
AcDbRegAppTableRecord
  2
AVE_MATERIAL
 70
     0
  0
APPID
  5
8774
330
9
100
AcDbSymbolTableRecord
100
AcDbRegAppTableRecord
  2
AVE_GLOBAL
 70
     0
  0
APPID
  5
F4F3
330
9
100
AcDbSymbolTableRecord
100
AcDbRegAppTableRecord
  2
yx_bom1
 70
     0
  0
APPID
  5
F4F4
330
9
100
AcDbSymbolTableRecord
100
AcDbRegAppTableRecord
  2
yx_bom2
 70
     0
  0
APPID
  5
F4F5
330
9
100
AcDbSymbolTableRecord
100
AcDbRegAppTableRecord
  2
yx_bom3
 70
     0
  0
APPID
  5
12D6F
330
9
100
AcDbSymbolTableRecord
100
AcDbRegAppTableRecord
  2
ACAD_MLEADERVER
 70
     0
  0
APPID
  5
12DFC
330
9
100
AcDbSymbolTableRecord
100
AcDbRegAppTableRecord
  2
AcadAnnoPO
 70
     0
  0
APPID
  5
12FCD
330
9
100
AcDbSymbolTableRecord
100
AcDbRegAppTableRecord
  2
ACAD_DSTYLE_DIMJAG
 70
     0
  0
APPID
  5
12FCE
330
9
100
AcDbSymbolTableRecord
100
AcDbRegAppTableRecord
  2
ACAD_DSTYLE_DIMTALN
 70
     0
  0
APPID
  5
1A9DF
330
9
100
AcDbSymbolTableRecord
100
AcDbRegAppTableRecord
  2
AcadAnnotative
 70
     0
  0
APPID
  5
1E3C3
330
9
100
AcDbSymbolTableRecord
100
AcDbRegAppTableRecord
  2
ACAD_NAV_VCDISPLAY
 70
     0
  0
APPID
  5
463BD
330
9
100
AcDbSymbolTableRecord
100
AcDbRegAppTableRecord
  2
ACAD_DSTYLE_DIMBREAK
 70
     0
  0
APPID
  5
463BF
330
9
100
AcDbSymbolTableRecord
100
AcDbRegAppTableRecord
  2
ACAD_DSTYLE_DIMRADIAL_EXTENSION
 70
     0
  0
ENDTAB
  0
TABLE
  2
DIMSTYLE
  5
A
330
0
100
AcDbSymbolTable
 70
     4
100
AcDbDimStyleTable
 71
     2
340
F6EF
340
207
  0
DIMSTYLE
105
207
330
A
100
AcDbSymbolTableRecord
100
AcDbDimStyleTableRecord
  2
STANDARD
 70
     0
 41
3.5
 47
0.01
 48
0.01
 71
     1
 73
     0
 74
     0
 77
     1
 78
     8
140
3.5
271
     2
272
     2
284
     8
340
11
  0
DIMSTYLE
105
F6EF
102
{ACAD_REACTORS
330
86EC3
330
86EC4
330
86EDF
330
86EE0
330
86EE3
330
86EE6
330
86EE7
102
}
330
A
100
AcDbSymbolTableRecord
100
AcDbDimStyleTableRecord
  2
01
 70
     0
 41
1.5
 42
0.2
 43
0.2
 44
0.8
 73
     0
 74
     0
 77
     1
 78
     8
 79
     2
140
2.0
141
0.0
147
0.5
176
     1
177
     6
178
     4
179
     2
271
     1
272
     1
340
474F8
1001
ACAD_DSTYLE_DIMJAG
1070
   388
1040
1.5
1001
ACAD_DSTYLE_DIMTALN
1070
   392
1070
     0
  0
DIMSTYLE
105
8717E
330
A
100
AcDbSymbolTableRecord
100
AcDbDimStyleTableRecord
  2
ISO-25
 70
     0
 41
2.5
 42
0.625
 43
3.75
 44
1.25
 73
     0
 74
     0
 77
     1
 78
     8
140
2.5
141
2.5
143
0.03937007874016
147
0.625
171
     3
172
     1
271
     2
272
     2
274
     3
278
    44
283
     0
284
     8
340
11
  0
ENDTAB
  0
TABLE
  2
BLOCK_RECORD
  5
1
330
0
100
AcDbSymbolTable
 70
    27
  0
BLOCK_RECORD
  5
1F
330
1
100
AcDbSymbolTableRecord
100
AcDbBlockTableRecord
  2
*MODEL_SPACE
340
22
  0
BLOCK_RECORD
  5
1B
330
1
100
AcDbSymbolTableRecord
100
AcDbBlockTableRecord
  2
*PAPER_SPACE
340
1E
  0
BLOCK_RECORD
  5
84E5
330
1
100
AcDbSymbolTableRecord
100
AcDbBlockTableRecord
  2
AVE_RENDER
340
0
102
{BLKREFS
331
8AE2
331
8AE3
331
8AE4
331
8AE5
331
8AE6
331
8AE7
331
8AE8
331
8AE9
102
}
  0
BLOCK_RECORD
  5
84E8
330
1
100
AcDbSymbolTableRecord
100
AcDbBlockTableRecord
  2
AVE_GLOBAL
340
0
102
{BLKREFS
331
8AEA
102
}
  0
BLOCK_RECORD
  5
47460
102
{ACAD_XDICTIONARY
360
863C7
102
}
330
1
100
AcDbSymbolTableRecord
100
AcDbBlockTableRecord
  2
A4图框-NEW
340
0
310
2800000020000000200000000100080000000000000400000000000000000000000000000000000000000000000080000080000000808000800000008000800080800000C0C0C000C0DCC000F0CAA6000020400000206000002080000020A0000020C0000020E00000400000004020000040400000406000004080000040A0
310
000040C0000040E00000600000006020000060400000606000006080000060A0000060C0000060E00000800000008020000080400000806000008080000080A0000080C0000080E00000A0000000A0200000A0400000A0600000A0800000A0A00000A0C00000A0E00000C0000000C0200000C0400000C0600000C0800000C0
310
A00000C0C00000C0E00000E0000000E0200000E0400000E0600000E0800000E0A00000E0C00000E0E00040000000400020004000400040006000400080004000A0004000C0004000E00040200000402020004020400040206000402080004020A0004020C0004020E000404000004040200040404000404060004040800040
310
40A0004040C0004040E00040600000406020004060400040606000406080004060A0004060C0004060E00040800000408020004080400040806000408080004080A0004080C0004080E00040A0000040A0200040A0400040A0600040A0800040A0A00040A0C00040A0E00040C0000040C0200040C0400040C0600040C08000
310
40C0A00040C0C00040C0E00040E0000040E0200040E0400040E0600040E0800040E0A00040E0C00040E0E00080000000800020008000400080006000800080008000A0008000C0008000E00080200000802020008020400080206000802080008020A0008020C0008020E00080400000804020008040400080406000804080
310
008040A0008040C0008040E00080600000806020008060400080606000806080008060A0008060C0008060E00080800000808020008080400080806000808080008080A0008080C0008080E00080A0000080A0200080A0400080A0600080A0800080A0A00080A0C00080A0E00080C0000080C0200080C0400080C0600080C0
310
800080C0A00080C0C00080C0E00080E0000080E0200080E0400080E0600080E0800080E0A00080E0C00080E0E000C0000000C0002000C0004000C0006000C0008000C000A000C000C000C000E000C0200000C0202000C0204000C0206000C0208000C020A000C020C000C020E000C0400000C0402000C0404000C0406000C0
310
408000C040A000C040C000C040E000C0600000C0602000C0604000C0606000C0608000C060A000C060C000C060E000C0800000C0802000C0804000C0806000C0808000C080A000C080C000C080E000C0A00000C0A02000C0A04000C0A06000C0A08000C0A0A000C0A0C000C0A0E000C0C00000C0C02000C0C04000C0C06000
310
C0C08000C0C0A000F0FBFF00A4A0A000808080000000FF0000FF000000FFFF00FF000000FF00FF00FFFF0000FFFFFF0000000000000000000000000000000000000000000000000000000000000000000000000000000000000000000000000000000000000000000000000000000000000000000000000000000000000000
310
000000000000000000000000000000000000000000000000000000000000000000000000000000000000000000000000000000000000000000000000000000000000000000000000000000000000000000000000000000000000000000000000000000000000000000000000000000000000F9F9F9F9F9F9F9F9F9F9F9F9F9
310
F9F9F9F9F9F9F9F9F9F9F9F9F9F9FF00000000F9FF000000000000000000FFFFFFFFFFFFFFFFFFFFFFFFF9FAFAFAFF00000000F9FF000000000000000000FFFFFFFFFFFFFFFFFFFFFFFFFFFFFFFFFF00000000F9FD000000000000000000FFFFFFFFFFFFFFFFFFFFFFFFFFFFFFFFFF00000000F9FF000000000000000000FF
310
FFFFFFFFFFFFFFFFFFFFFFFFFFFFFFFF00000000F9FD000000000000000000FFFFFFFFFFFFFFFFFFFFFFFFFFFFFFFFFF00000000F9FF00000000000000000000000000000000000000000000000000FF00000000F9FD00000000000000000000000000000000000000000000000000FF00000000F9FF000000000000000000
310
00000000000000000000000000000000FF00000000F9FD00000000000000000000000000000000000000000000000000FF00000000F9FF00000000000000000000000000000000000000000000000000FF00000000F9FD00000000000000000000000000000000000000000000000000FF00000000F9FD0000000000000000
310
0000000000000000000000000000000000FF00000000F9FF00000000000000000000000000000000000000000000000000FF00000000F9FD00000000000000000000000000000000000000000000000000FF00000000F9FF00000000000000000000000000000000000000000000000000FF00000000F9FD00000000000000
310
000000000000000000000000000000000000FF00000000F9FF00000000000000000000000000000000000000000000000000FF00000000F9FFFFFFFFFFFFFFFFFFFFFFFFFFFFFFFFFFFFFFFFFFFFFFFFFFFFFF00000000F9FFFFFFF9F9F9F9F9F9F9F9F9F9F9F9F9F9F9F9F9F9F9F9F9F9F9F9000000000000000000000000
310
00000000000000000000000000000000000000000000000000000000000000000000000000000000000000000000000000000000000000000000000000000000000000000000000000000000000000000000000000000000000000000000000000000000000000000000000000000000000000000000000000000000000000
310
0000000000000000000000000000000000000000000000000000000000000000000000000000000000000000000000000000000000000000
102
{BLKREFS
331
4BB87
102
}
1001
AcDbDynamicBlockGUID
1000
{283D5D88-9E18-49C4-8695-83C397D1BB28}
1001
AcDbBlockRepETag
1070
     1
1071
      149
1001
ACAD
1000
DesignCenter Data
1002
{
1070
     1
1070
     4
1002
}
  0
BLOCK_RECORD
  5
869FB
330
1
100
AcDbSymbolTableRecord
100
AcDbBlockTableRecord
  2
*D3
340
0
  0
BLOCK_RECORD
  5
86A07
330
1
100
AcDbSymbolTableRecord
100
AcDbBlockTableRecord
  2
*D4
340
0
  0
BLOCK_RECORD
  5
86A13
330
1
100
AcDbSymbolTableRecord
100
AcDbBlockTableRecord
  2
*D5
340
0
  0
BLOCK_RECORD
  5
86A3A
330
1
100
AcDbSymbolTableRecord
100
AcDbBlockTableRecord
  2
*D6
340
0
  0
BLOCK_RECORD
  5
86A47
330
1
100
AcDbSymbolTableRecord
100
AcDbBlockTableRecord
  2
*D7
340
0
  0
BLOCK_RECORD
  5
86A54
330
1
100
AcDbSymbolTableRecord
100
AcDbBlockTableRecord
  2
*D8
340
0
  0
BLOCK_RECORD
  5
86A61
330
1
100
AcDbSymbolTableRecord
100
AcDbBlockTableRecord
  2
*D9
340
0
  0
BLOCK_RECORD
  5
86A6E
330
1
100
AcDbSymbolTableRecord
100
AcDbBlockTableRecord
  2
*D10
340
0
  0
BLOCK_RECORD
  5
86D8E
330
1
100
AcDbSymbolTableRecord
100
AcDbBlockTableRecord
  2
*D11
340
0
  0
BLOCK_RECORD
  5
86D9B
330
1
100
AcDbSymbolTableRecord
100
AcDbBlockTableRecord
  2
*D12
340
0
  0
BLOCK_RECORD
  5
86DA8
330
1
100
AcDbSymbolTableRecord
100
AcDbBlockTableRecord
  2
*D13
340
0
  0
BLOCK_RECORD
  5
86DB5
330
1
100
AcDbSymbolTableRecord
100
AcDbBlockTableRecord
  2
*D14
340
0
  0
BLOCK_RECORD
  5
86DC2
330
1
100
AcDbSymbolTableRecord
100
AcDbBlockTableRecord
  2
*D15
340
0
  0
BLOCK_RECORD
  5
86DCF
330
1
100
AcDbSymbolTableRecord
100
AcDbBlockTableRecord
  2
*D16
340
0
  0
BLOCK_RECORD
  5
86DDC
330
1
100
AcDbSymbolTableRecord
100
AcDbBlockTableRecord
  2
*D17
340
0
  0
BLOCK_RECORD
  5
86EFB
330
1
100
AcDbSymbolTableRecord
100
AcDbBlockTableRecord
  2
*D18
340
0
  0
BLOCK_RECORD
  5
86F08
330
1
100
AcDbSymbolTableRecord
100
AcDbBlockTableRecord
  2
*D19
340
0
  0
BLOCK_RECORD
  5
86F14
330
1
100
AcDbSymbolTableRecord
100
AcDbBlockTableRecord
  2
*D20
340
0
  0
BLOCK_RECORD
  5
86F21
330
1
100
AcDbSymbolTableRecord
100
AcDbBlockTableRecord
  2
*D21
340
0
  0
BLOCK_RECORD
  5
86F4B
330
1
100
AcDbSymbolTableRecord
100
AcDbBlockTableRecord
  2
*D22
340
0
  0
BLOCK_RECORD
  5
86F57
330
1
100
AcDbSymbolTableRecord
100
AcDbBlockTableRecord
  2
*D23
340
0
  0
BLOCK_RECORD
  5
86F6D
330
1
100
AcDbSymbolTableRecord
100
AcDbBlockTableRecord
  2
*D24
340
0
  0
ENDTAB
  0
ENDSEC
  0
SECTION
  2
BLOCKS
  0
BLOCK
  5
20
330
1F
100
AcDbEntity
  8
0
100
AcDbBlockBegin
  2
*MODEL_SPACE
 70
     0
 10
0.0
 20
0.0
 30
0.0
  3
*MODEL_SPACE
  1

  0
ENDBLK
  5
21
330
1F
100
AcDbEntity
  8
0
100
AcDbBlockEnd
  0
BLOCK
  5
1C
330
1B
100
AcDbEntity
 67
     1
  8
0
100
AcDbBlockBegin
  2
*PAPER_SPACE
 70
     0
 10
0.0
 20
0.0
 30
0.0
  3
*PAPER_SPACE
  1

  0
ENDBLK
  5
1D
330
1B
100
AcDbEntity
 67
     1
  8
0
100
AcDbBlockEnd
  0
BLOCK
  5
84E6
330
84E5
100
AcDbEntity
  8
ASHADE
370
     0
100
AcDbBlockBegin
  2
AVE_RENDER
 70
     0
 10
0.0
 20
0.0
 30
0.0
  3
AVE_RENDER
  1
AVE_RENDER
  0
ENDBLK
  5
84E7
330
84E5
100
AcDbEntity
  8
0
370
     0
100
AcDbBlockEnd
  0
BLOCK
  5
84E9
330
84E8
100
AcDbEntity
  8
ASHADE
370
     0
100
AcDbBlockBegin
  2
AVE_GLOBAL
 70
     0
 10
0.0
 20
0.0
 30
0.0
  3
AVE_GLOBAL
  1
AVE_GLOBAL
  0
ENDBLK
  5
84EA
330
84E8
100
AcDbEntity
  8
0
370
     0
100
AcDbBlockEnd
  0
BLOCK
  5
47462
330
47460
100
AcDbEntity
  8
0
100
AcDbBlockBegin
  2
A4图框-NEW
 70
     0
 10
0.0
 20
0.0
 30
0.0
  3
A4图框-NEW
  1

  0
MTEXT
  5
86333
102
{ACAD_XDICTIONARY
360
87284
102
}
330
47460
100
AcDbEntity
  8
图框
 62
     3
100
AcDbMText
 10
967.6594956750133
 20
499.7664151964293
 30
0.0
 40
2.985513575034151
 41
15.50176341157864
 71
     5
 72
     5
  1
HZ LAN
  7
Romans字体
 73
     1
 44
1.0
1001
AcDbBlockRepETag
1070
     1
1071
        0
1005
86333
1001
ACAD
1000
ACAD_MTEXT_DEFINED_HEIGHT_BEGIN
1070
    46
1040
6.292658374511018
1000
ACAD_MTEXT_DEFINED_HEIGHT_END
  0
MTEXT
  5
86334
330
47460
100
AcDbEntity
  8
图框
 62
     3
100
AcDbMText
 10
983.041569333247
 20
499.7664151964293
 30
0.0
 40
2.487927979195124
 41
15.26238390489062
 71
     5
 72
     5
  1
{\W0.7;18.10.2016}
  7
Romans字体
 73
     1
 44
1.0
1001
AcDbBlockRepETag
1070
     1
1071
        1
1005
86334
1001
ACAD
1000
ACAD_MTEXT_DEFINED_HEIGHT_BEGIN
1070
    46
1040
6.292658374511042
1000
ACAD_MTEXT_DEFINED_HEIGHT_END
  0
MTEXT
  5
86335
330
47460
100
AcDbEntity
  8
图框
 62
     3
100
AcDbMText
 10
1012.477254728976
 20
487.1810984474071
 30
0.0
 40
2.985513575034151
 41
17.64876416884615
 71
     5
 72
     5
  1
YY LUO
  7
Romans字体
 73
     1
 44
1.0
1001
AcDbBlockRepETag
1070
     1
1071
        2
1005
86335
1001
ACAD
1000
ACAD_MTEXT_DEFINED_HEIGHT_BEGIN
1070
    46
1040
6.292658374511455
1000
ACAD_MTEXT_DEFINED_HEIGHT_END
  0
MTEXT
  5
86336
330
47460
100
AcDbEntity
  8
图框
 62
     3
100
AcDbMText
 10
1028.977802139886
 20
487.1810984474071
 30
0.0
 40
2.487927979195124
 41
15.35233065297276
 71
     5
 72
     5
  1
{\W0.7;18.10.2016}
  7
Romans字体
 73
     1
 44
1.0
1001
AcDbBlockRepETag
1070
     1
1071
        3
1005
86336
1001
ACAD
1000
ACAD_MTEXT_DEFINED_HEIGHT_BEGIN
1070
    46
1040
6.292658374511495
1000
ACAD_MTEXT_DEFINED_HEIGHT_END
  0
MTEXT
  5
86337
330
47460
100
AcDbEntity
  8
图框
 62
     3
100
AcDbMText
 10
1063.722665487208
 20
525.4145966538831
 30
0.0
 40
2.985513575034151
 41
32.4973914334545
 71
     5
 72
     5
  1
-
  7
Romans字体
 73
     1
 44
1.0
1001
AcDbBlockRepETag
1070
     1
1071
        4
1005
86337
1001
ACAD
1000
ACAD_MTEXT_DEFINED_HEIGHT_BEGIN
1070
    46
1040
11.82914190181707
1000
ACAD_MTEXT_DEFINED_HEIGHT_END
  0
MTEXT
  5
86338
330
47460
100
AcDbEntity
  8
图框
 62
     3
100
AcDbMText
 10
1063.727338552349
 20
513.5854547520641
 30
0.0
 40
2.985513575034151
 41
32.48804530317308
 71
     5
 72
     5
  1
-
  7
Romans字体
 73
     1
 44
1.0
1001
AcDbBlockRepETag
1070
     1
1071
        5
1005
86338
1001
ACAD
1000
ACAD_MTEXT_DEFINED_HEIGHT_BEGIN
1070
    46
1040
11.82914190182139
1000
ACAD_MTEXT_DEFINED_HEIGHT_END
  0
MTEXT
  5
86339
330
47460
100
AcDbEntity
  8
图框
 62
     3
100
AcDbMText
 10
1110.122306614152
 20
526.8006839312707
 30
0.0
 40
2.985513575034151
 41
33.61239199242139
 71
     5
 72
     5
  1
-
  7
Romans字体
 73
     1
 44
1.0
1001
AcDbBlockRepETag
1070
     1
1071
        6
1005
86339
1001
ACAD
1000
ACAD_MTEXT_DEFINED_HEIGHT_BEGIN
1070
    46
1040
9.05696734704178
1000
ACAD_MTEXT_DEFINED_HEIGHT_END
  0
MTEXT
  5
8633A
330
47460
100
AcDbEntity
  8
图框
 62
     3
100
AcDbMText
 10
1110.122306614152
 20
500.2775205517162
 30
0.0
 40
2.985513575034151
 41
33.61239199242139
 71
     5
 72
     5
  1
-
  7
Romans字体
 73
     1
 44
1.0
1001
AcDbBlockRepETag
1070
     1
1071
        7
1005
8633A
1001
ACAD
1000
ACAD_MTEXT_DEFINED_HEIGHT_BEGIN
1070
    46
1040
8.871557304763419
1000
ACAD_MTEXT_DEFINED_HEIGHT_END
  0
MTEXT
  5
8633B
330
47460
100
AcDbEntity
  8
图框
 62
     3
100
AcDbMText
 10
967.6594956750133
 20
493.4737568219182
 30
0.0
 40
2.985513575034151
 41
15.50176341157864
 71
     5
 72
     5
  1
ZW WU
  7
Romans字体
 73
     1
 44
1.0
1001
AcDbBlockRepETag
1070
     1
1071
        8
1005
8633B
1001
ACAD
1000
ACAD_MTEXT_DEFINED_HEIGHT_BEGIN
1070
    46
1040
6.292658374510335
1000
ACAD_MTEXT_DEFINED_HEIGHT_END
  0
MTEXT
  5
8633C
330
47460
100
AcDbEntity
  8
图框
 62
     3
100
AcDbMText
 10
983.041569333247
 20
493.2441970450405
 30
0.0
 40
2.487927979195124
 41
15.26238390489051
 71
     5
 72
     5
  1
{\W0.7;18.10.2016}
  7
Romans字体
 73
     1
 44
1.0
1001
AcDbBlockRepETag
1070
     1
1071
        9
1005
8633C
1001
ACAD
1000
ACAD_MTEXT_DEFINED_HEIGHT_BEGIN
1070
    46
1040
6.751777928266487
1000
ACAD_MTEXT_DEFINED_HEIGHT_END
  0
MTEXT
  5
8633D
330
47460
100
AcDbEntity
  8
图框
 62
     3
100
AcDbMText
 10
1012.477254728976
 20
499.7664151964291
 30
0.0
 40
2.985513575034151
 41
17.64876416884615
 71
     5
 72
     5
  1
-
  7
Romans字体
 73
     1
 44
1.0
1001
AcDbBlockRepETag
1070
     1
1071
       10
1005
8633D
1001
ACAD
1000
ACAD_MTEXT_DEFINED_HEIGHT_BEGIN
1070
    46
1040
6.292658374511397
1000
ACAD_MTEXT_DEFINED_HEIGHT_END
  0
MTEXT
  5
8633E
330
47460
100
AcDbEntity
  8
图框
 62
     3
100
AcDbMText
 10
1028.977802139886
 20
499.7664151964289
 30
0.0
 40
2.487927979195124
 41
15.35233065297265
 71
     5
 72
     5
  1
-
  7
Romans字体
 73
     1
 44
1.0
1001
AcDbBlockRepETag
1070
     1
1071
       11
1005
8633E
1001
ACAD
1000
ACAD_MTEXT_DEFINED_HEIGHT_BEGIN
1070
    46
1040
6.292658374511382
1000
ACAD_MTEXT_DEFINED_HEIGHT_END
  0
MTEXT
  5
8633F
330
47460
100
AcDbEntity
  8
图框
 62
     3
100
AcDbMText
 10
967.6594956750133
 20
487.1810984474071
 30
0.0
 40
2.985513575034151
 41
15.50176341157863
 71
     5
 72
     5
  1
-
  7
Romans字体
 73
     1
 44
1.0
1001
AcDbBlockRepETag
1070
     1
1071
       12
1005
8633F
1001
ACAD
1000
ACAD_MTEXT_DEFINED_HEIGHT_BEGIN
1070
    46
1040
6.292658374511478
1000
ACAD_MTEXT_DEFINED_HEIGHT_END
  0
MTEXT
  5
86340
330
47460
100
AcDbEntity
  8
图框
 62
     3
100
AcDbMText
 10
983.041569333247
 20
487.1810984474071
 30
0.0
 40
2.487927979195124
 41
15.26238390489062
 71
     5
 72
     5
  1
-
  7
Romans字体
 73
     1
 44
1.0
1001
AcDbBlockRepETag
1070
     1
1071
       13
1005
86340
1001
ACAD
1000
ACAD_MTEXT_DEFINED_HEIGHT_BEGIN
1070
    46
1040
6.292658374511495
1000
ACAD_MTEXT_DEFINED_HEIGHT_END
  0
MTEXT
  5
86341
330
47460
100
AcDbEntity
  8
图框
 62
     3
100
AcDbMText
 10
1074.556686986741
 20
495.8417418993361
 30
0.0
 40
2.985513575034151
 41
10.82934843438978
 71
     5
 72
     5
  1
-
  7
Romans字体
 73
     1
 44
1.0
1001
AcDbBlockRepETag
1070
     1
1071
       14
1005
86341
1001
ACAD
1000
ACAD_MTEXT_DEFINED_HEIGHT_BEGIN
1070
    46
1040
7.886094601210427
1000
ACAD_MTEXT_DEFINED_HEIGHT_END
  0
LINE
  5
86342
330
47460
100
AcDbEntity
  8
图框
370
    -3
100
AcDbLine
 10
1036.653967466372
 20
499.7847891999413
 30
0.0
 11
1079.971361203936
 21
499.7847891999413
 31
0.0
1001
AcDbBlockRepETag
1070
     1
1071
       15
1005
86342
  0
MTEXT
  5
86343
330
47460
100
AcDbEntity
  8
图框
 62
     1
370
    20
100
AcDbMText
 10
1108.26336443907
 20
491.5162596080882
 30
0.0
 40
2.699054613030988
 41
82.30831305643079
 71
     5
 72
     5
  1
{\fSimHei|b0|i0|c134|p2;厦门唯恩电气有限公司}
 73
     1
 44
1.0
1001
AcDbBlockRepETag
1070
     1
1071
       16
1005
86343
  0
MTEXT
  5
86344
330
47460
100
AcDbEntity
  8
图框
 62
     3
370
    20
100
AcDbMText
 10
1108.435451459908
 20
487.298967726064
 30
0.0
 40
1.652482416141417
 41
68.08558693693567
 71
     5
 72
     5
  1
{\fArial Narrow|b0|i0|c0|p34;XIAMEN WAIN ELECTRICAL CO.LTD}
  7
工程字
 73
     1
 44
1.0
1001
AcDbBlockRepETag
1070
     1
1071
       17
1005
86344
  0
MTEXT
  5
86345
330
47460
100
AcDbEntity
  8
图框
 62
     1
370
    20
100
AcDbMText
 10
1085.711816899387
 20
491.0944802995856
 30
0.0
 40
2.005930044038334
 41
5.047240019334847
 71
     1
 72
     5
  1
{\fArial|b0|i0|c0|p34;A}
  7
Chinese
 73
     1
 44
1.0
1001
AcDbBlockRepETag
1070
     1
1071
       18
1005
86345
  0
MTEXT
  5
86346
330
47460
100
AcDbEntity
  8
图框
 62
     1
370
    20
100
AcDbMText
 10
1088.213485935716
 20
491.0944802995856
 30
0.0
 40
2.005930044038334
 41
5.047240019334847
 71
     1
 72
     5
  1
{\fArial|b0|i0|c0|p34;I}
  7
Chinese
 73
     1
 44
1.0
1001
AcDbBlockRepETag
1070
     1
1071
       19
1005
86346
  0
MTEXT
  5
86347
330
47460
100
AcDbEntity
  8
图框
 62
     1
370
    20
100
AcDbMText
 10
1089.142375222864
 20
491.0822866326808
 30
0.0
 40
2.005930044038334
 41
5.047240019334847
 71
     1
 72
     5
  1
{\fArial|b0|i0|c0|p34;N}
  7
Chinese
 73
     1
 44
1.0
1001
AcDbBlockRepETag
1070
     1
1071
       20
1005
86347
  0
MTEXT
  5
86348
330
47460
100
AcDbEntity
  8
图框
100
AcDbMText
 10
1069.142012769545
 20
487.9667319294409
 30
0.0
 40
2.252848170144607
 41
21.65869686878327
 71
     5
 72
     5
  1
{\W0.5;\C1;All Dimensions in mm\POriginal Size DIN A 4}
  7
Romans字体
 73
     1
 44
1.0
1001
AcDbBlockRepETag
1070
     1
1071
       21
1005
86348
1001
ACAD
1000
ACAD_MTEXT_DEFINED_HEIGHT_BEGIN
1070
    46
1040
7.863925338579296
1000
ACAD_MTEXT_DEFINED_HEIGHT_END
  0
MTEXT
  5
86349
330
47460
100
AcDbEntity
  8
图框
  6
ByBlock
 62
     6
370
    18
100
AcDbMText
 10
1127.40434942308
 20
508.7896535755975
 30
0.0
 40
2.651776162684904
 41
2.557913877927211
 71
     1
 72
     5
  1
A
  7
Romans字体
 11
0.0000000000000001
 21
1.0
 31
0.0
 73
     1
 44
1.0
1001
AcDbBlockRepETag
1070
     1
1071
       22
1005
86349
  0
MTEXT
  5
8634A
330
47460
100
AcDbEntity
  8
图框
 62
     6
100
AcDbMText
 10
1127.40434942308
 20
556.3746573232886
 30
0.0
 40
2.651776162684904
 41
2.557913877927211
 71
     1
 72
     5
  1
B
  7
Romans字体
 11
0.0000000000000001
 21
1.0
 31
0.0
 73
     1
 44
1.0
1001
AcDbBlockRepETag
1070
     1
1071
       23
1005
8634A
  0
MTEXT
  5
8634B
330
47460
100
AcDbEntity
  8
图框
 62
     6
100
AcDbMText
 10
1127.40434942308
 20
607.5539372630998
 30
0.0
 40
2.651776162684904
 41
2.557913877927211
 71
     1
 72
     5
  1
C
  7
Romans字体
 11
0.0000000000000001
 21
1.0
 31
0.0
 73
     1
 44
1.0
1001
AcDbBlockRepETag
1070
     1
1071
       24
1005
8634B
  0
MTEXT
  5
8634C
330
47460
100
AcDbEntity
  8
图框
 62
     6
100
AcDbMText
 10
1127.40434942308
 20
658.7332172029115
 30
0.0
 40
2.651776162684904
 41
2.557913877927211
 71
     1
 72
     5
  1
D
  7
Romans字体
 11
0.0000000000000001
 21
1.0
 31
0.0
 73
     1
 44
1.0
1001
AcDbBlockRepETag
1070
     1
1071
       25
1005
8634C
  0
LINE
  5
8634D
330
47460
100
AcDbEntity
  8
图框
 62
     6
100
AcDbLine
 10
1130.411601781241
 20
634.0726090796082
 30
0.0
 11
1126.928502610363
 21
634.0726090796082
 31
0.0
1001
AcDbBlockRepETag
1070
     1
1071
       26
1005
8634D
  0
LINE
  5
8634E
330
47460
100
AcDbEntity
  8
图框
 62
     6
100
AcDbLine
 10
1130.411601781241
 20
582.89332913979
 30
0.0
 11
1126.928502610363
 21
582.89332913979
 31
0.0
1001
AcDbBlockRepETag
1070
     1
1071
       27
1005
8634E
  0
MTEXT
  5
8634F
330
47460
100
AcDbEntity
  8
图框
 62
     6
100
AcDbMText
 10
1105.329704038389
 20
483.6164543011163
 30
0.0
 40
2.651776162684904
 41
2.557913877927211
 71
     1
 72
     5
  1
6
  7
Romans字体
 73
     1
 44
1.0
1001
AcDbBlockRepETag
1070
     1
1071
       28
1005
8634F
  0
LINE
  5
86350
330
47460
100
AcDbEntity
  8
图框
 62
     6
100
AcDbLine
 10
1081.088565155284
 20
484.0347692601515
 30
0.0
 11
1081.088565155284
 21
480.5347692601475
 31
0.0
1001
AcDbBlockRepETag
1070
     1
1071
       29
1005
86350
  0
MTEXT
  5
86351
330
47460
100
AcDbEntity
  8
图框
 62
     6
100
AcDbMText
 10
1055.900596365941
 20
483.520053108993
 30
0.0
 40
2.651776162684904
 41
2.557913877927211
 71
     1
 72
     5
  1
5
  7
Romans字体
 73
     1
 44
1.0
1001
AcDbBlockRepETag
1070
     1
1071
       30
1005
86351
  0
LINE
  5
86352
330
47460
100
AcDbEntity
  8
图框
 62
     6
100
AcDbLine
 10
1031.553386436349
 20
484.0347692601515
 30
0.0
 11
1031.553386436349
 21
480.5347692601475
 31
0.0
1001
AcDbBlockRepETag
1070
     1
1071
       31
1005
86352
  0
MTEXT
  5
86353
330
47460
100
AcDbEntity
  8
图框
 62
     6
100
AcDbMText
 10
1006.383180575197
 20
483.5687958215896
 30
0.0
 40
2.651776162684904
 41
2.557913877927211
 71
     1
 72
     5
  1
4
  7
Romans字体
 73
     1
 44
1.0
1001
AcDbBlockRepETag
1070
     1
1071
       32
1005
86353
  0
LINE
  5
86354
330
47460
100
AcDbEntity
  8
图框
 62
     6
100
AcDbLine
 10
982.0182077173887
 20
484.0347692601515
 30
0.0
 11
982.0182077173887
 21
480.5347692601475
 31
0.0
1001
AcDbBlockRepETag
1070
     1
1071
       33
1005
86354
  0
MTEXT
  5
86355
330
47460
100
AcDbEntity
  8
图框
 62
     6
100
AcDbMText
 10
956.8302389280352
 20
483.5989680297948
 30
0.0
 40
2.651776162684904
 41
2.557913877927211
 71
     1
 72
     5
  1
3
  7
Romans字体
 73
     1
 44
1.0
1001
AcDbBlockRepETag
1070
     1
1071
       34
1005
86355
  0
LINE
  5
86356
330
47460
100
AcDbEntity
  8
图框
 62
     6
100
AcDbLine
 10
932.4830289984245
 20
484.0347692601515
 30
0.0
 11
932.4830289984245
 21
480.5347692601475
 31
0.0
1001
AcDbBlockRepETag
1070
     1
1071
       35
1005
86356
  0
MTEXT
  5
86357
330
47460
100
AcDbEntity
  8
图框
 62
     6
100
AcDbMText
 10
906.0252349826365
 20
483.6475250013156
 30
0.0
 40
2.651776162684904
 41
2.557913877927211
 71
     1
 72
     5
  1
2
  7
Romans字体
 73
     1
 44
1.0
1001
AcDbBlockRepETag
1070
     1
1071
       36
1005
86357
  0
LINE
  5
86358
330
47460
100
AcDbEntity
  8
图框
 62
     6
100
AcDbLine
 10
882.9478502794648
 20
484.0347692601515
 30
0.0
 11
882.9478502794648
 21
480.5347692601475
 31
0.0
1001
AcDbBlockRepETag
1070
     1
1071
       37
1005
86358
  0
MTEXT
  5
86359
330
47460
100
AcDbEntity
  8
图框
 62
     6
100
AcDbMText
 10
857.7598814901191
 20
483.651829494754
 30
0.0
 40
2.651776162684904
 41
2.557913877927211
 71
     1
 72
     5
  1
1
  7
Romans字体
 73
     1
 44
1.0
1001
AcDbBlockRepETag
1070
     1
1071
       38
1005
86359
  0
LINE
  5
8635A
330
47460
100
AcDbEntity
  8
图框
370
    50
100
AcDbLine
 10
836.8548209370597
 20
484.0347692601515
 30
0.0
 11
1126.928502610363
 21
484.0347692601515
 31
0.0
1001
AcDbBlockRepETag
1070
     1
1071
       39
1005
8635A
  0
LINE
  5
8635B
330
47460
100
AcDbEntity
  8
图框
370
    50
100
AcDbLine
 10
836.9128518455362
 20
484.0178684310246
 30
0.0
 11
836.9128518455394
 21
675.0207195125422
 31
0.0
1001
AcDbBlockRepETag
1070
     1
1071
       40
1005
8635B
  0
MTEXT
  5
8635C
330
47460
100
AcDbEntity
  8
图框
 62
     6
100
AcDbMText
 10
833.8475685789031
 20
658.7332172029115
 30
0.0
 40
2.651776162684904
 41
2.557913877927211
 71
     1
 72
     5
  1
D
  7
Romans字体
 11
0.0000000000000001
 21
1.0
 31
0.0
 73
     1
 44
1.0
1001
AcDbBlockRepETag
1070
     1
1071
       41
1005
8635C
  0
LINE
  5
8635D
330
47460
100
AcDbEntity
  8
图框
 62
     6
100
AcDbLine
 10
836.9128518455386
 20
634.0726090796082
 30
0.0
 11
833.4128518455365
 21
634.0726090796082
 31
0.0
1001
AcDbBlockRepETag
1070
     1
1071
       42
1005
8635D
  0
MTEXT
  5
8635E
330
47460
100
AcDbEntity
  8
图框
 62
     6
100
AcDbMText
 10
833.9039177480142
 20
607.5539372630998
 30
0.0
 40
2.651776162684904
 41
2.557913877927211
 71
     1
 72
     5
  1
C
  7
Romans字体
 11
0.0000000000000001
 21
1.0
 31
0.0
 73
     1
 44
1.0
1001
AcDbBlockRepETag
1070
     1
1071
       43
1005
8635E
  0
LINE
  5
8635F
330
47460
100
AcDbEntity
  8
图框
 62
     6
100
AcDbLine
 10
836.9128518455378
 20
582.89332913979
 30
0.0
 11
833.4128518455365
 21
582.89332913979
 31
0.0
1001
AcDbBlockRepETag
1070
     1
1071
       44
1005
8635F
  0
MTEXT
  5
86360
330
47460
100
AcDbEntity
  8
图框
 62
     6
100
AcDbMText
 10
833.9039177480142
 20
556.3746573232886
 30
0.0
 40
2.651776162684904
 41
2.557913877927211
 71
     1
 72
     5
  1
B
  7
Romans字体
 11
0.0000000000000001
 21
1.0
 31
0.0
 73
     1
 44
1.0
1001
AcDbBlockRepETag
1070
     1
1071
       45
1005
86360
  0
LINE
  5
86361
330
47460
100
AcDbEntity
  8
图框
 62
     6
100
AcDbLine
 10
836.9128518455367
 20
531.714049199969
 30
0.0
 11
833.4128518455365
 21
531.714049199969
 31
0.0
1001
AcDbBlockRepETag
1070
     1
1071
       46
1005
86361
  0
MTEXT
  5
86362
330
47460
100
AcDbEntity
  8
图框
 62
     6
100
AcDbMText
 10
833.9039177480142
 20
508.7896535755975
 30
0.0
 40
2.651776162684904
 41
2.557913877927211
 71
     1
 72
     5
  1
A
  7
Romans字体
 11
0.0000000000000001
 21
1.0
 31
0.0
 73
     1
 44
1.0
1001
AcDbBlockRepETag
1070
     1
1071
       47
1005
86362
  0
LINE
  5
86363
330
47460
100
AcDbEntity
  8
图框
370
    -3
100
AcDbLine
 10
836.9128518455394
 20
675.0207195125422
 30
0.0
 11
836.9128518455394
 21
684.5021384922564
 31
0.0
1001
AcDbBlockRepETag
1070
     1
1071
       48
1005
86363
  0
LINE
  5
86364
330
47460
100
AcDbEntity
  8
图框
370
    -3
100
AcDbLine
 10
842.6237321475781
 20
675.5347692601515
 30
0.0
 11
842.6237321475781
 21
685.0161882398658
 31
0.0
1001
AcDbBlockRepETag
1070
     1
1071
       49
1005
86364
  0
LINE
  5
86365
330
47460
100
AcDbEntity
  8
图框
370
    -3
100
AcDbLine
 10
848.3346124496179
 20
675.5347692601515
 30
0.0
 11
848.3346124496179
 21
685.0161882398658
 31
0.0
1001
AcDbBlockRepETag
1070
     1
1071
       50
1005
86365
  0
LINE
  5
86366
330
47460
100
AcDbEntity
  8
图框
370
    -3
100
AcDbLine
 10
854.0454927516588
 20
675.5347692601515
 30
0.0
 11
854.0454927516588
 21
685.0161882398658
 31
0.0
1001
AcDbBlockRepETag
1070
     1
1071
       51
1005
86366
  0
LINE
  5
86367
330
47460
100
AcDbEntity
  8
图框
370
    -3
100
AcDbLine
 10
861.5351874539182
 20
675.5347692601515
 30
0.0
 11
861.5351874539182
 21
686.7901958362482
 31
0.0
1001
AcDbBlockRepETag
1070
     1
1071
       52
1005
86367
  0
MTEXT
  5
86368
330
47460
100
AcDbEntity
  8
图框
 62
     6
100
AcDbMText
 10
1105.329704038389
 20
678.859919059449
 30
0.0
 40
2.651776162684904
 41
2.557913877927211
 71
     1
 72
     5
  1
6
  7
Romans字体
 73
     1
 44
1.0
1001
AcDbBlockRepETag
1070
     1
1071
       53
1005
86368
  0
LINE
  5
86369
330
47460
100
AcDbEntity
  8
图框
 62
     6
100
AcDbLine
 10
1081.088565155284
 20
679.0347692601516
 30
0.0
 11
1081.088565155284
 21
675.5347692601515
 31
0.0
1001
AcDbBlockRepETag
1070
     1
1071
       54
1005
86369
  0
MTEXT
  5
8636A
330
47460
100
AcDbEntity
  8
图框
 62
     6
100
AcDbMText
 10
1055.900596365941
 20
678.859919059449
 30
0.0
 40
2.651776162684904
 41
2.557913877927211
 71
     1
 72
     5
  1
5
  7
Romans字体
 73
     1
 44
1.0
1001
AcDbBlockRepETag
1070
     1
1071
       55
1005
8636A
  0
LINE
  5
8636B
330
47460
100
AcDbEntity
  8
图框
 62
     6
100
AcDbLine
 10
1031.553386436349
 20
679.0347692601516
 30
0.0
 11
1031.553386436349
 21
675.5347692601515
 31
0.0
1001
AcDbBlockRepETag
1070
     1
1071
       56
1005
8636B
  0
MTEXT
  5
8636C
330
47460
100
AcDbEntity
  8
图框
 62
     6
100
AcDbMText
 10
1006.36541764698
 20
678.7312083656147
 30
0.0
 40
2.651776162684904
 41
2.557913877927211
 71
     1
 72
     5
  1
4
  7
Romans字体
 73
     1
 44
1.0
1001
AcDbBlockRepETag
1070
     1
1071
       57
1005
8636C
  0
LINE
  5
8636D
330
47460
100
AcDbEntity
  8
图框
 62
     6
100
AcDbLine
 10
982.0182077173887
 20
679.0347692601516
 30
0.0
 11
982.0182077173887
 21
675.5347692601515
 31
0.0
1001
AcDbBlockRepETag
1070
     1
1071
       58
1005
8636D
  0
MTEXT
  5
8636E
330
47460
100
AcDbEntity
  8
图框
 62
     6
100
AcDbMText
 10
956.8302389280352
 20
678.859919059449
 30
0.0
 40
2.651776162684904
 41
2.557913877927211
 71
     1
 72
     5
  1
3
  7
Romans字体
 73
     1
 44
1.0
1001
AcDbBlockRepETag
1070
     1
1071
       59
1005
8636E
  0
LINE
  5
8636F
330
47460
100
AcDbEntity
  8
图框
 62
     6
100
AcDbLine
 10
932.4830289984245
 20
679.0347692601516
 30
0.0
 11
932.4830289984245
 21
675.5347692601515
 31
0.0
1001
AcDbBlockRepETag
1070
     1
1071
       60
1005
8636F
  0
MTEXT
  5
86370
330
47460
100
AcDbEntity
  8
图框
 62
     6
100
AcDbMText
 10
907.295060209082
 20
678.859919059449
 30
0.0
 40
2.651776162684904
 41
2.557913877927211
 71
     1
 72
     5
  1
2
  7
Romans字体
 73
     1
 44
1.0
1001
AcDbBlockRepETag
1070
     1
1071
       61
1005
86370
  0
LINE
  5
86371
330
47460
100
AcDbEntity
  8
图框
 62
     6
100
AcDbLine
 10
882.9478502794648
 20
678.7962435131815
 30
0.0
 11
882.9478502794648
 21
675.5347692601515
 31
0.0
1001
AcDbBlockRepETag
1070
     1
1071
       62
1005
86371
  0
MTEXT
  5
86372
330
47460
100
AcDbEntity
  8
图框
 62
     6
100
AcDbMText
 10
862.6286629643733
 20
678.859919059449
 30
0.0
 40
2.651776162684904
 41
2.557913877927211
 71
     1
 72
     5
  1
1
  7
Romans字体
 73
     1
 44
1.0
1001
AcDbBlockRepETag
1070
     1
1071
       63
1005
86372
  0
LINE
  5
86373
330
47460
100
AcDbEntity
  8
图框
370
    -3
100
AcDbLine
 10
836.9128518455394
 20
675.0207195125422
 30
0.0
 11
836.9128518455394
 21
686.7901958362482
 31
0.0
1001
AcDbBlockRepETag
1070
     1
1071
       64
1005
86373
  0
LINE
  5
86374
330
47460
100
AcDbEntity
  8
图框
370
    50
100
AcDbLine
 10
836.9128518455394
 20
675.5347692601515
 30
0.0
 11
1126.928502610363
 21
675.5347692601515
 31
0.0
1001
AcDbBlockRepETag
1070
     1
1071
       65
1005
86374
  0
LINE
  5
86375
330
47460
100
AcDbEntity
  8
图框
370
    -3
100
AcDbLine
 10
842.6237321475781
 20
675.5347692601515
 30
0.0
 11
842.6237321475781
 21
686.7901958362482
 31
0.0
1001
AcDbBlockRepETag
1070
     1
1071
       66
1005
86375
  0
LINE
  5
86376
330
47460
100
AcDbEntity
  8
图框
370
    -3
100
AcDbLine
 10
848.3346124496179
 20
675.5347692601515
 30
0.0
 11
848.3346124496179
 21
686.7901958362482
 31
0.0
1001
AcDbBlockRepETag
1070
     1
1071
       67
1005
86376
  0
MTEXT
  5
86377
102
{ACAD_XDICTIONARY
360
87286
102
}
330
47460
100
AcDbEntity
  8
图框
100
AcDbMText
 10
857.7903401027889
 20
686.7901958362482
 30
0.0
 40
1.958998408821398
 41
11.25542657609672
 71
     4
 72
     5
  1
\pi2.8203;档案员{\H0.7x;\P\pi1.4159;\Fromans|c134;Filing Clerk\fFangSong_GB2312|b0|i0|c134|p49; }
 11
-0.0000000000000002
 21
-1.0
 31
0.0
 73
     1
 44
1.0
1001
AcDbBlockRepETag
1070
     1
1071
       68
1005
86377
1001
ACAD
1000
ACAD_MTEXT_DEFINED_HEIGHT_BEGIN
1070
    46
1040
7.489694702258906
1000
ACAD_MTEXT_DEFINED_HEIGHT_END
  0
MTEXT
  5
86378
102
{ACAD_XDICTIONARY
360
87288
102
}
330
47460
100
AcDbEntity
  8
图框
100
AcDbMText
 10
845.479172298598
 20
686.7901958362482
 30
0.0
 40
1.958998408821398
 41
11.25542657609672
 71
     4
 72
     5
  1
\pi0.7115;日期{\Fromans|c134;/Date}
 11
-0.0000000000000002
 21
-1.0
 31
0.0
 73
     1
 44
1.0
1001
AcDbBlockRepETag
1070
     1
1071
       69
1005
86378
1001
ACAD
1000
ACAD_MTEXT_DEFINED_HEIGHT_BEGIN
1070
    46
1040
5.710880302039671
1000
ACAD_MTEXT_DEFINED_HEIGHT_END
  0
LINE
  5
86379
330
47460
100
AcDbEntity
  8
图框
370
    -3
100
AcDbLine
 10
854.0454927516588
 20
675.5347692601515
 30
0.0
 11
854.0454927516588
 21
686.7901958362482
 31
0.0
1001
AcDbBlockRepETag
1070
     1
1071
       70
1005
86379
  0
LINE
  5
8637A
330
47460
100
AcDbEntity
  8
图框
370
    -3
100
AcDbLine
 10
1036.653967466372
 20
531.3291676047914
 30
0.0
 11
1036.653967466372
 21
484.0126019753161
 31
0.0
1001
AcDbBlockRepETag
1070
     1
1071
       71
1005
8637A
  0
LINE
  5
8637B
330
47460
100
AcDbEntity
  8
图框
370
    -3
100
AcDbLine
 10
1047.483315900763
 20
507.6708838011533
 30
0.0
 11
1047.483315900763
 21
491.8986945987308
 31
0.0
1001
AcDbBlockRepETag
1070
     1
1071
       72
1005
8637B
  0
LINE
  5
8637C
330
47460
100
AcDbEntity
  8
图框
370
    -3
100
AcDbLine
 10
1058.312664335153
 20
507.6708838011533
 30
0.0
 11
1058.312664335153
 21
484.0347692601515
 31
0.0
1001
AcDbBlockRepETag
1070
     1
1071
       73
1005
8637C
  0
LINE
  5
8637D
330
47460
100
AcDbEntity
  8
图框
370
    25
100
AcDbLine
 10
1048.474135214456
 20
488.1095628329926
 30
0.0
 11
1054.946420288459
 21
488.1095628329926
 31
0.0
1001
AcDbBlockRepETag
1070
     1
1071
       74
1005
8637D
  0
LINE
  5
8637E
330
47460
100
AcDbEntity
  8
图框
370
    25
100
AcDbLine
 10
1054.232527365989
 20
487.0761716842634
 30
0.0
 11
1049.156490914508
 21
486.4576273751
 31
0.0
1001
AcDbBlockRepETag
1070
     1
1071
       75
1005
8637E
  0
LINE
  5
8637F
330
47460
100
AcDbEntity
  8
图框
370
    25
100
AcDbLine
 10
1054.232527365989
 20
489.1429539817209
 30
0.0
 11
1049.156490914508
 21
489.7614982908846
 31
0.0
1001
AcDbBlockRepETag
1070
     1
1071
       76
1005
8637F
  0
LINE
  5
86380
330
47460
100
AcDbEntity
  8
图框
370
    25
100
AcDbLine
 10
1049.156490914508
 20
489.7614982908846
 30
0.0
 11
1049.156490914508
 21
486.4576273751
 31
0.0
1001
AcDbBlockRepETag
1070
     1
1071
       77
1005
86380
  0
LINE
  5
86381
330
47460
100
AcDbEntity
  8
图框
370
    25
100
AcDbLine
 10
1054.232527365989
 20
489.1429539817209
 30
0.0
 11
1054.232527365989
 21
487.0761716842634
 31
0.0
1001
AcDbBlockRepETag
1070
     1
1071
       78
1005
86381
  0
CIRCLE
  5
86382
330
47460
100
AcDbEntity
  8
图框
370
    25
100
AcDbCircle
 10
1042.502700458579
 20
488.1095628329926
 30
0.0
 40
1.651935457891863
1001
AcDbBlockRepETag
1070
     1
1071
       79
1005
86382
  0
CIRCLE
  5
86383
330
47460
100
AcDbEntity
  8
图框
370
    25
100
AcDbCircle
 10
1042.502700458579
 20
488.1095628329926
 30
0.0
 40
1.033391148728775
1001
AcDbBlockRepETag
1070
     1
1071
       80
1005
86383
  0
LINE
  5
86384
330
47460
100
AcDbEntity
  8
图框
370
    25
100
AcDbLine
 10
1040.136872078216
 20
488.1095628329926
 30
0.0
 11
1044.868528838943
 21
488.1095628329926
 31
0.0
1001
AcDbBlockRepETag
1070
     1
1071
       81
1005
86384
  0
LINE
  5
86385
330
47460
100
AcDbEntity
  8
图框
370
    25
100
AcDbLine
 10
1042.502700458579
 20
490.475391213355
 30
0.0
 11
1042.502700458579
 21
485.743734452629
 31
0.0
1001
AcDbBlockRepETag
1070
     1
1071
       82
1005
86385
  0
LINE
  5
86386
330
47460
100
AcDbEntity
  8
图框
370
    -3
100
AcDbLine
 10
1069.142012769546
 20
507.6708838011533
 30
0.0
 11
1069.142012769546
 21
491.8986945987308
 31
0.0
1001
AcDbBlockRepETag
1070
     1
1071
       83
1005
86386
  0
MTEXT
  5
86387
330
47460
100
AcDbEntity
  8
图框
100
AcDbMText
 10
1086.643735910939
 20
526.8006839312707
 30
0.0
 40
2.154898249703542
 41
13.34474941400573
 71
     5
 72
     5
  1
图号{\Ftxt|c134;\P\Fromans|c134;\W0.65;Drawing No.}
 73
     1
 44
1.0
1001
AcDbBlockRepETag
1070
     1
1071
       84
1005
86387
1001
ACAD
1000
ACAD_MTEXT_DEFINED_HEIGHT_BEGIN
1070
    46
1040
9.056967347041776
1000
ACAD_MTEXT_DEFINED_HEIGHT_END
  0
LINE
  5
86388
330
47460
100
AcDbEntity
  8
图框
370
    -3
100
AcDbLine
 10
1093.316110617942
 20
531.3291676047914
 30
0.0
 11
1093.316110617942
 21
495.8417418993347
 31
0.0
1001
AcDbBlockRepETag
1070
     1
1071
       85
1005
86388
  0
LINE
  5
86389
330
47460
100
AcDbEntity
  8
图框
370
    -3
100
AcDbLine
 10
1047.473969770481
 20
531.3291676047914
 30
0.0
 11
1047.473969770481
 21
507.6708838011533
 31
0.0
1001
AcDbBlockRepETag
1070
     1
1071
       86
1005
86389
  0
MTEXT
  5
8638A
330
47460
100
AcDbEntity
  8
图框
100
AcDbMText
 10
1063.72733855235
 20
503.7278365005473
 30
0.0
 40
2.252848170144607
 41
10.82934843439208
 71
     5
 72
     5
  1
重量\P{\Fromans|c134;Weight}
 73
     1
 44
1.0
1001
AcDbBlockRepETag
1070
     1
1071
       87
1005
8638A
1001
ACAD
1000
ACAD_MTEXT_DEFINED_HEIGHT_BEGIN
1070
    46
1040
7.886094601212128
1000
ACAD_MTEXT_DEFINED_HEIGHT_END
  0
LINE
  5
8638B
330
47460
100
AcDbEntity
  8
图框
370
    -3
100
AcDbLine
 10
1036.653967466372
 20
519.5000257029746
 30
0.0
 11
1079.971361203936
 21
519.5000257029746
 31
0.0
1001
AcDbBlockRepETag
1070
     1
1071
       88
1005
8638B
  0
MTEXT
  5
8638C
330
47460
100
AcDbEntity
  8
图框
100
AcDbMText
 10
1074.556686986741
 20
503.7278365005473
 30
0.0
 40
2.252848170144607
 41
10.82934843438984
 71
     5
 72
     5
  1
数量\P{\Fromans|c134;Qty.}
 73
     1
 44
1.0
1001
AcDbBlockRepETag
1070
     1
1071
       89
1005
8638C
1001
ACAD
1000
ACAD_MTEXT_DEFINED_HEIGHT_BEGIN
1070
    46
1040
7.886094601212141
1000
ACAD_MTEXT_DEFINED_HEIGHT_END
  0
LINE
  5
8638D
330
47460
100
AcDbEntity
  8
图框
370
    -3
100
AcDbLine
 10
1079.971361203936
 20
495.8417418993347
 30
0.0
 11
1126.928502610363
 21
495.8417418993342
 31
0.0
1001
AcDbBlockRepETag
1070
     1
1071
       90
1005
8638D
  0
LINE
  5
8638E
330
47460
100
AcDbEntity
  8
图框
370
    -3
100
AcDbLine
 10
1079.971361203936
 20
504.7132992040975
 30
0.0
 11
1126.928502610363
 21
504.7132992040975
 31
0.0
1001
AcDbBlockRepETag
1070
     1
1071
       91
1005
8638E
  0
MTEXT
  5
8638F
330
47460
100
AcDbEntity
  8
图框
100
AcDbMText
 10
1052.893317052817
 20
503.7278365005473
 30
0.0
 40
2.252848170144607
 41
10.83869456467139
 71
     5
 72
     5
  1
版本\P{\Fromans|c134;REV.}
 73
     1
 44
1.0
1001
AcDbBlockRepETag
1070
     1
1071
       92
1005
8638F
1001
ACAD
1000
ACAD_MTEXT_DEFINED_HEIGHT_BEGIN
1070
    46
1040
7.886094601212101
1000
ACAD_MTEXT_DEFINED_HEIGHT_END
  0
MTEXT
  5
86390
330
47460
100
AcDbEntity
  8
图框
100
AcDbMText
 10
1042.068641683568
 20
503.7278365005473
 30
0.0
 40
2.252848170144607
 41
10.8293484343908
 71
     5
 72
     5
  1
比例\P{\Fromans|c134;Scale}
 73
     1
 44
1.0
1001
AcDbBlockRepETag
1070
     1
1071
       93
1005
86390
1001
ACAD
1000
ACAD_MTEXT_DEFINED_HEIGHT_BEGIN
1070
    46
1040
7.886094601212136
1000
ACAD_MTEXT_DEFINED_HEIGHT_END
  0
LINE
  5
86391
330
47460
100
AcDbEntity
  8
图框
370
    -3
100
AcDbLine
 10
1036.653967466372
 20
507.6708838011533
 30
0.0
 11
1079.971361203936
 21
507.6708838011533
 31
0.0
1001
AcDbBlockRepETag
1070
     1
1071
       94
1005
86391
  0
LINE
  5
86392
330
47460
100
AcDbEntity
  8
图框
370
    -3
100
AcDbLine
 10
1036.653967466372
 20
491.8986945987308
 30
0.0
 11
1079.971361203936
 21
491.8986945987308
 31
0.0
1001
AcDbBlockRepETag
1070
     1
1071
       95
1005
86392
  0
LINE
  5
86393
330
47460
100
AcDbEntity
  8
图框
370
    -3
100
AcDbLine
 10
1079.971361203936
 20
531.3291676047914
 30
0.0
 11
1079.971361203936
 21
484.0125999975168
 31
0.0
1001
AcDbBlockRepETag
1070
     1
1071
       96
1005
86393
  0
MTEXT
  5
86394
330
47460
100
AcDbEntity
  8
图框
100
AcDbMText
 10
1042.063968618426
 20
525.4145966538832
 30
0.0
 40
2.252848170144607
 41
10.82000230410933
 71
     5
 72
     5
  1
表面处理\P{\Fromans|c134;Finish}
 73
     1
 44
1.0
1001
AcDbBlockRepETag
1070
     1
1071
       97
1005
86394
1001
ACAD
1000
ACAD_MTEXT_DEFINED_HEIGHT_BEGIN
1070
    46
1040
11.82914190181708
1000
ACAD_MTEXT_DEFINED_HEIGHT_END
  0
MTEXT
  5
86395
330
47460
100
AcDbEntity
  8
图框
100
AcDbMText
 10
1042.063968618426
 20
513.5854547520639
 30
0.0
 40
2.252848170144607
 41
10.82000230410933
 71
     5
 72
     5
  1
材料\P{\Fromans|c134;Material}
 73
     1
 44
1.0
1001
AcDbBlockRepETag
1070
     1
1071
       98
1005
86395
1001
ACAD
1000
ACAD_MTEXT_DEFINED_HEIGHT_BEGIN
1070
    46
1040
11.8291419018212
1000
ACAD_MTEXT_DEFINED_HEIGHT_END
  0
LINE
  5
86396
330
47460
100
AcDbEntity
  8
图框
370
    -3
100
AcDbLine
 10
1079.971361203936
 20
522.27220025775
 30
0.0
 11
1126.928502610363
 21
522.27220025775
 31
0.0
1001
AcDbBlockRepETag
1070
     1
1071
       99
1005
86396
  0
LINE
  5
86397
330
47460
100
AcDbEntity
  8
图框
370
    -3
100
AcDbLine
 10
1079.971361203936
 20
513.5854547520641
 30
0.0
 11
1126.928502610363
 21
513.5854547520639
 31
0.0
1001
AcDbBlockRepETag
1070
     1
1071
      100
1005
86397
  0
MTEXT
  5
86398
330
47460
100
AcDbEntity
  8
图框
100
AcDbMText
 10
1086.643735910939
 20
517.9288275049072
 30
0.0
 40
1.958998408821398
 41
13.34474941400573
 71
     5
 72
     5
  1
产品代号\P{\Fromans|c134;Part Code}
 73
     1
 44
1.0
1001
AcDbBlockRepETag
1070
     1
1071
      101
1005
86398
1001
ACAD
1000
ACAD_MTEXT_DEFINED_HEIGHT_BEGIN
1070
    46
1040
8.686745505685811
1000
ACAD_MTEXT_DEFINED_HEIGHT_END
  0
LINE
  5
86399
330
47460
100
AcDbEntity
  8
图框
370
    -3
100
AcDbLine
 10
946.9285026103634
 20
525.7982263931411
 30
0.0
 11
1036.653967466372
 21
525.7982263931411
 31
0.0
1001
AcDbBlockRepETag
1070
     1
1071
      102
1005
86399
  0
LINE
  5
8639A
330
47460
100
AcDbEntity
  8
图框
370
    -3
100
AcDbLine
 10
946.9285026103634
 20
520.2672851814959
 30
0.0
 11
1036.653967466372
 21
520.2672851814959
 31
0.0
1001
AcDbBlockRepETag
1070
     1
1071
      103
1005
8639A
  0
LINE
  5
8639B
330
47460
100
AcDbEntity
  8
图框
370
    35
100
AcDbLine
 10
946.9285026103634
 20
531.3291676047914
 30
0.0
 11
1126.928502610363
 21
531.3291676047914
 31
0.0
1001
AcDbBlockRepETag
1070
     1
1071
      104
1005
8639B
  0
LINE
  5
8639C
330
47460
100
AcDbEntity
  8
图框
370
    -3
100
AcDbLine
 10
990.6727612856927
 20
509.2054027581959
 30
0.0
 11
990.6727612856927
 21
484.0347692601515
 31
0.0
1001
AcDbBlockRepETag
1070
     1
1071
      105
1005
8639C
  0
MTEXT
  5
8639D
102
{ACAD_XDICTIONARY
360
8728A
102
}
330
47460
100
AcDbEntity
  8
图框
100
AcDbMText
 10
997.1628169651232
 20
499.816589978722
 30
0.0
 40
2.252848170144607
 41
12.98011135886052
 71
     5
 72
     5
  1
{\fFangSong_GB2312|b0|i0|c134|p49;标准化}\PStand.
  7
Romans字体
 73
     1
 44
1.0
1001
AcDbBlockRepETag
1070
     1
1071
      106
1005
8639D
1001
ACAD
1000
ACAD_MTEXT_DEFINED_HEIGHT_BEGIN
1070
    46
1040
6.19230880992475
1000
ACAD_MTEXT_DEFINED_HEIGHT_END
  0
LINE
  5
8639E
330
47460
100
AcDbEntity
  8
图框
370
    -3
100
AcDbLine
 10
975.4103773808022
 20
509.2054027581959
 30
0.0
 11
975.4103773808022
 21
484.0347692601515
 31
0.0
1001
AcDbBlockRepETag
1070
     1
1071
      107
1005
8639E
  0
MTEXT
  5
8639F
330
47460
100
AcDbEntity
  8
图框
100
AcDbMText
 10
984.5089229802068
 20
511.9708733640202
 30
0.0
 40
2.448748011026752
 41
38.287899328693
 71
     5
 72
     5
  1
  变更描述{\Fromans|c134;/Description}
 73
     1
 44
1.0
1001
AcDbBlockRepETag
1070
     1
1071
      108
1005
8639F
1001
ACAD
1000
ACAD_MTEXT_DEFINED_HEIGHT_BEGIN
1070
    46
1040
5.530941211648832
1000
ACAD_MTEXT_DEFINED_HEIGHT_END
  0
MTEXT
  5
863A0
102
{ACAD_XDICTIONARY
360
8728C
102
}
330
47460
100
AcDbEntity
  8
图框
100
AcDbMText
 10
1012.466086049227
 20
511.9708733640202
 30
0.0
 40
1.958998408821398
 41
17.6264268093469
 71
     5
 72
     5
  1
签名\P{\Fromans|c134;Signature} 
 73
     1
 44
1.0
1001
AcDbBlockRepETag
1070
     1
1071
      109
1005
863A0
1001
ACAD
1000
ACAD_MTEXT_DEFINED_HEIGHT_BEGIN
1070
    46
1040
5.530941211648825
1000
ACAD_MTEXT_DEFINED_HEIGHT_END
  0
MTEXT
  5
863A1
102
{ACAD_XDICTIONARY
360
8728E
102
}
330
47460
100
AcDbEntity
  8
图框
100
AcDbMText
 10
960.7558556394856
 20
511.9708733640202
 30
0.0
 40
1.958998408821398
 41
9.218235352749283
 71
     5
 72
     5
  1
处数\P{\Fromans|c134;Number }
 73
     1
 44
1.0
1001
AcDbBlockRepETag
1070
     1
1071
      110
1005
863A1
1001
ACAD
1000
ACAD_MTEXT_DEFINED_HEIGHT_BEGIN
1070
    46
1040
5.530941211648841
1000
ACAD_MTEXT_DEFINED_HEIGHT_END
  0
LINE
  5
863A2
330
47460
100
AcDbEntity
  8
图框
370
    -3
100
AcDbLine
 10
946.9285026103634
 20
514.7363439698449
 30
0.0
 11
1036.653967466372
 21
514.7363439698449
 31
0.0
1001
AcDbBlockRepETag
1070
     1
1071
      111
1005
863A2
  0
LINE
  5
863A3
330
47460
100
AcDbEntity
  8
图框
370
    -3
100
AcDbLine
 10
946.9285026103634
 20
509.2054027581959
 30
0.0
 11
1036.653967466372
 21
509.2054027581959
 31
0.0
1001
AcDbBlockRepETag
1070
     1
1071
      112
1005
863A3
  0
LINE
  5
863A4
330
47460
100
AcDbEntity
  8
图框
370
    -3
100
AcDbLine
 10
946.9285026103634
 20
502.9127443836848
 30
0.0
 11
1036.653967466372
 21
502.9127443836848
 31
0.0
1001
AcDbBlockRepETag
1070
     1
1071
      113
1005
863A4
  0
LINE
  5
863A5
330
47460
100
AcDbEntity
  8
图框
370
    -3
100
AcDbLine
 10
946.9285026103634
 20
496.620086009173
 30
0.0
 11
1036.653967466372
 21
496.620086009173
 31
0.0
1001
AcDbBlockRepETag
1070
     1
1071
      114
1005
863A5
  0
LINE
  5
863A6
330
47460
100
AcDbEntity
  8
图框
370
    35
380
     1
100
AcDbLine
 10
946.9285026103634
 20
531.3291676047914
 30
0.0
 11
946.9285026103634
 21
484.0347692601515
 31
0.0
1001
AcDbBlockRepETag
1070
     1
1071
      115
1005
863A6
  0
LINE
  5
863A7
330
47460
100
AcDbEntity
  8
图框
370
    -3
100
AcDbLine
 10
1021.301636813399
 20
531.3291676047914
 30
0.0
 11
1021.301636813399
 21
484.0347692601515
 31
0.0
1001
AcDbBlockRepETag
1070
     1
1071
      116
1005
863A7
  0
LINE
  5
863A8
330
47460
100
AcDbEntity
  8
图框
370
    -3
100
AcDbLine
 10
1003.652872644553
 20
531.3291676047914
 30
0.0
 11
1003.652872644553
 21
484.0347692601515
 31
0.0
1001
AcDbBlockRepETag
1070
     1
1071
      117
1005
863A8
  0
LINE
  5
863A9
330
47460
100
AcDbEntity
  8
图框
370
    -3
100
AcDbLine
 10
965.3649733158603
 20
531.3291676047914
 30
0.0
 11
965.3649733158603
 21
509.2054027581959
 31
0.0
1001
AcDbBlockRepETag
1070
     1
1071
      118
1005
863A9
  0
LINE
  5
863AA
330
47460
100
AcDbEntity
  8
图框
370
    -3
100
AcDbLine
 10
956.1467379631109
 20
531.3291676047914
 30
0.0
 11
956.1467379631109
 21
509.2054027581959
 31
0.0
1001
AcDbBlockRepETag
1070
     1
1071
      119
1005
863AA
  0
MTEXT
  5
863AB
102
{ACAD_XDICTIONARY
360
87290
102
}
330
47460
100
AcDbEntity
  8
图框
100
AcDbMText
 10
951.537620286737
 20
511.9708733640202
 30
0.0
 40
1.958998408821398
 41
9.218235352747692
 71
     5
 72
     5
  1
标记\P{\Fromans|c134;Mark}
 73
     1
 44
1.0
1001
AcDbBlockRepETag
1070
     1
1071
      120
1005
863AB
1001
ACAD
1000
ACAD_MTEXT_DEFINED_HEIGHT_BEGIN
1070
    46
1040
5.530941211648832
1000
ACAD_MTEXT_DEFINED_HEIGHT_END
  0
MTEXT
  5
863AC
102
{ACAD_XDICTIONARY
360
87292
102
}
330
47460
100
AcDbEntity
  8
图框
100
AcDbMText
 10
953.4185582897936
 20
493.4737568219182
 30
0.0
 40
2.252848170144607
 41
12.98011135886041
 71
     5
 72
     5
  1
审核\P{\Fromans|c134;Checked}
 73
     1
 44
1.0
1001
AcDbBlockRepETag
1070
     1
1071
      121
1005
863AC
1001
ACAD
1000
ACAD_MTEXT_DEFINED_HEIGHT_BEGIN
1070
    46
1040
6.292658374510382
1000
ACAD_MTEXT_DEFINED_HEIGHT_END
  0
MTEXT
  5
863AD
102
{ACAD_XDICTIONARY
360
87294
102
}
330
47460
100
AcDbEntity
  8
图框
100
AcDbMText
 10
953.4185582897936
 20
499.8775635376777
 30
0.0
 40
2.252848170144607
 41
12.98011135886041
 71
     5
 72
     5
  1
绘图\P{\Fromans|c134;Drawn\Ftxt|c134; }
 73
     1
 44
1.0
1001
AcDbBlockRepETag
1070
     1
1071
      122
1005
863AD
1001
ACAD
1000
ACAD_MTEXT_DEFINED_HEIGHT_BEGIN
1070
    46
1040
6.070361692014189
1000
ACAD_MTEXT_DEFINED_HEIGHT_END
  0
ARC
  5
863AE
330
47460
100
AcDbEntity
  8
图框
 62
     4
370
    35
100
AcDbCircle
 10
1086.900627017421
 20
490.0179944151195
 30
0.0
 40
4.063310408393665
100
AcDbArc
 50
18.95237904564806
 51
161.0476209543519
1001
AcDbBlockRepETag
1070
     1
1071
      123
1005
863AE
  0
ARC
  5
863AF
330
47460
100
AcDbEntity
  8
图框
 62
     4
370
    35
100
AcDbCircle
 10
1086.900627017421
 20
490.0179944151195
 30
0.0
 40
4.063310408393665
100
AcDbArc
 50
198.952379045648
 51
341.0476209543519
1001
AcDbBlockRepETag
1070
     1
1071
      124
1005
863AF
  0
LINE
  5
863B0
330
47460
100
AcDbEntity
  8
图框
 62
     4
370
    35
100
AcDbLine
 10
1083.057593369548
 20
488.6983035966752
 30
0.0
 11
1090.74366066529
 21
488.6983035966752
 31
0.0
1001
AcDbBlockRepETag
1070
     1
1071
      125
1005
863B0
  0
LINE
  5
863B1
330
47460
100
AcDbEntity
  8
图框
 62
     4
370
    35
100
AcDbLine
 10
1083.057593369548
 20
491.3376852335652
 30
0.0
 11
1090.74366066529
 21
491.3376852335652
 31
0.0
1001
AcDbBlockRepETag
1070
     1
1071
      126
1005
863B1
  0
MTEXT
  5
863B2
330
47460
100
AcDbEntity
  8
图框
 62
     1
370
    20
100
AcDbMText
 10
1083.034582879669
 20
491.0506288081688
 30
0.0
 40
2.005930044038334
 41
5.047240019334847
 71
     1
 72
     5
  1
{\fArial|b0|i0|c0|p34;W}
  7
Chinese
 73
     1
 44
1.0
1001
AcDbBlockRepETag
1070
     1
1071
      127
1005
863B2
  0
LINE
  5
863B3
330
47460
100
AcDbEntity
  8
图框
370
    -3
100
AcDbLine
 10
946.9285026103634
 20
490.327427634663
 30
0.0
 11
1036.653967466372
 21
490.327427634663
 31
0.0
1001
AcDbBlockRepETag
1070
     1
1071
      128
1005
863B3
  0
LINE
  5
863B4
330
47460
100
AcDbEntity
  8
图框
370
    -3
100
AcDbLine
 10
959.9086139692238
 20
509.2054027581959
 30
0.0
 11
959.9086139692238
 21
484.0347692601515
 31
0.0
1001
AcDbBlockRepETag
1070
     1
1071
      129
1005
863B4
  0
MTEXT
  5
863B5
330
47460
100
AcDbEntity
  8
图框
100
AcDbMText
 10
967.6594956750127
 20
506.0590735709403
 30
0.0
 40
2.252848170144607
 41
15.50176341157869
 71
     5
 72
     5
  1
姓名{\Fromans|c134;/Name\Ftxt|c134; }
 73
     1
 44
1.0
1001
AcDbBlockRepETag
1070
     1
1071
      130
1005
863B5
1001
ACAD
1000
ACAD_MTEXT_DEFINED_HEIGHT_BEGIN
1070
    46
1040
6.292658374511246
1000
ACAD_MTEXT_DEFINED_HEIGHT_END
  0
MTEXT
  5
863B6
330
47460
100
AcDbEntity
  8
图框
100
AcDbMText
 10
983.0415693332476
 20
506.0590735709403
 30
0.0
 40
2.252848170144607
 41
15.26238390489042
 71
     5
 72
     5
  1
日期{\Fromans|c134;/Date}
 73
     1
 44
1.0
1001
AcDbBlockRepETag
1070
     1
1071
      131
1005
863B6
1001
ACAD
1000
ACAD_MTEXT_DEFINED_HEIGHT_BEGIN
1070
    46
1040
6.2926583745112
1000
ACAD_MTEXT_DEFINED_HEIGHT_END
  0
LINE
  5
863B7
330
47460
100
AcDbEntity
  8
图框
370
    -3
100
AcDbLine
 10
946.9285026103634
 20
509.2054027581959
 30
0.0
 11
959.9086139692238
 21
502.9127443836848
 31
0.0
1001
AcDbBlockRepETag
1070
     1
1071
      132
1005
863B7
  0
MTEXT
  5
863B8
330
47460
100
AcDbEntity
  8
图框
100
AcDbMText
 10
1012.931405110086
 20
506.0185715840725
 30
0.0
 40
2.252848170144607
 41
16.93492221063566
 71
     5
 72
     5
  1
姓名{\Fromans|c134;/Name}
 73
     1
 44
1.0
1001
AcDbBlockRepETag
1070
     1
1071
      133
1005
863B8
  0
MTEXT
  5
863B9
330
47460
100
AcDbEntity
  8
图框
100
AcDbMText
 10
1028.977802139886
 20
506.0590735709403
 30
0.0
 40
2.252848170144607
 41
15.35233065297283
 71
     5
 72
     5
  1
日期{\Fromans|c134;/Date}
 73
     1
 44
1.0
1001
AcDbBlockRepETag
1070
     1
1071
      134
1005
863B9
1001
ACAD
1000
ACAD_MTEXT_DEFINED_HEIGHT_BEGIN
1070
    46
1040
6.292658374511256
1000
ACAD_MTEXT_DEFINED_HEIGHT_END
  0
LINE
  5
863BA
330
47460
100
AcDbEntity
  8
图框
370
    -3
100
AcDbLine
 10
1003.652872644553
 20
502.9127443836848
 30
0.0
 11
990.6727612856927
 21
509.2054027581959
 31
0.0
1001
AcDbBlockRepETag
1070
     1
1071
      135
1005
863BA
  0
MTEXT
  5
863BB
102
{ACAD_XDICTIONARY
360
87296
102
}
330
47460
100
AcDbEntity
  8
图框
100
AcDbMText
 10
997.1628169651232
 20
487.1810984474071
 30
0.0
 40
2.252848170144607
 41
12.98011135886052
 71
     5
 72
     5
  1
批准\P{\Fromans|c134;Approved}
 73
     1
 44
1.0
1001
AcDbBlockRepETag
1070
     1
1071
      136
1005
863BB
1001
ACAD
1000
ACAD_MTEXT_DEFINED_HEIGHT_BEGIN
1070
    46
1040
6.292658374511517
1000
ACAD_MTEXT_DEFINED_HEIGHT_END
  0
MTEXT
  5
863BC
102
{ACAD_XDICTIONARY
360
87298
102
}
330
47460
100
AcDbEntity
  8
图框
100
AcDbMText
 10
953.4185582897936
 20
487.1810984474071
 30
0.0
 40
2.252848170144607
 41
12.98011135886041
 71
     5
 72
     5
  1
工艺\P{\Fromans|c134;Process}
 73
     1
 44
1.0
1001
AcDbBlockRepETag
1070
     1
1071
      137
1005
863BC
1001
ACAD
1000
ACAD_MTEXT_DEFINED_HEIGHT_BEGIN
1070
    46
1040
6.292658374511495
1000
ACAD_MTEXT_DEFINED_HEIGHT_END
  0
MTEXT
  5
863BD
102
{ACAD_XDICTIONARY
360
8729A
102
}
330
47460
100
AcDbEntity
  8
图框
100
AcDbMText
 10
1028.977802139886
 20
511.8287965307664
 30
0.0
 40
1.958998408821398
 41
15.3523306529728
 71
     5
 72
     5
  1
日期\P{\Fromans|c134;Date}
 73
     1
 44
1.0
1001
AcDbBlockRepETag
1070
     1
1071
      138
1005
863BD
1001
ACAD
1000
ACAD_MTEXT_DEFINED_HEIGHT_BEGIN
1070
    46
1040
5.246787545140668
1000
ACAD_MTEXT_DEFINED_HEIGHT_END
  0
MTEXT
  5
863BE
330
47460
100
AcDbEntity
  8
图框
100
AcDbMText
 10
1086.643735910939
 20
509.1493769780809
 30
0.0
 40
2.154898249703542
 41
13.34474941400573
 71
     5
 72
     5
  1
产品料号\P{\Fromans|c134;Part No.}
 73
     1
 44
1.0
1001
AcDbBlockRepETag
1070
     1
1071
      139
1005
863BE
1001
ACAD
1000
ACAD_MTEXT_DEFINED_HEIGHT_BEGIN
1070
    46
1040
8.87215554796615
1000
ACAD_MTEXT_DEFINED_HEIGHT_END
  0
MTEXT
  5
863BF
330
47460
100
AcDbEntity
  8
图框
100
AcDbMText
 10
1086.643735910939
 20
500.2775205517163
 30
0.0
 40
1.958998408821398
 41
13.34474941400573
 71
     5
 72
     5
  1
产品名称\P{\Fromans|c134;Part Name}
 73
     1
 44
1.0
1001
AcDbBlockRepETag
1070
     1
1071
      140
1005
863BF
1001
ACAD
1000
ACAD_MTEXT_DEFINED_HEIGHT_BEGIN
1070
    46
1040
8.871557304763321
1000
ACAD_MTEXT_DEFINED_HEIGHT_END
  0
LINE
  5
863C0
330
47460
100
AcDbEntity
  8
图框
 62
     1
370
    18
100
AcDbLine
 10
833.4128518455365
 20
690.5347692601515
 30
0.0
 11
833.4128518455365
 21
480.5347692601515
 31
0.0
1001
AcDbBlockRepETag
1070
     1
1071
      141
1005
863C0
  0
LINE
  5
863C1
330
47460
100
AcDbEntity
  8
图框
 62
     1
370
    18
100
AcDbLine
 10
833.4128518455365
 20
480.5347692601515
 30
0.0
 11
1130.411601781236
 21
480.5347692601515
 31
0.0
1001
AcDbBlockRepETag
1070
     1
1071
      142
1005
863C1
  0
LINE
  5
863C2
330
47460
100
AcDbEntity
  8
图框
 62
     1
370
    18
100
AcDbLine
 10
833.4128518455365
 20
690.5347692601515
 30
0.0
 11
1130.411601781236
 21
690.5347692601515
 31
0.0
1001
AcDbBlockRepETag
1070
     1
1071
      143
1005
863C2
  0
LINE
  5
863C3
330
47460
100
AcDbEntity
  8
图框
 62
     1
370
    18
100
AcDbLine
 10
1130.411601781236
 20
480.5347692601515
 30
0.0
 11
1130.411601781236
 21
690.5347692601515
 31
0.0
1001
AcDbBlockRepETag
1070
     1
1071
      144
1005
863C3
  0
LINE
  5
863C4
330
47460
100
AcDbEntity
  8
图框
370
    18
100
AcDbLine
 10
836.9128518455394
 20
686.7901958362482
 30
0.0
 11
861.5351874539182
 21
686.7901958362482
 31
0.0
1001
AcDbBlockRepETag
1070
     1
1071
      145
1005
863C4
  0
LINE
  5
863C5
330
47460
100
AcDbEntity
  8
图框
370
    50
100
AcDbLine
 10
1126.928502610363
 20
484.3410054693078
 30
0.0
 11
1126.928502610363
 21
675.5347692601515
 31
0.0
1001
AcDbBlockRepETag
1070
     1
1071
      146
1005
863C5
  0
MTEXT
  5
863C6
330
47460
100
AcDbEntity
  8
图框
 62
     3
100
AcDbMText
 10
1052.897990117958
 20
495.8417418993364
 30
0.0
 40
2.985513575034151
 41
10.82934843439114
 71
     5
 72
     5
  1
V1.0
  7
Romans字体
 73
     1
 44
1.0
1001
AcDbBlockRepETag
1070
     1
1071
      147
1005
863C6
1001
ACAD
1000
ACAD_MTEXT_DEFINED_HEIGHT_BEGIN
1070
    46
1040
7.886094601211307
1000
ACAD_MTEXT_DEFINED_HEIGHT_END
  0
LINE
  5
863CA
330
47460
100
AcDbEntity
  8
图框
 62
     6
100
AcDbLine
 10
1126.911601781235
 20
531.714049199969
 30
0.0
 11
1130.411601781236
 21
531.714049199969
 31
0.0
1001
AcDbBlockRepETag
1070
     1
1071
      148
1005
863CA
  0
ENDBLK
  5
474F7
330
47460
100
AcDbEntity
  8
0
100
AcDbBlockEnd
  0
BLOCK
  5
869FC
330
869FB
100
AcDbEntity
  8
0
100
AcDbBlockBegin
  2
*D3
 70
     1
 10
0.0
 20
0.0
 30
0.0
  3
*D3
  1

  0
LINE
  5
86C4A
330
869FB
100
AcDbEntity
  8
Dim
 62
     6
370
    -2
100
AcDbLine
 10
2922.256916011528
 20
722.7055990310546
 30
0.0
 11
2914.183916384086
 21
722.7055990310546
 31
0.0
  0
LINE
  5
86C4B
330
869FB
100
AcDbEntity
  8
Dim
 62
     6
370
    -2
100
AcDbLine
 10
2926.506916011528
 20
693.9088590310547
 30
0.0
 11
2914.183916384086
 21
693.9088590310547
 31
0.0
  0
LINE
  5
86C4C
330
869FB
100
AcDbEntity
  8
Dim
 62
     1
370
    -2
100
AcDbLine
 10
2915.383916384086
 20
719.2055990310546
 30
0.0
 11
2915.383916384086
 21
697.4088590310548
 31
0.0
  0
SOLID
  5
86C4D
330
869FB
100
AcDbEntity
  8
Dim
 62
     1
100
AcDbTrace
 10
2914.800583050753
 20
719.2055990310546
 30
0.0
 11
2915.967249717419
 21
719.2055990310546
 31
0.0
 12
2915.383916384086
 22
722.7055990310546
 32
0.0
 13
2915.383916384086
 23
722.7055990310546
 33
0.0
  0
SOLID
  5
86C4E
330
869FB
100
AcDbEntity
  8
Dim
 62
     1
100
AcDbTrace
 10
2914.800583050753
 20
697.4088590310548
 30
0.0
 11
2915.967249717419
 21
697.4088590310548
 31
0.0
 12
2915.383916384086
 22
693.9088590310547
 32
0.0
 13
2915.383916384086
 23
693.9088590310547
 33
0.0
  0
MTEXT
  5
86C4F
330
869FB
100
AcDbEntity
  8
Dim
 62
     4
100
AcDbMText
 10
2912.883916384086
 20
707.5948690310548
 30
0.0
 40
4.0
 41
0.0
 71
     5
 72
     1
  1
\A1;41.7
  7
Romans字体
 11
0.0000000000000001
 21
1.0
 31
0.0
 73
     1
 44
1.0
  0
POINT
  5
86C50
330
869FB
100
AcDbEntity
  8
Defpoints
 62
     0
100
AcDbPoint
 10
2922.456916011528
 20
722.7055990310546
 30
0.0
  0
POINT
  5
86C51
330
869FB
100
AcDbEntity
  8
Defpoints
 62
     0
100
AcDbPoint
 10
2926.706916011528
 20
693.9088590310547
 30
0.0
  0
POINT
  5
86C52
330
869FB
100
AcDbEntity
  8
Defpoints
 62
     0
100
AcDbPoint
 10
2915.383916384086
 20
693.9088590310547
 30
0.0
  0
ENDBLK
  5
869FD
330
869FB
100
AcDbEntity
  8
0
100
AcDbBlockEnd
  0
BLOCK
  5
86A08
330
86A07
100
AcDbEntity
  8
0
100
AcDbBlockBegin
  2
*D4
 70
     1
 10
0.0
 20
0.0
 30
0.0
  3
*D4
  1

  0
LINE
  5
86C7A
330
86A07
100
AcDbEntity
  8
Dim
 62
     6
370
    -2
100
AcDbLine
 10
2993.755919735566
 20
715.1816320042644
 30
0.0
 11
2980.743019735567
 21
715.1816320042644
 31
0.0
  0
LINE
  5
86C7B
330
86A07
100
AcDbEntity
  8
Dim
 62
     6
370
    -2
100
AcDbLine
 10
2993.865919735567
 20
695.6865920042646
 30
0.0
 11
2980.743019735567
 21
695.6865920042646
 31
0.0
  0
LINE
  5
86C7C
330
86A07
100
AcDbEntity
  8
Dim
 62
     1
370
    -2
100
AcDbLine
 10
2981.943019735567
 20
711.6816320042644
 30
0.0
 11
2981.943019735567
 21
699.1865920042646
 31
0.0
  0
SOLID
  5
86C7D
330
86A07
100
AcDbEntity
  8
Dim
 62
     1
100
AcDbTrace
 10
2981.359686402233
 20
711.6816320042644
 30
0.0
 11
2982.5263530689
 21
711.6816320042644
 31
0.0
 12
2981.943019735567
 22
715.1816320042644
 32
0.0
 13
2981.943019735567
 23
715.1816320042644
 33
0.0
  0
SOLID
  5
86C7E
330
86A07
100
AcDbEntity
  8
Dim
 62
     1
100
AcDbTrace
 10
2981.359686402233
 20
699.1865920042646
 30
0.0
 11
2982.5263530689
 21
699.1865920042646
 31
0.0
 12
2981.943019735567
 22
695.6865920042646
 32
0.0
 13
2981.943019735567
 23
695.6865920042646
 33
0.0
  0
MTEXT
  5
86C7F
330
86A07
100
AcDbEntity
  8
Dim
 62
     4
100
AcDbMText
 10
2979.443019735567
 20
705.4341120042646
 30
0.0
 40
4.0
 41
0.0
 71
     5
 72
     1
  1
\A1;19.5
  7
Romans字体
 11
0.0000000000000001
 21
1.0
 31
0.0
 73
     1
 44
1.0
  0
POINT
  5
86C80
330
86A07
100
AcDbEntity
  8
Defpoints
 62
     0
100
AcDbPoint
 10
2993.955919735566
 20
715.1816320042644
 30
0.0
  0
POINT
  5
86C81
330
86A07
100
AcDbEntity
  8
Defpoints
 62
     0
100
AcDbPoint
 10
2994.065919735567
 20
695.6865920042646
 30
0.0
  0
POINT
  5
86C82
330
86A07
100
AcDbEntity
  8
Defpoints
 62
     0
100
AcDbPoint
 10
2981.943019735567
 20
695.6865920042646
 30
0.0
  0
ENDBLK
  5
86A09
330
86A07
100
AcDbEntity
  8
0
100
AcDbBlockEnd
  0
BLOCK
  5
86A14
330
86A13
100
AcDbEntity
  8
0
100
AcDbBlockBegin
  2
*D5
 70
     1
 10
0.0
 20
0.0
 30
0.0
  3
*D5
  1

  0
LINE
  5
86C83
330
86A13
100
AcDbEntity
  8
Dim
 62
     6
370
    -2
100
AcDbLine
 10
2993.755919735566
 20
715.1816320042644
 30
0.0
 11
2980.743019735567
 21
715.1816320042644
 31
0.0
  0
LINE
  5
86C84
330
86A13
100
AcDbEntity
  8
Dim
 62
     6
370
    -2
100
AcDbLine
 10
2991.745449735566
 20
745.1809320042642
 30
0.0
 11
2980.743019735567
 21
745.1809320042642
 31
0.0
  0
LINE
  5
86C85
330
86A13
100
AcDbEntity
  8
Dim
 62
     1
370
    -2
100
AcDbLine
 10
2981.943019735567
 20
718.6816320042644
 30
0.0
 11
2981.943019735567
 21
741.6809320042642
 31
0.0
  0
SOLID
  5
86C86
330
86A13
100
AcDbEntity
  8
Dim
 62
     1
100
AcDbTrace
 10
2981.359686402233
 20
718.6816320042644
 30
0.0
 11
2982.5263530689
 21
718.6816320042644
 31
0.0
 12
2981.943019735567
 22
715.1816320042644
 32
0.0
 13
2981.943019735567
 23
715.1816320042644
 33
0.0
  0
SOLID
  5
86C87
330
86A13
100
AcDbEntity
  8
Dim
 62
     1
100
AcDbTrace
 10
2981.359686402233
 20
741.6809320042642
 30
0.0
 11
2982.5263530689
 21
741.6809320042642
 31
0.0
 12
2981.943019735567
 22
745.1809320042642
 32
0.0
 13
2981.943019735567
 23
745.1809320042642
 33
0.0
  0
MTEXT
  5
86C88
330
86A13
100
AcDbEntity
  8
Dim
 62
     4
100
AcDbMText
 10
2979.443019735567
 20
730.1812820042647
 30
0.0
 40
4.0
 41
0.0
 71
     5
 72
     1
  1
\A1;30
  7
Romans字体
 11
0.0000000000000001
 21
1.0
 31
0.0
 73
     1
 44
1.0
  0
POINT
  5
86C89
330
86A13
100
AcDbEntity
  8
Defpoints
 62
     0
100
AcDbPoint
 10
2993.955919735566
 20
715.1816320042644
 30
0.0
  0
POINT
  5
86C8A
330
86A13
100
AcDbEntity
  8
Defpoints
 62
     0
100
AcDbPoint
 10
2991.945449735566
 20
745.1809320042642
 30
0.0
  0
POINT
  5
86C8B
330
86A13
100
AcDbEntity
  8
Defpoints
 62
     0
100
AcDbPoint
 10
2981.943019735567
 20
745.1809320042642
 30
0.0
  0
ENDBLK
  5
86A15
330
86A13
100
AcDbEntity
  8
0
100
AcDbBlockEnd
  0
BLOCK
  5
86A3B
330
86A3A
100
AcDbEntity
  8
0
100
AcDbBlockBegin
  2
*D6
 70
     1
 10
0.0
 20
0.0
 30
0.0
  3
*D6
  1

  0
LINE
  5
86C8C
330
86A3A
100
AcDbEntity
  8
Dim
 62
     6
370
    -2
100
AcDbLine
 10
2981.743019735566
 20
695.6865920042638
 30
0.0
 11
2980.743019735566
 21
695.6865920042638
 31
0.0
  0
LINE
  5
86C8D
330
86A3A
100
AcDbEntity
  8
Dim
 62
     6
370
    -2
100
AcDbLine
 10
2996.075119735567
 20
688.8827070042648
 30
0.0
 11
2980.743019735566
 21
688.8827070042648
 31
0.0
  0
LINE
  5
86C8E
330
86A3A
100
AcDbEntity
  8
Dim
 62
     1
370
    -2
100
AcDbLine
 10
2981.943019735566
 20
699.186592004264
 30
0.0
 11
2981.943019735566
 21
702.6865920042638
 31
0.0
  0
LINE
  5
86C8F
330
86A3A
100
AcDbEntity
  8
Dim
 62
     1
370
    -2
100
AcDbLine
 10
2981.943019735566
 20
685.3827070042648
 30
0.0
 11
2981.943019735566
 21
674.7398498614077
 31
0.0
  0
SOLID
  5
86C90
330
86A3A
100
AcDbEntity
  8
Dim
 62
     1
100
AcDbTrace
 10
2981.359686402232
 20
699.186592004264
 30
0.0
 11
2982.526353068899
 21
699.186592004264
 31
0.0
 12
2981.943019735566
 22
695.6865920042638
 32
0.0
 13
2981.943019735566
 23
695.6865920042638
 33
0.0
  0
SOLID
  5
86C91
330
86A3A
100
AcDbEntity
  8
Dim
 62
     1
100
AcDbTrace
 10
2981.359686402232
 20
685.3827070042648
 30
0.0
 11
2982.526353068899
 21
685.3827070042648
 31
0.0
 12
2981.943019735566
 22
688.8827070042648
 32
0.0
 13
2981.943019735566
 23
688.8827070042648
 33
0.0
  0
MTEXT
  5
86C92
330
86A3A
100
AcDbEntity
  8
Dim
 62
     4
100
AcDbMText
 10
2979.443019735566
 20
678.3112784328367
 30
0.0
 40
4.0
 41
0.0
 71
     5
 72
     1
  1
\A1;6.8
  7
Romans字体
 11
0.0000000000000001
 21
1.0
 31
0.0
 73
     1
 44
1.0
  0
POINT
  5
86C93
330
86A3A
100
AcDbEntity
  8
Defpoints
 62
     0
100
AcDbPoint
 10
2981.943019735566
 20
695.6865920042638
 30
0.0
  0
POINT
  5
86C94
330
86A3A
100
AcDbEntity
  8
Defpoints
 62
     0
100
AcDbPoint
 10
2996.275119735566
 20
688.8827070042648
 30
0.0
  0
POINT
  5
86C95
330
86A3A
100
AcDbEntity
  8
Defpoints
 62
     0
100
AcDbPoint
 10
2981.943019735566
 20
688.8827070042648
 30
0.0
  0
ENDBLK
  5
86A3C
330
86A3A
100
AcDbEntity
  8
0
100
AcDbBlockEnd
  0
BLOCK
  5
86A48
330
86A47
100
AcDbEntity
  8
0
100
AcDbBlockBegin
  2
*D7
 70
     1
 10
0.0
 20
0.0
 30
0.0
  3
*D7
  1

  0
LINE
  5
86C53
330
86A47
100
AcDbEntity
  8
Dim
 62
     6
370
    -2
100
AcDbLine
 10
2925.956910011529
 20
694.4588590310549
 30
0.0
 11
2925.956910011529
 21
687.320021899213
 31
0.0
  0
LINE
  5
86C54
330
86A47
100
AcDbEntity
  8
Dim
 62
     6
370
    -2
100
AcDbLine
 10
2929.956923011527
 20
694.4588590310549
 30
0.0
 11
2929.956923011527
 21
687.320021899213
 31
0.0
  0
LINE
  5
86C55
330
86A47
100
AcDbEntity
  8
Dim
 62
     1
370
    -2
100
AcDbLine
 10
2922.456910011527
 20
688.5200218992132
 30
0.0
 11
2918.956910011528
 21
688.5200218992132
 31
0.0
  0
LINE
  5
86C56
330
86A47
100
AcDbEntity
  8
Dim
 62
     1
370
    -2
100
AcDbLine
 10
2933.456923011527
 20
688.5200218992132
 30
0.0
 11
2943.385494440099
 21
688.5200218992132
 31
0.0
  0
SOLID
  5
86C57
330
86A47
100
AcDbEntity
  8
Dim
 62
     1
100
AcDbTrace
 10
2922.456910011527
 20
689.1033552325466
 30
0.0
 11
2922.456910011527
 21
687.9366885658797
 31
0.0
 12
2925.956910011529
 22
688.5200218992132
 32
0.0
 13
2925.956910011529
 23
688.5200218992132
 33
0.0
  0
SOLID
  5
86C58
330
86A47
100
AcDbEntity
  8
Dim
 62
     1
100
AcDbTrace
 10
2933.456923011527
 20
689.1033552325466
 30
0.0
 11
2933.456923011527
 21
687.9366885658797
 31
0.0
 12
2929.956923011527
 22
688.5200218992132
 32
0.0
 13
2929.956923011527
 23
688.5200218992132
 33
0.0
  0
MTEXT
  5
86C59
330
86A47
100
AcDbEntity
  8
Dim
 62
     4
100
AcDbMText
 10
2940.171208725813
 20
691.0200218992132
 30
0.0
 40
4.0
 41
0.0
 71
     5
 72
     1
  1
\A1;M4
  7
Romans字体
 73
     1
 44
1.0
  0
POINT
  5
86C5A
330
86A47
100
AcDbEntity
  8
Defpoints
 62
     0
100
AcDbPoint
 10
2925.956910011529
 20
694.6588590310549
 30
0.0
  0
POINT
  5
86C5B
330
86A47
100
AcDbEntity
  8
Defpoints
 62
     0
100
AcDbPoint
 10
2929.956923011527
 20
694.6588590310549
 30
0.0
  0
POINT
  5
86C5C
330
86A47
100
AcDbEntity
  8
Defpoints
 62
     0
100
AcDbPoint
 10
2929.956923011527
 20
688.5200218992132
 30
0.0
  0
ENDBLK
  5
86A49
330
86A47
100
AcDbEntity
  8
0
100
AcDbBlockEnd
  0
BLOCK
  5
86A55
330
86A54
100
AcDbEntity
  8
0
100
AcDbBlockBegin
  2
*D8
 70
     1
 10
0.0
 20
0.0
 30
0.0
  3
*D8
  1

  0
LINE
  5
86C5D
330
86A54
100
AcDbEntity
  8
Dim
 62
     6
370
    -2
100
AcDbLine
 10
2924.456916011528
 20
713.4286290310548
 30
0.0
 11
2924.456916011528
 21
714.6286290310548
 31
0.0
  0
LINE
  5
86C5E
330
86A54
100
AcDbEntity
  8
Dim
 62
     6
370
    -2
100
AcDbLine
 10
2931.456916311527
 20
713.4286290310548
 30
0.0
 11
2931.456916311527
 21
714.6286290310548
 31
0.0
  0
LINE
  5
86C5F
330
86A54
100
AcDbEntity
  8
Dim
 62
     1
370
    -2
100
AcDbLine
 10
2920.956916011528
 20
713.4286290310548
 30
0.0
 11
2917.456916011528
 21
713.4286290310548
 31
0.0
  0
LINE
  5
86C60
330
86A54
100
AcDbEntity
  8
Dim
 62
     1
370
    -2
100
AcDbLine
 10
2934.956916311527
 20
713.4286290310548
 30
0.0
 11
2944.171202025813
 21
713.4286290310548
 31
0.0
  0
SOLID
  5
86C61
330
86A54
100
AcDbEntity
  8
Dim
 62
     1
100
AcDbTrace
 10
2920.956916011528
 20
714.011962364388
 30
0.0
 11
2920.956916011528
 21
712.8452956977214
 31
0.0
 12
2924.456916011528
 22
713.4286290310548
 32
0.0
 13
2924.456916011528
 23
713.4286290310548
 33
0.0
  0
SOLID
  5
86C62
330
86A54
100
AcDbEntity
  8
Dim
 62
     1
100
AcDbTrace
 10
2934.956916311527
 20
714.011962364388
 30
0.0
 11
2934.956916311527
 21
712.8452956977214
 31
0.0
 12
2931.456916311527
 22
713.4286290310548
 32
0.0
 13
2931.456916311527
 23
713.4286290310548
 33
0.0
  0
MTEXT
  5
86C63
330
86A54
100
AcDbEntity
  8
Dim
 62
     4
100
AcDbMText
 10
2941.31405916867
 20
715.9286290310546
 30
0.0
 40
4.0
 41
0.0
 71
     5
 72
     1
  1
\A1;%%C7
  7
Romans字体
 73
     1
 44
1.0
  0
POINT
  5
86C64
330
86A54
100
AcDbEntity
  8
Defpoints
 62
     0
100
AcDbPoint
 10
2924.456916011528
 20
713.2286290310546
 30
0.0
  0
POINT
  5
86C65
330
86A54
100
AcDbEntity
  8
Defpoints
 62
     0
100
AcDbPoint
 10
2931.456916311527
 20
713.2286290310546
 30
0.0
  0
POINT
  5
86C66
330
86A54
100
AcDbEntity
  8
Defpoints
 62
     0
100
AcDbPoint
 10
2931.456916311527
 20
713.4286290310548
 30
0.0
  0
ENDBLK
  5
86A56
330
86A54
100
AcDbEntity
  8
0
100
AcDbBlockEnd
  0
BLOCK
  5
86A62
330
86A61
100
AcDbEntity
  8
0
100
AcDbBlockBegin
  2
*D9
 70
     1
 10
0.0
 20
0.0
 30
0.0
  3
*D9
  1

  0
LINE
  5
86C67
330
86A61
100
AcDbEntity
  8
Dim
 62
     6
370
    -2
100
AcDbLine
 10
2927.056916011528
 20
722.9055990310548
 30
0.0
 11
2927.056916011528
 21
730.3614667962928
 31
0.0
  0
LINE
  5
86C68
330
86A61
100
AcDbEntity
  8
Dim
 62
     6
370
    -2
100
AcDbLine
 10
2928.856916011527
 20
722.9055990310548
 30
0.0
 11
2928.856916011527
 21
730.3614667962928
 31
0.0
  0
LINE
  5
86C69
330
86A61
100
AcDbEntity
  8
Dim
 62
     1
370
    -2
100
AcDbLine
 10
2923.556916011528
 20
729.1614667962926
 30
0.0
 11
2920.056916011528
 21
729.1614667962926
 31
0.0
  0
LINE
  5
86C6A
330
86A61
100
AcDbEntity
  8
Dim
 62
     1
370
    -2
100
AcDbLine
 10
2932.356916011527
 20
729.1614667962926
 30
0.0
 11
2942.71405886867
 21
729.1614667962926
 31
0.0
  0
SOLID
  5
86C6B
330
86A61
100
AcDbEntity
  8
Dim
 62
     1
100
AcDbTrace
 10
2923.556916011528
 20
729.7448001296261
 30
0.0
 11
2923.556916011528
 21
728.5781334629594
 31
0.0
 12
2927.056916011528
 22
729.1614667962926
 32
0.0
 13
2927.056916011528
 23
729.1614667962926
 33
0.0
  0
SOLID
  5
86C6C
330
86A61
100
AcDbEntity
  8
Dim
 62
     1
100
AcDbTrace
 10
2932.356916011527
 20
729.7448001296261
 30
0.0
 11
2932.356916011527
 21
728.5781334629594
 31
0.0
 12
2928.856916011527
 22
729.1614667962926
 32
0.0
 13
2928.856916011527
 23
729.1614667962926
 33
0.0
  0
MTEXT
  5
86C6D
330
86A61
100
AcDbEntity
  8
Dim
 62
     4
100
AcDbMText
 10
2939.285487440099
 20
731.6614667962928
 30
0.0
 40
4.0
 41
0.0
 71
     5
 72
     1
  1
\A1;1.8
  7
Romans字体
 73
     1
 44
1.0
  0
POINT
  5
86C6E
330
86A61
100
AcDbEntity
  8
Defpoints
 62
     0
100
AcDbPoint
 10
2927.056916011528
 20
722.7055990310547
 30
0.0
  0
POINT
  5
86C6F
330
86A61
100
AcDbEntity
  8
Defpoints
 62
     0
100
AcDbPoint
 10
2928.856916011527
 20
722.7055990310547
 30
0.0
  0
POINT
  5
86C70
330
86A61
100
AcDbEntity
  8
Defpoints
 62
     0
100
AcDbPoint
 10
2928.856916011527
 20
729.1614667962926
 30
0.0
  0
ENDBLK
  5
86A63
330
86A61
100
AcDbEntity
  8
0
100
AcDbBlockEnd
  0
BLOCK
  5
86A6F
330
86A6E
100
AcDbEntity
  8
0
100
AcDbBlockBegin
  2
*D10
 70
     1
 10
0.0
 20
0.0
 30
0.0
  3
*D10
  1

  0
LINE
  5
86C71
330
86A6E
100
AcDbEntity
  8
Dim
 62
     6
370
    -2
100
AcDbLine
 10
2921.956916011528
 20
722.405589031055
 30
0.0
 11
2921.956916011528
 21
735.8416809156218
 31
0.0
  0
LINE
  5
86C72
330
86A6E
100
AcDbEntity
  8
Dim
 62
     6
370
    -2
100
AcDbLine
 10
2933.956916311527
 20
722.405589031055
 30
0.0
 11
2933.956916311527
 21
735.8416809156218
 31
0.0
  0
LINE
  5
86C73
330
86A6E
100
AcDbEntity
  8
Dim
 62
     1
370
    -2
100
AcDbLine
 10
2925.456916011528
 20
734.6416809156218
 30
0.0
 11
2930.456916311527
 21
734.6416809156218
 31
0.0
  0
SOLID
  5
86C74
330
86A6E
100
AcDbEntity
  8
Dim
 62
     1
100
AcDbTrace
 10
2925.456916011528
 20
735.2250142489552
 30
0.0
 11
2925.456916011528
 21
734.0583475822884
 31
0.0
 12
2921.956916011528
 22
734.6416809156218
 32
0.0
 13
2921.956916011528
 23
734.6416809156218
 33
0.0
  0
SOLID
  5
86C75
330
86A6E
100
AcDbEntity
  8
Dim
 62
     1
100
AcDbTrace
 10
2930.456916311527
 20
735.2250142489552
 30
0.0
 11
2930.456916311527
 21
734.0583475822884
 31
0.0
 12
2933.956916311527
 22
734.6416809156218
 32
0.0
 13
2933.956916311527
 23
734.6416809156218
 33
0.0
  0
MTEXT
  5
86C76
330
86A6E
100
AcDbEntity
  8
Dim
 62
     4
100
AcDbMText
 10
2927.956916161527
 20
737.1416809156218
 30
0.0
 40
4.0
 41
0.0
 71
     5
 72
     1
  1
\A1;%%C12
  7
Romans字体
 73
     1
 44
1.0
  0
POINT
  5
86C77
330
86A6E
100
AcDbEntity
  8
Defpoints
 62
     0
100
AcDbPoint
 10
2921.956916011528
 20
722.2055890310549
 30
0.0
  0
POINT
  5
86C78
330
86A6E
100
AcDbEntity
  8
Defpoints
 62
     0
100
AcDbPoint
 10
2933.956916311527
 20
722.2055890310549
 30
0.0
  0
POINT
  5
86C79
330
86A6E
100
AcDbEntity
  8
Defpoints
 62
     0
100
AcDbPoint
 10
2933.956916311527
 20
734.6416809156218
 30
0.0
  0
ENDBLK
  5
86A70
330
86A6E
100
AcDbEntity
  8
0
100
AcDbBlockEnd
  0
BLOCK
  5
86D8F
330
86D8E
100
AcDbEntity
  8
0
100
AcDbBlockBegin
  2
*D11
 70
     1
 10
0.0
 20
0.0
 30
0.0
  3
*D11
  1

  0
LINE
  5
86D90
330
86D8E
100
AcDbEntity
  8
Dim
 62
     6
370
    -2
100
AcDbLine
 10
337.1951705318149
 20
55.98502265313483
 30
0.0
 11
337.1951705318149
 21
53.64675338269869
 31
0.0
  0
LINE
  5
86D91
330
86D8E
100
AcDbEntity
  8
Dim
 62
     6
370
    -2
100
AcDbLine
 10
334.1951705318149
 20
55.98502265313483
 30
0.0
 11
334.1951705318149
 21
53.64675338269869
 31
0.0
  0
LINE
  5
86D92
330
86D8E
100
AcDbEntity
  8
Dim
 62
     1
370
    -2
100
AcDbLine
 10
336.7451705318149
 20
53.94675338269868
 30
0.0
 11
336.672995819344
 21
53.94675338269868
 31
0.0
  0
LINE
  5
86D93
330
86D8E
100
AcDbEntity
  8
Dim
 62
     1
370
    -2
100
AcDbLine
 10
334.6451705318149
 20
53.94675338269868
 30
0.0
 11
334.715852962201
 21
53.94675338269868
 31
0.0
  0
SOLID
  5
86D94
330
86D8E
100
AcDbEntity
  8
Dim
 62
     1
100
AcDbTrace
 10
336.7451705318149
 20
54.02175338269867
 30
0.0
 11
336.7451705318149
 21
53.87175338269868
 31
0.0
 12
337.1951705318149
 22
53.94675338269868
 32
0.0
 13
337.1951705318149
 23
53.94675338269868
 33
0.0
  0
SOLID
  5
86D95
330
86D8E
100
AcDbEntity
  8
Dim
 62
     1
100
AcDbTrace
 10
334.6451705318149
 20
54.02175338269867
 30
0.0
 11
334.6451705318149
 21
53.87175338269868
 31
0.0
 12
334.1951705318149
 22
53.94675338269868
 32
0.0
 13
334.1951705318149
 23
53.94675338269868
 33
0.0
  0
MTEXT
  5
86D96
330
86D8E
100
AcDbEntity
  8
Dim
 62
     4
100
AcDbMText
 10
335.6944243907725
 20
53.94675338269868
 30
0.0
 40
0.75
 41
0.0
 71
     5
 72
     1
  1
M3
 73
     1
 44
1.0
  0
POINT
  5
86D97
330
86D8E
100
AcDbEntity
  8
Defpoints
 62
     0
100
AcDbPoint
 10
337.1951705318149
 20
56.13502265313481
 30
0.0
  0
POINT
  5
86D98
330
86D8E
100
AcDbEntity
  8
Defpoints
 62
     0
100
AcDbPoint
 10
334.1951705318149
 20
56.13502265313481
 30
0.0
  0
POINT
  5
86D99
330
86D8E
100
AcDbEntity
  8
Defpoints
 62
     0
100
AcDbPoint
 10
334.1951705318149
 20
53.94675338269868
 30
0.0
  0
ENDBLK
  5
86D9A
330
86D8E
100
AcDbEntity
  8
0
100
AcDbBlockEnd
  0
BLOCK
  5
86D9C
330
86D9B
100
AcDbEntity
  8
0
100
AcDbBlockBegin
  2
*D12
 70
     1
 10
0.0
 20
0.0
 30
0.0
  3
*D12
  1

  0
LINE
  5
86D9D
330
86D9B
100
AcDbEntity
  8
Dim
 62
     6
370
    -2
100
AcDbLine
 10
332.2951705318149
 20
78.82501865313483
 30
0.0
 11
328.3650388890626
 21
78.82501865313483
 31
0.0
  0
LINE
  5
86D9E
330
86D9B
100
AcDbEntity
  8
Dim
 62
     6
370
    -2
100
AcDbLine
 10
334.3551705318149
 20
55.82502265313481
 30
0.0
 11
328.3650388890626
 21
55.82502265313481
 31
0.0
  0
LINE
  5
86D9F
330
86D9B
100
AcDbEntity
  8
Dim
 62
     1
370
    -2
100
AcDbLine
 10
328.6650388890627
 20
78.37501865313483
 30
0.0
 11
328.6650388890627
 21
68.26073493884902
 31
0.0
  0
LINE
  5
86DA0
330
86D9B
100
AcDbEntity
  8
Dim
 62
     1
370
    -2
100
AcDbLine
 10
328.6650388890627
 20
56.27502265313481
 30
0.0
 11
328.6650388890627
 21
66.38930636742045
 31
0.0
  0
SOLID
  5
86DA1
330
86D9B
100
AcDbEntity
  8
Dim
 62
     1
100
AcDbTrace
 10
328.5900388890627
 20
78.37501865313483
 30
0.0
 11
328.7400388890627
 21
78.37501865313483
 31
0.0
 12
328.6650388890627
 22
78.82501865313483
 32
0.0
 13
328.6650388890627
 23
78.82501865313483
 33
0.0
  0
SOLID
  5
86DA2
330
86D9B
100
AcDbEntity
  8
Dim
 62
     1
100
AcDbTrace
 10
328.5900388890627
 20
56.27502265313481
 30
0.0
 11
328.7400388890627
 21
56.27502265313481
 31
0.0
 12
328.6650388890627
 22
55.82502265313481
 32
0.0
 13
328.6650388890627
 23
55.82502265313481
 33
0.0
  0
MTEXT
  5
86DA3
330
86D9B
100
AcDbEntity
  8
Dim
 62
     4
100
AcDbMText
 10
328.6650388890627
 20
67.3250206531348
 30
0.0
 40
0.75
 41
0.0
 71
     5
 72
     1
  1
23
 11
0.0000000000000001
 21
1.0
 31
0.0
 73
     1
 44
1.0
  0
POINT
  5
86DA4
330
86D9B
100
AcDbEntity
  8
Defpoints
 62
     0
100
AcDbPoint
 10
332.4451705318149
 20
78.82501865313483
 30
0.0
  0
POINT
  5
86DA5
330
86D9B
100
AcDbEntity
  8
Defpoints
 62
     0
100
AcDbPoint
 10
334.5051705318149
 20
55.82502265313481
 30
0.0
  0
POINT
  5
86DA6
330
86D9B
100
AcDbEntity
  8
Defpoints
 62
     0
100
AcDbPoint
 10
328.6650388890627
 20
55.82502265313481
 30
0.0
  0
ENDBLK
  5
86DA7
330
86D9B
100
AcDbEntity
  8
0
100
AcDbBlockEnd
  0
BLOCK
  5
86DA9
330
86DA8
100
AcDbEntity
  8
0
100
AcDbBlockBegin
  2
*D13
 70
     1
 10
0.0
 20
0.0
 30
0.0
  3
*D13
  1

  0
LINE
  5
86DAA
330
86DA8
100
AcDbEntity
  8
Dim
 62
     6
370
    -2
100
AcDbLine
 10
333.6951705318149
 20
77.26435765094734
 30
0.0
 11
333.6951705318149
 21
81.26928724969889
 31
0.0
  0
LINE
  5
86DAB
330
86DA8
100
AcDbEntity
  8
Dim
 62
     6
370
    -2
100
AcDbLine
 10
337.6951705318149
 20
77.32502265313484
 30
0.0
 11
337.6951705318149
 21
81.26928724969889
 31
0.0
  0
LINE
  5
86DAC
330
86DA8
100
AcDbEntity
  8
Dim
 62
     1
370
    -2
100
AcDbLine
 10
334.1451705318149
 20
80.9692872496989
 30
0.0
 11
334.6552774841279
 21
80.9692872496989
 31
0.0
  0
LINE
  5
86DAD
330
86DA8
100
AcDbEntity
  8
Dim
 62
     1
370
    -2
100
AcDbLine
 10
337.2451705318149
 20
80.9692872496989
 30
0.0
 11
336.6409917698423
 21
80.9692872496989
 31
0.0
  0
SOLID
  5
86DAE
330
86DA8
100
AcDbEntity
  8
Dim
 62
     1
100
AcDbTrace
 10
334.1451705318149
 20
81.0442872496989
 30
0.0
 11
334.1451705318149
 21
80.8942872496989
 31
0.0
 12
333.6951705318149
 22
80.9692872496989
 32
0.0
 13
333.6951705318149
 23
80.9692872496989
 33
0.0
  0
SOLID
  5
86DAF
330
86DA8
100
AcDbEntity
  8
Dim
 62
     1
100
AcDbTrace
 10
337.2451705318149
 20
81.0442872496989
 30
0.0
 11
337.2451705318149
 21
80.8942872496989
 31
0.0
 12
337.6951705318149
 22
80.9692872496989
 32
0.0
 13
337.6951705318149
 23
80.9692872496989
 33
0.0
  0
MTEXT
  5
86DB0
330
86DA8
100
AcDbEntity
  8
Dim
 62
     4
100
AcDbMText
 10
335.6481346269851
 20
80.9692872496989
 30
0.0
 40
0.75
 41
0.0
 71
     5
 72
     1
  1
M4
 73
     1
 44
1.0
  0
POINT
  5
86DB1
330
86DA8
100
AcDbEntity
  8
Defpoints
 62
     0
100
AcDbPoint
 10
333.6951705318149
 20
77.11435765094734
 30
0.0
  0
POINT
  5
86DB2
330
86DA8
100
AcDbEntity
  8
Defpoints
 62
     0
100
AcDbPoint
 10
337.6951705318149
 20
77.17502265313483
 30
0.0
  0
POINT
  5
86DB3
330
86DA8
100
AcDbEntity
  8
Defpoints
 62
     0
100
AcDbPoint
 10
337.6951705318149
 20
80.9692872496989
 30
0.0
  0
ENDBLK
  5
86DB4
330
86DA8
100
AcDbEntity
  8
0
100
AcDbBlockEnd
  0
BLOCK
  5
86DB6
330
86DB5
100
AcDbEntity
  8
0
100
AcDbBlockBegin
  2
*D14
 70
     1
 10
0.0
 20
0.0
 30
0.0
  3
*D14
  1

  0
LINE
  5
86DB7
330
86DB5
100
AcDbEntity
  8
Dim
 62
     6
370
    -2
100
AcDbLine
 10
335.8451705318149
 20
55.82502265313481
 30
0.0
 11
340.4847459528019
 21
55.8250226531348
 31
0.0
  0
LINE
  5
86DB8
330
86DB5
100
AcDbEntity
  8
Dim
 62
     6
370
    -2
100
AcDbLine
 10
338.5951705318149
 20
63.8250226531348
 30
0.0
 11
340.4847459528019
 21
63.8250226531348
 31
0.0
  0
LINE
  5
86DB9
330
86DB5
100
AcDbEntity
  8
Dim
 62
     1
370
    -2
100
AcDbLine
 10
340.1847459528019
 20
56.27502265313481
 30
0.0
 11
340.1847459528019
 21
59.17502265313476
 31
0.0
  0
LINE
  5
86DBA
330
86DB5
100
AcDbEntity
  8
Dim
 62
     1
370
    -2
100
AcDbLine
 10
340.1847459528019
 20
63.3750226531348
 30
0.0
 11
340.1847459528019
 21
60.47502265313475
 31
0.0
  0
SOLID
  5
86DBB
330
86DB5
100
AcDbEntity
  8
Dim
 62
     1
100
AcDbTrace
 10
340.1097459528019
 20
56.27502265313481
 30
0.0
 11
340.2597459528019
 21
56.27502265313481
 31
0.0
 12
340.1847459528019
 22
55.8250226531348
 32
0.0
 13
340.1847459528019
 23
55.8250226531348
 33
0.0
  0
SOLID
  5
86DBC
330
86DB5
100
AcDbEntity
  8
Dim
 62
     1
100
AcDbTrace
 10
340.1097459528019
 20
63.3750226531348
 30
0.0
 11
340.2597459528019
 21
63.3750226531348
 31
0.0
 12
340.1847459528019
 22
63.8250226531348
 32
0.0
 13
340.1847459528019
 23
63.8250226531348
 33
0.0
  0
MTEXT
  5
86DBD
330
86DB5
100
AcDbEntity
  8
Dim
 62
     4
100
AcDbMText
 10
340.1847459528019
 20
59.82502265313482
 30
0.0
 40
0.75
 41
0.0
 71
     5
 72
     1
  1
8
 11
0.0000000000000001
 21
1.0
 31
0.0
 73
     1
 44
1.0
  0
POINT
  5
86DBE
330
86DB5
100
AcDbEntity
  8
Defpoints
 62
     0
100
AcDbPoint
 10
335.6951705318149
 20
55.82502265313481
 30
0.0
  0
POINT
  5
86DBF
330
86DB5
100
AcDbEntity
  8
Defpoints
 62
     0
100
AcDbPoint
 10
338.4451705318149
 20
63.8250226531348
 30
0.0
  0
POINT
  5
86DC0
330
86DB5
100
AcDbEntity
  8
Defpoints
 62
     0
100
AcDbPoint
 10
340.1847459528019
 20
63.8250226531348
 30
0.0
  0
ENDBLK
  5
86DC1
330
86DB5
100
AcDbEntity
  8
0
100
AcDbBlockEnd
  0
BLOCK
  5
86DC3
330
86DC2
100
AcDbEntity
  8
0
100
AcDbBlockBegin
  2
*D15
 70
     1
 10
0.0
 20
0.0
 30
0.0
  3
*D15
  1

  0
LINE
  5
86DC4
330
86DC2
100
AcDbEntity
  8
Dim
 62
     6
370
    -2
100
AcDbLine
 10
337.4951687997681
 20
65.82502265313481
 30
0.0
 11
343.7375874310293
 21
65.82502265313481
 31
0.0
  0
LINE
  5
86DC5
330
86DC2
100
AcDbEntity
  8
Dim
 62
     6
370
    -2
100
AcDbLine
 10
339.0951705318149
 20
78.82501865313483
 30
0.0
 11
343.7375874310293
 21
78.82501865313483
 31
0.0
  0
LINE
  5
86DC6
330
86DC2
100
AcDbEntity
  8
Dim
 62
     1
370
    -2
100
AcDbLine
 10
343.4375874310293
 20
66.27502265313481
 30
0.0
 11
343.4375874310293
 21
72.49635050890119
 31
0.0
  0
LINE
  5
86DC7
330
86DC2
100
AcDbEntity
  8
Dim
 62
     1
370
    -2
100
AcDbLine
 10
343.4375874310293
 20
78.37501865313483
 30
0.0
 11
343.4375874310293
 21
74.28206479461547
 31
0.0
  0
SOLID
  5
86DC8
330
86DC2
100
AcDbEntity
  8
Dim
 62
     1
100
AcDbTrace
 10
343.3625874310294
 20
66.27502265313481
 30
0.0
 11
343.5125874310293
 21
66.27502265313481
 31
0.0
 12
343.4375874310293
 22
65.82502265313481
 32
0.0
 13
343.4375874310293
 23
65.82502265313481
 33
0.0
  0
SOLID
  5
86DC9
330
86DC2
100
AcDbEntity
  8
Dim
 62
     1
100
AcDbTrace
 10
343.3625874310294
 20
78.37501865313483
 30
0.0
 11
343.5125874310293
 21
78.37501865313483
 31
0.0
 12
343.4375874310293
 22
78.82501865313483
 32
0.0
 13
343.4375874310293
 23
78.82501865313483
 33
0.0
  0
MTEXT
  5
86DCA
330
86DC2
100
AcDbEntity
  8
Dim
 62
     4
100
AcDbMText
 10
343.4375874310293
 20
73.38920765175839
 30
0.0
 40
0.75
 41
0.0
 71
     5
 72
     1
  1
13
 11
0.0000000000000001
 21
1.0
 31
0.0
 73
     1
 44
1.0
  0
POINT
  5
86DCB
330
86DC2
100
AcDbEntity
  8
Defpoints
 62
     0
100
AcDbPoint
 10
337.3451687997681
 20
65.82502265313481
 30
0.0
  0
POINT
  5
86DCC
330
86DC2
100
AcDbEntity
  8
Defpoints
 62
     0
100
AcDbPoint
 10
338.9451705318149
 20
78.82501865313483
 30
0.0
  0
POINT
  5
86DCD
330
86DC2
100
AcDbEntity
  8
Defpoints
 62
     0
100
AcDbPoint
 10
343.4375874310293
 20
78.82501865313483
 30
0.0
  0
ENDBLK
  5
86DCE
330
86DC2
100
AcDbEntity
  8
0
100
AcDbBlockEnd
  0
BLOCK
  5
86DD0
330
86DCF
100
AcDbEntity
  8
0
100
AcDbBlockBegin
  2
*D16
 70
     1
 10
0.0
 20
0.0
 30
0.0
  3
*D16
  1

  0
LINE
  5
86DD1
330
86DCF
100
AcDbEntity
  8
Dim
 62
     6
370
    -2
100
AcDbLine
 10
332.4451705318149
 20
78.97501865313485
 30
0.0
 11
332.4451705318149
 21
83.39014630117024
 31
0.0
  0
LINE
  5
86DD2
330
86DCF
100
AcDbEntity
  8
Dim
 62
     6
370
    -2
100
AcDbLine
 10
338.9451705318149
 20
78.97501865313485
 30
0.0
 11
338.9451705318149
 21
83.39014630117024
 31
0.0
  0
LINE
  5
86DD3
330
86DCF
100
AcDbEntity
  8
Dim
 62
     1
370
    -2
100
AcDbLine
 10
332.8951705318149
 20
83.09014630117024
 30
0.0
 11
334.3064424412722
 21
83.09014630117024
 31
0.0
  0
LINE
  5
86DD4
330
86DCF
100
AcDbEntity
  8
Dim
 62
     1
370
    -2
100
AcDbLine
 10
338.4951705318149
 20
83.09014630117024
 30
0.0
 11
337.063585298415
 21
83.09014630117024
 31
0.0
  0
SOLID
  5
86DD5
330
86DCF
100
AcDbEntity
  8
Dim
 62
     1
100
AcDbTrace
 10
332.8951705318149
 20
83.16514630117024
 30
0.0
 11
332.8951705318149
 21
83.01514630117024
 31
0.0
 12
332.4451705318149
 22
83.09014630117024
 32
0.0
 13
332.4451705318149
 23
83.09014630117024
 33
0.0
  0
SOLID
  5
86DD6
330
86DCF
100
AcDbEntity
  8
Dim
 62
     1
100
AcDbTrace
 10
338.4951705318149
 20
83.16514630117024
 30
0.0
 11
338.4951705318149
 21
83.01514630117024
 31
0.0
 12
338.9451705318149
 22
83.09014630117024
 32
0.0
 13
338.9451705318149
 23
83.09014630117024
 33
0.0
  0
MTEXT
  5
86DD7
330
86DCF
100
AcDbEntity
  8
Dim
 62
     4
100
AcDbMText
 10
335.6850138698436
 20
83.09014630117024
 30
0.0
 40
0.75
 41
0.0
 71
     5
 72
     1
  1
%%c6.5
 73
     1
 44
1.0
  0
POINT
  5
86DD8
330
86DCF
100
AcDbEntity
  8
Defpoints
 62
     0
100
AcDbPoint
 10
332.4451705318149
 20
78.82501865313485
 30
0.0
  0
POINT
  5
86DD9
330
86DCF
100
AcDbEntity
  8
Defpoints
 62
     0
100
AcDbPoint
 10
338.9451705318149
 20
78.82501865313485
 30
0.0
  0
POINT
  5
86DDA
330
86DCF
100
AcDbEntity
  8
Defpoints
 62
     0
100
AcDbPoint
 10
338.9451705318149
 20
83.09014630117024
 30
0.0
  0
ENDBLK
  5
86DDB
330
86DCF
100
AcDbEntity
  8
0
100
AcDbBlockEnd
  0
BLOCK
  5
86DDD
330
86DDC
100
AcDbEntity
  8
0
100
AcDbBlockBegin
  2
*D17
 70
     1
 10
0.0
 20
0.0
 30
0.0
  3
*D17
  1

  0
LINE
  5
86DDE
330
86DDC
100
AcDbEntity
  8
Dim
 62
     6
370
    -2
100
AcDbLine
 10
332.9451705318149
 20
63.67502265313483
 30
0.0
 11
332.9451705318149
 21
61.88348772404846
 31
0.0
  0
LINE
  5
86DDF
330
86DDC
100
AcDbEntity
  8
Dim
 62
     6
370
    -2
100
AcDbLine
 10
338.4451705318149
 20
63.67502265313483
 30
0.0
 11
338.4451705318149
 21
61.88348772404846
 31
0.0
  0
LINE
  5
86DE0
330
86DDC
100
AcDbEntity
  8
Dim
 62
     1
370
    -2
100
AcDbLine
 10
337.9951705318149
 20
62.18348772404844
 30
0.0
 11
333.3951705318149
 21
62.18348772404844
 31
0.0
  0
LINE
  5
86DE1
330
86DDC
100
AcDbEntity
  8
Dim
 62
     1
370
    -2
100
AcDbLine
 10
332.9451705318149
 20
62.18348772404844
 30
0.0
 11
332.2497406520336
 21
62.18348772404844
 31
0.0
  0
SOLID
  5
86DE2
330
86DDC
100
AcDbEntity
  8
Dim
 62
     1
100
AcDbTrace
 10
337.9951705318149
 20
62.25848772404845
 30
0.0
 11
337.9951705318149
 21
62.10848772404845
 31
0.0
 12
338.4451705318149
 22
62.18348772404844
 32
0.0
 13
338.4451705318149
 23
62.18348772404844
 33
0.0
  0
SOLID
  5
86DE3
330
86DDC
100
AcDbEntity
  8
Dim
 62
     1
100
AcDbTrace
 10
333.3951705318149
 20
62.25848772404845
 30
0.0
 11
333.3951705318149
 21
62.10848772404845
 31
0.0
 12
332.9451705318149
 22
62.18348772404844
 32
0.0
 13
332.9451705318149
 23
62.18348772404844
 33
0.0
  0
MTEXT
  5
86DE4
330
86DDC
100
AcDbEntity
  8
Dim
 62
     4
100
AcDbMText
 10
330.8711692234622
 20
62.18348772404844
 30
0.0
 40
0.75
 41
0.0
 71
     5
 72
     1
  1
%%c5.5
 73
     1
 44
1.0
  0
POINT
  5
86DE5
330
86DDC
100
AcDbEntity
  8
Defpoints
 62
     0
100
AcDbPoint
 10
332.9451705318149
 20
63.82502265313482
 30
0.0
  0
POINT
  5
86DE6
330
86DDC
100
AcDbEntity
  8
Defpoints
 62
     0
100
AcDbPoint
 10
338.4451705318149
 20
63.82502265313482
 30
0.0
  0
POINT
  5
86DE7
330
86DDC
100
AcDbEntity
  8
Defpoints
 62
     0
100
AcDbPoint
 10
338.4451705318149
 20
62.18348772404844
 30
0.0
  0
ENDBLK
  5
86DE8
330
86DDC
100
AcDbEntity
  8
0
100
AcDbBlockEnd
  0
BLOCK
  5
86EFC
330
86EFB
100
AcDbEntity
  8
0
100
AcDbBlockBegin
  2
*D18
 70
     1
 10
0.0
 20
0.0
 30
0.0
  3
*D18
  1

  0
LINE
  5
87092
330
86EFB
100
AcDbEntity
  8
Dim
 62
     6
370
    -2
100
AcDbLine
 10
2974.445449717484
 20
695.2629853483199
 30
0.0
 11
2974.445449717484
 21
688.9230798071548
 31
0.0
  0
LINE
  5
87093
330
86EFB
100
AcDbEntity
  8
Dim
 62
     6
370
    -2
100
AcDbLine
 10
2971.445449717486
 20
695.2629853483199
 30
0.0
 11
2971.445449717486
 21
688.9230798071548
 31
0.0
  0
LINE
  5
87094
330
86EFB
100
AcDbEntity
  8
Dim
 62
     1
370
    -2
100
AcDbLine
 10
2975.945449717484
 20
689.7230798071549
 30
0.0
 11
2977.445449717484
 21
689.7230798071549
 31
0.0
  0
LINE
  5
87095
330
86EFB
100
AcDbEntity
  8
Dim
 62
     1
370
    -2
100
AcDbLine
 10
2969.945449717485
 20
689.7230798071549
 30
0.0
 11
2968.445449717485
 21
689.7230798071549
 31
0.0
  0
SOLID
  5
87096
330
86EFB
100
AcDbEntity
  8
Dim
 62
     1
100
AcDbTrace
 10
2975.945449717484
 20
689.9730798071549
 30
0.0
 11
2975.945449717484
 21
689.4730798071549
 31
0.0
 12
2974.445449717484
 22
689.7230798071549
 32
0.0
 13
2974.445449717484
 23
689.7230798071549
 33
0.0
  0
SOLID
  5
87097
330
86EFB
100
AcDbEntity
  8
Dim
 62
     1
100
AcDbTrace
 10
2969.945449717485
 20
689.9730798071549
 30
0.0
 11
2969.945449717485
 21
689.4730798071549
 31
0.0
 12
2971.445449717486
 22
689.7230798071549
 32
0.0
 13
2971.445449717486
 23
689.7230798071549
 33
0.0
  0
MTEXT
  5
87098
330
86EFB
100
AcDbEntity
  8
Dim
 62
     4
100
AcDbMText
 10
2972.945449717484
 20
691.2230798071549
 30
0.0
 40
2.0
 41
0.0
 71
     5
 72
     1
  1
\A1;M3
  7
Romans字体
 73
     1
 44
1.0
  0
POINT
  5
87099
330
86EFB
100
AcDbEntity
  8
Defpoints
 62
     0
100
AcDbPoint
 10
2974.445449717484
 20
695.4629853483201
 30
0.0
  0
POINT
  5
8709A
330
86EFB
100
AcDbEntity
  8
Defpoints
 62
     0
100
AcDbPoint
 10
2971.445449717486
 20
695.4629853483201
 30
0.0
  0
POINT
  5
8709B
330
86EFB
100
AcDbEntity
  8
Defpoints
 62
     0
100
AcDbPoint
 10
2971.445449717486
 20
689.7230798071549
 30
0.0
  0
ENDBLK
  5
86EFD
330
86EFB
100
AcDbEntity
  8
0
100
AcDbBlockEnd
  0
BLOCK
  5
86F09
330
86F08
100
AcDbEntity
  8
0
100
AcDbBlockBegin
  2
*D19
 70
     1
 10
0.0
 20
0.0
 30
0.0
  3
*D19
  1

  0
LINE
  5
8705B
330
86F08
100
AcDbEntity
  8
Dim
 62
     6
370
    -2
100
AcDbLine
 10
2969.495449717485
 20
718.1529813483201
 30
0.0
 11
2965.115318074732
 21
718.1529813483201
 31
0.0
  0
LINE
  5
8705C
330
86F08
100
AcDbEntity
  8
Dim
 62
     6
370
    -2
100
AcDbLine
 10
2971.555449717484
 20
695.15298534832
 30
0.0
 11
2965.115318074732
 21
695.15298534832
 31
0.0
  0
LINE
  5
8705D
330
86F08
100
AcDbEntity
  8
Dim
 62
     1
370
    -2
100
AcDbLine
 10
2965.915318074732
 20
716.65298134832
 30
0.0
 11
2965.915318074732
 21
696.65298534832
 31
0.0
  0
SOLID
  5
8705E
330
86F08
100
AcDbEntity
  8
Dim
 62
     1
100
AcDbTrace
 10
2965.665318074732
 20
716.65298134832
 30
0.0
 11
2966.165318074732
 21
716.65298134832
 31
0.0
 12
2965.915318074732
 22
718.1529813483201
 32
0.0
 13
2965.915318074732
 23
718.1529813483201
 33
0.0
  0
SOLID
  5
8705F
330
86F08
100
AcDbEntity
  8
Dim
 62
     1
100
AcDbTrace
 10
2965.665318074732
 20
696.65298534832
 30
0.0
 11
2966.165318074732
 21
696.65298534832
 31
0.0
 12
2965.915318074732
 22
695.15298534832
 32
0.0
 13
2965.915318074732
 23
695.15298534832
 33
0.0
  0
MTEXT
  5
87060
330
86F08
100
AcDbEntity
  8
Dim
 62
     4
100
AcDbMText
 10
2964.415318074732
 20
706.65298334832
 30
0.0
 40
2.0
 41
0.0
 71
     5
 72
     1
  1
\A1;23
  7
Romans字体
 11
0.0000000000000001
 21
1.0
 31
0.0
 73
     1
 44
1.0
  0
POINT
  5
87061
330
86F08
100
AcDbEntity
  8
Defpoints
 62
     0
100
AcDbPoint
 10
2969.695449717484
 20
718.1529813483201
 30
0.0
  0
POINT
  5
87062
330
86F08
100
AcDbEntity
  8
Defpoints
 62
     0
100
AcDbPoint
 10
2971.755449717484
 20
695.15298534832
 30
0.0
  0
POINT
  5
87063
330
86F08
100
AcDbEntity
  8
Defpoints
 62
     0
100
AcDbPoint
 10
2965.915318074732
 20
695.15298534832
 30
0.0
  0
ENDBLK
  5
86F0A
330
86F08
100
AcDbEntity
  8
0
100
AcDbBlockEnd
  0
BLOCK
  5
86F15
330
86F14
100
AcDbEntity
  8
0
100
AcDbBlockBegin
  2
*D20
 70
     1
 10
0.0
 20
0.0
 30
0.0
  3
*D20
  1

  0
LINE
  5
870E6
330
86F14
100
AcDbEntity
  8
Dim
 62
     6
370
    -2
100
AcDbLine
 10
2970.945449717484
 20
716.6423203461325
 30
0.0
 11
2970.945449717484
 21
722.5380157662998
 31
0.0
  0
LINE
  5
870E7
330
86F14
100
AcDbEntity
  8
Dim
 62
     6
370
    -2
100
AcDbLine
 10
2974.945449717484
 20
716.7029853483202
 30
0.0
 11
2974.945449717484
 21
722.5380157662998
 31
0.0
  0
LINE
  5
870E8
330
86F14
100
AcDbEntity
  8
Dim
 62
     1
370
    -2
100
AcDbLine
 10
2972.445449717485
 20
721.7380157663
 30
0.0
 11
2973.445449717484
 21
721.7380157663
 31
0.0
  0
SOLID
  5
870E9
330
86F14
100
AcDbEntity
  8
Dim
 62
     1
100
AcDbTrace
 10
2972.445449717485
 20
721.9880157662998
 30
0.0
 11
2972.445449717485
 21
721.4880157662999
 31
0.0
 12
2970.945449717484
 22
721.7380157663
 32
0.0
 13
2970.945449717484
 23
721.7380157663
 33
0.0
  0
SOLID
  5
870EA
330
86F14
100
AcDbEntity
  8
Dim
 62
     1
100
AcDbTrace
 10
2973.445449717484
 20
721.9880157662998
 30
0.0
 11
2973.445449717484
 21
721.4880157662999
 31
0.0
 12
2974.945449717484
 22
721.7380157663
 32
0.0
 13
2974.945449717484
 23
721.7380157663
 33
0.0
  0
MTEXT
  5
870EB
330
86F14
100
AcDbEntity
  8
Dim
 62
     4
100
AcDbMText
 10
2972.945449717484
 20
723.2380157663
 30
0.0
 40
2.0
 41
0.0
 71
     5
 72
     1
  1
\A1;M4
  7
Romans字体
 73
     1
 44
1.0
  0
POINT
  5
870EC
330
86F14
100
AcDbEntity
  8
Defpoints
 62
     0
100
AcDbPoint
 10
2970.945449717484
 20
716.4423203461326
 30
0.0
  0
POINT
  5
870ED
330
86F14
100
AcDbEntity
  8
Defpoints
 62
     0
100
AcDbPoint
 10
2974.945449717484
 20
716.5029853483201
 30
0.0
  0
POINT
  5
870EE
330
86F14
100
AcDbEntity
  8
Defpoints
 62
     0
100
AcDbPoint
 10
2974.945449717484
 20
721.7380157663
 30
0.0
  0
ENDBLK
  5
86F16
330
86F14
100
AcDbEntity
  8
0
100
AcDbBlockEnd
  0
BLOCK
  5
86F22
330
86F21
100
AcDbEntity
  8
0
100
AcDbBlockBegin
  2
*D21
 70
     1
 10
0.0
 20
0.0
 30
0.0
  3
*D21
  1

  0
LINE
  5
8707F
330
86F21
100
AcDbEntity
  8
Dim
 62
     6
370
    -2
100
AcDbLine
 10
2969.695449717484
 20
718.3529813483202
 30
0.0
 11
2969.695449717484
 21
726.1775385699117
 31
0.0
  0
LINE
  5
87080
330
86F21
100
AcDbEntity
  8
Dim
 62
     6
370
    -2
100
AcDbLine
 10
2976.195449717484
 20
718.3529813483202
 30
0.0
 11
2976.195449717484
 21
726.1775385699117
 31
0.0
  0
LINE
  5
87081
330
86F21
100
AcDbEntity
  8
Dim
 62
     1
370
    -2
100
AcDbLine
 10
2971.195449717484
 20
725.3775385699117
 30
0.0
 11
2974.695449717486
 21
725.3775385699117
 31
0.0
  0
SOLID
  5
87082
330
86F21
100
AcDbEntity
  8
Dim
 62
     1
100
AcDbTrace
 10
2971.195449717484
 20
725.6275385699117
 30
0.0
 11
2971.195449717484
 21
725.1275385699117
 31
0.0
 12
2969.695449717484
 22
725.3775385699117
 32
0.0
 13
2969.695449717484
 23
725.3775385699117
 33
0.0
  0
SOLID
  5
87083
330
86F21
100
AcDbEntity
  8
Dim
 62
     1
100
AcDbTrace
 10
2974.695449717486
 20
725.6275385699117
 30
0.0
 11
2974.695449717486
 21
725.1275385699117
 31
0.0
 12
2976.195449717484
 22
725.3775385699117
 32
0.0
 13
2976.195449717484
 23
725.3775385699117
 33
0.0
  0
MTEXT
  5
87084
330
86F21
100
AcDbEntity
  8
Dim
 62
     4
100
AcDbMText
 10
2972.945449717484
 20
726.8775385699117
 30
0.0
 40
2.0
 41
0.0
 71
     5
 72
     1
  1
\A1;%%c6.5
  7
Romans字体
 73
     1
 44
1.0
  0
POINT
  5
87085
330
86F21
100
AcDbEntity
  8
Defpoints
 62
     0
100
AcDbPoint
 10
2969.695449717484
 20
718.1529813483201
 30
0.0
  0
POINT
  5
87086
330
86F21
100
AcDbEntity
  8
Defpoints
 62
     0
100
AcDbPoint
 10
2976.195449717484
 20
718.1529813483201
 30
0.0
  0
POINT
  5
87087
330
86F21
100
AcDbEntity
  8
Defpoints
 62
     0
100
AcDbPoint
 10
2976.195449717484
 20
725.3775385699117
 30
0.0
  0
ENDBLK
  5
86F23
330
86F21
100
AcDbEntity
  8
0
100
AcDbBlockEnd
  0
BLOCK
  5
86F4C
330
86F4B
100
AcDbEntity
  8
0
100
AcDbBlockBegin
  2
*D22
 70
     1
 10
0.0
 20
0.0
 30
0.0
  3
*D22
  1

  0
LINE
  5
870F9
330
86F4B
100
AcDbEntity
  8
Dim
 62
     6
370
    -2
100
AcDbLine
 10
2973.145449717484
 20
695.15298534832
 30
0.0
 11
2981.487866616699
 21
695.15298534832
 31
0.0
  0
LINE
  5
870FA
330
86F4B
100
AcDbEntity
  8
Dim
 62
     6
370
    -2
100
AcDbLine
 10
2975.895449717484
 20
703.15298534832
 30
0.0
 11
2981.487866616699
 21
703.15298534832
 31
0.0
  0
LINE
  5
870FB
330
86F4B
100
AcDbEntity
  8
Dim
 62
     1
370
    -2
100
AcDbLine
 10
2980.687866616699
 20
696.65298534832
 30
0.0
 11
2980.687866616699
 21
701.65298534832
 31
0.0
  0
SOLID
  5
870FC
330
86F4B
100
AcDbEntity
  8
Dim
 62
     1
100
AcDbTrace
 10
2980.437866616699
 20
696.65298534832
 30
0.0
 11
2980.937866616699
 21
696.65298534832
 31
0.0
 12
2980.687866616699
 22
695.15298534832
 32
0.0
 13
2980.687866616699
 23
695.15298534832
 33
0.0
  0
SOLID
  5
870FD
330
86F4B
100
AcDbEntity
  8
Dim
 62
     1
100
AcDbTrace
 10
2980.437866616699
 20
701.65298534832
 30
0.0
 11
2980.937866616699
 21
701.65298534832
 31
0.0
 12
2980.687866616699
 22
703.15298534832
 32
0.0
 13
2980.687866616699
 23
703.15298534832
 33
0.0
  0
MTEXT
  5
870FE
330
86F4B
100
AcDbEntity
  8
Dim
 62
     4
100
AcDbMText
 10
2979.187866616699
 20
699.15298534832
 30
0.0
 40
2.0
 41
0.0
 71
     5
 72
     1
  1
\A1;8
  7
Romans字体
 11
0.0000000000000001
 21
1.0
 31
0.0
 73
     1
 44
1.0
  0
POINT
  5
870FF
330
86F4B
100
AcDbEntity
  8
Defpoints
 62
     0
100
AcDbPoint
 10
2972.945449717484
 20
695.15298534832
 30
0.0
  0
POINT
  5
87100
330
86F4B
100
AcDbEntity
  8
Defpoints
 62
     0
100
AcDbPoint
 10
2975.695449717485
 20
703.15298534832
 30
0.0
  0
POINT
  5
87101
330
86F4B
100
AcDbEntity
  8
Defpoints
 62
     0
100
AcDbPoint
 10
2980.687866616699
 20
703.15298534832
 30
0.0
  0
ENDBLK
  5
86F4D
330
86F4B
100
AcDbEntity
  8
0
100
AcDbBlockEnd
  0
BLOCK
  5
86F58
330
86F57
100
AcDbEntity
  8
0
100
AcDbBlockBegin
  2
*D23
 70
     1
 10
0.0
 20
0.0
 30
0.0
  3
*D23
  1

  0
LINE
  5
87076
330
86F57
100
AcDbEntity
  8
Dim
 62
     6
370
    -2
100
AcDbLine
 10
2974.795447985437
 20
705.15298534832
 30
0.0
 11
2981.487866616699
 21
705.15298534832
 31
0.0
  0
LINE
  5
87077
330
86F57
100
AcDbEntity
  8
Dim
 62
     6
370
    -2
100
AcDbLine
 10
2976.395449717484
 20
718.1529813483201
 30
0.0
 11
2981.487866616699
 21
718.1529813483201
 31
0.0
  0
LINE
  5
87078
330
86F57
100
AcDbEntity
  8
Dim
 62
     1
370
    -2
100
AcDbLine
 10
2980.687866616699
 20
706.65298534832
 30
0.0
 11
2980.687866616699
 21
716.65298134832
 31
0.0
  0
SOLID
  5
87079
330
86F57
100
AcDbEntity
  8
Dim
 62
     1
100
AcDbTrace
 10
2980.437866616699
 20
706.65298534832
 30
0.0
 11
2980.937866616699
 21
706.65298534832
 31
0.0
 12
2980.687866616699
 22
705.15298534832
 32
0.0
 13
2980.687866616699
 23
705.15298534832
 33
0.0
  0
SOLID
  5
8707A
330
86F57
100
AcDbEntity
  8
Dim
 62
     1
100
AcDbTrace
 10
2980.437866616699
 20
716.65298134832
 30
0.0
 11
2980.937866616699
 21
716.65298134832
 31
0.0
 12
2980.687866616699
 22
718.1529813483201
 32
0.0
 13
2980.687866616699
 23
718.1529813483201
 33
0.0
  0
MTEXT
  5
8707B
330
86F57
100
AcDbEntity
  8
Dim
 62
     4
100
AcDbMText
 10
2979.187866616699
 20
712.7171703469437
 30
0.0
 40
2.0
 41
0.0
 71
     5
 72
     1
  1
\A1;13
  7
Romans字体
 11
0.0000000000000001
 21
1.0
 31
0.0
 73
     1
 44
1.0
  0
POINT
  5
8707C
330
86F57
100
AcDbEntity
  8
Defpoints
 62
     0
100
AcDbPoint
 10
2974.595447985438
 20
705.15298534832
 30
0.0
  0
POINT
  5
8707D
330
86F57
100
AcDbEntity
  8
Defpoints
 62
     0
100
AcDbPoint
 10
2976.195449717484
 20
718.1529813483201
 30
0.0
  0
POINT
  5
8707E
330
86F57
100
AcDbEntity
  8
Defpoints
 62
     0
100
AcDbPoint
 10
2980.687866616699
 20
718.1529813483201
 30
0.0
  0
ENDBLK
  5
86F59
330
86F57
100
AcDbEntity
  8
0
100
AcDbBlockEnd
  0
BLOCK
  5
86F6E
330
86F6D
100
AcDbEntity
  8
0
100
AcDbBlockBegin
  2
*D24
 70
     1
 10
0.0
 20
0.0
 30
0.0
  3
*D24
  1

  0
LINE
  5
8709C
330
86F6D
100
AcDbEntity
  8
Dim
 62
     6
370
    -2
100
AcDbLine
 10
2970.195449717484
 20
702.9529853483201
 30
0.0
 11
2970.195449717484
 21
700.7114504192339
 31
0.0
  0
LINE
  5
8709D
330
86F6D
100
AcDbEntity
  8
Dim
 62
     6
370
    -2
100
AcDbLine
 10
2975.695449717485
 20
702.9529853483201
 30
0.0
 11
2975.695449717485
 21
700.7114504192339
 31
0.0
  0
LINE
  5
8709E
330
86F6D
100
AcDbEntity
  8
Dim
 62
     1
370
    -2
100
AcDbLine
 10
2974.195449717484
 20
701.5114504192338
 30
0.0
 11
2971.695449717485
 21
701.5114504192338
 31
0.0
  0
LINE
  5
8709F
330
86F6D
100
AcDbEntity
  8
Dim
 62
     1
370
    -2
100
AcDbLine
 10
2970.195449717484
 20
701.5114504192338
 30
0.0
 11
2958.58876211325
 21
701.5114504192338
 31
0.0
  0
SOLID
  5
870A0
330
86F6D
100
AcDbEntity
  8
Dim
 62
     1
100
AcDbTrace
 10
2974.195449717484
 20
701.7614504192338
 30
0.0
 11
2974.195449717484
 21
701.2614504192338
 31
0.0
 12
2975.695449717485
 22
701.5114504192338
 32
0.0
 13
2975.695449717485
 23
701.5114504192338
 33
0.0
  0
SOLID
  5
870A1
330
86F6D
100
AcDbEntity
  8
Dim
 62
     1
100
AcDbTrace
 10
2971.695449717485
 20
701.7614504192338
 30
0.0
 11
2971.695449717485
 21
701.2614504192338
 31
0.0
 12
2970.195449717484
 22
701.5114504192338
 32
0.0
 13
2970.195449717484
 23
701.5114504192338
 33
0.0
  0
MTEXT
  5
870A2
330
86F6D
100
AcDbEntity
  8
Dim
 62
     4
100
AcDbMText
 10
2961.33876211325
 20
703.0114504192338
 30
0.0
 40
2.0
 41
0.0
 71
     5
 72
     1
  1
\A1;%%c5.5
  7
Romans字体
 73
     1
 44
1.0
  0
POINT
  5
870A3
330
86F6D
100
AcDbEntity
  8
Defpoints
 62
     0
100
AcDbPoint
 10
2970.195449717484
 20
703.15298534832
 30
0.0
  0
POINT
  5
870A4
330
86F6D
100
AcDbEntity
  8
Defpoints
 62
     0
100
AcDbPoint
 10
2975.695449717485
 20
703.15298534832
 30
0.0
  0
POINT
  5
870A5
330
86F6D
100
AcDbEntity
  8
Defpoints
 62
     0
100
AcDbPoint
 10
2975.695449717485
 20
701.5114504192338
 30
0.0
  0
ENDBLK
  5
86F6F
330
86F6D
100
AcDbEntity
  8
0
100
AcDbBlockEnd
  0
ENDSEC
  0
SECTION
  2
ENTITIES
  0
POINT
  5
6C8F
330
1F
100
AcDbEntity
  8
0
 60
     1
100
AcDbPoint
 10
45143.05040943241
 20
-19004.18044894631
 30
0.0
1001
GENIUS_GENOBJ-N-TIT_13
1002
{
1000
OWNER
1000
GEN
1002
}
1001
GENIUS_GENOENT_13
1002
{
1000
MYREF
1005
6C8F
1002
}
1002
{
1000
GRP
1005
0
1002
}
1001
GENIUS_GENOLIS_13
1002
{
1000
ENT
1005
0
1005
0
1002
}
1001
GENIUS_GENTITLE_13
1002
{
1000
SCALE
1000
1:1
1002
}
1002
{
1000
BORDER
1000
GEN_A3
1002
}
1002
{
1000
TITLE
1000
GENTITLE
1002
}
1002
{
1000
UNCHG
1002
{
1000
GEN-TITLE-SCA
1000
GEN-TITLE-SIZ
1002
}
1002
}
1002
{
1000
HRA
1005
0
1002
}
1002
{
1000
HTIT
1005
0
1002
}
1002
{
1000
GENIUSID
1005
6C8F
1002
}
1001
GENIUS_GENODEF_13
1002
{
1000
HIER
1070
     1
1002
}
1002
{
1000
MANEDIT
1070
     0
1002
}
1002
{
1000
NOSEL
1070
     0
1002
}
1002
{
1000
BEHIND
1070
     0
1002
}
1002
{
1000
REACTOR
1002
}
  0
TEXT
  5
6C90
330
1F
100
AcDbEntity
  8
0
 60
     1
100
AcDbText
 10
45637.58773215241
 20
-18625.72255409374
 30
0.0
 40
2.0
  1
!GENTITLE-MAX
100
AcDbText
  0
TEXT
  5
6C91
330
1F
100
AcDbEntity
  8
0
 60
     1
100
AcDbText
 10
45627.5877321524
 20
-18635.72255409374
 30
0.0
 40
2.0
  1
!GENTITLE-RU
100
AcDbText
  0
TEXT
  5
6C92
330
1F
100
AcDbEntity
  8
0
 60
     1
100
AcDbText
 10
45627.5877321524
 20
-18917.72255409374
 30
0.0
 40
2.0
  1
!GENTITLE-INSERT
100
AcDbText
  0
TEXT
  5
6C93
330
1F
100
AcDbEntity
  8
0
 60
     1
100
AcDbText
 10
45227.5877321524
 20
-18912.72255409374
 30
0.0
 40
2.0
  1
!GENTITLE-LL
100
AcDbText
  0
POINT
  5
6C94
330
1F
100
AcDbEntity
  8
0
 60
     1
100
AcDbPoint
 10
44892.02967200544
 20
-18922.45331297959
 30
0.0
1001
GENIUS_GENOBJ-N-TIT_13
1002
{
1000
OWNER
1000
GEN
1002
}
1001
GENIUS_GENOENT_13
1002
{
1000
MYREF
1005
6C94
1002
}
1002
{
1000
GRP
1005
0
1002
}
1001
GENIUS_GENOLIS_13
1002
{
1000
ENT
1005
0
1005
0
1002
}
1001
GENIUS_GENTITLE_13
1002
{
1000
SCALE
1000
1:1
1002
}
1002
{
1000
BORDER
1000
GEN_A3
1002
}
1002
{
1000
TITLE
1000
GENTITLE
1002
}
1002
{
1000
UNCHG
1002
{
1000
GEN-TITLE-SCA
1000
GEN-TITLE-SIZ
1002
}
1002
}
1002
{
1000
HRA
1005
0
1002
}
1002
{
1000
HTIT
1005
0
1002
}
1002
{
1000
GENIUSID
1005
6C94
1002
}
1001
GENIUS_GENODEF_13
1002
{
1000
HIER
1070
     1
1002
}
1002
{
1000
MANEDIT
1070
     0
1002
}
1002
{
1000
NOSEL
1070
     0
1002
}
1002
{
1000
BEHIND
1070
     0
1002
}
1002
{
1000
REACTOR
1002
}
  0
TEXT
  5
6C95
330
1F
100
AcDbEntity
  8
0
 60
     1
100
AcDbText
 10
45386.56699472543
 20
-18543.99541812701
 30
0.0
 40
2.0
  1
!GENTITLE-MAX
100
AcDbText
  0
TEXT
  5
6C96
330
1F
100
AcDbEntity
  8
0
 60
     1
100
AcDbText
 10
45376.56699472543
 20
-18553.99541812701
 30
0.0
 40
2.0
  1
!GENTITLE-RU
100
AcDbText
  0
TEXT
  5
6C97
330
1F
100
AcDbEntity
  8
0
 60
     1
100
AcDbText
 10
45376.56699472543
 20
-18835.99541812701
 30
0.0
 40
2.0
  1
!GENTITLE-INSERT
100
AcDbText
  0
TEXT
  5
6C98
330
1F
100
AcDbEntity
  8
0
 60
     1
100
AcDbText
 10
44976.56699472543
 20
-18830.99541812701
 30
0.0
 40
2.0
  1
!GENTITLE-LL
100
AcDbText
  0
POINT
  5
6C99
330
1F
100
AcDbEntity
  8
0
 60
     1
100
AcDbPoint
 10
2841.073545212444
 20
724.9444851052893
 30
0.0
1001
GENIUS_GENOBJ-N-TIT_13
1002
{
1000
OWNER
1000
GEN
1002
}
1001
GENIUS_GENOENT_13
1002
{
1000
MYREF
1005
6C99
1002
}
1002
{
1000
GRP
1005
0
1002
}
1001
GENIUS_GENOLIS_13
1002
{
1000
ENT
1005
0
1005
0
1002
}
1001
GENIUS_GENTITLE_13
1002
{
1000
SCALE
1000
1:1
1002
}
1002
{
1000
BORDER
1000
GEN_A3
1002
}
1002
{
1000
TITLE
1000
GENTITLE
1002
}
1002
{
1000
UNCHG
1002
{
1000
GEN-TITLE-SCA
1000
GEN-TITLE-SIZ
1002
}
1002
}
1002
{
1000
HRA
1005
0
1002
}
1002
{
1000
HTIT
1005
0
1002
}
1002
{
1000
GENIUSID
1005
6C99
1002
}
1001
GENIUS_GENODEF_13
1002
{
1000
HIER
1070
     1
1002
}
1002
{
1000
MANEDIT
1070
     0
1002
}
1002
{
1000
NOSEL
1070
     0
1002
}
1002
{
1000
BEHIND
1070
     0
1002
}
1002
{
1000
REACTOR
1002
}
  0
TEXT
  5
6C9A
330
1F
100
AcDbEntity
  8
0
 60
     1
100
AcDbText
 10
3335.610867932429
 20
1103.402379957868
 30
0.0
 40
2.0
  1
!GENTITLE-MAX
100
AcDbText
  0
TEXT
  5
6C9B
330
1F
100
AcDbEntity
  8
0
 60
     1
100
AcDbText
 10
3325.61086793243
 20
1093.402379957868
 30
0.0
 40
2.0
  1
!GENTITLE-RU
100
AcDbText
  0
TEXT
  5
6C9C
330
1F
100
AcDbEntity
  8
0
 60
     1
100
AcDbText
 10
3325.61086793243
 20
811.4023799578674
 30
0.0
 40
2.0
  1
!GENTITLE-INSERT
100
AcDbText
  0
TEXT
  5
6C9D
330
1F
100
AcDbEntity
  8
0
 60
     1
100
AcDbText
 10
2925.610867932429
 20
816.4023799578677
 30
0.0
 40
2.0
  1
!GENTITLE-LL
100
AcDbText
  0
POINT
  5
6C9F
330
1F
100
AcDbEntity
  8
0
 60
     1
100
AcDbPoint
 10
44989.33493766866
 20
-19508.65683606648
 30
0.0
1001
GENIUS_GENOBJ-N-TIT_13
1002
{
1000
OWNER
1000
GEN
1002
}
1001
GENIUS_GENOENT_13
1002
{
1000
MYREF
1005
6C9F
1002
}
1002
{
1000
GRP
1005
0
1002
}
1001
GENIUS_GENOLIS_13
1002
{
1000
ENT
1005
0
1005
0
1002
}
1001
GENIUS_GENTITLE_13
1002
{
1000
SCALE
1000
1:1
1002
}
1002
{
1000
BORDER
1000
GEN_A3
1002
}
1002
{
1000
TITLE
1000
GENTITLE
1002
}
1002
{
1000
UNCHG
1002
{
1000
GEN-TITLE-SCA
1000
GEN-TITLE-SIZ
1002
}
1002
}
1002
{
1000
HRA
1005
0
1002
}
1002
{
1000
HTIT
1005
0
1002
}
1002
{
1000
GENIUSID
1005
6C9F
1002
}
1001
GENIUS_GENODEF_13
1002
{
1000
HIER
1070
     1
1002
}
1002
{
1000
MANEDIT
1070
     0
1002
}
1002
{
1000
NOSEL
1070
     0
1002
}
1002
{
1000
BEHIND
1070
     0
1002
}
1002
{
1000
REACTOR
1002
}
  0
TEXT
  5
6CA0
330
1F
100
AcDbEntity
  8
0
 60
     1
100
AcDbText
 10
45483.87226038866
 20
-19130.1989412139
 30
0.0
 40
2.0
  1
!GENTITLE-MAX
100
AcDbText
  0
TEXT
  5
6CA1
330
1F
100
AcDbEntity
  8
0
 60
     1
100
AcDbText
 10
45473.87226038866
 20
-19140.19894121389
 30
0.0
 40
2.0
  1
!GENTITLE-RU
100
AcDbText
  0
TEXT
  5
6CA2
330
1F
100
AcDbEntity
  8
0
 60
     1
100
AcDbText
 10
45473.87226038866
 20
-19422.19894121389
 30
0.0
 40
2.0
  1
!GENTITLE-INSERT
100
AcDbText
  0
TEXT
  5
6CA3
330
1F
100
AcDbEntity
  8
0
 60
     1
100
AcDbText
 10
45073.87226038866
 20
-19417.1989412139
 30
0.0
 40
2.0
  1
!GENTITLE-LL
100
AcDbText
  0
POINT
  5
6CA4
330
1F
100
AcDbEntity
  8
0
 60
     1
100
AcDbPoint
 10
46058.55120139381
 20
-19048.27380978762
 30
0.0
1001
GENIUS_GENOBJ-N-TIT_13
1002
{
1000
OWNER
1000
GEN
1002
}
1001
GENIUS_GENOENT_13
1002
{
1000
MYREF
1005
6CA4
1002
}
1002
{
1000
GRP
1005
0
1002
}
1001
GENIUS_GENOLIS_13
1002
{
1000
ENT
1005
0
1005
0
1002
}
1001
GENIUS_GENTITLE_13
1002
{
1000
SCALE
1000
1:1
1002
}
1002
{
1000
BORDER
1000
GEN_A3
1002
}
1002
{
1000
TITLE
1000
GENTITLE
1002
}
1002
{
1000
UNCHG
1002
{
1000
GEN-TITLE-SCA
1000
GEN-TITLE-SIZ
1002
}
1002
}
1002
{
1000
HRA
1005
0
1002
}
1002
{
1000
HTIT
1005
0
1002
}
1002
{
1000
GENIUSID
1005
6CA4
1002
}
1001
GENIUS_GENODEF_13
1002
{
1000
HIER
1070
     1
1002
}
1002
{
1000
MANEDIT
1070
     0
1002
}
1002
{
1000
NOSEL
1070
     0
1002
}
1002
{
1000
BEHIND
1070
     0
1002
}
1002
{
1000
REACTOR
1002
}
  0
TEXT
  5
6CA5
330
1F
100
AcDbEntity
  8
0
 60
     1
100
AcDbText
 10
46553.08852411378
 20
-18669.81591493504
 30
0.0
 40
2.0
  1
!GENTITLE-MAX
100
AcDbText
  0
TEXT
  5
6CA6
330
1F
100
AcDbEntity
  8
0
 60
     1
100
AcDbText
 10
46543.0885241138
 20
-18679.81591493504
 30
0.0
 40
2.0
  1
!GENTITLE-RU
100
AcDbText
  0
TEXT
  5
6CA7
330
1F
100
AcDbEntity
  8
0
 60
     1
100
AcDbText
 10
46543.0885241138
 20
-18961.81591493504
 30
0.0
 40
2.0
  1
!GENTITLE-INSERT
100
AcDbText
  0
TEXT
  5
6CA8
330
1F
100
AcDbEntity
  8
0
 60
     1
100
AcDbText
 10
46143.0885241138
 20
-18956.81591493504
 30
0.0
 40
2.0
  1
!GENTITLE-LL
100
AcDbText
  0
POINT
  5
6CA9
330
1F
100
AcDbEntity
  8
0
 60
     1
100
AcDbPoint
 10
45807.53046396681
 20
-18966.54667382089
 30
0.0
1001
GENIUS_GENOBJ-N-TIT_13
1002
{
1000
OWNER
1000
GEN
1002
}
1001
GENIUS_GENOENT_13
1002
{
1000
MYREF
1005
6CA9
1002
}
1002
{
1000
GRP
1005
0
1002
}
1001
GENIUS_GENOLIS_13
1002
{
1000
ENT
1005
0
1005
0
1002
}
1001
GENIUS_GENTITLE_13
1002
{
1000
SCALE
1000
1:1
1002
}
1002
{
1000
BORDER
1000
GEN_A3
1002
}
1002
{
1000
TITLE
1000
GENTITLE
1002
}
1002
{
1000
UNCHG
1002
{
1000
GEN-TITLE-SCA
1000
GEN-TITLE-SIZ
1002
}
1002
}
1002
{
1000
HRA
1005
0
1002
}
1002
{
1000
HTIT
1005
0
1002
}
1002
{
1000
GENIUSID
1005
6CA9
1002
}
1001
GENIUS_GENODEF_13
1002
{
1000
HIER
1070
     1
1002
}
1002
{
1000
MANEDIT
1070
     0
1002
}
1002
{
1000
NOSEL
1070
     0
1002
}
1002
{
1000
BEHIND
1070
     0
1002
}
1002
{
1000
REACTOR
1002
}
  0
TEXT
  5
6CAA
330
1F
100
AcDbEntity
  8
0
 60
     1
100
AcDbText
 10
46302.06778668681
 20
-18588.08877896832
 30
0.0
 40
2.0
  1
!GENTITLE-MAX
100
AcDbText
  0
TEXT
  5
6CAB
330
1F
100
AcDbEntity
  8
0
 60
     1
100
AcDbText
 10
46292.06778668681
 20
-18598.08877896832
 30
0.0
 40
2.0
  1
!GENTITLE-RU
100
AcDbText
  0
TEXT
  5
6CAC
330
1F
100
AcDbEntity
  8
0
 60
     1
100
AcDbText
 10
46292.06778668681
 20
-18880.08877896832
 30
0.0
 40
2.0
  1
!GENTITLE-INSERT
100
AcDbText
  0
TEXT
  5
6CAD
330
1F
100
AcDbEntity
  8
0
 60
     1
100
AcDbText
 10
45892.06778668681
 20
-18875.08877896832
 30
0.0
 40
2.0
  1
!GENTITLE-LL
100
AcDbText
  0
POINT
  5
6CAE
330
1F
100
AcDbEntity
  8
0
 60
     1
100
AcDbPoint
 10
3756.574337173829
 20
680.8511242639857
 30
0.0
1001
GENIUS_GENOBJ-N-TIT_13
1002
{
1000
OWNER
1000
GEN
1002
}
1001
GENIUS_GENOENT_13
1002
{
1000
MYREF
1005
6CAE
1002
}
1002
{
1000
GRP
1005
0
1002
}
1001
GENIUS_GENOLIS_13
1002
{
1000
ENT
1005
0
1005
0
1002
}
1001
GENIUS_GENTITLE_13
1002
{
1000
SCALE
1000
1:1
1002
}
1002
{
1000
BORDER
1000
GEN_A3
1002
}
1002
{
1000
TITLE
1000
GENTITLE
1002
}
1002
{
1000
UNCHG
1002
{
1000
GEN-TITLE-SCA
1000
GEN-TITLE-SIZ
1002
}
1002
}
1002
{
1000
HRA
1005
0
1002
}
1002
{
1000
HTIT
1005
0
1002
}
1002
{
1000
GENIUSID
1005
6CAE
1002
}
1001
GENIUS_GENODEF_13
1002
{
1000
HIER
1070
     1
1002
}
1002
{
1000
MANEDIT
1070
     0
1002
}
1002
{
1000
NOSEL
1070
     0
1002
}
1002
{
1000
BEHIND
1070
     0
1002
}
1002
{
1000
REACTOR
1002
}
  0
TEXT
  5
6CAF
330
1F
100
AcDbEntity
  8
0
 60
     1
100
AcDbText
 10
4251.111659893815
 20
1059.309019116564
 30
0.0
 40
2.0
  1
!GENTITLE-MAX
100
AcDbText
  0
TEXT
  5
6CB0
330
1F
100
AcDbEntity
  8
0
 60
     1
100
AcDbText
 10
4241.111659893814
 20
1049.309019116564
 30
0.0
 40
2.0
  1
!GENTITLE-RU
100
AcDbText
  0
TEXT
  5
6CB1
330
1F
100
AcDbEntity
  8
0
 60
     1
100
AcDbText
 10
4241.111659893814
 20
767.3090191165637
 30
0.0
 40
2.0
  1
!GENTITLE-INSERT
100
AcDbText
  0
TEXT
  5
6CB2
330
1F
100
AcDbEntity
  8
0
 60
     1
100
AcDbText
 10
3841.111659893814
 20
772.3090191165637
 30
0.0
 40
2.0
  1
!GENTITLE-LL
100
AcDbText
  0
POINT
  5
6CB4
330
1F
100
AcDbEntity
  8
0
 60
     1
100
AcDbPoint
 10
45904.83572963004
 20
-19552.75019690778
 30
0.0
1001
GENIUS_GENOBJ-N-TIT_13
1002
{
1000
OWNER
1000
GEN
1002
}
1001
GENIUS_GENOENT_13
1002
{
1000
MYREF
1005
6CB4
1002
}
1002
{
1000
GRP
1005
0
1002
}
1001
GENIUS_GENOLIS_13
1002
{
1000
ENT
1005
0
1005
0
1002
}
1001
GENIUS_GENTITLE_13
1002
{
1000
SCALE
1000
1:1
1002
}
1002
{
1000
BORDER
1000
GEN_A3
1002
}
1002
{
1000
TITLE
1000
GENTITLE
1002
}
1002
{
1000
UNCHG
1002
{
1000
GEN-TITLE-SCA
1000
GEN-TITLE-SIZ
1002
}
1002
}
1002
{
1000
HRA
1005
0
1002
}
1002
{
1000
HTIT
1005
0
1002
}
1002
{
1000
GENIUSID
1005
6CB4
1002
}
1001
GENIUS_GENODEF_13
1002
{
1000
HIER
1070
     1
1002
}
1002
{
1000
MANEDIT
1070
     0
1002
}
1002
{
1000
NOSEL
1070
     0
1002
}
1002
{
1000
BEHIND
1070
     0
1002
}
1002
{
1000
REACTOR
1002
}
  0
TEXT
  5
6CB5
330
1F
100
AcDbEntity
  8
0
 60
     1
100
AcDbText
 10
46399.37305235005
 20
-19174.29230205521
 30
0.0
 40
2.0
  1
!GENTITLE-MAX
100
AcDbText
  0
TEXT
  5
6CB6
330
1F
100
AcDbEntity
  8
0
 60
     1
100
AcDbText
 10
46389.37305235004
 20
-19184.29230205521
 30
0.0
 40
2.0
  1
!GENTITLE-RU
100
AcDbText
  0
TEXT
  5
6CB7
330
1F
100
AcDbEntity
  8
0
 60
     1
100
AcDbText
 10
46389.37305235004
 20
-19466.29230205521
 30
0.0
 40
2.0
  1
!GENTITLE-INSERT
100
AcDbText
  0
TEXT
  5
6CB8
330
1F
100
AcDbEntity
  8
0
 60
     1
100
AcDbText
 10
45989.37305235005
 20
-19461.29230205521
 30
0.0
 40
2.0
  1
!GENTITLE-LL
100
AcDbText
  0
INSERT
  5
8AE2
330
1F
100
AcDbEntity
  8
ASHADE
 62
     1
370
     0
100
AcDbBlockReference
  2
AVE_RENDER
 10
1581.033129310014
 20
668.2648064278827
 30
0.0
1001
AVE_RENDER
1002
{
1070
     7
1000
Pref
1070
    50
1070
    20
1070
     1
1070
     0
1000

1070
    10
1070
     1
1070
    10
1040
1.0
1070
     1
1040
0.7
1040
1.0
1040
0.0
1040
10.0
1010
-1.0
1020
-1.0
1030
-1.0
1040
0.3
1070
    49
1070
     0
1070
     0
1010
1.0
1020
1.0
1030
1.0
1040
45.0
1070
     1
1070
     0
1000
WCS
1040
0.0
1070
     0
1040
10.0
1002
}
  0
INSERT
  5
8AE3
330
1F
100
AcDbEntity
  8
ASHADE
 62
     3
370
     0
100
AcDbBlockReference
  2
AVE_RENDER
 10
1581.033129310014
 20
668.2648064278827
 30
0.0
1001
AVE_RENDER
1002
{
1070
     0
1000
Full Opt
1070
     0
1070
     1
1070
     1
1070
     1
1070
     0
1070
     0
1070
     0
1070
     1
1070
     1
1040
0.0001
1040
0.0001
1002
}
  0
INSERT
  5
8AE4
330
1F
100
AcDbEntity
  8
ASHADE
 62
     4
370
     0
100
AcDbBlockReference
  2
AVE_RENDER
 10
1581.033129310014
 20
668.2648064278827
 30
0.0
1001
AVE_RENDER
1002
{
1070
     0
1000
Quick Opt
1070
     0
1070
     1
1070
     1
1070
     1
1070
     0
1070
     0
1070
     1
1002
}
  0
INSERT
  5
8AE5
330
1F
100
AcDbEntity
  8
ASHADE
 62
     5
370
     0
100
AcDbBlockReference
  2
AVE_RENDER
 10
1581.033129310014
 20
668.2648064278827
 30
0.0
1001
AVE_RENDER
1002
{
1070
     1
1000
Scanl Opt
1070
     2
1070
     0
1070
     2
1040
2.0
1040
4.0
1070
     0
1070
     1
1070
     0
1040
0.03
1002
}
  0
INSERT
  5
8AE6
330
1F
100
AcDbEntity
  8
ASHADE
 62
     6
370
     0
100
AcDbBlockReference
  2
AVE_RENDER
 10
1581.033129310014
 20
668.2648064278827
 30
0.0
1001
AVE_RENDER
1002
{
1070
     2
1000
Raytr Opt
1070
     2
1070
     0
1070
     2
1040
2.0
1040
4.0
1070
     0
1070
     1
1070
     1
1040
0.03
1070
     3
1040
0.03
1002
}
  0
INSERT
  5
8AE7
330
1F
100
AcDbEntity
  8
ASHADE
 62
     7
370
     0
100
AcDbBlockReference
  2
AVE_RENDER
 10
1581.033129310014
 20
668.2648064278827
 30
0.0
1001
AVE_RENDER
1002
{
1070
     0
1000
RFile Opt
1070
     1
1070
   640
1070
   480
1070
 10000
1070
     1
1070
     8
1070
     8
1070
     0
1070
     0
1070
     0
1070
     0
1070
     0
1070
     0
1070
     0
1002
}
  0
INSERT
  5
8AE8
330
1F
100
AcDbEntity
  8
ASHADE
 62
     8
370
     0
100
AcDbBlockReference
  2
AVE_RENDER
 10
1581.033129310014
 20
668.2648064278827
 30
0.0
1001
AVE_RENDER
1002
{
1070
     0
1000
Fog Opt
1070
     0
1070
     0
1040
0.0
1040
1.0
1040
0.0
1040
1.0
1010
0.5
1020
0.5
1030
0.5
1002
}
  0
INSERT
  5
8AE9
330
1F
100
AcDbEntity
  8
ASHADE
 62
     9
370
     0
100
AcDbBlockReference
  2
AVE_RENDER
 10
1581.033129310014
 20
668.2648064278827
 30
0.0
1001
AVE_RENDER
1002
{
1070
     0
1000
BG Opt
1070
     0
1070
     1
1010
0.0
1020
0.0
1030
0.0
1010
1.0
1020
0.0
1030
0.0
1010
0.0
1020
1.0
1030
0.0
1010
0.0
1020
0.0
1030
1.0
1040
0.5
1040
0.33
1040
0.0
1000

1070
     1
1000

1070
     1
1070
     1
1040
1.0
1040
1.0
1040
0.0
1040
0.0
1070
     0
1002
}
  0
INSERT
  5
8AEA
330
1F
100
AcDbEntity
  8
ASHADE
 62
     1
370
     0
100
AcDbBlockReference
  2
AVE_GLOBAL
 10
1581.033129310014
 20
668.2648064278827
 30
0.0
1001
AVE_MATERIAL
1002
{
1000
*全局*
1000
2
1000
全局修饰。
1002
{
1002
}
1002
{
1070
    63
1002
{
1002
{
1010
-1.0
1020
-1.0
1030
-1.0
1002
}
1040
0.6999999880790711
1000

1040
0.0
1002
{
1002
}
1040
0.0
1002
{
1002
}
1040
0.0
1002
}
1002
{
1002
{
1010
-1.0
1020
-1.0
1030
-1.0
1002
}
1040
1.0
1000

1040
0.0
1002
{
1002
}
1040
0.0
1002
{
1002
}
1040
0.0
1002
}
1002
{
1002
{
1010
-1.0
1020
-1.0
1030
-1.0
1002
}
1040
0.2000000029802322
1000

1040
0.0
1002
{
1002
}
1040
0.0
1002
{
1002
}
1040
0.0
1002
}
1002
{
1070
     0
1002
{
1070
     1
1002
{
1040
1.0
1040
1.0
1000

1040
0.0
1002
{
1002
}
1040
0.0
1002
{
1002
}
1040
0.0
1002
}
1002
}
1040
1.0
1040
0.0
1040
0.0
1002
}
1002
{
1040
1.0
1040
1.0
1000

1040
0.0
1002
{
1002
}
1040
0.0
1002
{
1002
}
1040
0.0
1002
}
1002
{
1040
0.5
1040
1.0
1000

1040
0.0
1002
{
1002
}
1040
0.0
1002
{
1002
}
1040
0.0
1002
}
1002
{
1070
     0
1040
0.0
1002
{
1002
}
1040
1.0
1002
{
1002
}
1040
0.0
1002
}
1002
{
1040
0.0
1002
{
1002
{
1010
0.0
1020
0.0
1030
0.0
1002
}
1040
1.0
1000

1040
0.0
1002
{
1002
}
1040
0.0
1002
{
1002
}
1040
0.0
1002
}
1002
}
1002
{
1002
{
1070
     1
1002
{
1040
0.0
1040
1.0
1000

1040
0.0
1002
{
1002
}
1040
0.0
1002
{
1002
}
1040
0.0
1002
}
1002
}
1040
0.0
1002
{
1002
}
1010
1.0
1020
0.0
1030
0.0
1010
0.0
1020
1.0
1030
0.0
1010
0.0
1020
0.0
1030
1.0
1070
     0
1002
}
1002
{
1002
{
1040
1.0
1040
1.0
1002
{
1070
     1
1002
{
1040
1.0
1040
1.0
1000

1040
0.0
1002
{
1002
}
1040
0.0
1002
{
1002
}
1040
0.0
1002
}
1002
}
1002
}
1070
     0
1040
0.0
1002
{
1002
}
1002
}
1002
{
1002
}
1002
}
1002
{
1071
        3
1070
     3
1070
     0
1002
{
1070
     2
1070
     0
1070
     0
1040
0.0
1002
}
1070
     0
1070
     2
1002
{
1002
}
1002
}
1002
{
1040
8030.0
1040
190.3000030517578
1040
0.3050000071525574
1040
228.0
1040
545.0
1040
14.0
1040
17.39999961853027
1040
0.4560000002384186
1002
}
1000

1002
}
  0
POINT
  5
F4F6
330
1F
100
AcDbEntity
  8
0
 60
     1
100
AcDbPoint
 10
45069.99797304985
 20
-18959.85178738408
 30
0.0
1001
GENIUS_GENOBJ-N-TIT_13
1002
{
1000
OWNER
1000
GEN
1002
}
1001
GENIUS_GENOENT_13
1002
{
1000
MYREF
1005
F4F6
1002
}
1002
{
1000
GRP
1005
0
1002
}
1001
GENIUS_GENOLIS_13
1002
{
1000
ENT
1005
0
1005
0
1002
}
1001
GENIUS_GENTITLE_13
1002
{
1000
SCALE
1000
1:1
1002
}
1002
{
1000
BORDER
1000
GEN_A3
1002
}
1002
{
1000
TITLE
1000
GENTITLE
1002
}
1002
{
1000
UNCHG
1002
{
1000
GEN-TITLE-SCA
1000
GEN-TITLE-SIZ
1002
}
1002
}
1002
{
1000
HRA
1005
0
1002
}
1002
{
1000
HTIT
1005
0
1002
}
1002
{
1000
GENIUSID
1005
F4F6
1002
}
1001
GENIUS_GENODEF_13
1002
{
1000
HIER
1070
     1
1002
}
1002
{
1000
MANEDIT
1070
     0
1002
}
1002
{
1000
NOSEL
1070
     0
1002
}
1002
{
1000
BEHIND
1070
     0
1002
}
1002
{
1000
REACTOR
1002
}
  0
TEXT
  5
F4F7
330
1F
100
AcDbEntity
  8
0
 60
     1
100
AcDbText
 10
45564.53529576981
 20
-18581.39389253151
 30
0.0
 40
2.0
  1
!GENTITLE-MAX
100
AcDbText
  0
TEXT
  5
F4F8
330
1F
100
AcDbEntity
  8
0
 60
     1
100
AcDbText
 10
45554.53529576984
 20
-18591.39389253151
 30
0.0
 40
2.0
  1
!GENTITLE-RU
100
AcDbText
  0
TEXT
  5
F4F9
330
1F
100
AcDbEntity
  8
0
 60
     1
100
AcDbText
 10
45554.53529576984
 20
-18873.39389253151
 30
0.0
 40
2.0
  1
!GENTITLE-INSERT
100
AcDbText
  0
TEXT
  5
F4FA
330
1F
100
AcDbEntity
  8
0
 60
     1
100
AcDbText
 10
45154.53529576983
 20
-18868.39389253151
 30
0.0
 40
2.0
  1
!GENTITLE-LL
100
AcDbText
  0
POINT
  5
F4FB
330
1F
100
AcDbEntity
  8
0
 60
     1
100
AcDbPoint
 10
44818.97723562287
 20
-18878.12465141736
 30
0.0
1001
GENIUS_GENOBJ-N-TIT_13
1002
{
1000
OWNER
1000
GEN
1002
}
1001
GENIUS_GENOENT_13
1002
{
1000
MYREF
1005
F4FB
1002
}
1002
{
1000
GRP
1005
0
1002
}
1001
GENIUS_GENOLIS_13
1002
{
1000
ENT
1005
0
1005
0
1002
}
1001
GENIUS_GENTITLE_13
1002
{
1000
SCALE
1000
1:1
1002
}
1002
{
1000
BORDER
1000
GEN_A3
1002
}
1002
{
1000
TITLE
1000
GENTITLE
1002
}
1002
{
1000
UNCHG
1002
{
1000
GEN-TITLE-SCA
1000
GEN-TITLE-SIZ
1002
}
1002
}
1002
{
1000
HRA
1005
0
1002
}
1002
{
1000
HTIT
1005
0
1002
}
1002
{
1000
GENIUSID
1005
F4FB
1002
}
1001
GENIUS_GENODEF_13
1002
{
1000
HIER
1070
     1
1002
}
1002
{
1000
MANEDIT
1070
     0
1002
}
1002
{
1000
NOSEL
1070
     0
1002
}
1002
{
1000
BEHIND
1070
     0
1002
}
1002
{
1000
REACTOR
1002
}
  0
TEXT
  5
F4FC
330
1F
100
AcDbEntity
  8
0
 60
     1
100
AcDbText
 10
45313.51455834286
 20
-18499.66675656478
 30
0.0
 40
2.0
  1
!GENTITLE-MAX
100
AcDbText
  0
TEXT
  5
F4FD
330
1F
100
AcDbEntity
  8
0
 60
     1
100
AcDbText
 10
45303.51455834286
 20
-18509.66675656478
 30
0.0
 40
2.0
  1
!GENTITLE-RU
100
AcDbText
  0
TEXT
  5
F4FE
330
1F
100
AcDbEntity
  8
0
 60
     1
100
AcDbText
 10
45303.51455834286
 20
-18791.66675656478
 30
0.0
 40
2.0
  1
!GENTITLE-INSERT
100
AcDbText
  0
TEXT
  5
F4FF
330
1F
100
AcDbEntity
  8
0
 60
     1
100
AcDbText
 10
44903.51455834286
 20
-18786.66675656478
 30
0.0
 40
2.0
  1
!GENTITLE-LL
100
AcDbText
  0
POINT
  5
F500
330
1F
100
AcDbEntity
  8
0
 60
     1
100
AcDbPoint
 10
2768.021108829877
 20
769.2731466675221
 30
0.0
1001
GENIUS_GENOBJ-N-TIT_13
1002
{
1000
OWNER
1000
GEN
1002
}
1001
GENIUS_GENOENT_13
1002
{
1000
MYREF
1005
F500
1002
}
1002
{
1000
GRP
1005
0
1002
}
1001
GENIUS_GENOLIS_13
1002
{
1000
ENT
1005
0
1005
0
1002
}
1001
GENIUS_GENTITLE_13
1002
{
1000
SCALE
1000
1:1
1002
}
1002
{
1000
BORDER
1000
GEN_A3
1002
}
1002
{
1000
TITLE
1000
GENTITLE
1002
}
1002
{
1000
UNCHG
1002
{
1000
GEN-TITLE-SCA
1000
GEN-TITLE-SIZ
1002
}
1002
}
1002
{
1000
HRA
1005
0
1002
}
1002
{
1000
HTIT
1005
0
1002
}
1002
{
1000
GENIUSID
1005
F500
1002
}
1001
GENIUS_GENODEF_13
1002
{
1000
HIER
1070
     1
1002
}
1002
{
1000
MANEDIT
1070
     0
1002
}
1002
{
1000
NOSEL
1070
     0
1002
}
1002
{
1000
BEHIND
1070
     0
1002
}
1002
{
1000
REACTOR
1002
}
  0
TEXT
  5
F501
330
1F
100
AcDbEntity
  8
0
 60
     1
100
AcDbText
 10
3262.558431549862
 20
1147.7310415201
 30
0.0
 40
2.0
  1
!GENTITLE-MAX
100
AcDbText
  0
TEXT
  5
F502
330
1F
100
AcDbEntity
  8
0
 60
     1
100
AcDbText
 10
3252.558431549863
 20
1137.7310415201
 30
0.0
 40
2.0
  1
!GENTITLE-RU
100
AcDbText
  0
TEXT
  5
F503
330
1F
100
AcDbEntity
  8
0
 60
     1
100
AcDbText
 10
3252.558431549863
 20
855.7310415201005
 30
0.0
 40
2.0
  1
!GENTITLE-INSERT
100
AcDbText
  0
TEXT
  5
F504
330
1F
100
AcDbEntity
  8
0
 60
     1
100
AcDbText
 10
2852.558431549864
 20
860.7310415201004
 30
0.0
 40
2.0
  1
!GENTITLE-LL
100
AcDbText
  0
POINT
  5
F506
330
1F
100
AcDbEntity
  8
0
 60
     1
100
AcDbPoint
 10
44916.28250128608
 20
-19464.32817450425
 30
0.0
1001
GENIUS_GENOBJ-N-TIT_13
1002
{
1000
OWNER
1000
GEN
1002
}
1001
GENIUS_GENOENT_13
1002
{
1000
MYREF
1005
F506
1002
}
1002
{
1000
GRP
1005
0
1002
}
1001
GENIUS_GENOLIS_13
1002
{
1000
ENT
1005
0
1005
0
1002
}
1001
GENIUS_GENTITLE_13
1002
{
1000
SCALE
1000
1:1
1002
}
1002
{
1000
BORDER
1000
GEN_A3
1002
}
1002
{
1000
TITLE
1000
GENTITLE
1002
}
1002
{
1000
UNCHG
1002
{
1000
GEN-TITLE-SCA
1000
GEN-TITLE-SIZ
1002
}
1002
}
1002
{
1000
HRA
1005
0
1002
}
1002
{
1000
HTIT
1005
0
1002
}
1002
{
1000
GENIUSID
1005
F506
1002
}
1001
GENIUS_GENODEF_13
1002
{
1000
HIER
1070
     1
1002
}
1002
{
1000
MANEDIT
1070
     0
1002
}
1002
{
1000
NOSEL
1070
     0
1002
}
1002
{
1000
BEHIND
1070
     0
1002
}
1002
{
1000
REACTOR
1002
}
  0
TEXT
  5
F507
330
1F
100
AcDbEntity
  8
0
 60
     1
100
AcDbText
 10
45410.81982400608
 20
-19085.87027965167
 30
0.0
 40
2.0
  1
!GENTITLE-MAX
100
AcDbText
  0
TEXT
  5
F508
330
1F
100
AcDbEntity
  8
0
 60
     1
100
AcDbText
 10
45400.81982400608
 20
-19095.87027965167
 30
0.0
 40
2.0
  1
!GENTITLE-RU
100
AcDbText
  0
TEXT
  5
F509
330
1F
100
AcDbEntity
  8
0
 60
     1
100
AcDbText
 10
45400.81982400608
 20
-19377.87027965167
 30
0.0
 40
2.0
  1
!GENTITLE-INSERT
100
AcDbText
  0
TEXT
  5
F50A
330
1F
100
AcDbEntity
  8
0
 60
     1
100
AcDbText
 10
45000.81982400608
 20
-19372.87027965167
 30
0.0
 40
2.0
  1
!GENTITLE-LL
100
AcDbText
  0
POINT
  5
F50B
330
1F
100
AcDbEntity
  8
0
 60
     1
100
AcDbPoint
 10
45985.49876501124
 20
-19003.94514822539
 30
0.0
1001
GENIUS_GENOBJ-N-TIT_13
1002
{
1000
OWNER
1000
GEN
1002
}
1001
GENIUS_GENOENT_13
1002
{
1000
MYREF
1005
F50B
1002
}
1002
{
1000
GRP
1005
0
1002
}
1001
GENIUS_GENOLIS_13
1002
{
1000
ENT
1005
0
1005
0
1002
}
1001
GENIUS_GENTITLE_13
1002
{
1000
SCALE
1000
1:1
1002
}
1002
{
1000
BORDER
1000
GEN_A3
1002
}
1002
{
1000
TITLE
1000
GENTITLE
1002
}
1002
{
1000
UNCHG
1002
{
1000
GEN-TITLE-SCA
1000
GEN-TITLE-SIZ
1002
}
1002
}
1002
{
1000
HRA
1005
0
1002
}
1002
{
1000
HTIT
1005
0
1002
}
1002
{
1000
GENIUSID
1005
F50B
1002
}
1001
GENIUS_GENODEF_13
1002
{
1000
HIER
1070
     1
1002
}
1002
{
1000
MANEDIT
1070
     0
1002
}
1002
{
1000
NOSEL
1070
     0
1002
}
1002
{
1000
BEHIND
1070
     0
1002
}
1002
{
1000
REACTOR
1002
}
  0
TEXT
  5
F50C
330
1F
100
AcDbEntity
  8
0
 60
     1
100
AcDbText
 10
46480.03608773121
 20
-18625.48725337281
 30
0.0
 40
2.0
  1
!GENTITLE-MAX
100
AcDbText
  0
TEXT
  5
F50D
330
1F
100
AcDbEntity
  8
0
 60
     1
100
AcDbText
 10
46470.03608773123
 20
-18635.48725337281
 30
0.0
 40
2.0
  1
!GENTITLE-RU
100
AcDbText
  0
TEXT
  5
F50E
330
1F
100
AcDbEntity
  8
0
 60
     1
100
AcDbText
 10
46470.03608773123
 20
-18917.48725337281
 30
0.0
 40
2.0
  1
!GENTITLE-INSERT
100
AcDbText
  0
TEXT
  5
F50F
330
1F
100
AcDbEntity
  8
0
 60
     1
100
AcDbText
 10
46070.03608773123
 20
-18912.48725337281
 30
0.0
 40
2.0
  1
!GENTITLE-LL
100
AcDbText
  0
POINT
  5
F510
330
1F
100
AcDbEntity
  8
0
 60
     1
100
AcDbPoint
 10
45734.47802758423
 20
-18922.21801225866
 30
0.0
1001
GENIUS_GENOBJ-N-TIT_13
1002
{
1000
OWNER
1000
GEN
1002
}
1001
GENIUS_GENOENT_13
1002
{
1000
MYREF
1005
F510
1002
}
1002
{
1000
GRP
1005
0
1002
}
1001
GENIUS_GENOLIS_13
1002
{
1000
ENT
1005
0
1005
0
1002
}
1001
GENIUS_GENTITLE_13
1002
{
1000
SCALE
1000
1:1
1002
}
1002
{
1000
BORDER
1000
GEN_A3
1002
}
1002
{
1000
TITLE
1000
GENTITLE
1002
}
1002
{
1000
UNCHG
1002
{
1000
GEN-TITLE-SCA
1000
GEN-TITLE-SIZ
1002
}
1002
}
1002
{
1000
HRA
1005
0
1002
}
1002
{
1000
HTIT
1005
0
1002
}
1002
{
1000
GENIUSID
1005
F510
1002
}
1001
GENIUS_GENODEF_13
1002
{
1000
HIER
1070
     1
1002
}
1002
{
1000
MANEDIT
1070
     0
1002
}
1002
{
1000
NOSEL
1070
     0
1002
}
1002
{
1000
BEHIND
1070
     0
1002
}
1002
{
1000
REACTOR
1002
}
  0
TEXT
  5
F511
330
1F
100
AcDbEntity
  8
0
 60
     1
100
AcDbText
 10
46229.01535030425
 20
-18543.76011740608
 30
0.0
 40
2.0
  1
!GENTITLE-MAX
100
AcDbText
  0
TEXT
  5
F512
330
1F
100
AcDbEntity
  8
0
 60
     1
100
AcDbText
 10
46219.01535030422
 20
-18553.76011740609
 30
0.0
 40
2.0
  1
!GENTITLE-RU
100
AcDbText
  0
TEXT
  5
F513
330
1F
100
AcDbEntity
  8
0
 60
     1
100
AcDbText
 10
46219.01535030422
 20
-18835.76011740609
 30
0.0
 40
2.0
  1
!GENTITLE-INSERT
100
AcDbText
  0
TEXT
  5
F514
330
1F
100
AcDbEntity
  8
0
 60
     1
100
AcDbText
 10
45819.01535030423
 20
-18830.76011740609
 30
0.0
 40
2.0
  1
!GENTITLE-LL
100
AcDbText
  0
POINT
  5
F515
330
1F
100
AcDbEntity
  8
0
 60
     1
100
AcDbPoint
 10
3683.521900791263
 20
725.1797858262184
 30
0.0
1001
GENIUS_GENOBJ-N-TIT_13
1002
{
1000
OWNER
1000
GEN
1002
}
1001
GENIUS_GENOENT_13
1002
{
1000
MYREF
1005
F515
1002
}
1002
{
1000
GRP
1005
0
1002
}
1001
GENIUS_GENOLIS_13
1002
{
1000
ENT
1005
0
1005
0
1002
}
1001
GENIUS_GENTITLE_13
1002
{
1000
SCALE
1000
1:1
1002
}
1002
{
1000
BORDER
1000
GEN_A3
1002
}
1002
{
1000
TITLE
1000
GENTITLE
1002
}
1002
{
1000
UNCHG
1002
{
1000
GEN-TITLE-SCA
1000
GEN-TITLE-SIZ
1002
}
1002
}
1002
{
1000
HRA
1005
0
1002
}
1002
{
1000
HTIT
1005
0
1002
}
1002
{
1000
GENIUSID
1005
F515
1002
}
1001
GENIUS_GENODEF_13
1002
{
1000
HIER
1070
     1
1002
}
1002
{
1000
MANEDIT
1070
     0
1002
}
1002
{
1000
NOSEL
1070
     0
1002
}
1002
{
1000
BEHIND
1070
     0
1002
}
1002
{
1000
REACTOR
1002
}
  0
TEXT
  5
F516
330
1F
100
AcDbEntity
  8
0
 60
     1
100
AcDbText
 10
4178.059223511247
 20
1103.637680678797
 30
0.0
 40
2.0
  1
!GENTITLE-MAX
100
AcDbText
  0
TEXT
  5
F517
330
1F
100
AcDbEntity
  8
0
 60
     1
100
AcDbText
 10
4168.059223511247
 20
1093.637680678797
 30
0.0
 40
2.0
  1
!GENTITLE-RU
100
AcDbText
  0
TEXT
  5
F518
330
1F
100
AcDbEntity
  8
0
 60
     1
100
AcDbText
 10
4168.059223511247
 20
811.637680678797
 30
0.0
 40
2.0
  1
!GENTITLE-INSERT
100
AcDbText
  0
TEXT
  5
F519
330
1F
100
AcDbEntity
  8
0
 60
     1
100
AcDbText
 10
3768.059223511247
 20
816.6376806787971
 30
0.0
 40
2.0
  1
!GENTITLE-LL
100
AcDbText
  0
POINT
  5
F51B
330
1F
100
AcDbEntity
  8
0
 60
     1
100
AcDbPoint
 10
45831.78329324749
 20
-19508.42153534555
 30
0.0
1001
GENIUS_GENOBJ-N-TIT_13
1002
{
1000
OWNER
1000
GEN
1002
}
1001
GENIUS_GENOENT_13
1002
{
1000
MYREF
1005
F51B
1002
}
1002
{
1000
GRP
1005
0
1002
}
1001
GENIUS_GENOLIS_13
1002
{
1000
ENT
1005
0
1005
0
1002
}
1001
GENIUS_GENTITLE_13
1002
{
1000
SCALE
1000
1:1
1002
}
1002
{
1000
BORDER
1000
GEN_A3
1002
}
1002
{
1000
TITLE
1000
GENTITLE
1002
}
1002
{
1000
UNCHG
1002
{
1000
GEN-TITLE-SCA
1000
GEN-TITLE-SIZ
1002
}
1002
}
1002
{
1000
HRA
1005
0
1002
}
1002
{
1000
HTIT
1005
0
1002
}
1002
{
1000
GENIUSID
1005
F51B
1002
}
1001
GENIUS_GENODEF_13
1002
{
1000
HIER
1070
     1
1002
}
1002
{
1000
MANEDIT
1070
     0
1002
}
1002
{
1000
NOSEL
1070
     0
1002
}
1002
{
1000
BEHIND
1070
     0
1002
}
1002
{
1000
REACTOR
1002
}
  0
TEXT
  5
F51C
330
1F
100
AcDbEntity
  8
0
 60
     1
100
AcDbText
 10
46326.32061596748
 20
-19129.96364049297
 30
0.0
 40
2.0
  1
!GENTITLE-MAX
100
AcDbText
  0
TEXT
  5
F51D
330
1F
100
AcDbEntity
  8
0
 60
     1
100
AcDbText
 10
46316.32061596747
 20
-19139.96364049298
 30
0.0
 40
2.0
  1
!GENTITLE-RU
100
AcDbText
  0
TEXT
  5
F51E
330
1F
100
AcDbEntity
  8
0
 60
     1
100
AcDbText
 10
46316.32061596747
 20
-19421.96364049298
 30
0.0
 40
2.0
  1
!GENTITLE-INSERT
100
AcDbText
  0
TEXT
  5
F51F
330
1F
100
AcDbEntity
  8
0
 60
     1
100
AcDbText
 10
45916.32061596748
 20
-19416.96364049297
 30
0.0
 40
2.0
  1
!GENTITLE-LL
100
AcDbText
  0
MTEXT
  5
4BB83
330
1F
100
AcDbEntity
  8
图框
 62
     3
100
AcDbMText
 10
3111.58990264084
 20
629.1060985238448
 30
0.0
 40
2.985513575034148
 41
33.61239199242137
 71
     5
 72
     5
  1
{\W0.65;GHT-M3}
  7
Romans字体
 73
     1
 44
1.0
1001
ACAD
1000
ACAD_MTEXT_DEFINED_HEIGHT_BEGIN
1070
    46
1040
8.686745505685854
1000
ACAD_MTEXT_DEFINED_HEIGHT_END
  0
MTEXT
  5
4BB84
330
1F
100
AcDbEntity
  8
图框
 62
     3
100
AcDbMText
 10
3111.58990264084
 20
620.3266479970184
 30
0.0
 40
2.985513575034148
 41
33.61239199242137
 71
     5
 72
     5
  1
9040000000079
  7
Romans字体
 73
     1
 44
1.0
1001
ACAD
1000
ACAD_MTEXT_DEFINED_HEIGHT_BEGIN
1070
    46
1040
8.872155547966105
1000
ACAD_MTEXT_DEFINED_HEIGHT_END
  0
MTEXT
  5
4BB85
330
1F
100
AcDbEntity
  8
图框
 62
     3
100
AcDbMText
 10
3043.536237710256
 20
607.0190129182734
 30
0.0
 40
2.985513575034148
 41
10.82934843439047
 71
     5
 72
     5
  1
1:1
  7
Romans字体
 73
     1
 44
1.0
1001
ACAD
1000
ACAD_MTEXT_DEFINED_HEIGHT_BEGIN
1070
    46
1040
7.88609460121049
1000
ACAD_MTEXT_DEFINED_HEIGHT_END
  0
MTEXT
  5
4BB86
330
1F
100
AcDbEntity
  8
图框
 62
     3
100
AcDbMText
 10
3065.194934579038
 20
607.0190129182738
 30
0.0
 40
2.985513575034148
 41
10.82934843439216
 71
     5
 72
     5
  1
14.5g 
  7
Romans字体
 73
     1
 44
1.0
1001
ACAD
1000
ACAD_MTEXT_DEFINED_HEIGHT_BEGIN
1070
    46
1040
7.886094601210388
1000
ACAD_MTEXT_DEFINED_HEIGHT_END
  0
INSERT
  5
4BB87
330
1F
100
AcDbEntity
  8
Dim
100
AcDbBlockReference
  2
A4图框-NEW
 10
2001.467596026687
 20
111.1772710189382
 30
0.0
  0
MTEXT
  5
81C01
102
{ACAD_XDICTIONARY
360
87282
102
}
330
1F
100
AcDbEntity
  8
打标文字
 62
     3
100
AcDbMText
 10
3077.550028553498
 20
685.8495124587575
 30
0.0
 40
2.354823012379069
 41
106.8546205014526
 71
     1
 72
     5
  1
\A1;{\H1.274x;技术参数：    \P- 材料: 铁\P- 表面处理: 镀镍\P \P\Fromans|c134;\H0.99999x;Technical specification:\P- Material: Iron\P- Surface: Nickel plated\P\H0.78495x;\P}  
 73
     1
 44
1.0
1001
ACAD
1000
ACAD_MTEXT_DEFINED_HEIGHT_BEGIN
1070
    46
1040
146.9811779965554
1000
ACAD_MTEXT_DEFINED_HEIGHT_END
  0
LINE
  5
86E76
330
1F
100
AcDbEntity
  8
0
100
AcDbLine
 10
2969.695449717484
 20
709.1529793483202
 30
0.0
 11
2969.695449717484
 21
718.1529813483201
 31
0.0
  0
LINE
  5
86E77
330
1F
100
AcDbEntity
  8
0
100
AcDbLine
 10
2976.195449717484
 20
718.1529813483201
 30
0.0
 11
2976.195449717484
 21
709.1529823483202
 31
0.0
  0
LINE
  5
86E78
330
1F
100
AcDbEntity
  8
0
100
AcDbLine
 10
2975.095449717485
 20
716.7529853483202
 30
0.0
 11
2975.095449717485
 21
717.6529813483202
 31
0.0
  0
LINE
  5
86E79
330
1F
100
AcDbEntity
  8
0
100
AcDbLine
 10
2972.945451717485
 20
704.2003573483201
 30
0.0
 11
2974.595449717484
 21
705.1529863483201
 31
0.0
  0
LINE
  5
86E7A
330
1F
100
AcDbEntity
  8
0
100
AcDbLine
 10
2971.295449717485
 20
705.15298534832
 30
0.0
 11
2972.945451717485
 21
704.2003573483201
 31
0.0
  0
LINE
  5
86E7B
330
1F
100
AcDbEntity
  8
0
100
AcDbLine
 10
2970.795449717484
 20
717.6529813483202
 30
0.0
 11
2970.795449717484
 21
716.7529853483202
 31
0.0
  0
LINE
  5
86E7C
330
1F
100
AcDbEntity
  8
HAT
100
AcDbLine
 10
2969.695449717484
 20
717.9571054317557
 30
0.0
 11
2969.891325634049
 21
718.1529813483201
 31
0.0
1001
ACAD
1010
0.0
1020
0.0
1030
0.0
  0
LINE
  5
86E7D
330
1F
100
AcDbEntity
  8
HAT
100
AcDbLine
 10
2969.695449717484
 20
717.3383869982175
 30
0.0
 11
2970.402746892536
 21
718.0456841732688
 31
0.0
1001
ACAD
1010
0.0
1020
0.0
1030
0.0
  0
LINE
  5
86E7E
330
1F
100
AcDbEntity
  8
HAT
100
AcDbLine
 10
2969.695449717484
 20
716.7196685646793
 30
0.0
 11
2970.712106109305
 21
717.7363249564997
 31
0.0
1001
ACAD
1010
0.0
1020
0.0
1030
0.0
  0
LINE
  5
86E7F
330
1F
100
AcDbEntity
  8
HAT
100
AcDbLine
 10
2969.695449717484
 20
716.1009501311411
 30
0.0
 11
2970.795449717484
 21
717.200950131141
 31
0.0
1001
ACAD
1010
0.0
1020
0.0
1030
0.0
  0
LINE
  5
86E80
330
1F
100
AcDbEntity
  8
HAT
100
AcDbLine
 10
2969.695449717484
 20
715.4822316976027
 30
0.0
 11
2970.880826542843
 21
716.6676085229615
 31
0.0
1001
ACAD
1010
0.0
1020
0.0
1030
0.0
  0
LINE
  5
86E81
330
1F
100
AcDbEntity
  8
HAT
100
AcDbLine
 10
2969.695449717484
 20
714.8635132640645
 30
0.0
 11
2971.190185759613
 21
716.3582493061924
 31
0.0
1001
ACAD
1010
0.0
1020
0.0
1030
0.0
  0
LINE
  5
86E82
330
1F
100
AcDbEntity
  8
HAT
100
AcDbLine
 10
2969.695449717484
 20
714.2447948305263
 30
0.0
 11
2971.295449717485
 21
715.8447948305263
 31
0.0
1001
ACAD
1010
0.0
1020
0.0
1030
0.0
  0
LINE
  5
86E83
330
1F
100
AcDbEntity
  8
HAT
100
AcDbLine
 10
2969.695449717484
 20
713.6260763969881
 30
0.0
 11
2971.295449717485
 21
715.2260763969881
 31
0.0
1001
ACAD
1010
0.0
1020
0.0
1030
0.0
  0
LINE
  5
86E84
330
1F
100
AcDbEntity
  8
HAT
100
AcDbLine
 10
2969.695449717484
 20
713.0073579634498
 30
0.0
 11
2971.295449717485
 21
714.6073579634498
 31
0.0
1001
ACAD
1010
0.0
1020
0.0
1030
0.0
  0
LINE
  5
86E85
330
1F
100
AcDbEntity
  8
HAT
100
AcDbLine
 10
2969.695449717484
 20
712.3886395299116
 30
0.0
 11
2971.295449717485
 21
713.9886395299115
 31
0.0
1001
ACAD
1010
0.0
1020
0.0
1030
0.0
  0
LINE
  5
86E86
330
1F
100
AcDbEntity
  8
HAT
100
AcDbLine
 10
2969.695449717484
 20
711.7699210963734
 30
0.0
 11
2971.295449717485
 21
713.3699210963734
 31
0.0
1001
ACAD
1010
0.0
1020
0.0
1030
0.0
  0
LINE
  5
86E87
330
1F
100
AcDbEntity
  8
HAT
100
AcDbLine
 10
2975.095449717485
 20
717.1699210963732
 30
0.0
 11
2976.078509969431
 21
718.1529813483201
 31
0.0
1001
ACAD
1010
0.0
1020
0.0
1030
0.0
  0
LINE
  5
86E88
330
1F
100
AcDbEntity
  8
HAT
100
AcDbLine
 10
2969.695449717484
 20
711.1512026628352
 30
0.0
 11
2971.295449717485
 21
712.7512026628352
 31
0.0
1001
ACAD
1010
0.0
1020
0.0
1030
0.0
  0
LINE
  5
86E89
330
1F
100
AcDbEntity
  8
HAT
100
AcDbLine
 10
2974.595449717484
 20
716.051202662835
 30
0.0
 11
2976.195449717484
 21
717.651202662835
 31
0.0
1001
ACAD
1010
0.0
1020
0.0
1030
0.0
  0
LINE
  5
86E8A
330
1F
100
AcDbEntity
  8
HAT
100
AcDbLine
 10
2969.695449717484
 20
710.532484229297
 30
0.0
 11
2971.295449717485
 21
712.132484229297
 31
0.0
1001
ACAD
1010
0.0
1020
0.0
1030
0.0
  0
LINE
  5
86E8B
330
1F
100
AcDbEntity
  8
HAT
100
AcDbLine
 10
2974.595449717484
 20
715.4324842292968
 30
0.0
 11
2976.195449717484
 21
717.032484229297
 31
0.0
1001
ACAD
1010
0.0
1020
0.0
1030
0.0
  0
LINE
  5
86E8C
330
1F
100
AcDbEntity
  8
HAT
100
AcDbLine
 10
2969.695449717484
 20
709.9137657957586
 30
0.0
 11
2971.295449717485
 21
711.5137657957586
 31
0.0
1001
ACAD
1010
0.0
1020
0.0
1030
0.0
  0
LINE
  5
86E8D
330
1F
100
AcDbEntity
  8
HAT
100
AcDbLine
 10
2974.595449717484
 20
714.8137657957587
 30
0.0
 11
2976.195449717484
 21
716.4137657957588
 31
0.0
1001
ACAD
1010
0.0
1020
0.0
1030
0.0
  0
LINE
  5
86E8E
330
1F
100
AcDbEntity
  8
HAT
100
AcDbLine
 10
2969.695449717484
 20
709.2950473622205
 30
0.0
 11
2971.295449717485
 21
710.8950473622204
 31
0.0
1001
ACAD
1010
0.0
1020
0.0
1030
0.0
  0
LINE
  5
86E8F
330
1F
100
AcDbEntity
  8
HAT
100
AcDbLine
 10
2974.595449717484
 20
714.1950473622205
 30
0.0
 11
2976.195449717484
 21
715.7950473622205
 31
0.0
1001
ACAD
1010
0.0
1020
0.0
1030
0.0
  0
LINE
  5
86E90
330
1F
100
AcDbEntity
  8
HAT
100
AcDbLine
 10
2969.8699179998
 20
708.8507972109981
 30
0.0
 11
2971.295449717485
 21
710.2763289286822
 31
0.0
1001
ACAD
1010
0.0
1020
0.0
1030
0.0
  0
LINE
  5
86E91
330
1F
100
AcDbEntity
  8
HAT
100
AcDbLine
 10
2974.595449717484
 20
713.5763289286821
 30
0.0
 11
2976.195449717484
 21
715.1763289286823
 31
0.0
1001
ACAD
1010
0.0
1020
0.0
1030
0.0
  0
LINE
  5
86E92
330
1F
100
AcDbEntity
  8
HAT
100
AcDbLine
 10
2970.096384565422
 20
708.4585453430811
 30
0.0
 11
2971.295449717485
 21
709.657610495144
 31
0.0
1001
ACAD
1010
0.0
1020
0.0
1030
0.0
  0
LINE
  5
86E93
330
1F
100
AcDbEntity
  8
HAT
100
AcDbLine
 10
2974.595449717484
 20
712.9576104951439
 30
0.0
 11
2976.195449717484
 21
714.5576104951441
 31
0.0
1001
ACAD
1010
0.0
1020
0.0
1030
0.0
  0
LINE
  5
86E94
330
1F
100
AcDbEntity
  8
HAT
100
AcDbLine
 10
2970.195449717484
 20
707.9388920616056
 30
0.0
 11
2971.295449717485
 21
709.0388920616057
 31
0.0
1001
ACAD
1010
0.0
1020
0.0
1030
0.0
  0
LINE
  5
86E95
330
1F
100
AcDbEntity
  8
HAT
100
AcDbLine
 10
2974.595449717484
 20
712.3388920616057
 30
0.0
 11
2976.195449717484
 21
713.9388920616056
 31
0.0
1001
ACAD
1010
0.0
1020
0.0
1030
0.0
  0
LINE
  5
86E96
330
1F
100
AcDbEntity
  8
HAT
100
AcDbLine
 10
2970.195449717484
 20
707.3201736280675
 30
0.0
 11
2971.295449717485
 21
708.4201736280674
 31
0.0
1001
ACAD
1010
0.0
1020
0.0
1030
0.0
  0
LINE
  5
86E97
330
1F
100
AcDbEntity
  8
HAT
100
AcDbLine
 10
2974.595449717484
 20
711.7201736280676
 30
0.0
 11
2976.195449717484
 21
713.3201736280675
 31
0.0
1001
ACAD
1010
0.0
1020
0.0
1030
0.0
  0
LINE
  5
86E98
330
1F
100
AcDbEntity
  8
HAT
100
AcDbLine
 10
2970.195449717484
 20
706.7014551945293
 30
0.0
 11
2971.295449717485
 21
707.8014551945293
 31
0.0
1001
ACAD
1010
0.0
1020
0.0
1030
0.0
  0
LINE
  5
86E99
330
1F
100
AcDbEntity
  8
HAT
100
AcDbLine
 10
2974.595449717484
 20
711.1014551945292
 30
0.0
 11
2976.195449717484
 21
712.7014551945293
 31
0.0
1001
ACAD
1010
0.0
1020
0.0
1030
0.0
  0
LINE
  5
86E9A
330
1F
100
AcDbEntity
  8
HAT
100
AcDbLine
 10
2970.195449717484
 20
706.0827367609911
 30
0.0
 11
2971.295449717485
 21
707.1827367609911
 31
0.0
1001
ACAD
1010
0.0
1020
0.0
1030
0.0
  0
LINE
  5
86E9B
330
1F
100
AcDbEntity
  8
HAT
100
AcDbLine
 10
2974.595449717484
 20
710.4827367609909
 30
0.0
 11
2976.195449717484
 21
712.0827367609911
 31
0.0
1001
ACAD
1010
0.0
1020
0.0
1030
0.0
  0
LINE
  5
86E9C
330
1F
100
AcDbEntity
  8
HAT
100
AcDbLine
 10
2970.195449717484
 20
705.4640183274528
 30
0.0
 11
2971.295449717485
 21
706.5640183274529
 31
0.0
1001
ACAD
1010
0.0
1020
0.0
1030
0.0
  0
LINE
  5
86E9D
330
1F
100
AcDbEntity
  8
HAT
100
AcDbLine
 10
2974.595449717484
 20
709.8640183274527
 30
0.0
 11
2976.195449717484
 21
711.4640183274529
 31
0.0
1001
ACAD
1010
0.0
1020
0.0
1030
0.0
  0
LINE
  5
86E9E
330
1F
100
AcDbEntity
  8
HAT
100
AcDbLine
 10
2970.195449717484
 20
704.8452998939145
 30
0.0
 11
2971.295449717485
 21
705.9452998939145
 31
0.0
1001
ACAD
1010
0.0
1020
0.0
1030
0.0
  0
LINE
  5
86E9F
330
1F
100
AcDbEntity
  8
HAT
100
AcDbLine
 10
2974.595449717484
 20
709.2452998939146
 30
0.0
 11
2976.195449717484
 21
710.8452998939147
 31
0.0
1001
ACAD
1010
0.0
1020
0.0
1030
0.0
  0
LINE
  5
86EA0
330
1F
100
AcDbEntity
  8
HAT
100
AcDbLine
 10
2970.283533873856
 20
704.3146656167484
 30
0.0
 11
2971.295449717485
 21
705.3265814603763
 31
0.0
1001
ACAD
1010
0.0
1020
0.0
1030
0.0
  0
LINE
  5
86EA1
330
1F
100
AcDbEntity
  8
HAT
100
AcDbLine
 10
2974.595449717484
 20
708.6265814603764
 30
0.0
 11
2976.195449717484
 21
710.2265814603764
 31
0.0
1001
ACAD
1010
0.0
1020
0.0
1030
0.0
  0
LINE
  5
86EA2
330
1F
100
AcDbEntity
  8
HAT
100
AcDbLine
 10
2970.63761505615
 20
704.0500283655042
 30
0.0
 11
2971.577645955458
 21
704.9900592648119
 31
0.0
1001
ACAD
1010
0.0
1020
0.0
1030
0.0
  0
LINE
  5
86EA3
330
1F
100
AcDbEntity
  8
HAT
100
AcDbLine
 10
2974.595449717484
 20
708.007863026838
 30
0.0
 11
2976.195449717484
 21
709.6078630268382
 31
0.0
1001
ACAD
1010
0.0
1020
0.0
1030
0.0
  0
LINE
  5
86EA4
330
1F
100
AcDbEntity
  8
HAT
100
AcDbLine
 10
2971.355425617343
 20
704.1491204931586
 30
0.0
 11
2971.969897716116
 21
704.7635925919319
 31
0.0
1001
ACAD
1010
0.0
1020
0.0
1030
0.0
  0
LINE
  5
86EA5
330
1F
100
AcDbEntity
  8
HAT
100
AcDbLine
 10
2974.595449717484
 20
707.3891445933
 30
0.0
 11
2975.971639448514
 21
708.7653343243297
 31
0.0
1001
ACAD
1010
0.0
1020
0.0
1030
0.0
  0
LINE
  5
86EA6
330
1F
100
AcDbEntity
  8
HAT
100
AcDbLine
 10
2971.59238179907
 20
703.7673582413471
 30
0.0
 11
2972.362149476774
 21
704.5371259190517
 31
0.0
1001
ACAD
1010
0.0
1020
0.0
1030
0.0
  0
LINE
  5
86EA7
330
1F
100
AcDbEntity
  8
HAT
100
AcDbLine
 10
2974.595449717484
 20
706.7704261597618
 30
0.0
 11
2975.695449717485
 21
707.8704261597618
 31
0.0
1001
ACAD
1010
0.0
1020
0.0
1030
0.0
  0
LINE
  5
86EA8
330
1F
100
AcDbEntity
  8
HAT
100
AcDbLine
 10
2972.945449717484
 20
705.1204261597618
 30
0.0
 11
2972.978008906043
 21
705.15298534832
 31
0.0
1001
ACAD
1010
0.0
1020
0.0
1030
0.0
  0
LINE
  5
86EA9
330
1F
100
AcDbEntity
  8
HAT
100
AcDbLine
 10
2972.303850709048
 20
703.8601087177868
 30
0.0
 11
2972.754401237433
 21
704.3106592461715
 31
0.0
1001
ACAD
1010
0.0
1020
0.0
1030
0.0
  0
LINE
  5
86EAA
330
1F
100
AcDbEntity
  8
HAT
100
AcDbLine
 10
2974.595449717484
 20
706.1517077262235
 30
0.0
 11
2975.695449717485
 21
707.2517077262236
 31
0.0
1001
ACAD
1010
0.0
1020
0.0
1030
0.0
  0
LINE
  5
86EAB
330
1F
100
AcDbEntity
  8
HAT
100
AcDbLine
 10
2972.754168085928
 20
703.6917076611286
 30
0.0
 11
2972.945449717484
 21
703.8829892926852
 31
0.0
1001
ACAD
1010
0.0
1020
0.0
1030
0.0
  0
LINE
  5
86EAC
330
1F
100
AcDbEntity
  8
HAT
100
AcDbLine
 10
2974.595449717484
 20
705.5329892926853
 30
0.0
 11
2975.695449717485
 21
706.6329892926852
 31
0.0
1001
ACAD
1010
0.0
1020
0.0
1030
0.0
  0
LINE
  5
86EAD
330
1F
100
AcDbEntity
  8
HAT
100
AcDbLine
 10
2972.945449717484
 20
703.8829892926854
 30
0.0
 11
2973.696350247625
 21
704.6338898228256
 31
0.0
1001
ACAD
1010
0.0
1020
0.0
1030
0.0
  0
LINE
  5
86EAE
330
1F
100
AcDbEntity
  8
HAT
100
AcDbLine
 10
2973.696350247625
 20
704.6338898228256
 30
0.0
 11
2973.69635065959
 21
704.6338902347899
 31
0.0
1001
ACAD
1010
0.0
1020
0.0
1030
0.0
  0
LINE
  5
86EAF
330
1F
100
AcDbEntity
  8
HAT
100
AcDbLine
 10
2973.683967282936
 20
704.0027884245983
 30
0.0
 11
2975.695449717485
 21
706.014270859147
 31
0.0
1001
ACAD
1010
0.0
1020
0.0
1030
0.0
  0
LINE
  5
86EB0
330
1F
100
AcDbEntity
  8
HAT
100
AcDbLine
 10
2974.089478478326
 20
703.7895811864501
 30
0.0
 11
2975.695449717485
 21
705.3955524256088
 31
0.0
1001
ACAD
1010
0.0
1020
0.0
1030
0.0
  0
LINE
  5
86EB1
330
1F
100
AcDbEntity
  8
HAT
100
AcDbLine
 10
2974.9417154003
 20
704.0230996748857
 30
0.0
 11
2975.695449717485
 21
704.7768339920706
 31
0.0
1001
ACAD
1010
0.0
1020
0.0
1030
0.0
  0
LINE
  5
86EB2
330
1F
100
AcDbEntity
  8
HAT
100
AcDbLine
 10
2975.347226556681
 20
703.8098923977285
 30
0.0
 11
2975.695449717485
 21
704.1581155585324
 31
0.0
1001
ACAD
1010
0.0
1020
0.0
1030
0.0
  0
LINE
  5
86EB3
330
1F
100
AcDbEntity
  8
0
100
AcDbLine
 10
2976.195449717484
 20
718.1529813483201
 30
0.0
 11
2976.195449717484
 21
709.1529823483202
 31
0.0
  0
LINE
  5
86EB4
330
1F
100
AcDbEntity
  8
0
100
AcDbLine
 10
2973.551535717485
 20
718.1529813483201
 30
0.0
 11
2976.195449717484
 21
718.1529813483201
 31
0.0
  0
LINE
  5
86EB5
330
1F
100
AcDbEntity
  8
0
100
AcDbLine
 10
2975.095449717485
 20
716.7529853483202
 30
0.0
 11
2975.095449717485
 21
717.6529813483202
 31
0.0
  0
LINE
  5
86EB6
330
1F
100
AcDbEntity
  8
Dim
 62
     1
 48
0.01
100
AcDbLine
 10
2974.945449717484
 20
708.1529853483202
 30
0.0
 11
2974.945449717484
 21
716.5029853483201
 31
0.0
  0
LINE
  5
86EB7
102
{ACAD_REACTORS
330
86EE5
102
}
330
1F
100
AcDbEntity
  8
0
100
AcDbLine
 10
2972.945451717485
 20
704.2003573483201
 30
0.0
 11
2974.595449717484
 21
705.1529863483201
 31
0.0
  0
LINE
  5
86EB8
330
1F
100
AcDbEntity
  8
0
100
AcDbLine
 10
2971.295449717485
 20
705.15298534832
 30
0.0
 11
2972.945451717485
 21
704.2003573483201
 31
0.0
  0
LINE
  5
86EB9
330
1F
100
AcDbEntity
  8
0
100
AcDbLine
 10
2970.795449717484
 20
717.6529813483202
 30
0.0
 11
2970.795449717484
 21
716.7529853483202
 31
0.0
  0
LINE
  5
86EBA
330
1F
100
AcDbEntity
  8
0
100
AcDbLine
 10
2969.695449717484
 20
718.1529813483201
 30
0.0
 11
2972.351538717485
 21
718.1529813483201
 31
0.0
  0
LINE
  5
86EBB
330
1F
100
AcDbEntity
  8
0
100
AcDbLine
 10
2969.695449717484
 20
709.1529793483202
 30
0.0
 11
2969.695449717484
 21
718.1529813483201
 31
0.0
  0
LINE
  5
86EBC
330
1F
100
AcDbEntity
  8
Dim
 48
0.01
100
AcDbLine
 10
2971.755453717484
 20
695.15298534832
 30
0.0
 11
2971.755453717484
 21
703.15298534832
 31
0.0
  0
LINE
  5
86EBD
330
1F
100
AcDbEntity
  8
Dim
 48
0.01
100
AcDbLine
 10
2974.135449717485
 20
695.15298534832
 30
0.0
 11
2974.135449717485
 21
703.15298534832
 31
0.0
  0
LINE
  5
86EBE
330
1F
100
AcDbEntity
  8
Dim
 48
0.01
100
AcDbLine
 10
2970.945449717484
 20
708.1529853483202
 30
0.0
 11
2970.945449717484
 21
716.5029833483202
 31
0.0
  0
LINE
  5
86EBF
330
1F
100
AcDbEntity
  8
Dim
 48
0.01
100
AcDbLine
 10
2974.945449717484
 20
708.1529853483202
 30
0.0
 11
2974.945449717484
 21
716.5029853483201
 31
0.0
  0
LINE
  5
86EC0
330
1F
100
AcDbEntity
  8
0
100
AcDbLine
 10
2970.945449717484
 20
708.1529853483202
 30
0.0
 11
2974.945449717484
 21
708.1529853483202
 31
0.0
  0
LINE
  5
86EC1
330
1F
100
AcDbEntity
  8
0
100
AcDbLine
 10
2970.795449717484
 20
717.6529813483202
 30
0.0
 11
2972.351538717485
 21
717.6529813483202
 31
0.0
  0
LINE
  5
86EC2
330
1F
100
AcDbEntity
  8
0
100
AcDbLine
 10
2975.095448717484
 20
717.6529813483202
 30
0.0
 11
2973.551535717485
 21
717.6529813483202
 31
0.0
  0
DIMENSION
  5
86EC3
330
1F
100
AcDbEntity
  8
Dim
100
AcDbDimension
  2
*D18
 10
2971.445449717486
 20
689.7230798071549
 30
0.0
 11
2972.945449717484
 21
689.7230798071549
 31
0.0
 70
   160
  1
M<>
 71
     5
 42
3.0
  3
01
100
AcDbAlignedDimension
 13
2974.445449717484
 23
695.4629853483201
 33
0.0
 14
2971.445449717486
 24
695.4629853483201
 34
0.0
100
AcDbRotatedDimension
  0
DIMENSION
  5
86EC4
330
1F
100
AcDbEntity
  8
Dim
100
AcDbDimension
  2
*D19
 10
2965.915318074732
 20
695.15298534832
 30
0.0
 11
2965.915318074732
 21
706.65298334832
 31
0.0
 70
   160
 71
     5
 42
22.99999600000001
  3
01
100
AcDbAlignedDimension
 13
2969.695449717484
 23
718.1529813483201
 33
0.0
 14
2971.755449717484
 24
695.15298534832
 34
0.0
 50
270.0
100
AcDbRotatedDimension
  0
LINE
  5
86EC5
330
1F
100
AcDbEntity
  8
0
100
AcDbLine
 10
2972.945449717484
 20
704.2003573483201
 30
0.0
 11
2974.595449717484
 21
705.15298534832
 31
0.0
  0
LINE
  5
86EC6
330
1F
100
AcDbEntity
  8
0
100
AcDbLine
 10
2971.295449717485
 20
705.15298534832
 30
0.0
 11
2972.945449717484
 21
704.2003573483201
 31
0.0
  0
LINE
  5
86EC7
102
{ACAD_REACTORS
330
86EE5
102
}
330
1F
100
AcDbEntity
  8
0
100
AcDbLine
 10
2971.295449717485
 20
705.15298534832
 30
0.0
 11
2974.595449717484
 21
705.15298534832
 31
0.0
  0
LINE
  5
86EC8
330
1F
100
AcDbEntity
  8
0
100
AcDbLine
 10
2970.295449717484
 20
718.1529813483201
 30
0.0
 11
2970.795449717484
 21
717.6529813483202
 31
0.0
  0
LINE
  5
86EC9
330
1F
100
AcDbEntity
  8
0
100
AcDbLine
 10
2970.795449717484
 20
717.6529813483202
 30
0.0
 11
2972.349385717484
 21
717.6529813483202
 31
0.0
  0
LINE
  5
86ECA
330
1F
100
AcDbEntity
  8
0
100
AcDbLine
 10
2975.095449717485
 20
717.6529813483202
 30
0.0
 11
2975.595449717485
 21
718.1529813483201
 31
0.0
  0
LINE
  5
86ECB
330
1F
100
AcDbEntity
  8
0
100
AcDbLine
 10
2973.551535717485
 20
717.6529813483202
 30
0.0
 11
2975.095449717485
 21
717.6529813483202
 31
0.0
  0
LINE
  5
86ECC
330
1F
100
AcDbEntity
  8
0
100
AcDbLine
 10
2973.551535717485
 20
716.7529853483202
 30
0.0
 11
2975.095449717485
 21
716.7529853483202
 31
0.0
  0
LINE
  5
86ECD
330
1F
100
AcDbEntity
  8
0
100
AcDbLine
 10
2971.295449717485
 20
716.25298534832
 30
0.0
 11
2974.595449717484
 21
716.25298534832
 31
0.0
  0
LINE
  5
86ECE
330
1F
100
AcDbEntity
  8
0
100
AcDbLine
 10
2970.795449717484
 20
716.7529853483202
 30
0.0
 11
2972.349385717484
 21
716.7529853483202
 31
0.0
  0
LINE
  5
86ECF
330
1F
100
AcDbEntity
  8
0
100
AcDbLine
 10
2973.551535717485
 20
716.6529853483202
 30
0.0
 11
2972.351538717485
 21
716.6529853483202
 31
0.0
  0
LINE
  5
86ED0
330
1F
100
AcDbEntity
  8
0
100
AcDbLine
 10
2975.695449717485
 20
708.2869593483201
 30
0.0
 11
2976.195449717484
 21
709.15298534832
 31
0.0
  0
LINE
  5
86ED1
330
1F
100
AcDbEntity
  8
0
100
AcDbLine
 10
2969.695449717484
 20
709.15298534832
 30
0.0
 11
2970.195449717484
 21
708.2869593483201
 31
0.0
  0
LINE
  5
86ED2
330
1F
100
AcDbEntity
  8
0
100
AcDbLine
 10
2975.695449717485
 20
703.15298534832
 30
0.0
 11
2975.695449717485
 21
708.2869593483201
 31
0.0
  0
LINE
  5
86ED3
330
1F
100
AcDbEntity
  8
0
100
AcDbLine
 10
2970.195449717484
 20
708.2869593483201
 30
0.0
 11
2970.195449717484
 21
703.15298534832
 31
0.0
  0
LINE
  5
86ED4
102
{ACAD_REACTORS
330
86EE2
330
86EE9
102
}
330
1F
100
AcDbEntity
  8
0
100
AcDbLine
 10
2970.195449717484
 20
703.15298534832
 30
0.0
 11
2975.695449717485
 21
703.15298534832
 31
0.0
  0
LINE
  5
86ED5
330
1F
100
AcDbEntity
  8
0
100
AcDbLine
 10
2971.445449717486
 20
695.4629853483201
 30
0.0
 11
2971.755449717484
 21
695.15298534832
 31
0.0
  0
LINE
  5
86ED6
102
{ACAD_REACTORS
330
86EE2
102
}
330
1F
100
AcDbEntity
  8
0
100
AcDbLine
 10
2974.135449717485
 20
695.15298534832
 30
0.0
 11
2971.755449717484
 21
695.15298534832
 31
0.0
  0
LINE
  5
86ED7
330
1F
100
AcDbEntity
  8
0
100
AcDbLine
 10
2974.135449717485
 20
695.15298534832
 30
0.0
 11
2974.445449717484
 21
695.4629853483201
 31
0.0
  0
LINE
  5
86ED8
330
1F
100
AcDbEntity
  8
0
100
AcDbLine
 10
2971.445449717486
 20
703.0529823483201
 30
0.0
 11
2971.445449717486
 21
695.4629853483201
 31
0.0
  0
LINE
  5
86ED9
330
1F
100
AcDbEntity
  8
0
100
AcDbLine
 10
2971.445449717486
 20
695.4629853483201
 30
0.0
 11
2974.445449717484
 21
695.4629853483201
 31
0.0
  0
LINE
  5
86EDA
330
1F
100
AcDbEntity
  8
0
100
AcDbLine
 10
2974.445449717484
 20
695.4629853483201
 30
0.0
 11
2974.445449717484
 21
703.0529823483201
 31
0.0
  0
LWPOLYLINE
  5
86EDB
330
1F
100
AcDbEntity
  8
0
100
AcDbPolyline
 90
       29
 70
     0
 43
0.0
 10
2974.445449717484
 20
703.0529823483201
 10
2974.445560717484
 20
703.0577473483202
 42
-0.012803212
 10
2974.445911717484
 20
703.0625763483201
 42
-0.012156192
 10
2974.446509717485
 20
703.06747334832
 42
-0.011974243
 10
2974.447356717485
 20
703.0724183483202
 42
-0.01248091
 10
2974.448476717485
 20
703.0773883483201
 42
-0.012719935
 10
2974.449863717484
 20
703.0823643483202
 42
-0.012875617
 10
2974.451534717486
 20
703.0873243483202
 42
-0.012977184
 10
2974.453480717484
 20
703.0922483483201
 42
-0.013184427
 10
2974.455715717485
 20
703.0971093483201
 42
-0.01329422
 10
2974.458223717485
 20
703.1018873483201
 42
-0.013438803
 10
2974.461014717485
 20
703.1065553483202
 42
-0.013511056
 10
2974.464067717485
 20
703.11109434832
 42
-0.013608979
 10
2974.467385717485
 20
703.1154763483201
 42
-0.01366307
 10
2974.470944717485
 20
703.1196843483201
 42
-0.013732866
 10
2974.474742717485
 20
703.1236923483202
 42
-0.013723184
 10
2974.478749717484
 20
703.1274893483201
 42
-0.013659497
 10
2974.482955717485
 20
703.1310483483202
 42
-0.013732965
 10
2974.487339717486
 20
703.1343663483201
 42
-0.013897881
 10
2974.491888717484
 20
703.1374203483201
 42
-0.013544116
 10
2974.496546717484
 20
703.1402103483201
 42
-0.012726748
 10
2974.501286717484
 20
703.1427173483201
 42
-0.013686671
 10
2974.506186717485
 20
703.1449533483201
 42
-0.015725956
 10
2974.511260717485
 20
703.1469073483201
 42
-0.012376322
 10
2974.516069717485
 20
703.14857034832
 42
-0.0053921731
 10
2974.520450717485
 20
703.1499283483201
 42
-0.016185844
 10
2974.526015717485
 20
703.15107734832
 42
-0.027067231
 10
2974.534462717485
 20
703.1520983483201
 42
-0.013868334
 10
2974.545451717485
 20
703.15298434832
 42
-0.0076245986
  0
LWPOLYLINE
  5
86EDC
330
1F
100
AcDbEntity
  8
0
100
AcDbPolyline
 90
       29
 70
     0
 43
0.0
 10
2971.345450717485
 20
703.15298434832
 10
2971.350216717485
 20
703.1528733483201
 42
-0.012803826
 10
2971.355044717485
 20
703.1525233483201
 42
-0.012156789
 10
2971.359941717484
 20
703.1519243483201
 42
-0.01197484
 10
2971.364885717485
 20
703.15107734832
 42
-0.012481535
 10
2971.369856717485
 20
703.1499583483202
 42
-0.012720568
 10
2971.374831717484
 20
703.14857034832
 42
-0.012876248
 10
2971.379791717486
 20
703.14689934832
 42
-0.012977802
 10
2971.384714717484
 20
703.1449533483201
 42
-0.013185032
 10
2971.389575717484
 20
703.1427193483201
 42
-0.013294797
 10
2971.394354717485
 20
703.1402103483201
 42
-0.013439347
 10
2971.399021717485
 20
703.1374203483201
 42
-0.013511556
 10
2971.403560717484
 20
703.1343663483201
 42
-0.01360943
 10
2971.407941717485
 20
703.1310493483202
 42
-0.013663464
 10
2971.412149717485
 20
703.1274893483201
 42
-0.013733198
 10
2971.416157717485
 20
703.12369134832
 42
-0.013723447
 10
2971.419954717485
 20
703.1196843483201
 42
-0.013659689
 10
2971.423513717484
 20
703.1154783483201
 42
-0.013733083
 10
2971.426831717484
 20
703.11109434832
 42
-0.013897925
 10
2971.429884717484
 20
703.1065463483201
 42
-0.013544082
 10
2971.432674717485
 20
703.1018873483201
 42
-0.012726651
 10
2971.435180717485
 20
703.0971473483202
 42
-0.013686495
 10
2971.437416717484
 20
703.0922483483201
 42
-0.015725667
 10
2971.439370717485
 20
703.0871743483201
 42
-0.012376027
 10
2971.441034717484
 20
703.0823643483202
 42
-0.0053920283
 10
2971.442391717485
 20
703.0779833483201
 42
-0.016185366
 10
2971.443540717484
 20
703.0724183483202
 42
-0.027066241
 10
2971.444561717484
 20
703.0639723483201
 42
-0.013867754
 10
2971.445446717484
 20
703.0529823483201
 42
-0.0076242637
  0
LINE
  5
86EDD
330
1F
100
AcDbEntity
  8
0
100
AcDbLine
 10
2972.351538717485
 20
716.6529853483202
 30
0.0
 11
2972.351538717485
 21
718.1529813483201
 31
0.0
  0
LINE
  5
86EDE
330
1F
100
AcDbEntity
  8
0
100
AcDbLine
 10
2973.551535717485
 20
718.1529813483201
 30
0.0
 11
2973.551535717485
 21
716.6529853483202
 31
0.0
  0
DIMENSION
  5
86EDF
330
1F
100
AcDbEntity
  8
Dim
100
AcDbDimension
  2
*D20
 10
2974.945449717484
 20
721.7380157663
 30
0.0
 11
2972.945449717484
 21
721.7380157663
 31
0.0
 70
   160
  1
M<>
 71
     5
 42
4.0
  3
01
100
AcDbAlignedDimension
 13
2970.945449717484
 23
716.4423203461326
 33
0.0
 14
2974.945449717484
 24
716.5029853483201
 34
0.0
100
AcDbRotatedDimension
  0
DIMENSION
  5
86EE0
102
{ACAD_XDICTIONARY
360
86EE1
102
}
102
{ACAD_REACTORS
330
86EE2
102
}
330
1F
100
AcDbEntity
  8
Dim
100
AcDbDimension
  2
*D22
 10
2980.687866616699
 20
703.15298534832
 30
0.0
 11
2980.687866616699
 21
699.15298534832
 31
0.0
 70
   160
 71
     5
 42
8.0
  3
01
100
AcDbAlignedDimension
 13
2972.945449717484
 23
695.15298534832
 33
0.0
 14
2975.695449717485
 24
703.15298534832
 34
0.0
 50
90.0
100
AcDbRotatedDimension
  0
DIMENSION
  5
86EE3
102
{ACAD_XDICTIONARY
360
86EE4
102
}
102
{ACAD_REACTORS
330
86EE5
102
}
330
1F
100
AcDbEntity
  8
Dim
100
AcDbDimension
  2
*D23
 10
2980.687866616699
 20
718.1529813483201
 30
0.0
 11
2980.687866616699
 21
712.7171703469437
 31
0.0
 70
   160
 71
     5
 42
12.99999600000001
  3
01
100
AcDbAlignedDimension
 13
2974.595447985438
 23
705.15298534832
 33
0.0
 14
2976.195449717484
 24
718.1529813483201
 34
0.0
 50
90.0
100
AcDbRotatedDimension
  0
DIMENSION
  5
86EE6
330
1F
100
AcDbEntity
  8
Dim
100
AcDbDimension
  2
*D21
 10
2976.195449717484
 20
725.3775385699117
 30
0.0
 11
2972.945449717484
 21
725.3775385699117
 31
0.0
 70
   160
  1
%%c<>
 71
     5
 42
6.5
  3
01
100
AcDbAlignedDimension
 13
2969.695449717484
 23
718.1529813483201
 33
0.0
 14
2976.195449717484
 24
718.1529813483201
 34
0.0
100
AcDbRotatedDimension
  0
DIMENSION
  5
86EE7
102
{ACAD_XDICTIONARY
360
86EE8
102
}
102
{ACAD_REACTORS
330
86EE9
102
}
330
1F
100
AcDbEntity
  8
Dim
100
AcDbDimension
  2
*D24
 10
2975.695449717485
 20
701.5114504192338
 30
0.0
 11
2961.33876211325
 21
701.5114504192338
 31
0.0
 70
   160
  1
%%c<>
 71
     5
 42
5.5
  3
01
100
AcDbAlignedDimension
 13
2970.195449717484
 23
703.15298534832
 33
0.0
 14
2975.695449717485
 24
703.15298534832
 34
0.0
100
AcDbRotatedDimension
  0
LINE
  5
86EEC
330
1F
100
AcDbEntity
  8
CEN
 62
     1
 48
0.1
100
AcDbLine
 10
2972.945449717484
 20
719.5339064550061
 30
0.0
 11
2972.945449717484
 21
694.4064495007491
 31
0.0
  0
LINE
  5
86EED
330
1F
100
AcDbEntity
  8
0
100
AcDbLine
 10
2970.195449717484
 20
704.3804989628458
 30
0.0
 11
2970.727024717485
 21
703.9832043483201
 31
0.0
  0
LINE
  5
86EEE
330
1F
100
AcDbEntity
  8
0
100
AcDbLine
 10
2970.727024717485
 20
703.9832043483201
 30
0.0
 11
2971.255001919365
 21
704.3109140230682
 31
0.0
  0
LINE
  5
86EEF
330
1F
100
AcDbEntity
  8
0
100
AcDbLine
 10
2971.255001919365
 20
704.3109140230682
 30
0.0
 11
2971.688760414338
 21
703.6120817808506
 31
0.0
  0
LINE
  5
86EF0
330
1F
100
AcDbEntity
  8
0
100
AcDbLine
 10
2971.688760414338
 20
703.6120817808506
 30
0.0
 11
2972.169377717484
 21
703.9103963483202
 31
0.0
  0
LINE
  5
86EF1
330
1F
100
AcDbEntity
  8
0
100
AcDbLine
 10
2972.169377717484
 20
703.9103963483202
 30
0.0
 11
2972.875344717485
 21
703.6463923483202
 31
0.0
  0
LINE
  5
86EF2
330
1F
100
AcDbEntity
  8
0
100
AcDbLine
 10
2972.875344717485
 20
703.6463923483202
 30
0.0
 11
2973.530764717484
 21
704.0833383483201
 31
0.0
  0
LINE
  5
86EF3
330
1F
100
AcDbEntity
  8
0
100
AcDbLine
 10
2973.530764717484
 20
704.0833383483201
 30
0.0
 11
2974.41375979903
 21
703.6190825034148
 31
0.0
  0
LINE
  5
86EF4
330
1F
100
AcDbEntity
  8
0
100
AcDbLine
 10
2974.41375979903
 20
703.6190825034148
 30
0.0
 11
2974.694516717485
 21
704.1530703483202
 31
0.0
  0
LINE
  5
86EF5
330
1F
100
AcDbEntity
  8
0
100
AcDbLine
 10
2974.694516717485
 20
704.1530703483202
 30
0.0
 11
2975.474581717485
 21
703.7429323483202
 31
0.0
  0
LINE
  5
86EF6
330
1F
100
AcDbEntity
  8
0
100
AcDbLine
 10
2975.474581717485
 20
703.7429323483202
 30
0.0
 11
2975.695449717485
 21
704.0742353483201
 31
0.0
  0
LINE
  5
86EF7
330
1F
100
AcDbEntity
  8
0
100
AcDbLine
 10
2971.295449717485
 20
716.25298534832
 30
0.0
 11
2971.295449717485
 21
705.15298534832
 31
0.0
  0
LINE
  5
86EF8
330
1F
100
AcDbEntity
  8
0
100
AcDbLine
 10
2974.595449717484
 20
716.25298534832
 30
0.0
 11
2974.595449717484
 21
705.15298534832
 31
0.0
  0
LINE
  5
86EF9
330
1F
100
AcDbEntity
  8
0
100
AcDbLine
 10
2975.095449717485
 20
716.7529853483202
 30
0.0
 11
2974.595449717484
 21
716.25298534832
 31
0.0
  0
LINE
  5
86EFA
330
1F
100
AcDbEntity
  8
0
100
AcDbLine
 10
2971.295449717485
 20
716.25298534832
 30
0.0
 11
2970.795449717484
 21
716.7529853483202
 31
0.0
  0
SPLINE
  5
871FE
330
1F
100
AcDbEntity
  8
0
100
AcDbSpline
210
0.0
220
0.0
230
1.0
 70
     8
 71
     3
 72
    17
 73
    13
 74
     0
 42
0.0000000001
 43
0.0000000001
 40
0.0
 40
0.0
 40
0.0
 40
0.0
 40
0.0578764234298241
 40
0.1672520189688472
 40
0.276913251363954
 40
0.3868311308809702
 40
0.4970114874866452
 40
0.6075235958093364
 40
0.7185362015072874
 40
0.830350834697289
 40
0.9434193023722928
 40
1.0
 40
1.0
 40
1.0
 40
1.0
 10
2888.443643123648
 20
610.6054529568494
 30
0.0
 10
2888.436301746081
 20
610.6522596310348
 30
0.0
 10
2888.415086540522
 20
610.7875221489101
 30
0.0
 10
2888.361115950436
 20
610.9989083252806
 30
0.0
 10
2888.282825112016
 20
611.2392544777463
 30
0.0
 10
2888.185998681504
 20
611.4655948882369
 30
0.0
 10
2888.071666292358
 20
611.6774046392542
 30
0.0
 10
2887.939422970441
 20
611.87311269946
 30
0.0
 10
2887.789559576361
 20
612.0519090278167
 30
0.0
 10
2887.621083502555
 20
612.2108646968767
 30
0.0
 10
2887.468935208433
 20
612.3299255147454
 30
0.0
 10
2887.367857309813
 20
612.3862730257857
 30
0.0
 10
2887.334146221353
 20
612.4050658178314
 30
0.0
  0
LINE
  5
871FF
330
1F
100
AcDbEntity
  8
0
100
AcDbLine
 10
2871.835387784232
 20
609.3478566232566
 30
0.0
 11
2882.130862518311
 21
603.4044055691857
 31
0.0
  0
LINE
  5
87200
330
1F
100
AcDbEntity
  8
0
100
AcDbLine
 10
2887.330439928016
 20
612.4113137379464
 30
0.0
 11
2877.03496519394
 21
618.3547647920157
 31
0.0
  0
SPLINE
  5
87201
330
1F
100
AcDbEntity
  8
0
100
AcDbSpline
210
0.0
220
0.0
230
1.0
 70
     8
 71
     3
 72
    31
 73
    27
 74
     0
 42
0.0000000001
 43
0.0000000001
 40
0.0
 40
0.0
 40
0.0
 40
0.0
 40
0.0229253468936325
 40
0.0690845342765015
 40
0.1164503261195531
 40
0.1652685288063219
 40
0.2094575867858847
 40
0.2540038065783922
 40
0.2988431246125092
 40
0.3438938417208273
 40
0.3890707873319845
 40
0.4342987073147264
 40
0.4795173072284019
 40
0.5246723392361659
 40
0.569725634977057
 40
0.6146477255275464
 40
0.6594017526635787
 40
0.7039324604943193
 40
0.7481442507019313
 40
0.7918515776914873
 40
0.8346430091348276
 40
0.8754023719936899
 40
0.9116864009554817
 40
0.9385229836374701
 40
0.9687336826974352
 40
1.0
 40
1.0
 40
1.0
 40
1.0
 10
2882.127156224988
 20
603.4106534892928
 30
0.0
 10
2882.161218265132
 20
603.3900797005846
 30
0.0
 10
2882.263862739423
 20
603.3280814844696
 30
0.0
 10
2882.452297065564
 20
603.2515524410574
 30
0.0
 10
2882.692024982732
 20
603.1809595504128
 30
0.0
 10
2882.939479200701
 20
603.1412738523036
 30
0.0
 10
2883.189463149736
 20
603.128878694173
 30
0.0
 10
2883.437989761743
 20
603.1413832644314
 30
0.0
 10
2883.692611188697
 20
603.1781884965248
 30
0.0
 10
2883.951825984203
 20
603.2390497901607
 30
0.0
 10
2884.21412420526
 20
603.3234678906928
 30
0.0
 10
2884.47805338765
 20
603.4307727930728
 30
0.0
 10
2884.742211294499
 20
603.5601426925296
 30
0.0
 10
2885.005253884731
 20
603.7106354800357
 30
0.0
 10
2885.265884925006
 20
603.8812037766623
 30
0.0
 10
2885.522837799331
 20
604.07069789013
 30
0.0
 10
2885.774822368107
 20
604.2778236754322
 30
0.0
 10
2886.020454549647
 20
604.501052463118
 30
0.0
 10
2886.258143887607
 20
604.7384427376645
 30
0.0
 10
2886.485796359091
 20
604.9871821585115
 30
0.0
 10
2886.699852850871
 20
605.2421068906763
 30
0.0
 10
2886.893668231023
 20
605.4927363995224
 30
0.0
 10
2887.054907216509
 20
605.7175998573572
 30
0.0
 10
2887.19424644861
 20
605.9247292026054
 30
0.0
 10
2887.321651916636
 20
606.1244568807534
 30
0.0
 10
2887.405394748049
 20
606.2667884223405
 30
0.0
 10
2887.447985135379
 20
606.3391761764109
 30
0.0
  0
SPLINE
  5
87202
330
1F
100
AcDbEntity
  8
0
100
AcDbSpline
210
0.0
220
0.0
230
1.0
 70
     8
 71
     3
 72
    18
 73
    14
 74
     0
 42
0.0000000001
 43
0.0000000001
 40
0.0
 40
0.0
 40
0.0
 40
0.0
 40
0.1282596615929548
 40
0.1801220676722124
 40
0.2661128127309426
 40
0.3551827062497823
 40
0.4505087242308433
 40
0.5497328264543883
 40
0.6519089182547281
 40
0.7562879074095785
 40
0.8623468555121206
 40
0.9697080358784965
 40
1.0
 40
1.0
 40
1.0
 40
1.0
 10
2887.447985135379
 20
606.3391761764109
 30
0.0
 10
2887.512873985887
 20
606.4548566762745
 30
0.0
 10
2887.604000952677
 20
606.6173131381581
 30
0.0
 10
2887.727667226469
 20
606.862240079373
 30
0.0
 10
2887.828067508066
 20
607.0728611190681
 30
0.0
 10
2887.938981432431
 20
607.3261698364715
 30
0.0
 10
2888.045558165721
 20
607.5935992195897
 30
0.0
 10
2888.14586516077
 20
607.8744097809459
 30
0.0
 10
2888.23682814235
 20
608.163828772092
 30
0.0
 10
2888.316830729388
 20
608.4588065307798
 30
0.0
 10
2888.382898329866
 20
608.756122475978
 30
0.0
 10
2888.425680630569
 20
608.982653876184
 30
0.0
 10
2888.441204437155
 20
609.1078772841322
 30
0.0
 10
2888.444620607514
 20
609.135433959244
 30
0.0
  0
LINE
  5
87203
330
1F
100
AcDbEntity
  8
0
100
AcDbLine
 10
2874.434578880447
 20
618.096977881236
 30
0.0
 11
2873.868985395345
 21
617.7703615608284
 31
0.0
  0
LINE
  5
87204
330
1F
100
AcDbEntity
  8
0
100
AcDbLine
 10
2870.758221226918
 20
612.3817761062906
 30
0.0
 11
2870.758221226918
 21
611.7286496168982
 31
0.0
  0
LINE
  5
87205
330
1F
100
AcDbEntity
  8
0
100
AcDbLine
 10
2866.012815602845
 20
613.632891405181
 30
0.0
 11
2870.849602033019
 21
610.8406740330593
 31
0.0
  0
LINE
  5
87206
330
1F
100
AcDbEntity
  8
0
100
AcDbLine
 10
2875.249244456618
 20
618.4619040220093
 30
0.0
 11
2870.412458026443
 21
621.254121394131
 31
0.0
  0
SPLINE
  5
87207
330
1F
100
AcDbEntity
  8
0
100
AcDbSpline
210
0.0
220
0.0
230
1.0
 70
     8
 71
     3
 72
    29
 73
    25
 74
     0
 42
0.0000000001
 43
0.0000000001
 40
0.0
 40
0.0
 40
0.0
 40
0.0
 40
0.0144634090857897
 40
0.0641578505818299
 40
0.1153140435359404
 40
0.1627227187450921
 40
0.2106182058147012
 40
0.258988166239231
 40
0.3077506165266264
 40
0.3567847737812865
 40
0.4059654365503789
 40
0.4551849177252905
 40
0.5043595844779907
 40
0.5534066265339104
 40
0.6022824931364765
 40
0.6509350577670765
 40
0.6992865626059514
 40
0.7471983377463408
 40
0.794386439162246
 40
0.8401688743537166
 40
0.8824166641833127
 40
0.9166833112399784
 40
0.9470202959705199
 40
1.0
 40
1.0
 40
1.0
 40
1.0
 10
2870.41535189804
 20
621.2490516639197
 30
0.0
 10
2870.397132184312
 20
621.2606173571546
 30
0.0
 10
2870.316311842161
 20
621.3119213072846
 30
0.0
 10
2870.156395063622
 20
621.3784186760411
 30
0.0
 10
2869.942966021913
 20
621.4438476940097
 30
0.0
 10
2869.721930216356
 20
621.4804393340113
 30
0.0
 10
2869.498568468396
 20
621.492192742572
 30
0.0
 10
2869.267731267432
 20
621.479361552561
 30
0.0
 10
2869.031126242155
 20
621.4421635198156
 30
0.0
 10
2868.790414385012
 20
621.3809011068676
 30
0.0
 10
2868.547274497021
 20
621.2962019215853
 30
0.0
 10
2868.303300973093
 20
621.1888953497358
 30
0.0
 10
2868.060029392822
 20
621.0599940313392
 30
0.0
 10
2867.818904448232
 20
620.9106428454743
 30
0.0
 10
2867.581328178505
 20
620.7421184788731
 30
0.0
 10
2867.348689238764
 20
620.5558410381518
 30
0.0
 10
2867.122495829871
 20
620.3535122652813
 30
0.0
 10
2866.904538929154
 20
620.1373616541583
 30
0.0
 10
2866.697336737381
 20
619.9108440450528
 30
0.0
 10
2866.505903446084
 20
619.6812019043379
 30
0.0
 10
2866.339876810415
 20
619.4640721361034
 30
0.0
 10
2866.200960587582
 20
619.2678383201505
 30
0.0
 10
2866.05348603303
 20
619.0468246892284
 30
0.0
 10
2865.956810059156
 20
618.8844850919073
 30
0.0
 10
2865.895335406732
 20
618.7812560276426
 30
0.0
  0
SPLINE
  5
87208
330
1F
100
AcDbEntity
  8
0
100
AcDbSpline
210
0.0
220
0.0
230
1.0
 70
     8
 71
     3
 72
    30
 73
    26
 74
     0
 42
0.0000000001
 43
0.0000000001
 40
0.0
 40
0.0
 40
0.0
 40
0.0
 40
0.0537388586342047
 40
0.0755092095871187
 40
0.1115897541150883
 40
0.1489499537353268
 40
0.1889201005782072
 40
0.2305065069049411
 40
0.2733121389358762
 40
0.3170238711406408
 40
0.3614248556305283
 40
0.4063600502378448
 40
0.4517180512654255
 40
0.4974183248194206
 40
0.5434021752490171
 40
0.5896242779561911
 40
0.6360345997513343
 40
0.6825982118609752
 40
0.7292846930454056
 40
0.7760750158766072
 40
0.8229755631262632
 40
0.870039197792715
 40
0.9173879583901886
 40
0.9652288570924079
 40
1.0
 40
1.0
 40
1.0
 40
1.0
 10
2865.895335406732
 20
618.7812560276426
 30
0.0
 10
2865.835926202416
 20
618.6750688213359
 30
0.0
 10
2865.752449512101
 20
618.5258637168685
 30
0.0
 10
2865.640101942653
 20
618.3005338738036
 30
0.0
 10
2865.549345633275
 20
618.106579974084
 30
0.0
 10
2865.450051896053
 20
617.8733687147674
 30
0.0
 10
2865.355813516874
 20
617.6273532274093
 30
0.0
 10
2865.268611652879
 20
617.3693951554168
 30
0.0
 10
2865.191261422722
 20
617.1040437097009
 30
0.0
 10
2865.125660290322
 20
616.8343967063981
 30
0.0
 10
2865.07325077203
 20
616.5631442750087
 30
0.0
 10
2865.035129701648
 20
616.2925986151232
 30
0.0
 10
2865.012142136613
 20
616.0247961143221
 30
0.0
 10
2865.00494869884
 20
615.7615580135717
 30
0.0
 10
2865.014075553867
 20
615.5045410062482
 30
0.0
 10
2865.039948617131
 20
615.2553037412754
 30
0.0
 10
2865.082913102406
 20
615.0153255281252
 30
0.0
 10
2865.143243821436
 20
614.786037932324
 30
0.0
 10
2865.221161961332
 20
614.5688420105078
 30
0.0
 10
2865.316813994605
 20
614.3651136117082
 30
0.0
 10
2865.430345905021
 20
614.1763302961685
 30
0.0
 10
2865.561657099996
 20
614.0036298496717
 30
0.0
 10
2865.711421340379
 20
613.8495123001249
 30
0.0
 10
2865.861406045087
 20
613.7248247956445
 30
0.0
 10
2865.96761822498
 20
613.6626495972766
 30
0.0
 10
2866.012322590271
 20
613.6364802560325
 30
0.0
  0
LINE
  5
87209
330
1F
100
AcDbEntity
  8
0
100
AcDbLine
 10
2865.036930473996
 20
616.5055964206689
 30
0.0
 11
2865.065252685076
 21
616.4892463562333
 31
0.0
  0
LINE
  5
8720A
330
1F
100
AcDbEntity
  8
0
100
AcDbLine
 10
2864.471245049047
 20
616.832159665398
 30
0.0
 11
2864.597194756635
 21
616.7594504468665
 31
0.0
  0
LINE
  5
8720B
330
1F
100
AcDbEntity
  8
0
100
AcDbLine
 10
2863.905559624098
 20
617.158722910127
 30
0.0
 11
2864.031509331686
 21
617.0860136915955
 31
0.0
  0
LINE
  5
8720C
330
1F
100
AcDbEntity
  8
0
100
AcDbLine
 10
2863.339874199148
 20
617.485286154856
 30
0.0
 11
2863.465823906737
 21
617.4125769363246
 31
0.0
  0
LINE
  5
8720D
330
1F
100
AcDbEntity
  8
0
100
AcDbLine
 10
2862.774188774199
 20
617.8118493995851
 30
0.0
 11
2862.900138481788
 21
617.7391401810536
 31
0.0
  0
LINE
  5
8720E
330
1F
100
AcDbEntity
  8
0
100
AcDbLine
 10
2862.20850334925
 20
618.1384126443142
 30
0.0
 11
2862.334453056838
 21
618.0657034257827
 31
0.0
  0
LINE
  5
8720F
330
1F
100
AcDbEntity
  8
0
100
AcDbLine
 10
2861.642817924301
 20
618.4649758890433
 30
0.0
 11
2861.768767631889
 21
618.3922666705118
 31
0.0
  0
LINE
  5
87210
330
1F
100
AcDbEntity
  8
0
100
AcDbLine
 10
2861.077132499351
 20
618.7915391337725
 30
0.0
 11
2861.20308220694
 21
618.7188299152409
 31
0.0
  0
LINE
  5
87211
330
1F
100
AcDbEntity
  8
0
100
AcDbLine
 10
2860.511447074403
 20
619.1181023785016
 30
0.0
 11
2860.63739678199
 21
619.0453931599701
 31
0.0
  0
LINE
  5
87212
330
1F
100
AcDbEntity
  8
0
100
AcDbLine
 10
2859.945761649453
 20
619.4446656232305
 30
0.0
 11
2860.071711357041
 21
619.3719564046991
 31
0.0
  0
LINE
  5
87213
330
1F
100
AcDbEntity
  8
0
100
AcDbLine
 10
2859.380076224504
 20
619.7712288679596
 30
0.0
 11
2859.506025932093
 21
619.6985196494282
 31
0.0
  0
LINE
  5
87214
330
1F
100
AcDbEntity
  8
0
100
AcDbLine
 10
2858.814390799555
 20
620.0977921126888
 30
0.0
 11
2858.940340507143
 21
620.0250828941571
 31
0.0
  0
LINE
  5
87215
330
1F
100
AcDbEntity
  8
0
100
AcDbLine
 10
2858.301178791263
 20
620.3940630987704
 30
0.0
 11
2858.374655082194
 21
620.3516461388864
 31
0.0
  0
LINE
  5
87216
330
1F
100
AcDbEntity
  8
0
100
AcDbLine
 10
2861.057302752995
 20
624.3453990559491
 30
0.0
 11
2860.931353045407
 21
624.4181082744805
 31
0.0
  0
LINE
  5
87217
330
1F
100
AcDbEntity
  8
0
100
AcDbLine
 10
2861.622988177944
 20
624.01883581122
 30
0.0
 11
2861.497038470356
 21
624.0915450297515
 31
0.0
  0
LINE
  5
87218
330
1F
100
AcDbEntity
  8
0
100
AcDbLine
 10
2862.188673602894
 20
623.6922725664909
 30
0.0
 11
2862.062723895305
 21
623.7649817850224
 31
0.0
  0
LINE
  5
87219
330
1F
100
AcDbEntity
  8
0
100
AcDbLine
 10
2862.754359027843
 20
623.3657093217618
 30
0.0
 11
2862.628409320254
 21
623.4384185402933
 31
0.0
  0
LINE
  5
8721A
330
1F
100
AcDbEntity
  8
0
100
AcDbLine
 10
2863.320044452792
 20
623.0391460770327
 30
0.0
 11
2863.194094745204
 21
623.1118552955642
 31
0.0
  0
LINE
  5
8721B
330
1F
100
AcDbEntity
  8
0
100
AcDbLine
 10
2863.885729877741
 20
622.7125828323037
 30
0.0
 11
2863.759780170152
 21
622.7852920508352
 31
0.0
  0
LINE
  5
8721C
330
1F
100
AcDbEntity
  8
0
100
AcDbLine
 10
2864.45141530269
 20
622.3860195875746
 30
0.0
 11
2864.325465595102
 21
622.4587288061061
 31
0.0
  0
LINE
  5
8721D
330
1F
100
AcDbEntity
  8
0
100
AcDbLine
 10
2865.017100727639
 20
622.0594563428455
 30
0.0
 11
2864.891151020051
 21
622.132165561377
 31
0.0
  0
LINE
  5
8721E
330
1F
100
AcDbEntity
  8
0
100
AcDbLine
 10
2865.582786152589
 20
621.7328930981164
 30
0.0
 11
2865.456836445001
 21
621.8056023166479
 31
0.0
  0
LINE
  5
8721F
330
1F
100
AcDbEntity
  8
0
100
AcDbLine
 10
2866.148471577538
 20
621.4063298533873
 30
0.0
 11
2866.022521869949
 21
621.4790390719188
 31
0.0
  0
LINE
  5
87220
330
1F
100
AcDbEntity
  8
0
100
AcDbLine
 10
2866.714157002487
 20
621.0797666086582
 30
0.0
 11
2866.588207294899
 21
621.1524758271897
 31
0.0
  0
LINE
  5
87221
330
1F
100
AcDbEntity
  8
0
100
AcDbLine
 10
2867.279842427437
 20
620.7532033639291
 30
0.0
 11
2867.153892719848
 21
620.8259125824606
 31
0.0
  0
LINE
  5
87222
330
1F
100
AcDbEntity
  8
0
100
AcDbLine
 10
2859.409707718994
 20
624.3795123651999
 30
0.0
 11
2858.935211965907
 21
624.1055027434405
 31
0.0
  0
LINE
  5
87223
330
1F
100
AcDbEntity
  8
0
100
AcDbLine
 10
2857.804024995681
 20
622.1460171238009
 30
0.0
 11
2857.804024995681
 21
621.4928906343559
 31
0.0
  0
SPLINE
  5
87224
330
1F
100
AcDbEntity
  8
0
100
AcDbSpline
210
0.0
220
0.0
230
1.0
 70
     8
 71
     3
 72
    10
 73
     6
 74
     0
 42
0.0000000001
 43
0.0000000001
 40
0.0
 40
0.0
 40
0.0
 40
0.0
 40
0.3881865483844893
 40
0.7764898399845026
 40
1.0
 40
1.0
 40
1.0
 40
1.0
 10
2888.351037942837
 20
610.4551697385091
 30
0.0
 10
2888.374313998409
 20
610.4717277772334
 30
0.0
 10
2888.420873109594
 20
610.5048488343462
 30
0.0
 10
2888.450514737209
 20
610.5594797427271
 30
0.0
 10
2888.44387515911
 20
610.5929177985582
 30
0.0
 10
2888.441449561635
 20
610.6051335241028
 30
0.0
  0
SPLINE
  5
87225
330
1F
100
AcDbEntity
  8
0
100
AcDbSpline
210
0.0
220
0.0
230
1.0
 70
     8
 71
     3
 72
    14
 73
    10
 74
     0
 42
0.0000000001
 43
0.0000000001
 40
0.0
 40
0.0
 40
0.0
 40
0.0
 40
0.25
 40
0.25
 40
0.5
 40
0.5
 40
0.75
 40
0.75
 40
0.9999999999999998
 40
0.9999999999999998
 40
0.9999999999999998
 40
0.9999999999999998
 10
2881.562812843446
 20
606.5364108017602
 30
0.0
 10
2881.708374241167
 20
607.5372903142407
 30
0.0
 10
2882.127741811867
 20
608.608392716555
 30
0.0
 10
2883.367964567541
 20
610.5178276254265
 30
0.0
 10
2884.149721278512
 20
611.2959645011572
 30
0.0
 10
2885.764129507771
 20
612.2279425341981
 30
0.0
 10
2886.545886218742
 20
612.3524027446355
 30
0.0
 10
2887.786108974416
 20
611.8748985499629
 30
0.0
 10
2888.205476545117
 20
611.2879876384742
 30
0.0
 10
2888.351037942837
 20
610.4551697385091
 30
0.0
  0
SPLINE
  5
87226
330
1F
100
AcDbEntity
  8
0
100
AcDbSpline
210
0.0
220
0.0
230
1.0
 70
     8
 71
     3
 72
    10
 73
     6
 74
     0
 42
0.0000000001
 43
0.0000000001
 40
0.0
 40
0.0
 40
0.0
 40
0.0
 40
0.5
 40
0.5
 40
1.0
 40
1.0
 40
1.0
 40
1.0
 10
2881.106730694232
 20
606.5343707771005
 30
0.0
 10
2881.166968723569
 20
606.4995961029641
 30
0.0
 10
2881.25110886188
 20
606.4802965953304
 30
0.0
 10
2881.41924669409
 20
606.4813850839989
 30
0.0
 10
2881.502600707823
 20
606.5016510757467
 30
0.0
 10
2881.562812843446
 20
606.5364108017602
 30
0.0
  0
ARC
  5
87227
330
1F
100
AcDbEntity
  8
0
100
AcDbCircle
 10
2873.363090838476
 20
611.4731242078142
 30
0.0
 40
2.617372523718655
100
AcDbArc
 50
174.3974791185914
 51
234.290340488038
  0
LWPOLYLINE
  5
87228
330
1F
100
AcDbEntity
  8
0
100
AcDbPolyline
 90
       31
 70
   128
 43
0.0
 10
2877.03496519394
 20
618.3547647920157
 10
2876.902775386675
 20
618.4236839296014
 10
2876.678395507528
 20
618.5105939198426
 10
2876.439833275497
 20
618.5680464214642
 10
2876.188596957821
 20
618.5956782012526
 10
2875.926274951392
 20
618.5933145621995
 10
2875.654525740395
 20
618.560970447992
 10
2875.375067410836
 20
618.498850348534
 10
2875.089666788253
 20
618.4073470070948
 10
2874.800128267271
 20
618.287038937261
 10
2874.508282403644
 20
618.1386867653852
 10
2874.215974340888
 20
617.9632284216634
 10
2873.925052144688
 20
617.7617732102368
 10
2873.63735511884
 20
617.5355947958147
 10
2873.354702176569
 20
617.2861231511559
 10
2873.078880340783
 20
617.0149355163206
 10
2872.811633445933
 20
616.7237464268506
 10
2872.554651112936
 20
616.4143968739238
 10
2872.309558066841
 20
616.0888426650155
 10
2872.077903864798
 20
615.7491420586528
 10
2871.861153099257
 20
615.3974427514433
 10
2871.660676138348
 20
615.0359682996437
 10
2871.477740461963
 20
614.6670040611226
 10
2871.313502648349
 20
614.2928827465913
 10
2871.169001061844
 20
613.9159696714566
 10
2871.045149288002
 20
613.5386478015343
 10
2870.942730357614
 20
613.1633026871727
 10
2870.862391796135
 20
612.7923073810348
 10
2870.804641529816
 20
612.4280074348956
 10
2870.769844674435
 20
612.0727060703085
 10
2870.758221226916
 20
611.7286496168972
  0
LINE
  5
87229
330
1F
100
AcDbEntity
  8
0
100
AcDbLine
 10
2879.522811504374
 20
607.4487478623419
 30
0.0
 11
2881.106730694232
 21
606.5343707771005
 31
0.0
  0
ARC
  5
8722A
330
1F
100
AcDbEntity
  8
0
100
AcDbCircle
 10
2884.35523384706
 20
606.7301919478825
 30
0.0
 40
4.88555301888096
100
AcDbArc
 50
171.5423870763586
 51
188.4576129236414
  0
LINE
  5
8722B
330
1F
100
AcDbEntity
  8
0
100
AcDbLine
 10
2881.106730694234
 20
605.0972589481805
 30
0.0
 11
2879.522811504374
 21
606.0116360334232
 31
0.0
  0
LINE
  5
8722C
330
1F
100
AcDbEntity
  8
0
100
AcDbLine
 10
2886.770652562235
 20
610.1957256152746
 30
0.0
 11
2888.354571752094
 21
609.2813485300318
 31
0.0
  0
LINE
  5
8722D
330
1F
100
AcDbEntity
  8
0
100
AcDbLine
 10
2886.78300285099
 20
610.2915257315792
 30
0.0
 11
2886.770652562235
 21
610.1957256152746
 31
0.0
  0
LINE
  5
8722E
330
1F
100
AcDbEntity
  8
0
100
AcDbLine
 10
2888.351037942837
 20
610.4551697385091
 30
0.0
 11
2888.005334814454
 21
610.2555995704785
 31
0.0
  0
LWPOLYLINE
  5
8722F
330
1F
100
AcDbEntity
  8
0
100
AcDbPolyline
 90
       33
 70
   128
 43
0.0
 10
2888.005334814454
 20
610.2555995704785
 10
2887.940982214442
 20
610.5167443185502
 10
2887.854782856796
 20
610.7578326756826
 10
2887.747367820812
 20
610.9770995954228
 10
2887.61952350916
 20
611.1729397895548
 10
2887.472185890511
 20
611.3439194806695
 10
2887.306433647153
 20
611.4887868990808
 10
2887.123480277792
 20
611.6064814472299
 10
2886.924665213329
 20
611.6961414644912
 10
2886.711444010675
 20
611.7571105355265
 10
2886.485377696384
 20
611.788942296008
 10
2886.248121338128
 20
611.791403700522
 10
2886.001411927682
 20
611.7644767287319
 10
2885.747055664131
 20
611.7083585173083
 10
2885.486914730392
 20
611.6234599166597
 10
2885.222893659883
 20
611.5104024830309
 10
2884.95692539312
 20
611.37001392799
 10
2884.690957126357
 20
611.2033220586197
 10
2884.426936055847
 20
611.0115472527775
 10
2884.166795122109
 20
610.7960935245134
 10
2883.912438858557
 20
610.5585382450588
 10
2883.665729448112
 20
610.3006205946391
 10
2883.428473089856
 20
610.0242288296565
 10
2883.202406775564
 20
609.7313864584635
 10
2882.989185572909
 20
609.4242374269336
 10
2882.790370508446
 20
609.1050304222906
 10
2882.607417139085
 20
608.7761024101094
 10
2882.441664895727
 20
608.4398615250176
 10
2882.294327277077
 20
608.0987694403551
 10
2882.166482965425
 20
607.7553233458711
 10
2882.059067929439
 20
607.4120376653972
 10
2881.972868571793
 20
607.0714256483483
 10
2881.908515971805
 20
606.735980969816
  0
LINE
  5
87230
330
1F
100
AcDbEntity
  8
0
100
AcDbLine
 10
2881.562812843446
 20
606.5364108017602
 30
0.0
 11
2881.908515971805
 21
606.735980969816
 31
0.0
  0
SPLINE
  5
87231
330
1F
100
AcDbEntity
  8
0
100
AcDbSpline
210
0.0
220
0.0
230
1.0
 70
     8
 71
     3
 72
     8
 73
     4
 74
     0
 42
0.0000000001
 43
0.0000000001
 40
0.0000000000000071
 40
0.0000000000000071
 40
0.0000000000000071
 40
0.0000000000000071
 40
0.0007161406915135
 40
0.0007161406915135
 40
0.0007161406915135
 40
0.0007161406915135
 10
2888.005334814442
 20
610.2555995704785
 30
0.0
 10
2887.623412999399
 20
610.2533495527993
 30
0.0
 10
2887.241496155375
 20
610.2507028666288
 30
0.0
 10
2886.859599747426
 20
610.247307284461
 30
0.0
  0
ARC
  5
87232
330
1F
100
AcDbEntity
  8
0
100
AcDbCircle
 10
2885.434409073055
 20
609.9491384587532
 30
0.0
 40
1.456047082675812
100
AcDbArc
 50
11.81660082958217
 51
122.1582536849727
  0
ARC
  5
87233
330
1F
100
AcDbEntity
  8
0
100
AcDbCircle
 10
2884.260378228246
 20
610.3806702529275
 30
0.0
 40
1.738242655035105
100
AcDbArc
 50
12.9363659480482
 51
35.20184183776122
  0
LINE
  5
87234
330
1F
100
AcDbEntity
  8
0
100
AcDbLine
 10
2886.859599747433
 20
610.2473072844787
 30
0.0
 11
2885.954503067537
 21
610.7698084760319
 31
0.0
  0
ARC
  5
87235
330
1F
100
AcDbEntity
  8
0
100
AcDbCircle
 10
2883.077547488081
 20
610.1694433420557
 30
0.0
 40
1.598231224157225
100
AcDbArc
 50
357.3601867870545
 51
31.99475564814709
  0
ARC
  5
87236
330
1F
100
AcDbEntity
  8
0
100
AcDbCircle
 10
2881.357553614773
 20
609.9340720889885
 30
0.0
 40
3.320471617826022
100
AcDbArc
 50
276.5012074260773
 51
2.792347304869406
  0
SPLINE
  5
87237
330
1F
100
AcDbEntity
  8
0
100
AcDbSpline
210
0.0
220
0.0
230
1.0
 70
     8
 71
     3
 72
     8
 73
     4
 74
     0
 42
0.0000000001
 43
0.0000000001
 40
0.0000000000000157
 40
0.0000000000000157
 40
0.0000000000000157
 40
0.0000000000000157
 40
0.0004320501674636
 40
0.0004320501674636
 40
0.0004320501674636
 40
0.0004320501674636
 10
2885.263333082157
 20
609.3255686012679
 30
0.0
 10
2885.493710386171
 20
609.3283243667175
 30
0.0
 10
2885.724103637706
 20
609.3306480806066
 30
0.0
 10
2885.954503067541
 20
609.3326966471265
 30
0.0
  0
ARC
  5
87238
330
1F
100
AcDbEntity
  8
0
100
AcDbCircle
 10
2881.418928900384
 20
609.8450824089233
 30
0.0
 40
4.564424629104614
100
AcDbArc
 50
279.8102392968124
 51
353.5545979046128
  0
LINE
  5
87239
330
1F
100
AcDbEntity
  8
0
100
AcDbLine
 10
2881.01778350895
 20
606.4827891079432
 30
0.0
 11
2881.020912843883
 21
606.5839123675844
 31
0.0
  0
SPLINE
  5
8723A
330
1F
100
AcDbEntity
  8
0
100
AcDbSpline
210
0.0
220
0.0
230
1.0
 70
     8
 71
     3
 72
     8
 73
     4
 74
     0
 42
0.0000000001
 43
0.0000000001
 40
0.0000000000000026
 40
0.0000000000000026
 40
0.0000000000000026
 40
0.0000000000000026
 40
0.0004320501674625
 40
0.0004320501674625
 40
0.0004320501674625
 40
0.0004320501674625
 10
2885.954503067541
 20
610.7698084760307
 30
0.0
 10
2885.724103637706
 20
610.7677599095108
 30
0.0
 10
2885.493710386171
 20
610.7654361956339
 30
0.0
 10
2885.263333082157
 20
610.7626804301843
 30
0.0
  0
ARC
  5
8723B
330
1F
100
AcDbEntity
  8
0
100
AcDbCircle
 10
2882.440884503245
 20
610.0441245156794
 30
0.0
 40
2.912479799566679
100
AcDbArc
 50
345.7167221721809
 51
14.28327782967639
  0
SPLINE
  5
8723C
330
1F
100
AcDbEntity
  8
0
100
AcDbSpline
210
0.0
220
0.0
230
1.0
 70
     8
 71
     3
 72
    14
 73
    10
 74
     0
 42
0.0000000001
 43
0.0000000001
 40
0.0
 40
0.0
 40
0.0
 40
0.0
 40
0.25
 40
0.25
 40
0.5
 40
0.5
 40
0.7499999999999999
 40
0.7499999999999999
 40
1.0
 40
1.0
 40
1.0
 40
1.0
 10
2888.351037942837
 20
609.0180579095902
 30
0.0
 10
2888.205476545117
 20
608.0171783971096
 30
0.0
 10
2887.786108974416
 20
606.9460759947954
 30
0.0
 10
2886.545886218742
 20
605.0366410859238
 30
0.0
 10
2885.764129507771
 20
604.2585042101933
 30
0.0
 10
2884.149721278512
 20
603.3265261771522
 30
0.0
 10
2883.367964567541
 20
603.202065966715
 30
0.0
 10
2882.127741811867
 20
603.6795701613876
 30
0.0
 10
2881.708374241167
 20
604.2664810728762
 30
0.0
 10
2881.562812843446
 20
605.0992989728412
 30
0.0
  0
SPLINE
  5
8723D
330
1F
100
AcDbEntity
  8
0
100
AcDbSpline
210
0.0
220
0.0
230
1.0
 70
     8
 71
     3
 72
    10
 73
     6
 74
     0
 42
0.0000000001
 43
0.0000000001
 40
0.0
 40
0.0
 40
0.0
 40
0.0
 40
0.5
 40
0.5
 40
1.0
 40
1.0
 40
1.0
 40
1.0
 10
2888.354571752094
 20
609.2813485300322
 30
0.0
 10
2888.41480978143
 20
609.2465738558957
 30
0.0
 10
2888.448241131568
 20
609.1980007879556
 30
0.0
 10
2888.44635560959
 20
609.1009368834846
 30
0.0
 10
2888.41125007846
 20
609.0528176356034
 30
0.0
 10
2888.351037942837
 20
609.0180579095902
 30
0.0
  0
SPLINE
  5
8723E
330
1F
100
AcDbEntity
  8
0
100
AcDbSpline
210
0.0
220
0.0
230
1.0
 70
     8
 71
     3
 72
    10
 73
     6
 74
     0
 42
0.0000000001
 43
0.0000000001
 40
0.0
 40
0.0
 40
0.0
 40
0.0
 40
0.5
 40
0.5
 40
1.0
 40
1.0
 40
1.0
 40
1.0
 10
2881.562812843446
 20
605.0992989728412
 30
0.0
 10
2881.502585606286
 20
605.064530528896
 30
0.0
 10
2881.419588552954
 20
605.0443106677939
 30
0.0
 10
2881.251233203189
 20
605.0431504691166
 30
0.0
 10
2881.166985565393
 20
605.0624745514673
 30
0.0
 10
2881.106730694233
 20
605.0972589481808
 30
0.0
  0
LINE
  5
8723F
330
1F
100
AcDbEntity
  8
0
100
AcDbLine
 10
2879.522811504374
 20
606.0116360334232
 30
0.0
 11
2880.767521723224
 21
606.7301919478929
 31
0.0
  0
LINE
  5
87240
330
1F
100
AcDbEntity
  8
0
100
AcDbLine
 10
2881.92288018886
 20
605.9602879163831
 30
0.0
 11
2881.017783508964
 21
606.4827891079363
 31
0.0
  0
SPLINE
  5
87241
330
1F
100
AcDbEntity
  8
0
100
AcDbSpline
210
0.0
220
0.0
230
1.0
 70
     8
 71
     3
 72
     8
 73
     4
 74
     0
 42
0.0000000001
 43
0.0000000001
 40
0.0000000000000071
 40
0.0000000000000071
 40
0.0000000000000071
 40
0.0000000000000071
 40
0.0007161406915135
 40
0.0007161406915135
 40
0.0007161406915135
 40
0.0007161406915135
 10
2881.908515971805
 20
605.2988691408931
 30
0.0
 10
2881.912413539052
 20
605.5193479116947
 30
0.0
 10
2881.916998230732
 20
605.7398238127889
 30
0.0
 10
2881.92288018889
 20
605.9602879163873
 30
0.0
  0
LINE
  5
87242
330
1F
100
AcDbEntity
  8
0
100
AcDbLine
 10
2881.562812843446
 20
605.0992989728412
 30
0.0
 11
2881.908515971804
 21
605.2988691408865
 31
0.0
  0
LWPOLYLINE
  5
87243
330
1F
100
AcDbEntity
  8
0
100
AcDbPolyline
 90
       33
 70
   128
 43
0.0
 10
2881.908515971804
 20
605.2988691408865
 10
2881.972868571816
 20
605.0377243928148
 10
2882.059067929462
 20
604.7966360356826
 10
2882.166482965446
 20
604.5773691159426
 10
2882.294327277097
 20
604.3815289218111
 10
2882.441664895746
 20
604.2105492306966
 10
2882.607417139102
 20
604.065681812286
 10
2882.790370508462
 20
603.9479872641375
 10
2882.989185572924
 20
603.858327246877
 10
2883.202406775576
 20
603.7973581758425
 10
2883.428473089866
 20
603.7655264153619
 10
2883.66572944812
 20
603.7630650108489
 10
2883.912438858565
 20
603.7899919826401
 10
2884.166795122113
 20
603.8461101940647
 10
2884.42693605585
 20
603.9310087947144
 10
2884.690957126358
 20
604.0440662283445
 10
2884.956925393118
 20
604.1844547833866
 10
2885.222893659879
 20
604.351146652758
 10
2885.486914730386
 20
604.5429214586016
 10
2885.747055664122
 20
604.7583751868669
 10
2886.001411927672
 20
604.9959304663226
 10
2886.248121338116
 20
605.2538481167437
 10
2886.48537769637
 20
605.5302398817274
 10
2886.711444010659
 20
605.8230822529215
 10
2886.924665213312
 20
606.1302312844524
 10
2887.123480277773
 20
606.4494382890967
 10
2887.306433647133
 20
606.7783663012789
 10
2887.472185890489
 20
607.1146071863718
 10
2887.619523509138
 20
607.455699271035
 10
2887.747367820789
 20
607.7991453655198
 10
2887.854782856773
 20
608.1424310459945
 10
2887.940982214418
 20
608.4830430630439
 10
2888.005334814435
 20
608.8184877415593
  0
LINE
  5
87244
330
1F
100
AcDbEntity
  8
0
100
AcDbLine
 10
2888.351037942837
 20
609.0180579095902
 30
0.0
 11
2888.005334814435
 21
608.8184877415593
 31
0.0
  0
LWPOLYLINE
  5
87245
330
1F
100
AcDbEntity
  8
0
100
AcDbPolyline
 90
       29
 70
   128
 43
0.0
 10
2881.92288018886
 20
605.9602879163831
 10
2881.992660775343
 20
605.7346500478431
 10
2882.083872816983
 20
605.5301806609121
 10
2882.195701328479
 20
605.3487067023556
 10
2882.327147115085
 20
605.191849653347
 10
2882.477035700473
 20
605.0610110414331
 10
2882.644027820757
 20
604.9573599177972
 10
2882.826631390892
 20
604.8818224117141
 10
2883.023214836554
 20
604.8350734555267
 10
2883.232021672359
 20
604.8175307540833
 10
2883.451186196163
 20
604.829351052519
 10
2883.678750159234
 20
604.8704287357274
 10
2883.912680263326
 20
604.9403967720395
 10
2884.15088632832
 20
605.038629992673
 10
2884.391239968124
 20
605.1642506776554
 10
2884.631593607928
 20
605.3161363983071
 10
2884.869799672923
 20
605.4929300462112
 10
2885.103729777013
 20
605.6930519590625
 10
2885.331293740084
 20
605.9147140350488
 10
2885.550458263888
 20
606.1559357096531
 10
2885.759265099691
 20
606.4145616521204
 10
2885.955848545353
 20
606.6882810234739
 10
2886.138452115487
 20
606.974648124005
 10
2886.30544423577
 20
607.271104245754
 10
2886.455332821157
 20
607.5750005347249
 10
2886.586778607762
 20
607.8836216585624
 10
2886.698607119257
 20
608.1942100682161
 10
2886.789819160894
 20
608.5039906368137
 10
2886.859599747435
 20
608.810195455561
  0
SPLINE
  5
87246
330
1F
100
AcDbEntity
  8
0
100
AcDbSpline
210
0.0
220
0.0
230
1.0
 70
     8
 71
     3
 72
     8
 73
     4
 74
     0
 42
0.0000000001
 43
0.0000000001
 40
0.0000000000000062
 40
0.0000000000000062
 40
0.0000000000000062
 40
0.0000000000000062
 40
0.000716140691514
 40
0.000716140691514
 40
0.000716140691514
 40
0.000716140691514
 10
2886.859599747426
 20
608.8101954555378
 30
0.0
 10
2887.241496155375
 20
608.8135910377055
 30
0.0
 10
2887.6234129994
 20
608.8162377238803
 30
0.0
 10
2888.005334814442
 20
608.8184877415594
 30
0.0
  0
LINE
  5
87247
330
1F
100
AcDbEntity
  8
0
100
AcDbLine
 10
2885.954503067551
 20
609.3326966471131
 30
0.0
 11
2886.859599747435
 21
608.810195455561
 31
0.0
  0
LINE
  5
87248
330
1F
100
AcDbEntity
  8
0
100
AcDbLine
 10
2885.263333082182
 20
609.3255686012656
 30
0.0
 11
2886.770652562235
 21
610.1957256152746
 31
0.0
  0
ARC
  5
87249
330
1F
100
AcDbEntity
  8
0
100
AcDbCircle
 10
2877.488244225297
 20
612.0888122193569
 30
0.0
 40
6.73639646975697
100
AcDbArc
 50
122.4979391521912
 51
177.5074373805012
  0
SPLINE
  5
8724A
330
1F
100
AcDbEntity
  8
0
100
AcDbSpline
210
0.0
220
0.0
230
1.0
 70
     8
 71
     3
 72
    17
 73
    13
 74
     0
 42
0.0000000001
 43
0.0000000001
 40
0.0
 40
0.0
 40
0.0
 40
0.0
 40
0.0820441310411866
 40
0.1968392505475961
 40
0.312407789498975
 40
0.4264398088967022
 40
0.5368041015684762
 40
0.6471683942402501
 40
0.7612004136379774
 40
0.8767689525893564
 40
0.9915640720957659
 40
1.0
 40
1.0
 40
1.0
 40
1.0
 10
2859.718597292698
 20
624.1950992426579
 30
0.0
 10
2859.656096144881
 20
624.1648200153171
 30
0.0
 10
2859.506144174658
 20
624.0921744727137
 30
0.0
 10
2859.26660465912
 20
623.90020156122
 30
0.0
 10
2859.01445858893
 20
623.6394269720971
 30
0.0
 10
2858.786469382363
 20
623.3329349629732
 30
0.0
 10
2858.590217617074
 20
622.9985445505599
 30
0.0
 10
2858.431640540552
 20
622.6427318560637
 30
0.0
 10
2858.315886613962
 20
622.2703868537906
 30
0.0
 10
2858.256893580616
 20
621.9019515336923
 30
0.0
 10
2858.239302082658
 20
621.6496666222933
 30
0.0
 10
2858.25640558778
 20
621.5365824792217
 30
0.0
 10
2858.257576428564
 20
621.5288411697214
 30
0.0
  0
SPLINE
  5
8724B
330
1F
100
AcDbEntity
  8
0
100
AcDbSpline
210
0.0
220
0.0
230
1.0
 70
     8
 71
     3
 72
    17
 73
    13
 74
     0
 42
0.0000000001
 43
0.0000000001
 40
0.0
 40
0.0
 40
0.0
 40
0.0
 40
0.0820441310411801
 40
0.1968392505475906
 40
0.3124077894989705
 40
0.4264398088966986
 40
0.5368041015684733
 40
0.6471683942402482
 40
0.7612004136379767
 40
0.8767689525893567
 40
0.9915640720957675
 40
1.0
 40
1.0
 40
1.0
 40
1.0
 10
2860.284282717648
 20
623.8685359979288
 30
0.0
 10
2860.22178156983
 20
623.8382567705881
 30
0.0
 10
2860.071829599608
 20
623.7656112279847
 30
0.0
 10
2859.832290084069
 20
623.5736383164909
 30
0.0
 10
2859.580144013879
 20
623.312863727368
 30
0.0
 10
2859.352154807312
 20
623.0063717182441
 30
0.0
 10
2859.155903042023
 20
622.6719813058308
 30
0.0
 10
2858.997325965501
 20
622.3161686113346
 30
0.0
 10
2858.88157203891
 20
621.9438236090617
 30
0.0
 10
2858.822579005566
 20
621.5753882889631
 30
0.0
 10
2858.804987507607
 20
621.3231033775643
 30
0.0
 10
2858.822091012729
 20
621.2100192344927
 30
0.0
 10
2858.823261853513
 20
621.2022779249923
 30
0.0
  0
SPLINE
  5
8724C
330
1F
100
AcDbEntity
  8
0
100
AcDbSpline
210
0.0
220
0.0
230
1.0
 70
     8
 71
     3
 72
    17
 73
    13
 74
     0
 42
0.0000000001
 43
0.0000000001
 40
0.0
 40
0.0
 40
0.0
 40
0.0
 40
0.0820441310411843
 40
0.1968392505475938
 40
0.3124077894989728
 40
0.4264398088967
 40
0.5368041015684739
 40
0.6471683942402481
 40
0.7612004136379756
 40
0.8767689525893546
 40
0.9915640720957645
 40
1.0
 40
1.0
 40
1.0
 40
1.0
 10
2860.849968142597
 20
623.5419727531997
 30
0.0
 10
2860.787466994779
 20
623.5116935258589
 30
0.0
 10
2860.637515024557
 20
623.4390479832556
 30
0.0
 10
2860.397975509019
 20
623.2470750717617
 30
0.0
 10
2860.145829438828
 20
622.9863004826389
 30
0.0
 10
2859.917840232261
 20
622.679808473515
 30
0.0
 10
2859.721588466972
 20
622.3454180611017
 30
0.0
 10
2859.56301139045
 20
621.9896053666055
 30
0.0
 10
2859.44725746386
 20
621.6172603643326
 30
0.0
 10
2859.388264430515
 20
621.2488250442341
 30
0.0
 10
2859.370672932556
 20
620.9965401328351
 30
0.0
 10
2859.387776437678
 20
620.8834559897637
 30
0.0
 10
2859.388947278462
 20
620.8757146802632
 30
0.0
  0
SPLINE
  5
8724D
330
1F
100
AcDbEntity
  8
0
100
AcDbSpline
210
0.0
220
0.0
230
1.0
 70
     8
 71
     3
 72
    17
 73
    13
 74
     0
 42
0.0000000001
 43
0.0000000001
 40
0.0
 40
0.0
 40
0.0
 40
0.0
 40
0.0820441310411817
 40
0.1968392505475922
 40
0.3124077894989721
 40
0.4264398088967003
 40
0.5368041015684751
 40
0.6471683942402504
 40
0.761200413637979
 40
0.8767689525893596
 40
0.9915640720957705
 40
1.0
 40
1.0
 40
1.0
 40
1.0
 10
2861.415653567546
 20
623.2154095084707
 30
0.0
 10
2861.353152419729
 20
623.1851302811299
 30
0.0
 10
2861.203200449506
 20
623.1124847385264
 30
0.0
 10
2860.963660933967
 20
622.9205118270327
 30
0.0
 10
2860.711514863778
 20
622.6597372379098
 30
0.0
 10
2860.48352565721
 20
622.353245228786
 30
0.0
 10
2860.287273891922
 20
622.0188548163726
 30
0.0
 10
2860.128696815399
 20
621.6630421218765
 30
0.0
 10
2860.012942888809
 20
621.2906971196035
 30
0.0
 10
2859.953949855464
 20
620.922261799505
 30
0.0
 10
2859.936358357506
 20
620.6699768881061
 30
0.0
 10
2859.953461862628
 20
620.5568927450346
 30
0.0
 10
2859.954632703411
 20
620.5491514355342
 30
0.0
  0
SPLINE
  5
8724E
330
1F
100
AcDbEntity
  8
0
100
AcDbSpline
210
0.0
220
0.0
230
1.0
 70
     8
 71
     3
 72
    17
 73
    13
 74
     0
 42
0.0000000001
 43
0.0000000001
 40
0.0
 40
0.0
 40
0.0
 40
0.0
 40
0.0820441310411844
 40
0.1968392505475942
 40
0.3124077894989733
 40
0.4264398088967008
 40
0.5368041015684747
 40
0.6471683942402492
 40
0.7612004136379773
 40
0.8767689525893571
 40
0.9915640720957675
 40
1.0
 40
1.0
 40
1.0
 40
1.0
 10
2861.981338992495
 20
622.8888462637415
 30
0.0
 10
2861.918837844678
 20
622.8585670364008
 30
0.0
 10
2861.768885874456
 20
622.7859214937973
 30
0.0
 10
2861.529346358917
 20
622.5939485823036
 30
0.0
 10
2861.277200288727
 20
622.3331739931808
 30
0.0
 10
2861.04921108216
 20
622.0266819840569
 30
0.0
 10
2860.852959316871
 20
621.6922915716436
 30
0.0
 10
2860.694382240348
 20
621.3364788771474
 30
0.0
 10
2860.578628313759
 20
620.9641338748744
 30
0.0
 10
2860.519635280413
 20
620.5956985547759
 30
0.0
 10
2860.502043782455
 20
620.343413643377
 30
0.0
 10
2860.519147287577
 20
620.2303295003055
 30
0.0
 10
2860.520318128361
 20
620.2225881908051
 30
0.0
  0
SPLINE
  5
8724F
330
1F
100
AcDbEntity
  8
0
100
AcDbSpline
210
0.0
220
0.0
230
1.0
 70
     8
 71
     3
 72
    17
 73
    13
 74
     0
 42
0.0000000001
 43
0.0000000001
 40
0.0
 40
0.0
 40
0.0
 40
0.0
 40
0.0820441310411815
 40
0.1968392505475917
 40
0.3124077894989712
 40
0.4264398088966991
 40
0.5368041015684736
 40
0.6471683942402484
 40
0.7612004136379768
 40
0.8767689525893569
 40
0.9915640720957677
 40
1.0
 40
1.0
 40
1.0
 40
1.0
 10
2862.547024417445
 20
622.5622830190125
 30
0.0
 10
2862.484523269627
 20
622.5320037916717
 30
0.0
 10
2862.334571299405
 20
622.4593582490682
 30
0.0
 10
2862.095031783866
 20
622.2673853375745
 30
0.0
 10
2861.842885713676
 20
622.0066107484517
 30
0.0
 10
2861.614896507109
 20
621.7001187393279
 30
0.0
 10
2861.41864474182
 20
621.3657283269144
 30
0.0
 10
2861.260067665298
 20
621.0099156324182
 30
0.0
 10
2861.144313738707
 20
620.6375706301453
 30
0.0
 10
2861.085320705363
 20
620.2691353100468
 30
0.0
 10
2861.067729207404
 20
620.0168503986479
 30
0.0
 10
2861.084832712526
 20
619.9037662555764
 30
0.0
 10
2861.08600355331
 20
619.896024946076
 30
0.0
  0
SPLINE
  5
87250
330
1F
100
AcDbEntity
  8
0
100
AcDbSpline
210
0.0
220
0.0
230
1.0
 70
     8
 71
     3
 72
    17
 73
    13
 74
     0
 42
0.0000000001
 43
0.0000000001
 40
0.0
 40
0.0
 40
0.0
 40
0.0
 40
0.0820441310411815
 40
0.1968392505475916
 40
0.3124077894989711
 40
0.426439808896699
 40
0.5368041015684733
 40
0.6471683942402481
 40
0.7612004136379765
 40
0.8767689525893567
 40
0.9915640720957673
 40
1.0
 40
1.0
 40
1.0
 40
1.0
 10
2863.112709842394
 20
622.2357197742834
 30
0.0
 10
2863.050208694577
 20
622.2054405469426
 30
0.0
 10
2862.900256724354
 20
622.1327950043392
 30
0.0
 10
2862.660717208815
 20
621.9408220928454
 30
0.0
 10
2862.408571138625
 20
621.6800475037226
 30
0.0
 10
2862.180581932058
 20
621.3735554945988
 30
0.0
 10
2861.98433016677
 20
621.0391650821853
 30
0.0
 10
2861.825753090247
 20
620.6833523876891
 30
0.0
 10
2861.709999163657
 20
620.3110073854162
 30
0.0
 10
2861.651006130312
 20
619.9425720653177
 30
0.0
 10
2861.633414632354
 20
619.6902871539188
 30
0.0
 10
2861.650518137475
 20
619.5772030108473
 30
0.0
 10
2861.651688978259
 20
619.569461701347
 30
0.0
  0
SPLINE
  5
87251
330
1F
100
AcDbEntity
  8
0
100
AcDbSpline
210
0.0
220
0.0
230
1.0
 70
     8
 71
     3
 72
    17
 73
    13
 74
     0
 42
0.0000000001
 43
0.0000000001
 40
0.0
 40
0.0
 40
0.0
 40
0.0
 40
0.0820441310411874
 40
0.1968392505475969
 40
0.3124077894989758
 40
0.426439808896703
 40
0.5368041015684768
 40
0.6471683942402516
 40
0.7612004136379799
 40
0.8767689525893599
 40
0.9915640720957705
 40
1.0
 40
1.0
 40
1.0
 40
1.0
 10
2863.678395267343
 20
621.9091565295543
 30
0.0
 10
2863.615894119526
 20
621.8788773022136
 30
0.0
 10
2863.465942149304
 20
621.8062317596101
 30
0.0
 10
2863.226402633765
 20
621.6142588481163
 30
0.0
 10
2862.974256563574
 20
621.3534842589934
 30
0.0
 10
2862.746267357007
 20
621.0469922498697
 30
0.0
 10
2862.550015591718
 20
620.7126018374562
 30
0.0
 10
2862.391438515196
 20
620.35678914296
 30
0.0
 10
2862.275684588606
 20
619.9844441406871
 30
0.0
 10
2862.216691555261
 20
619.6160088205886
 30
0.0
 10
2862.199100057303
 20
619.3637239091897
 30
0.0
 10
2862.216203562424
 20
619.2506397661182
 30
0.0
 10
2862.217374403208
 20
619.2428984566178
 30
0.0
  0
SPLINE
  5
87252
330
1F
100
AcDbEntity
  8
0
100
AcDbSpline
210
0.0
220
0.0
230
1.0
 70
     8
 71
     3
 72
    17
 73
    13
 74
     0
 42
0.0000000001
 43
0.0000000001
 40
0.0
 40
0.0
 40
0.0
 40
0.0
 40
0.0820441310411874
 40
0.196839250547597
 40
0.3124077894989758
 40
0.4264398088967029
 40
0.5368041015684767
 40
0.6471683942402514
 40
0.7612004136379799
 40
0.8767689525893599
 40
0.9915640720957707
 40
1.0
 40
1.0
 40
1.0
 40
1.0
 10
2864.244080692293
 20
621.5825932848253
 30
0.0
 10
2864.181579544475
 20
621.5523140574845
 30
0.0
 10
2864.031627574252
 20
621.479668514881
 30
0.0
 10
2863.792088058714
 20
621.2876956033873
 30
0.0
 10
2863.539941988523
 20
621.0269210142643
 30
0.0
 10
2863.311952781956
 20
620.7204290051405
 30
0.0
 10
2863.115701016668
 20
620.3860385927272
 30
0.0
 10
2862.957123940145
 20
620.0302258982311
 30
0.0
 10
2862.841370013555
 20
619.657880895958
 30
0.0
 10
2862.78237698021
 20
619.2894455758596
 30
0.0
 10
2862.764785482252
 20
619.0371606644606
 30
0.0
 10
2862.781888987374
 20
618.9240765213891
 30
0.0
 10
2862.783059828158
 20
618.9163352118887
 30
0.0
  0
SPLINE
  5
87253
330
1F
100
AcDbEntity
  8
0
100
AcDbSpline
210
0.0
220
0.0
230
1.0
 70
     8
 71
     3
 72
    17
 73
    13
 74
     0
 42
0.0000000001
 43
0.0000000001
 40
0.0
 40
0.0
 40
0.0
 40
0.0
 40
0.0820441310411874
 40
0.1968392505475969
 40
0.3124077894989758
 40
0.4264398088967029
 40
0.5368041015684766
 40
0.6471683942402514
 40
0.7612004136379799
 40
0.8767689525893601
 40
0.9915640720957707
 40
1.0
 40
1.0
 40
1.0
 40
1.0
 10
2864.809766117242
 20
621.256030040096
 30
0.0
 10
2864.747264969425
 20
621.2257508127554
 30
0.0
 10
2864.597312999202
 20
621.1531052701519
 30
0.0
 10
2864.357773483663
 20
620.9611323586582
 30
0.0
 10
2864.105627413473
 20
620.7003577695353
 30
0.0
 10
2863.877638206906
 20
620.3938657604115
 30
0.0
 10
2863.681386441617
 20
620.0594753479982
 30
0.0
 10
2863.522809365095
 20
619.703662653502
 30
0.0
 10
2863.407055438504
 20
619.331317651229
 30
0.0
 10
2863.348062405159
 20
618.9628823311306
 30
0.0
 10
2863.330470907201
 20
618.7105974197315
 30
0.0
 10
2863.347574412323
 20
618.59751327666
 30
0.0
 10
2863.348745253107
 20
618.5897719671596
 30
0.0
  0
SPLINE
  5
87254
330
1F
100
AcDbEntity
  8
0
100
AcDbSpline
210
0.0
220
0.0
230
1.0
 70
     8
 71
     3
 72
    17
 73
    13
 74
     0
 42
0.0000000001
 43
0.0000000001
 40
0.0
 40
0.0
 40
0.0
 40
0.0
 40
0.0820441310411874
 40
0.1968392505475969
 40
0.3124077894989758
 40
0.4264398088967029
 40
0.5368041015684767
 40
0.6471683942402514
 40
0.7612004136379797
 40
0.8767689525893597
 40
0.9915640720957705
 40
1.0
 40
1.0
 40
1.0
 40
1.0
 10
2865.375451542191
 20
620.929466795367
 30
0.0
 10
2865.312950394373
 20
620.8991875680263
 30
0.0
 10
2865.162998424151
 20
620.8265420254228
 30
0.0
 10
2864.923458908612
 20
620.6345691139291
 30
0.0
 10
2864.671312838422
 20
620.3737945248063
 30
0.0
 10
2864.443323631855
 20
620.0673025156824
 30
0.0
 10
2864.247071866567
 20
619.7329121032691
 30
0.0
 10
2864.088494790044
 20
619.3770994087729
 30
0.0
 10
2863.972740863454
 20
619.0047544065
 30
0.0
 10
2863.913747830109
 20
618.6363190864014
 30
0.0
 10
2863.89615633215
 20
618.3840341750025
 30
0.0
 10
2863.913259837272
 20
618.2709500319309
 30
0.0
 10
2863.914430678056
 20
618.2632087224305
 30
0.0
  0
SPLINE
  5
87255
330
1F
100
AcDbEntity
  8
0
100
AcDbSpline
210
0.0
220
0.0
230
1.0
 70
     8
 71
     3
 72
    17
 73
    13
 74
     0
 42
0.0000000001
 43
0.0000000001
 40
0.0
 40
0.0
 40
0.0
 40
0.0
 40
0.0820441310411874
 40
0.1968392505475969
 40
0.3124077894989758
 40
0.4264398088967029
 40
0.5368041015684767
 40
0.6471683942402514
 40
0.7612004136379799
 40
0.8767689525893599
 40
0.9915640720957705
 40
1.0
 40
1.0
 40
1.0
 40
1.0
 10
2865.94113696714
 20
620.602903550638
 30
0.0
 10
2865.878635819322
 20
620.5726243232971
 30
0.0
 10
2865.7286838491
 20
620.4999787806938
 30
0.0
 10
2865.489144333562
 20
620.3080058691999
 30
0.0
 10
2865.236998263371
 20
620.0472312800772
 30
0.0
 10
2865.009009056804
 20
619.7407392709534
 30
0.0
 10
2864.812757291515
 20
619.4063488585399
 30
0.0
 10
2864.654180214993
 20
619.0505361640438
 30
0.0
 10
2864.538426288403
 20
618.6781911617709
 30
0.0
 10
2864.479433255058
 20
618.3097558416723
 30
0.0
 10
2864.4618417571
 20
618.0574709302734
 30
0.0
 10
2864.478945262221
 20
617.944386787202
 30
0.0
 10
2864.480116103005
 20
617.9366454777015
 30
0.0
  0
SPLINE
  5
87256
330
1F
100
AcDbEntity
  8
0
100
AcDbSpline
210
0.0
220
0.0
230
1.0
 70
     8
 71
     3
 72
    17
 73
    13
 74
     0
 42
0.0000000001
 43
0.0000000001
 40
0.0
 40
0.0
 40
0.0
 40
0.0
 40
0.0820441310411874
 40
0.1968392505475969
 40
0.3124077894989758
 40
0.4264398088967029
 40
0.5368041015684767
 40
0.6471683942402514
 40
0.7612004136379799
 40
0.8767689525893599
 40
0.9915640720957707
 40
1.0
 40
1.0
 40
1.0
 40
1.0
 10
2866.50682239209
 20
620.276340305909
 30
0.0
 10
2866.444321244272
 20
620.2460610785681
 30
0.0
 10
2866.294369274049
 20
620.1734155359646
 30
0.0
 10
2866.054829758511
 20
619.9814426244708
 30
0.0
 10
2865.80268368832
 20
619.720668035348
 30
0.0
 10
2865.574694481753
 20
619.4141760262242
 30
0.0
 10
2865.378442716465
 20
619.0797856138108
 30
0.0
 10
2865.219865639943
 20
618.7239729193147
 30
0.0
 10
2865.104111713352
 20
618.3516279170418
 30
0.0
 10
2865.045118680007
 20
617.9831925969432
 30
0.0
 10
2865.027527182049
 20
617.7309076855443
 30
0.0
 10
2865.044630687171
 20
617.6178235424728
 30
0.0
 10
2865.045801527954
 20
617.6100822329724
 30
0.0
  0
SPLINE
  5
87257
330
1F
100
AcDbEntity
  8
0
100
AcDbSpline
210
0.0
220
0.0
230
1.0
 70
     8
 71
     3
 72
    13
 73
     9
 74
     0
 42
0.0000000001
 43
0.0000000001
 40
0.0
 40
0.0
 40
0.0
 40
0.0
 40
0.0440355684102096
 40
0.2390726835745354
 40
0.4298185322192558
 40
0.6269919373945097
 40
0.8281310928526151
 40
0.9999999999999998
 40
0.9999999999999998
 40
0.9999999999999998
 40
0.9999999999999998
 10
2857.805330001395
 20
621.570482471939
 30
0.0
 10
2857.806038030752
 20
621.5407566340862
 30
0.0
 10
2857.80988197974
 20
621.3793726419281
 30
0.0
 10
2857.848239532119
 20
621.1072708045782
 30
0.0
 10
2857.958902037029
 20
620.7881288886791
 30
0.0
 10
2858.133666541448
 20
620.5294467777557
 30
0.0
 10
2858.352765042076
 20
620.3419472830339
 30
0.0
 10
2858.532336941293
 20
620.285952738831
 30
0.0
 10
2858.615077313866
 20
620.2601524356119
 30
0.0
  0
SPLINE
  5
87258
330
1F
100
AcDbEntity
  8
0
100
AcDbSpline
210
0.0
220
0.0
230
1.0
 70
     8
 71
     3
 72
    25
 73
    21
 74
     0
 42
0.0000000001
 43
0.0000000001
 40
0.0
 40
0.0
 40
0.0
 40
0.0
 40
0.0569437899325362
 40
0.1139641441263572
 40
0.1698602593063598
 40
0.2239342451792312
 40
0.2792247497171565
 40
0.3359913782379741
 40
0.3931394485929908
 40
0.4495296985435443
 40
0.504110586651811
 40
0.5586914747600779
 40
0.6150817247106314
 40
0.6722297950656483
 40
0.728996423586466
 40
0.7842869281243915
 40
0.838360913997263
 40
0.8942570291772657
 40
0.9512773833710864
 40
1.0
 40
1.0
 40
1.0
 40
1.0
 10
2861.253126637844
 20
624.1769827734982
 30
0.0
 10
2861.19139758561
 20
624.2388844902255
 30
0.0
 10
2861.067856482816
 20
624.3627711541645
 30
0.0
 10
2860.820758715459
 20
624.4438977729902
 30
0.0
 10
2860.544743171044
 20
624.4447929741928
 30
0.0
 10
2860.244449288863
 20
624.3634548560113
 30
0.0
 10
2859.93171432187
 20
624.2019975893235
 30
0.0
 10
2859.613864236234
 20
623.9600357409604
 30
0.0
 10
2859.307329941863
 20
623.6470506296885
 30
0.0
 10
2859.030107963881
 20
623.2819229304023
 30
0.0
 10
2858.791438184693
 20
622.882475136608
 30
0.0
 10
2858.597512588169
 20
622.4571889757107
 30
0.0
 10
2858.4564059107
 20
622.0134571178625
 30
0.0
 10
2858.376314669567
 20
621.5697101662104
 30
0.0
 10
2858.362730225997
 20
621.1520297132077
 30
0.0
 10
2858.413640176818
 20
620.7806222127185
 30
0.0
 10
2858.524665844691
 20
620.4615891348334
 30
0.0
 10
2858.699330184014
 20
620.2028770049618
 30
0.0
 10
2858.918455036582
 20
620.0153854077767
 30
0.0
 10
2859.098023807604
 20
619.9593899260705
 30
0.0
 10
2859.180762738815
 20
619.9335891908829
 30
0.0
  0
SPLINE
  5
87259
330
1F
100
AcDbEntity
  8
0
100
AcDbSpline
210
0.0
220
0.0
230
1.0
 70
     8
 71
     3
 72
    25
 73
    21
 74
     0
 42
0.0000000001
 43
0.0000000001
 40
0.0
 40
0.0
 40
0.0
 40
0.0
 40
0.0569437899325355
 40
0.1139641441263565
 40
0.1698602593063592
 40
0.2239342451792307
 40
0.2792247497171561
 40
0.3359913782379738
 40
0.3931394485929905
 40
0.4495296985435441
 40
0.5041105866518109
 40
0.5586914747600779
 40
0.6150817247106315
 40
0.6722297950656485
 40
0.7289964235864664
 40
0.7842869281243919
 40
0.8383609139972632
 40
0.8942570291772661
 40
0.9512773833710872
 40
1.0
 40
1.0
 40
1.0
 40
1.0
 10
2861.818812062793
 20
623.8504195287691
 30
0.0
 10
2861.757083010559
 20
623.9123212454964
 30
0.0
 10
2861.633541907766
 20
624.0362079094354
 30
0.0
 10
2861.386444140407
 20
624.117334528261
 30
0.0
 10
2861.110428595993
 20
624.1182297294637
 30
0.0
 10
2860.810134713812
 20
624.0368916112821
 30
0.0
 10
2860.49739974682
 20
623.8754343445945
 30
0.0
 10
2860.179549661183
 20
623.6334724962313
 30
0.0
 10
2859.873015366812
 20
623.3204873849595
 30
0.0
 10
2859.59579338883
 20
622.9553596856733
 30
0.0
 10
2859.357123609642
 20
622.5559118918789
 30
0.0
 10
2859.163198013118
 20
622.1306257309816
 30
0.0
 10
2859.022091335649
 20
621.6868938731334
 30
0.0
 10
2858.942000094516
 20
621.2431469214814
 30
0.0
 10
2858.928415650946
 20
620.8254664684787
 30
0.0
 10
2858.979325601767
 20
620.4540589679894
 30
0.0
 10
2859.090351269641
 20
620.1350258901043
 30
0.0
 10
2859.265015608964
 20
619.8763137602328
 30
0.0
 10
2859.484140461531
 20
619.6888221630477
 30
0.0
 10
2859.663709232553
 20
619.6328266813412
 30
0.0
 10
2859.746448163764
 20
619.6070259461538
 30
0.0
  0
SPLINE
  5
8725A
330
1F
100
AcDbEntity
  8
0
100
AcDbSpline
210
0.0
220
0.0
230
1.0
 70
     8
 71
     3
 72
    25
 73
    21
 74
     0
 42
0.0000000001
 43
0.0000000001
 40
0.0
 40
0.0
 40
0.0
 40
0.0
 40
0.0569437899325355
 40
0.1139641441263563
 40
0.169860259306359
 40
0.2239342451792305
 40
0.279224749717156
 40
0.3359913782379737
 40
0.3931394485929905
 40
0.4495296985435443
 40
0.5041105866518111
 40
0.5586914747600784
 40
0.6150817247106321
 40
0.6722297950656494
 40
0.7289964235864673
 40
0.784286928124393
 40
0.8383609139972644
 40
0.8942570291772671
 40
0.9512773833710882
 40
1.0
 40
1.0
 40
1.0
 40
1.0
 10
2862.384497487742
 20
623.52385628404
 30
0.0
 10
2862.322768435508
 20
623.5857580007674
 30
0.0
 10
2862.199227332714
 20
623.7096446647064
 30
0.0
 10
2861.952129565357
 20
623.7907712835319
 30
0.0
 10
2861.676114020942
 20
623.7916664847346
 30
0.0
 10
2861.375820138762
 20
623.7103283665531
 30
0.0
 10
2861.063085171769
 20
623.5488710998652
 30
0.0
 10
2860.745235086133
 20
623.3069092515022
 30
0.0
 10
2860.438700791761
 20
622.9939241402304
 30
0.0
 10
2860.161478813779
 20
622.6287964409443
 30
0.0
 10
2859.922809034592
 20
622.2293486471499
 30
0.0
 10
2859.728883438067
 20
621.8040624862525
 30
0.0
 10
2859.587776760598
 20
621.3603306284043
 30
0.0
 10
2859.507685519465
 20
620.9165836767523
 30
0.0
 10
2859.494101075895
 20
620.4989032237496
 30
0.0
 10
2859.545011026716
 20
620.1274957232604
 30
0.0
 10
2859.65603669459
 20
619.8084626453752
 30
0.0
 10
2859.830701033913
 20
619.5497505155036
 30
0.0
 10
2860.049825886481
 20
619.3622589183187
 30
0.0
 10
2860.229394657502
 20
619.3062634366121
 30
0.0
 10
2860.312133588714
 20
619.2804627014247
 30
0.0
  0
SPLINE
  5
8725B
330
1F
100
AcDbEntity
  8
0
100
AcDbSpline
210
0.0
220
0.0
230
1.0
 70
     8
 71
     3
 72
    25
 73
    21
 74
     0
 42
0.0000000001
 43
0.0000000001
 40
0.0
 40
0.0
 40
0.0
 40
0.0
 40
0.0569437899325355
 40
0.1139641441263563
 40
0.169860259306359
 40
0.2239342451792305
 40
0.279224749717156
 40
0.3359913782379737
 40
0.3931394485929905
 40
0.4495296985435442
 40
0.504110586651811
 40
0.5586914747600782
 40
0.6150817247106321
 40
0.6722297950656492
 40
0.7289964235864673
 40
0.784286928124393
 40
0.8383609139972644
 40
0.8942570291772671
 40
0.9512773833710882
 40
1.0
 40
1.0
 40
1.0
 40
1.0
 10
2862.950182912691
 20
623.197293039311
 30
0.0
 10
2862.888453860458
 20
623.2591947560384
 30
0.0
 10
2862.764912757664
 20
623.3830814199773
 30
0.0
 10
2862.517814990306
 20
623.4642080388028
 30
0.0
 10
2862.241799445891
 20
623.4651032400055
 30
0.0
 10
2861.941505563711
 20
623.383765121824
 30
0.0
 10
2861.628770596718
 20
623.2223078551363
 30
0.0
 10
2861.310920511082
 20
622.9803460067731
 30
0.0
 10
2861.00438621671
 20
622.6673608955013
 30
0.0
 10
2860.727164238728
 20
622.3022331962152
 30
0.0
 10
2860.488494459541
 20
621.9027854024208
 30
0.0
 10
2860.294568863016
 20
621.4774992415233
 30
0.0
 10
2860.153462185548
 20
621.0337673836752
 30
0.0
 10
2860.073370944415
 20
620.5900204320232
 30
0.0
 10
2860.059786500844
 20
620.1723399790203
 30
0.0
 10
2860.110696451666
 20
619.8009324785313
 30
0.0
 10
2860.221722119539
 20
619.4818994006461
 30
0.0
 10
2860.396386458862
 20
619.2231872707745
 30
0.0
 10
2860.61551131143
 20
619.0356956735897
 30
0.0
 10
2860.795080082451
 20
618.9797001918831
 30
0.0
 10
2860.877819013663
 20
618.9538994566957
 30
0.0
  0
SPLINE
  5
8725C
330
1F
100
AcDbEntity
  8
0
100
AcDbSpline
210
0.0
220
0.0
230
1.0
 70
     8
 71
     3
 72
    25
 73
    21
 74
     0
 42
0.0000000001
 43
0.0000000001
 40
0.0
 40
0.0
 40
0.0
 40
0.0
 40
0.056943789932537
 40
0.1139641441263578
 40
0.1698602593063604
 40
0.2239342451792318
 40
0.2792247497171572
 40
0.3359913782379748
 40
0.3931394485929915
 40
0.4495296985435451
 40
0.5041105866518119
 40
0.558691474760079
 40
0.6150817247106328
 40
0.6722297950656497
 40
0.7289964235864677
 40
0.7842869281243933
 40
0.8383609139972648
 40
0.8942570291772675
 40
0.9512773833710882
 40
1.0
 40
1.0
 40
1.0
 40
1.0
 10
2863.515868337641
 20
622.870729794582
 30
0.0
 10
2863.454139285407
 20
622.9326315113093
 30
0.0
 10
2863.330598182613
 20
623.0565181752482
 30
0.0
 10
2863.083500415256
 20
623.1376447940739
 30
0.0
 10
2862.80748487084
 20
623.1385399952764
 30
0.0
 10
2862.50719098866
 20
623.0572018770949
 30
0.0
 10
2862.194456021668
 20
622.8957446104073
 30
0.0
 10
2861.876605936032
 20
622.6537827620441
 30
0.0
 10
2861.57007164166
 20
622.3407976507722
 30
0.0
 10
2861.292849663678
 20
621.9756699514861
 30
0.0
 10
2861.05417988449
 20
621.5762221576916
 30
0.0
 10
2860.860254287965
 20
621.1509359967942
 30
0.0
 10
2860.719147610497
 20
620.7072041389461
 30
0.0
 10
2860.639056369364
 20
620.2634571872941
 30
0.0
 10
2860.625471925794
 20
619.8457767342913
 30
0.0
 10
2860.676381876614
 20
619.4743692338021
 30
0.0
 10
2860.787407544488
 20
619.155336155917
 30
0.0
 10
2860.962071883811
 20
618.8966240260455
 30
0.0
 10
2861.181196736379
 20
618.7091324288604
 30
0.0
 10
2861.360765507401
 20
618.6531369471541
 30
0.0
 10
2861.443504438612
 20
618.6273362119666
 30
0.0
  0
SPLINE
  5
8725D
330
1F
100
AcDbEntity
  8
0
100
AcDbSpline
210
0.0
220
0.0
230
1.0
 70
     8
 71
     3
 72
    25
 73
    21
 74
     0
 42
0.0000000001
 43
0.0000000001
 40
0.0
 40
0.0
 40
0.0
 40
0.0
 40
0.0569437899325354
 40
0.1139641441263562
 40
0.1698602593063587
 40
0.2239342451792301
 40
0.2792247497171555
 40
0.3359913782379731
 40
0.3931394485929899
 40
0.4495296985435435
 40
0.5041105866518102
 40
0.5586914747600773
 40
0.6150817247106311
 40
0.6722297950656481
 40
0.728996423586466
 40
0.7842869281243916
 40
0.838360913997263
 40
0.8942570291772657
 40
0.9512773833710866
 40
1.0
 40
1.0
 40
1.0
 40
1.0
 10
2864.08155376259
 20
622.5441665498529
 30
0.0
 10
2864.019824710356
 20
622.6060682665802
 30
0.0
 10
2863.896283607563
 20
622.7299549305191
 30
0.0
 10
2863.649185840205
 20
622.8110815493447
 30
0.0
 10
2863.37317029579
 20
622.8119767505473
 30
0.0
 10
2863.072876413609
 20
622.7306386323658
 30
0.0
 10
2862.760141446617
 20
622.5691813656782
 30
0.0
 10
2862.44229136098
 20
622.327219517315
 30
0.0
 10
2862.135757066609
 20
622.0142344060432
 30
0.0
 10
2861.858535088626
 20
621.6491067067569
 30
0.0
 10
2861.619865309439
 20
621.2496589129625
 30
0.0
 10
2861.425939712915
 20
620.8243727520652
 30
0.0
 10
2861.284833035446
 20
620.380640894217
 30
0.0
 10
2861.204741794313
 20
619.9368939425649
 30
0.0
 10
2861.191157350742
 20
619.5192134895623
 30
0.0
 10
2861.242067301564
 20
619.147805989073
 30
0.0
 10
2861.353092969437
 20
618.828772911188
 30
0.0
 10
2861.527757308761
 20
618.5700607813164
 30
0.0
 10
2861.746882161328
 20
618.3825691841313
 30
0.0
 10
2861.92645093235
 20
618.326573702425
 30
0.0
 10
2862.009189863561
 20
618.3007729672375
 30
0.0
  0
SPLINE
  5
8725E
330
1F
100
AcDbEntity
  8
0
100
AcDbSpline
210
0.0
220
0.0
230
1.0
 70
     8
 71
     3
 72
    25
 73
    21
 74
     0
 42
0.0000000001
 43
0.0000000001
 40
0.0
 40
0.0
 40
0.0
 40
0.0
 40
0.0569437899325358
 40
0.113964144126357
 40
0.1698602593063599
 40
0.2239342451792314
 40
0.2792247497171565
 40
0.335991378237974
 40
0.3931394485929905
 40
0.4495296985435437
 40
0.5041105866518102
 40
0.5586914747600775
 40
0.6150817247106312
 40
0.6722297950656483
 40
0.7289964235864664
 40
0.784286928124392
 40
0.8383609139972636
 40
0.8942570291772666
 40
0.9512773833710879
 40
0.9999999999999998
 40
0.9999999999999998
 40
0.9999999999999998
 40
0.9999999999999998
 10
2864.647239187539
 20
622.2176033051238
 30
0.0
 10
2864.585510135305
 20
622.2795050218511
 30
0.0
 10
2864.461969032511
 20
622.4033916857901
 30
0.0
 10
2864.214871265154
 20
622.4845183046157
 30
0.0
 10
2863.938855720739
 20
622.4854135058182
 30
0.0
 10
2863.638561838559
 20
622.4040753876368
 30
0.0
 10
2863.325826871566
 20
622.242618120949
 30
0.0
 10
2863.00797678593
 20
622.0006562725858
 30
0.0
 10
2862.701442491558
 20
621.6876711613141
 30
0.0
 10
2862.424220513576
 20
621.3225434620278
 30
0.0
 10
2862.185550734388
 20
620.9230956682335
 30
0.0
 10
2861.991625137864
 20
620.4978095073361
 30
0.0
 10
2861.850518460395
 20
620.054077649488
 30
0.0
 10
2861.770427219263
 20
619.6103306978359
 30
0.0
 10
2861.756842775692
 20
619.1926502448333
 30
0.0
 10
2861.807752726513
 20
618.8212427443439
 30
0.0
 10
2861.918778394386
 20
618.5022096664589
 30
0.0
 10
2862.09344273371
 20
618.2434975365874
 30
0.0
 10
2862.312567586278
 20
618.0560059394023
 30
0.0
 10
2862.492136357299
 20
618.0000104576959
 30
0.0
 10
2862.57487528851
 20
617.9742097225084
 30
0.0
  0
SPLINE
  5
8725F
330
1F
100
AcDbEntity
  8
0
100
AcDbSpline
210
0.0
220
0.0
230
1.0
 70
     8
 71
     3
 72
    25
 73
    21
 74
     0
 42
0.0000000001
 43
0.0000000001
 40
0.0
 40
0.0
 40
0.0
 40
0.0
 40
0.0569437899325358
 40
0.1139641441263569
 40
0.1698602593063599
 40
0.2239342451792313
 40
0.2792247497171565
 40
0.3359913782379739
 40
0.3931394485929904
 40
0.4495296985435437
 40
0.5041105866518102
 40
0.5586914747600775
 40
0.6150817247106312
 40
0.6722297950656483
 40
0.7289964235864664
 40
0.7842869281243921
 40
0.8383609139972637
 40
0.8942570291772668
 40
0.951277383371088
 40
1.0
 40
1.0
 40
1.0
 40
1.0
 10
2865.212924612488
 20
621.8910400603946
 30
0.0
 10
2865.151195560255
 20
621.9529417771219
 30
0.0
 10
2865.027654457461
 20
622.076828441061
 30
0.0
 10
2864.780556690103
 20
622.1579550598866
 30
0.0
 10
2864.504541145688
 20
622.1588502610892
 30
0.0
 10
2864.204247263508
 20
622.0775121429077
 30
0.0
 10
2863.891512296516
 20
621.9160548762199
 30
0.0
 10
2863.573662210879
 20
621.6740930278567
 30
0.0
 10
2863.267127916508
 20
621.361107916585
 30
0.0
 10
2862.989905938525
 20
620.9959802172988
 30
0.0
 10
2862.751236159338
 20
620.5965324235044
 30
0.0
 10
2862.557310562813
 20
620.171246262607
 30
0.0
 10
2862.416203885345
 20
619.7275144047589
 30
0.0
 10
2862.336112644212
 20
619.2837674531069
 30
0.0
 10
2862.322528200641
 20
618.8660870001041
 30
0.0
 10
2862.373438151462
 20
618.494679499615
 30
0.0
 10
2862.484463819336
 20
618.1756464217297
 30
0.0
 10
2862.659128158659
 20
617.9169342918582
 30
0.0
 10
2862.878253011227
 20
617.7294426946732
 30
0.0
 10
2863.057821782248
 20
617.6734472129668
 30
0.0
 10
2863.14056071346
 20
617.6476464777794
 30
0.0
  0
SPLINE
  5
87260
330
1F
100
AcDbEntity
  8
0
100
AcDbSpline
210
0.0
220
0.0
230
1.0
 70
     8
 71
     3
 72
    25
 73
    21
 74
     0
 42
0.0000000001
 43
0.0000000001
 40
0.0
 40
0.0
 40
0.0
 40
0.0
 40
0.0569437899325358
 40
0.113964144126357
 40
0.1698602593063599
 40
0.2239342451792313
 40
0.2792247497171565
 40
0.3359913782379739
 40
0.3931394485929904
 40
0.4495296985435437
 40
0.5041105866518102
 40
0.5586914747600775
 40
0.6150817247106312
 40
0.6722297950656483
 40
0.7289964235864664
 40
0.7842869281243921
 40
0.8383609139972637
 40
0.8942570291772668
 40
0.951277383371088
 40
1.0
 40
1.0
 40
1.0
 40
1.0
 10
2865.778610037438
 20
621.5644768156655
 30
0.0
 10
2865.716880985204
 20
621.6263785323929
 30
0.0
 10
2865.59333988241
 20
621.7502651963319
 30
0.0
 10
2865.346242115053
 20
621.8313918151575
 30
0.0
 10
2865.070226570638
 20
621.8322870163602
 30
0.0
 10
2864.769932688457
 20
621.7509488981786
 30
0.0
 10
2864.457197721465
 20
621.5894916314908
 30
0.0
 10
2864.139347635828
 20
621.3475297831278
 30
0.0
 10
2863.832813341457
 20
621.0345446718559
 30
0.0
 10
2863.555591363474
 20
620.6694169725697
 30
0.0
 10
2863.316921584286
 20
620.2699691787753
 30
0.0
 10
2863.122995987762
 20
619.8446830178779
 30
0.0
 10
2862.981889310293
 20
619.4009511600299
 30
0.0
 10
2862.901798069161
 20
618.9572042083778
 30
0.0
 10
2862.888213625591
 20
618.539523755375
 30
0.0
 10
2862.939123576412
 20
618.1681162548858
 30
0.0
 10
2863.050149244285
 20
617.8490831770006
 30
0.0
 10
2863.224813583608
 20
617.5903710471292
 30
0.0
 10
2863.443938436176
 20
617.4028794499442
 30
0.0
 10
2863.623507207198
 20
617.3468839682377
 30
0.0
 10
2863.706246138409
 20
617.3210832330502
 30
0.0
  0
SPLINE
  5
87261
330
1F
100
AcDbEntity
  8
0
100
AcDbSpline
210
0.0
220
0.0
230
1.0
 70
     8
 71
     3
 72
    25
 73
    21
 74
     0
 42
0.0000000001
 43
0.0000000001
 40
0.0
 40
0.0
 40
0.0
 40
0.0
 40
0.0569437899325358
 40
0.1139641441263569
 40
0.1698602593063599
 40
0.2239342451792313
 40
0.2792247497171565
 40
0.3359913782379739
 40
0.3931394485929905
 40
0.4495296985435438
 40
0.5041105866518104
 40
0.5586914747600775
 40
0.6150817247106313
 40
0.6722297950656483
 40
0.7289964235864664
 40
0.7842869281243921
 40
0.8383609139972637
 40
0.8942570291772668
 40
0.951277383371088
 40
1.0
 40
1.0
 40
1.0
 40
1.0
 10
2866.344295462387
 20
621.2379135709364
 30
0.0
 10
2866.282566410153
 20
621.2998152876638
 30
0.0
 10
2866.159025307359
 20
621.4237019516027
 30
0.0
 10
2865.911927540002
 20
621.5048285704284
 30
0.0
 10
2865.635911995587
 20
621.5057237716311
 30
0.0
 10
2865.335618113406
 20
621.4243856534495
 30
0.0
 10
2865.022883146414
 20
621.2629283867618
 30
0.0
 10
2864.705033060777
 20
621.0209665383987
 30
0.0
 10
2864.398498766406
 20
620.7079814271268
 30
0.0
 10
2864.121276788424
 20
620.3428537278406
 30
0.0
 10
2863.882607009236
 20
619.9434059340462
 30
0.0
 10
2863.688681412712
 20
619.5181197731488
 30
0.0
 10
2863.547574735243
 20
619.0743879153006
 30
0.0
 10
2863.46748349411
 20
618.6306409636487
 30
0.0
 10
2863.45389905054
 20
618.2129605106459
 30
0.0
 10
2863.504809001361
 20
617.8415530101567
 30
0.0
 10
2863.615834669234
 20
617.5225199322716
 30
0.0
 10
2863.790499008557
 20
617.2638078024001
 30
0.0
 10
2864.009623861125
 20
617.076316205215
 30
0.0
 10
2864.189192632147
 20
617.0203207235086
 30
0.0
 10
2864.271931563358
 20
616.9945199883211
 30
0.0
  0
SPLINE
  5
87262
330
1F
100
AcDbEntity
  8
0
100
AcDbSpline
210
0.0
220
0.0
230
1.0
 70
     8
 71
     3
 72
    25
 73
    21
 74
     0
 42
0.0000000001
 43
0.0000000001
 40
0.0
 40
0.0
 40
0.0
 40
0.0
 40
0.0569437899325358
 40
0.1139641441263569
 40
0.1698602593063598
 40
0.2239342451792313
 40
0.2792247497171565
 40
0.3359913782379739
 40
0.3931394485929904
 40
0.4495296985435438
 40
0.5041105866518102
 40
0.5586914747600775
 40
0.6150817247106313
 40
0.6722297950656483
 40
0.7289964235864664
 40
0.7842869281243921
 40
0.8383609139972637
 40
0.8942570291772668
 40
0.951277383371088
 40
1.0
 40
1.0
 40
1.0
 40
1.0
 10
2866.909980887336
 20
620.9113503262074
 30
0.0
 10
2866.848251835103
 20
620.9732520429348
 30
0.0
 10
2866.724710732309
 20
621.0971387068736
 30
0.0
 10
2866.477612964951
 20
621.1782653256992
 30
0.0
 10
2866.201597420536
 20
621.1791605269019
 30
0.0
 10
2865.901303538356
 20
621.0978224087203
 30
0.0
 10
2865.588568571363
 20
620.9363651420327
 30
0.0
 10
2865.270718485727
 20
620.6944032936696
 30
0.0
 10
2864.964184191356
 20
620.3814181823977
 30
0.0
 10
2864.686962213373
 20
620.0162904831115
 30
0.0
 10
2864.448292434185
 20
619.6168426893172
 30
0.0
 10
2864.254366837661
 20
619.1915565284197
 30
0.0
 10
2864.113260160192
 20
618.7478246705715
 30
0.0
 10
2864.033168919059
 20
618.3040777189196
 30
0.0
 10
2864.019584475489
 20
617.8863972659168
 30
0.0
 10
2864.07049442631
 20
617.5149897654277
 30
0.0
 10
2864.181520094184
 20
617.1959566875425
 30
0.0
 10
2864.356184433507
 20
616.937244557671
 30
0.0
 10
2864.575309286074
 20
616.749752960486
 30
0.0
 10
2864.754878057096
 20
616.6937574787795
 30
0.0
 10
2864.837616988308
 20
616.667956743592
 30
0.0
  0
SPLINE
  5
87263
330
1F
100
AcDbEntity
  8
0
100
AcDbSpline
210
0.0
220
0.0
230
1.0
 70
     8
 71
     3
 72
    24
 73
    20
 74
     0
 42
0.0000000001
 43
0.0000000001
 40
0.0
 40
0.0
 40
0.0
 40
0.0
 40
0.0489396340955892
 40
0.1111844190362472
 40
0.1722019577307814
 40
0.2312304164123971
 40
0.2915868560185994
 40
0.3535546679349167
 40
0.4159388708974276
 40
0.4774958189477869
 40
0.5370776242557819
 40
0.5966594295637775
 40
0.6582163776141376
 40
0.7206005805766491
 40
0.7825683924929671
 40
0.8429248320991698
 40
0.9019532907807857
 40
0.9629708294753202
 40
1.0
 40
1.0
 40
1.0
 40
1.0
 10
2867.434034069593
 20
620.6205978628952
 30
0.0
 10
2867.385126334358
 20
620.6688262414864
 30
0.0
 10
2867.274014385341
 20
620.7783947814605
 30
0.0
 10
2867.042941418243
 20
620.8511151563096
 30
0.0
 10
2866.767374176285
 20
620.8527474461831
 30
0.0
 10
2866.466964250053
 20
620.7712185310576
 30
0.0
 10
2866.154260880674
 20
620.6098132162905
 30
0.0
 10
2865.836402019839
 20
620.3678369405456
 30
0.0
 10
2865.529870157614
 20
620.054855825903
 30
0.0
 10
2865.252647353556
 20
619.6897267766138
 30
0.0
 10
2865.013978457495
 20
619.29028040522
 30
0.0
 10
2864.820050114262
 20
618.8649898392413
 30
0.0
 10
2864.678953913478
 20
618.4212747772871
 30
0.0
 10
2864.598822929343
 20
617.9774641126255
 30
0.0
 10
2864.585384930336
 20
617.5600184281379
 30
0.0
 10
2864.635766753963
 20
617.1877642753949
 30
0.0
 10
2864.748732214167
 20
616.8718409209787
 30
0.0
 10
2864.89277859535
 20
616.638563680684
 30
0.0
 10
2865.020094972738
 20
616.5452569972217
 30
0.0
 10
2865.068178379988
 20
616.5100179859328
 30
0.0
  0
SPLINE
  5
87264
330
1F
100
AcDbEntity
  8
0
100
AcDbSpline
210
0.0
220
0.0
230
1.0
 70
     8
 71
     3
 72
    18
 73
    14
 74
     0
 42
0.0000000001
 43
0.0000000001
 40
0.0
 40
0.0
 40
0.0
 40
0.0
 40
0.0835031020580845
 40
0.1790804856376558
 40
0.277209556334264
 40
0.37599800268326
 40
0.4734764502885816
 40
0.5678271624485545
 40
0.6621778746085285
 40
0.7596563222138509
 40
0.8584447685628477
 40
0.9565738392594571
 40
0.9999999999999998
 40
0.9999999999999998
 40
0.9999999999999998
 40
0.9999999999999998
 10
2867.294125674654
 20
620.5034340124963
 30
0.0
 10
2867.207948451621
 20
620.4843834224967
 30
0.0
 10
2867.02313305469
 20
620.4435275881057
 30
0.0
 10
2866.719555364463
 20
620.2819453938943
 30
0.0
 10
2866.402195007403
 20
620.0416305467252
 30
0.0
 10
2866.095524091299
 20
619.7281958446729
 30
0.0
 10
2865.818351689075
 20
619.3631962146179
 30
0.0
 10
2865.579620036321
 20
618.963680416061
 30
0.0
 10
2865.385894920141
 20
618.538543325662
 30
0.0
 10
2865.244020888046
 20
618.0942635975253
 30
0.0
 10
2865.16684132099
 20
617.6525892572806
 30
0.0
 10
2865.146862831153
 20
617.3031061475236
 30
0.0
 10
2865.175970403535
 20
617.1238246710501
 30
0.0
 10
2865.184899993096
 20
617.0688248936762
 30
0.0
  0
SPLINE
  5
87265
330
1F
100
AcDbEntity
  8
0
100
AcDbSpline
210
0.0
220
0.0
230
1.0
 70
     8
 71
     3
 72
    21
 73
    17
 74
     0
 42
0.0000000001
 43
0.0000000001
 40
0.0
 40
0.0
 40
0.0
 40
0.0
 40
0.061441149808695
 40
0.1341973763865728
 40
0.2049029443383393
 40
0.2775864079630495
 40
0.3497584705888728
 40
0.4239503859857933
 40
0.4973539153070257
 40
0.5728861518129966
 40
0.6462896871560258
 40
0.7217811045056156
 40
0.796259014716299
 40
0.8728010739721398
 40
0.9357850389685122
 40
0.9999999999999998
 40
0.9999999999999998
 40
0.9999999999999998
 40
0.9999999999999998
 10
2860.405541356559
 20
624.5018603779091
 30
0.0
 10
2860.35220563184
 20
624.5258515874753
 30
0.0
 10
2860.235711810561
 20
624.578252256899
 30
0.0
 10
2860.024876886722
 20
624.5901480357757
 30
0.0
 10
2859.785212616396
 20
624.5503913826329
 30
0.0
 10
2859.533709318101
 20
624.4539132653746
 30
0.0
 10
2859.274105564819
 20
624.3025277919983
 30
0.0
 10
2859.016023284129
 20
624.1000059661575
 30
0.0
 10
2858.763965699021
 20
623.8485260358439
 30
0.0
 10
2858.529774749331
 20
623.5587103008181
 30
0.0
 10
2858.317358303309
 20
623.2350848658054
 30
0.0
 10
2858.135943223007
 20
622.8910284301836
 30
0.0
 10
2857.98791787449
 20
622.529022425831
 30
0.0
 10
2857.886772217669
 20
622.1840299211643
 30
0.0
 10
2857.823930967114
 20
621.8600652538224
 30
0.0
 10
2857.811570198099
 20
621.6676308424681
 30
0.0
 10
2857.80533000154
 20
621.5704824732789
 30
0.0
  0
ARC
  5
87266
330
1F
100
AcDbEntity
  8
0
100
AcDbCircle
 10
2859.00665825184
 20
621.3841228048234
 30
0.0
 40
1.215697121344527
100
AcDbArc
 50
171.1821045038359
 51
234.527751117499
  0
SPLINE
  5
87267
330
1F
100
AcDbEntity
  8
0
100
AcDbSpline
210
0.0
220
0.0
230
1.0
 70
     8
 71
     3
 72
    24
 73
    20
 74
     0
 42
0.0000000001
 43
0.0000000001
 40
0.0
 40
0.0
 40
0.0
 40
0.0
 40
0.0637315839244786
 40
0.1262318808943064
 40
0.1866947621609786
 40
0.248517894987001
 40
0.3119915573175865
 40
0.37589172921574
 40
0.4389445434723792
 40
0.4999742179794199
 40
0.5610038924864607
 40
0.6240567067430999
 40
0.6879568786412534
 40
0.7514305409718391
 40
0.8132536737978615
 40
0.873716555064534
 40
0.9362168520343615
 40
0.99997421797942
 40
1.0
 40
1.0
 40
1.0
 40
1.0
 10
2860.931344323019
 20
624.4180909166081
 30
0.0
 10
2860.85290663123
 20
624.4526739407817
 30
0.0
 10
2860.697546654939
 20
624.5211718490339
 30
0.0
 10
2860.418083166958
 20
624.5163341104747
 30
0.0
 10
2860.118691775543
 20
624.4364801379877
 30
0.0
 10
2859.805711095216
 20
624.2746187955077
 30
0.0
 10
2859.487929149321
 20
624.0327690042215
 30
0.0
 10
2859.181376340942
 20
623.7197534417629
 30
0.0
 10
2858.904159323135
 20
623.3546339174035
 30
0.0
 10
2858.665487956328
 20
622.9551834481431
 30
0.0
 10
2858.471563931372
 20
622.5299001138922
 30
0.0
 10
2858.330452376846
 20
622.0861592982248
 30
0.0
 10
2858.250379328375
 20
621.6424458245516
 30
0.0
 10
2858.236727930763
 20
621.224642146234
 30
0.0
 10
2858.287879318476
 20
620.8536790018166
 30
0.0
 10
2858.398018202915
 20
620.5330138291652
 30
0.0
 10
2858.576108397709
 20
620.2806068701583
 30
0.0
 10
2858.720490644473
 20
620.1335486991582
 30
0.0
 10
2858.814361578027
 20
620.0978239110091
 30
0.0
 10
2858.814399521942
 20
620.0978094705614
 30
0.0
  0
SPLINE
  5
87268
330
1F
100
AcDbEntity
  8
0
100
AcDbSpline
210
0.0
220
0.0
230
1.0
 70
     8
 71
     3
 72
    24
 73
    20
 74
     0
 42
0.0000000001
 43
0.0000000001
 40
0.0
 40
0.0
 40
0.0
 40
0.0
 40
0.0637315839244787
 40
0.1262318808943065
 40
0.1866947621609788
 40
0.248517894987001
 40
0.3119915573175865
 40
0.37589172921574
 40
0.4389445434723791
 40
0.4999742179794197
 40
0.5610038924864604
 40
0.6240567067430997
 40
0.6879568786412534
 40
0.7514305409718389
 40
0.8132536737978613
 40
0.8737165550645336
 40
0.9362168520343615
 40
0.99997421797942
 40
1.0
 40
1.0
 40
1.0
 40
1.0
 10
2861.497029747969
 20
624.0915276718789
 30
0.0
 10
2861.41859205618
 20
624.1261106960524
 30
0.0
 10
2861.263232079888
 20
624.1946086043049
 30
0.0
 10
2860.983768591907
 20
624.1897708657456
 30
0.0
 10
2860.684377200492
 20
624.1099168932586
 30
0.0
 10
2860.371396520165
 20
623.9480555507788
 30
0.0
 10
2860.05361457427
 20
623.7062057594925
 30
0.0
 10
2859.747061765891
 20
623.3931901970337
 30
0.0
 10
2859.469844748084
 20
623.0280706726744
 30
0.0
 10
2859.231173381277
 20
622.628620203414
 30
0.0
 10
2859.037249356321
 20
622.2033368691632
 30
0.0
 10
2858.896137801795
 20
621.7595960534957
 30
0.0
 10
2858.816064753324
 20
621.3158825798226
 30
0.0
 10
2858.802413355712
 20
620.898078901505
 30
0.0
 10
2858.853564743425
 20
620.5271157570876
 30
0.0
 10
2858.963703627865
 20
620.2064505844361
 30
0.0
 10
2859.141793822657
 20
619.9540436254295
 30
0.0
 10
2859.286176069424
 20
619.8069854544286
 30
0.0
 10
2859.380047002976
 20
619.77126066628
 30
0.0
 10
2859.380084946891
 20
619.7712462258323
 30
0.0
  0
SPLINE
  5
87269
330
1F
100
AcDbEntity
  8
0
100
AcDbSpline
210
0.0
220
0.0
230
1.0
 70
     8
 71
     3
 72
    24
 73
    20
 74
     0
 42
0.0000000001
 43
0.0000000001
 40
0.0
 40
0.0
 40
0.0
 40
0.0
 40
0.0637315839244787
 40
0.1262318808943065
 40
0.1866947621609787
 40
0.248517894987001
 40
0.3119915573175865
 40
0.3758917292157399
 40
0.438944543472379
 40
0.4999742179794195
 40
0.5610038924864603
 40
0.6240567067430996
 40
0.6879568786412533
 40
0.7514305409718389
 40
0.8132536737978611
 40
0.8737165550645334
 40
0.9362168520343614
 40
0.99997421797942
 40
1.0
 40
1.0
 40
1.0
 40
1.0
 10
2862.062715172918
 20
623.7649644271498
 30
0.0
 10
2861.984277481129
 20
623.7995474513233
 30
0.0
 10
2861.828917504837
 20
623.8680453595758
 30
0.0
 10
2861.549454016857
 20
623.8632076210166
 30
0.0
 10
2861.250062625441
 20
623.7833536485295
 30
0.0
 10
2860.937081945114
 20
623.6214923060497
 30
0.0
 10
2860.61929999922
 20
623.3796425147634
 30
0.0
 10
2860.312747190841
 20
623.0666269523046
 30
0.0
 10
2860.035530173033
 20
622.7015074279453
 30
0.0
 10
2859.796858806226
 20
622.3020569586849
 30
0.0
 10
2859.602934781271
 20
621.8767736244341
 30
0.0
 10
2859.461823226745
 20
621.4330328087668
 30
0.0
 10
2859.381750178274
 20
620.9893193350936
 30
0.0
 10
2859.368098780661
 20
620.5715156567759
 30
0.0
 10
2859.419250168374
 20
620.2005525123585
 30
0.0
 10
2859.529389052814
 20
619.879887339707
 30
0.0
 10
2859.707479247607
 20
619.6274803807003
 30
0.0
 10
2859.851861494372
 20
619.4804222096999
 30
0.0
 10
2859.945732427926
 20
619.444697421551
 30
0.0
 10
2859.945770371841
 20
619.4446829811032
 30
0.0
  0
SPLINE
  5
8726A
330
1F
100
AcDbEntity
  8
0
100
AcDbSpline
210
0.0
220
0.0
230
1.0
 70
     8
 71
     3
 72
    24
 73
    20
 74
     0
 42
0.0000000001
 43
0.0000000001
 40
0.0
 40
0.0
 40
0.0
 40
0.0
 40
0.0637315839244793
 40
0.126231880894307
 40
0.1866947621609791
 40
0.2485178949870014
 40
0.3119915573175869
 40
0.3758917292157404
 40
0.4389445434723795
 40
0.4999742179794201
 40
0.561003892486461
 40
0.6240567067431004
 40
0.6879568786412542
 40
0.7514305409718399
 40
0.8132536737978625
 40
0.8737165550645345
 40
0.9362168520343622
 40
0.9999742179794209
 40
1.0
 40
1.0
 40
1.0
 40
1.0
 10
2862.628400597867
 20
623.4384011824207
 30
0.0
 10
2862.549962906078
 20
623.4729842065943
 30
0.0
 10
2862.394602929787
 20
623.5414821148467
 30
0.0
 10
2862.115139441805
 20
623.5366443762875
 30
0.0
 10
2861.81574805039
 20
623.4567904038004
 30
0.0
 10
2861.502767370064
 20
623.2949290613206
 30
0.0
 10
2861.184985424168
 20
623.0530792700343
 30
0.0
 10
2860.87843261579
 20
622.7400637075755
 30
0.0
 10
2860.601215597982
 20
622.3749441832162
 30
0.0
 10
2860.362544231175
 20
621.9754937139558
 30
0.0
 10
2860.16862020622
 20
621.5502103797049
 30
0.0
 10
2860.027508651694
 20
621.1064695640376
 30
0.0
 10
2859.947435603222
 20
620.6627560903645
 30
0.0
 10
2859.93378420561
 20
620.2449524120467
 30
0.0
 10
2859.984935593323
 20
619.8739892676294
 30
0.0
 10
2860.095074477764
 20
619.5533240949777
 30
0.0
 10
2860.273164672554
 20
619.3009171359721
 30
0.0
 10
2860.417546919327
 20
619.1538589649687
 30
0.0
 10
2860.511417852875
 20
619.118134176822
 30
0.0
 10
2860.51145579679
 20
619.118119736374
 30
0.0
  0
SPLINE
  5
8726B
330
1F
100
AcDbEntity
  8
0
100
AcDbSpline
210
0.0
220
0.0
230
1.0
 70
     8
 71
     3
 72
    24
 73
    20
 74
     0
 42
0.0000000001
 43
0.0000000001
 40
0.0
 40
0.0
 40
0.0
 40
0.0
 40
0.0637315839244793
 40
0.126231880894307
 40
0.1866947621609791
 40
0.2485178949870014
 40
0.3119915573175869
 40
0.3758917292157404
 40
0.4389445434723795
 40
0.4999742179794201
 40
0.561003892486461
 40
0.6240567067431004
 40
0.6879568786412542
 40
0.7514305409718399
 40
0.8132536737978625
 40
0.8737165550645347
 40
0.9362168520343624
 40
0.9999742179794209
 40
1.0
 40
1.0
 40
1.0
 40
1.0
 10
2863.194086022816
 20
623.1118379376916
 30
0.0
 10
2863.115648331027
 20
623.1464209618652
 30
0.0
 10
2862.960288354736
 20
623.2149188701177
 30
0.0
 10
2862.680824866755
 20
623.2100811315584
 30
0.0
 10
2862.381433475339
 20
623.1302271590713
 30
0.0
 10
2862.068452795013
 20
622.9683658165915
 30
0.0
 10
2861.750670849118
 20
622.7265160253051
 30
0.0
 10
2861.444118040739
 20
622.4135004628465
 30
0.0
 10
2861.166901022932
 20
622.0483809384871
 30
0.0
 10
2860.928229656125
 20
621.6489304692268
 30
0.0
 10
2860.73430563117
 20
621.2236471349759
 30
0.0
 10
2860.593194076643
 20
620.7799063193085
 30
0.0
 10
2860.513121028172
 20
620.3361928456352
 30
0.0
 10
2860.49946963056
 20
619.9183891673177
 30
0.0
 10
2860.550621018272
 20
619.5474260229003
 30
0.0
 10
2860.660759902712
 20
619.2267608502486
 30
0.0
 10
2860.838850097503
 20
618.9743538912428
 30
0.0
 10
2860.983232344275
 20
618.8272957202403
 30
0.0
 10
2861.077103277824
 20
618.7915709320929
 30
0.0
 10
2861.077141221739
 20
618.7915564916449
 30
0.0
  0
SPLINE
  5
8726C
330
1F
100
AcDbEntity
  8
0
100
AcDbSpline
210
0.0
220
0.0
230
1.0
 70
     8
 71
     3
 72
    24
 73
    20
 74
     0
 42
0.0000000001
 43
0.0000000001
 40
0.0
 40
0.0
 40
0.0
 40
0.0
 40
0.0637315839244793
 40
0.126231880894307
 40
0.1866947621609791
 40
0.2485178949870014
 40
0.3119915573175868
 40
0.3758917292157403
 40
0.4389445434723794
 40
0.49997421797942
 40
0.561003892486461
 40
0.6240567067431002
 40
0.687956878641254
 40
0.7514305409718398
 40
0.8132536737978623
 40
0.8737165550645347
 40
0.9362168520343624
 40
0.9999742179794209
 40
1.0
 40
1.0
 40
1.0
 40
1.0
 10
2863.759771447765
 20
622.7852746929626
 30
0.0
 10
2863.681333755976
 20
622.8198577171362
 30
0.0
 10
2863.525973779685
 20
622.8883556253886
 30
0.0
 10
2863.246510291704
 20
622.8835178868294
 30
0.0
 10
2862.947118900288
 20
622.8036639143423
 30
0.0
 10
2862.634138219962
 20
622.6418025718624
 30
0.0
 10
2862.316356274067
 20
622.3999527805761
 30
0.0
 10
2862.009803465688
 20
622.0869372181174
 30
0.0
 10
2861.732586447881
 20
621.721817693758
 30
0.0
 10
2861.493915081074
 20
621.3223672244977
 30
0.0
 10
2861.299991056118
 20
620.8970838902468
 30
0.0
 10
2861.158879501592
 20
620.4533430745795
 30
0.0
 10
2861.078806453121
 20
620.0096296009062
 30
0.0
 10
2861.065155055509
 20
619.5918259225886
 30
0.0
 10
2861.116306443222
 20
619.2208627781711
 30
0.0
 10
2861.226445327662
 20
618.9001976055196
 30
0.0
 10
2861.404535522453
 20
618.6477906465134
 30
0.0
 10
2861.548917769224
 20
618.5007324755117
 30
0.0
 10
2861.642788702773
 20
618.4650076873637
 30
0.0
 10
2861.642826646689
 20
618.4649932469159
 30
0.0
  0
SPLINE
  5
8726D
330
1F
100
AcDbEntity
  8
0
100
AcDbSpline
210
0.0
220
0.0
230
1.0
 70
     8
 71
     3
 72
    24
 73
    20
 74
     0
 42
0.0000000001
 43
0.0000000001
 40
0.0
 40
0.0
 40
0.0
 40
0.0
 40
0.0637315839244793
 40
0.126231880894307
 40
0.1866947621609791
 40
0.2485178949870014
 40
0.3119915573175867
 40
0.3758917292157403
 40
0.4389445434723794
 40
0.49997421797942
 40
0.561003892486461
 40
0.6240567067431002
 40
0.687956878641254
 40
0.7514305409718398
 40
0.8132536737978623
 40
0.8737165550645347
 40
0.9362168520343624
 40
0.9999742179794209
 40
1.0
 40
1.0
 40
1.0
 40
1.0
 10
2864.325456872714
 20
622.4587114482334
 30
0.0
 10
2864.247019180926
 20
622.493294472407
 30
0.0
 10
2864.091659204635
 20
622.5617923806595
 30
0.0
 10
2863.812195716653
 20
622.5569546421003
 30
0.0
 10
2863.512804325237
 20
622.4771006696133
 30
0.0
 10
2863.199823644911
 20
622.3152393271333
 30
0.0
 10
2862.882041699017
 20
622.073389535847
 30
0.0
 10
2862.575488890638
 20
621.7603739733882
 30
0.0
 10
2862.29827187283
 20
621.395254449029
 30
0.0
 10
2862.059600506023
 20
620.9958039797685
 30
0.0
 10
2861.865676481068
 20
620.5705206455178
 30
0.0
 10
2861.724564926542
 20
620.1267798298504
 30
0.0
 10
2861.64449187807
 20
619.6830663561772
 30
0.0
 10
2861.630840480458
 20
619.2652626778595
 30
0.0
 10
2861.681991868171
 20
618.8942995334421
 30
0.0
 10
2861.792130752611
 20
618.5736343607904
 30
0.0
 10
2861.970220947401
 20
618.3212274017851
 30
0.0
 10
2862.114603194175
 20
618.174169230781
 30
0.0
 10
2862.208474127723
 20
618.1384444426347
 30
0.0
 10
2862.208512071638
 20
618.1384300021868
 30
0.0
  0
SPLINE
  5
8726E
330
1F
100
AcDbEntity
  8
0
100
AcDbSpline
210
0.0
220
0.0
230
1.0
 70
     8
 71
     3
 72
    24
 73
    20
 74
     0
 42
0.0000000001
 43
0.0000000001
 40
0.0
 40
0.0
 40
0.0
 40
0.0
 40
0.0637315839244778
 40
0.1262318808943059
 40
0.186694762160978
 40
0.2485178949870001
 40
0.3119915573175851
 40
0.3758917292157384
 40
0.4389445434723771
 40
0.4999742179794174
 40
0.5610038924864584
 40
0.6240567067430977
 40
0.6879568786412515
 40
0.7514305409718373
 40
0.8132536737978597
 40
0.8737165550645322
 40
0.9362168520343603
 40
0.9999742179794191
 40
1.0
 40
1.0
 40
1.0
 40
1.0
 10
2864.891142297663
 20
622.1321482035044
 30
0.0
 10
2864.812704605875
 20
622.1667312276779
 30
0.0
 10
2864.657344629584
 20
622.2352291359303
 30
0.0
 10
2864.377881141602
 20
622.2303913973711
 30
0.0
 10
2864.078489750187
 20
622.1505374248842
 30
0.0
 10
2863.765509069861
 20
621.9886760824042
 30
0.0
 10
2863.447727123965
 20
621.7468262911181
 30
0.0
 10
2863.141174315587
 20
621.4338107286591
 30
0.0
 10
2862.863957297779
 20
621.0686912042998
 30
0.0
 10
2862.625285930973
 20
620.6692407350394
 30
0.0
 10
2862.431361906017
 20
620.2439574007886
 30
0.0
 10
2862.290250351491
 20
619.8002165851213
 30
0.0
 10
2862.210177303019
 20
619.3565031114481
 30
0.0
 10
2862.196525905408
 20
618.9386994331304
 30
0.0
 10
2862.247677293121
 20
618.567736288713
 30
0.0
 10
2862.35781617756
 20
618.2470711160615
 30
0.0
 10
2862.535906372353
 20
617.9946641570548
 30
0.0
 10
2862.680288619118
 20
617.8476059860543
 30
0.0
 10
2862.774159552671
 20
617.8118811979056
 30
0.0
 10
2862.774197496587
 20
617.8118667574578
 30
0.0
  0
SPLINE
  5
8726F
330
1F
100
AcDbEntity
  8
0
100
AcDbSpline
210
0.0
220
0.0
230
1.0
 70
     8
 71
     3
 72
    24
 73
    20
 74
     0
 42
0.0000000001
 43
0.0000000001
 40
0.0
 40
0.0
 40
0.0
 40
0.0
 40
0.0637315839244815
 40
0.1262318808943095
 40
0.1866947621609817
 40
0.2485178949870037
 40
0.3119915573175888
 40
0.3758917292157419
 40
0.4389445434723806
 40
0.499974217979421
 40
0.5610038924864619
 40
0.6240567067431013
 40
0.687956878641255
 40
0.7514305409718408
 40
0.8132536737978634
 40
0.8737165550645357
 40
0.9362168520343638
 40
0.9999742179794226
 40
1.0
 40
1.0
 40
1.0
 40
1.0
 10
2865.456827722613
 20
621.8055849587754
 30
0.0
 10
2865.378390030824
 20
621.8401679829489
 30
0.0
 10
2865.223030054533
 20
621.9086658912012
 30
0.0
 10
2864.943566566552
 20
621.9038281526421
 30
0.0
 10
2864.644175175136
 20
621.823974180155
 30
0.0
 10
2864.331194494809
 20
621.6621128376751
 30
0.0
 10
2864.013412548915
 20
621.4202630463888
 30
0.0
 10
2863.706859740536
 20
621.1072474839302
 30
0.0
 10
2863.429642722729
 20
620.7421279595707
 30
0.0
 10
2863.190971355922
 20
620.3426774903105
 30
0.0
 10
2862.997047330966
 20
619.9173941560595
 30
0.0
 10
2862.85593577644
 20
619.4736533403921
 30
0.0
 10
2862.775862727969
 20
619.029939866719
 30
0.0
 10
2862.762211330357
 20
618.6121361884013
 30
0.0
 10
2862.81336271807
 20
618.2411730439839
 30
0.0
 10
2862.923501602509
 20
617.9205078713324
 30
0.0
 10
2863.101591797302
 20
617.6681009123258
 30
0.0
 10
2863.245974044068
 20
617.5210427413254
 30
0.0
 10
2863.339844977621
 20
617.4853179531766
 30
0.0
 10
2863.339882921536
 20
617.4853035127285
 30
0.0
  0
SPLINE
  5
87270
330
1F
100
AcDbEntity
  8
0
100
AcDbSpline
210
0.0
220
0.0
230
1.0
 70
     8
 71
     3
 72
    24
 73
    20
 74
     0
 42
0.0000000001
 43
0.0000000001
 40
0.0
 40
0.0
 40
0.0
 40
0.0
 40
0.0637315839244815
 40
0.1262318808943095
 40
0.1866947621609817
 40
0.2485178949870037
 40
0.3119915573175888
 40
0.3758917292157419
 40
0.4389445434723806
 40
0.499974217979421
 40
0.5610038924864619
 40
0.6240567067431013
 40
0.687956878641255
 40
0.7514305409718408
 40
0.8132536737978634
 40
0.8737165550645357
 40
0.9362168520343638
 40
0.9999742179794226
 40
1.0
 40
1.0
 40
1.0
 40
1.0
 10
2866.022513147562
 20
621.4790217140463
 30
0.0
 10
2865.944075455773
 20
621.5136047382198
 30
0.0
 10
2865.788715479482
 20
621.5821026464722
 30
0.0
 10
2865.509251991501
 20
621.577264907913
 30
0.0
 10
2865.209860600085
 20
621.4974109354259
 30
0.0
 10
2864.896879919759
 20
621.335549592946
 30
0.0
 10
2864.579097973864
 20
621.0936998016598
 30
0.0
 10
2864.272545165485
 20
620.7806842392011
 30
0.0
 10
2863.995328147677
 20
620.4155647148417
 30
0.0
 10
2863.756656780871
 20
620.0161142455814
 30
0.0
 10
2863.562732755915
 20
619.5908309113304
 30
0.0
 10
2863.421621201389
 20
619.147090095663
 30
0.0
 10
2863.341548152918
 20
618.7033766219898
 30
0.0
 10
2863.327896755306
 20
618.2855729436722
 30
0.0
 10
2863.379048143019
 20
617.9146097992549
 30
0.0
 10
2863.489187027459
 20
617.5939446266032
 30
0.0
 10
2863.66727722225
 20
617.341537667597
 30
0.0
 10
2863.811659469019
 20
617.1944794965955
 30
0.0
 10
2863.90553040257
 20
617.1587547084474
 30
0.0
 10
2863.905568346485
 20
617.1587402679996
 30
0.0
  0
SPLINE
  5
87271
330
1F
100
AcDbEntity
  8
0
100
AcDbSpline
210
0.0
220
0.0
230
1.0
 70
     8
 71
     3
 72
    24
 73
    20
 74
     0
 42
0.0000000001
 43
0.0000000001
 40
0.0
 40
0.0
 40
0.0
 40
0.0
 40
0.0637315839244815
 40
0.1262318808943095
 40
0.1866947621609817
 40
0.2485178949870037
 40
0.3119915573175888
 40
0.3758917292157418
 40
0.4389445434723806
 40
0.499974217979421
 40
0.5610038924864619
 40
0.6240567067431011
 40
0.687956878641255
 40
0.7514305409718407
 40
0.8132536737978632
 40
0.8737165550645357
 40
0.9362168520343638
 40
0.9999742179794226
 40
1.0
 40
1.0
 40
1.0
 40
1.0
 10
2866.588198572511
 20
621.1524584693171
 30
0.0
 10
2866.509760880723
 20
621.1870414934907
 30
0.0
 10
2866.354400904431
 20
621.2555394017432
 30
0.0
 10
2866.07493741645
 20
621.250701663184
 30
0.0
 10
2865.775546025034
 20
621.1708476906968
 30
0.0
 10
2865.462565344708
 20
621.008986348217
 30
0.0
 10
2865.144783398813
 20
620.7671365569307
 30
0.0
 10
2864.838230590434
 20
620.454120994472
 30
0.0
 10
2864.561013572627
 20
620.0890014701126
 30
0.0
 10
2864.32234220582
 20
619.6895510008523
 30
0.0
 10
2864.128418180865
 20
619.2642676666014
 30
0.0
 10
2863.987306626339
 20
618.8205268509341
 30
0.0
 10
2863.907233577867
 20
618.3768133772608
 30
0.0
 10
2863.893582180256
 20
617.9590096989431
 30
0.0
 10
2863.944733567968
 20
617.5880465545258
 30
0.0
 10
2864.054872452407
 20
617.2673813818743
 30
0.0
 10
2864.2329626472
 20
617.0149744228678
 30
0.0
 10
2864.377344893968
 20
616.8679162518669
 30
0.0
 10
2864.47121582752
 20
616.8321914637183
 30
0.0
 10
2864.471253771434
 20
616.8321770232705
 30
0.0
  0
SPLINE
  5
87272
330
1F
100
AcDbEntity
  8
0
100
AcDbSpline
210
0.0
220
0.0
230
1.0
 70
     8
 71
     3
 72
    24
 73
    20
 74
     0
 42
0.0000000001
 43
0.0000000001
 40
0.0
 40
0.0
 40
0.0
 40
0.0
 40
0.0637315839244815
 40
0.1262318808943095
 40
0.1866947621609817
 40
0.2485178949870037
 40
0.3119915573175888
 40
0.3758917292157418
 40
0.4389445434723806
 40
0.499974217979421
 40
0.5610038924864619
 40
0.6240567067431011
 40
0.687956878641255
 40
0.7514305409718407
 40
0.8132536737978632
 40
0.8737165550645357
 40
0.9362168520343638
 40
0.9999742179794226
 40
1.0
 40
1.0
 40
1.0
 40
1.0
 10
2867.153883997461
 20
620.8258952245881
 30
0.0
 10
2867.075446305672
 20
620.8604782487616
 30
0.0
 10
2866.92008632938
 20
620.928976157014
 30
0.0
 10
2866.6406228414
 20
620.9241384184548
 30
0.0
 10
2866.341231449984
 20
620.8442844459677
 30
0.0
 10
2866.028250769657
 20
620.6824231034879
 30
0.0
 10
2865.710468823762
 20
620.4405733122016
 30
0.0
 10
2865.403916015384
 20
620.1275577497429
 30
0.0
 10
2865.126698997576
 20
619.7624382253835
 30
0.0
 10
2864.88802763077
 20
619.3629877561232
 30
0.0
 10
2864.694103605814
 20
618.9377044218723
 30
0.0
 10
2864.552992051288
 20
618.493963606205
 30
0.0
 10
2864.472919002816
 20
618.0502501325317
 30
0.0
 10
2864.459267605205
 20
617.632446454214
 30
0.0
 10
2864.510418992917
 20
617.2614833097967
 30
0.0
 10
2864.620557877357
 20
616.9408181371451
 30
0.0
 10
2864.798648072149
 20
616.6884111781388
 30
0.0
 10
2864.943030318917
 20
616.5413530071377
 30
0.0
 10
2865.036901252469
 20
616.5056282189892
 30
0.0
 10
2865.036939196383
 20
616.5056137785414
 30
0.0
  0
SPLINE
  5
87273
330
1F
100
AcDbEntity
  8
0
100
AcDbSpline
210
0.0
220
0.0
230
1.0
 70
     8
 71
     3
 72
    20
 73
    16
 74
     0
 42
0.0000000001
 43
0.0000000001
 40
0.0
 40
0.0
 40
0.0
 40
0.0
 40
0.0571042166354097
 40
0.1374970004231476
 40
0.2196984047598374
 40
0.3040943896195821
 40
0.3890574710306418
 40
0.4728938869861686
 40
0.5540402915982977
 40
0.635186696210428
 40
0.7190231121659556
 40
0.8039861935770161
 40
0.8883821784367619
 40
0.9705835827734523
 40
0.9999999999999998
 40
0.9999999999999998
 40
0.9999999999999998
 40
0.9999999999999998
 10
2867.389238847232
 20
620.584733977386
 30
0.0
 10
2867.327107219733
 20
620.5880496984014
 30
0.0
 10
2867.177505090225
 20
620.5960333766776
 30
0.0
 10
2866.906017788881
 20
620.5155617610863
 30
0.0
 10
2866.594186614803
 20
620.3564612289616
 30
0.0
 10
2866.27608561508
 20
620.1138456071721
 30
0.0
 10
2865.969620546695
 20
619.8010389495603
 30
0.0
 10
2865.692376191398
 20
619.4358604541363
 30
0.0
 10
2865.453727159329
 20
619.0364395073604
 30
0.0
 10
2865.259739912379
 20
618.6110947255603
 30
0.0
 10
2865.11886743108
 20
618.1675782057498
 30
0.0
 10
2865.037888037083
 20
617.7230166541191
 30
0.0
 10
2865.02757617896
 20
617.3083372233183
 30
0.0
 10
2865.058612629786
 20
617.0049957619263
 30
0.0
 10
2865.112297117083
 20
616.8637423796309
 30
0.0
 10
2865.126445442635
 20
616.8265156324138
 30
0.0
  0
ARC
  5
87274
330
1F
100
AcDbEntity
  8
0
100
AcDbCircle
 10
2860.250912915521
 20
622.039711773638
 30
0.0
 40
2.449196055796966
100
AcDbArc
 50
122.4930344565074
 51
177.5123420761909
  0
LWPOLYLINE
  5
87275
330
1F
100
AcDbEntity
  8
0
100
AcDbPolyline
 90
       29
 70
   128
 43
0.0
 10
2881.106730694232
 20
606.5343707771005
 10
2881.168087143732
 20
606.9020931891235
 10
2881.252256163988
 20
607.2762559396566
 10
2881.358698785965
 20
607.6544631099088
 10
2881.486733413544
 20
608.034292882998
 10
2881.635540188069
 20
608.4133130518448
 10
2881.804166238238
 20
608.7890965936006
 10
2881.991531781731
 20
609.1592372108785
 10
2882.196437039509
 20
609.5213647402699
 10
2882.417569918485
 20
609.8731603294811
 10
2882.653514413408
 20
610.212371285903
 10
2882.902759674124
 20
610.5368255015335
 10
2883.163709680177
 20
610.844445361883
 10
2883.434693460789
 20
611.1332610497992
 10
2883.713975794772
 20
611.4014231590203
 10
2883.999768321871
 20
611.6472145366881
 10
2884.290240994374
 20
611.8690612789881
 10
2884.583533795661
 20
612.0655428095061
 10
2884.877768650663
 20
612.2354009757658
 10
2885.17106145195
 20
612.3775481057002
 10
2885.461534124453
 20
612.4910739724652
 10
2885.747326651552
 20
612.5752516229982
 10
2886.026608985535
 20
612.629542032999
 10
2886.297592766147
 20
612.6535975585258
 10
2886.5585427722
 20
612.6472641621031
 10
2886.807788032917
 20
612.6105823990865
 10
2887.043732527839
 20
612.5437871579707
 10
2887.264865406816
 20
612.4473061563017
 10
2887.335258411351
 20
612.4085217581473
  0
ARC
  5
87276
330
1F
100
AcDbEntity
  8
0
100
AcDbCircle
 10
2883.37658810692
 20
605.3142499404757
 30
0.0
 40
2.280205640871812
100
AcDbArc
 50
185.4606960482132
 51
236.8849766685728
  0
ARC
  5
87277
330
1F
100
AcDbEntity
  8
0
100
AcDbCircle
 10
2867.275355745369
 20
615.4175619647263
 30
0.0
 40
2.186105353726727
100
AcDbArc
 50
173.9647812984743
 51
234.7230383081427
  0
LWPOLYLINE
  5
87278
330
1F
100
AcDbEntity
  8
0
100
AcDbPolyline
 90
       29
 70
   128
 43
0.0
 10
2870.412458026443
 20
621.254121394131
 10
2870.340494682234
 20
621.2930320768175
 10
2870.137490490766
 20
621.377367524749
 10
2869.920235356127
 20
621.4325780412472
 10
2869.690337759322
 20
621.4582548669643
 10
2869.449499781726
 20
621.4542078996664
 10
2869.199504503461
 20
621.4204671016834
 10
2868.942202802103
 20
621.3572822780788
 10
2868.679499649426
 20
621.26512122718
 10
2868.413340007662
 20
621.1446662771636
 10
2868.145694429676
 20
620.9968092343359
 10
2867.878544469688
 20
620.8226447805117
 10
2867.613868012533
 20
620.623462368372
 10
2867.353624630098
 20
620.4007366748088
 10
2867.099741073336
 20
620.156116682932
 10
2866.854097007274
 20
619.8914134735769
 10
2866.618511094635
 20
619.6085868166936
 10
2866.394727531091
 20
619.3097306618977
 10
2866.184403131852
 20
618.9970576355984
 10
2865.989095065184
 20
618.672882659488
 10
2865.810249323681
 20
618.3396058116708
 10
2865.649190018638
 20
617.9996945573245
 10
2865.507109576803
 20
617.6556654804521
 10
2865.385059912056
 20
617.3100656519733
 10
2865.283944637413
 20
616.9654537721036
 10
2865.204512374992
 20
616.6243812266324
 10
2865.147351213471
 20
616.2893731973555
 10
2865.112884354092
 20
615.9629099665129
 10
2865.101366977424
 20
615.6474085536461
  0
ENDSEC
  0
SECTION
  2
OBJECTS
  0
DICTIONARY
  5
C
330
0
100
AcDbDictionary
281
     1
  3
ACAD_COLOR
350
3F2
  3
ACAD_GROUP
350
D
  3
ACAD_LAYOUT
350
1A
  3
ACAD_MATERIAL
350
3F1
  3
ACAD_MLEADERSTYLE
350
12D6D
  3
ACAD_MLINESTYLE
350
17
  3
ACAD_PLOTSETTINGS
350
19
  3
ACAD_PLOTSTYLENAME
350
E
  3
ACAD_SCALELIST
350
12D4B
  3
ACAD_TABLESTYLE
350
12D49
  3
ACAD_VBA
350
13F35
  3
ACAD_VISUALSTYLE
350
12D38
  3
ACDB_RECOMPOSE_DATA
350
12DCF
  3
AcDbVariableDictionary
350
125BE
  3
ASE_INDEX_DICTIONARY
350
4D011
  3
lxx_dict
350
E28
  0
DICTIONARY
  5
12DD3
330
8
100
AcDbDictionary
280
     1
281
     1
  0
DICTIONARY
  5
7EA
330
2
100
AcDbDictionary
280
     1
281
     1
  3
ACAD_LAYERFILTERS
360
47712
  3
ACAD_LAYERSTATES
360
7EB
  3
ACLYDICTIONARY
360
47711
  0
DICTIONARY
  5
12D81
330
10
100
AcDbDictionary
280
     1
281
     1
  3
ADSK_XREC_LAYER_RECONCILED
360
12D82
  0
DICTIONARY
  5
12D8B
330
876E
100
AcDbDictionary
280
     1
281
     1
  3
ADSK_XREC_LAYER_RECONCILED
360
12D8C
  0
DICTIONARY
  5
12D8D
330
F6EE
100
AcDbDictionary
280
     1
281
     1
  3
ADSK_XREC_LAYER_RECONCILED
360
12D8E
  0
DICTIONARY
  5
1E3C0
330
1E3BF
100
AcDbDictionary
280
     1
281
     1
  0
DICTIONARY
  5
84715
330
84714
100
AcDbDictionary
280
     1
281
     1
  0
DICTIONARY
  5
863C7
330
47460
100
AcDbDictionary
280
     1
281
     1
  0
DICTIONARY
  5
87284
330
86333
100
AcDbDictionary
280
     1
281
     1
  3
ACAD_MTEXT_2008_RT
360
8729E
  0
DICTIONARY
  5
87286
330
86377
100
AcDbDictionary
280
     1
281
     1
  3
ACAD_MTEXT_2008_RT
360
8729F
  0
DICTIONARY
  5
87288
330
86378
100
AcDbDictionary
280
     1
281
     1
  3
ACAD_MTEXT_2008_RT
360
872A0
  0
DICTIONARY
  5
8728A
330
8639D
100
AcDbDictionary
280
     1
281
     1
  3
ACAD_MTEXT_2008_RT
360
872A1
  0
DICTIONARY
  5
8728C
330
863A0
100
AcDbDictionary
280
     1
281
     1
  3
ACAD_MTEXT_2008_RT
360
872A2
  0
DICTIONARY
  5
8728E
330
863A1
100
AcDbDictionary
280
     1
281
     1
  3
ACAD_MTEXT_2008_RT
360
872A3
  0
DICTIONARY
  5
87290
330
863AB
100
AcDbDictionary
280
     1
281
     1
  3
ACAD_MTEXT_2008_RT
360
872A4
  0
DICTIONARY
  5
87292
330
863AC
100
AcDbDictionary
280
     1
281
     1
  3
ACAD_MTEXT_2008_RT
360
872A5
  0
DICTIONARY
  5
87294
330
863AD
100
AcDbDictionary
280
     1
281
     1
  3
ACAD_MTEXT_2008_RT
360
872A6
  0
DICTIONARY
  5
87296
330
863BB
100
AcDbDictionary
280
     1
281
     1
  3
ACAD_MTEXT_2008_RT
360
872A7
  0
DICTIONARY
  5
87298
330
863BC
100
AcDbDictionary
280
     1
281
     1
  3
ACAD_MTEXT_2008_RT
360
872A8
  0
DICTIONARY
  5
8729A
330
863BD
100
AcDbDictionary
280
     1
281
     1
  3
ACAD_MTEXT_2008_RT
360
872A9
  0
DICTIONARY
  5
87282
330
81C01
100
AcDbDictionary
280
     1
281
     1
  3
ACAD_MTEXT_2008_RT
360
8729D
  0
DICTIONARY
  5
86EE1
330
86EE0
100
AcDbDictionary
280
     1
281
     1
  3
ACAD_DIMASSOC
360
86EE2
  0
DICTIONARY
  5
86EE4
330
86EE3
100
AcDbDictionary
280
     1
281
     1
  3
ACAD_DIMASSOC
360
86EE5
  0
DICTIONARY
  5
86EE8
330
86EE7
100
AcDbDictionary
280
     1
281
     1
  3
ACAD_DIMASSOC
360
86EE9
  0
DICTIONARY
  5
3F2
102
{ACAD_REACTORS
330
C
102
}
330
C
100
AcDbDictionary
281
     1
  0
DICTIONARY
  5
D
102
{ACAD_REACTORS
330
C
102
}
330
C
100
AcDbDictionary
281
     1
  0
DICTIONARY
  5
1A
102
{ACAD_REACTORS
330
C
102
}
330
C
100
AcDbDictionary
281
     1
  3
Layout1
350
1E
  3
Model
350
22
  0
DICTIONARY
  5
3F1
102
{ACAD_REACTORS
330
C
102
}
330
C
100
AcDbDictionary
281
     1
  3
ByBlock
350
12D30
  3
ByLayer
350
12D28
  3
Global
350
6897
  0
DICTIONARY
  5
12D6D
102
{ACAD_REACTORS
330
C
102
}
330
C
100
AcDbDictionary
281
     1
  3
Standard
350
12D6E
  0
DICTIONARY
  5
17
102
{ACAD_REACTORS
330
C
102
}
330
C
100
AcDbDictionary
281
     1
  3
Standard
350
18
  0
DICTIONARY
  5
19
102
{ACAD_REACTORS
330
C
102
}
330
C
100
AcDbDictionary
281
     1
  3
ISO A4 标题栏 (纵向) - 无输出设备
350
176E
  0
ACDBDICTIONARYWDFLT
  5
E
102
{ACAD_REACTORS
330
C
102
}
330
C
100
AcDbDictionary
281
     1
  3
Normal
350
F
100
AcDbDictionaryWithDefault
340
F
  0
DICTIONARY
  5
12D4B
102
{ACAD_REACTORS
330
C
102
}
330
C
100
AcDbDictionary
281
     1
  3
A0
350
12D4C
  3
A1
350
12D4D
  3
A2
350
12D4E
  3
A3
350
12D4F
  3
A4
350
12D50
  3
A5
350
12D51
  3
A6
350
12D52
  3
A7
350
12D53
  3
A8
350
12D54
  3
A9
350
12D55
  3
B0
350
12D56
  3
B1
350
12D57
  3
B2
350
12D58
  3
B3
350
12D59
  3
B4
350
12D5A
  3
B5
350
12D5B
  3
B6
350
12D5C
  3
B7
350
12D5D
  3
B8
350
12D5E
  3
B9
350
12D5F
  3
C0
350
12D60
  3
C1
350
12D61
  3
C2
350
12D62
  3
C3
350
12D63
  3
C4
350
12D64
  3
C5
350
12D65
  3
C6
350
12D66
  3
C7
350
12D67
  3
C8
350
12D68
  3
C9
350
12D69
  3
D0
350
12D6A
  3
D1
350
12D6B
  3
D2
350
12D6C
  0
DICTIONARY
  5
12D49
102
{ACAD_REACTORS
330
C
102
}
330
C
100
AcDbDictionary
281
     1
  3
Standard
350
12D4A
  0
DICTIONARY
  5
13F35
102
{ACAD_REACTORS
330
C
102
}
330
C
100
AcDbDictionary
281
     1
  3
VBAProject
350
13F36
  0
DICTIONARY
  5
12D38
102
{ACAD_REACTORS
330
C
102
}
330
C
100
AcDbDictionary
281
     1
  3
2dWireframe
350
12D3E
  3
3D Hidden
350
12D40
  3
3dWireframe
350
12D3F
  3
Basic
350
12D3D
  3
Brighten
350
12D44
  3
ColorChange
350
12D48
  3
Conceptual
350
12D41
  3
Dim
350
12D43
  3
Facepattern
350
12D47
  3
Flat
350
12D39
  3
FlatWithEdges
350
12D3A
  3
Gouraud
350
12D3B
  3
GouraudWithEdges
350
12D3C
  3
Linepattern
350
12D46
  3
Realistic
350
12D42
  3
Thicken
350
12D45
  3
Wireframe
350
1E3C4
  0
XRECORD
  5
12DCF
102
{ACAD_REACTORS
330
C
102
}
330
C
100
AcDbXrecord
280
     1
 90
        1
330
12D4A
330
81C01
330
86333
330
86377
330
86378
330
8639D
330
863A0
330
863A1
330
863AB
330
863AC
330
863AD
330
863BB
330
863BC
330
863BD
  0
DICTIONARY
  5
125BE
102
{ACAD_REACTORS
330
C
102
}
330
C
100
AcDbDictionary
281
     1
  3
CANNOSCALE
350
12DE7
  3
CMLEADERSTYLE
350
12DE6
  3
CTABLESTYLE
350
12DE5
  3
DIMASSOC
350
125BF
  3
INDEXCTL
350
13324
  3
LIGHTINGUNITS
350
12EB5
  3
MSLTSCALE
350
12EB4
  3
PROJECTNAME
350
125C0
  3
SORTENTS
350
13323
  0
DICTIONARY
  5
4D011
102
{ACAD_REACTORS
330
C
102
}
330
C
100
AcDbDictionary
281
     1
  3
ASEBlockHierarchyIndexRecord
350
4D012
1001
DCO15
1040
1903776529.214
  0
DICTIONARY
  5
E28
102
{ACAD_REACTORS
330
C
102
}
330
C
100
AcDbDictionary
281
     1
  3
lxx_dimth
350
E29
  0
DICTIONARY
  5
47712
102
{ACAD_REACTORS
330
7EA
102
}
330
7EA
100
AcDbDictionary
281
     1
  0
DICTIONARY
  5
7EB
102
{ACAD_REACTORS
330
7EA
102
}
330
7EA
100
AcDbDictionary
281
     1
  0
DICTIONARY
  5
47711
102
{ACAD_REACTORS
330
7EA
102
}
330
7EA
100
AcDbDictionary
281
     1
1001
ACAD
1000
<All
  0
XRECORD
  5
12D82
102
{ACAD_REACTORS
330
12D81
102
}
330
12D81
100
AcDbXrecord
280
     1
290
     1
  0
XRECORD
  5
12D8C
102
{ACAD_REACTORS
330
12D8B
102
}
330
12D8B
100
AcDbXrecord
280
     1
290
     1
  0
XRECORD
  5
12D8E
102
{ACAD_REACTORS
330
12D8D
102
}
330
12D8D
100
AcDbXrecord
280
     1
290
     1
  0
XRECORD
  5
8729E
102
{ACAD_REACTORS
330
87284
102
}
330
87284
100
AcDbXrecord
280
     1
 40
1445.0
  1
\pxqc;HZ LAN
  0
XRECORD
  5
8729F
102
{ACAD_REACTORS
330
87286
102
}
330
87286
100
AcDbXrecord
280
     1
 40
382080.0
  1
\pxqc;档案员{\H0.7x;\P\Fromans|c134;Filing Clerk\fFangSong_GB2312|b0|i0|c134|p49; }
  0
XRECORD
  5
872A0
102
{ACAD_REACTORS
330
87288
102
}
330
87288
100
AcDbXrecord
280
     1
 40
48245.0
  1
\pxqc;日期{\Fromans|c134;/Date}
  0
XRECORD
  5
872A1
102
{ACAD_REACTORS
330
8728A
102
}
330
8728A
100
AcDbXrecord
280
     1
 40
71634.0
  1
\pxsm0.7;{\fFangSong_GB2312|b0|i0|c134|p49;标准化}\PStand.
  0
XRECORD
  5
872A2
102
{ACAD_REACTORS
330
8728C
102
}
330
8728C
100
AcDbXrecord
280
     1
 40
48353.0
  1
\pxsm0.7;签名\P{\Fromans|c134;Signature} 
  0
XRECORD
  5
872A3
102
{ACAD_REACTORS
330
8728E
102
}
330
8728E
100
AcDbXrecord
280
     1
 40
38427.0
  1
\pxsm0.7,qc;处数\P{\Fromans|c134;Number }
  0
XRECORD
  5
872A4
102
{ACAD_REACTORS
330
87290
102
}
330
87290
100
AcDbXrecord
280
     1
 40
31190.0
  1
\pxsm0.7;标记\P{\Fromans|c134;Mark}
  0
XRECORD
  5
872A5
102
{ACAD_REACTORS
330
87292
102
}
330
87292
100
AcDbXrecord
280
     1
 40
39355.0
  1
\pxsm0.7;审核\P{\Fromans|c134;Checked}
  0
XRECORD
  5
872A6
102
{ACAD_REACTORS
330
87294
102
}
330
87294
100
AcDbXrecord
280
     1
 40
66730.0
  1
\pxsm0.7;绘图\P{\Fromans|c134;Drawn\Ftxt|c134; }
  0
XRECORD
  5
872A7
102
{ACAD_REACTORS
330
87296
102
}
330
87296
100
AcDbXrecord
280
     1
 40
43787.0
  1
\pxsm0.7;批准\P{\Fromans|c134;Approved}
  0
XRECORD
  5
872A8
102
{ACAD_REACTORS
330
87298
102
}
330
87298
100
AcDbXrecord
280
     1
 40
40691.0
  1
\pxsm0.7;工艺\P{\Fromans|c134;Process}
  0
XRECORD
  5
872A9
102
{ACAD_REACTORS
330
8729A
102
}
330
8729A
100
AcDbXrecord
280
     1
 40
30977.0
  1
\pxsm0.7;日期\P{\Fromans|c134;Date}
  0
XRECORD
  5
8729D
102
{ACAD_REACTORS
330
87282
102
}
330
87282
100
AcDbXrecord
280
     1
 40
1121821.0
  1
\A1;\pxql;{\H1.274x;技术参数：    \P- 材料: 铁\P- 表面处理: 镀镍\P \P\Fromans|c134;\H0.99999x;Technical specification:\P- Material: Iron\P- Surface: Nickel plated\P\H0.78495x;\P}  
  0
DIMASSOC
  5
86EE2
102
{ACAD_REACTORS
330
86EE1
102
}
330
86EE1
100
AcDbDimAssoc
330
86EE0
 90
        3
 70
     0
 71
     0
  1
AcDbOsnapPointRef
 72
     2
331
86ED6
 73
     2
 91
        0
 40
0.5
 10
0.0
 20
0.0
 30
0.0
 75
     0
  1
AcDbOsnapPointRef
 72
     1
331
86ED4
 73
     2
 91
        0
 40
1.0
 10
0.0
 20
0.0
 30
2.000000000000000E+50
 75
     0
  0
DIMASSOC
  5
86EE5
102
{ACAD_REACTORS
330
86EE4
102
}
330
86EE4
100
AcDbDimAssoc
330
86EE3
 90
        1
 70
     0
 71
     0
  1
AcDbOsnapPointRef
 72
     6
331
86EC7
 73
     2
 91
        0
 40
0.9999994751373254
 10
0.0
 20
0.0
 30
0.0
332
86EB7
 74
     2
 92
        0
 75
     0
  0
DIMASSOC
  5
86EE9
102
{ACAD_REACTORS
330
86EE8
102
}
330
86EE8
100
AcDbDimAssoc
330
86EE7
 90
        1
 70
     0
 71
     0
  1
AcDbOsnapPointRef
 72
    13
331
86ED4
 73
     2
 91
        0
 40
0.0
 10
0.0
 20
0.0
 30
2.000000000000000E+50
 75
     0
  0
LAYOUT
  5
1E
102
{ACAD_REACTORS
330
1A
102
}
330
1A
100
AcDbPlotSettings
  1

  2

  4

  6

 40
0.0
 41
0.0
 42
0.0
 43
0.0
 44
0.0
 45
0.0
 46
0.0
 47
0.0
 48
0.0
 49
0.0
140
0.0
141
0.0
142
1.0
143
1.0
 70
     0
 72
     0
 73
     0
 74
     0
  7

 75
     0
147
1.0
 76
     0
 77
     2
 78
   300
148
0.0
149
0.0
100
AcDbLayout
  1
Layout1
 70
     0
 71
     1
 10
0.0
 20
0.0
 11
12.0
 21
9.0
 12
0.0
 22
0.0
 32
0.0
 14
1.000000000000000E+20
 24
1.000000000000000E+20
 34
1.000000000000000E+20
 15
-1.000000000000000E+20
 25
-1.000000000000000E+20
 35
-1.000000000000000E+20
146
0.0
 13
0.0
 23
0.0
 33
0.0
 16
1.0
 26
0.0
 36
0.0
 17
0.0
 27
1.0
 37
0.0
 76
     0
330
1B
  0
LAYOUT
  5
22
102
{ACAD_REACTORS
330
1A
102
}
330
1A
100
AcDbPlotSettings
  1

  2
HP LaserJet P1007
  4
A4
  6

 40
4.519083499908447
 41
4.349743366241455
 42
4.561416625976558
 43
4.349761962890625
 44
210.0156707763672
 45
297.0106506347656
 46
0.9399999999999998
 47
0.0
 48
539.6520813660868
 49
389.7291651948218
140
673.7347763208747
141
583.9261819808298
142
1.0
143
0.6735674979895184
 70
 15028
 72
     1
 73
     0
 74
     4
  7
monochrome.ctb
 75
     0
147
1.484632205361489
 76
     1
 77
     2
 78
   300
148
-539.6520813660868
149
-389.7291651948218
100
AcDbLayout
  1
Model
 70
     0
 71
     0
 10
0.0
 20
0.0
 11
0.0
 21
0.0
 12
0.0
 22
0.0
 32
0.0
 14
0.0
 24
0.0
 34
0.0
 15
0.0
 25
0.0
 35
0.0
146
0.0
 13
0.0
 23
0.0
 33
0.0
 16
0.0
 26
0.0
 36
0.0
 17
0.0
 27
0.0
 37
0.0
 76
     0
330
1F
331
12D1D
  0
MATERIAL
  5
12D30
102
{ACAD_XDICTIONARY
360
12D31
102
}
102
{ACAD_REACTORS
330
3F1
102
}
330
3F1
100
AcDbMaterial
  1
ByBlock
 72
     0
 43
0.0008202099737533
 43
0.0
 43
0.0
 43
0.0
 43
0.0
 43
0.0008202099737533
 43
0.0
 43
0.0
 43
0.0
 43
0.0
 43
1.0
 43
0.0
 43
0.0
 43
0.0
 43
0.0
 43
1.0
 77
     0
 47
0.0008202099737533
 47
0.0
 47
0.0
 47
0.0
 47
0.0
 47
0.0008202099737533
 47
0.0
 47
0.0
 47
0.0
 47
0.0
 47
1.0
 47
0.0
 47
0.0
 47
0.0
 47
0.0
 47
1.0
171
     0
 49
0.0008202099737533
 49
0.0
 49
0.0
 49
0.0
 49
0.0
 49
0.0008202099737533
 49
0.0
 49
0.0
 49
0.0
 49
0.0
 49
1.0
 49
0.0
 49
0.0
 49
0.0
 49
0.0
 49
1.0
175
     0
142
0.0008202099737533
142
0.0
142
0.0
142
0.0
142
0.0
142
0.0008202099737533
142
0.0
142
0.0
142
0.0
142
0.0
142
1.0
142
0.0
142
0.0
142
0.0
142
0.0
142
1.0
179
     0
144
0.0008202099737533
144
0.0
144
0.0
144
0.0
144
0.0
144
0.0008202099737533
144
0.0
144
0.0
144
0.0
144
0.0
144
1.0
144
0.0
144
0.0
144
0.0
144
0.0
144
1.0
147
0.0008202099737533
147
0.0
147
0.0
147
0.0
147
0.0
147
0.0008202099737533
147
0.0
147
0.0
147
0.0
147
0.0
147
1.0
147
0.0
147
0.0
147
0.0
147
0.0
147
1.0
  0
MATERIAL
  5
12D28
102
{ACAD_XDICTIONARY
360
12D29
102
}
102
{ACAD_REACTORS
330
3F1
102
}
330
3F1
100
AcDbMaterial
  1
ByLayer
 72
     0
 43
0.0008202099737533
 43
0.0
 43
0.0
 43
0.0
 43
0.0
 43
0.0008202099737533
 43
0.0
 43
0.0
 43
0.0
 43
0.0
 43
1.0
 43
0.0
 43
0.0
 43
0.0
 43
0.0
 43
1.0
 77
     0
 47
0.0008202099737533
 47
0.0
 47
0.0
 47
0.0
 47
0.0
 47
0.0008202099737533
 47
0.0
 47
0.0
 47
0.0
 47
0.0
 47
1.0
 47
0.0
 47
0.0
 47
0.0
 47
0.0
 47
1.0
171
     0
 49
0.0008202099737533
 49
0.0
 49
0.0
 49
0.0
 49
0.0
 49
0.0008202099737533
 49
0.0
 49
0.0
 49
0.0
 49
0.0
 49
1.0
 49
0.0
 49
0.0
 49
0.0
 49
0.0
 49
1.0
175
     0
142
0.0008202099737533
142
0.0
142
0.0
142
0.0
142
0.0
142
0.0008202099737533
142
0.0
142
0.0
142
0.0
142
0.0
142
1.0
142
0.0
142
0.0
142
0.0
142
0.0
142
1.0
179
     0
144
0.0008202099737533
144
0.0
144
0.0
144
0.0
144
0.0
144
0.0008202099737533
144
0.0
144
0.0
144
0.0
144
0.0
144
1.0
144
0.0
144
0.0
144
0.0
144
0.0
144
1.0
147
0.0008202099737533
147
0.0
147
0.0
147
0.0
147
0.0
147
0.0008202099737533
147
0.0
147
0.0
147
0.0
147
0.0
147
1.0
147
0.0
147
0.0
147
0.0
147
0.0
147
1.0
  0
MATERIAL
  5
6897
102
{ACAD_XDICTIONARY
360
1E333
102
}
102
{ACAD_REACTORS
330
3F1
102
}
330
3F1
100
AcDbMaterial
  1
Global
 73
     1
 78
     1
172
     1
176
     1
270
     1
274
     1
  0
MLEADERSTYLE
  5
12D6E
102
{ACAD_REACTORS
330
12D6D
102
}
330
12D6D
100
AcDbMLeaderStyle
170
     2
171
     1
172
     0
 90
        2
 40
0.0
 41
0.0
173
     1
 91
-1056964608
340
14
 92
       -2
290
     1
 42
2.0
291
     1
 43
0.36
  3
Standard
 44
4.0
300

342
11
174
     1
178
     6
175
     1
176
     0
 93
-1056964608
 45
4.0
292
     0
297
     0
 46
4.0
 94
-1056964608
 47
1.0
 49
1.0
140
1.0
293
     1
141
0.0
294
     1
177
     0
142
1.0
295
     0
296
     0
143
0.125
1001
ACAD_MLEADERVER
1070
     2
  0
MLINESTYLE
  5
18
102
{ACAD_REACTORS
330
17
102
}
330
17
100
AcDbMlineStyle
  2
STANDARD
 70
     0
  3

 62
   256
 51
90.0
 52
90.0
 71
     2
 49
0.5
 62
   256
  6
BYLAYER
 49
-0.5
 62
   256
  6
BYLAYER
  0
PLOTSETTINGS
  5
176E
102
{ACAD_REACTORS
330
19
102
}
330
19
100
AcDbPlotSettings
  1
ISO A4 标题栏 (纵向) - 无输出设备
  2
None
  4
ISO_A4_(210.00_x_297.00_MM)
  6

 40
7.549999999999998
 41
20.05
 42
7.549999999999998
 43
20.05
 44
210.0
 45
297.0
 46
-7.559999999999996
 47
-20.06
 48
0.0
 49
0.0
140
0.0
141
0.0
142
1.0
143
1.0
 70
   692
 72
     1
 73
     0
 74
     1
  7

 75
    16
147
1.0
 76
     0
 77
     2
 78
   300
148
0.0128164049386896
149
0.0090630292066862
  0
ACDBPLACEHOLDER
  5
F
102
{ACAD_REACTORS
330
E
102
}
330
E
  0
SCALE
  5
12D4C
102
{ACAD_REACTORS
330
12D4B
102
}
330
12D4B
100
AcDbScale
 70
     0
300
1:1
140
1.0
141
1.0
290
     1
  0
SCALE
  5
12D4D
102
{ACAD_REACTORS
330
12D4B
102
}
330
12D4B
100
AcDbScale
 70
     0
300
1:2
140
1.0
141
2.0
290
     0
  0
SCALE
  5
12D4E
102
{ACAD_REACTORS
330
12D4B
102
}
330
12D4B
100
AcDbScale
 70
     0
300
1:4
140
1.0
141
4.0
290
     0
  0
SCALE
  5
12D4F
102
{ACAD_REACTORS
330
12D4B
102
}
330
12D4B
100
AcDbScale
 70
     0
300
1:5
140
1.0
141
5.0
290
     0
  0
SCALE
  5
12D50
102
{ACAD_REACTORS
330
12D4B
102
}
330
12D4B
100
AcDbScale
 70
     0
300
1:8
140
1.0
141
8.0
290
     0
  0
SCALE
  5
12D51
102
{ACAD_REACTORS
330
12D4B
102
}
330
12D4B
100
AcDbScale
 70
     0
300
1:10
140
1.0
141
10.0
290
     0
  0
SCALE
  5
12D52
102
{ACAD_REACTORS
330
12D4B
102
}
330
12D4B
100
AcDbScale
 70
     0
300
1:16
140
1.0
141
16.0
290
     0
  0
SCALE
  5
12D53
102
{ACAD_REACTORS
330
12D4B
102
}
330
12D4B
100
AcDbScale
 70
     0
300
1:20
140
1.0
141
20.0
290
     0
  0
SCALE
  5
12D54
102
{ACAD_REACTORS
330
12D4B
102
}
330
12D4B
100
AcDbScale
 70
     0
300
1:30
140
1.0
141
30.0
290
     0
  0
SCALE
  5
12D55
102
{ACAD_REACTORS
330
12D4B
102
}
330
12D4B
100
AcDbScale
 70
     0
300
1:40
140
1.0
141
40.0
290
     0
  0
SCALE
  5
12D56
102
{ACAD_REACTORS
330
12D4B
102
}
330
12D4B
100
AcDbScale
 70
     0
300
1:50
140
1.0
141
50.0
290
     0
  0
SCALE
  5
12D57
102
{ACAD_REACTORS
330
12D4B
102
}
330
12D4B
100
AcDbScale
 70
     0
300
1:100
140
1.0
141
100.0
290
     0
  0
SCALE
  5
12D58
102
{ACAD_REACTORS
330
12D4B
102
}
330
12D4B
100
AcDbScale
 70
     0
300
2:1
140
2.0
141
1.0
290
     0
  0
SCALE
  5
12D59
102
{ACAD_REACTORS
330
12D4B
102
}
330
12D4B
100
AcDbScale
 70
     0
300
4:1
140
4.0
141
1.0
290
     0
  0
SCALE
  5
12D5A
102
{ACAD_REACTORS
330
12D4B
102
}
330
12D4B
100
AcDbScale
 70
     0
300
8:1
140
8.0
141
1.0
290
     0
  0
SCALE
  5
12D5B
102
{ACAD_REACTORS
330
12D4B
102
}
330
12D4B
100
AcDbScale
 70
     0
300
10:1
140
10.0
141
1.0
290
     0
  0
SCALE
  5
12D5C
102
{ACAD_REACTORS
330
12D4B
102
}
330
12D4B
100
AcDbScale
 70
     0
300
100:1
140
100.0
141
1.0
290
     0
  0
SCALE
  5
12D5D
102
{ACAD_REACTORS
330
12D4B
102
}
330
12D4B
100
AcDbScale
 70
     0
300
1/128" = 1'-0"
140
0.0078125
141
12.0
290
     0
  0
SCALE
  5
12D5E
102
{ACAD_REACTORS
330
12D4B
102
}
330
12D4B
100
AcDbScale
 70
     0
300
1/64" = 1'-0"
140
0.015625
141
12.0
290
     0
  0
SCALE
  5
12D5F
102
{ACAD_REACTORS
330
12D4B
102
}
330
12D4B
100
AcDbScale
 70
     0
300
1/32" = 1'-0"
140
0.03125
141
12.0
290
     0
  0
SCALE
  5
12D60
102
{ACAD_REACTORS
330
12D4B
102
}
330
12D4B
100
AcDbScale
 70
     0
300
1/16" = 1'-0"
140
0.0625
141
12.0
290
     0
  0
SCALE
  5
12D61
102
{ACAD_REACTORS
330
12D4B
102
}
330
12D4B
100
AcDbScale
 70
     0
300
3/32" = 1'-0"
140
0.09375
141
12.0
290
     0
  0
SCALE
  5
12D62
102
{ACAD_REACTORS
330
12D4B
102
}
330
12D4B
100
AcDbScale
 70
     0
300
1/8" = 1'-0"
140
0.125
141
12.0
290
     0
  0
SCALE
  5
12D63
102
{ACAD_REACTORS
330
12D4B
102
}
330
12D4B
100
AcDbScale
 70
     0
300
3/16" = 1'-0"
140
0.1875
141
12.0
290
     0
  0
SCALE
  5
12D64
102
{ACAD_REACTORS
330
12D4B
102
}
330
12D4B
100
AcDbScale
 70
     0
300
1/4" = 1'-0"
140
0.25
141
12.0
290
     0
  0
SCALE
  5
12D65
102
{ACAD_REACTORS
330
12D4B
102
}
330
12D4B
100
AcDbScale
 70
     0
300
3/8" = 1'-0"
140
0.375
141
12.0
290
     0
  0
SCALE
  5
12D66
102
{ACAD_REACTORS
330
12D4B
102
}
330
12D4B
100
AcDbScale
 70
     0
300
1/2" = 1'-0"
140
0.5
141
12.0
290
     0
  0
SCALE
  5
12D67
102
{ACAD_REACTORS
330
12D4B
102
}
330
12D4B
100
AcDbScale
 70
     0
300
3/4" = 1'-0"
140
0.75
141
12.0
290
     0
  0
SCALE
  5
12D68
102
{ACAD_REACTORS
330
12D4B
102
}
330
12D4B
100
AcDbScale
 70
     0
300
1" = 1'-0"
140
1.0
141
12.0
290
     0
  0
SCALE
  5
12D69
102
{ACAD_REACTORS
330
12D4B
102
}
330
12D4B
100
AcDbScale
 70
     0
300
1-1/2" = 1'-0"
140
1.5
141
12.0
290
     0
  0
SCALE
  5
12D6A
102
{ACAD_REACTORS
330
12D4B
102
}
330
12D4B
100
AcDbScale
 70
     0
300
3" = 1'-0"
140
3.0
141
12.0
290
     0
  0
SCALE
  5
12D6B
102
{ACAD_REACTORS
330
12D4B
102
}
330
12D4B
100
AcDbScale
 70
     0
300
6" = 1'-0"
140
6.0
141
12.0
290
     0
  0
SCALE
  5
12D6C
102
{ACAD_REACTORS
330
12D4B
102
}
330
12D4B
100
AcDbScale
 70
     0
300
1'-0" = 1'-0"
140
12.0
141
12.0
290
     0
  0
TABLESTYLE
  5
12D4A
102
{ACAD_XDICTIONARY
360
12DCD
102
}
102
{ACAD_REACTORS
330
12D49
102
}
330
12D49
100
AcDbTableStyle
  3
Standard
 70
     0
 71
     0
 40
1.5
 41
1.5
280
     0
281
     0
  7
STANDARD
140
4.5
170
     2
 62
     0
 63
     7
283
     0
274
    -2
284
     1
 64
     0
275
    -2
285
     1
 65
     0
276
    -2
286
     1
 66
     0
277
    -2
287
     1
 67
     0
278
    -2
288
     1
 68
     0
279
    -2
289
     1
 69
     0
  7
STANDARD
140
6.0
170
     5
 62
     0
 63
     7
283
     0
274
    -2
284
     1
 64
     0
275
    -2
285
     1
 65
     0
276
    -2
286
     1
 66
     0
277
    -2
287
     1
 67
     0
278
    -2
288
     1
 68
     0
279
    -2
289
     1
 69
     0
  7
STANDARD
140
4.5
170
     5
 62
     0
 63
     7
283
     0
274
    -2
284
     1
 64
     0
275
    -2
285
     1
 65
     0
276
    -2
286
     1
 66
     0
277
    -2
287
     1
 67
     0
278
    -2
288
     1
 68
     0
279
    -2
289
     1
 69
     0
  0
VBA_PROJECT
  5
13F36
102
{ACAD_REACTORS
330
13F35
102
}
330
13F35
100
AcDbVbaProject
 90
     7168
310
D0CF11E0A1B11AE1000000000000000000000000000000003E000300FEFF0900060000000000000000000000010000000100000000000000001000000200000001000000FEFFFFFF0000000000000000FFFFFFFFFFFFFFFFFFFFFFFFFFFFFFFFFFFFFFFFFFFFFFFFFFFFFFFFFFFFFFFFFFFFFFFFFFFFFFFFFFFFFFFFFFFFFF
310
FFFFFFFFFFFFFFFFFFFFFFFFFFFFFFFFFFFFFFFFFFFFFFFFFFFFFFFFFFFFFFFFFFFFFFFFFFFFFFFFFFFFFFFFFFFFFFFFFFFFFFFFFFFFFFFFFFFFFFFFFFFFFFFFFFFFFFFFFFFFFFFFFFFFFFFFFFFFFFFFFFFFFFFFFFFFFFFFFFFFFFFFFFFFFFFFFFFFFFFFFFFFFFFFFFFFFFFFFFFFFFFFFFFFFFFFFFFFFFFFFFFFFFFFFFFFFF
310
FFFFFFFFFFFFFFFFFFFFFFFFFFFFFFFFFFFFFFFFFFFFFFFFFFFFFFFFFFFFFFFFFFFFFFFFFFFFFFFFFFFFFFFFFFFFFFFFFFFFFFFFFFFFFFFFFFFFFFFFFFFFFFFFFFFFFFFFFFFFFFFFFFFFFFFFFFFFFFFFFFFFFFFFFFFFFFFFFFFFFFFFFFFFFFFFFFFFFFFFFFFFFFFFFFFFFFFFFFFFFFFFFFFFFFFFFFFFFFFFFFFFFFFFFFFFFF
310
FFFFFFFFFFFFFFFFFFFFFFFFFFFFFFFFFFFFFFFFFFFFFFFFFFFFFFFFFFFFFFFFFFFFFFFFFFFFFFFFFFFFFFFFFFFFFFFFFFFFFFFFFFFFFFFFFFFFFFFFFFFFFFFFFFFFFFFFFFFFFFFFFFFFFFFFFFFFFFFFFFFFFFFFFFFFFFFFFFFFFFFFFFFFFFFFFFFFFFFFFFFFFFFFFFFFFFFFFFFFFFFFFFFFFFFFFFFFFFFFFFFFFFFFFFFFFF
310
FFFFFFFFFDFFFFFF04000000FEFFFFFF050000000C000000060000000700000008000000090000000A0000000B000000FEFFFFFFFEFFFFFFFFFFFFFFFFFFFFFFFFFFFFFFFFFFFFFFFFFFFFFFFFFFFFFFFFFFFFFFFFFFFFFFFFFFFFFFFFFFFFFFFFFFFFFFFFFFFFFFFFFFFFFFFFFFFFFFFFFFFFFFFFFFFFFFFFFFFFFFFFFFFF
310
FFFFFFFFFFFFFFFFFFFFFFFFFFFFFFFFFFFFFFFFFFFFFFFFFFFFFFFFFFFFFFFFFFFFFFFFFFFFFFFFFFFFFFFFFFFFFFFFFFFFFFFFFFFFFFFFFFFFFFFFFFFFFFFFFFFFFFFFFFFFFFFFFFFFFFFFFFFFFFFFFFFFFFFFFFFFFFFFFFFFFFFFFFFFFFFFFFFFFFFFFFFFFFFFFFFFFFFFFFFFFFFFFFFFFFFFFFFFFFFFFFFFFFFFFFFFFF
310
FFFFFFFFFFFFFFFFFFFFFFFFFFFFFFFFFFFFFFFFFFFFFFFFFFFFFFFFFFFFFFFFFFFFFFFFFFFFFFFFFFFFFFFFFFFFFFFFFFFFFFFFFFFFFFFFFFFFFFFFFFFFFFFFFFFFFFFFFFFFFFFFFFFFFFFFFFFFFFFFFFFFFFFFFFFFFFFFFFFFFFFFFFFFFFFFFFFFFFFFFFFFFFFFFFFFFFFFFFFFFFFFFFFFFFFFFFFFFFFFFFFFFFFFFFFFFF
310
FFFFFFFFFFFFFFFFFFFFFFFFFFFFFFFFFFFFFFFFFFFFFFFFFFFFFFFFFFFFFFFFFFFFFFFFFFFFFFFFFFFFFFFFFFFFFFFFFFFFFFFFFFFFFFFFFFFFFFFFFFFFFFFFFFFFFFFFFFFFFFFFFFFFFFFFFFFFFFFFFFFFFFFFFFFFFFFFFFFFFFFFFFFFFFFFFFFFFFFFFFFFFFFFFFFFFFFFFFFFFFFFFFFFFFFFFFFFFFFFFFFFFFFFFFFFFF
310
FFFFFFFFFFFFFFFF52006F006F007400200045006E00740072007900000000000000000000000000000000000000000000000000000000000000000000000000000000000000000016000500FFFFFFFFFFFFFFFF0100000000000000000000000000000000000000000000000000000000000000E0496441E24BD301030000
310
00800E0000000000005600420041005F00500072006F006A0065006300740000000000000000000000000000000000000000000000000000000000000000000000000000000000000018000101FFFFFFFF08000000060000000000000000000000000000000000000000000000E0496441E24BD301E0496441E24BD3010000
310
000000000000000000005600420041000000000000000000000000000000000000000000000000000000000000000000000000000000000000000000000000000000000000000000000008000100FFFFFFFFFFFFFFFF040000000000000000000000000000000000000000000000E0496441E24BD301E0496441E24BD30100
310
00000000000000000000006400690072000000000000000000000000000000000000000000000000000000000000000000000000000000000000000000000000000000000000000000000008000200FFFFFFFFFFFFFFFFFFFFFFFF000000000000000000000000000000000000000000000000000000000000000000000000
310
000000003C0100000000000001000000020000000300000004000000FEFFFFFF060000000700000008000000090000000A0000000B0000000C0000000D0000000E0000000F0000001000000011000000120000001300000014000000FEFFFFFF160000001700000018000000190000001A0000001B0000001C0000001D0000
310
001E0000001F000000200000002100000022000000230000002400000025000000260000002700000028000000290000002A0000002B0000002C0000002D0000002E0000002F0000003000000031000000FEFFFFFF3300000034000000350000003600000037000000FEFFFFFFFEFFFFFFFEFFFFFFFFFFFFFFFFFFFFFFFFFF
310
FFFFFFFFFFFFFFFFFFFFFFFFFFFFFFFFFFFFFFFFFFFFFFFFFFFFFFFFFFFFFFFFFFFFFFFFFFFFFFFFFFFFFFFFFFFFFFFFFFFFFFFFFFFFFFFFFFFFFFFFFFFFFFFFFFFFFFFFFFFFFFFFFFFFFFFFFFFFFFFFFFFFFFFFFFFFFFFFFFFFFFFFFFFFFFFFFFFFFFFFFFFFFFFFFFFFFFFFFFFFFFFFFFFFFFFFFFFFFFFFFFFFFFFFFFFFFF
310
FFFFFFFFFFFFFFFFFFFFFFFFFFFFFFFFFFFFFFFFFFFFFFFFFFFFFFFFFFFFFFFFFFFFFFFFFFFFFFFFFFFFFFFFFFFFFFFFFFFFFFFFFFFFFFFFFFFFFFFFFFFFFFFFFFFFFFFFFFFFFFFFFFFFFFFFFFFFFFFFFFFFFFFFFFFFFFFFFFFFFFFFFFFFFFFFFFFFFFFFFFFFFFFFFFFFFFFFFFFFFFFFFFFFFFFFFFFFFFFFFFFFFFFFFFFFFF
310
FFFFFFFFFFFFFFFFFFFFFFFFFFFFFFFF0138B1800100040000000100302A020290090070140648030082020064A80304000B001C004143414450726F6A10656374050038000040D5021406020A3D020A07027401140A080612090212AB6534582803000C024A3C020A16000101727374646F6C653E0102197300740064006F
310
00006C0065000D00680500255E00032A5C477B3000303032303433302D3B0008040443000A020E011230300034367D23322E3023003023433A5C57696E00646F77735C53797340574F5736345C036532002E746C62234F4C4500204175746F6D617458696F6E003000010F02740144001382035E6619027854006869734472
310
617769A06E67470016001354004A006900730044007200006100770069006E00A867001A0D163218161C002328000048820231828C25035800001E8204010A2C8240C654462282102B8202108202000000000116010000F0000000C4020000D400000000020000FFFFFFFFCB0200001F03000000000000010000005E66C646
310
0000FFFF2300000088000000B600FFFF010100000000FFFFFFFF00000000FFFFFFFFFFFF00000000000000000000000000000000000000000000000000000000000000000000000000000000000000000000000000000000000010000000030000000500000007000000FFFFFFFFFFFFFFFF010108000000FFFFFFFF780000
310
00080000000000000000000000000000000000005400680069007300440072006100770069006E006700000000000000000000000000000000000000000000000000000000000000000000000000000000000000180002010300000005000000FFFFFFFF000000000000000000000000000000000000000000000000000000
310
00000000000000000005000000E5030000000000005F005600420041005F00500052004F004A00450043005400000000000000000000000000000000000000000000000000000000000000000000000000000000001A000200FFFFFFFFFFFFFFFFFFFFFFFF0000000000000000000000000000000000000000000000000000
310
00000000000000000000150000002C07000000000000500052004F004A004500430054000000000000000000000000000000000000000000000000000000000000000000000000000000000000000000000000000000100002010200000007000000FFFFFFFF00000000000000000000000000000000000000000000000000
310
0000000000000000000000320000004901000000000000500052004F004A0045004300540077006D000000000000000000000000000000000000000000000000000000000000000000000000000000000000000000000014000200FFFFFFFFFFFFFFFFFFFFFFFF000000000000000000000000000000000000000000000000
310
0000000000000000000000003800000026000000000000000000000000000000000000000000FFFF000000004D450000FFFFFFFFFFFF00000000FFFF00000000FFFF010100000000DF00FFFF000000000C00FFFFFFFFFFFFFFFFFFFFFFFFFFFFFFFFFFFFFFFFFFFFFFFFFFFFFFFFFFFFFFFFFFFFFFFFFFFFFFFFFFFFFFFFFF
310
FFFFFFFFFFFFFFFFFFFFFFFFFFFFFFFFFFFFFFFFFFFFFFFFFFFFFFFFFFFFFFFFFFFFFFFFFFFFFFFFFFFFFFFFFFFFFFFFFFFFFFFFFFFFFFFFFFFFFFFFFFFFFFFFFFFFFFFFFFFFFFFFFFFFFFFFFFFFFFFFFFFFFF280000000200534CFFFFFFFF000001005310FFFFFFFF000001005394FFFFFFFF00000000023CFFFFFFFF0000
310
FFFF01010000000001004E0030007B00370041004100420042004200390035002D0037003900420045002D0034004300300046002D0038003000320034002D004500420036004100460032003700310032003300310043007D0000000000FFFFFFFF0101380000000280FEFFFFFFFFFF1000FFFF280000000201FFFF000000
310
0000000000FFFFFFFFFFFFFFFF000000001D00000025000000FFFFFFFF480000000000FFFF000001000000000000000000FFFFFFFFFFFFFFFFFFFFFFFF00000000FFFFFFFFFFFFFFFFFFFFFFFFFFFFFFFFFFFFFFFF00000000FFFFFFFFFFFFFFFFFFFFFFFFFFFFFFFFFFFFFFFF0000000000000000FFFFFFFFFFFFFFFF0000
310
0000FFFFFFFFFFFFFFFFFFFFFFFFFFFFFFFFFFFFFFFFFFFFFFFFFFFFFFFFFFFF000000000000DF000000000000000000000000000000000000000000000000000000000000000000000000000000000000000000000000000000000000000000000000FECA01000000FFFFFFFF010108000000FFFFFFFF78000000FFFFFFFF
310
000001BCB000417474726962757400652056425F4E616D0065203D2022546869007344726177696E6788220D0A0A88426173028800307B3741414242420039352D373942452D00344330462D38303200342D454236414632803731323331437D0D7C40476C6F62616C01CE5308706163019246616C7302650C644372656174
310
6104626C151F507265646548636C610006496400B0540472750D424578706F730265141C54656D706C61807465446572697602120192427573746F6D697A0304440332000000000000000000000000000000000000000000000000000000CC616D00000100FF0408000009040000A803010000000000000000000100030002
310
00FA002A005C0047007B00300030003000320030003400450046002D0030003000300030002D0030003000300030002D0043003000300030002D003000300030003000300030003000300030003000340036007D00230034002E00300023003900230043003A005C00500052004F004700520041007E0032005C0043004F00
310
4D004D004F004E007E0031005C004D004900430052004F0053007E0031005C005600420041005C0056004200410036005C0056004200450036002E0044004C004C002300560069007300750061006C00200042006100730069006300200046006F00720020004100700070006C00690063006100740069006F006E00730000
310
000000000000000000000016012A005C0047007B00380035003100410034003500360031002D0046003400450043002D0034003600330031002D0039004200300043002D004500370044004300340030003700350031003200430039007D00230031002E00300023003000230043003A005C00500072006F00670072006100
310
6D002000460069006C00650073002000280078003800360029005C0043006F006D006D006F006E002000460069006C00650073005C004100750074006F006400650073006B0020005300680061007200650064005C0061006300610078003100370065006E0075002E0074006C00620023004100750074006F004300410044
310
00200032003000300038002000540079007000650020004C00690062007200610072007900000000000000000000000000BC002A005C0047007B00300030003000320030003400330030002D0030003000300030002D0030003000300030002D0043003000300030002D003000300030003000300030003000300030003000
310
340036007D00230032002E00300023003000230043003A005C00570069006E0064006F00770073005C0053007900730057004F005700360034005C007300740064006F006C00650032002E0074006C00620023004F004C00450020004100750074006F006D006100740069006F006E00000000000000000000000000010002
310
0004000402000006020100080200000A0201000C02FFFFFFFFFFFF00000000FFFF0000AB6534580300FFFFFFFFFFFFFFFFFFFFFFFFFFFFFFFFFFFFFFFFFFFFFFFFFFFFFFFFFFFFFFFFFFFFFFFFFFFFFFFF0000FFFFFFFFFFFFFFFFFFFFFFFFFFFFFFFFFFFFFFFFFFFF01000000000000000000000000000000000000005E66
310
010016005400680069007300440072006100770069006E00670014003000330035006200630032003200630061006400FFFF110216005400680069007300440072006100770069006E006700FFFFC646000000000000000200000025030000FFFFFFFFFFFF010120020000FFFFFFFFFFFFFFFFFFFFFFFFFFFFFFFFFFFFFFFF
310
FFFFFFFFFFFFFFFFFFFFFFFFFFFFFFFFFFFFFFFFFFFFFFFFFFFFFFFFFFFFFFFFFFFFFFFFFFFFFFFFFFFFFFFFFFFFFFFFFFFFFFFFFFFFFFFFFFFFFFFFFFFFFFFFFFFFFFFFFFFFFFFFFFFFFFFFFFFFFFFFFFFFFFFFFFFFFFFFFFFFFFFFFFFFFFFFFFFFFFFFFFFFFFFFFFFFFFFFFFFFFFFFFFFFFFFFFFFFFFFFFFFFFFFFFFFFFF
310
FFFFFFFFFFFFFFFFFFFFFFFFFFFFFFFFFFFFFFFFFFFFFFFFFFFFFFFFFFFFFFFFFFFFFFFFFFFFFFFFFFFFFFFFFFFFFFFFFFFFFFFFFFFFFFFFFFFFFFFFFFFFFFFFFFFFFFFFFFFFFFFFFFFFFFFFFFFFFFFFFFFFFFFFFFFFFFFFFFFFFFFFFFFFFFFFFFFFFFFFFFFFFFFFFFFFFFFFFFFFFFFFFFFFFFFFFFFFFFFFFFFFFFFFFF0002
310
0000FFFFFFFFFFFFFFFFFFFFFFFFFFFFFFFFFFFFFFFFFFFFFFFFFFFFFFFFFFFFFFFFFFFFFFFFFFFFFFFFFFFFFFFFFFFFFFFFFFFFFFFFFFFFFFFFFFFFFFFFFFFFFFFFFFFFFFFFFFFFFFFFFFFFFFFFFFFFFFFFFFFFFFFFFFFFFFFFFFFFFFFFFFFFFFFFFFFFFFFFFFFFFFFFFFFFFFFFFFFFFFFFFFFFFFFFFFFFFFFFFFFFFFFFFF
310
FFFFFFFFFFFFFFFFFFFFFFFFFFFFFFFFFFFFFFFFFFFFFFFFFFFFFFFFFFFFFFFFFFFFFFFFFFFFFFFFFFFFFFFFFFFFFFFFFFFFFFFFFFFFFFFFFFFFFFFFFFFFFFFFFFFFFFFFFFFFFFFFFFFFFFFFFFFFFFFFFFFFFFFFFFFFFFFFFFFFFFFFFFFFFFFFFFFFFFFFFFFFFFFFFFFFFFFFFFFFFF4CECE056E7F4A64BA2A89AD218FD09AC
310
FFFFFFFF01000000FFFFFFFF600000008000000000000A010B00FF006025000007044175746F43414422F860000304564241F7E26000050457696E3136C17E6000050457696E3332077F600003044D6163B3B26000040456424136AD2360000B044143414450726F6A656374A6D4600006007374646F6C65936060000B0454
310
68697344726177696E67B935600009800000FF03FFFF5F4576616C7561746518D960000C0441636164446F63756D656E741B5A600002FFFF01013C000000FFFFFFFFFFFFFFFFFFFFFFFF0C02FFFFFFFF0E020200FFFF110200000400FFFFFFFFFFFF00020100FFFF02020000FFFFFFFFFFFFFFFFFFFFFFFFFFFF04000A0000
310
00010012000000000000000000000000000000000000000000000000000000000000000000000000000000000049443D227B38334446343830462D344546442D344335442D413545352D4138424330363634383235307D220D0A446F63756D656E743D5468697344726177696E672F264830303030303030300D0A4E616D65
310
3D224143414450726F6A656374220D0A48656C70436F6E7465787449443D2230220D0A56657273696F6E436F6D70617469626C6533323D22333933323232303030220D0A434D473D22313231303131334533413432334134323341343233413432220D0A4450423D2233463344334336443434423737304238373042383730
310
220D0A47433D223643364536463543423138384232383842323737220D0A0D0A5B486F737420457874656E64657220496E666F5D0D0A264830303030303030313D7B33383332443634302D434639302D313143462D384534332D3030413043393131303035417D3B5642453B264830303030303030300D0A00000000000000
310
0000000000000000000000000000000000000000000000000000000000000000000000000000000000000000000000005468697344726177696E67005400680069007300440072006100770069006E006700000000000000000000000000000000000000000000000000000000000000100000000300000004000000610063
310
00000000000000000000000000000000000000000000000000000000000000000000000000000000000000000000000000000000000000000000000000000000000000000000000000000000000000000000000000000000000000000000000000000000000000000000000000000000000000000000000000000000000000
310
00000000000000000000000000000000000000000000000000000000000000000000000000000000000000000000000000000000000000000000000000000000000000000000000000000000000000000000000000000000000000000000000000000000000000000000000000000000000000000000000000000000000000
310
00000000000000000000000000000000000000000000000000000000000000000000000000000000000000000000000000000000000000000000000000000000000000000000000000000000000000000000000000000000000000000000000000000000000000000000000000000000000000000000000000000000000000
310
000000000000000000000000000000000000000000000000000000000000000000000000000000000000000000000000000000005600420041005F00500072006F006A006500630074005F00560065007200730069006F006E00000000000000000000000000000000000000000000000000000028000200FFFFFFFFFFFFFF
310
FFFFFFFFFF0000000000000000000000000000000000000000000000000000000000000000000000003900000010000000000000000000000000000000000000000000000000000000000000000000000000000000000000000000000000000000000000000000000000000000000000000000000000000000FFFFFFFFFFFF
310
FFFFFFFFFFFF0000000000000000000000000000000000000000000000000000000000000000000000000000000000000000000000000000000000000000000000000000000000000000000000000000000000000000000000000000000000000000000000000000000000000000000000000000000000000000FFFFFFFFFF
310
FFFFFFFFFFFFFF0000000000000000000000000000000000000000000000000000000000000000000000000000000000000000000000000000000000000000000000000000000000000000000000000000000000000000000000000000000000000000000000000000000000000000000000000000000000000000FFFFFFFF
310
FFFFFFFFFFFFFFFF000000000000000000000000000000000000000000000000000000000000000000000000000000000000000000000000
  0
VISUALSTYLE
  5
12D3E
102
{ACAD_REACTORS
330
12D38
102
}
330
12D38
100
AcDbVisualStyle
  2
2dWireframe
 70
     4
 71
     0
 72
     2
 73
     0
 90
        0
 40
-0.6
 41
-30.0
 62
     5
 63
     7
 74
     1
 91
        4
 64
     7
 65
   257
 75
     1
175
     1
 42
1.0
 92
        0
 66
   257
 43
1.0
 76
     1
 77
     6
 78
     2
 67
     7
 79
     5
170
     0
171
     0
290
     0
174
     0
 93
        1
 44
0.0
173
     0
291
     0
 45
0.0
1001
ACAD
1000
AcDbSavedByObjectVersion
1070
     0
1000
AcDbSavedByObjectVersion
1070
     0
1000
AcDbSavedByObjectVersion
1070
     0
1000
AcDbSavedByObjectVersion
1070
     0
1000
AcDbSavedByObjectVersion
1070
     0
1000
AcDbSavedByObjectVersion
1070
     0
1000
AcDbSavedByObjectVersion
1070
     0
1000
AcDbSavedByObjectVersion
1070
     0
1000
AcDbSavedByObjectVersion
1070
     0
1000
AcDbSavedByObjectVersion
1070
     0
1000
AcDbSavedByObjectVersion
1070
     0
1000
AcDbSavedByObjectVersion
1070
     0
1000
AcDbSavedByObjectVersion
1070
     0
1000
AcDbSavedByObjectVersion
1070
     0
1000
AcDbSavedByObjectVersion
1070
     0
1000
AcDbSavedByObjectVersion
1070
     0
1000
AcDbSavedByObjectVersion
1070
     0
1000
AcDbSavedByObjectVersion
1070
     0
1000
AcDbSavedByObjectVersion
1070
     0
1000
AcDbSavedByObjectVersion
1070
     0
1000
AcDbSavedByObjectVersion
1070
     0
1000
AcDbSavedByObjectVersion
1070
     0
1000
AcDbSavedByObjectVersion
1070
     0
1000
AcDbSavedByObjectVersion
1070
     0
1000
AcDbSavedByObjectVersion
1070
     0
1000
AcDbSavedByObjectVersion
1070
     0
  0
VISUALSTYLE
  5
12D40
102
{ACAD_REACTORS
330
12D38
102
}
330
12D38
100
AcDbVisualStyle
  2
3D Hidden
 70
     6
 71
     1
 72
     2
 73
     2
 90
        0
 40
-0.6
 41
-30.0
 62
     5
 63
     7
 74
     2
 91
        2
 64
     7
 65
   257
 75
     2
175
     1
 42
40.0
 92
        0
 66
   257
 43
1.0
 76
     1
 77
     6
 78
     2
 67
     7
 79
     3
170
     0
171
     0
290
     0
174
     0
 93
        1
 44
0.0
173
     0
291
     0
 45
0.0
1001
ACAD
1000
AcDbSavedByObjectVersion
1070
     0
1000
AcDbSavedByObjectVersion
1070
     0
1000
AcDbSavedByObjectVersion
1070
     0
1000
AcDbSavedByObjectVersion
1070
     0
1000
AcDbSavedByObjectVersion
1070
     0
1000
AcDbSavedByObjectVersion
1070
     0
1000
AcDbSavedByObjectVersion
1070
     0
1000
AcDbSavedByObjectVersion
1070
     0
1000
AcDbSavedByObjectVersion
1070
     0
1000
AcDbSavedByObjectVersion
1070
     0
1000
AcDbSavedByObjectVersion
1070
     0
1000
AcDbSavedByObjectVersion
1070
     0
1000
AcDbSavedByObjectVersion
1070
     0
1000
AcDbSavedByObjectVersion
1070
     0
1000
AcDbSavedByObjectVersion
1070
     0
1000
AcDbSavedByObjectVersion
1070
     0
1000
AcDbSavedByObjectVersion
1070
     0
1000
AcDbSavedByObjectVersion
1070
     0
1000
AcDbSavedByObjectVersion
1070
     0
1000
AcDbSavedByObjectVersion
1070
     0
1000
AcDbSavedByObjectVersion
1070
     0
1000
AcDbSavedByObjectVersion
1070
     0
1000
AcDbSavedByObjectVersion
1070
     0
1000
AcDbSavedByObjectVersion
1070
     0
1000
AcDbSavedByObjectVersion
1070
     0
1000
AcDbSavedByObjectVersion
1070
     0
  0
VISUALSTYLE
  5
12D3F
102
{ACAD_REACTORS
330
12D38
102
}
330
12D38
100
AcDbVisualStyle
  2
3dWireframe
 70
     5
 71
     0
 72
     2
 73
     0
 90
        0
 40
-0.6
 41
-30.0
 62
     5
 63
     7
 74
     1
 91
        4
 64
     7
 65
   257
 75
     1
175
     1
 42
1.0
 92
        0
 66
   257
 43
1.0
 76
     1
 77
     6
 78
     2
 67
     7
 79
     5
170
     0
171
     0
290
     0
174
     0
 93
        1
 44
0.0
173
     0
291
     0
 45
0.0
1001
ACAD
1000
AcDbSavedByObjectVersion
1070
     0
1000
AcDbSavedByObjectVersion
1070
     0
1000
AcDbSavedByObjectVersion
1070
     0
1000
AcDbSavedByObjectVersion
1070
     0
1000
AcDbSavedByObjectVersion
1070
     0
1000
AcDbSavedByObjectVersion
1070
     0
1000
AcDbSavedByObjectVersion
1070
     0
1000
AcDbSavedByObjectVersion
1070
     0
1000
AcDbSavedByObjectVersion
1070
     0
1000
AcDbSavedByObjectVersion
1070
     0
1000
AcDbSavedByObjectVersion
1070
     0
1000
AcDbSavedByObjectVersion
1070
     0
1000
AcDbSavedByObjectVersion
1070
     0
1000
AcDbSavedByObjectVersion
1070
     0
1000
AcDbSavedByObjectVersion
1070
     0
1000
AcDbSavedByObjectVersion
1070
     0
1000
AcDbSavedByObjectVersion
1070
     0
1000
AcDbSavedByObjectVersion
1070
     0
1000
AcDbSavedByObjectVersion
1070
     0
1000
AcDbSavedByObjectVersion
1070
     0
1000
AcDbSavedByObjectVersion
1070
     0
1000
AcDbSavedByObjectVersion
1070
     0
1000
AcDbSavedByObjectVersion
1070
     0
1000
AcDbSavedByObjectVersion
1070
     0
1000
AcDbSavedByObjectVersion
1070
     0
1000
AcDbSavedByObjectVersion
1070
     0
  0
VISUALSTYLE
  5
12D3D
102
{ACAD_REACTORS
330
12D38
102
}
330
12D38
100
AcDbVisualStyle
  2
Basic
 70
     7
 71
     1
 72
     0
 73
     1
 90
        0
 40
-0.6
 41
-30.0
 62
     5
 63
     7
 74
     0
 91
        4
 64
     7
 65
   257
 75
     1
175
     1
 42
1.0
 92
        8
 66
     7
 43
1.0
 76
     1
 77
     6
 78
     2
 67
     7
 79
     5
170
     0
171
     0
290
     0
174
     0
 93
        1
 44
0.0
173
     0
291
     1
 45
0.0
1001
ACAD
1000
AcDbSavedByObjectVersion
1070
     0
1000
AcDbSavedByObjectVersion
1070
     0
1000
AcDbSavedByObjectVersion
1070
     0
1000
AcDbSavedByObjectVersion
1070
     0
1000
AcDbSavedByObjectVersion
1070
     0
1000
AcDbSavedByObjectVersion
1070
     0
1000
AcDbSavedByObjectVersion
1070
     0
1000
AcDbSavedByObjectVersion
1070
     0
1000
AcDbSavedByObjectVersion
1070
     0
1000
AcDbSavedByObjectVersion
1070
     0
1000
AcDbSavedByObjectVersion
1070
     0
1000
AcDbSavedByObjectVersion
1070
     0
1000
AcDbSavedByObjectVersion
1070
     0
1000
AcDbSavedByObjectVersion
1070
     0
1000
AcDbSavedByObjectVersion
1070
     0
1000
AcDbSavedByObjectVersion
1070
     0
1000
AcDbSavedByObjectVersion
1070
     0
1000
AcDbSavedByObjectVersion
1070
     0
1000
AcDbSavedByObjectVersion
1070
     0
1000
AcDbSavedByObjectVersion
1070
     0
1000
AcDbSavedByObjectVersion
1070
     0
1000
AcDbSavedByObjectVersion
1070
     0
1000
AcDbSavedByObjectVersion
1070
     0
1000
AcDbSavedByObjectVersion
1070
     0
1000
AcDbSavedByObjectVersion
1070
     0
1000
AcDbSavedByObjectVersion
1070
     0
  0
VISUALSTYLE
  5
12D44
102
{ACAD_REACTORS
330
12D38
102
}
330
12D38
100
AcDbVisualStyle
  2
Brighten
 70
    12
 71
     2
 72
     2
 73
     0
 90
        0
 40
-0.6
 41
-30.0
 62
     5
 63
     7
 74
     1
 91
        4
 64
     7
 65
   257
 75
     1
175
     1
 42
1.0
 92
        8
 66
     7
 43
1.0
 76
     1
 77
     6
 78
     2
 67
     7
 79
     5
170
     0
171
     0
290
     0
174
     0
 93
        1
 44
50.0
173
     0
291
     1
 45
0.0
1001
ACAD
1000
AcDbSavedByObjectVersion
1070
     0
1000
AcDbSavedByObjectVersion
1070
     0
1000
AcDbSavedByObjectVersion
1070
     0
1000
AcDbSavedByObjectVersion
1070
     0
1000
AcDbSavedByObjectVersion
1070
     0
1000
AcDbSavedByObjectVersion
1070
     0
1000
AcDbSavedByObjectVersion
1070
     0
1000
AcDbSavedByObjectVersion
1070
     0
1000
AcDbSavedByObjectVersion
1070
     0
1000
AcDbSavedByObjectVersion
1070
     0
1000
AcDbSavedByObjectVersion
1070
     0
1000
AcDbSavedByObjectVersion
1070
     0
1000
AcDbSavedByObjectVersion
1070
     0
1000
AcDbSavedByObjectVersion
1070
     0
1000
AcDbSavedByObjectVersion
1070
     0
1000
AcDbSavedByObjectVersion
1070
     0
1000
AcDbSavedByObjectVersion
1070
     0
1000
AcDbSavedByObjectVersion
1070
     0
1000
AcDbSavedByObjectVersion
1070
     0
1000
AcDbSavedByObjectVersion
1070
     0
1000
AcDbSavedByObjectVersion
1070
     0
1000
AcDbSavedByObjectVersion
1070
     0
1000
AcDbSavedByObjectVersion
1070
     0
1000
AcDbSavedByObjectVersion
1070
     0
1000
AcDbSavedByObjectVersion
1070
     0
1000
AcDbSavedByObjectVersion
1070
     0
  0
VISUALSTYLE
  5
12D48
102
{ACAD_REACTORS
330
12D38
102
}
330
12D38
100
AcDbVisualStyle
  2
ColorChange
 70
    16
 71
     2
 72
     2
 73
     3
 90
        0
 40
-0.6
 41
-30.0
 62
     5
 63
     8
 74
     1
 91
        4
 64
     7
 65
   257
 75
     1
175
     1
 42
1.0
 92
        8
 66
     8
 43
1.0
 76
     1
 77
     6
 78
     2
 67
     7
 79
     5
170
     0
171
     0
290
     0
174
     0
 93
        1
 44
0.0
173
     0
291
     1
 45
0.0
1001
ACAD
1000
AcDbSavedByObjectVersion
1070
     0
1000
AcDbSavedByObjectVersion
1070
     0
1000
AcDbSavedByObjectVersion
1070
     0
1000
AcDbSavedByObjectVersion
1070
     0
1000
AcDbSavedByObjectVersion
1070
     0
1000
AcDbSavedByObjectVersion
1070
     0
1000
AcDbSavedByObjectVersion
1070
     0
1000
AcDbSavedByObjectVersion
1070
     0
1000
AcDbSavedByObjectVersion
1070
     0
1000
AcDbSavedByObjectVersion
1070
     0
1000
AcDbSavedByObjectVersion
1070
     0
1000
AcDbSavedByObjectVersion
1070
     0
1000
AcDbSavedByObjectVersion
1070
     0
1000
AcDbSavedByObjectVersion
1070
     0
1000
AcDbSavedByObjectVersion
1070
     0
1000
AcDbSavedByObjectVersion
1070
     0
1000
AcDbSavedByObjectVersion
1070
     0
1000
AcDbSavedByObjectVersion
1070
     0
1000
AcDbSavedByObjectVersion
1070
     0
1000
AcDbSavedByObjectVersion
1070
     0
1000
AcDbSavedByObjectVersion
1070
     0
1000
AcDbSavedByObjectVersion
1070
     0
1000
AcDbSavedByObjectVersion
1070
     0
1000
AcDbSavedByObjectVersion
1070
     0
1000
AcDbSavedByObjectVersion
1070
     0
1000
AcDbSavedByObjectVersion
1070
     0
  0
VISUALSTYLE
  5
12D41
102
{ACAD_REACTORS
330
12D38
102
}
330
12D38
100
AcDbVisualStyle
  2
Conceptual
 70
     9
 71
     3
 72
     2
 73
     0
 90
        0
 40
-0.6
 41
-30.0
 62
     5
 63
     7
 74
     2
 91
        2
 64
     7
 65
   257
 75
     1
175
     1
 42
40.0
 92
        8
 66
     7
 43
1.0
 76
     1
 77
     6
 78
     2
 67
     7
 79
     3
170
     0
171
     0
290
     0
174
     0
 93
        1
 44
0.0
173
     0
291
     0
 45
0.0
1001
ACAD
1000
AcDbSavedByObjectVersion
1070
     0
1000
AcDbSavedByObjectVersion
1070
     0
1000
AcDbSavedByObjectVersion
1070
     0
1000
AcDbSavedByObjectVersion
1070
     0
1000
AcDbSavedByObjectVersion
1070
     0
1000
AcDbSavedByObjectVersion
1070
     0
1000
AcDbSavedByObjectVersion
1070
     0
1000
AcDbSavedByObjectVersion
1070
     0
1000
AcDbSavedByObjectVersion
1070
     0
1000
AcDbSavedByObjectVersion
1070
     0
1000
AcDbSavedByObjectVersion
1070
     0
1000
AcDbSavedByObjectVersion
1070
     0
1000
AcDbSavedByObjectVersion
1070
     0
1000
AcDbSavedByObjectVersion
1070
     0
1000
AcDbSavedByObjectVersion
1070
     0
1000
AcDbSavedByObjectVersion
1070
     0
1000
AcDbSavedByObjectVersion
1070
     0
1000
AcDbSavedByObjectVersion
1070
     0
1000
AcDbSavedByObjectVersion
1070
     0
1000
AcDbSavedByObjectVersion
1070
     0
1000
AcDbSavedByObjectVersion
1070
     0
1000
AcDbSavedByObjectVersion
1070
     0
1000
AcDbSavedByObjectVersion
1070
     0
1000
AcDbSavedByObjectVersion
1070
     0
1000
AcDbSavedByObjectVersion
1070
     0
1000
AcDbSavedByObjectVersion
1070
     0
  0
VISUALSTYLE
  5
12D43
102
{ACAD_REACTORS
330
12D38
102
}
330
12D38
100
AcDbVisualStyle
  2
Dim
 70
    11
 71
     2
 72
     2
 73
     0
 90
        0
 40
-0.6
 41
-30.0
 62
     5
 63
     7
 74
     1
 91
        4
 64
     7
 65
   257
 75
     1
175
     1
 42
1.0
 92
        8
 66
     7
 43
1.0
 76
     1
 77
     6
 78
     2
 67
     7
 79
     5
170
     0
171
     0
290
     0
174
     0
 93
        1
 44
-50.0
173
     0
291
     1
 45
0.0
1001
ACAD
1000
AcDbSavedByObjectVersion
1070
     0
1000
AcDbSavedByObjectVersion
1070
     0
1000
AcDbSavedByObjectVersion
1070
     0
1000
AcDbSavedByObjectVersion
1070
     0
1000
AcDbSavedByObjectVersion
1070
     0
1000
AcDbSavedByObjectVersion
1070
     0
1000
AcDbSavedByObjectVersion
1070
     0
1000
AcDbSavedByObjectVersion
1070
     0
1000
AcDbSavedByObjectVersion
1070
     0
1000
AcDbSavedByObjectVersion
1070
     0
1000
AcDbSavedByObjectVersion
1070
     0
1000
AcDbSavedByObjectVersion
1070
     0
1000
AcDbSavedByObjectVersion
1070
     0
1000
AcDbSavedByObjectVersion
1070
     0
1000
AcDbSavedByObjectVersion
1070
     0
1000
AcDbSavedByObjectVersion
1070
     0
1000
AcDbSavedByObjectVersion
1070
     0
1000
AcDbSavedByObjectVersion
1070
     0
1000
AcDbSavedByObjectVersion
1070
     0
1000
AcDbSavedByObjectVersion
1070
     0
1000
AcDbSavedByObjectVersion
1070
     0
1000
AcDbSavedByObjectVersion
1070
     0
1000
AcDbSavedByObjectVersion
1070
     0
1000
AcDbSavedByObjectVersion
1070
     0
1000
AcDbSavedByObjectVersion
1070
     0
1000
AcDbSavedByObjectVersion
1070
     0
  0
VISUALSTYLE
  5
12D47
102
{ACAD_REACTORS
330
12D38
102
}
330
12D38
100
AcDbVisualStyle
  2
Facepattern
 70
    15
 71
     2
 72
     2
 73
     0
 90
        0
 40
-0.6
 41
-30.0
 62
     5
 63
     7
 74
     1
 91
        4
 64
     7
 65
   257
 75
     1
175
     1
 42
1.0
 92
        8
 66
     7
 43
1.0
 76
     1
 77
     6
 78
     2
 67
     7
 79
     5
170
     0
171
     0
290
     0
174
     0
 93
        1
 44
0.0
173
     0
291
     1
 45
0.0
1001
ACAD
1000
AcDbSavedByObjectVersion
1070
     0
1000
AcDbSavedByObjectVersion
1070
     0
1000
AcDbSavedByObjectVersion
1070
     0
1000
AcDbSavedByObjectVersion
1070
     0
1000
AcDbSavedByObjectVersion
1070
     0
1000
AcDbSavedByObjectVersion
1070
     0
1000
AcDbSavedByObjectVersion
1070
     0
1000
AcDbSavedByObjectVersion
1070
     0
1000
AcDbSavedByObjectVersion
1070
     0
1000
AcDbSavedByObjectVersion
1070
     0
1000
AcDbSavedByObjectVersion
1070
     0
1000
AcDbSavedByObjectVersion
1070
     0
1000
AcDbSavedByObjectVersion
1070
     0
1000
AcDbSavedByObjectVersion
1070
     0
1000
AcDbSavedByObjectVersion
1070
     0
1000
AcDbSavedByObjectVersion
1070
     0
1000
AcDbSavedByObjectVersion
1070
     0
1000
AcDbSavedByObjectVersion
1070
     0
1000
AcDbSavedByObjectVersion
1070
     0
1000
AcDbSavedByObjectVersion
1070
     0
1000
AcDbSavedByObjectVersion
1070
     0
1000
AcDbSavedByObjectVersion
1070
     0
1000
AcDbSavedByObjectVersion
1070
     0
1000
AcDbSavedByObjectVersion
1070
     0
1000
AcDbSavedByObjectVersion
1070
     0
1000
AcDbSavedByObjectVersion
1070
     0
  0
VISUALSTYLE
  5
12D39
102
{ACAD_REACTORS
330
12D38
102
}
330
12D38
100
AcDbVisualStyle
  2
Flat
 70
     0
 71
     2
 72
     1
 73
     1
 90
        2
 40
-0.6
 41
30.0
 62
     5
 63
     7
 74
     0
 91
        4
 64
     7
 65
   257
 75
     1
175
     1
 42
1.0
 92
        8
 66
     7
 43
1.0
 76
     1
 77
     6
 78
     2
 67
     7
 79
     5
170
     0
171
     0
290
     0
174
     0
 93
       13
 44
0.0
173
     0
291
     1
 45
0.0
1001
ACAD
1000
AcDbSavedByObjectVersion
1070
     0
1000
AcDbSavedByObjectVersion
1070
     0
1000
AcDbSavedByObjectVersion
1070
     0
1000
AcDbSavedByObjectVersion
1070
     0
1000
AcDbSavedByObjectVersion
1070
     0
1000
AcDbSavedByObjectVersion
1070
     0
1000
AcDbSavedByObjectVersion
1070
     0
1000
AcDbSavedByObjectVersion
1070
     0
1000
AcDbSavedByObjectVersion
1070
     0
1000
AcDbSavedByObjectVersion
1070
     0
1000
AcDbSavedByObjectVersion
1070
     0
1000
AcDbSavedByObjectVersion
1070
     0
1000
AcDbSavedByObjectVersion
1070
     0
1000
AcDbSavedByObjectVersion
1070
     0
1000
AcDbSavedByObjectVersion
1070
     0
1000
AcDbSavedByObjectVersion
1070
     0
1000
AcDbSavedByObjectVersion
1070
     0
1000
AcDbSavedByObjectVersion
1070
     0
1000
AcDbSavedByObjectVersion
1070
     0
1000
AcDbSavedByObjectVersion
1070
     0
1000
AcDbSavedByObjectVersion
1070
     0
1000
AcDbSavedByObjectVersion
1070
     0
1000
AcDbSavedByObjectVersion
1070
     0
1000
AcDbSavedByObjectVersion
1070
     0
1000
AcDbSavedByObjectVersion
1070
     0
1000
AcDbSavedByObjectVersion
1070
     0
  0
VISUALSTYLE
  5
12D3A
102
{ACAD_REACTORS
330
12D38
102
}
330
12D38
100
AcDbVisualStyle
  2
FlatWithEdges
 70
     1
 71
     2
 72
     1
 73
     1
 90
        2
 40
-0.6
 41
30.0
 62
     5
 63
     7
 74
     1
 91
        4
 64
     7
 65
   257
 75
     1
175
     1
 42
1.0
 92
        0
 66
   257
 43
1.0
 76
     1
 77
     6
 78
     2
 67
     7
 79
     5
170
     0
171
     0
290
     0
174
     0
 93
       13
 44
0.0
173
     0
291
     1
 45
0.0
1001
ACAD
1000
AcDbSavedByObjectVersion
1070
     0
1000
AcDbSavedByObjectVersion
1070
     0
1000
AcDbSavedByObjectVersion
1070
     0
1000
AcDbSavedByObjectVersion
1070
     0
1000
AcDbSavedByObjectVersion
1070
     0
1000
AcDbSavedByObjectVersion
1070
     0
1000
AcDbSavedByObjectVersion
1070
     0
1000
AcDbSavedByObjectVersion
1070
     0
1000
AcDbSavedByObjectVersion
1070
     0
1000
AcDbSavedByObjectVersion
1070
     0
1000
AcDbSavedByObjectVersion
1070
     0
1000
AcDbSavedByObjectVersion
1070
     0
1000
AcDbSavedByObjectVersion
1070
     0
1000
AcDbSavedByObjectVersion
1070
     0
1000
AcDbSavedByObjectVersion
1070
     0
1000
AcDbSavedByObjectVersion
1070
     0
1000
AcDbSavedByObjectVersion
1070
     0
1000
AcDbSavedByObjectVersion
1070
     0
1000
AcDbSavedByObjectVersion
1070
     0
1000
AcDbSavedByObjectVersion
1070
     0
1000
AcDbSavedByObjectVersion
1070
     0
1000
AcDbSavedByObjectVersion
1070
     0
1000
AcDbSavedByObjectVersion
1070
     0
1000
AcDbSavedByObjectVersion
1070
     0
1000
AcDbSavedByObjectVersion
1070
     0
1000
AcDbSavedByObjectVersion
1070
     0
  0
VISUALSTYLE
  5
12D3B
102
{ACAD_REACTORS
330
12D38
102
}
330
12D38
100
AcDbVisualStyle
  2
Gouraud
 70
     2
 71
     2
 72
     2
 73
     1
 90
        2
 40
-0.6
 41
30.0
 62
     5
 63
     7
 74
     0
 91
        4
 64
     7
 65
   257
 75
     1
175
     1
 42
1.0
 92
        0
 66
     7
 43
1.0
 76
     1
 77
     6
 78
     2
 67
     7
 79
     5
170
     0
171
     0
290
     0
174
     0
 93
       13
 44
0.0
173
     0
291
     1
 45
0.0
1001
ACAD
1000
AcDbSavedByObjectVersion
1070
     0
1000
AcDbSavedByObjectVersion
1070
     0
1000
AcDbSavedByObjectVersion
1070
     0
1000
AcDbSavedByObjectVersion
1070
     0
1000
AcDbSavedByObjectVersion
1070
     0
1000
AcDbSavedByObjectVersion
1070
     0
1000
AcDbSavedByObjectVersion
1070
     0
1000
AcDbSavedByObjectVersion
1070
     0
1000
AcDbSavedByObjectVersion
1070
     0
1000
AcDbSavedByObjectVersion
1070
     0
1000
AcDbSavedByObjectVersion
1070
     0
1000
AcDbSavedByObjectVersion
1070
     0
1000
AcDbSavedByObjectVersion
1070
     0
1000
AcDbSavedByObjectVersion
1070
     0
1000
AcDbSavedByObjectVersion
1070
     0
1000
AcDbSavedByObjectVersion
1070
     0
1000
AcDbSavedByObjectVersion
1070
     0
1000
AcDbSavedByObjectVersion
1070
     0
1000
AcDbSavedByObjectVersion
1070
     0
1000
AcDbSavedByObjectVersion
1070
     0
1000
AcDbSavedByObjectVersion
1070
     0
1000
AcDbSavedByObjectVersion
1070
     0
1000
AcDbSavedByObjectVersion
1070
     0
1000
AcDbSavedByObjectVersion
1070
     0
1000
AcDbSavedByObjectVersion
1070
     0
1000
AcDbSavedByObjectVersion
1070
     0
  0
VISUALSTYLE
  5
12D3C
102
{ACAD_REACTORS
330
12D38
102
}
330
12D38
100
AcDbVisualStyle
  2
GouraudWithEdges
 70
     3
 71
     2
 72
     2
 73
     1
 90
        2
 40
-0.6
 41
30.0
 62
     5
 63
     7
 74
     1
 91
        4
 64
     7
 65
   257
 75
     1
175
     1
 42
1.0
 92
        0
 66
   257
 43
1.0
 76
     1
 77
     6
 78
     2
 67
     7
 79
     5
170
     0
171
     0
290
     0
174
     0
 93
       13
 44
0.0
173
     0
291
     1
 45
0.0
1001
ACAD
1000
AcDbSavedByObjectVersion
1070
     0
1000
AcDbSavedByObjectVersion
1070
     0
1000
AcDbSavedByObjectVersion
1070
     0
1000
AcDbSavedByObjectVersion
1070
     0
1000
AcDbSavedByObjectVersion
1070
     0
1000
AcDbSavedByObjectVersion
1070
     0
1000
AcDbSavedByObjectVersion
1070
     0
1000
AcDbSavedByObjectVersion
1070
     0
1000
AcDbSavedByObjectVersion
1070
     0
1000
AcDbSavedByObjectVersion
1070
     0
1000
AcDbSavedByObjectVersion
1070
     0
1000
AcDbSavedByObjectVersion
1070
     0
1000
AcDbSavedByObjectVersion
1070
     0
1000
AcDbSavedByObjectVersion
1070
     0
1000
AcDbSavedByObjectVersion
1070
     0
1000
AcDbSavedByObjectVersion
1070
     0
1000
AcDbSavedByObjectVersion
1070
     0
1000
AcDbSavedByObjectVersion
1070
     0
1000
AcDbSavedByObjectVersion
1070
     0
1000
AcDbSavedByObjectVersion
1070
     0
1000
AcDbSavedByObjectVersion
1070
     0
1000
AcDbSavedByObjectVersion
1070
     0
1000
AcDbSavedByObjectVersion
1070
     0
1000
AcDbSavedByObjectVersion
1070
     0
1000
AcDbSavedByObjectVersion
1070
     0
1000
AcDbSavedByObjectVersion
1070
     0
  0
VISUALSTYLE
  5
12D46
102
{ACAD_REACTORS
330
12D38
102
}
330
12D38
100
AcDbVisualStyle
  2
Linepattern
 70
    14
 71
     2
 72
     2
 73
     0
 90
        0
 40
-0.6
 41
-30.0
 62
     5
 63
     7
 74
     1
 91
        4
 64
     7
 65
   257
 75
     7
175
     7
 42
1.0
 92
        8
 66
     7
 43
1.0
 76
     1
 77
     6
 78
     2
 67
     7
 79
     5
170
     0
171
     0
290
     0
174
     0
 93
        1
 44
0.0
173
     0
291
     1
 45
0.0
1001
ACAD
1000
AcDbSavedByObjectVersion
1070
     0
1000
AcDbSavedByObjectVersion
1070
     0
1000
AcDbSavedByObjectVersion
1070
     0
1000
AcDbSavedByObjectVersion
1070
     0
1000
AcDbSavedByObjectVersion
1070
     0
1000
AcDbSavedByObjectVersion
1070
     0
1000
AcDbSavedByObjectVersion
1070
     0
1000
AcDbSavedByObjectVersion
1070
     0
1000
AcDbSavedByObjectVersion
1070
     0
1000
AcDbSavedByObjectVersion
1070
     0
1000
AcDbSavedByObjectVersion
1070
     0
1000
AcDbSavedByObjectVersion
1070
     0
1000
AcDbSavedByObjectVersion
1070
     0
1000
AcDbSavedByObjectVersion
1070
     0
1000
AcDbSavedByObjectVersion
1070
     0
1000
AcDbSavedByObjectVersion
1070
     0
1000
AcDbSavedByObjectVersion
1070
     0
1000
AcDbSavedByObjectVersion
1070
     0
1000
AcDbSavedByObjectVersion
1070
     0
1000
AcDbSavedByObjectVersion
1070
     0
1000
AcDbSavedByObjectVersion
1070
     0
1000
AcDbSavedByObjectVersion
1070
     0
1000
AcDbSavedByObjectVersion
1070
     0
1000
AcDbSavedByObjectVersion
1070
     0
1000
AcDbSavedByObjectVersion
1070
     0
1000
AcDbSavedByObjectVersion
1070
     0
  0
VISUALSTYLE
  5
12D42
102
{ACAD_REACTORS
330
12D38
102
}
330
12D38
100
AcDbVisualStyle
  2
Realistic
 70
     8
 71
     2
 72
     2
 73
     0
 90
        0
 40
-0.6
 41
-30.0
 62
     5
 63
     7
 74
     1
 91
        0
 64
     7
 65
   257
 75
     1
175
     1
 42
1.0
 92
        8
 66
     8
 43
1.0
 76
     1
 77
     6
 78
     2
 67
     7
 79
     5
170
     0
171
     0
290
     0
174
     0
 93
       13
 44
0.0
173
     0
291
     0
 45
0.0
1001
ACAD
1000
AcDbSavedByObjectVersion
1070
     0
1000
AcDbSavedByObjectVersion
1070
     0
1000
AcDbSavedByObjectVersion
1070
     0
1000
AcDbSavedByObjectVersion
1070
     0
1000
AcDbSavedByObjectVersion
1070
     0
1000
AcDbSavedByObjectVersion
1070
     0
1000
AcDbSavedByObjectVersion
1070
     0
1000
AcDbSavedByObjectVersion
1070
     0
1000
AcDbSavedByObjectVersion
1070
     0
1000
AcDbSavedByObjectVersion
1070
     0
1000
AcDbSavedByObjectVersion
1070
     0
1000
AcDbSavedByObjectVersion
1070
     0
1000
AcDbSavedByObjectVersion
1070
     0
1000
AcDbSavedByObjectVersion
1070
     0
1000
AcDbSavedByObjectVersion
1070
     0
1000
AcDbSavedByObjectVersion
1070
     0
1000
AcDbSavedByObjectVersion
1070
     0
1000
AcDbSavedByObjectVersion
1070
     0
1000
AcDbSavedByObjectVersion
1070
     0
1000
AcDbSavedByObjectVersion
1070
     0
1000
AcDbSavedByObjectVersion
1070
     0
1000
AcDbSavedByObjectVersion
1070
     0
1000
AcDbSavedByObjectVersion
1070
     0
1000
AcDbSavedByObjectVersion
1070
     0
1000
AcDbSavedByObjectVersion
1070
     0
1000
AcDbSavedByObjectVersion
1070
     0
  0
VISUALSTYLE
  5
12D45
102
{ACAD_REACTORS
330
12D38
102
}
330
12D38
100
AcDbVisualStyle
  2
Thicken
 70
    13
 71
     2
 72
     2
 73
     0
 90
        0
 40
-0.6
 41
-30.0
 62
     5
 63
     7
 74
     1
 91
        4
 64
     7
 65
   257
 75
     1
175
     1
 42
1.0
 92
       12
 66
     7
 43
1.0
 76
     1
 77
     6
 78
     2
 67
     7
 79
     5
170
     0
171
     0
290
     0
174
     0
 93
        1
 44
0.0
173
     0
291
     1
 45
0.0
1001
ACAD
1000
AcDbSavedByObjectVersion
1070
     0
1000
AcDbSavedByObjectVersion
1070
     0
1000
AcDbSavedByObjectVersion
1070
     0
1000
AcDbSavedByObjectVersion
1070
     0
1000
AcDbSavedByObjectVersion
1070
     0
1000
AcDbSavedByObjectVersion
1070
     0
1000
AcDbSavedByObjectVersion
1070
     0
1000
AcDbSavedByObjectVersion
1070
     0
1000
AcDbSavedByObjectVersion
1070
     0
1000
AcDbSavedByObjectVersion
1070
     0
1000
AcDbSavedByObjectVersion
1070
     0
1000
AcDbSavedByObjectVersion
1070
     0
1000
AcDbSavedByObjectVersion
1070
     0
1000
AcDbSavedByObjectVersion
1070
     0
1000
AcDbSavedByObjectVersion
1070
     0
1000
AcDbSavedByObjectVersion
1070
     0
1000
AcDbSavedByObjectVersion
1070
     0
1000
AcDbSavedByObjectVersion
1070
     0
1000
AcDbSavedByObjectVersion
1070
     0
1000
AcDbSavedByObjectVersion
1070
     0
1000
AcDbSavedByObjectVersion
1070
     0
1000
AcDbSavedByObjectVersion
1070
     0
1000
AcDbSavedByObjectVersion
1070
     0
1000
AcDbSavedByObjectVersion
1070
     0
1000
AcDbSavedByObjectVersion
1070
     0
1000
AcDbSavedByObjectVersion
1070
     0
  0
VISUALSTYLE
  5
1E3C4
102
{ACAD_XDICTIONARY
360
1E3C5
102
}
102
{ACAD_REACTORS
330
12D38
102
}
330
12D38
100
AcDbVisualStyle
  2
Wireframe
 70
     5
 71
     0
 72
     2
 73
     0
 90
        0
 40
-0.6
 41
-30.0
 62
     5
 63
     7
 74
     1
 91
        4
 64
     7
 65
   257
 75
     1
175
     1
 42
1.0
 92
        0
 66
   257
 43
1.0
 76
     1
 77
     6
 78
     2
 67
     7
 79
     3
170
     0
171
     0
290
     0
174
     0
 93
        1
 44
0.0
173
     0
291
     0
 45
0.0
1001
ACAD
1000
AcDbSavedByObjectVersion
1070
     0
1000
AcDbSavedByObjectVersion
1070
     0
1000
AcDbSavedByObjectVersion
1070
     0
1000
AcDbSavedByObjectVersion
1070
     0
1000
AcDbSavedByObjectVersion
1070
     0
1000
AcDbSavedByObjectVersion
1070
     0
1000
AcDbSavedByObjectVersion
1070
     0
1000
AcDbSavedByObjectVersion
1070
     0
1000
AcDbSavedByObjectVersion
1070
     0
1000
AcDbSavedByObjectVersion
1070
     0
1000
AcDbSavedByObjectVersion
1070
     0
1000
AcDbSavedByObjectVersion
1070
     0
1000
AcDbSavedByObjectVersion
1070
     0
1000
AcDbSavedByObjectVersion
1070
     0
1000
AcDbSavedByObjectVersion
1070
     0
1000
AcDbSavedByObjectVersion
1070
     0
1000
AcDbSavedByObjectVersion
1070
     0
1000
AcDbSavedByObjectVersion
1070
     0
1000
AcDbSavedByObjectVersion
1070
     0
1000
AcDbSavedByObjectVersion
1070
     0
1000
AcDbSavedByObjectVersion
1070
     0
1000
AcDbSavedByObjectVersion
1070
     0
1000
AcDbSavedByObjectVersion
1070
     0
1000
AcDbSavedByObjectVersion
1070
     0
1000
AcDbSavedByObjectVersion
1070
     0
  0
DICTIONARYVAR
  5
12DE7
102
{ACAD_REACTORS
330
125BE
102
}
330
125BE
100
DictionaryVariables
280
     0
  1
1:1
  0
DICTIONARYVAR
  5
12DE6
102
{ACAD_REACTORS
330
125BE
102
}
330
125BE
100
DictionaryVariables
280
     0
  1
STANDARD
  0
DICTIONARYVAR
  5
12DE5
102
{ACAD_REACTORS
330
125BE
102
}
330
125BE
100
DictionaryVariables
280
     0
  1
STANDARD
  0
DICTIONARYVAR
  5
125BF
102
{ACAD_REACTORS
330
125BE
102
}
330
125BE
100
DictionaryVariables
280
     0
  1
2
  0
DICTIONARYVAR
  5
13324
102
{ACAD_REACTORS
330
125BE
102
}
330
125BE
100
DictionaryVariables
280
     0
  1
0
  0
DICTIONARYVAR
  5
12EB5
102
{ACAD_REACTORS
330
125BE
102
}
330
125BE
100
DictionaryVariables
280
     0
  1
0
  0
DICTIONARYVAR
  5
12EB4
102
{ACAD_REACTORS
330
125BE
102
}
330
125BE
100
DictionaryVariables
280
     0
  1
0
  0
DICTIONARYVAR
  5
125C0
102
{ACAD_REACTORS
330
125BE
102
}
330
125BE
100
DictionaryVariables
280
     0
  1

  0
DICTIONARYVAR
  5
13323
102
{ACAD_REACTORS
330
125BE
102
}
330
125BE
100
DictionaryVariables
280
     0
  1
127
  0
XRECORD
  5
4D012
102
{ACAD_REACTORS
330
4D011
102
}
330
4D011
100
AcDbXrecord
280
     1
330
8AE2
330
8AE3
330
8AE4
330
8AE5
330
8AE6
330
8AE7
330
8AE8
330
8AE9
330
8AEA
330
4BB87
  0
VLO-VL
  5
E29
102
{ACAD_REACTORS
330
E28
102
}
330
E28
100
vlo_VL
 90
   -64512
 91
       12
 92
        1
 40
2.5
300
(&VLO-R . 0)
  0
DICTIONARY
  5
12D31
330
12D30
100
AcDbDictionary
280
     1
281
     1
  3
ACAD_XREC_ROUNDTRIP
360
1E336
  3
BUMPTILE
360
12D33
  3
DIFFUSETILE
360
12D32
  3
OPACITYTILE
360
12D36
  3
REFLECTIONTILE
360
12D35
  3
REFRACTIONTILE
360
12D37
  3
SPECULARTILE
360
12D34
  0
DICTIONARY
  5
12D29
330
12D28
100
AcDbDictionary
280
     1
281
     1
  3
ACAD_XREC_ROUNDTRIP
360
1E335
  3
BUMPTILE
360
12D2B
  3
DIFFUSETILE
360
12D2A
  3
OPACITYTILE
360
12D2E
  3
REFLECTIONTILE
360
12D2D
  3
REFRACTIONTILE
360
12D2F
  3
SPECULARTILE
360
12D2C
  0
DICTIONARY
  5
1E333
330
6897
100
AcDbDictionary
280
     1
281
     1
  3
ACAD_XREC_ROUNDTRIP
360
1E334
  0
DICTIONARY
  5
12DCD
330
12D4A
100
AcDbDictionary
280
     1
281
     1
  3
ACAD_ROUNDTRIP_2008_TABLESTYLE_CELLSTYLEMAP
360
87281
  3
ACAD_XREC_ROUNDTRIP
360
8729C
  0
DICTIONARY
  5
1E3C5
330
1E3C4
100
AcDbDictionary
280
     1
281
     1
  3
ACAD_XREC_ROUNDTRIP
360
1E3C6
  0
XRECORD
  5
1E336
102
{ACAD_REACTORS
330
12D31
102
}
330
12D31
100
AcDbXrecord
280
     1
102
MATERIAL
148
0.0
149
0.0
149
0.0
 93
        0
 94
      127
282
     0
 72
     0
 77
     0
171
     0
175
     0
179
     0
273
     0
  0
XRECORD
  5
12D33
102
{ACAD_REACTORS
330
12D31
102
}
330
12D31
100
AcDbXrecord
280
     1
270
     1
271
     1
  0
XRECORD
  5
12D32
102
{ACAD_REACTORS
330
12D31
102
}
330
12D31
100
AcDbXrecord
280
     1
270
     1
271
     1
  0
XRECORD
  5
12D36
102
{ACAD_REACTORS
330
12D31
102
}
330
12D31
100
AcDbXrecord
280
     1
270
     1
271
     1
  0
XRECORD
  5
12D35
102
{ACAD_REACTORS
330
12D31
102
}
330
12D31
100
AcDbXrecord
280
     1
270
     1
271
     1
  0
XRECORD
  5
12D37
102
{ACAD_REACTORS
330
12D31
102
}
330
12D31
100
AcDbXrecord
280
     1
270
     1
271
     1
  0
XRECORD
  5
12D34
102
{ACAD_REACTORS
330
12D31
102
}
330
12D31
100
AcDbXrecord
280
     1
270
     1
271
     1
  0
XRECORD
  5
1E335
102
{ACAD_REACTORS
330
12D29
102
}
330
12D29
100
AcDbXrecord
280
     1
102
MATERIAL
148
0.0
149
0.0
149
0.0
 93
        0
 94
      127
282
     0
 72
     0
 77
     0
171
     0
175
     0
179
     0
273
     0
  0
XRECORD
  5
12D2B
102
{ACAD_REACTORS
330
12D29
102
}
330
12D29
100
AcDbXrecord
280
     1
270
     1
271
     1
  0
XRECORD
  5
12D2A
102
{ACAD_REACTORS
330
12D29
102
}
330
12D29
100
AcDbXrecord
280
     1
270
     1
271
     1
  0
XRECORD
  5
12D2E
102
{ACAD_REACTORS
330
12D29
102
}
330
12D29
100
AcDbXrecord
280
     1
270
     1
271
     1
  0
XRECORD
  5
12D2D
102
{ACAD_REACTORS
330
12D29
102
}
330
12D29
100
AcDbXrecord
280
     1
270
     1
271
     1
  0
XRECORD
  5
12D2F
102
{ACAD_REACTORS
330
12D29
102
}
330
12D29
100
AcDbXrecord
280
     1
270
     1
271
     1
  0
XRECORD
  5
12D2C
102
{ACAD_REACTORS
330
12D29
102
}
330
12D29
100
AcDbXrecord
280
     1
270
     1
271
     1
  0
XRECORD
  5
1E334
102
{ACAD_REACTORS
330
1E333
102
}
330
1E333
100
AcDbXrecord
280
     1
102
MATERIAL
148
0.0
149
0.0
149
0.0
 93
        0
 94
      127
282
     0
 72
     1
 77
     1
171
     1
175
     1
179
     1
273
     0
  0
CELLSTYLEMAP
  5
87281
102
{ACAD_REACTORS
330
12DCD
102
}
330
12DCD
100
AcDbCellStyleMap
 90
        3
300
CELLSTYLE
  1
TABLEFORMAT_BEGIN
 90
        5
170
     1
 91
        0
 92
    32768
 62
   257
 93
        1
300
CONTENTFORMAT
  1
CONTENTFORMAT_BEGIN
 90
        0
 91
        0
 92
      512
 93
        0
300

 40
0.0
140
1.0
 94
        5
 62
     0
340
11
144
6.0
309
CONTENTFORMAT_END
171
     1
301
MARGIN
  1
CELLMARGIN_BEGIN
 40
1.5
 40
1.5
 40
1.5
 40
1.5
 40
0.18
 40
0.18
309
CELLMARGIN_END
 94
        6
 95
        1
302
GRIDFORMAT
  1
GRIDFORMAT_BEGIN
 90
        0
 91
        1
 62
     0
 92
       -2
340
0
 93
        0
 40
1.125
309
GRIDFORMAT_END
 95
        2
302
GRIDFORMAT
  1
GRIDFORMAT_BEGIN
 90
        0
 91
        1
 62
     0
 92
       -2
340
0
 93
        0
 40
1.125
309
GRIDFORMAT_END
 95
        4
302
GRIDFORMAT
  1
GRIDFORMAT_BEGIN
 90
        0
 91
        1
 62
     0
 92
       -2
340
0
 93
        0
 40
1.125
309
GRIDFORMAT_END
 95
        8
302
GRIDFORMAT
  1
GRIDFORMAT_BEGIN
 90
        0
 91
        1
 62
     0
 92
       -2
340
0
 93
        0
 40
1.125
309
GRIDFORMAT_END
 95
       16
302
GRIDFORMAT
  1
GRIDFORMAT_BEGIN
 90
        0
 91
        1
 62
     0
 92
       -2
340
0
 93
        0
 40
1.125
309
GRIDFORMAT_END
 95
       32
302
GRIDFORMAT
  1
GRIDFORMAT_BEGIN
 90
        0
 91
        1
 62
     0
 92
       -2
340
0
 93
        0
 40
1.125
309
GRIDFORMAT_END
309
TABLEFORMAT_END
  1
CELLSTYLE_BEGIN
 90
        1
 91
        1
300
_TITLE
309
CELLSTYLE_END
300
CELLSTYLE
  1
TABLEFORMAT_BEGIN
 90
        5
170
     1
 91
        0
 92
        0
 62
   257
 93
        1
300
CONTENTFORMAT
  1
CONTENTFORMAT_BEGIN
 90
        0
 91
        0
 92
      512
 93
        0
300

 40
0.0
140
1.0
 94
        5
 62
     0
340
11
144
4.5
309
CONTENTFORMAT_END
171
     1
301
MARGIN
  1
CELLMARGIN_BEGIN
 40
1.5
 40
1.5
 40
1.5
 40
1.5
 40
0.18
 40
0.18
309
CELLMARGIN_END
 94
        6
 95
        1
302
GRIDFORMAT
  1
GRIDFORMAT_BEGIN
 90
        0
 91
        1
 62
     0
 92
       -2
340
0
 93
        0
 40
1.125
309
GRIDFORMAT_END
 95
        2
302
GRIDFORMAT
  1
GRIDFORMAT_BEGIN
 90
        0
 91
        1
 62
     0
 92
       -2
340
0
 93
        0
 40
1.125
309
GRIDFORMAT_END
 95
        4
302
GRIDFORMAT
  1
GRIDFORMAT_BEGIN
 90
        0
 91
        1
 62
     0
 92
       -2
340
0
 93
        0
 40
1.125
309
GRIDFORMAT_END
 95
        8
302
GRIDFORMAT
  1
GRIDFORMAT_BEGIN
 90
        0
 91
        1
 62
     0
 92
       -2
340
0
 93
        0
 40
1.125
309
GRIDFORMAT_END
 95
       16
302
GRIDFORMAT
  1
GRIDFORMAT_BEGIN
 90
        0
 91
        1
 62
     0
 92
       -2
340
0
 93
        0
 40
1.125
309
GRIDFORMAT_END
 95
       32
302
GRIDFORMAT
  1
GRIDFORMAT_BEGIN
 90
        0
 91
        1
 62
     0
 92
       -2
340
0
 93
        0
 40
1.125
309
GRIDFORMAT_END
309
TABLEFORMAT_END
  1
CELLSTYLE_BEGIN
 90
        2
 91
        1
300
_HEADER
309
CELLSTYLE_END
300
CELLSTYLE
  1
TABLEFORMAT_BEGIN
 90
        5
170
     1
 91
        0
 92
        0
 62
   257
 93
        1
300
CONTENTFORMAT
  1
CONTENTFORMAT_BEGIN
 90
        0
 91
        0
 92
      512
 93
        0
300

 40
0.0
140
1.0
 94
        2
 62
     0
340
11
144
4.5
309
CONTENTFORMAT_END
171
     1
301
MARGIN
  1
CELLMARGIN_BEGIN
 40
1.5
 40
1.5
 40
1.5
 40
1.5
 40
0.18
 40
0.18
309
CELLMARGIN_END
 94
        6
 95
        1
302
GRIDFORMAT
  1
GRIDFORMAT_BEGIN
 90
        0
 91
        1
 62
     0
 92
       -2
340
0
 93
        0
 40
1.125
309
GRIDFORMAT_END
 95
        2
302
GRIDFORMAT
  1
GRIDFORMAT_BEGIN
 90
        0
 91
        1
 62
     0
 92
       -2
340
0
 93
        0
 40
1.125
309
GRIDFORMAT_END
 95
        4
302
GRIDFORMAT
  1
GRIDFORMAT_BEGIN
 90
        0
 91
        1
 62
     0
 92
       -2
340
0
 93
        0
 40
1.125
309
GRIDFORMAT_END
 95
        8
302
GRIDFORMAT
  1
GRIDFORMAT_BEGIN
 90
        0
 91
        1
 62
     0
 92
       -2
340
0
 93
        0
 40
1.125
309
GRIDFORMAT_END
 95
       16
302
GRIDFORMAT
  1
GRIDFORMAT_BEGIN
 90
        0
 91
        1
 62
     0
 92
       -2
340
0
 93
        0
 40
1.125
309
GRIDFORMAT_END
 95
       32
302
GRIDFORMAT
  1
GRIDFORMAT_BEGIN
 90
        0
 91
        1
 62
     0
 92
       -2
340
0
 93
        0
 40
1.125
309
GRIDFORMAT_END
309
TABLEFORMAT_END
  1
CELLSTYLE_BEGIN
 90
        3
 91
        2
300
_DATA
309
CELLSTYLE_END
  0
XRECORD
  5
8729C
102
{ACAD_REACTORS
330
12DCD
102
}
330
12DCD
100
AcDbXrecord
280
     1
102
ACAD_ROUNDTRIP_PRE2007_TABLESTYLE
 90
      512
 91
        0
  1

 92
      512
 93
        0
  2

 94
      512
 95
        0
  3

  0
XRECORD
  5
1E3C6
102
{ACAD_REACTORS
330
1E3C5
102
}
330
1E3C5
100
AcDbXrecord
280
     1
102
RTVSPropertyOp0
 70
     1
102
RTVSPropertyOp1
 70
     1
102
RTVSPropertyOp2
 70
     1
102
RTVSPropertyOp3
 70
     1
102
RTVSPropertyOp4
 70
     1
102
RTVSPropertyOp5
 70
     1
102
RTVSPropertyOp6
 70
     1
102
RTVSPropertyOp7
 70
     1
102
RTVSPropertyOp8
 70
     1
102
RTVSPropertyOp9
 70
     1
102
RTVSPropertyOp10
 70
     1
102
RTVSPropertyOp11
 70
     1
102
RTVSPropertyOp12
 70
     1
102
RTVSPropertyOp13
 70
     1
102
RTVSPropertyOp14
 70
     1
102
RTVSPropertyOp15
 70
     1
102
RTVSPropertyOp16
 70
     1
102
RTVSPropertyOp17
 70
     1
102
RTVSPropertyOp18
 70
     1
102
RTVSPropertyOp19
 70
     1
102
RTVSPropertyOp20
 70
     1
102
RTVSPropertyOp21
 70
     1
102
RTVSPropertyOp22
 70
     1
102
RTVSPropertyOp23
 70
     1
102
RTVSPropertyOp24
 70
     1
102
RTVSPropertyOp25
 70
     1
102
RTVSPropertyOp26
 70
     1
102
RTVSPropertyOp27
 70
     1
102
RTVSPropertyOp28
 70
     1
102
RTVSPropertyOp29
 70
     1
102
RTVSPropertyOp30
 70
     1
102
RTVSPropertyOp31
 70
     1
102
RTVSPropertyOp32
 70
     1
  0
ENDSEC
  0
EOF
