  0
SECTION
  2
HEADER
  9
$ACADVER
  1
AC1021
  9
$ACADMAINTVER
 70
    25
  9
$DWGCODEPAGE
  3
ANSI_936
  9
$LASTSAVEDBY
  1
yp.zhu
  9
$INSBASE
 10
0.0
 20
0.0
 30
0.0
  9
$EXTMIN
 10
460.6786082154463
 20
209.9231617638111
 30
-0.0015258207003583
  9
$EXTMAX
 10
609.2762625495366
 20
314.9743031953121
 30
0.0000000349246037
  9
$LIMMIN
 10
0.0
 20
0.0
  9
$LIMMAX
 10
12.0
 20
9.0
  9
$ORTHOMODE
 70
     0
  9
$REGENMODE
 70
     1
  9
$FILLMODE
 70
     1
  9
$QTEXTMODE
 70
     0
  9
$MIRRTEXT
 70
     1
  9
$LTSCALE
 40
1.0
  9
$ATTMODE
 70
     1
  9
$TEXTSIZE
 40
0.2
  9
$TRACEWID
 40
0.05
  9
$TEXTSTYLE
  7
Standard
  9
$CLAYER
  8
DIM
  9
$CELTYPE
  6
ByLayer
  9
$CECOLOR
 62
   256
  9
$CELTSCALE
 40
1.0
  9
$DISPSILH
 70
     0
  9
$DIMSCALE
 40
1.0
  9
$DIMASZ
 40
2.0
  9
$DIMEXO
 40
0.2
  9
$DIMDLI
 40
0.2
  9
$DIMRND
 40
0.0
  9
$DIMDLE
 40
0.0
  9
$DIMEXE
 40
1.199999999999999
  9
$DIMTP
 40
0.0
  9
$DIMTM
 40
0.0
  9
$DIMTXT
 40
2.5
  9
$DIMCEN
 40
0.0
  9
$DIMTSZ
 40
0.0
  9
$DIMTOL
 70
     0
  9
$DIMLIM
 70
     0
  9
$DIMTIH
 70
     0
  9
$DIMTOH
 70
     0
  9
$DIMSE1
 70
     0
  9
$DIMSE2
 70
     0
  9
$DIMTAD
 70
     1
  9
$DIMZIN
 70
     8
  9
$DIMBLK
  1

  9
$DIMASO
 70
     1
  9
$DIMSHO
 70
     1
  9
$DIMPOST
  1

  9
$DIMAPOST
  1

  9
$DIMALT
 70
     0
  9
$DIMALTD
 70
     2
  9
$DIMALTF
 40
25.4
  9
$DIMLFAC
 40
1.0
  9
$DIMTOFL
 70
     0
  9
$DIMTVP
 40
0.0
  9
$DIMTIX
 70
     0
  9
$DIMSOXD
 70
     0
  9
$DIMSAH
 70
     0
  9
$DIMBLK1
  1

  9
$DIMBLK2
  1

  9
$DIMSTYLE
  2
01
  9
$DIMCLRD
 70
     1
  9
$DIMCLRE
 70
     6
  9
$DIMCLRT
 70
     4
  9
$DIMTFAC
 40
1.0
  9
$DIMGAP
 40
0.8
  9
$DIMJUST
 70
     0
  9
$DIMSD1
 70
     0
  9
$DIMSD2
 70
     0
  9
$DIMTOLJ
 70
     1
  9
$DIMTZIN
 70
     0
  9
$DIMALTZ
 70
     0
  9
$DIMALTTZ
 70
     0
  9
$DIMUPT
 70
     0
  9
$DIMDEC
 70
     1
  9
$DIMTDEC
 70
     1
  9
$DIMALTU
 70
     2
  9
$DIMALTTD
 70
     2
  9
$DIMTXSTY
  7
Romans字体
  9
$DIMAUNIT
 70
     0
  9
$DIMADEC
 70
     2
  9
$DIMALTRND
 40
0.0
  9
$DIMAZIN
 70
     2
  9
$DIMDSEP
 70
    46
  9
$DIMATFIT
 70
     3
  9
$DIMFRAC
 70
     0
  9
$DIMLDRBLK
  1

  9
$DIMLUNIT
 70
     2
  9
$DIMLWD
 70
    -2
  9
$DIMLWE
 70
    -2
  9
$DIMTMOVE
 70
     0
  9
$DIMFXL
 40
1.0
  9
$DIMFXLON
 70
     0
  9
$DIMJOGANG
 40
0.7853981633974483
  9
$DIMTFILL
 70
     0
  9
$DIMTFILLCLR
 70
     0
  9
$DIMARCSYM
 70
     0
  9
$DIMLTYPE
  6

  9
$DIMLTEX1
  6

  9
$DIMLTEX2
  6

  9
$LUNITS
 70
     2
  9
$LUPREC
 70
     4
  9
$SKETCHINC
 40
0.1
  9
$FILLETRAD
 40
0.5
  9
$AUNITS
 70
     0
  9
$AUPREC
 70
     0
  9
$MENU
  1
.
  9
$ELEVATION
 40
0.0
  9
$PELEVATION
 40
0.0
  9
$THICKNESS
 40
0.0
  9
$LIMCHECK
 70
     0
  9
$CHAMFERA
 40
0.5
  9
$CHAMFERB
 40
0.5
  9
$CHAMFERC
 40
1.0
  9
$CHAMFERD
 40
0.0
  9
$SKPOLY
 70
     0
  9
$TDCREATE
 40
2456524.383632987
  9
$TDUCREATE
 40
2456524.050299653
  9
$TDUPDATE
 40
2460322.658755498
  9
$TDUUPDATE
 40
2460322.325422165
  9
$TDINDWG
 40
0.9609405093
  9
$TDUSRTIMER
 40
0.9609145486
  9
$USRTIMER
 70
     1
  9
$ANGBASE
 50
0.0
  9
$ANGDIR
 70
     0
  9
$PDMODE
 70
     0
  9
$PDSIZE
 40
0.0
  9
$PLINEWID
 40
0.0
  9
$SPLFRAME
 70
     0
  9
$SPLINETYPE
 70
     6
  9
$SPLINESEGS
 70
     8
  9
$HANDSEED
  5
1BBD2
  9
$SURFTAB1
 70
     6
  9
$SURFTAB2
 70
     6
  9
$SURFTYPE
 70
     6
  9
$SURFU
 70
     6
  9
$SURFV
 70
     6
  9
$UCSBASE
  2

  9
$UCSNAME
  2

  9
$UCSORG
 10
0.0
 20
0.0
 30
0.0
  9
$UCSXDIR
 10
1.0
 20
0.0
 30
0.0
  9
$UCSYDIR
 10
0.0
 20
1.0
 30
0.0
  9
$UCSORTHOREF
  2

  9
$UCSORTHOVIEW
 70
     0
  9
$UCSORGTOP
 10
0.0
 20
0.0
 30
0.0
  9
$UCSORGBOTTOM
 10
0.0
 20
0.0
 30
0.0
  9
$UCSORGLEFT
 10
0.0
 20
0.0
 30
0.0
  9
$UCSORGRIGHT
 10
0.0
 20
0.0
 30
0.0
  9
$UCSORGFRONT
 10
0.0
 20
0.0
 30
0.0
  9
$UCSORGBACK
 10
0.0
 20
0.0
 30
0.0
  9
$PUCSBASE
  2

  9
$PUCSNAME
  2

  9
$PUCSORG
 10
0.0
 20
0.0
 30
0.0
  9
$PUCSXDIR
 10
1.0
 20
0.0
 30
0.0
  9
$PUCSYDIR
 10
0.0
 20
1.0
 30
0.0
  9
$PUCSORTHOREF
  2

  9
$PUCSORTHOVIEW
 70
     0
  9
$PUCSORGTOP
 10
0.0
 20
0.0
 30
0.0
  9
$PUCSORGBOTTOM
 10
0.0
 20
0.0
 30
0.0
  9
$PUCSORGLEFT
 10
0.0
 20
0.0
 30
0.0
  9
$PUCSORGRIGHT
 10
0.0
 20
0.0
 30
0.0
  9
$PUCSORGFRONT
 10
0.0
 20
0.0
 30
0.0
  9
$PUCSORGBACK
 10
0.0
 20
0.0
 30
0.0
  9
$USERI1
 70
     0
  9
$USERI2
 70
     0
  9
$USERI3
 70
     0
  9
$USERI4
 70
     0
  9
$USERI5
 70
     0
  9
$USERR1
 40
0.0
  9
$USERR2
 40
0.0
  9
$USERR3
 40
0.0
  9
$USERR4
 40
0.0
  9
$USERR5
 40
2.5
  9
$WORLDVIEW
 70
     1
  9
$SHADEDGE
 70
     3
  9
$SHADEDIF
 70
    70
  9
$TILEMODE
 70
     1
  9
$MAXACTVP
 70
    64
  9
$PINSBASE
 10
0.0
 20
0.0
 30
0.0
  9
$PLIMCHECK
 70
     0
  9
$PEXTMIN
 10
1.000000000000000E+20
 20
1.000000000000000E+20
 30
1.000000000000000E+20
  9
$PEXTMAX
 10
-1.000000000000000E+20
 20
-1.000000000000000E+20
 30
-1.000000000000000E+20
  9
$PLIMMIN
 10
0.0
 20
0.0
  9
$PLIMMAX
 10
12.0
 20
9.0
  9
$UNITMODE
 70
     0
  9
$VISRETAIN
 70
     1
  9
$PLINEGEN
 70
     0
  9
$PSLTSCALE
 70
     1
  9
$TREEDEPTH
 70
  3020
  9
$CMLSTYLE
  2
Standard
  9
$CMLJUST
 70
     0
  9
$CMLSCALE
 40
1.0
  9
$PROXYGRAPHICS
 70
     1
  9
$MEASUREMENT
 70
     0
  9
$CELWEIGHT
370
    -1
  9
$ENDCAPS
280
     0
  9
$JOINSTYLE
280
     0
  9
$LWDISPLAY
290
     0
  9
$INSUNITS
 70
     4
  9
$HYPERLINKBASE
  1

  9
$STYLESHEET
  1
monochrome.ctb
  9
$XEDIT
290
     1
  9
$CEPSNTYPE
380
     0
  9
$PSTYLEMODE
290
     1
  9
$FINGERPRINTGUID
  2
{4A02065B-8BB3-4A96-9036-502DC906C165}
  9
$VERSIONGUID
  2
{A8B72AE1-42F5-4DEE-9CA0-30D3E8762796}
  9
$EXTNAMES
290
     1
  9
$PSVPSCALE
 40
0.0
  9
$OLESTARTUP
290
     0
  9
$SORTENTS
280
   127
  9
$INDEXCTL
280
     0
  9
$HIDETEXT
280
     0
  9
$XCLIPFRAME
290
     0
  9
$HALOGAP
280
     0
  9
$OBSCOLOR
 70
   257
  9
$OBSLTYPE
280
     0
  9
$INTERSECTIONDISPLAY
280
     0
  9
$INTERSECTIONCOLOR
 70
   257
  9
$DIMASSOC
280
     1
  9
$PROJECTNAME
  1

  9
$CAMERADISPLAY
290
     0
  9
$LENSLENGTH
 40
50.0
  9
$CAMERAHEIGHT
 40
0.0
  9
$STEPSPERSEC
 40
2.0
  9
$STEPSIZE
 40
6.0
  9
$3DDWFPREC
 40
2.0
  9
$PSOLWIDTH
 40
0.25
  9
$PSOLHEIGHT
 40
4.0
  9
$LOFTANG1
 40
1.570796326794896
  9
$LOFTANG2
 40
1.570796326794896
  9
$LOFTMAG1
 40
0.0
  9
$LOFTMAG2
 40
0.0
  9
$LOFTPARAM
 70
     7
  9
$LOFTNORMALS
280
     1
  9
$LATITUDE
 40
37.795
  9
$LONGITUDE
 40
-122.394
  9
$NORTHDIRECTION
 40
0.0
  9
$TIMEZONE
 70
 -8000
  9
$LIGHTGLYPHDISPLAY
280
     1
  9
$TILEMODELIGHTSYNCH
280
     1
  9
$CMATERIAL
347
4FE6
  9
$SOLIDHIST
280
     1
  9
$SHOWHIST
280
     1
  9
$DWFFRAME
280
     2
  9
$DGNFRAME
280
     0
  9
$REALWORLDSCALE
290
     1
  9
$INTERFERECOLOR
 62
     1
  9
$INTERFEREOBJVS
345
33
  9
$INTERFEREVPVS
346
30
  9
$CSHADOW
280
     0
  9
$SHADOWPLANELOCATION
 40
0.0
  0
ENDSEC
  0
SECTION
  2
CLASSES
  0
CLASS
  1
ACDBDICTIONARYWDFLT
  2
AcDbDictionaryWithDefault
  3
ObjectDBX Classes
 90
        0
 91
        1
280
     0
281
     0
  0
CLASS
  1
VISUALSTYLE
  2
AcDbVisualStyle
  3
ObjectDBX Classes
 90
     4095
 91
       16
280
     0
281
     0
  0
CLASS
  1
MATERIAL
  2
AcDbMaterial
  3
ObjectDBX Classes
 90
     1153
 91
        3
280
     0
281
     0
  0
CLASS
  1
TABLESTYLE
  2
AcDbTableStyle
  3
ObjectDBX Classes
 90
     4095
 91
        1
280
     0
281
     0
  0
CLASS
  1
SCALE
  2
AcDbScale
  3
ObjectDBX Classes
 90
     1153
 91
       33
280
     0
281
     0
  0
CLASS
  1
MLEADERSTYLE
  2
AcDbMLeaderStyle
  3
ACDB_MLEADERSTYLE_CLASS
 90
     4095
 91
        1
280
     0
281
     0
  0
CLASS
  1
CELLSTYLEMAP
  2
AcDbCellStyleMap
  3
ObjectDBX Classes
 90
     1152
 91
        3
280
     0
281
     0
  0
CLASS
  1
DICTIONARYVAR
  2
AcDbDictionaryVar
  3
ObjectDBX Classes
 90
        0
 91
        8
280
     0
281
     0
  0
CLASS
  1
SORTENTSTABLE
  2
AcDbSortentsTable
  3
ObjectDBX Classes
 90
        0
 91
        1
280
     0
281
     0
  0
CLASS
  1
ACAD_EVALUATION_GRAPH
  2
AcDbEvalGraph
  3
ObjectDBX Classes
 90
     1153
 91
        1
280
     0
281
     0
  0
CLASS
  1
ACAECUSTOBJ
  2
AcAeEditorObj
  3
AcAeEditorObj
 90
     1024
 91
        1
280
     0
281
     0
  0
CLASS
  1
ACDB_DYNAMICBLOCKPURGEPREVENTER_VERSION
  2
AcDbDynamicBlockPurgePreventer
  3
ObjectDBX Classes
 90
     1153
 91
        1
280
     0
281
     0
  0
CLASS
  1
MENTALRAYRENDERSETTINGS
  2
AcDbMentalRayRenderSettings
  3
SCENEOE
 90
     1024
 91
        1
280
     0
281
     0
  0
CLASS
  1
ACDB_BLOCKREPRESENTATION_DATA
  2
AcDbBlockRepresentationData
  3
ObjectDBX Classes
 90
     1153
 91
        0
280
     0
281
     0
  0
CLASS
  1
DIMASSOC
  2
AcDbDimAssoc
  3
"AcDbDimAssoc|Product Desc:     AcDim ARX App For Dimension|Company:          Autodesk, Inc.|WEB Address:      www.autodesk.com"
 90
        0
 91
        3
280
     0
281
     0
  0
CLASS
  1
VLO-VL
  2
vlo_VL
  3
VL|AutoLISP based application
 90
      129
 91
        1
280
     0
281
     0
  0
ENDSEC
  0
SECTION
  2
TABLES
  0
TABLE
  2
VPORT
  5
8
102
{ACAD_XDICTIONARY
360
50EE
102
}
330
0
100
AcDbSymbolTable
 70
     1
  0
VPORT
  5
29
330
8
100
AcDbSymbolTableRecord
100
AcDbViewportTableRecord
  2
*Active
 70
     0
 10
0.0
 20
0.0
 11
1.0
 21
1.0
 12
430.0119385105828
 22
113.9465017109638
 13
0.0
 23
0.0
 14
0.5
 24
0.5
 15
0.5
 25
0.5
 16
0.0
 26
0.0
 36
1.0
 17
104.9654968719086
 27
148.5022307685978
 37
0.0
 40
105.8133020706655
 41
2.203389830508474
 42
50.0
 43
0.0
 44
0.0
 50
0.0
 51
0.0
 71
     0
 72
   100
 73
     1
 74
     3
 75
     0
 76
     0
 77
     0
 78
     0
281
     0
 65
     1
110
0.0
120
0.0
130
0.0
111
1.0
121
0.0
131
0.0
112
0.0
122
1.0
132
0.0
 79
     0
146
0.0
348
2F
 60
     3
 61
     5
292
     1
282
     1
141
0.0
142
0.0
 63
   250
421
  3355443
  0
ENDTAB
  0
TABLE
  2
LTYPE
  5
5
330
0
100
AcDbSymbolTable
 70
     2
  0
LTYPE
  5
14
330
5
100
AcDbSymbolTableRecord
100
AcDbLinetypeTableRecord
  2
ByBlock
 70
     0
  3

 72
    65
 73
     0
 40
0.0
  0
LTYPE
  5
15
330
5
100
AcDbSymbolTableRecord
100
AcDbLinetypeTableRecord
  2
ByLayer
 70
     0
  3

 72
    65
 73
     0
 40
0.0
  0
LTYPE
  5
16
330
5
100
AcDbSymbolTableRecord
100
AcDbLinetypeTableRecord
  2
Continuous
 70
     0
  3
Solid line
 72
    65
 73
     0
 40
0.0
  0
LTYPE
  5
67BA
330
5
100
AcDbSymbolTableRecord
100
AcDbLinetypeTableRecord
  2
CENTER
 70
     0
  3
Center ____ _ ____ _ ____ _ ____ _ ____ _ ____
 72
    65
 73
     4
 40
2.0
 49
1.25
 74
     0
 49
-0.25
 74
     0
 49
0.25
 74
     0
 49
-0.25
 74
     0
  0
ENDTAB
  0
TABLE
  2
LAYER
  5
2
102
{ACAD_XDICTIONARY
360
50B8
102
}
330
0
100
AcDbSymbolTable
 70
     9
  0
LAYER
  5
10
102
{ACAD_XDICTIONARY
360
50D0
102
}
330
2
100
AcDbSymbolTableRecord
100
AcDbLayerTableRecord
  2
0
 70
     0
 62
     7
  6
Continuous
370
    30
390
F
347
4FF6
  0
LAYER
  5
3B
102
{ACAD_XDICTIONARY
360
50D2
102
}
330
2
100
AcDbSymbolTableRecord
100
AcDbLayerTableRecord
  2
图层 1
 70
     0
 62
     7
  6
Continuous
370
    -3
390
F
347
4FF6
  0
LAYER
  5
50AE
102
{ACAD_XDICTIONARY
360
50AF
102
}
330
2
100
AcDbSymbolTableRecord
100
AcDbLayerTableRecord
  2
图框
 70
     0
 62
     7
  6
Continuous
370
    20
390
F
347
4FF6
  0
LAYER
  5
5141
330
2
100
AcDbSymbolTableRecord
100
AcDbLayerTableRecord
  2
Defpoints
 70
     0
 62
     7
  6
Continuous
290
     0
370
    -3
390
F
347
4FF6
  0
LAYER
  5
5144
330
2
100
AcDbSymbolTableRecord
100
AcDbLayerTableRecord
  2
DIM
 70
     0
 62
     3
  6
Continuous
370
    15
390
F
347
4FF6
1001
AcAecLayerStandard
1000

1000

  0
LAYER
  5
52F3
330
2
100
AcDbSymbolTableRecord
100
AcDbLayerTableRecord
  2
打标文字
 70
     0
 62
     3
  6
Continuous
370
    20
390
F
347
4FF6
  0
LAYER
  5
1A670
330
2
100
AcDbSymbolTableRecord
100
AcDbLayerTableRecord
  2
CEN
 70
     0
 62
     1
  6
CENTER
370
    15
390
F
347
4FF6
1001
AcAecLayerStandard
1000

1000

  0
LAYER
  5
1B55C
330
2
100
AcDbSymbolTableRecord
100
AcDbLayerTableRecord
  2
204
 70
     0
 62
     7
  6
Continuous
370
    -3
390
F
347
4FF6
  0
LAYER
  5
1B55D
330
2
100
AcDbSymbolTableRecord
100
AcDbLayerTableRecord
  2
205
 70
     0
 62
     7
  6
Continuous
370
    -3
390
F
347
4FF6
  0
ENDTAB
  0
TABLE
  2
STYLE
  5
3
330
0
100
AcDbSymbolTable
 70
     5
  0
STYLE
  5
11
330
3
100
AcDbSymbolTableRecord
100
AcDbTextStyleTableRecord
  2
Standard
 70
     0
 40
0.0
 41
0.75
 50
0.0
 71
     0
 42
0.2
  3

  4

1001
ACAD
1000
仿宋_GB2312
1071
    34353
  0
STYLE
  5
FD48
330
3
100
AcDbSymbolTableRecord
100
AcDbTextStyleTableRecord
  2
Romans字体
 70
     0
 40
0.0
 41
0.75
 50
0.0
 71
     0
 42
0.2
  3
romans.shx
  4

  0
STYLE
  5
11080
330
3
100
AcDbSymbolTableRecord
100
AcDbTextStyleTableRecord
  2
工程字
 70
     0
 40
0.0
 41
1.0
 50
0.0
 71
     0
 42
3.5
  3
gbenor.shx
  4
gbcbig.shx
  0
STYLE
  5
11081
330
3
100
AcDbSymbolTableRecord
100
AcDbTextStyleTableRecord
  2
Chinese
 70
     0
 40
0.0
 41
1.0
 50
0.0
 71
     0
 42
2.5
  3
PMingLiU.ttf
  4

1001
ACAD
1000
PMingLiU
1071
    34834
  0
ENDTAB
  0
TABLE
  2
VIEW
  5
6
330
0
100
AcDbSymbolTable
 70
     0
  0
ENDTAB
  0
TABLE
  2
UCS
  5
7
330
0
100
AcDbSymbolTable
 70
     0
  0
ENDTAB
  0
TABLE
  2
APPID
  5
9
330
0
100
AcDbSymbolTable
 70
    19
  0
APPID
  5
12
330
9
100
AcDbSymbolTableRecord
100
AcDbRegAppTableRecord
  2
ACAD
 70
     0
  0
APPID
  5
5024
330
9
100
AcDbSymbolTableRecord
100
AcDbRegAppTableRecord
  2
ACAD_MLEADERVER
 70
     0
  0
APPID
  5
50B5
330
9
100
AcDbSymbolTableRecord
100
AcDbRegAppTableRecord
  2
AcDbDynamicBlockGUID
 70
     0
  0
APPID
  5
50B6
330
9
100
AcDbSymbolTableRecord
100
AcDbRegAppTableRecord
  2
AcDbBlockRepETag
 70
     0
  0
APPID
  5
50B7
330
9
100
AcDbSymbolTableRecord
100
AcDbRegAppTableRecord
  2
ACAD_PSEXT
 70
     0
  0
APPID
  5
50CF
330
9
100
AcDbSymbolTableRecord
100
AcDbRegAppTableRecord
  2
AcadAnnoPO
 70
     0
  0
APPID
  5
5146
330
9
100
AcDbSymbolTableRecord
100
AcDbRegAppTableRecord
  2
AcAecLayerStandard
 70
     0
  0
APPID
  5
5147
330
9
100
AcDbSymbolTableRecord
100
AcDbRegAppTableRecord
  2
ACAD_DSTYLE_DIMJAG
 70
     0
  0
APPID
  5
5148
330
9
100
AcDbSymbolTableRecord
100
AcDbRegAppTableRecord
  2
ACAD_DSTYLE_DIMTALN
 70
     0
  0
APPID
  5
52AD
330
9
100
AcDbSymbolTableRecord
100
AcDbRegAppTableRecord
  2
ACAUTHENVIRON
 70
     0
  0
APPID
  5
52B0
330
9
100
AcDbSymbolTableRecord
100
AcDbRegAppTableRecord
  2
AcDbDynamicBlockTrueName
 70
     0
  0
APPID
  5
67C6
330
9
100
AcDbSymbolTableRecord
100
AcDbRegAppTableRecord
  2
ACAD_EXEMPT_FROM_CAD_STANDARDS
 70
     0
  0
APPID
  5
6838
330
9
100
AcDbSymbolTableRecord
100
AcDbRegAppTableRecord
  2
ACAD_NAV_VCDISPLAY
 70
     0
  0
APPID
  5
70A9
330
9
100
AcDbSymbolTableRecord
100
AcDbRegAppTableRecord
  2
DCO15
 70
     0
  0
APPID
  5
8725
330
9
100
AcDbSymbolTableRecord
100
AcDbRegAppTableRecord
  2
AcDbBlockRepBTag
 70
     0
  0
APPID
  5
FE64
330
9
100
AcDbSymbolTableRecord
100
AcDbRegAppTableRecord
  2
ACAD_DSTYLE_DIMRADIAL_EXTENSION
 70
     0
  0
APPID
  5
FF93
330
9
100
AcDbSymbolTableRecord
100
AcDbRegAppTableRecord
  2
ACAD_DSTYLE_DIMBREAK
 70
     0
  0
APPID
  5
14250
330
9
100
AcDbSymbolTableRecord
100
AcDbRegAppTableRecord
  2
GradientColor1ACI
 70
     0
  0
APPID
  5
14251
330
9
100
AcDbSymbolTableRecord
100
AcDbRegAppTableRecord
  2
GradientColor2ACI
 70
     0
  0
ENDTAB
  0
TABLE
  2
DIMSTYLE
  5
A
330
0
100
AcDbSymbolTable
 70
     3
100
AcDbDimStyleTable
 71
     2
340
5145
340
27
  0
DIMSTYLE
105
27
330
A
100
AcDbSymbolTableRecord
100
AcDbDimStyleTableRecord
  2
Standard
 70
     0
340
11
  0
DIMSTYLE
105
5145
102
{ACAD_REACTORS
330
1B8FC
330
1B8F4
330
1B8F3
330
1B8F9
330
1B8F6
330
1B8F5
102
}
330
A
100
AcDbSymbolTableRecord
100
AcDbDimStyleTableRecord
  2
01
 70
     0
 41
2.0
 42
0.2
 43
0.2
 44
1.199999999999999
 73
     0
 74
     0
 77
     1
 78
     8
 79
     2
140
2.5
141
0.0
147
0.8
176
     1
177
     6
178
     4
179
     2
271
     1
272
     1
340
FD48
1001
ACAD_DSTYLE_DIMJAG
1070
   388
1040
1.5
1001
ACAD_DSTYLE_DIMTALN
1070
   392
1070
     0
  0
ENDTAB
  0
TABLE
  2
BLOCK_RECORD
  5
1
330
0
100
AcDbSymbolTable
 70
    10
  0
BLOCK_RECORD
  5
1F
102
{ACAD_XDICTIONARY
360
67C0
102
}
330
1
100
AcDbSymbolTableRecord
100
AcDbBlockTableRecord
  2
*Model_Space
340
22
 70
     0
280
     1
281
     0
  0
BLOCK_RECORD
  5
1B
330
1
100
AcDbSymbolTableRecord
100
AcDbBlockTableRecord
  2
*Paper_Space
340
1E
 70
     0
280
     1
281
     0
  0
BLOCK_RECORD
  5
23
330
1
100
AcDbSymbolTableRecord
100
AcDbBlockTableRecord
  2
*Paper_Space0
340
26
 70
     0
280
     1
281
     0
  0
BLOCK_RECORD
  5
10FE8
102
{ACAD_XDICTIONARY
360
1BB8E
102
}
330
1
100
AcDbSymbolTableRecord
100
AcDbBlockTableRecord
  2
A4图框-NEW
340
0
310
2800000020000000200000000100080000000000000400000000000000000000000000000000000000000000000080000080000000808000800000008000800080800000C0C0C000C0DCC000F0CAA6000020400000206000002080000020A0000020C0000020E00000400000004020000040400000406000004080000040A0
310
000040C0000040E00000600000006020000060400000606000006080000060A0000060C0000060E00000800000008020000080400000806000008080000080A0000080C0000080E00000A0000000A0200000A0400000A0600000A0800000A0A00000A0C00000A0E00000C0000000C0200000C0400000C0600000C0800000C0
310
A00000C0C00000C0E00000E0000000E0200000E0400000E0600000E0800000E0A00000E0C00000E0E00040000000400020004000400040006000400080004000A0004000C0004000E00040200000402020004020400040206000402080004020A0004020C0004020E000404000004040200040404000404060004040800040
310
40A0004040C0004040E00040600000406020004060400040606000406080004060A0004060C0004060E00040800000408020004080400040806000408080004080A0004080C0004080E00040A0000040A0200040A0400040A0600040A0800040A0A00040A0C00040A0E00040C0000040C0200040C0400040C0600040C08000
310
40C0A00040C0C00040C0E00040E0000040E0200040E0400040E0600040E0800040E0A00040E0C00040E0E00080000000800020008000400080006000800080008000A0008000C0008000E00080200000802020008020400080206000802080008020A0008020C0008020E00080400000804020008040400080406000804080
310
008040A0008040C0008040E00080600000806020008060400080606000806080008060A0008060C0008060E00080800000808020008080400080806000808080008080A0008080C0008080E00080A0000080A0200080A0400080A0600080A0800080A0A00080A0C00080A0E00080C0000080C0200080C0400080C0600080C0
310
800080C0A00080C0C00080C0E00080E0000080E0200080E0400080E0600080E0800080E0A00080E0C00080E0E000C0000000C0002000C0004000C0006000C0008000C000A000C000C000C000E000C0200000C0202000C0204000C0206000C0208000C020A000C020C000C020E000C0400000C0402000C0404000C0406000C0
310
408000C040A000C040C000C040E000C0600000C0602000C0604000C0606000C0608000C060A000C060C000C060E000C0800000C0802000C0804000C0806000C0808000C080A000C080C000C080E000C0A00000C0A02000C0A04000C0A06000C0A08000C0A0A000C0A0C000C0A0E000C0C00000C0C02000C0C04000C0C06000
310
C0C08000C0C0A000F0FBFF00A4A0A000808080000000FF0000FF000000FFFF00FF000000FF00FF00FFFF0000FFFFFF0000000000000000000000000000000000000000000000000000000000000000000000000000000000000000000000000000000000000000000000000000000000000000000000000000000000000000
310
000000000000000000000000000000000000000000000000000000000000000000000000000000000000000000000000000000000000000000000000000000000000000000000000000000000000000000000000000000000000000000000000000000000000000000000000000000000000F9F9F9F9F9F9F9F9F9F9F9F9F9
310
F9F9F9F9F9F9F9F9F9F9F9F9F9F9FF00000000F9FF000000000000000000FFFFFFFFFFFFFFFFFFFFFFFFF9FAFAFAFF00000000F9FF000000000000000000FFFFFFFFFFFFFFFFFFFFFFFFFFFFFFFFFF00000000F9FD000000000000000000FFFFFFFFFFFFFFFFFFFFFFFFFFFFFFFFFF00000000F9FF000000000000000000FF
310
FFFFFFFFFFFFFFFFFFFFFFFFFFFFFFFF00000000F9FD000000000000000000FFFFFFFFFFFFFFFFFFFFFFFFFFFFFFFFFF00000000F9FF00000000000000000000000000000000000000000000000000FF00000000F9FD00000000000000000000000000000000000000000000000000FF00000000F9FF000000000000000000
310
00000000000000000000000000000000FF00000000F9FD00000000000000000000000000000000000000000000000000FF00000000F9FF00000000000000000000000000000000000000000000000000FF00000000F9FD00000000000000000000000000000000000000000000000000FF00000000F9FD0000000000000000
310
0000000000000000000000000000000000FF00000000F9FF00000000000000000000000000000000000000000000000000FF00000000F9FD00000000000000000000000000000000000000000000000000FF00000000F9FF00000000000000000000000000000000000000000000000000FF00000000F9FD00000000000000
310
000000000000000000000000000000000000FF00000000F9FF00000000000000000000000000000000000000000000000000FF00000000F9FFFFFFFFFFFFFFFFFFFFFFFFFFFFFFFFFFFFFFFFFFFFFFFFFFFFFF00000000F9FFFFFFF9F9F9F9F9F9F9F9F9F9F9F9F9F9F9F9F9F9F9F9F9F9F9F9000000000000000000000000
310
00000000000000000000000000000000000000000000000000000000000000000000000000000000000000000000000000000000000000000000000000000000000000000000000000000000000000000000000000000000000000000000000000000000000000000000000000000000000000000000000000000000000000
310
0000000000000000000000000000000000000000000000000000000000000000000000000000000000000000000000000000000000000000
102
{BLKREFS
331
11089
102
}
 70
     4
280
     1
281
     0
1001
AcDbDynamicBlockGUID
1000
{EF083C72-2C16-41F5-B112-940941F8E748}
1001
AcDbBlockRepETag
1070
     1
1071
      149
  0
BLOCK_RECORD
  5
1B8FF
330
1
100
AcDbSymbolTableRecord
100
AcDbBlockTableRecord
  2
*D2
340
0
 70
     0
280
     1
281
     0
  0
BLOCK_RECORD
  5
1B90C
330
1
100
AcDbSymbolTableRecord
100
AcDbBlockTableRecord
  2
*D3
340
0
 70
     0
280
     1
281
     0
  0
BLOCK_RECORD
  5
1B919
330
1
100
AcDbSymbolTableRecord
100
AcDbBlockTableRecord
  2
*D4
340
0
 70
     0
280
     1
281
     0
  0
BLOCK_RECORD
  5
1B944
330
1
100
AcDbSymbolTableRecord
100
AcDbBlockTableRecord
  2
*D5
340
0
 70
     0
280
     1
281
     0
  0
BLOCK_RECORD
  5
1B951
330
1
100
AcDbSymbolTableRecord
100
AcDbBlockTableRecord
  2
*D6
340
0
 70
     0
280
     1
281
     0
  0
BLOCK_RECORD
  5
1B95E
330
1
100
AcDbSymbolTableRecord
100
AcDbBlockTableRecord
  2
*D7
340
0
 70
     0
280
     1
281
     0
  0
ENDTAB
  0
ENDSEC
  0
SECTION
  2
BLOCKS
  0
BLOCK
  5
20
330
1F
100
AcDbEntity
  8
0
100
AcDbBlockBegin
  2
*Model_Space
 70
     0
 10
0.0
 20
0.0
 30
0.0
  3
*Model_Space
  1

  0
ENDBLK
  5
21
330
1F
100
AcDbEntity
  8
0
100
AcDbBlockEnd
  0
BLOCK
  5
1C
330
1B
100
AcDbEntity
 67
     1
  8
0
100
AcDbBlockBegin
  2
*Paper_Space
 70
     0
 10
0.0
 20
0.0
 30
0.0
  3
*Paper_Space
  1

  0
ENDBLK
  5
1D
330
1B
100
AcDbEntity
 67
     1
  8
0
100
AcDbBlockEnd
  0
BLOCK
  5
24
330
23
100
AcDbEntity
 67
     1
  8
0
100
AcDbBlockBegin
  2
*Paper_Space0
 70
     0
 10
0.0
 20
0.0
 30
0.0
  3
*Paper_Space0
  1

  0
ENDBLK
  5
25
330
23
100
AcDbEntity
 67
     1
  8
0
100
AcDbBlockEnd
  0
BLOCK
  5
10FEA
330
10FE8
100
AcDbEntity
  8
0
100
AcDbBlockBegin
  2
A4图框-NEW
 70
     0
 10
0.0
 20
0.0
 30
0.0
  3
A4图框-NEW
  1

  0
MTEXT
  5
1BAF9
102
{ACAD_XDICTIONARY
360
1BBBA
102
}
330
10FE8
100
AcDbEntity
  8
图框
 62
     3
100
AcDbMText
 10
967.6594956750133
 20
499.7664151964293
 30
0.0
 40
2.985513575034151
 41
15.50176341157864
 46
6.292658374511018
 71
     5
 72
     5
  1
BQ LUO
  7
Romans字体
 73
     1
 44
1.0
1001
AcDbBlockRepETag
1070
     1
1071
        0
1005
1BAF9
1001
ACAD
1000
ACAD_MTEXT_DEFINED_HEIGHT_BEGIN
1070
    46
1040
6.292658374511018
1000
ACAD_MTEXT_DEFINED_HEIGHT_END
  0
MTEXT
  5
1BAFA
330
10FE8
100
AcDbEntity
  8
图框
 62
     3
100
AcDbMText
 10
983.041569333247
 20
499.7664151964293
 30
0.0
 40
2.487927979195124
 41
15.26238390489051
 46
6.292658374511042
 71
     5
 72
     5
  1
{\W0.7;18.10.2010}
  7
Romans字体
 73
     1
 44
1.0
1001
AcDbBlockRepETag
1070
     1
1071
        1
1005
1BAFA
1001
ACAD
1000
ACAD_MTEXT_DEFINED_HEIGHT_BEGIN
1070
    46
1040
6.292658374511042
1000
ACAD_MTEXT_DEFINED_HEIGHT_END
  0
MTEXT
  5
1BAFB
330
10FE8
100
AcDbEntity
  8
图框
 62
     3
100
AcDbMText
 10
1012.477254728976
 20
487.1810984474071
 30
0.0
 40
2.985513575034151
 41
17.64876416884615
 46
6.292658374511455
 71
     5
 72
     5
  1
YY LIN
  7
Romans字体
 73
     1
 44
1.0
1001
AcDbBlockRepETag
1070
     1
1071
        2
1005
1BAFB
1001
ACAD
1000
ACAD_MTEXT_DEFINED_HEIGHT_BEGIN
1070
    46
1040
6.292658374511455
1000
ACAD_MTEXT_DEFINED_HEIGHT_END
  0
MTEXT
  5
1BAFC
330
10FE8
100
AcDbEntity
  8
图框
 62
     3
100
AcDbMText
 10
1028.977802139886
 20
487.1810984474071
 30
0.0
 40
2.487927979195124
 41
15.35233065297276
 46
6.292658374511495
 71
     5
 72
     5
  1
{\W0.7;18.10.2010}
  7
Romans字体
 73
     1
 44
1.0
1001
AcDbBlockRepETag
1070
     1
1071
        3
1005
1BAFC
1001
ACAD
1000
ACAD_MTEXT_DEFINED_HEIGHT_BEGIN
1070
    46
1040
6.292658374511495
1000
ACAD_MTEXT_DEFINED_HEIGHT_END
  0
MTEXT
  5
1BAFD
330
10FE8
100
AcDbEntity
  8
图框
 62
     3
100
AcDbMText
 10
1063.722665487208
 20
525.4145966538831
 30
0.0
 40
2.985513575034151
 41
32.4973914334545
 46
11.82914190181707
 71
     5
 72
     5
  1
-
  7
Romans字体
 73
     1
 44
1.0
1001
AcDbBlockRepETag
1070
     1
1071
        4
1005
1BAFD
1001
ACAD
1000
ACAD_MTEXT_DEFINED_HEIGHT_BEGIN
1070
    46
1040
11.82914190181707
1000
ACAD_MTEXT_DEFINED_HEIGHT_END
  0
MTEXT
  5
1BAFE
330
10FE8
100
AcDbEntity
  8
图框
 62
     3
100
AcDbMText
 10
1063.727338552349
 20
513.5854547520641
 30
0.0
 40
2.985513575034151
 41
32.48804530317308
 46
11.82914190182139
 71
     5
 72
     5
  1
-
  7
Romans字体
 73
     1
 44
1.0
1001
AcDbBlockRepETag
1070
     1
1071
        5
1005
1BAFE
1001
ACAD
1000
ACAD_MTEXT_DEFINED_HEIGHT_BEGIN
1070
    46
1040
11.82914190182139
1000
ACAD_MTEXT_DEFINED_HEIGHT_END
  0
MTEXT
  5
1BAFF
330
10FE8
100
AcDbEntity
  8
图框
 62
     3
100
AcDbMText
 10
1110.122306614152
 20
526.8006839312707
 30
0.0
 40
2.985513575034151
 41
33.61239199242139
 46
9.05696734704178
 71
     5
 72
     5
  1
-
  7
Romans字体
 73
     1
 44
1.0
1001
AcDbBlockRepETag
1070
     1
1071
        6
1005
1BAFF
1001
ACAD
1000
ACAD_MTEXT_DEFINED_HEIGHT_BEGIN
1070
    46
1040
9.05696734704178
1000
ACAD_MTEXT_DEFINED_HEIGHT_END
  0
MTEXT
  5
1BB00
330
10FE8
100
AcDbEntity
  8
图框
 62
     3
100
AcDbMText
 10
1110.122306614152
 20
500.2775205517162
 30
0.0
 40
2.985513575034151
 41
33.61239199242139
 46
8.871557304763419
 71
     5
 72
     5
  1
-
  7
Romans字体
 73
     1
 44
1.0
1001
AcDbBlockRepETag
1070
     1
1071
        7
1005
1BB00
1001
ACAD
1000
ACAD_MTEXT_DEFINED_HEIGHT_BEGIN
1070
    46
1040
8.871557304763419
1000
ACAD_MTEXT_DEFINED_HEIGHT_END
  0
MTEXT
  5
1BB01
330
10FE8
100
AcDbEntity
  8
图框
 62
     3
100
AcDbMText
 10
967.6594956750133
 20
493.4737568219182
 30
0.0
 40
2.985513575034151
 41
15.50176341157864
 46
6.292658374510335
 71
     5
 72
     5
  1
P RAO
  7
Romans字体
 73
     1
 44
1.0
1001
AcDbBlockRepETag
1070
     1
1071
        8
1005
1BB01
1001
ACAD
1000
ACAD_MTEXT_DEFINED_HEIGHT_BEGIN
1070
    46
1040
6.292658374510335
1000
ACAD_MTEXT_DEFINED_HEIGHT_END
  0
MTEXT
  5
1BB02
330
10FE8
100
AcDbEntity
  8
图框
 62
     3
100
AcDbMText
 10
983.041569333247
 20
493.2441970450405
 30
0.0
 40
2.487927979195124
 41
15.26238390489051
 46
6.751777928266487
 71
     5
 72
     5
  1
{\W0.7;18.10.2010}
  7
Romans字体
 73
     1
 44
1.0
1001
AcDbBlockRepETag
1070
     1
1071
        9
1005
1BB02
1001
ACAD
1000
ACAD_MTEXT_DEFINED_HEIGHT_BEGIN
1070
    46
1040
6.751777928266487
1000
ACAD_MTEXT_DEFINED_HEIGHT_END
  0
MTEXT
  5
1BB03
330
10FE8
100
AcDbEntity
  8
图框
 62
     3
100
AcDbMText
 10
1012.477254728976
 20
499.7664151964291
 30
0.0
 40
2.985513575034151
 41
17.64876416884615
 46
6.292658374511397
 71
     5
 72
     5
  1
-
  7
Romans字体
 73
     1
 44
1.0
1001
AcDbBlockRepETag
1070
     1
1071
       10
1005
1BB03
1001
ACAD
1000
ACAD_MTEXT_DEFINED_HEIGHT_BEGIN
1070
    46
1040
6.292658374511397
1000
ACAD_MTEXT_DEFINED_HEIGHT_END
  0
MTEXT
  5
1BB04
330
10FE8
100
AcDbEntity
  8
图框
 62
     3
100
AcDbMText
 10
1028.977802139886
 20
499.7664151964289
 30
0.0
 40
2.487927979195124
 41
15.35233065297265
 46
6.292658374511382
 71
     5
 72
     5
  1
-
  7
Romans字体
 73
     1
 44
1.0
1001
AcDbBlockRepETag
1070
     1
1071
       11
1005
1BB04
1001
ACAD
1000
ACAD_MTEXT_DEFINED_HEIGHT_BEGIN
1070
    46
1040
6.292658374511382
1000
ACAD_MTEXT_DEFINED_HEIGHT_END
  0
MTEXT
  5
1BB05
330
10FE8
100
AcDbEntity
  8
图框
 62
     3
100
AcDbMText
 10
967.6594956750133
 20
487.1810984474071
 30
0.0
 40
2.985513575034151
 41
15.50176341157863
 46
6.292658374511478
 71
     5
 72
     5
  1
-
  7
Romans字体
 73
     1
 44
1.0
1001
AcDbBlockRepETag
1070
     1
1071
       12
1005
1BB05
1001
ACAD
1000
ACAD_MTEXT_DEFINED_HEIGHT_BEGIN
1070
    46
1040
6.292658374511478
1000
ACAD_MTEXT_DEFINED_HEIGHT_END
  0
MTEXT
  5
1BB06
330
10FE8
100
AcDbEntity
  8
图框
 62
     3
100
AcDbMText
 10
983.041569333247
 20
487.1810984474071
 30
0.0
 40
2.487927979195124
 41
15.26238390489062
 46
6.292658374511495
 71
     5
 72
     5
  1
-
  7
Romans字体
 73
     1
 44
1.0
1001
AcDbBlockRepETag
1070
     1
1071
       13
1005
1BB06
1001
ACAD
1000
ACAD_MTEXT_DEFINED_HEIGHT_BEGIN
1070
    46
1040
6.292658374511495
1000
ACAD_MTEXT_DEFINED_HEIGHT_END
  0
MTEXT
  5
1BB07
330
10FE8
100
AcDbEntity
  8
图框
 62
     3
100
AcDbMText
 10
1074.556686986741
 20
495.8417418993361
 30
0.0
 40
2.985513575034151
 41
10.82934843438978
 46
7.886094601210427
 71
     5
 72
     5
  1
-
  7
Romans字体
 73
     1
 44
1.0
1001
AcDbBlockRepETag
1070
     1
1071
       14
1005
1BB07
1001
ACAD
1000
ACAD_MTEXT_DEFINED_HEIGHT_BEGIN
1070
    46
1040
7.886094601210427
1000
ACAD_MTEXT_DEFINED_HEIGHT_END
  0
LINE
  5
1BB08
330
10FE8
100
AcDbEntity
  8
图框
370
    -3
100
AcDbLine
 10
1036.653967466372
 20
499.7847891999413
 30
0.0
 11
1079.971361203936
 21
499.7847891999413
 31
0.0
1001
AcDbBlockRepETag
1070
     1
1071
       15
1005
1BB08
  0
MTEXT
  5
1BB09
330
10FE8
100
AcDbEntity
  8
图框
 62
     1
370
    20
100
AcDbMText
 10
1108.26336443907
 20
491.5162596080882
 30
0.0
 40
2.699054613030988
 41
82.30831305643079
 46
0.0
 71
     5
 72
     5
  1
{\fSimHei|b0|i0|c134|p2;厦门唯恩电气有限公司}
 73
     1
 44
1.0
1001
AcDbBlockRepETag
1070
     1
1071
       16
1005
1BB09
  0
MTEXT
  5
1BB0A
330
10FE8
100
AcDbEntity
  8
图框
 62
     3
370
    20
100
AcDbMText
 10
1108.435451459908
 20
487.298967726064
 30
0.0
 40
1.652482416141417
 41
68.08558693693567
 46
0.0
 71
     5
 72
     5
  1
{\fArial Narrow|b0|i0|c0|p34;XIAMEN WAIN ELECTRICAL CO.LTD}
  7
工程字
 73
     1
 44
1.0
1001
AcDbBlockRepETag
1070
     1
1071
       17
1005
1BB0A
  0
MTEXT
  5
1BB0B
330
10FE8
100
AcDbEntity
  8
图框
 62
     1
370
    20
100
AcDbMText
 10
1085.711816899387
 20
491.0944802995856
 30
0.0
 40
2.005930044038334
 41
5.047240019334847
 46
0.0
 71
     1
 72
     5
  1
{\fArial|b0|i0|c0|p34;A}
  7
Chinese
 73
     1
 44
1.0
1001
AcDbBlockRepETag
1070
     1
1071
       18
1005
1BB0B
  0
MTEXT
  5
1BB0C
330
10FE8
100
AcDbEntity
  8
图框
 62
     1
370
    20
100
AcDbMText
 10
1088.213485935716
 20
491.0944802995856
 30
0.0
 40
2.005930044038334
 41
5.047240019334847
 46
0.0
 71
     1
 72
     5
  1
{\fArial|b0|i0|c0|p34;I}
  7
Chinese
 73
     1
 44
1.0
1001
AcDbBlockRepETag
1070
     1
1071
       19
1005
1BB0C
  0
MTEXT
  5
1BB0D
330
10FE8
100
AcDbEntity
  8
图框
 62
     1
370
    20
100
AcDbMText
 10
1089.142375222864
 20
491.0822866326808
 30
0.0
 40
2.005930044038334
 41
5.047240019334847
 46
0.0
 71
     1
 72
     5
  1
{\fArial|b0|i0|c0|p34;N}
  7
Chinese
 73
     1
 44
1.0
1001
AcDbBlockRepETag
1070
     1
1071
       20
1005
1BB0D
  0
MTEXT
  5
1BB0E
330
10FE8
100
AcDbEntity
  8
图框
100
AcDbMText
 10
1069.142012769545
 20
487.9667319294409
 30
0.0
 40
2.252848170144607
 41
21.65869686878327
 46
7.863925338579296
 71
     5
 72
     5
  1
{\W0.5;\C1;All Dimensions in mm\POriginal Size DIN A 4}
  7
Romans字体
 73
     1
 44
1.0
1001
AcDbBlockRepETag
1070
     1
1071
       21
1005
1BB0E
1001
ACAD
1000
ACAD_MTEXT_DEFINED_HEIGHT_BEGIN
1070
    46
1040
7.863925338579296
1000
ACAD_MTEXT_DEFINED_HEIGHT_END
  0
MTEXT
  5
1BB0F
330
10FE8
100
AcDbEntity
  8
图框
  6
ByBlock
 62
     6
370
    18
100
AcDbMText
 10
1127.40434942308
 20
508.7896535755975
 30
0.0
 40
2.651776162684904
 41
2.557913877927211
 46
0.0
 71
     1
 72
     5
  1
A
  7
Romans字体
 11
0.0000000000000001
 21
1.0
 31
0.0
 73
     1
 44
1.0
1001
AcDbBlockRepETag
1070
     1
1071
       22
1005
1BB0F
  0
MTEXT
  5
1BB10
330
10FE8
100
AcDbEntity
  8
图框
 62
     6
100
AcDbMText
 10
1127.40434942308
 20
556.3746573232886
 30
0.0
 40
2.651776162684904
 41
2.557913877927211
 46
0.0
 71
     1
 72
     5
  1
B
  7
Romans字体
 11
0.0000000000000001
 21
1.0
 31
0.0
 73
     1
 44
1.0
1001
AcDbBlockRepETag
1070
     1
1071
       23
1005
1BB10
  0
MTEXT
  5
1BB11
330
10FE8
100
AcDbEntity
  8
图框
 62
     6
100
AcDbMText
 10
1127.40434942308
 20
607.5539372630998
 30
0.0
 40
2.651776162684904
 41
2.557913877927211
 46
0.0
 71
     1
 72
     5
  1
C
  7
Romans字体
 11
0.0000000000000001
 21
1.0
 31
0.0
 73
     1
 44
1.0
1001
AcDbBlockRepETag
1070
     1
1071
       24
1005
1BB11
  0
MTEXT
  5
1BB12
330
10FE8
100
AcDbEntity
  8
图框
 62
     6
100
AcDbMText
 10
1127.40434942308
 20
658.7332172029115
 30
0.0
 40
2.651776162684904
 41
2.557913877927211
 46
0.0
 71
     1
 72
     5
  1
D
  7
Romans字体
 11
0.0000000000000001
 21
1.0
 31
0.0
 73
     1
 44
1.0
1001
AcDbBlockRepETag
1070
     1
1071
       25
1005
1BB12
  0
LINE
  5
1BB13
330
10FE8
100
AcDbEntity
  8
图框
 62
     6
100
AcDbLine
 10
1130.411601781241
 20
634.0726090796082
 30
0.0
 11
1126.928502610363
 21
634.0726090796082
 31
0.0
1001
AcDbBlockRepETag
1070
     1
1071
       26
1005
1BB13
  0
LINE
  5
1BB14
330
10FE8
100
AcDbEntity
  8
图框
 62
     6
100
AcDbLine
 10
1130.411601781241
 20
582.89332913979
 30
0.0
 11
1126.928502610363
 21
582.89332913979
 31
0.0
1001
AcDbBlockRepETag
1070
     1
1071
       27
1005
1BB14
  0
MTEXT
  5
1BB15
330
10FE8
100
AcDbEntity
  8
图框
 62
     6
100
AcDbMText
 10
1105.329704038389
 20
483.6164543011163
 30
0.0
 40
2.651776162684904
 41
2.557913877927211
 46
0.0
 71
     1
 72
     5
  1
6
  7
Romans字体
 73
     1
 44
1.0
1001
AcDbBlockRepETag
1070
     1
1071
       28
1005
1BB15
  0
LINE
  5
1BB16
330
10FE8
100
AcDbEntity
  8
图框
 62
     6
100
AcDbLine
 10
1081.088565155284
 20
484.0347692601515
 30
0.0
 11
1081.088565155284
 21
480.5347692601475
 31
0.0
1001
AcDbBlockRepETag
1070
     1
1071
       29
1005
1BB16
  0
MTEXT
  5
1BB17
330
10FE8
100
AcDbEntity
  8
图框
 62
     6
100
AcDbMText
 10
1055.900596365941
 20
483.520053108993
 30
0.0
 40
2.651776162684904
 41
2.557913877927211
 46
0.0
 71
     1
 72
     5
  1
5
  7
Romans字体
 73
     1
 44
1.0
1001
AcDbBlockRepETag
1070
     1
1071
       30
1005
1BB17
  0
LINE
  5
1BB18
330
10FE8
100
AcDbEntity
  8
图框
 62
     6
100
AcDbLine
 10
1031.553386436349
 20
484.0347692601515
 30
0.0
 11
1031.553386436349
 21
480.5347692601475
 31
0.0
1001
AcDbBlockRepETag
1070
     1
1071
       31
1005
1BB18
  0
MTEXT
  5
1BB19
330
10FE8
100
AcDbEntity
  8
图框
 62
     6
100
AcDbMText
 10
1006.383180575197
 20
483.5687958215896
 30
0.0
 40
2.651776162684904
 41
2.557913877927211
 46
0.0
 71
     1
 72
     5
  1
4
  7
Romans字体
 73
     1
 44
1.0
1001
AcDbBlockRepETag
1070
     1
1071
       32
1005
1BB19
  0
LINE
  5
1BB1A
330
10FE8
100
AcDbEntity
  8
图框
 62
     6
100
AcDbLine
 10
982.0182077173887
 20
484.0347692601515
 30
0.0
 11
982.0182077173887
 21
480.5347692601475
 31
0.0
1001
AcDbBlockRepETag
1070
     1
1071
       33
1005
1BB1A
  0
MTEXT
  5
1BB1B
330
10FE8
100
AcDbEntity
  8
图框
 62
     6
100
AcDbMText
 10
956.8302389280352
 20
483.5989680297948
 30
0.0
 40
2.651776162684904
 41
2.557913877927211
 46
0.0
 71
     1
 72
     5
  1
3
  7
Romans字体
 73
     1
 44
1.0
1001
AcDbBlockRepETag
1070
     1
1071
       34
1005
1BB1B
  0
LINE
  5
1BB1C
330
10FE8
100
AcDbEntity
  8
图框
 62
     6
100
AcDbLine
 10
932.4830289984245
 20
484.0347692601515
 30
0.0
 11
932.4830289984245
 21
480.5347692601475
 31
0.0
1001
AcDbBlockRepETag
1070
     1
1071
       35
1005
1BB1C
  0
MTEXT
  5
1BB1D
330
10FE8
100
AcDbEntity
  8
图框
 62
     6
100
AcDbMText
 10
906.0252349826365
 20
483.6475250013156
 30
0.0
 40
2.651776162684904
 41
2.557913877927211
 46
0.0
 71
     1
 72
     5
  1
2
  7
Romans字体
 73
     1
 44
1.0
1001
AcDbBlockRepETag
1070
     1
1071
       36
1005
1BB1D
  0
LINE
  5
1BB1E
330
10FE8
100
AcDbEntity
  8
图框
 62
     6
100
AcDbLine
 10
882.9478502794648
 20
484.0347692601515
 30
0.0
 11
882.9478502794648
 21
480.5347692601475
 31
0.0
1001
AcDbBlockRepETag
1070
     1
1071
       37
1005
1BB1E
  0
MTEXT
  5
1BB1F
330
10FE8
100
AcDbEntity
  8
图框
 62
     6
100
AcDbMText
 10
857.7598814901191
 20
483.651829494754
 30
0.0
 40
2.651776162684904
 41
2.557913877927211
 46
0.0
 71
     1
 72
     5
  1
1
  7
Romans字体
 73
     1
 44
1.0
1001
AcDbBlockRepETag
1070
     1
1071
       38
1005
1BB1F
  0
LINE
  5
1BB20
330
10FE8
100
AcDbEntity
  8
图框
370
    50
100
AcDbLine
 10
836.8548209370597
 20
484.0347692601515
 30
0.0
 11
1126.928502610363
 21
484.0347692601515
 31
0.0
1001
AcDbBlockRepETag
1070
     1
1071
       39
1005
1BB20
  0
LINE
  5
1BB21
330
10FE8
100
AcDbEntity
  8
图框
370
    50
100
AcDbLine
 10
836.9128518455362
 20
484.0178684310246
 30
0.0
 11
836.9128518455394
 21
675.0207195125422
 31
0.0
1001
AcDbBlockRepETag
1070
     1
1071
       40
1005
1BB21
  0
MTEXT
  5
1BB22
330
10FE8
100
AcDbEntity
  8
图框
 62
     6
100
AcDbMText
 10
833.8475685789031
 20
658.7332172029115
 30
0.0
 40
2.651776162684904
 41
2.557913877927211
 46
0.0
 71
     1
 72
     5
  1
D
  7
Romans字体
 11
0.0000000000000001
 21
1.0
 31
0.0
 73
     1
 44
1.0
1001
AcDbBlockRepETag
1070
     1
1071
       41
1005
1BB22
  0
LINE
  5
1BB23
330
10FE8
100
AcDbEntity
  8
图框
 62
     6
100
AcDbLine
 10
836.9128518455386
 20
634.0726090796082
 30
0.0
 11
833.4128518455365
 21
634.0726090796082
 31
0.0
1001
AcDbBlockRepETag
1070
     1
1071
       42
1005
1BB23
  0
MTEXT
  5
1BB24
330
10FE8
100
AcDbEntity
  8
图框
 62
     6
100
AcDbMText
 10
833.9039177480142
 20
607.5539372630998
 30
0.0
 40
2.651776162684904
 41
2.557913877927211
 46
0.0
 71
     1
 72
     5
  1
C
  7
Romans字体
 11
0.0000000000000001
 21
1.0
 31
0.0
 73
     1
 44
1.0
1001
AcDbBlockRepETag
1070
     1
1071
       43
1005
1BB24
  0
LINE
  5
1BB25
330
10FE8
100
AcDbEntity
  8
图框
 62
     6
100
AcDbLine
 10
836.9128518455378
 20
582.89332913979
 30
0.0
 11
833.4128518455365
 21
582.89332913979
 31
0.0
1001
AcDbBlockRepETag
1070
     1
1071
       44
1005
1BB25
  0
MTEXT
  5
1BB26
330
10FE8
100
AcDbEntity
  8
图框
 62
     6
100
AcDbMText
 10
833.9039177480142
 20
556.3746573232886
 30
0.0
 40
2.651776162684904
 41
2.557913877927211
 46
0.0
 71
     1
 72
     5
  1
B
  7
Romans字体
 11
0.0000000000000001
 21
1.0
 31
0.0
 73
     1
 44
1.0
1001
AcDbBlockRepETag
1070
     1
1071
       45
1005
1BB26
  0
LINE
  5
1BB27
330
10FE8
100
AcDbEntity
  8
图框
 62
     6
100
AcDbLine
 10
836.9128518455367
 20
531.714049199969
 30
0.0
 11
833.4128518455365
 21
531.714049199969
 31
0.0
1001
AcDbBlockRepETag
1070
     1
1071
       46
1005
1BB27
  0
MTEXT
  5
1BB28
330
10FE8
100
AcDbEntity
  8
图框
 62
     6
100
AcDbMText
 10
833.9039177480142
 20
508.7896535755975
 30
0.0
 40
2.651776162684904
 41
2.557913877927211
 46
0.0
 71
     1
 72
     5
  1
A
  7
Romans字体
 11
0.0000000000000001
 21
1.0
 31
0.0
 73
     1
 44
1.0
1001
AcDbBlockRepETag
1070
     1
1071
       47
1005
1BB28
  0
LINE
  5
1BB29
330
10FE8
100
AcDbEntity
  8
图框
370
    -3
100
AcDbLine
 10
836.9128518455394
 20
675.0207195125422
 30
0.0
 11
836.9128518455394
 21
684.5021384922564
 31
0.0
1001
AcDbBlockRepETag
1070
     1
1071
       48
1005
1BB29
  0
LINE
  5
1BB2A
330
10FE8
100
AcDbEntity
  8
图框
370
    -3
100
AcDbLine
 10
842.6237321475781
 20
675.5347692601515
 30
0.0
 11
842.6237321475781
 21
685.0161882398658
 31
0.0
1001
AcDbBlockRepETag
1070
     1
1071
       49
1005
1BB2A
  0
LINE
  5
1BB2B
330
10FE8
100
AcDbEntity
  8
图框
370
    -3
100
AcDbLine
 10
848.3346124496179
 20
675.5347692601515
 30
0.0
 11
848.3346124496179
 21
685.0161882398658
 31
0.0
1001
AcDbBlockRepETag
1070
     1
1071
       50
1005
1BB2B
  0
LINE
  5
1BB2C
330
10FE8
100
AcDbEntity
  8
图框
370
    -3
100
AcDbLine
 10
854.0454927516588
 20
675.5347692601515
 30
0.0
 11
854.0454927516588
 21
685.0161882398658
 31
0.0
1001
AcDbBlockRepETag
1070
     1
1071
       51
1005
1BB2C
  0
LINE
  5
1BB2D
330
10FE8
100
AcDbEntity
  8
图框
370
    -3
100
AcDbLine
 10
861.5351874539182
 20
675.5347692601515
 30
0.0
 11
861.5351874539182
 21
686.7901958362482
 31
0.0
1001
AcDbBlockRepETag
1070
     1
1071
       52
1005
1BB2D
  0
MTEXT
  5
1BB2E
330
10FE8
100
AcDbEntity
  8
图框
 62
     6
100
AcDbMText
 10
1105.329704038389
 20
678.859919059449
 30
0.0
 40
2.651776162684904
 41
2.557913877927211
 46
0.0
 71
     1
 72
     5
  1
6
  7
Romans字体
 73
     1
 44
1.0
1001
AcDbBlockRepETag
1070
     1
1071
       53
1005
1BB2E
  0
LINE
  5
1BB2F
330
10FE8
100
AcDbEntity
  8
图框
 62
     6
100
AcDbLine
 10
1081.088565155284
 20
679.0347692601516
 30
0.0
 11
1081.088565155284
 21
675.5347692601515
 31
0.0
1001
AcDbBlockRepETag
1070
     1
1071
       54
1005
1BB2F
  0
MTEXT
  5
1BB30
330
10FE8
100
AcDbEntity
  8
图框
 62
     6
100
AcDbMText
 10
1055.900596365941
 20
678.859919059449
 30
0.0
 40
2.651776162684904
 41
2.557913877927211
 46
0.0
 71
     1
 72
     5
  1
5
  7
Romans字体
 73
     1
 44
1.0
1001
AcDbBlockRepETag
1070
     1
1071
       55
1005
1BB30
  0
LINE
  5
1BB31
330
10FE8
100
AcDbEntity
  8
图框
 62
     6
100
AcDbLine
 10
1031.553386436349
 20
679.0347692601516
 30
0.0
 11
1031.553386436349
 21
675.5347692601515
 31
0.0
1001
AcDbBlockRepETag
1070
     1
1071
       56
1005
1BB31
  0
MTEXT
  5
1BB32
330
10FE8
100
AcDbEntity
  8
图框
 62
     6
100
AcDbMText
 10
1006.36541764698
 20
678.7312083656147
 30
0.0
 40
2.651776162684904
 41
2.557913877927211
 46
0.0
 71
     1
 72
     5
  1
4
  7
Romans字体
 73
     1
 44
1.0
1001
AcDbBlockRepETag
1070
     1
1071
       57
1005
1BB32
  0
LINE
  5
1BB33
330
10FE8
100
AcDbEntity
  8
图框
 62
     6
100
AcDbLine
 10
982.0182077173887
 20
679.0347692601516
 30
0.0
 11
982.0182077173887
 21
675.5347692601515
 31
0.0
1001
AcDbBlockRepETag
1070
     1
1071
       58
1005
1BB33
  0
MTEXT
  5
1BB34
330
10FE8
100
AcDbEntity
  8
图框
 62
     6
100
AcDbMText
 10
956.8302389280352
 20
678.859919059449
 30
0.0
 40
2.651776162684904
 41
2.557913877927211
 46
0.0
 71
     1
 72
     5
  1
3
  7
Romans字体
 73
     1
 44
1.0
1001
AcDbBlockRepETag
1070
     1
1071
       59
1005
1BB34
  0
LINE
  5
1BB35
330
10FE8
100
AcDbEntity
  8
图框
 62
     6
100
AcDbLine
 10
932.4830289984245
 20
679.0347692601516
 30
0.0
 11
932.4830289984245
 21
675.5347692601515
 31
0.0
1001
AcDbBlockRepETag
1070
     1
1071
       60
1005
1BB35
  0
MTEXT
  5
1BB36
330
10FE8
100
AcDbEntity
  8
图框
 62
     6
100
AcDbMText
 10
907.295060209082
 20
678.859919059449
 30
0.0
 40
2.651776162684904
 41
2.557913877927211
 46
0.0
 71
     1
 72
     5
  1
2
  7
Romans字体
 73
     1
 44
1.0
1001
AcDbBlockRepETag
1070
     1
1071
       61
1005
1BB36
  0
LINE
  5
1BB37
330
10FE8
100
AcDbEntity
  8
图框
 62
     6
100
AcDbLine
 10
882.9478502794648
 20
678.7962435131815
 30
0.0
 11
882.9478502794648
 21
675.5347692601515
 31
0.0
1001
AcDbBlockRepETag
1070
     1
1071
       62
1005
1BB37
  0
MTEXT
  5
1BB38
330
10FE8
100
AcDbEntity
  8
图框
 62
     6
100
AcDbMText
 10
862.6286629643733
 20
678.859919059449
 30
0.0
 40
2.651776162684904
 41
2.557913877927211
 46
0.0
 71
     1
 72
     5
  1
1
  7
Romans字体
 73
     1
 44
1.0
1001
AcDbBlockRepETag
1070
     1
1071
       63
1005
1BB38
  0
LINE
  5
1BB39
330
10FE8
100
AcDbEntity
  8
图框
370
    -3
100
AcDbLine
 10
836.9128518455394
 20
675.0207195125422
 30
0.0
 11
836.9128518455394
 21
686.7901958362482
 31
0.0
1001
AcDbBlockRepETag
1070
     1
1071
       64
1005
1BB39
  0
LINE
  5
1BB3A
330
10FE8
100
AcDbEntity
  8
图框
370
    50
100
AcDbLine
 10
836.9128518455394
 20
675.5347692601515
 30
0.0
 11
1126.928502610363
 21
675.5347692601515
 31
0.0
1001
AcDbBlockRepETag
1070
     1
1071
       65
1005
1BB3A
  0
LINE
  5
1BB3B
330
10FE8
100
AcDbEntity
  8
图框
370
    -3
100
AcDbLine
 10
842.6237321475781
 20
675.5347692601515
 30
0.0
 11
842.6237321475781
 21
686.7901958362482
 31
0.0
1001
AcDbBlockRepETag
1070
     1
1071
       66
1005
1BB3B
  0
LINE
  5
1BB3C
330
10FE8
100
AcDbEntity
  8
图框
370
    -3
100
AcDbLine
 10
848.3346124496179
 20
675.5347692601515
 30
0.0
 11
848.3346124496179
 21
686.7901958362482
 31
0.0
1001
AcDbBlockRepETag
1070
     1
1071
       67
1005
1BB3C
  0
MTEXT
  5
1BB3D
102
{ACAD_XDICTIONARY
360
1BBBC
102
}
330
10FE8
100
AcDbEntity
  8
图框
100
AcDbMText
 10
857.7903401027889
 20
686.7901958362482
 30
0.0
 40
1.958998408821398
 41
11.25542657609672
 46
7.489694702258906
 71
     4
 72
     5
  1
\pi2.8203;档案员{\H0.7x;\P\pi1.4159;\Fromans|c134;Filing Clerk\fFangSong_GB2312|b0|i0|c134|p49; }
 11
-0.0000000000000002
 21
-1.0
 31
0.0
 73
     1
 44
1.0
1001
AcDbBlockRepETag
1070
     1
1071
       68
1005
1BB3D
1001
ACAD
1000
ACAD_MTEXT_DEFINED_HEIGHT_BEGIN
1070
    46
1040
7.489694702258906
1000
ACAD_MTEXT_DEFINED_HEIGHT_END
  0
MTEXT
  5
1BB3E
102
{ACAD_XDICTIONARY
360
1BBBE
102
}
330
10FE8
100
AcDbEntity
  8
图框
100
AcDbMText
 10
845.479172298598
 20
686.7901958362482
 30
0.0
 40
1.958998408821398
 41
11.25542657609672
 46
5.710880302039671
 71
     4
 72
     5
  1
\pi0.7115;日期{\Fromans|c134;/Date}
 11
-0.0000000000000002
 21
-1.0
 31
0.0
 73
     1
 44
1.0
1001
AcDbBlockRepETag
1070
     1
1071
       69
1005
1BB3E
1001
ACAD
1000
ACAD_MTEXT_DEFINED_HEIGHT_BEGIN
1070
    46
1040
5.710880302039671
1000
ACAD_MTEXT_DEFINED_HEIGHT_END
  0
LINE
  5
1BB3F
330
10FE8
100
AcDbEntity
  8
图框
370
    -3
100
AcDbLine
 10
854.0454927516588
 20
675.5347692601515
 30
0.0
 11
854.0454927516588
 21
686.7901958362482
 31
0.0
1001
AcDbBlockRepETag
1070
     1
1071
       70
1005
1BB3F
  0
LINE
  5
1BB40
330
10FE8
100
AcDbEntity
  8
图框
370
    -3
100
AcDbLine
 10
1036.653967466372
 20
531.3291676047914
 30
0.0
 11
1036.653967466372
 21
484.0126019753161
 31
0.0
1001
AcDbBlockRepETag
1070
     1
1071
       71
1005
1BB40
  0
LINE
  5
1BB41
330
10FE8
100
AcDbEntity
  8
图框
370
    -3
100
AcDbLine
 10
1047.483315900763
 20
507.6708838011533
 30
0.0
 11
1047.483315900763
 21
491.8986945987308
 31
0.0
1001
AcDbBlockRepETag
1070
     1
1071
       72
1005
1BB41
  0
LINE
  5
1BB42
330
10FE8
100
AcDbEntity
  8
图框
370
    -3
100
AcDbLine
 10
1058.312664335153
 20
507.6708838011533
 30
0.0
 11
1058.312664335153
 21
484.0347692601515
 31
0.0
1001
AcDbBlockRepETag
1070
     1
1071
       73
1005
1BB42
  0
LINE
  5
1BB43
330
10FE8
100
AcDbEntity
  8
图框
370
    25
100
AcDbLine
 10
1048.474135214456
 20
488.1095628329926
 30
0.0
 11
1054.946420288459
 21
488.1095628329926
 31
0.0
1001
AcDbBlockRepETag
1070
     1
1071
       74
1005
1BB43
  0
LINE
  5
1BB44
330
10FE8
100
AcDbEntity
  8
图框
370
    25
100
AcDbLine
 10
1054.232527365989
 20
487.0761716842634
 30
0.0
 11
1049.156490914508
 21
486.4576273751
 31
0.0
1001
AcDbBlockRepETag
1070
     1
1071
       75
1005
1BB44
  0
LINE
  5
1BB45
330
10FE8
100
AcDbEntity
  8
图框
370
    25
100
AcDbLine
 10
1054.232527365989
 20
489.1429539817209
 30
0.0
 11
1049.156490914508
 21
489.7614982908846
 31
0.0
1001
AcDbBlockRepETag
1070
     1
1071
       76
1005
1BB45
  0
LINE
  5
1BB46
330
10FE8
100
AcDbEntity
  8
图框
370
    25
100
AcDbLine
 10
1049.156490914508
 20
489.7614982908846
 30
0.0
 11
1049.156490914508
 21
486.4576273751
 31
0.0
1001
AcDbBlockRepETag
1070
     1
1071
       77
1005
1BB46
  0
LINE
  5
1BB47
330
10FE8
100
AcDbEntity
  8
图框
370
    25
100
AcDbLine
 10
1054.232527365989
 20
489.1429539817209
 30
0.0
 11
1054.232527365989
 21
487.0761716842634
 31
0.0
1001
AcDbBlockRepETag
1070
     1
1071
       78
1005
1BB47
  0
CIRCLE
  5
1BB48
330
10FE8
100
AcDbEntity
  8
图框
370
    25
100
AcDbCircle
 10
1042.502700458579
 20
488.1095628329926
 30
0.0
 40
1.651935457891863
1001
AcDbBlockRepETag
1070
     1
1071
       79
1005
1BB48
  0
CIRCLE
  5
1BB49
330
10FE8
100
AcDbEntity
  8
图框
370
    25
100
AcDbCircle
 10
1042.502700458579
 20
488.1095628329926
 30
0.0
 40
1.033391148728775
1001
AcDbBlockRepETag
1070
     1
1071
       80
1005
1BB49
  0
LINE
  5
1BB4A
330
10FE8
100
AcDbEntity
  8
图框
370
    25
100
AcDbLine
 10
1040.136872078216
 20
488.1095628329926
 30
0.0
 11
1044.868528838943
 21
488.1095628329926
 31
0.0
1001
AcDbBlockRepETag
1070
     1
1071
       81
1005
1BB4A
  0
LINE
  5
1BB4B
330
10FE8
100
AcDbEntity
  8
图框
370
    25
100
AcDbLine
 10
1042.502700458579
 20
490.475391213355
 30
0.0
 11
1042.502700458579
 21
485.743734452629
 31
0.0
1001
AcDbBlockRepETag
1070
     1
1071
       82
1005
1BB4B
  0
LINE
  5
1BB4C
330
10FE8
100
AcDbEntity
  8
图框
370
    -3
100
AcDbLine
 10
1069.142012769546
 20
507.6708838011533
 30
0.0
 11
1069.142012769546
 21
491.8986945987308
 31
0.0
1001
AcDbBlockRepETag
1070
     1
1071
       83
1005
1BB4C
  0
MTEXT
  5
1BB4D
330
10FE8
100
AcDbEntity
  8
图框
100
AcDbMText
 10
1086.643735910939
 20
526.8006839312707
 30
0.0
 40
2.154898249703542
 41
13.34474941400573
 46
9.056967347041775
 71
     5
 72
     5
  1
图号{\Ftxt|c134;\P\Fromans|c134;\W0.65;Drawing No.}
 73
     1
 44
1.0
1001
AcDbBlockRepETag
1070
     1
1071
       84
1005
1BB4D
1001
ACAD
1000
ACAD_MTEXT_DEFINED_HEIGHT_BEGIN
1070
    46
1040
9.056967347041775
1000
ACAD_MTEXT_DEFINED_HEIGHT_END
  0
LINE
  5
1BB4E
330
10FE8
100
AcDbEntity
  8
图框
370
    -3
100
AcDbLine
 10
1093.316110617942
 20
531.3291676047914
 30
0.0
 11
1093.316110617942
 21
495.8417418993347
 31
0.0
1001
AcDbBlockRepETag
1070
     1
1071
       85
1005
1BB4E
  0
LINE
  5
1BB4F
330
10FE8
100
AcDbEntity
  8
图框
370
    -3
100
AcDbLine
 10
1047.473969770481
 20
531.3291676047914
 30
0.0
 11
1047.473969770481
 21
507.6708838011533
 31
0.0
1001
AcDbBlockRepETag
1070
     1
1071
       86
1005
1BB4F
  0
MTEXT
  5
1BB50
330
10FE8
100
AcDbEntity
  8
图框
100
AcDbMText
 10
1063.72733855235
 20
503.7278365005473
 30
0.0
 40
2.252848170144607
 41
10.82934843439208
 46
7.886094601212128
 71
     5
 72
     5
  1
重量\P{\Fromans|c134;Weight}
 73
     1
 44
1.0
1001
AcDbBlockRepETag
1070
     1
1071
       87
1005
1BB50
1001
ACAD
1000
ACAD_MTEXT_DEFINED_HEIGHT_BEGIN
1070
    46
1040
7.886094601212128
1000
ACAD_MTEXT_DEFINED_HEIGHT_END
  0
LINE
  5
1BB51
330
10FE8
100
AcDbEntity
  8
图框
370
    -3
100
AcDbLine
 10
1036.653967466372
 20
519.5000257029746
 30
0.0
 11
1079.971361203936
 21
519.5000257029746
 31
0.0
1001
AcDbBlockRepETag
1070
     1
1071
       88
1005
1BB51
  0
MTEXT
  5
1BB52
330
10FE8
100
AcDbEntity
  8
图框
100
AcDbMText
 10
1074.556686986741
 20
503.7278365005473
 30
0.0
 40
2.252848170144607
 41
10.82934843438984
 46
7.886094601212141
 71
     5
 72
     5
  1
数量\P{\Fromans|c134;Qty.}
 73
     1
 44
1.0
1001
AcDbBlockRepETag
1070
     1
1071
       89
1005
1BB52
1001
ACAD
1000
ACAD_MTEXT_DEFINED_HEIGHT_BEGIN
1070
    46
1040
7.886094601212141
1000
ACAD_MTEXT_DEFINED_HEIGHT_END
  0
LINE
  5
1BB53
330
10FE8
100
AcDbEntity
  8
图框
370
    -3
100
AcDbLine
 10
1079.971361203936
 20
495.8417418993347
 30
0.0
 11
1126.928502610363
 21
495.8417418993342
 31
0.0
1001
AcDbBlockRepETag
1070
     1
1071
       90
1005
1BB53
  0
LINE
  5
1BB54
330
10FE8
100
AcDbEntity
  8
图框
370
    -3
100
AcDbLine
 10
1079.971361203936
 20
504.7132992040975
 30
0.0
 11
1126.928502610363
 21
504.7132992040975
 31
0.0
1001
AcDbBlockRepETag
1070
     1
1071
       91
1005
1BB54
  0
MTEXT
  5
1BB55
330
10FE8
100
AcDbEntity
  8
图框
100
AcDbMText
 10
1052.893317052817
 20
503.7278365005473
 30
0.0
 40
2.252848170144607
 41
10.83869456467139
 46
7.886094601212101
 71
     5
 72
     5
  1
版本\P{\Fromans|c134;REV.}
 73
     1
 44
1.0
1001
AcDbBlockRepETag
1070
     1
1071
       92
1005
1BB55
1001
ACAD
1000
ACAD_MTEXT_DEFINED_HEIGHT_BEGIN
1070
    46
1040
7.886094601212101
1000
ACAD_MTEXT_DEFINED_HEIGHT_END
  0
MTEXT
  5
1BB56
330
10FE8
100
AcDbEntity
  8
图框
100
AcDbMText
 10
1042.068641683568
 20
503.7278365005473
 30
0.0
 40
2.252848170144607
 41
10.8293484343908
 46
7.886094601212136
 71
     5
 72
     5
  1
比例\P{\Fromans|c134;Scale}
 73
     1
 44
1.0
1001
AcDbBlockRepETag
1070
     1
1071
       93
1005
1BB56
1001
ACAD
1000
ACAD_MTEXT_DEFINED_HEIGHT_BEGIN
1070
    46
1040
7.886094601212136
1000
ACAD_MTEXT_DEFINED_HEIGHT_END
  0
LINE
  5
1BB57
330
10FE8
100
AcDbEntity
  8
图框
370
    -3
100
AcDbLine
 10
1036.653967466372
 20
507.6708838011533
 30
0.0
 11
1079.971361203936
 21
507.6708838011533
 31
0.0
1001
AcDbBlockRepETag
1070
     1
1071
       94
1005
1BB57
  0
LINE
  5
1BB58
330
10FE8
100
AcDbEntity
  8
图框
370
    -3
100
AcDbLine
 10
1036.653967466372
 20
491.8986945987308
 30
0.0
 11
1079.971361203936
 21
491.8986945987308
 31
0.0
1001
AcDbBlockRepETag
1070
     1
1071
       95
1005
1BB58
  0
LINE
  5
1BB59
330
10FE8
100
AcDbEntity
  8
图框
370
    -3
100
AcDbLine
 10
1079.971361203936
 20
531.3291676047914
 30
0.0
 11
1079.971361203936
 21
484.0125999975168
 31
0.0
1001
AcDbBlockRepETag
1070
     1
1071
       96
1005
1BB59
  0
MTEXT
  5
1BB5A
330
10FE8
100
AcDbEntity
  8
图框
100
AcDbMText
 10
1042.063968618426
 20
525.4145966538832
 30
0.0
 40
2.252848170144607
 41
10.82000230410933
 46
11.82914190181708
 71
     5
 72
     5
  1
表面处理\P{\Fromans|c134;Finish}
 73
     1
 44
1.0
1001
AcDbBlockRepETag
1070
     1
1071
       97
1005
1BB5A
1001
ACAD
1000
ACAD_MTEXT_DEFINED_HEIGHT_BEGIN
1070
    46
1040
11.82914190181708
1000
ACAD_MTEXT_DEFINED_HEIGHT_END
  0
MTEXT
  5
1BB5B
330
10FE8
100
AcDbEntity
  8
图框
100
AcDbMText
 10
1042.063968618426
 20
513.5854547520639
 30
0.0
 40
2.252848170144607
 41
10.82000230410933
 46
11.8291419018212
 71
     5
 72
     5
  1
材料\P{\Fromans|c134;Material}
 73
     1
 44
1.0
1001
AcDbBlockRepETag
1070
     1
1071
       98
1005
1BB5B
1001
ACAD
1000
ACAD_MTEXT_DEFINED_HEIGHT_BEGIN
1070
    46
1040
11.8291419018212
1000
ACAD_MTEXT_DEFINED_HEIGHT_END
  0
LINE
  5
1BB5C
330
10FE8
100
AcDbEntity
  8
图框
370
    -3
100
AcDbLine
 10
1079.971361203936
 20
522.27220025775
 30
0.0
 11
1126.928502610363
 21
522.27220025775
 31
0.0
1001
AcDbBlockRepETag
1070
     1
1071
       99
1005
1BB5C
  0
LINE
  5
1BB5D
330
10FE8
100
AcDbEntity
  8
图框
370
    -3
100
AcDbLine
 10
1079.971361203936
 20
513.5854547520641
 30
0.0
 11
1126.928502610363
 21
513.5854547520639
 31
0.0
1001
AcDbBlockRepETag
1070
     1
1071
      100
1005
1BB5D
  0
MTEXT
  5
1BB5E
330
10FE8
100
AcDbEntity
  8
图框
100
AcDbMText
 10
1086.643735910939
 20
517.9288275049072
 30
0.0
 40
1.958998408821398
 41
13.34474941400573
 46
8.686745505685811
 71
     5
 72
     5
  1
产品代号\P{\Fromans|c134;Part Code}
 73
     1
 44
1.0
1001
AcDbBlockRepETag
1070
     1
1071
      101
1005
1BB5E
1001
ACAD
1000
ACAD_MTEXT_DEFINED_HEIGHT_BEGIN
1070
    46
1040
8.686745505685811
1000
ACAD_MTEXT_DEFINED_HEIGHT_END
  0
LINE
  5
1BB5F
330
10FE8
100
AcDbEntity
  8
图框
370
    -3
100
AcDbLine
 10
946.9285026103634
 20
525.7982263931411
 30
0.0
 11
1036.653967466372
 21
525.7982263931411
 31
0.0
1001
AcDbBlockRepETag
1070
     1
1071
      102
1005
1BB5F
  0
LINE
  5
1BB60
330
10FE8
100
AcDbEntity
  8
图框
370
    -3
100
AcDbLine
 10
946.9285026103634
 20
520.2672851814959
 30
0.0
 11
1036.653967466372
 21
520.2672851814959
 31
0.0
1001
AcDbBlockRepETag
1070
     1
1071
      103
1005
1BB60
  0
LINE
  5
1BB61
330
10FE8
100
AcDbEntity
  8
图框
370
    35
100
AcDbLine
 10
946.9285026103634
 20
531.3291676047914
 30
0.0
 11
1126.928502610363
 21
531.3291676047914
 31
0.0
1001
AcDbBlockRepETag
1070
     1
1071
      104
1005
1BB61
  0
LINE
  5
1BB62
330
10FE8
100
AcDbEntity
  8
图框
370
    -3
100
AcDbLine
 10
990.6727612856927
 20
509.2054027581959
 30
0.0
 11
990.6727612856927
 21
484.0347692601515
 31
0.0
1001
AcDbBlockRepETag
1070
     1
1071
      105
1005
1BB62
  0
MTEXT
  5
1BB63
102
{ACAD_XDICTIONARY
360
1BBC0
102
}
330
10FE8
100
AcDbEntity
  8
图框
100
AcDbMText
 10
997.1628169651232
 20
499.816589978722
 30
0.0
 40
2.252848170144607
 41
12.98011135886052
 46
6.19230880992475
 71
     5
 72
     5
  1
{\f仿宋_GB2312|b0|i0|c134|p49;标准化}\PStand.
  7
Romans字体
 73
     1
 44
1.0
1001
AcDbBlockRepETag
1070
     1
1071
      106
1005
1BB63
1001
ACAD
1000
ACAD_MTEXT_DEFINED_HEIGHT_BEGIN
1070
    46
1040
6.19230880992475
1000
ACAD_MTEXT_DEFINED_HEIGHT_END
  0
LINE
  5
1BB64
330
10FE8
100
AcDbEntity
  8
图框
370
    -3
100
AcDbLine
 10
975.4103773808022
 20
509.2054027581959
 30
0.0
 11
975.4103773808022
 21
484.0347692601515
 31
0.0
1001
AcDbBlockRepETag
1070
     1
1071
      107
1005
1BB64
  0
MTEXT
  5
1BB65
330
10FE8
100
AcDbEntity
  8
图框
100
AcDbMText
 10
984.5089229802068
 20
511.9708733640202
 30
0.0
 40
2.448748011026752
 41
38.287899328693
 46
5.530941211648832
 71
     5
 72
     5
  1
  变更描述{\Fromans|c134;/Description}
 73
     1
 44
1.0
1001
AcDbBlockRepETag
1070
     1
1071
      108
1005
1BB65
1001
ACAD
1000
ACAD_MTEXT_DEFINED_HEIGHT_BEGIN
1070
    46
1040
5.530941211648832
1000
ACAD_MTEXT_DEFINED_HEIGHT_END
  0
MTEXT
  5
1BB66
102
{ACAD_XDICTIONARY
360
1BBC2
102
}
330
10FE8
100
AcDbEntity
  8
图框
100
AcDbMText
 10
1012.477254728976
 20
511.9708733640202
 30
0.0
 40
1.958998408821398
 41
17.64876416884548
 46
5.530941211649166
 71
     5
 72
     5
  1
签名\P{\Fromans|c134;Signature} 
 73
     1
 44
1.0
1001
AcDbBlockRepETag
1070
     1
1071
      109
1005
1BB66
1001
ACAD
1000
ACAD_MTEXT_DEFINED_HEIGHT_BEGIN
1070
    46
1040
5.530941211649166
1000
ACAD_MTEXT_DEFINED_HEIGHT_END
  0
MTEXT
  5
1BB67
102
{ACAD_XDICTIONARY
360
1BBC4
102
}
330
10FE8
100
AcDbEntity
  8
图框
100
AcDbMText
 10
960.7558556394856
 20
511.9708733640202
 30
0.0
 40
1.958998408821398
 41
9.218235352749283
 46
5.530941211648841
 71
     5
 72
     5
  1
处数\P{\Fromans|c134;Number }
 73
     1
 44
1.0
1001
AcDbBlockRepETag
1070
     1
1071
      110
1005
1BB67
1001
ACAD
1000
ACAD_MTEXT_DEFINED_HEIGHT_BEGIN
1070
    46
1040
5.530941211648841
1000
ACAD_MTEXT_DEFINED_HEIGHT_END
  0
LINE
  5
1BB68
330
10FE8
100
AcDbEntity
  8
图框
370
    -3
100
AcDbLine
 10
946.9285026103634
 20
514.7363439698449
 30
0.0
 11
1036.653967466372
 21
514.7363439698449
 31
0.0
1001
AcDbBlockRepETag
1070
     1
1071
      111
1005
1BB68
  0
LINE
  5
1BB69
330
10FE8
100
AcDbEntity
  8
图框
370
    -3
100
AcDbLine
 10
946.9285026103634
 20
509.2054027581959
 30
0.0
 11
1036.653967466372
 21
509.2054027581959
 31
0.0
1001
AcDbBlockRepETag
1070
     1
1071
      112
1005
1BB69
  0
LINE
  5
1BB6A
330
10FE8
100
AcDbEntity
  8
图框
370
    -3
100
AcDbLine
 10
946.9285026103634
 20
502.9127443836848
 30
0.0
 11
1036.653967466372
 21
502.9127443836848
 31
0.0
1001
AcDbBlockRepETag
1070
     1
1071
      113
1005
1BB6A
  0
LINE
  5
1BB6B
330
10FE8
100
AcDbEntity
  8
图框
370
    -3
100
AcDbLine
 10
946.9285026103634
 20
496.620086009173
 30
0.0
 11
1036.653967466372
 21
496.620086009173
 31
0.0
1001
AcDbBlockRepETag
1070
     1
1071
      114
1005
1BB6B
  0
LINE
  5
1BB6C
330
10FE8
100
AcDbEntity
  8
图框
370
    35
380
     1
100
AcDbLine
 10
946.9285026103634
 20
531.3291676047914
 30
0.0
 11
946.9285026103634
 21
484.0347692601515
 31
0.0
1001
AcDbBlockRepETag
1070
     1
1071
      115
1005
1BB6C
  0
LINE
  5
1BB6D
330
10FE8
100
AcDbEntity
  8
图框
370
    -3
100
AcDbLine
 10
1021.301636813399
 20
531.3291676047914
 30
0.0
 11
1021.301636813399
 21
484.0347692601515
 31
0.0
1001
AcDbBlockRepETag
1070
     1
1071
      116
1005
1BB6D
  0
LINE
  5
1BB6E
330
10FE8
100
AcDbEntity
  8
图框
370
    -3
100
AcDbLine
 10
1003.652872644553
 20
531.3291676047914
 30
0.0
 11
1003.652872644553
 21
484.0347692601515
 31
0.0
1001
AcDbBlockRepETag
1070
     1
1071
      117
1005
1BB6E
  0
LINE
  5
1BB6F
330
10FE8
100
AcDbEntity
  8
图框
370
    -3
100
AcDbLine
 10
965.3649733158603
 20
531.3291676047914
 30
0.0
 11
965.3649733158603
 21
509.2054027581959
 31
0.0
1001
AcDbBlockRepETag
1070
     1
1071
      118
1005
1BB6F
  0
LINE
  5
1BB70
330
10FE8
100
AcDbEntity
  8
图框
370
    -3
100
AcDbLine
 10
956.1467379631109
 20
531.3291676047914
 30
0.0
 11
956.1467379631109
 21
509.2054027581959
 31
0.0
1001
AcDbBlockRepETag
1070
     1
1071
      119
1005
1BB70
  0
MTEXT
  5
1BB71
102
{ACAD_XDICTIONARY
360
1BBC6
102
}
330
10FE8
100
AcDbEntity
  8
图框
100
AcDbMText
 10
951.537620286737
 20
511.9708733640202
 30
0.0
 40
1.958998408821398
 41
9.218235352747692
 46
5.530941211648832
 71
     5
 72
     5
  1
标记\P{\Fromans|c134;Mark}
 73
     1
 44
1.0
1001
AcDbBlockRepETag
1070
     1
1071
      120
1005
1BB71
1001
ACAD
1000
ACAD_MTEXT_DEFINED_HEIGHT_BEGIN
1070
    46
1040
5.530941211648832
1000
ACAD_MTEXT_DEFINED_HEIGHT_END
  0
MTEXT
  5
1BB72
102
{ACAD_XDICTIONARY
360
1BBC8
102
}
330
10FE8
100
AcDbEntity
  8
图框
100
AcDbMText
 10
953.4185582897936
 20
493.4737568219182
 30
0.0
 40
2.252848170144607
 41
12.98011135886041
 46
6.292658374510382
 71
     5
 72
     5
  1
审核\P{\Fromans|c134;Checked}
 73
     1
 44
1.0
1001
AcDbBlockRepETag
1070
     1
1071
      121
1005
1BB72
1001
ACAD
1000
ACAD_MTEXT_DEFINED_HEIGHT_BEGIN
1070
    46
1040
6.292658374510382
1000
ACAD_MTEXT_DEFINED_HEIGHT_END
  0
MTEXT
  5
1BB73
102
{ACAD_XDICTIONARY
360
1BBCA
102
}
330
10FE8
100
AcDbEntity
  8
图框
100
AcDbMText
 10
953.4185582897936
 20
499.8775635376777
 30
0.0
 40
2.252848170144607
 41
12.98011135886041
 46
6.070361692014189
 71
     5
 72
     5
  1
绘图\P{\Fromans|c134;Drawn\Ftxt|c134; }
 73
     1
 44
1.0
1001
AcDbBlockRepETag
1070
     1
1071
      122
1005
1BB73
1001
ACAD
1000
ACAD_MTEXT_DEFINED_HEIGHT_BEGIN
1070
    46
1040
6.070361692014189
1000
ACAD_MTEXT_DEFINED_HEIGHT_END
  0
ARC
  5
1BB74
330
10FE8
100
AcDbEntity
  8
图框
 62
     4
370
    35
100
AcDbCircle
 10
1086.900627017421
 20
490.0179944151195
 30
0.0
 40
4.063310408393665
100
AcDbArc
 50
18.95237904564806
 51
161.0476209543519
1001
AcDbBlockRepETag
1070
     1
1071
      123
1005
1BB74
  0
ARC
  5
1BB75
330
10FE8
100
AcDbEntity
  8
图框
 62
     4
370
    35
100
AcDbCircle
 10
1086.900627017421
 20
490.0179944151195
 30
0.0
 40
4.063310408393665
100
AcDbArc
 50
198.952379045648
 51
341.0476209543519
1001
AcDbBlockRepETag
1070
     1
1071
      124
1005
1BB75
  0
LINE
  5
1BB76
330
10FE8
100
AcDbEntity
  8
图框
 62
     4
370
    35
100
AcDbLine
 10
1083.057593369548
 20
488.6983035966752
 30
0.0
 11
1090.74366066529
 21
488.6983035966752
 31
0.0
1001
AcDbBlockRepETag
1070
     1
1071
      125
1005
1BB76
  0
LINE
  5
1BB77
330
10FE8
100
AcDbEntity
  8
图框
 62
     4
370
    35
100
AcDbLine
 10
1083.057593369548
 20
491.3376852335652
 30
0.0
 11
1090.74366066529
 21
491.3376852335652
 31
0.0
1001
AcDbBlockRepETag
1070
     1
1071
      126
1005
1BB77
  0
MTEXT
  5
1BB78
330
10FE8
100
AcDbEntity
  8
图框
 62
     1
370
    20
100
AcDbMText
 10
1083.034582879669
 20
491.0506288081688
 30
0.0
 40
2.005930044038334
 41
5.047240019334847
 46
0.0
 71
     1
 72
     5
  1
{\fArial|b0|i0|c0|p34;W}
  7
Chinese
 73
     1
 44
1.0
1001
AcDbBlockRepETag
1070
     1
1071
      127
1005
1BB78
  0
LINE
  5
1BB79
330
10FE8
100
AcDbEntity
  8
图框
370
    -3
100
AcDbLine
 10
946.9285026103634
 20
490.327427634663
 30
0.0
 11
1036.653967466372
 21
490.327427634663
 31
0.0
1001
AcDbBlockRepETag
1070
     1
1071
      128
1005
1BB79
  0
LINE
  5
1BB7A
330
10FE8
100
AcDbEntity
  8
图框
370
    -3
100
AcDbLine
 10
959.9086139692238
 20
509.2054027581959
 30
0.0
 11
959.9086139692238
 21
484.0347692601515
 31
0.0
1001
AcDbBlockRepETag
1070
     1
1071
      129
1005
1BB7A
  0
MTEXT
  5
1BB7B
330
10FE8
100
AcDbEntity
  8
图框
100
AcDbMText
 10
967.6594956750129
 20
506.0590735709403
 30
0.0
 40
2.252848170144607
 41
15.50176341157869
 46
6.292658374511246
 71
     5
 72
     5
  1
姓名{\Fromans|c134;/Name\Ftxt|c134; }
 73
     1
 44
1.0
1001
AcDbBlockRepETag
1070
     1
1071
      130
1005
1BB7B
1001
ACAD
1000
ACAD_MTEXT_DEFINED_HEIGHT_BEGIN
1070
    46
1040
6.292658374511246
1000
ACAD_MTEXT_DEFINED_HEIGHT_END
  0
MTEXT
  5
1BB7C
330
10FE8
100
AcDbEntity
  8
图框
100
AcDbMText
 10
983.0415693332477
 20
506.0590735709403
 30
0.0
 40
2.252848170144607
 41
15.26238390489042
 46
6.2926583745112
 71
     5
 72
     5
  1
日期{\Fromans|c134;/Date}
 73
     1
 44
1.0
1001
AcDbBlockRepETag
1070
     1
1071
      131
1005
1BB7C
1001
ACAD
1000
ACAD_MTEXT_DEFINED_HEIGHT_BEGIN
1070
    46
1040
6.2926583745112
1000
ACAD_MTEXT_DEFINED_HEIGHT_END
  0
LINE
  5
1BB7D
330
10FE8
100
AcDbEntity
  8
图框
370
    -3
100
AcDbLine
 10
946.9285026103634
 20
509.2054027581959
 30
0.0
 11
959.9086139692238
 21
502.9127443836848
 31
0.0
1001
AcDbBlockRepETag
1070
     1
1071
      132
1005
1BB7D
  0
MTEXT
  5
1BB7E
330
10FE8
100
AcDbEntity
  8
图框
100
AcDbMText
 10
1012.931405110086
 20
506.0185715840725
 30
0.0
 40
2.252848170144607
 41
16.93492221063566
 46
0.0
 71
     5
 72
     5
  1
姓名{\Fromans|c134;/Name}
 73
     1
 44
1.0
1001
AcDbBlockRepETag
1070
     1
1071
      133
1005
1BB7E
  0
MTEXT
  5
1BB7F
330
10FE8
100
AcDbEntity
  8
图框
100
AcDbMText
 10
1028.977802139886
 20
506.0590735709403
 30
0.0
 40
2.252848170144607
 41
15.35233065297283
 46
6.292658374511256
 71
     5
 72
     5
  1
日期{\Fromans|c134;/Date}
 73
     1
 44
1.0
1001
AcDbBlockRepETag
1070
     1
1071
      134
1005
1BB7F
1001
ACAD
1000
ACAD_MTEXT_DEFINED_HEIGHT_BEGIN
1070
    46
1040
6.292658374511256
1000
ACAD_MTEXT_DEFINED_HEIGHT_END
  0
LINE
  5
1BB80
330
10FE8
100
AcDbEntity
  8
图框
370
    -3
100
AcDbLine
 10
1003.652872644553
 20
502.9127443836848
 30
0.0
 11
990.6727612856927
 21
509.2054027581959
 31
0.0
1001
AcDbBlockRepETag
1070
     1
1071
      135
1005
1BB80
  0
MTEXT
  5
1BB81
102
{ACAD_XDICTIONARY
360
1BBCC
102
}
330
10FE8
100
AcDbEntity
  8
图框
100
AcDbMText
 10
997.1628169651232
 20
487.1810984474071
 30
0.0
 40
2.252848170144607
 41
12.98011135886052
 46
6.292658374511517
 71
     5
 72
     5
  1
批准\P{\Fromans|c134;Approved}
 73
     1
 44
1.0
1001
AcDbBlockRepETag
1070
     1
1071
      136
1005
1BB81
1001
ACAD
1000
ACAD_MTEXT_DEFINED_HEIGHT_BEGIN
1070
    46
1040
6.292658374511517
1000
ACAD_MTEXT_DEFINED_HEIGHT_END
  0
MTEXT
  5
1BB82
102
{ACAD_XDICTIONARY
360
1BBCE
102
}
330
10FE8
100
AcDbEntity
  8
图框
100
AcDbMText
 10
953.4185582897936
 20
487.1810984474071
 30
0.0
 40
2.252848170144607
 41
12.98011135886041
 46
6.292658374511495
 71
     5
 72
     5
  1
工艺\P{\Fromans|c134;Process}
 73
     1
 44
1.0
1001
AcDbBlockRepETag
1070
     1
1071
      137
1005
1BB82
1001
ACAD
1000
ACAD_MTEXT_DEFINED_HEIGHT_BEGIN
1070
    46
1040
6.292658374511495
1000
ACAD_MTEXT_DEFINED_HEIGHT_END
  0
MTEXT
  5
1BB83
102
{ACAD_XDICTIONARY
360
1BBD0
102
}
330
10FE8
100
AcDbEntity
  8
图框
100
AcDbMText
 10
1028.977802139886
 20
511.9708733640204
 30
0.0
 40
1.958998408821398
 41
15.3523306529728
 46
5.530941211648912
 71
     5
 72
     5
  1
日期\P{\Fromans|c134;Date}
 73
     1
 44
1.0
1001
AcDbBlockRepETag
1070
     1
1071
      138
1005
1BB83
1001
ACAD
1000
ACAD_MTEXT_DEFINED_HEIGHT_BEGIN
1070
    46
1040
5.530941211648912
1000
ACAD_MTEXT_DEFINED_HEIGHT_END
  0
MTEXT
  5
1BB84
330
10FE8
100
AcDbEntity
  8
图框
100
AcDbMText
 10
1086.643735910939
 20
509.1493769780809
 30
0.0
 40
2.154898249703542
 41
13.34474941400573
 46
8.87215554796615
 71
     5
 72
     5
  1
产品料号\P{\Fromans|c134;Part No.}
 73
     1
 44
1.0
1001
AcDbBlockRepETag
1070
     1
1071
      139
1005
1BB84
1001
ACAD
1000
ACAD_MTEXT_DEFINED_HEIGHT_BEGIN
1070
    46
1040
8.87215554796615
1000
ACAD_MTEXT_DEFINED_HEIGHT_END
  0
MTEXT
  5
1BB85
330
10FE8
100
AcDbEntity
  8
图框
100
AcDbMText
 10
1086.643735910939
 20
500.2775205517163
 30
0.0
 40
1.958998408821398
 41
13.34474941400573
 46
8.871557304763321
 71
     5
 72
     5
  1
产品名称\P{\Fromans|c134;Part Name}
 73
     1
 44
1.0
1001
AcDbBlockRepETag
1070
     1
1071
      140
1005
1BB85
1001
ACAD
1000
ACAD_MTEXT_DEFINED_HEIGHT_BEGIN
1070
    46
1040
8.871557304763321
1000
ACAD_MTEXT_DEFINED_HEIGHT_END
  0
LINE
  5
1BB86
330
10FE8
100
AcDbEntity
  8
图框
 62
     1
370
    18
100
AcDbLine
 10
833.4128518455365
 20
690.5347692601515
 30
0.0
 11
833.4128518455365
 21
480.5347692601515
 31
0.0
1001
AcDbBlockRepETag
1070
     1
1071
      141
1005
1BB86
  0
LINE
  5
1BB87
330
10FE8
100
AcDbEntity
  8
图框
 62
     1
370
    18
100
AcDbLine
 10
833.4128518455365
 20
480.5347692601515
 30
0.0
 11
1130.411601781236
 21
480.5347692601515
 31
0.0
1001
AcDbBlockRepETag
1070
     1
1071
      142
1005
1BB87
  0
LINE
  5
1BB88
330
10FE8
100
AcDbEntity
  8
图框
 62
     1
370
    18
100
AcDbLine
 10
833.4128518455365
 20
690.5347692601515
 30
0.0
 11
1130.411601781236
 21
690.5347692601515
 31
0.0
1001
AcDbBlockRepETag
1070
     1
1071
      143
1005
1BB88
  0
LINE
  5
1BB89
330
10FE8
100
AcDbEntity
  8
图框
 62
     1
370
    18
100
AcDbLine
 10
1130.411601781236
 20
480.5347692601515
 30
0.0
 11
1130.411601781236
 21
690.5347692601515
 31
0.0
1001
AcDbBlockRepETag
1070
     1
1071
      144
1005
1BB89
  0
LINE
  5
1BB8A
330
10FE8
100
AcDbEntity
  8
图框
370
    18
100
AcDbLine
 10
836.9128518455394
 20
686.7901958362482
 30
0.0
 11
861.5351874539182
 21
686.7901958362482
 31
0.0
1001
AcDbBlockRepETag
1070
     1
1071
      145
1005
1BB8A
  0
LINE
  5
1BB8B
330
10FE8
100
AcDbEntity
  8
图框
370
    50
100
AcDbLine
 10
1126.928502610363
 20
484.3410054693078
 30
0.0
 11
1126.928502610363
 21
675.5347692601515
 31
0.0
1001
AcDbBlockRepETag
1070
     1
1071
      146
1005
1BB8B
  0
MTEXT
  5
1BB8C
330
10FE8
100
AcDbEntity
  8
图框
 62
     3
100
AcDbMText
 10
1052.897990117958
 20
495.8417418993364
 30
0.0
 40
2.985513575034151
 41
10.82934843439114
 46
7.886094601211307
 71
     5
 72
     5
  1
V1.0
  7
Romans字体
 73
     1
 44
1.0
1001
AcDbBlockRepETag
1070
     1
1071
      147
1005
1BB8C
1001
ACAD
1000
ACAD_MTEXT_DEFINED_HEIGHT_BEGIN
1070
    46
1040
7.886094601211307
1000
ACAD_MTEXT_DEFINED_HEIGHT_END
  0
LINE
  5
1BB8D
330
10FE8
100
AcDbEntity
  8
图框
 62
     6
100
AcDbLine
 10
1126.911601781236
 20
531.714049199969
 30
0.0
 11
1130.411601781236
 21
531.714049199969
 31
0.0
1001
AcDbBlockRepETag
1070
     1
1071
      148
1005
1BB8D
  0
ENDBLK
  5
1107F
330
10FE8
100
AcDbEntity
  8
0
100
AcDbBlockEnd
  0
BLOCK
  5
1B900
330
1B8FF
100
AcDbEntity
  8
0
100
AcDbBlockBegin
  2
*D2
 70
     1
 10
0.0
 20
0.0
 30
0.0
  3
*D2
  1

  0
LINE
  5
1BA45
330
1B8FF
100
AcDbEntity
  8
DIM
 62
     6
370
    -2
100
AcDbLine
 10
519.2363704353604
 20
267.2786884246581
 30
0.0
 11
514.9319707830171
 21
267.2786884246581
 31
0.0
  0
LINE
  5
1BA46
330
1B8FF
100
AcDbEntity
  8
DIM
 62
     6
370
    -2
100
AcDbLine
 10
519.2363704353604
 20
264.2786834246578
 30
0.0
 11
514.9319707830171
 21
264.2786834246578
 31
0.0
  0
LINE
  5
1BA47
330
1B8FF
100
AcDbEntity
  8
DIM
 62
     1
370
    -2
100
AcDbLine
 10
515.651970783017
 20
268.4786884246581
 30
0.0
 11
515.651970783017
 21
269.6786884246581
 31
0.0
  0
LINE
  5
1BA48
330
1B8FF
100
AcDbEntity
  8
DIM
 62
     1
370
    -2
100
AcDbLine
 10
515.651970783017
 20
263.0786834246578
 30
0.0
 11
515.651970783017
 21
261.8786834246578
 31
0.0
  0
SOLID
  5
1BA49
330
1B8FF
100
AcDbEntity
  8
DIM
 62
     1
100
AcDbTrace
 10
515.4519707830171
 20
268.4786884246581
 30
0.0
 11
515.8519707830172
 21
268.4786884246581
 31
0.0
 12
515.651970783017
 22
267.2786884246581
 32
0.0
 13
515.651970783017
 23
267.2786884246581
 33
0.0
  0
SOLID
  5
1BA4A
330
1B8FF
100
AcDbEntity
  8
DIM
 62
     1
100
AcDbTrace
 10
515.4519707830171
 20
263.0786834246578
 30
0.0
 11
515.8519707830172
 21
263.0786834246578
 31
0.0
 12
515.651970783017
 22
264.2786834246578
 32
0.0
 13
515.651970783017
 23
264.2786834246578
 33
0.0
  0
MTEXT
  5
1BA4B
330
1B8FF
100
AcDbEntity
  8
DIM
 62
     4
100
AcDbMText
 10
514.4219707830171
 20
265.778685924658
 30
0.0
 40
1.5
 41
0.0
 46
0.0
 71
     5
 72
     1
  1
\A1;M3
  7
Romans字体
 11
0.0000000000000001
 21
1.0
 31
0.0
 73
     1
 44
1.0
  0
POINT
  5
1BA4C
330
1B8FF
100
AcDbEntity
  8
Defpoints
 62
     0
100
AcDbPoint
 10
519.3563704353604
 20
267.2786884246581
 30
0.0
  0
POINT
  5
1BA4D
330
1B8FF
100
AcDbEntity
  8
Defpoints
 62
     0
100
AcDbPoint
 10
519.3563704353604
 20
264.2786834246578
 30
0.0
  0
POINT
  5
1BA4E
330
1B8FF
100
AcDbEntity
  8
Defpoints
 62
     0
100
AcDbPoint
 10
515.651970783017
 20
264.2786834246578
 30
0.0
  0
ENDBLK
  5
1B901
330
1B8FF
100
AcDbEntity
  8
0
100
AcDbBlockEnd
  0
BLOCK
  5
1B90D
330
1B90C
100
AcDbEntity
  8
0
100
AcDbBlockBegin
  2
*D3
 70
     1
 10
0.0
 20
0.0
 30
0.0
  3
*D3
  1

  0
LINE
  5
1BA4F
330
1B90C
100
AcDbEntity
  8
DIM
 62
     6
370
    -2
100
AcDbLine
 10
518.8563729353614
 20
264.658688424658
 30
0.0
 11
518.8563729353614
 21
256.529681590336
 31
0.0
  0
LINE
  5
1BA50
330
1B90C
100
AcDbEntity
  8
DIM
 62
     6
370
    -2
100
AcDbLine
 10
540.456370935361
 20
265.1086884246583
 30
0.0
 11
540.456370935361
 21
256.529681590336
 31
0.0
  0
LINE
  5
1BA51
330
1B90C
100
AcDbEntity
  8
DIM
 62
     1
370
    -2
100
AcDbLine
 10
520.0563729353614
 20
257.249681590336
 30
0.0
 11
539.256370935361
 21
257.249681590336
 31
0.0
  0
SOLID
  5
1BA52
330
1B90C
100
AcDbEntity
  8
DIM
 62
     1
100
AcDbTrace
 10
520.0563729353614
 20
257.4496815903359
 30
0.0
 11
520.0563729353614
 21
257.049681590336
 31
0.0
 12
518.8563729353614
 22
257.249681590336
 32
0.0
 13
518.8563729353614
 23
257.249681590336
 33
0.0
  0
SOLID
  5
1BA53
330
1B90C
100
AcDbEntity
  8
DIM
 62
     1
100
AcDbTrace
 10
539.256370935361
 20
257.4496815903359
 30
0.0
 11
539.256370935361
 21
257.049681590336
 31
0.0
 12
540.456370935361
 22
257.249681590336
 32
0.0
 13
540.456370935361
 23
257.249681590336
 33
0.0
  0
MTEXT
  5
1BA54
330
1B90C
100
AcDbEntity
  8
DIM
 62
     4
100
AcDbMText
 10
528.9897926022502
 20
258.479681590336
 30
0.0
 40
1.5
 41
0.0
 46
0.0
 71
     5
 72
     1
  1
\A1;21.6
  7
Romans字体
 73
     1
 44
1.0
  0
POINT
  5
1BA55
330
1B90C
100
AcDbEntity
  8
Defpoints
 62
     0
100
AcDbPoint
 10
518.8563729353614
 20
264.7786884246581
 30
0.0
  0
POINT
  5
1BA56
330
1B90C
100
AcDbEntity
  8
Defpoints
 62
     0
100
AcDbPoint
 10
540.456370935361
 20
265.2286884246584
 30
0.0
  0
POINT
  5
1BA57
330
1B90C
100
AcDbEntity
  8
Defpoints
 62
     0
100
AcDbPoint
 10
540.456370935361
 20
257.249681590336
 30
0.0
  0
ENDBLK
  5
1B90E
330
1B90C
100
AcDbEntity
  8
0
100
AcDbBlockEnd
  0
BLOCK
  5
1B91A
330
1B919
100
AcDbEntity
  8
0
100
AcDbBlockBegin
  2
*D4
 70
     1
 10
0.0
 20
0.0
 30
0.0
  3
*D4
  1

  0
LINE
  5
1BA58
330
1B919
100
AcDbEntity
  8
DIM
 62
     6
370
    -2
100
AcDbLine
 10
538.8443224353608
 20
267.9286884246582
 30
0.0
 11
547.4191477829505
 21
267.9286884246582
 31
0.0
  0
LINE
  5
1BA59
330
1B919
100
AcDbEntity
  8
DIM
 62
     6
370
    -2
100
AcDbLine
 10
538.8443224353608
 20
263.6286834246581
 30
0.0
 11
547.4191477829505
 21
263.6286834246581
 31
0.0
  0
LINE
  5
1BA5A
330
1B919
100
AcDbEntity
  8
DIM
 62
     1
370
    -2
100
AcDbLine
 10
546.6991477829505
 20
266.7286884246582
 30
0.0
 11
546.6991477829505
 21
264.8286834246581
 31
0.0
  0
SOLID
  5
1BA5B
330
1B919
100
AcDbEntity
  8
DIM
 62
     1
100
AcDbTrace
 10
546.4991477829506
 20
266.7286884246582
 30
0.0
 11
546.8991477829505
 21
266.7286884246582
 31
0.0
 12
546.6991477829505
 22
267.9286884246582
 32
0.0
 13
546.6991477829505
 23
267.9286884246582
 33
0.0
  0
SOLID
  5
1BA5C
330
1B919
100
AcDbEntity
  8
DIM
 62
     1
100
AcDbTrace
 10
546.4991477829506
 20
264.8286834246581
 30
0.0
 11
546.8991477829505
 21
264.8286834246581
 31
0.0
 12
546.6991477829505
 22
263.6286834246581
 32
0.0
 13
546.6991477829505
 23
263.6286834246581
 33
0.0
  0
MTEXT
  5
1BA5D
330
1B919
100
AcDbEntity
  8
DIM
 62
     4
100
AcDbMText
 10
545.4691477829506
 20
265.473350425412
 30
0.0
 40
1.5
 41
0.0
 46
0.0
 71
     5
 72
     1
  1
\A1;%%C4.3
  7
Romans字体
 11
0.0000000000000001
 21
1.0
 31
0.0
 73
     1
 44
1.0
  0
POINT
  5
1BA5E
330
1B919
100
AcDbEntity
  8
Defpoints
 62
     0
100
AcDbPoint
 10
538.7243224353608
 20
267.9286884246582
 30
0.0
  0
POINT
  5
1BA5F
330
1B919
100
AcDbEntity
  8
Defpoints
 62
     0
100
AcDbPoint
 10
538.7243224353608
 20
263.6286834246581
 30
0.0
  0
POINT
  5
1BA60
330
1B919
100
AcDbEntity
  8
Defpoints
 62
     0
100
AcDbPoint
 10
546.6991477829505
 20
263.6286834246581
 30
0.0
  0
ENDBLK
  5
1B91B
330
1B919
100
AcDbEntity
  8
0
100
AcDbBlockEnd
  0
BLOCK
  5
1B945
330
1B944
100
AcDbEntity
  8
0
100
AcDbBlockBegin
  2
*D5
 70
     1
 10
0.0
 20
0.0
 30
0.0
  3
*D5
  1

  0
LINE
  5
1BA61
330
1B944
100
AcDbEntity
  8
DIM
 62
     6
370
    -2
100
AcDbLine
 10
540.5763709353608
 20
265.2286884246584
 30
0.0
 11
544.1711552532849
 21
265.2286884246584
 31
0.0
  0
LINE
  5
1BA62
330
1B944
100
AcDbEntity
  8
DIM
 62
     6
370
    -2
100
AcDbLine
 10
540.5763709353608
 20
266.3286884246578
 30
0.0
 11
544.1711552532849
 21
266.3286884246578
 31
0.0
  0
LINE
  5
1BA63
330
1B944
100
AcDbEntity
  8
DIM
 62
     1
370
    -2
100
AcDbLine
 10
543.451155253285
 20
264.0286884246584
 30
0.0
 11
543.451155253285
 21
262.8286884246584
 31
0.0
  0
LINE
  5
1BA64
330
1B944
100
AcDbEntity
  8
DIM
 62
     1
370
    -2
100
AcDbLine
 10
543.451155253285
 20
267.5286884246578
 30
0.0
 11
543.451155253285
 21
271.5636884246578
 31
0.0
  0
SOLID
  5
1BA65
330
1B944
100
AcDbEntity
  8
DIM
 62
     1
100
AcDbTrace
 10
543.251155253285
 20
264.0286884246584
 30
0.0
 11
543.651155253285
 21
264.0286884246584
 31
0.0
 12
543.451155253285
 22
265.2286884246584
 32
0.0
 13
543.451155253285
 23
265.2286884246584
 33
0.0
  0
SOLID
  5
1BA66
330
1B944
100
AcDbEntity
  8
DIM
 62
     1
100
AcDbTrace
 10
543.251155253285
 20
267.5286884246578
 30
0.0
 11
543.651155253285
 21
267.5286884246578
 31
0.0
 12
543.451155253285
 22
266.3286884246578
 32
0.0
 13
543.451155253285
 23
266.3286884246578
 33
0.0
  0
MTEXT
  5
1BA67
330
1B944
100
AcDbEntity
  8
DIM
 62
     4
100
AcDbMText
 10
542.221155253285
 20
270.1461884246579
 30
0.0
 40
1.5
 41
0.0
 46
0.0
 71
     5
 72
     1
  1
\A1;1.1
  7
Romans字体
 11
0.0000000000000001
 21
1.0
 31
0.0
 73
     1
 44
1.0
  0
POINT
  5
1BA68
330
1B944
100
AcDbEntity
  8
Defpoints
 62
     0
100
AcDbPoint
 10
540.4563709353608
 20
265.2286884246584
 30
0.0
  0
POINT
  5
1BA69
330
1B944
100
AcDbEntity
  8
Defpoints
 62
     0
100
AcDbPoint
 10
540.4563709353608
 20
266.3286884246578
 30
0.0
  0
POINT
  5
1BA6A
330
1B944
100
AcDbEntity
  8
Defpoints
 62
     0
100
AcDbPoint
 10
543.451155253285
 20
266.3286884246578
 30
0.0
  0
ENDBLK
  5
1B946
330
1B944
100
AcDbEntity
  8
0
100
AcDbBlockEnd
  0
BLOCK
  5
1B952
330
1B951
100
AcDbEntity
  8
0
100
AcDbBlockBegin
  2
*D6
 70
     1
 10
0.0
 20
0.0
 30
0.0
  3
*D6
  1

  0
LINE
  5
1BA6B
330
1B951
100
AcDbEntity
  8
DIM
 62
     6
370
    -2
100
AcDbLine
 10
518.8563729353614
 20
266.7088110772527
 30
0.0
 11
518.8563729353614
 21
270.1892154713681
 31
0.0
  0
LINE
  5
1BA6C
330
1B951
100
AcDbEntity
  8
DIM
 62
     6
370
    -2
100
AcDbLine
 10
523.8563754353585
 20
267.3986884246581
 30
0.0
 11
523.8563754353585
 21
270.1892154713681
 31
0.0
  0
LINE
  5
1BA6D
330
1B951
100
AcDbEntity
  8
DIM
 62
     1
370
    -2
100
AcDbLine
 10
520.0563729353614
 20
269.4692154713681
 30
0.0
 11
522.6563754353585
 21
269.4692154713681
 31
0.0
  0
SOLID
  5
1BA6E
330
1B951
100
AcDbEntity
  8
DIM
 62
     1
100
AcDbTrace
 10
520.0563729353614
 20
269.6692154713681
 30
0.0
 11
520.0563729353614
 21
269.2692154713681
 31
0.0
 12
518.8563729353614
 22
269.4692154713681
 32
0.0
 13
518.8563729353614
 23
269.4692154713681
 33
0.0
  0
SOLID
  5
1BA6F
330
1B951
100
AcDbEntity
  8
DIM
 62
     1
100
AcDbTrace
 10
522.6563754353585
 20
269.6692154713681
 30
0.0
 11
522.6563754353585
 21
269.2692154713681
 31
0.0
 12
523.8563754353585
 22
269.4692154713681
 32
0.0
 13
523.8563754353585
 23
269.4692154713681
 33
0.0
  0
MTEXT
  5
1BA70
330
1B951
100
AcDbEntity
  8
DIM
 62
     4
100
AcDbMText
 10
521.3563741853598
 20
270.6992154713681
 30
0.0
 40
1.5
 41
0.0
 46
0.0
 71
     5
 72
     1
  1
\A1;5
  7
Romans字体
 73
     1
 44
1.0
  0
POINT
  5
1BA71
330
1B951
100
AcDbEntity
  8
Defpoints
 62
     0
100
AcDbPoint
 10
518.8563729353614
 20
266.5888110772527
 30
0.0
  0
POINT
  5
1BA72
330
1B951
100
AcDbEntity
  8
Defpoints
 62
     0
100
AcDbPoint
 10
523.8563754353585
 20
267.2786884246581
 30
0.0
  0
POINT
  5
1BA73
330
1B951
100
AcDbEntity
  8
Defpoints
 62
     0
100
AcDbPoint
 10
523.8563754353585
 20
269.4692154713681
 30
0.0
  0
ENDBLK
  5
1B953
330
1B951
100
AcDbEntity
  8
0
100
AcDbBlockEnd
  0
BLOCK
  5
1B95F
330
1B95E
100
AcDbEntity
  8
0
100
AcDbBlockBegin
  2
*D7
 70
     1
 10
0.0
 20
0.0
 30
0.0
  3
*D7
  1

  0
LINE
  5
1BA74
330
1B95E
100
AcDbEntity
  8
DIM
 62
     6
370
    -2
100
AcDbLine
 10
518.8563729353614
 20
263.643438182879
 30
0.0
 11
518.8563729353614
 21
259.9405875093407
 31
0.0
  0
LINE
  5
1BA75
330
1B95E
100
AcDbEntity
  8
DIM
 62
     6
370
    -2
100
AcDbLine
 10
527.8563729353614
 20
263.508688424658
 30
0.0
 11
527.8563729353614
 21
259.9405875093407
 31
0.0
  0
LINE
  5
1BA76
330
1B95E
100
AcDbEntity
  8
DIM
 62
     1
370
    -2
100
AcDbLine
 10
520.0563729353614
 20
260.6605875093407
 30
0.0
 11
526.6563729353613
 21
260.6605875093407
 31
0.0
  0
SOLID
  5
1BA77
330
1B95E
100
AcDbEntity
  8
DIM
 62
     1
100
AcDbTrace
 10
520.0563729353614
 20
260.8605875093407
 30
0.0
 11
520.0563729353614
 21
260.4605875093407
 31
0.0
 12
518.8563729353614
 22
260.6605875093407
 32
0.0
 13
518.8563729353614
 23
260.6605875093407
 33
0.0
  0
SOLID
  5
1BA78
330
1B95E
100
AcDbEntity
  8
DIM
 62
     1
100
AcDbTrace
 10
526.6563729353613
 20
260.8605875093407
 30
0.0
 11
526.6563729353613
 21
260.4605875093407
 31
0.0
 12
527.8563729353614
 22
260.6605875093407
 32
0.0
 13
527.8563729353614
 23
260.6605875093407
 33
0.0
  0
MTEXT
  5
1BA79
330
1B95E
100
AcDbEntity
  8
DIM
 62
     4
100
AcDbMText
 10
523.3563729353614
 20
261.8905875093407
 30
0.0
 40
1.5
 41
0.0
 46
0.0
 71
     5
 72
     1
  1
\A1;9
  7
Romans字体
 73
     1
 44
1.0
  0
POINT
  5
1BA7A
330
1B95E
100
AcDbEntity
  8
Defpoints
 62
     0
100
AcDbPoint
 10
518.8563729353614
 20
263.763438182879
 30
0.0
  0
POINT
  5
1BA7B
330
1B95E
100
AcDbEntity
  8
Defpoints
 62
     0
100
AcDbPoint
 10
527.8563729353614
 20
263.628688424658
 30
0.0
  0
POINT
  5
1BA7C
330
1B95E
100
AcDbEntity
  8
Defpoints
 62
     0
100
AcDbPoint
 10
527.8563729353614
 20
260.6605875093407
 30
0.0
  0
ENDBLK
  5
1B960
330
1B95E
100
AcDbEntity
  8
0
100
AcDbBlockEnd
  0
ENDSEC
  0
SECTION
  2
ENTITIES
  0
HATCH
  5
28AE
330
1F
100
AcDbEntity
  8
图层 1
 62
     7
100
AcDbHatch
 10
0.0
 20
0.0
 30
0.0
210
0.0
220
0.0
230
1.0
  2
SOLID
 70
     1
 71
     0
 91
        1
 92
        1
 93
        2
 72
     4
 94
        3
 73
     0
 74
     0
 95
       17
 96
       13
 40
0.0
 40
0.0
 40
0.0
 40
0.0
 40
0.3527780104152769
 40
0.3527780104152769
 40
0.3527780104152769
 40
0.7055560208305538
 40
0.7055560208305538
 40
0.7055560208305538
 40
1.058334031245828
 40
1.058334031245828
 40
1.058334031245828
 40
1.411112041661104
 40
1.411112041661104
 40
1.411112041661104
 40
1.411112041661104
 10
11.07013262565829
 20
29.50312817963231
 10
11.07013262565829
 20
29.50312817963231
 10
10.9431807732774
 20
29.50312817963231
 10
10.9431807732774
 20
29.50312817963231
 10
10.9431807732774
 20
29.50312817963231
 10
10.85843136843155
 20
29.22786486877117
 10
10.85843136843155
 20
29.22786486877117
 10
10.85843136843155
 20
29.22786486877117
 10
10.90080607085448
 20
29.2068497724476
 10
10.90080607085448
 20
29.2068497724476
 10
10.94455881238059
 20
29.31571486159919
 10
11.00346998404173
 20
29.40907701083995
 10
11.07013262565829
 20
29.50312817963231
 72
     1
 10
11.07013262565829
 20
29.50312817963231
 11
11.07013262565829
 21
29.50312817963231
 97
        0
 75
     0
 76
     1
 98
        0
450
        0
451
        0
460
0.0
461
0.0
452
        0
462
0.0
453
        0
470

  0
HATCH
  5
2C65
330
1F
100
AcDbEntity
  8
图层 1
 62
     7
100
AcDbHatch
 10
0.0
 20
0.0
 30
0.0
210
0.0
220
0.0
230
1.0
  2
SOLID
 70
     1
 71
     0
 91
        1
 92
        1
 93
        2
 72
     4
 94
        3
 73
     0
 74
     0
 95
       47
 96
       43
 40
0.0
 40
0.0
 40
0.0
 40
0.0
 40
0.3527780104152769
 40
0.3527780104152769
 40
0.3527780104152769
 40
0.7055560208305538
 40
0.7055560208305538
 40
0.7055560208305538
 40
1.058334031245828
 40
1.058334031245828
 40
1.058334031245828
 40
1.411112041661104
 40
1.411112041661104
 40
1.411112041661104
 40
1.763890052076384
 40
1.763890052076384
 40
1.763890052076384
 40
2.116668062491659
 40
2.116668062491659
 40
2.116668062491659
 40
2.469446072906936
 40
2.469446072906936
 40
2.469446072906936
 40
2.822224083322215
 40
2.822224083322215
 40
2.822224083322215
 40
3.175002093737492
 40
3.175002093737492
 40
3.175002093737492
 40
3.527780104152768
 40
3.527780104152768
 40
3.527780104152768
 40
3.880558114568044
 40
3.880558114568044
 40
3.880558114568044
 40
4.233336124983321
 40
4.233336124983321
 40
4.233336124983321
 40
4.586114135398599
 40
4.586114135398599
 40
4.586114135398599
 40
4.938892145813873
 40
4.938892145813873
 40
4.938892145813873
 40
4.938892145813873
 10
162.8986914070121
 20
257.4895347631509
 10
162.8986914070121
 20
257.4895347631509
 10
162.9200510131114
 20
257.4471600607279
 10
162.9200510131114
 20
257.4471600607279
 10
162.9200510131114
 20
257.4471600607279
 10
162.9200510131114
 20
257.404785358305
 10
162.9200510131114
 20
257.404785358305
 10
162.9200510131114
 20
257.404785358305
 10
162.8986914070121
 20
257.36258291077
 10
162.8986914070121
 20
257.36258291077
 10
162.8986914070121
 20
257.36258291077
 10
162.8986914070121
 20
257.320208208347
 10
162.8986914070121
 20
257.320208208347
 10
162.8986914070121
 20
257.320208208347
 10
162.8563167045891
 20
257.2990208571356
 10
162.8563167045891
 20
257.2990208571356
 10
162.8563167045891
 20
257.2990208571356
 10
162.8139420021662
 20
257.2563016449369
 10
162.8139420021662
 20
257.2563016449369
 10
162.8139420021662
 20
257.2563016449369
 10
162.7295371070961
 20
257.2563016449369
 10
162.7295371070961
 20
257.2563016449369
 10
162.7295371070961
 20
257.2563016449369
 10
162.6658027985738
 20
257.2778335059241
 10
162.6658027985738
 20
257.2778335059241
 10
162.6658027985738
 20
257.2778335059241
 10
162.6237726059267
 20
257.2990208571356
 10
162.6237726059267
 20
257.2990208571356
 10
162.6237726059267
 20
257.2990208571356
 10
162.5813979035038
 20
257.3413955595585
 10
162.5813979035038
 20
257.3413955595585
 10
162.5813979035038
 20
257.3413955595585
 10
162.5813979035038
 20
257.4895347631509
 10
162.5813979035038
 20
257.4895347631509
 10
162.5813979035038
 20
257.4895347631509
 10
162.6447877022503
 20
257.5525800521216
 10
162.6447877022503
 20
257.5525800521216
 10
162.6447877022503
 20
257.5525800521216
 10
162.7081775009967
 20
257.5525800521216
 10
162.7081775009967
 20
257.5525800521216
 10
162.8749202324821
 20
257.5424170137356
 10
162.7918933765152
 20
257.5939212252171
 10
162.8986914070121
 20
257.4895347631509
 72
     1
 10
162.8986914070121
 20
257.4895347631509
 11
162.8986914070121
 21
257.4895347631509
 97
        0
 75
     0
 76
     1
 98
        0
450
        0
451
        0
460
0.0
461
0.0
452
        0
462
0.0
453
        0
470

  0
HATCH
  5
2EE7
330
1F
100
AcDbEntity
  8
图层 1
 62
     7
100
AcDbHatch
 10
0.0
 20
0.0
 30
0.0
210
0.0
220
0.0
230
1.0
  2
SOLID
 70
     1
 71
     0
 91
        1
 92
        1
 93
        2
 72
     4
 94
        3
 73
     0
 74
     0
 95
       56
 96
       52
 40
0.0
 40
0.0
 40
0.0
 40
0.0
 40
0.3527780104152769
 40
0.3527780104152769
 40
0.3527780104152769
 40
0.7055560208305538
 40
0.7055560208305538
 40
0.7055560208305538
 40
1.058334031245828
 40
1.058334031245828
 40
1.058334031245828
 40
1.411112041661104
 40
1.411112041661104
 40
1.411112041661104
 40
1.763890052076384
 40
1.763890052076384
 40
1.763890052076384
 40
2.116668062491659
 40
2.116668062491659
 40
2.116668062491659
 40
2.469446072906936
 40
2.469446072906936
 40
2.469446072906936
 40
2.822224083322215
 40
2.822224083322215
 40
2.822224083322215
 40
3.175002093737492
 40
3.175002093737492
 40
3.175002093737492
 40
3.527780104152768
 40
3.527780104152768
 40
3.527780104152768
 40
3.880558114568044
 40
3.880558114568044
 40
3.880558114568044
 40
4.233336124983321
 40
4.233336124983321
 40
4.233336124983321
 40
4.586114135398599
 40
4.586114135398599
 40
4.586114135398599
 40
4.938892145813873
 40
4.938892145813873
 40
4.938892145813873
 40
5.291670156229153
 40
5.291670156229153
 40
5.291670156229153
 40
5.64444816664443
 40
5.64444816664443
 40
5.64444816664443
 40
5.997226177059705
 40
5.997226177059705
 40
5.997226177059705
 40
5.997226177059705
 10
185.4837187788815
 20
241.4451977396596
 10
185.4837187788815
 20
241.4451977396596
 10
185.4837187788815
 20
241.4028230372367
 10
185.4837187788815
 20
241.4028230372367
 10
185.4837187788815
 20
241.4028230372367
 10
185.5047338752051
 20
241.3604483348137
 10
185.5047338752051
 20
241.3604483348137
 10
185.4520238795082
 20
241.2782827532863
 10
185.4671823096433
 20
241.1897437409066
 10
185.335579575289
 20
241.2119646214456
 10
185.335579575289
 20
241.2119646214456
 10
185.2932048728662
 20
241.2119646214456
 10
185.2932048728662
 20
241.2119646214456
 10
185.2932048728662
 20
241.2119646214456
 10
185.2294705643439
 20
241.2334964824328
 10
185.2294705643439
 20
241.2334964824328
 10
185.2294705643439
 20
241.2334964824328
 10
185.1660807655974
 20
241.2543393238685
 10
185.1660807655974
 20
241.2543393238685
 10
185.1660807655974
 20
241.2543393238685
 10
185.1450656692739
 20
241.2758711848558
 10
185.1450656692739
 20
241.2758711848558
 10
185.1450656692739
 20
241.2758711848558
 10
185.1450656692739
 20
241.2967140262914
 10
185.1450656692739
 20
241.2967140262914
 10
185.1450656692739
 20
241.2967140262914
 10
185.1237060631745
 20
241.3604483348137
 10
185.1237060631745
 20
241.3604483348137
 10
185.1237060631745
 20
241.3604483348137
 10
185.1237060631745
 20
241.4028230372367
 10
185.1237060631745
 20
241.4028230372367
 10
185.1237060631745
 20
241.4028230372367
 10
185.1660807655974
 20
241.4875724420825
 10
185.1660807655974
 20
241.4875724420825
 10
185.1660807655974
 20
241.4875724420825
 10
185.2084554680203
 20
241.5085875384061
 10
185.2084554680203
 20
241.5085875384061
 10
185.2084554680203
 20
241.5085875384061
 10
185.2718452667668
 20
241.5297748896175
 10
185.2718452667668
 20
241.5297748896175
 10
185.2718452667668
 20
241.5297748896175
 10
185.3565946716127
 20
241.5297748896175
 10
185.3565946716127
 20
241.5297748896175
 10
185.3565946716127
 20
241.5297748896175
 10
185.4199844703592
 20
241.5085875384061
 10
185.4199844703592
 20
241.5085875384061
 10
185.4199844703592
 20
241.5085875384061
 10
185.4623591727821
 20
241.4875724420825
 10
185.4623591727821
 20
241.4875724420825
 10
185.4623591727821
 20
241.4875724420825
 10
185.4837187788815
 20
241.4451977396596
 10
185.4837187788815
 20
241.4451977396596
 72
     1
 10
185.4837187788815
 20
241.4451977396596
 11
185.4837187788815
 21
241.4451977396596
 97
        0
 75
     0
 76
     1
 98
        0
450
        0
451
        0
460
0.0
461
0.0
452
        0
462
0.0
453
        0
470

  0
HATCH
  5
2F93
330
1F
100
AcDbEntity
  8
图层 1
 62
     7
100
AcDbHatch
 10
0.0
 20
0.0
 30
0.0
210
0.0
220
0.0
230
1.0
  2
SOLID
 70
     1
 71
     0
 91
        1
 92
        1
 93
        2
 72
     4
 94
        3
 73
     0
 74
     0
 95
       38
 96
       34
 40
0.0
 40
0.0
 40
0.0
 40
0.0
 40
0.3527780104152769
 40
0.3527780104152769
 40
0.3527780104152769
 40
0.7055560208305538
 40
0.7055560208305538
 40
0.7055560208305538
 40
1.058334031245828
 40
1.058334031245828
 40
1.058334031245828
 40
1.411112041661104
 40
1.411112041661104
 40
1.411112041661104
 40
1.763890052076384
 40
1.763890052076384
 40
1.763890052076384
 40
2.116668062491659
 40
2.116668062491659
 40
2.116668062491659
 40
2.469446072906936
 40
2.469446072906936
 40
2.469446072906936
 40
2.822224083322215
 40
2.822224083322215
 40
2.822224083322215
 40
3.175002093737492
 40
3.175002093737492
 40
3.175002093737492
 40
3.527780104152768
 40
3.527780104152768
 40
3.527780104152768
 40
3.880558114568044
 40
3.880558114568044
 40
3.880558114568044
 40
3.880558114568044
 10
185.907121293335
 20
220.1937677098971
 10
185.9005756075949
 20
220.0449394867532
 10
185.9329595265197
 20
220.1136691870245
 10
185.864746590912
 20
219.9817219428946
 10
185.864746590912
 20
219.9817219428946
 10
185.822371888489
 20
219.9605345916831
 10
185.822371888489
 20
219.9605345916831
 10
185.822371888489
 20
219.9605345916831
 10
185.6528730787974
 20
219.9605345916831
 10
185.6528730787974
 20
219.9605345916831
 10
185.6528730787974
 20
219.9605345916831
 10
185.5894832800509
 20
220.002909294106
 10
185.5894832800509
 20
220.002909294106
 10
185.5894832800509
 20
220.002909294106
 10
185.5681236739515
 20
220.0240966453175
 10
185.5681236739515
 20
220.0240966453175
 10
185.5681236739515
 20
220.0240966453175
 10
185.5681236739515
 20
220.045283996529
 10
185.5681236739515
 20
220.045283996529
 10
185.5681236739515
 20
220.045283996529
 10
185.547108577628
 20
220.0876586989519
 10
185.547108577628
 20
220.0876586989519
 10
185.547108577628
 20
220.0876586989519
 10
185.547108577628
 20
220.1513930074742
 10
185.547108577628
 20
220.1513930074742
 10
185.547108577628
 20
220.1513930074742
 10
185.5894832800509
 20
220.23614241232
 10
185.5894832800509
 20
220.23614241232
 10
185.5894832800509
 20
220.23614241232
 10
185.6318579824738
 20
220.2573297635315
 10
185.6318579824738
 20
220.2573297635315
 10
185.7055830744942
 20
220.2566407439799
 10
185.8416644359337
 20
220.3310548555519
 10
185.907121293335
 20
220.1937677098971
 72
     1
 10
185.907121293335
 20
220.1937677098971
 11
185.907121293335
 21
220.1937677098971
 97
        0
 75
     0
 76
     1
 98
        0
450
        0
451
        0
460
0.0
461
0.0
452
        0
462
0.0
453
        0
470

  0
HATCH
  5
2FDE
330
1F
100
AcDbEntity
  8
图层 1
 62
     7
100
AcDbHatch
 10
0.0
 20
0.0
 30
0.0
210
0.0
220
0.0
230
1.0
  2
SOLID
 70
     1
 71
     0
 91
        1
 92
        1
 93
        2
 72
     4
 94
        3
 73
     0
 74
     0
 95
       50
 96
       46
 40
0.0
 40
0.0
 40
0.0
 40
0.0
 40
0.3527780104152769
 40
0.3527780104152769
 40
0.3527780104152769
 40
0.7055560208305538
 40
0.7055560208305538
 40
0.7055560208305538
 40
1.058334031245828
 40
1.058334031245828
 40
1.058334031245828
 40
1.411112041661104
 40
1.411112041661104
 40
1.411112041661104
 40
1.763890052076384
 40
1.763890052076384
 40
1.763890052076384
 40
2.116668062491659
 40
2.116668062491659
 40
2.116668062491659
 40
2.469446072906936
 40
2.469446072906936
 40
2.469446072906936
 40
2.822224083322215
 40
2.822224083322215
 40
2.822224083322215
 40
3.175002093737492
 40
3.175002093737492
 40
3.175002093737492
 40
3.527780104152768
 40
3.527780104152768
 40
3.527780104152768
 40
3.880558114568044
 40
3.880558114568044
 40
3.880558114568044
 40
4.233336124983321
 40
4.233336124983321
 40
4.233336124983321
 40
4.586114135398599
 40
4.586114135398599
 40
4.586114135398599
 40
4.938892145813873
 40
4.938892145813873
 40
4.938892145813873
 40
5.291670156229153
 40
5.291670156229153
 40
5.291670156229153
 40
5.291670156229153
 10
180.9117295442905
 20
208.9327766684477
 10
180.9117295442905
 20
208.9327766684477
 10
180.9117295442905
 20
208.7637946234197
 10
180.9117295442905
 20
208.7637946234197
 10
181.2273004989198
 20
208.6749111012643
 10
181.3833634273555
 20
208.6776671794706
 10
181.6948002646751
 20
208.5097186637701
 10
181.9542161258496
 20
208.4294478860095
 10
182.1388733656765
 20
208.2134402565853
 10
182.3297317814676
 20
208.02292635057
 10
182.3297317814676
 20
208.02292635057
 10
182.435496282637
 20
208.065301052993
 10
182.435496282637
 20
208.065301052993
 10
182.288390608372
 20
208.2733849575739
 10
182.3752070718726
 20
208.2134402565853
 10
182.1605774815516
 20
208.3824223016133
 10
182.1605774815516
 20
208.3824223016133
 10
182.1182027791287
 20
208.4247970040363
 10
182.1182027791287
 20
208.4247970040363
 10
182.1182027791287
 20
208.4247970040363
 10
182.0968431730294
 20
208.467516216235
 10
182.0968431730294
 20
208.467516216235
 10
182.0968431730294
 20
208.467516216235
 10
182.0544684706064
 20
208.4883590576707
 10
182.0544684706064
 20
208.4883590576707
 10
182.0544684706064
 20
208.4883590576707
 10
181.9910786718599
 20
208.5305615052057
 10
181.9910786718599
 20
208.5305615052057
 10
181.9910786718599
 20
208.5305615052057
 10
181.948703969437
 20
208.552093366193
 10
181.948703969437
 20
208.552093366193
 10
181.948703969437
 20
208.552093366193
 10
181.9063292670141
 20
208.5729362076286
 10
181.9063292670141
 20
208.5729362076286
 10
181.9063292670141
 20
208.5729362076286
 10
181.8639545645911
 20
208.6156554198274
 10
181.8639545645911
 20
208.6156554198274
 10
181.8639545645911
 20
208.6156554198274
 10
181.821924371944
 20
208.6368427710388
 10
181.821924371944
 20
208.6368427710388
 10
181.6637943848536
 20
208.6742220817127
 10
181.5452830219797
 20
208.8092699138248
 10
181.3771622513911
 20
208.8061693258427
 10
181.2803550043924
 20
208.8573290275484
 10
181.0126709085988
 20
208.8971199066528
 10
180.9117295442905
 20
208.9327766684477
 72
     1
 10
180.9117295442905
 20
208.9327766684477
 11
180.9117295442905
 21
208.9327766684477
 97
        0
 75
     0
 76
     1
 98
        0
450
        0
451
        0
460
0.0
461
0.0
452
        0
462
0.0
453
        0
470

  0
HATCH
  5
35C8
330
1F
100
AcDbEntity
  8
图层 1
 62
     7
100
AcDbHatch
 10
0.0
 20
0.0
 30
0.0
210
0.0
220
0.0
230
1.0
  2
SOLID
 70
     1
 71
     0
 91
        1
 92
        1
 93
        2
 72
     4
 94
        3
 73
     0
 74
     0
 95
       38
 96
       34
 40
0.0
 40
0.0
 40
0.0
 40
0.0
 40
0.3527780104152769
 40
0.3527780104152769
 40
0.3527780104152769
 40
0.7055560208305538
 40
0.7055560208305538
 40
0.7055560208305538
 40
1.058334031245828
 40
1.058334031245828
 40
1.058334031245828
 40
1.411112041661104
 40
1.411112041661104
 40
1.411112041661104
 40
1.763890052076384
 40
1.763890052076384
 40
1.763890052076384
 40
2.116668062491659
 40
2.116668062491659
 40
2.116668062491659
 40
2.469446072906936
 40
2.469446072906936
 40
2.469446072906936
 40
2.822224083322215
 40
2.822224083322215
 40
2.822224083322215
 40
3.175002093737492
 40
3.175002093737492
 40
3.175002093737492
 40
3.527780104152768
 40
3.527780104152768
 40
3.527780104152768
 40
3.880558114568044
 40
3.880558114568044
 40
3.880558114568044
 40
3.880558114568044
 10
189.145513185819
 20
166.8326485368285
 10
189.207869455238
 20
166.740492171803
 10
189.1317327947871
 20
166.6833035490209
 10
189.103138483396
 20
166.6209472796017
 10
189.103138483396
 20
166.6209472796017
 10
189.0607637809731
 20
166.5997599283903
 10
189.0607637809731
 20
166.5997599283903
 10
189.0607637809731
 20
166.5997599283903
 10
188.9973739822266
 20
166.5785725771788
 10
188.9973739822266
 20
166.5785725771788
 10
188.9973739822266
 20
166.5785725771788
 10
188.9549992798037
 20
166.5997599283903
 10
188.9549992798037
 20
166.5997599283903
 10
188.9549992798037
 20
166.5997599283903
 10
188.8916094810572
 20
166.5997599283903
 10
188.8916094810572
 20
166.5997599283903
 10
188.8916094810572
 20
166.5997599283903
 10
188.8492347786343
 20
166.6209472796017
 10
188.8492347786343
 20
166.6209472796017
 10
188.8492347786343
 20
166.6209472796017
 10
188.8278751725349
 20
166.6633219820247
 10
188.8278751725349
 20
166.6633219820247
 10
188.8278751725349
 20
166.6633219820247
 10
188.8068600762114
 20
166.6845093332361
 10
188.8068600762114
 20
166.6845093332361
 10
188.8068600762114
 20
166.6845093332361
 10
188.8068600762114
 20
166.8326485368285
 10
188.8068600762114
 20
166.8326485368285
 10
188.8068600762114
 20
166.8326485368285
 10
188.8702498749578
 20
166.896038335575
 10
188.8702498749578
 20
166.896038335575
 10
189.0228677056355
 20
166.8819134347673
 10
189.0686875058164
 20
166.9411691162043
 10
189.145513185819
 20
166.8326485368285
 72
     1
 10
189.145513185819
 20
166.8326485368285
 11
189.145513185819
 21
166.8326485368285
 97
        0
 75
     0
 76
     1
 98
        0
450
        0
451
        0
460
0.0
461
0.0
452
        0
462
0.0
453
        0
470

  0
HATCH
  5
35D8
330
1F
100
AcDbEntity
  8
图层 1
 62
     7
100
AcDbHatch
 10
0.0
 20
0.0
 30
0.0
210
0.0
220
0.0
230
1.0
  2
SOLID
 70
     1
 71
     0
 91
        1
 92
        1
 93
        2
 72
     4
 94
        3
 73
     0
 74
     0
 95
       68
 96
       64
 40
0.0
 40
0.0
 40
0.0
 40
0.0
 40
0.3527780104152769
 40
0.3527780104152769
 40
0.3527780104152769
 40
0.7055560208305538
 40
0.7055560208305538
 40
0.7055560208305538
 40
1.058334031245828
 40
1.058334031245828
 40
1.058334031245828
 40
1.411112041661104
 40
1.411112041661104
 40
1.411112041661104
 40
1.763890052076384
 40
1.763890052076384
 40
1.763890052076384
 40
2.116668062491659
 40
2.116668062491659
 40
2.116668062491659
 40
2.469446072906936
 40
2.469446072906936
 40
2.469446072906936
 40
2.822224083322215
 40
2.822224083322215
 40
2.822224083322215
 40
3.175002093737492
 40
3.175002093737492
 40
3.175002093737492
 40
3.527780104152768
 40
3.527780104152768
 40
3.527780104152768
 40
3.880558114568044
 40
3.880558114568044
 40
3.880558114568044
 40
4.233336124983321
 40
4.233336124983321
 40
4.233336124983321
 40
4.586114135398599
 40
4.586114135398599
 40
4.586114135398599
 40
4.938892145813873
 40
4.938892145813873
 40
4.938892145813873
 40
5.291670156229153
 40
5.291670156229153
 40
5.291670156229153
 40
5.64444816664443
 40
5.64444816664443
 40
5.64444816664443
 40
5.997226177059705
 40
5.997226177059705
 40
5.997226177059705
 40
6.350004187474984
 40
6.350004187474984
 40
6.350004187474984
 40
6.702782197890257
 40
6.702782197890257
 40
6.702782197890257
 40
7.055560208305537
 40
7.055560208305537
 40
7.055560208305537
 40
7.408338218720808
 40
7.408338218720808
 40
7.408338218720808
 40
7.408338218720808
 10
174.7732543591544
 20
135.4846705078077
 10
174.7732543591544
 20
135.4846705078077
 10
174.7732543591544
 20
135.3789060066383
 10
174.7732543591544
 20
135.3789060066383
 10
174.7732543591544
 20
135.3789060066383
 10
174.8156290615773
 20
135.3789060066383
 10
174.8156290615773
 20
135.3789060066383
 10
174.8156290615773
 20
135.3789060066383
 10
174.8580037640002
 20
135.3578909103147
 10
174.8580037640002
 20
135.3578909103147
 10
174.8580037640002
 20
135.3578909103147
 10
174.9213935627468
 20
135.3578909103147
 10
174.9213935627468
 20
135.3578909103147
 10
174.9213935627468
 20
135.3578909103147
 10
174.9637682651697
 20
135.3365313042154
 10
174.9637682651697
 20
135.3365313042154
 10
174.9637682651697
 20
135.3365313042154
 10
174.9847833614933
 20
135.3365313042154
 10
174.9847833614933
 20
135.3365313042154
 10
174.9847833614933
 20
135.3365313042154
 10
175.0271580639162
 20
135.3155162078918
 10
175.0271580639162
 20
135.3155162078918
 10
175.0271580639162
 20
135.3155162078918
 10
175.0485176700155
 20
135.2941566017924
 10
175.0485176700155
 20
135.2941566017924
 10
175.0485176700155
 20
135.2941566017924
 10
175.0695327663391
 20
135.2941566017924
 10
175.0695327663391
 20
135.2941566017924
 10
175.0695327663391
 20
135.2941566017924
 10
175.0908923724385
 20
135.2731415054689
 10
175.0908923724385
 20
135.2731415054689
 10
175.0908923724385
 20
135.2731415054689
 10
175.1332670748614
 20
135.2731415054689
 10
175.1332670748614
 20
135.2731415054689
 10
175.1332670748614
 20
135.2731415054689
 10
175.154282171185
 20
135.2517818993695
 10
175.154282171185
 20
135.2517818993695
 10
175.154282171185
 20
135.2517818993695
 10
175.154282171185
 20
135.3578909103147
 10
175.154282171185
 20
135.3578909103147
 10
175.154282171185
 20
135.3578909103147
 10
175.1332670748614
 20
135.3789060066383
 10
175.1332670748614
 20
135.3789060066383
 10
175.1332670748614
 20
135.3789060066383
 10
175.0908923724385
 20
135.3789060066383
 10
175.0908923724385
 20
135.3789060066383
 10
175.0908923724385
 20
135.3789060066383
 10
175.0908923724385
 20
135.3999211029619
 10
175.0908923724385
 20
135.3999211029619
 10
175.0908923724385
 20
135.3999211029619
 10
175.0695327663391
 20
135.3999211029619
 10
175.0695327663391
 20
135.3999211029619
 10
175.0695327663391
 20
135.3999211029619
 10
175.0271580639162
 20
135.4212807090612
 10
175.0271580639162
 20
135.4212807090612
 10
175.0271580639162
 20
135.4212807090612
 10
175.0061429675926
 20
135.4212807090612
 10
175.0061429675926
 20
135.4212807090612
 10
175.0061429675926
 20
135.4212807090612
 10
174.9637682651697
 20
135.4422958053848
 10
174.9637682651697
 20
135.4422958053848
 10
174.8996894468716
 20
135.4498750204523
 10
174.8394002361073
 20
135.4860485469109
 10
174.7732543591544
 20
135.4846705078077
 72
     1
 10
174.7732543591544
 20
135.4846705078077
 11
174.7732543591544
 21
135.4846705078077
 97
        0
 75
     0
 76
     1
 98
        0
450
        0
451
        0
460
0.0
461
0.0
452
        0
462
0.0
453
        0
470

  0
HATCH
  5
3807
330
1F
100
AcDbEntity
  8
图层 1
 62
     7
100
AcDbHatch
 10
0.0
 20
0.0
 30
0.0
210
0.0
220
0.0
230
1.0
  2
SOLID
 70
     1
 71
     0
 91
        1
 92
        1
 93
        2
 72
     4
 94
        3
 73
     0
 74
     0
 95
       29
 96
       25
 40
0.0
 40
0.0
 40
0.0
 40
0.0
 40
0.3527780104152769
 40
0.3527780104152769
 40
0.3527780104152769
 40
0.7055560208305538
 40
0.7055560208305538
 40
0.7055560208305538
 40
1.058334031245828
 40
1.058334031245828
 40
1.058334031245828
 40
1.411112041661104
 40
1.411112041661104
 40
1.411112041661104
 40
1.763890052076384
 40
1.763890052076384
 40
1.763890052076384
 40
2.116668062491659
 40
2.116668062491659
 40
2.116668062491659
 40
2.469446072906936
 40
2.469446072906936
 40
2.469446072906936
 40
2.822224083322215
 40
2.822224083322215
 40
2.822224083322215
 40
2.822224083322215
 10
175.4929352807925
 20
164.0174869039101
 10
175.4929352807925
 20
164.0174869039101
 10
175.5139503771161
 20
163.9751122014871
 10
175.5139503771161
 20
163.9751122014871
 10
175.5139503771161
 20
163.9751122014871
 10
175.5139503771161
 20
163.9327374990642
 10
175.5139503771161
 20
163.9327374990642
 10
175.5139503771161
 20
163.9327374990642
 10
175.4929352807925
 20
163.8903627966413
 10
175.4929352807925
 20
163.8903627966413
 10
175.4929352807925
 20
163.8903627966413
 10
175.471920184469
 20
163.8691754454298
 10
175.471920184469
 20
163.8691754454298
 10
175.471920184469
 20
163.8691754454298
 10
175.4505605783696
 20
163.8269729978948
 10
175.4505605783696
 20
163.8269729978948
 10
175.3571984291289
 20
163.7715069239916
 10
175.272449024283
 20
163.8195660377152
 10
175.1966568736079
 20
163.8691754454298
 10
175.208370205985
 20
163.9930267098286
 10
175.1563492298397
 20
164.0216210212197
 10
175.2600466723544
 20
164.0596893514451
 10
175.3330827448232
 20
164.1094710140476
 10
175.4357466580104
 20
164.0753645462439
 10
175.4929352807925
 20
164.0174869039101
 72
     1
 10
175.4929352807925
 20
164.0174869039101
 11
175.4929352807925
 21
164.0174869039101
 97
        0
 75
     0
 76
     1
 98
        0
450
        0
451
        0
460
0.0
461
0.0
452
        0
462
0.0
453
        0
470

  0
HATCH
  5
3895
330
1F
100
AcDbEntity
  8
图层 1
 62
     7
100
AcDbHatch
 10
0.0
 20
0.0
 30
0.0
210
0.0
220
0.0
230
1.0
  2
SOLID
 70
     1
 71
     0
 91
        1
 92
        1
 93
        2
 72
     4
 94
        3
 73
     0
 74
     0
 95
       11
 96
        7
 40
0.0
 40
0.0
 40
0.0
 40
0.0
 40
0.3527780104152769
 40
0.3527780104152769
 40
0.3527780104152769
 40
0.7055560208305538
 40
0.7055560208305538
 40
0.7055560208305538
 40
0.7055560208305538
 10
174.9213935627468
 20
174.5369206529582
 10
174.9213935627468
 20
174.5369206529582
 10
174.9213935627468
 20
174.3043765542958
 10
174.9213935627468
 20
174.3043765542958
 10
174.9213935627468
 20
174.3043765542958
 10
174.9213935627468
 20
174.5369206529582
 10
174.9213935627468
 20
174.5369206529582
 72
     1
 10
174.9213935627468
 20
174.5369206529582
 11
174.9213935627468
 21
174.5369206529582
 97
        0
 75
     0
 76
     1
 98
        0
450
        0
451
        0
460
0.0
461
0.0
452
        0
462
0.0
453
        0
470

  0
HATCH
  5
3943
330
1F
100
AcDbEntity
  8
图层 1
 62
     7
100
AcDbHatch
 10
0.0
 20
0.0
 30
0.0
210
0.0
220
0.0
230
1.0
  2
SOLID
 70
     1
 71
     0
 91
        1
 92
        1
 93
        2
 72
     4
 94
        3
 73
     0
 74
     0
 95
      131
 96
      127
 40
0.0
 40
0.0
 40
0.0
 40
0.0
 40
0.3527780104152769
 40
0.3527780104152769
 40
0.3527780104152769
 40
0.7055560208305538
 40
0.7055560208305538
 40
0.7055560208305538
 40
1.058334031245828
 40
1.058334031245828
 40
1.058334031245828
 40
1.411112041661104
 40
1.411112041661104
 40
1.411112041661104
 40
1.763890052076384
 40
1.763890052076384
 40
1.763890052076384
 40
2.116668062491659
 40
2.116668062491659
 40
2.116668062491659
 40
2.469446072906936
 40
2.469446072906936
 40
2.469446072906936
 40
2.822224083322215
 40
2.822224083322215
 40
2.822224083322215
 40
3.175002093737492
 40
3.175002093737492
 40
3.175002093737492
 40
3.527780104152768
 40
3.527780104152768
 40
3.527780104152768
 40
3.880558114568044
 40
3.880558114568044
 40
3.880558114568044
 40
4.233336124983321
 40
4.233336124983321
 40
4.233336124983321
 40
4.586114135398599
 40
4.586114135398599
 40
4.586114135398599
 40
4.938892145813873
 40
4.938892145813873
 40
4.938892145813873
 40
5.291670156229153
 40
5.291670156229153
 40
5.291670156229153
 40
5.64444816664443
 40
5.64444816664443
 40
5.64444816664443
 40
5.997226177059705
 40
5.997226177059705
 40
5.997226177059705
 40
6.350004187474984
 40
6.350004187474984
 40
6.350004187474984
 40
6.702782197890257
 40
6.702782197890257
 40
6.702782197890257
 40
7.055560208305537
 40
7.055560208305537
 40
7.055560208305537
 40
7.408338218720808
 40
7.408338218720808
 40
7.408338218720808
 40
7.76111622913609
 40
7.76111622913609
 40
7.76111622913609
 40
8.113894239551369
 40
8.113894239551369
 40
8.113894239551369
 40
8.466672249966642
 40
8.466672249966642
 40
8.466672249966642
 40
8.819450260381922
 40
8.819450260381922
 40
8.819450260381922
 40
9.172228270797198
 40
9.172228270797198
 40
9.172228270797198
 40
9.525006281212476
 40
9.525006281212476
 40
9.525006281212476
 40
9.877784291627751
 40
9.877784291627751
 40
9.877784291627751
 40
10.23056230204303
 40
10.23056230204303
 40
10.23056230204303
 40
10.58334031245831
 40
10.58334031245831
 40
10.58334031245831
 40
10.93611832287358
 40
10.93611832287358
 40
10.93611832287358
 40
11.28889633328886
 40
11.28889633328886
 40
11.28889633328886
 40
11.64167434370414
 40
11.64167434370414
 40
11.64167434370414
 40
11.99445235411941
 40
11.99445235411941
 40
11.99445235411941
 40
12.34723036453469
 40
12.34723036453469
 40
12.34723036453469
 40
12.70000837494997
 40
12.70000837494997
 40
12.70000837494997
 40
13.05278638536524
 40
13.05278638536524
 40
13.05278638536524
 40
13.40556439578052
 40
13.40556439578052
 40
13.40556439578052
 40
13.7583424061958
 40
13.7583424061958
 40
13.7583424061958
 40
14.11112041661107
 40
14.11112041661107
 40
14.11112041661107
 40
14.46389842702635
 40
14.46389842702635
 40
14.46389842702635
 40
14.81667643744163
 40
14.81667643744163
 40
14.81667643744163
 40
14.81667643744163
 10
173.3972823146245
 20
126.8274843518258
 10
173.3972823146245
 20
126.8274843518258
 10
173.3972823146245
 20
126.7217198506564
 10
173.3972823146245
 20
126.7217198506564
 10
173.3972823146245
 20
126.7217198506564
 10
173.4186419207238
 20
126.7217198506564
 10
173.4186419207238
 20
126.7217198506564
 10
173.4186419207238
 20
126.7217198506564
 10
173.4820317194703
 20
126.7007047543328
 10
173.4820317194703
 20
126.7007047543328
 10
173.4820317194703
 20
126.7007047543328
 10
173.5244064218933
 20
126.6793451482334
 10
173.5244064218933
 20
126.6793451482334
 10
173.5244064218933
 20
126.6793451482334
 10
173.5877962206398
 20
126.6793451482334
 10
173.5877962206398
 20
126.6793451482334
 10
173.5877962206398
 20
126.6793451482334
 10
173.6301709230627
 20
126.6583300519099
 10
173.6301709230627
 20
126.6583300519099
 10
173.7955356154449
 20
126.5911506456296
 10
173.759706598762
 20
126.6380039751379
 10
173.9478089363468
 20
126.5525655507404
 10
173.9478089363468
 20
126.5525655507404
 10
173.9688240326703
 20
126.4464565397952
 10
173.9688240326703
 20
126.4464565397952
 10
173.9688240326703
 20
126.4464565397952
 10
174.0325583411926
 20
126.5101908483175
 10
174.0325583411926
 20
126.5101908483175
 10
174.0325583411926
 20
126.5101908483175
 10
174.0749330436156
 20
126.5101908483175
 10
174.0749330436156
 20
126.5101908483175
 10
174.0749330436156
 20
126.5101908483175
 10
174.1593379386856
 20
126.4678161458946
 10
174.1593379386856
 20
126.4678161458946
 10
174.1593379386856
 20
126.4678161458946
 10
174.180697544785
 20
126.4464565397952
 10
174.180697544785
 20
126.4464565397952
 10
174.2464989119621
 20
126.3982251711837
 10
174.3298702777047
 20
126.3716979184474
 10
174.3922265471239
 20
126.3196769423022
 10
174.608234176548
 20
126.2059887162895
 10
174.7749769080334
 20
126.0278771622029
 10
174.9637682651697
 20
125.8749148217494
 10
174.9637682651697
 20
125.8749148217494
 10
175.0061429675926
 20
125.9172895241723
 10
175.0061429675926
 20
125.9172895241723
 10
174.961356696739
 20
125.9631093243532
 10
174.782211613325
 20
126.1246844092016
 10
174.7308796567315
 20
126.1501781326105
 10
174.7308796567315
 20
126.1501781326105
 10
174.6885049543085
 20
126.1925528350335
 10
174.6885049543085
 20
126.1925528350335
 10
174.6885049543085
 20
126.1925528350335
 10
174.667489857985
 20
126.2349275374564
 10
174.667489857985
 20
126.2349275374564
 10
174.667489857985
 20
126.2349275374564
 10
174.625115155562
 20
126.2559426337799
 10
174.625115155562
 20
126.2559426337799
 10
174.625115155562
 20
126.2559426337799
 10
174.5827404531391
 20
126.2983173362029
 10
174.5827404531391
 20
126.2983173362029
 10
174.5827404531391
 20
126.2983173362029
 10
174.5403657507162
 20
126.3196769423022
 10
174.5403657507162
 20
126.3196769423022
 10
174.5403657507162
 20
126.3196769423022
 10
174.4979910482932
 20
126.3620516447252
 10
174.4979910482932
 20
126.3620516447252
 10
174.4735308542117
 20
126.3875453681341
 10
174.3247026310678
 20
126.4695386947736
 10
174.2864620459544
 20
126.4888312422181
 10
174.2864620459544
 20
126.4888312422181
 10
174.2654469496308
 20
126.5101908483175
 10
174.2654469496308
 20
126.5101908483175
 10
174.2654469496308
 20
126.5101908483175
 10
174.2230722472079
 20
126.5312059446411
 10
174.2230722472079
 20
126.5312059446411
 10
174.2230722472079
 20
126.5312059446411
 10
174.2017126411085
 20
126.5525655507404
 10
174.2017126411085
 20
126.5525655507404
 10
174.2017126411085
 20
126.5525655507404
 10
174.1383228423621
 20
126.573580647064
 10
174.1383228423621
 20
126.573580647064
 10
174.1383228423621
 20
126.573580647064
 10
174.1169632362627
 20
126.5945957433876
 10
174.1169632362627
 20
126.5945957433876
 10
174.1169632362627
 20
126.5945957433876
 10
174.0959481399391
 20
126.7007047543328
 10
174.0959481399391
 20
126.7007047543328
 10
174.0959481399391
 20
126.7007047543328
 10
174.0325583411926
 20
126.6369704458105
 10
174.0325583411926
 20
126.6369704458105
 10
174.0325583411926
 20
126.6369704458105
 10
173.9901836387697
 20
126.6369704458105
 10
173.9901836387697
 20
126.6369704458105
 10
173.9901836387697
 20
126.6369704458105
 10
173.9054342339239
 20
126.6793451482334
 10
173.9054342339239
 20
126.6793451482334
 10
173.9054342339239
 20
126.6793451482334
 10
173.8420444351773
 20
126.7007047543328
 10
173.8420444351773
 20
126.7007047543328
 10
173.8420444351773
 20
126.7007047543328
 10
173.7996697327544
 20
126.7217198506564
 10
173.7996697327544
 20
126.7217198506564
 10
173.7996697327544
 20
126.7217198506564
 10
173.7572950303315
 20
126.7217198506564
 10
173.7572950303315
 20
126.7217198506564
 10
173.7572950303315
 20
126.7217198506564
 10
173.6725456254856
 20
126.7640945530793
 10
173.6725456254856
 20
126.7640945530793
 10
173.6725456254856
 20
126.7640945530793
 10
173.6515305291621
 20
126.7640945530793
 10
173.6515305291621
 20
126.7640945530793
 10
173.6515305291621
 20
126.7640945530793
 10
173.5667811243162
 20
126.7851096494029
 10
173.5667811243162
 20
126.7851096494029
 10
173.5667811243162
 20
126.7851096494029
 10
173.5033913255697
 20
126.8064692555022
 10
173.5033913255697
 20
126.8064692555022
 10
173.5033913255697
 20
126.8064692555022
 10
173.4396570170474
 20
126.8064692555022
 10
173.4396570170474
 20
126.8064692555022
 10
173.4396570170474
 20
126.8064692555022
 10
173.4186419207238
 20
126.8274843518258
 10
173.4186419207238
 20
126.8274843518258
 10
173.4186419207238
 20
126.8274843518258
 10
173.3972823146245
 20
126.8274843518258
 10
173.3972823146245
 20
126.8274843518258
 72
     1
 10
173.3972823146245
 20
126.8274843518258
 11
173.3972823146245
 21
126.8274843518258
 97
        0
 75
     0
 76
     1
 98
        0
450
        0
451
        0
460
0.0
461
0.0
452
        0
462
0.0
453
        0
470

  0
HATCH
  5
4842
330
1F
100
AcDbEntity
  8
图层 1
 62
     7
100
AcDbHatch
 10
0.0
 20
0.0
 30
0.0
210
0.0
220
0.0
230
1.0
  2
SOLID
 70
     1
 71
     0
 91
        1
 92
        1
 93
        2
 72
     4
 94
        3
 73
     0
 74
     0
 95
       47
 96
       43
 40
0.0
 40
0.0
 40
0.0
 40
0.0
 40
0.3527780104152769
 40
0.3527780104152769
 40
0.3527780104152769
 40
0.7055560208305538
 40
0.7055560208305538
 40
0.7055560208305538
 40
1.058334031245828
 40
1.058334031245828
 40
1.058334031245828
 40
1.411112041661104
 40
1.411112041661104
 40
1.411112041661104
 40
1.763890052076384
 40
1.763890052076384
 40
1.763890052076384
 40
2.116668062491659
 40
2.116668062491659
 40
2.116668062491659
 40
2.469446072906936
 40
2.469446072906936
 40
2.469446072906936
 40
2.822224083322215
 40
2.822224083322215
 40
2.822224083322215
 40
3.175002093737492
 40
3.175002093737492
 40
3.175002093737492
 40
3.527780104152768
 40
3.527780104152768
 40
3.527780104152768
 40
3.880558114568044
 40
3.880558114568044
 40
3.880558114568044
 40
4.233336124983321
 40
4.233336124983321
 40
4.233336124983321
 40
4.586114135398599
 40
4.586114135398599
 40
4.586114135398599
 40
4.938892145813873
 40
4.938892145813873
 40
4.938892145813873
 40
4.938892145813873
 10
180.1920486226523
 20
255.6479577566324
 10
180.1920486226523
 20
255.6479577566324
 10
180.2130637189759
 20
255.6055830542095
 10
180.2130637189759
 20
255.6055830542095
 10
180.2130637189759
 20
255.6055830542095
 10
180.2130637189759
 20
255.5210059042515
 10
180.2130637189759
 20
255.5210059042515
 10
180.2130637189759
 20
255.5210059042515
 10
180.1920486226523
 20
255.4786312018286
 10
180.1920486226523
 20
255.4786312018286
 10
180.1920486226523
 20
255.4786312018286
 10
180.1496739202294
 20
255.4359119896299
 10
180.1496739202294
 20
255.4359119896299
 10
180.1496739202294
 20
255.4359119896299
 10
180.1283143141301
 20
255.4147246384184
 10
180.1283143141301
 20
255.4147246384184
 10
180.1283143141301
 20
255.4147246384184
 10
180.0225498129606
 20
255.4147246384184
 10
180.0225498129606
 20
255.4147246384184
 10
180.0225498129606
 20
255.4147246384184
 10
179.9591600142141
 20
255.4359119896299
 10
179.9591600142141
 20
255.4359119896299
 10
179.9591600142141
 20
255.4359119896299
 10
179.9167853117912
 20
255.4570993408414
 10
179.9167853117912
 20
255.4570993408414
 10
179.9167853117912
 20
255.4570993408414
 10
179.8957702154676
 20
255.4786312018286
 10
179.8957702154676
 20
255.4786312018286
 10
179.8957702154676
 20
255.4786312018286
 10
179.8744106093683
 20
255.4994740432643
 10
179.8744106093683
 20
255.4994740432643
 10
179.8744106093683
 20
255.4994740432643
 10
179.8744106093683
 20
255.6479577566324
 10
179.8744106093683
 20
255.6479577566324
 10
179.9608825630931
 20
255.7323626517025
 10
180.045631967939
 20
255.7085914771726
 10
180.1496739202294
 20
255.7115198102668
 10
180.1496739202294
 20
255.7115198102668
 10
180.170689016553
 20
255.6688005980681
 10
180.170689016553
 20
255.6688005980681
 10
180.170689016553
 20
255.6688005980681
 10
180.1920486226523
 20
255.6479577566324
 10
180.1920486226523
 20
255.6479577566324
 72
     1
 10
180.1920486226523
 20
255.6479577566324
 11
180.1920486226523
 21
255.6479577566324
 97
        0
 75
     0
 76
     1
 98
        0
450
        0
451
        0
460
0.0
461
0.0
452
        0
462
0.0
453
        0
470

  0
MTEXT
  5
65A0
330
1F
100
AcDbEntity
  8
图框
 62
     3
100
AcDbMText
 10
599.071704550352
 20
228.6676486843801
 30
0.0
 40
1.492756787517073
 41
16.80619599621068
 46
4.343372752842933
 71
     5
 72
     5
  1
MGPIN-M3/S
  7
Romans字体
 73
     1
 44
1.0
1001
ACAD
1000
ACAD_MTEXT_DEFINED_HEIGHT_BEGIN
1070
    46
1040
4.343372752842933
1000
ACAD_MTEXT_DEFINED_HEIGHT_END
  0
MTEXT
  5
65A1
330
1F
100
AcDbEntity
  8
图框
 62
     3
100
AcDbMText
 10
599.071704550352
 20
224.277923420967
 30
0.0
 40
1.492756787517073
 41
16.80619599621068
 46
4.43607777398305
 71
     5
 72
     5
  1
1980020050022
  7
Romans字体
 73
     1
 44
1.0
1001
ACAD
1000
ACAD_MTEXT_DEFINED_HEIGHT_BEGIN
1070
    46
1040
4.43607777398305
1000
ACAD_MTEXT_DEFINED_HEIGHT_END
  0
MTEXT
  5
65A3
330
1F
100
AcDbEntity
  8
图框
 62
     3
100
AcDbMText
 10
565.0448720850595
 20
217.6241058815945
 30
0.0
 40
1.492756787517073
 41
5.414674217195233
 46
3.943047300605248
 71
     5
 72
     5
  1
2:1
  7
Romans字体
 73
     1
 44
1.0
1001
ACAD
1000
ACAD_MTEXT_DEFINED_HEIGHT_BEGIN
1070
    46
1040
3.943047300605248
1000
ACAD_MTEXT_DEFINED_HEIGHT_END
  0
MTEXT
  5
65A4
330
1F
100
AcDbEntity
  8
图框
 62
     3
100
AcDbMText
 10
570.4595463022549
 20
217.6241058815946
 30
0.0
 40
1.492756787517073
 41
5.41467421719563
 46
3.943047300605226
 71
     5
 72
     5
  1
V1.0 
  7
Romans字体
 73
     1
 44
1.0
1001
ACAD
1000
ACAD_MTEXT_DEFINED_HEIGHT_BEGIN
1070
    46
1040
3.943047300605226
1000
ACAD_MTEXT_DEFINED_HEIGHT_END
  0
MTEXT
  5
65B2
330
1F
100
AcDbEntity
  8
图框
 62
     3
100
AcDbMText
 10
575.8742205194505
 20
217.6241058815946
 30
0.0
 40
1.492756787517073
 41
16.80619599621068
 46
3.943047300605201
 71
     5
 72
     5
  1
1.6g 
  7
Romans字体
 73
     1
 44
1.0
1001
ACAD
1000
ACAD_MTEXT_DEFINED_HEIGHT_BEGIN
1070
    46
1040
3.943047300605201
1000
ACAD_MTEXT_DEFINED_HEIGHT_END
  0
INSERT
  5
11089
330
1F
100
AcDbEntity
  8
DIM
100
AcDbBlockReference
  2
A4图框-NEW
 10
44.01055124327593
 20
-30.29676506807346
 30
0.0
 41
0.5
 42
0.5
 43
0.5
  0
MTEXT
  5
1A5D3
102
{ACAD_XDICTIONARY
360
1BBB8
102
}
330
1F
100
AcDbEntity
  8
打标文字
 62
     3
100
AcDbMText
 10
581.7563858846961
 20
254.7081011286576
 30
0.0
 40
1.5
 41
40.58854755587267
 46
49.02347725636656
 71
     1
 72
     5
  1
\A1;技术参数:\P- 材料： 不锈钢\P- 螺纹规格: {\Fromans|c134;M3}\P{\Fromans|c134;\PTechnical specification:\P- Material: steel\P- Thread size: M3}
 73
     1
 44
1.0
1001
ACAD
1000
ACAD_MTEXT_DEFINED_HEIGHT_BEGIN
1070
    46
1040
49.02347725636656
1000
ACAD_MTEXT_DEFINED_HEIGHT_END
  0
LINE
  5
1B732
330
1F
100
AcDbEntity
  8
0
100
AcDbLine
 10
527.8563729353614
 20
265.7786884246581
 30
0.0
 11
527.8563729353614
 21
263.628688424658
 31
0.0
  0
LINE
  5
1B733
330
1F
100
AcDbEntity
  8
0
100
AcDbLine
 10
527.8563729353614
 20
267.9286884246582
 30
0.0
 11
527.8563729353614
 21
265.7786884246581
 31
0.0
  0
LINE
  5
1B734
330
1F
100
AcDbEntity
  8
0
100
AcDbLine
 10
529.3563729353613
 20
265.7786884246581
 30
0.0
 11
529.3563729353613
 21
263.628688424658
 31
0.0
  0
LINE
  5
1B735
330
1F
100
AcDbEntity
  8
0
100
AcDbLine
 10
529.3563729353613
 20
267.9286884246582
 30
0.0
 11
529.3563729353613
 21
265.7786884246581
 31
0.0
  0
LINE
  5
1B736
330
1F
100
AcDbEntity
  8
0
100
AcDbLine
 10
530.4563729353617
 20
265.7786884246581
 30
0.0
 11
530.4563729353617
 21
263.628688424658
 31
0.0
  0
LINE
  5
1B737
330
1F
100
AcDbEntity
  8
0
100
AcDbLine
 10
530.4563729353617
 20
267.9286884246582
 30
0.0
 11
530.4563729353617
 21
265.7786884246581
 31
0.0
  0
LINE
  5
1B738
102
{ACAD_REACTORS
330
1B8FB
102
}
330
1F
100
AcDbEntity
  8
0
100
AcDbLine
 10
518.8563729353614
 20
265.7786884246581
 30
0.0
 11
518.8563729353614
 21
266.7786884246581
 31
0.0
  0
LINE
  5
1B739
330
1F
100
AcDbEntity
  8
0
100
AcDbLine
 10
518.8563729353614
 20
264.7786884246581
 30
0.0
 11
518.8563729353614
 21
265.7786884246581
 31
0.0
  0
LINE
  5
1B73A
330
1F
100
AcDbEntity
  8
0
100
AcDbLine
 10
538.9563729353617
 20
266.3286884246578
 30
0.0
 11
540.456370935361
 21
266.3286884246578
 31
0.0
  0
LINE
  5
1B73B
330
1F
100
AcDbEntity
  8
0
100
AcDbLine
 10
540.456370935361
 20
265.2286884246584
 30
0.0
 11
538.9563729353617
 21
265.2286884246584
 31
0.0
  0
LINE
  5
1B73C
330
1F
100
AcDbEntity
  8
0
100
AcDbLine
 10
538.9563729353617
 20
265.2286884246584
 30
0.0
 11
538.9563729353617
 21
266.3286884246578
 31
0.0
  0
LINE
  5
1B73D
102
{ACAD_REACTORS
330
1B8F8
102
}
330
1F
100
AcDbEntity
  8
0
100
AcDbLine
 10
540.456370935361
 20
265.2286884246584
 30
0.0
 11
540.456370935361
 21
264.628688424658
 31
0.0
  0
LINE
  5
1B73E
102
{ACAD_REACTORS
330
1B8F8
102
}
330
1F
100
AcDbEntity
  8
0
100
AcDbLine
 10
540.456370935361
 20
266.9286884246582
 30
0.0
 11
540.456370935361
 21
266.3286884246578
 31
0.0
  0
LINE
  5
1B73F
330
1F
100
AcDbEntity
  8
0
100
AcDbLine
 10
518.8563729353614
 20
264.7786884246581
 30
0.0
 11
519.3563704353605
 21
264.2786834246578
 31
0.0
  0
LINE
  5
1B740
330
1F
100
AcDbEntity
  8
0
100
AcDbLine
 10
519.3563704353605
 20
265.7786884246581
 30
0.0
 11
519.3563704353605
 21
264.2786834246578
 31
0.0
  0
LINE
  5
1B741
330
1F
100
AcDbEntity
  8
0
100
AcDbLine
 10
519.3563704353605
 20
267.2786884246581
 30
0.0
 11
519.3563704353605
 21
265.7786884246581
 31
0.0
  0
LINE
  5
1B742
330
1F
100
AcDbEntity
  8
0
100
AcDbLine
 10
519.3563704353605
 20
267.2786884246581
 30
0.0
 11
518.8563729353614
 21
266.7786884246581
 31
0.0
  0
LINE
  5
1B743
330
1F
100
AcDbEntity
  8
0
100
AcDbLine
 10
519.3563704353605
 20
264.2786834246578
 30
0.0
 11
523.8563754353604
 21
264.2786834246578
 31
0.0
  0
LINE
  5
1B744
330
1F
100
AcDbEntity
  8
0
100
AcDbLine
 10
523.8563754353604
 20
265.7786884246581
 30
0.0
 11
523.8563754353604
 21
264.2786834246578
 31
0.0
  0
LINE
  5
1B745
330
1F
100
AcDbEntity
  8
0
100
AcDbLine
 10
523.8563754353604
 20
267.2786884246581
 30
0.0
 11
523.8563754353604
 21
265.7786884246581
 31
0.0
  0
LINE
  5
1B746
102
{ACAD_REACTORS
330
1B8FB
102
}
330
1F
100
AcDbEntity
  8
0
100
AcDbLine
 10
523.8563754353604
 20
267.2786884246581
 30
0.0
 11
519.3563704353605
 21
267.2786884246581
 31
0.0
  0
ARC
  5
1B747
330
1F
100
AcDbEntity
  8
0
100
AcDbCircle
 10
524.3146304353618
 20
264.0786884246578
 30
0.0
 40
0.5
100
AcDbArc
 50
90.0
 51
156.4218199999863
  0
ARC
  5
1B748
330
1F
100
AcDbEntity
  8
0
100
AcDbCircle
 10
524.3146304353618
 20
267.4786884246584
 30
0.0
 40
0.49999692
100
AcDbArc
 50
203.5781100000075
 51
270.0000299999509
  0
LINE
  5
1B749
330
1F
100
AcDbEntity
  8
0
100
AcDbLine
 10
524.3146309353618
 20
264.5786884246578
 30
0.0
 11
527.5563754353611
 21
264.5786884246578
 31
0.0
  0
LINE
  5
1B74A
330
1F
100
AcDbEntity
  8
0
100
AcDbLine
 10
527.5563754353611
 20
266.9786884246583
 30
0.0
 11
524.3146309353618
 21
266.9786884246583
 31
0.0
  0
ARC
  5
1B74B
330
1F
100
AcDbEntity
  8
0
100
AcDbCircle
 10
527.5563729353603
 20
264.2786884246581
 30
0.0
 40
0.3
100
AcDbArc
 50
0.0
 51
90.0
  0
ARC
  5
1B74C
330
1F
100
AcDbEntity
  8
0
100
AcDbCircle
 10
527.5563729353603
 20
267.2786884246581
 30
0.0
 40
0.29999968
100
AcDbArc
 50
270.000419999938
 51
0.0
  0
LINE
  5
1B74D
102
{ACAD_REACTORS
330
1B8FE
102
}
330
1F
100
AcDbEntity
  8
0
100
AcDbLine
 10
527.8563729353614
 20
263.628688424658
 30
0.0
 11
529.3563729353613
 21
263.628688424658
 31
0.0
  0
LINE
  5
1B74E
330
1F
100
AcDbEntity
  8
0
100
AcDbLine
 10
529.3563729353613
 20
267.9286884246582
 30
0.0
 11
527.8563729353614
 21
267.9286884246582
 31
0.0
  0
LINE
  5
1B74F
330
1F
100
AcDbEntity
  8
0
100
AcDbLine
 10
529.3563729353613
 20
263.8786834246581
 30
0.0
 11
530.4563749353604
 21
263.8786834246581
 31
0.0
  0
LINE
  5
1B750
330
1F
100
AcDbEntity
  8
0
100
AcDbLine
 10
530.4563749353604
 20
267.6786884246582
 30
0.0
 11
529.3563729353613
 21
267.6786884246582
 31
0.0
  0
LINE
  5
1B751
330
1F
100
AcDbEntity
  8
0
100
AcDbLine
 10
530.4563729353617
 20
263.628688424658
 30
0.0
 11
538.724322435361
 21
263.6286834246581
 31
0.0
  0
LINE
  5
1B752
330
1F
100
AcDbEntity
  8
0
100
AcDbLine
 10
538.724322435361
 20
265.7786884246581
 30
0.0
 11
538.724322435361
 21
263.6286834246581
 31
0.0
  0
LINE
  5
1B753
330
1F
100
AcDbEntity
  8
0
100
AcDbLine
 10
538.724322435361
 20
267.9286884246582
 30
0.0
 11
538.724322435361
 21
265.7786884246581
 31
0.0
  0
LINE
  5
1B754
330
1F
100
AcDbEntity
  8
0
100
AcDbLine
 10
538.724322435361
 20
267.9286884246582
 30
0.0
 11
530.4563729353617
 21
267.9286884246582
 31
0.0
  0
LINE
  5
1B755
330
1F
100
AcDbEntity
  8
0
100
AcDbLine
 10
538.724322435361
 20
263.6286834246581
 30
0.0
 11
540.456370935361
 21
264.628688424658
 31
0.0
  0
LINE
  5
1B756
330
1F
100
AcDbEntity
  8
0
100
AcDbLine
 10
540.456370935361
 20
266.9286884246582
 30
0.0
 11
538.724322435361
 21
267.9286884246582
 31
0.0
  0
LINE
  5
1B757
330
1F
100
AcDbEntity
  8
204
100
AcDbLine
 10
473.2655337328971
 20
229.1753490114711
 30
0.0
 11
473.2655337328971
 21
229.5835970114713
 31
0.0
  0
POLYLINE
  5
1B758
330
1F
100
AcDbEntity
  8
204
100
AcDb2dPolyline
 66
     1
 10
0.0
 20
0.0
 30
0.0
 70
     2
  0
VERTEX
  5
1B759
330
1B758
100
AcDbEntity
  8
204
100
AcDbVertex
100
AcDb2dVertex
 10
473.2655337328971
 20
229.5835970114713
 30
0.0
  0
VERTEX
  5
1B75A
330
1B758
100
AcDbEntity
  8
204
100
AcDbVertex
100
AcDb2dVertex
 10
473.2694322328979
 20
229.675374011471
 30
0.0
 42
-0.028098821
 70
     1
  0
VERTEX
  5
1B75B
330
1B758
100
AcDbEntity
  8
204
100
AcDbVertex
100
AcDb2dVertex
 10
473.2832167328989
 20
229.7752650114708
 30
0.0
 42
-0.020282707
  0
VERTEX
  5
1B75C
330
1B758
100
AcDbEntity
  8
204
100
AcDbVertex
100
AcDb2dVertex
 10
473.3068537328973
 20
229.8836675114708
 30
0.0
 42
-0.019525568
 70
     1
  0
VERTEX
  5
1B75D
330
1B758
100
AcDbEntity
  8
204
100
AcDbVertex
100
AcDb2dVertex
 10
473.3429752328984
 20
229.9998330114714
 30
0.0
 42
-0.02424168
  0
VERTEX
  5
1B75E
330
1B758
100
AcDbEntity
  8
204
100
AcDbVertex
100
AcDb2dVertex
 10
473.3938002328986
 20
230.1220000114709
 30
0.0
 42
-0.018445895
 70
     1
  0
VERTEX
  5
1B75F
330
1B758
100
AcDbEntity
  8
204
100
AcDbVertex
100
AcDb2dVertex
 10
473.4505727328987
 20
230.2411240114712
 30
0.0
 42
-0.0078682128
  0
VERTEX
  5
1B760
330
1B758
100
AcDbEntity
  8
204
100
AcDbVertex
100
AcDb2dVertex
 10
473.5102557328984
 20
230.3518505114713
 30
0.0
 42
-0.024722841
 70
     1
  0
VERTEX
  5
1B761
330
1B758
100
AcDbEntity
  8
204
100
AcDbVertex
100
AcDb2dVertex
 10
473.6023007328977
 20
230.4735900114711
 30
0.0
 42
-0.045090951
  0
VERTEX
  5
1B762
330
1B758
100
AcDbEntity
  8
204
100
AcDbVertex
100
AcDb2dVertex
 10
473.7586622328991
 20
230.6270910114709
 30
0.0
 42
-0.025578994
 70
     1
  0
VERTEX
  5
1B763
330
1B758
100
AcDbEntity
  8
204
100
AcDbVertex
100
AcDb2dVertex
 10
473.9726382328981
 20
230.808345011471
 30
0.0
 42
-0.013801338
  0
SEQEND
  5
1B764
330
1B758
100
AcDbEntity
  8
204
  0
LINE
  5
1B765
330
1F
100
AcDbEntity
  8
204
100
AcDbLine
 10
474.3261922328994
 20
231.0124665114709
 30
0.0
 11
473.9726382328981
 21
230.808345011471
 31
0.0
  0
POLYLINE
  5
1B766
330
1F
100
AcDbEntity
  8
204
100
AcDb2dPolyline
 66
     1
 10
0.0
 20
0.0
 30
0.0
 70
     2
  0
VERTEX
  5
1B767
330
1B766
100
AcDbEntity
  8
204
100
AcDbVertex
100
AcDb2dVertex
 10
473.2655337328971
 20
229.1753490114711
 30
0.0
  0
VERTEX
  5
1B768
330
1B766
100
AcDbEntity
  8
204
100
AcDbVertex
100
AcDb2dVertex
 10
473.2672172328995
 20
229.1067820114713
 30
0.0
 42
0.014592151
 70
     1
  0
VERTEX
  5
1B769
330
1B766
100
AcDbEntity
  8
204
100
AcDbVertex
100
AcDb2dVertex
 10
473.2725392328985
 20
229.0388580114714
 30
0.0
 42
0.012641481
  0
VERTEX
  5
1B76A
330
1B766
100
AcDbEntity
  8
204
100
AcDbVertex
100
AcDb2dVertex
 10
473.2814457328977
 20
228.9716415114709
 30
0.0
 42
0.014822728
 70
     1
  0
VERTEX
  5
1B76B
330
1B766
100
AcDbEntity
  8
204
100
AcDbVertex
100
AcDb2dVertex
 10
473.2951952328977
 20
228.9048560114712
 30
0.0
 42
0.021249268
  0
VERTEX
  5
1B76C
330
1B766
100
AcDbEntity
  8
204
100
AcDbVertex
100
AcDb2dVertex
 10
473.3147237328986
 20
228.8389685114712
 30
0.0
 42
0.017199155
 70
     1
  0
VERTEX
  5
1B76D
330
1B766
100
AcDbEntity
  8
204
100
AcDbVertex
100
AcDb2dVertex
 10
473.3357227328989
 20
228.7777435114713
 30
0.0
 42
0.0043827543
  0
VERTEX
  5
1B76E
330
1B766
100
AcDbEntity
  8
204
100
AcDbVertex
100
AcDb2dVertex
 10
473.3570642328987
 20
228.7230125114712
 30
0.0
 42
0.028484552
 70
     1
  0
VERTEX
  5
1B76F
330
1B766
100
AcDbEntity
  8
204
100
AcDbVertex
100
AcDb2dVertex
 10
473.395770232898
 20
228.6625370114712
 30
0.0
 42
0.059367132
  0
VERTEX
  5
1B770
330
1B766
100
AcDbEntity
  8
204
100
AcDbVertex
100
AcDb2dVertex
 10
473.4700752328982
 20
228.5836215114715
 30
0.0
 42
0.030724065
 70
     1
  0
VERTEX
  5
1B771
330
1B766
100
AcDbEntity
  8
204
100
AcDbVertex
100
AcDb2dVertex
 10
473.5761922328994
 20
228.4886860114712
 30
0.0
 42
0.015727029
  0
SEQEND
  5
1B772
330
1B766
100
AcDbEntity
  8
204
  0
POLYLINE
  5
1B773
330
1F
100
AcDbEntity
  8
204
100
AcDb2dPolyline
 66
     1
 10
0.0
 20
0.0
 30
0.0
 70
     2
  0
VERTEX
  5
1B774
330
1B773
100
AcDbEntity
  8
204
100
AcDbVertex
100
AcDb2dVertex
 10
475.0761922328994
 20
231.0867600114712
 30
0.0
  0
VERTEX
  5
1B775
330
1B773
100
AcDbEntity
  8
204
100
AcDbVertex
100
AcDb2dVertex
 10
474.9897657328975
 20
231.125372011471
 30
0.0
 42
0.041387377
 70
     1
  0
VERTEX
  5
1B776
330
1B773
100
AcDbEntity
  8
204
100
AcDbVertex
100
AcDb2dVertex
 10
474.8996892328987
 20
231.149107511471
 30
0.0
 42
0.041064051
  0
VERTEX
  5
1B777
330
1B773
100
AcDbEntity
  8
204
100
AcDbVertex
100
AcDb2dVertex
 10
474.8063507328979
 20
231.1573895114712
 30
0.0
 42
0.041337274
 70
     1
  0
VERTEX
  5
1B778
330
1B773
100
AcDbEntity
  8
204
100
AcDbVertex
100
AcDb2dVertex
 10
474.7062087328987
 20
231.1505635114709
 30
0.0
 42
0.037007784
  0
VERTEX
  5
1B779
330
1B773
100
AcDbEntity
  8
204
100
AcDbVertex
100
AcDb2dVertex
 10
474.595300232898
 20
231.1273450114714
 30
0.0
 42
0.031516473
 70
     1
  0
VERTEX
  5
1B77A
330
1B773
100
AcDbEntity
  8
204
100
AcDbVertex
100
AcDb2dVertex
 10
474.4753252328983
 20
231.0864030114708
 30
0.0
 42
0.030835671
  0
VERTEX
  5
1B77B
330
1B773
100
AcDbEntity
  8
204
100
AcDbVertex
100
AcDb2dVertex
 10
474.348330732898
 20
231.0249050114708
 30
0.0
 42
0.028389881
 70
     1
  0
VERTEX
  5
1B77C
330
1B773
100
AcDbEntity
  8
204
100
AcDbVertex
100
AcDb2dVertex
 10
474.2169292328973
 20
230.9428685114709
 30
0.0
 42
0.026209143
  0
VERTEX
  5
1B77D
330
1B773
100
AcDbEntity
  8
204
100
AcDbVertex
100
AcDb2dVertex
 10
474.0835692328975
 20
230.8393790114711
 30
0.0
 42
0.023247137
 70
     1
  0
VERTEX
  5
1B77E
330
1B773
100
AcDbEntity
  8
204
100
AcDbVertex
100
AcDb2dVertex
 10
473.9517332328987
 20
230.717408011471
 30
0.0
 42
0.021044655
  0
VERTEX
  5
1B77F
330
1B773
100
AcDbEntity
  8
204
100
AcDbVertex
100
AcDb2dVertex
 10
473.8251177328995
 20
230.578510511471
 30
0.0
 42
0.020839508
 70
     1
  0
VERTEX
  5
1B780
330
1B773
100
AcDbEntity
  8
204
100
AcDbVertex
100
AcDb2dVertex
 10
473.7065112328991
 20
230.423927511471
 30
0.0
 42
0.022220524
  0
VERTEX
  5
1B781
330
1B773
100
AcDbEntity
  8
204
100
AcDbVertex
100
AcDb2dVertex
 10
473.5993097328984
 20
230.256105011471
 30
0.0
 42
0.018026846
 70
     1
  0
VERTEX
  5
1B782
330
1B773
100
AcDbEntity
  8
204
100
AcDbVertex
100
AcDb2dVertex
 10
473.5062357328979
 20
230.0912110114714
 30
0.0
 42
0.010138436
  0
VERTEX
  5
1B783
330
1B773
100
AcDbEntity
  8
204
100
AcDbVertex
100
AcDb2dVertex
 10
473.4299532328979
 20
229.9375225114709
 30
0.0
 42
0.021718407
 70
     1
  0
VERTEX
  5
1B784
330
1B773
100
AcDbEntity
  8
204
100
AcDbVertex
100
AcDb2dVertex
 10
473.3661492328984
 20
229.7541000114712
 30
0.0
 42
0.03677134
  0
VERTEX
  5
1B785
330
1B773
100
AcDbEntity
  8
204
100
AcDbVertex
100
AcDb2dVertex
 10
473.3112782328982
 20
229.4971475114708
 30
0.0
 42
0.02275568
 70
     1
  0
VERTEX
  5
1B786
330
1B773
100
AcDbEntity
  8
204
100
AcDbVertex
100
AcDb2dVertex
 10
473.2655337328971
 20
229.1753490114711
 30
0.0
 42
0.013905049
  0
SEQEND
  5
1B787
330
1B773
100
AcDbEntity
  8
204
  0
LINE
  5
1B788
330
1F
100
AcDbEntity
  8
204
100
AcDbLine
 10
473.5761922328994
 20
228.4886860114712
 30
0.0
 11
476.7581732328973
 21
226.651568511471
 31
0.0
  0
POLYLINE
  5
1B789
330
1F
100
AcDbEntity
  8
204
100
AcDb2dPolyline
 66
     1
 10
0.0
 20
0.0
 30
0.0
 70
     2
  0
VERTEX
  5
1B78A
330
1B789
100
AcDbEntity
  8
204
100
AcDbVertex
100
AcDb2dVertex
 10
476.4475142328985
 20
227.3382315114714
 30
0.0
  0
VERTEX
  5
1B78B
330
1B789
100
AcDbEntity
  8
204
100
AcDbVertex
100
AcDb2dVertex
 10
476.4524047328988
 20
227.2190945114708
 30
0.0
 42
0.027813577
 70
     1
  0
VERTEX
  5
1B78C
330
1B789
100
AcDbEntity
  8
204
100
AcDbVertex
100
AcDb2dVertex
 10
476.4693532328993
 20
227.1035875114713
 30
0.0
 42
0.025030453
  0
VERTEX
  5
1B78D
330
1B789
100
AcDbEntity
  8
204
100
AcDbVertex
100
AcDb2dVertex
 10
476.498270732899
 20
226.991256511471
 30
0.0
 42
0.029656098
 70
     1
  0
VERTEX
  5
1B78E
330
1B789
100
AcDbEntity
  8
204
100
AcDbVertex
100
AcDb2dVertex
 10
476.5426977328981
 20
226.8860960114712
 30
0.0
 42
0.045790644
  0
VERTEX
  5
1B78F
330
1B789
100
AcDbEntity
  8
204
100
AcDbVertex
100
AcDb2dVertex
 10
476.6055457328977
 20
226.7928660114713
 30
0.0
 42
0.041657137
 70
     1
  0
VERTEX
  5
1B790
330
1B789
100
AcDbEntity
  8
204
100
AcDbVertex
100
AcDb2dVertex
 10
476.675273732898
 20
226.7114180114714
 30
0.0
 42
0.017073352
  0
VERTEX
  5
1B791
330
1B789
100
AcDbEntity
  8
204
100
AcDbVertex
100
AcDb2dVertex
 10
476.7482402328979
 20
226.6443950114709
 30
0.0
 42
0.065918126
 70
     1
  0
VERTEX
  5
1B792
330
1B789
100
AcDbEntity
  8
204
100
AcDbVertex
100
AcDb2dVertex
 10
476.865664732898
 20
226.605190511471
 30
0.0
 42
0.11927252
  0
VERTEX
  5
1B793
330
1B789
100
AcDbEntity
  8
204
100
AcDbVertex
100
AcDb2dVertex
 10
477.0720812328973
 20
226.6087725114713
 30
0.0
 42
0.050307612
 70
     1
  0
VERTEX
  5
1B794
330
1B789
100
AcDbEntity
  8
204
100
AcDbVertex
100
AcDb2dVertex
 10
477.3581732328993
 20
226.6515675114711
 30
0.0
 42
0.02250896
  0
SEQEND
  5
1B795
330
1B789
100
AcDbEntity
  8
204
  0
POLYLINE
  5
1B796
330
1F
100
AcDbEntity
  8
204
100
AcDb2dPolyline
 66
     1
 10
0.0
 20
0.0
 30
0.0
 70
     2
  0
VERTEX
  5
1B797
330
1B796
100
AcDbEntity
  8
204
100
AcDbVertex
100
AcDb2dVertex
 10
478.5581732328984
 20
228.7300285114712
 30
0.0
  0
VERTEX
  5
1B798
330
1B796
100
AcDbEntity
  8
204
100
AcDbVertex
100
AcDb2dVertex
 10
478.5174597328978
 20
228.9040950114714
 30
0.0
 42
0.036837313
 70
     1
  0
VERTEX
  5
1B799
330
1B796
100
AcDbEntity
  8
204
100
AcDbVertex
100
AcDb2dVertex
 10
478.4558677328979
 20
229.0477575114711
 30
0.0
 42
0.052733119
  0
VERTEX
  5
1B79A
330
1B796
100
AcDbEntity
  8
204
100
AcDbVertex
100
AcDb2dVertex
 10
478.3715477328978
 20
229.1597695114711
 30
0.0
 42
0.061456361
 70
     1
  0
VERTEX
  5
1B79B
330
1B796
100
AcDbEntity
  8
204
100
AcDbVertex
100
AcDb2dVertex
 10
478.2721127328978
 20
229.2412910114709
 30
0.0
 42
0.060045052
  0
VERTEX
  5
1B79C
330
1B796
100
AcDbEntity
  8
204
100
AcDbVertex
100
AcDb2dVertex
 10
478.1642987328988
 20
229.2917130114711
 30
0.0
 42
0.060947944
 70
     1
  0
VERTEX
  5
1B79D
330
1B796
100
AcDbEntity
  8
204
100
AcDbVertex
100
AcDb2dVertex
 10
478.049508232899
 20
229.316367011471
 30
0.0
 42
0.052267275
  0
VERTEX
  5
1B79E
330
1B796
100
AcDbEntity
  8
204
100
AcDbVertex
100
AcDb2dVertex
 10
477.9264792328986
 20
229.3178365114709
 30
0.0
 42
0.047259981
 70
     1
  0
VERTEX
  5
1B79F
330
1B796
100
AcDbEntity
  8
204
100
AcDbVertex
100
AcDb2dVertex
 10
477.7914567328982
 20
229.2944140114715
 30
0.0
 42
0.044733793
  0
VERTEX
  5
1B7A0
330
1B796
100
AcDbEntity
  8
204
100
AcDbVertex
100
AcDb2dVertex
 10
477.6406352328987
 20
229.2413255114712
 30
0.0
 42
0.036893756
 70
     1
  0
VERTEX
  5
1B7A1
330
1B796
100
AcDbEntity
  8
204
100
AcDbVertex
100
AcDb2dVertex
 10
477.4787617328976
 20
229.1578990114713
 30
0.0
 42
0.033466331
  0
VERTEX
  5
1B7A2
330
1B796
100
AcDbEntity
  8
204
100
AcDbVertex
100
AcDb2dVertex
 10
477.3113597328983
 20
229.041301511471
 30
0.0
 42
0.03151047
 70
     1
  0
VERTEX
  5
1B7A3
330
1B796
100
AcDbEntity
  8
204
100
AcDbVertex
100
AcDb2dVertex
 10
477.1445247328983
 20
228.8911655114712
 30
0.0
 42
0.031781753
  0
VERTEX
  5
1B7A4
330
1B796
100
AcDbEntity
  8
204
100
AcDbVertex
100
AcDb2dVertex
 10
476.9848377328989
 20
228.7086000114714
 30
0.0
 42
0.024319617
 70
     1
  0
VERTEX
  5
1B7A5
330
1B796
100
AcDbEntity
  8
204
100
AcDbVertex
100
AcDb2dVertex
 10
476.840099232898
 20
228.516155511471
 30
0.0
 42
0.014117419
  0
VERTEX
  5
1B7A6
330
1B796
100
AcDbEntity
  8
204
100
AcDbVertex
100
AcDb2dVertex
 10
476.7175677328987
 20
228.3262025114709
 30
0.0
 42
0.027682143
 70
     1
  0
VERTEX
  5
1B7A7
330
1B796
100
AcDbEntity
  8
204
100
AcDbVertex
100
AcDb2dVertex
 10
476.6131332328979
 20
228.0910200114714
 30
0.0
 42
0.044950681
  0
VERTEX
  5
1B7A8
330
1B796
100
AcDbEntity
  8
204
100
AcDbVertex
100
AcDb2dVertex
 10
476.5231062328994
 20
227.7581175114711
 30
0.0
 42
0.028404216
 70
     1
  0
VERTEX
  5
1B7A9
330
1B796
100
AcDbEntity
  8
204
100
AcDbVertex
100
AcDb2dVertex
 10
476.4475142328985
 20
227.3382315114714
 30
0.0
 42
0.017112196
  0
SEQEND
  5
1B7AA
330
1B796
100
AcDbEntity
  8
204
  0
LINE
  5
1B7AB
330
1F
100
AcDbEntity
  8
204
100
AcDbLine
 10
478.2581732328972
 20
229.2496425114714
 30
0.0
 11
475.0761922328994
 21
231.0867600114712
 31
0.0
  0
POLYLINE
  5
1B7AC
330
1F
100
AcDbEntity
  8
205
100
AcDb2dPolyline
 66
     1
 10
0.0
 20
0.0
 30
0.0
 70
     2
  0
VERTEX
  5
1B7AD
330
1B7AC
100
AcDbEntity
  8
205
100
AcDbVertex
100
AcDb2dVertex
 10
476.9836832328975
 20
227.2736260114712
 30
0.0
  0
VERTEX
  5
1B7AE
330
1B7AC
100
AcDbEntity
  8
205
100
AcDbVertex
100
AcDb2dVertex
 10
476.9850302328988
 20
227.2187720114712
 30
0.0
 42
0.014592111
 70
     1
  0
VERTEX
  5
1B7AF
330
1B7AC
100
AcDbEntity
  8
205
100
AcDbVertex
100
AcDb2dVertex
 10
476.9892877328993
 20
227.1644325114713
 30
0.0
 42
0.01264145
  0
VERTEX
  5
1B7B0
330
1B7AC
100
AcDbEntity
  8
205
100
AcDbVertex
100
AcDb2dVertex
 10
476.9964127328977
 20
227.1106590114714
 30
0.0
 42
0.014822699
 70
     1
  0
VERTEX
  5
1B7B1
330
1B7AC
100
AcDbEntity
  8
205
100
AcDbVertex
100
AcDb2dVertex
 10
477.0074127328981
 20
227.0572305114711
 30
0.0
 42
0.021249239
  0
VERTEX
  5
1B7B2
330
1B7AC
100
AcDbEntity
  8
205
100
AcDbVertex
100
AcDb2dVertex
 10
477.0230352328971
 20
227.004520011471
 30
0.0
 42
0.017199143
 70
     1
  0
VERTEX
  5
1B7B3
330
1B7AC
100
AcDbEntity
  8
205
100
AcDbVertex
100
AcDb2dVertex
 10
477.0398347328984
 20
226.9555400114715
 30
0.0
 42
0.004382753
  0
VERTEX
  5
1B7B4
330
1B7AC
100
AcDbEntity
  8
205
100
AcDbVertex
100
AcDb2dVertex
 10
477.0569077328973
 20
226.9117550114712
 30
0.0
 42
0.028484554
 70
     1
  0
VERTEX
  5
1B7B5
330
1B7AC
100
AcDbEntity
  8
205
100
AcDbVertex
100
AcDb2dVertex
 10
477.0878727328991
 20
226.8633740114711
 30
0.0
 42
0.059367236
  0
VERTEX
  5
1B7B6
330
1B7AC
100
AcDbEntity
  8
205
100
AcDbVertex
100
AcDb2dVertex
 10
477.1473162328976
 20
226.8002420114708
 30
0.0
 42
0.030724161
 70
     1
  0
VERTEX
  5
1B7B7
330
1B7AC
100
AcDbEntity
  8
205
100
AcDbVertex
100
AcDb2dVertex
 10
477.2322102328971
 20
226.7242930114708
 30
0.0
 42
0.015727086
  0
SEQEND
  5
1B7B8
330
1B7AC
100
AcDbEntity
  8
205
  0
POLYLINE
  5
1B7B9
330
1F
100
AcDbEntity
  8
205
100
AcDb2dPolyline
 66
     1
 10
0.0
 20
0.0
 30
0.0
 70
     2
  0
VERTEX
  5
1B7BA
330
1B7B9
100
AcDbEntity
  8
205
100
AcDbVertex
100
AcDb2dVertex
 10
478.4322122328986
 20
228.8027530114714
 30
0.0
  0
VERTEX
  5
1B7BB
330
1B7B9
100
AcDbEntity
  8
205
100
AcDbVertex
100
AcDb2dVertex
 10
478.363069232898
 20
228.8336420114711
 30
0.0
 42
0.041385808
 70
     1
  0
VERTEX
  5
1B7BC
330
1B7B9
100
AcDbEntity
  8
205
100
AcDbVertex
100
AcDb2dVertex
 10
478.2910077328988
 20
228.8526305114711
 30
0.0
 42
0.041062613
  0
VERTEX
  5
1B7BD
330
1B7B9
100
AcDbEntity
  8
205
100
AcDbVertex
100
AcDb2dVertex
 10
478.2163362328985
 20
228.8592560114712
 30
0.0
 42
0.041336588
 70
     1
  0
VERTEX
  5
1B7BE
330
1B7B9
100
AcDbEntity
  8
205
100
AcDbVertex
100
AcDb2dVertex
 10
478.1362232328985
 20
228.8537955114712
 30
0.0
 42
0.037007761
  0
VERTEX
  5
1B7BF
330
1B7B9
100
AcDbEntity
  8
205
100
AcDbVertex
100
AcDb2dVertex
 10
478.047496232898
 20
228.8352205114712
 30
0.0
 42
0.03151646
 70
     1
  0
VERTEX
  5
1B7C0
330
1B7B9
100
AcDbEntity
  8
205
100
AcDbVertex
100
AcDb2dVertex
 10
477.9515162328981
 20
228.802467011471
 30
0.0
 42
0.030835638
  0
VERTEX
  5
1B7C1
330
1B7B9
100
AcDbEntity
  8
205
100
AcDbVertex
100
AcDb2dVertex
 10
477.8499207328978
 20
228.7532690114713
 30
0.0
 42
0.028389878
 70
     1
  0
VERTEX
  5
1B7C2
330
1B7B9
100
AcDbEntity
  8
205
100
AcDbVertex
100
AcDb2dVertex
 10
477.744799232899
 20
228.6876395114715
 30
0.0
 42
0.026209139
  0
VERTEX
  5
1B7C3
330
1B7B9
100
AcDbEntity
  8
205
100
AcDbVertex
100
AcDb2dVertex
 10
477.6381117328993
 20
228.6048480114715
 30
0.0
 42
0.023247134
 70
     1
  0
VERTEX
  5
1B7C4
330
1B7B9
100
AcDbEntity
  8
205
100
AcDbVertex
100
AcDb2dVertex
 10
477.5326427328973
 20
228.5072715114712
 30
0.0
 42
0.021044661
  0
VERTEX
  5
1B7C5
330
1B7B9
100
AcDbEntity
  8
205
100
AcDbVertex
100
AcDb2dVertex
 10
477.4313502328977
 20
228.3961540114711
 30
0.0
 42
0.020839521
 70
     1
  0
VERTEX
  5
1B7C6
330
1B7B9
100
AcDbEntity
  8
205
100
AcDbVertex
100
AcDb2dVertex
 10
477.3364652328991
 20
228.2724870114712
 30
0.0
 42
0.022220541
  0
VERTEX
  5
1B7C7
330
1B7B9
100
AcDbEntity
  8
205
100
AcDbVertex
100
AcDb2dVertex
 10
477.2507042328972
 20
228.1382295114709
 30
0.0
 42
0.018026862
 70
     1
  0
VERTEX
  5
1B7C8
330
1B7B9
100
AcDbEntity
  8
205
100
AcDbVertex
100
AcDb2dVertex
 10
477.1762452328977
 20
228.006314511471
 30
0.0
 42
0.010138447
  0
VERTEX
  5
1B7C9
330
1B7B9
100
AcDbEntity
  8
205
100
AcDbVertex
100
AcDb2dVertex
 10
477.115218732898
 20
227.8833640114708
 30
0.0
 42
0.021718431
 70
     1
  0
VERTEX
  5
1B7CA
330
1B7B9
100
AcDbEntity
  8
205
100
AcDbVertex
100
AcDb2dVertex
 10
477.0641757328986
 20
227.7366265114711
 30
0.0
 42
0.036771387
  0
VERTEX
  5
1B7CB
330
1B7B9
100
AcDbEntity
  8
205
100
AcDbVertex
100
AcDb2dVertex
 10
477.0202792328992
 20
227.5310645114715
 30
0.0
 42
0.022755711
 70
     1
  0
VERTEX
  5
1B7CC
330
1B7B9
100
AcDbEntity
  8
205
100
AcDbVertex
100
AcDb2dVertex
 10
476.9836832328975
 20
227.2736260114712
 30
0.0
 42
0.013905068
  0
SEQEND
  5
1B7CD
330
1B7B9
100
AcDbEntity
  8
205
  0
LINE
  5
1B7CE
330
1F
100
AcDbEntity
  8
204
100
AcDbLine
 10
477.2322102328971
 20
226.7242930114708
 30
0.0
 11
478.8446222328993
 21
225.7933660114714
 31
0.0
  0
LINE
  5
1B7CF
330
1F
100
AcDbEntity
  8
204
100
AcDbLine
 10
480.0446222328984
 20
227.8718270114715
 30
0.0
 11
478.4322122328986
 21
228.8027530114714
 31
0.0
  0
POLYLINE
  5
1B7D0
330
1F
100
AcDbEntity
  8
204
100
AcDb2dPolyline
 66
     1
 10
0.0
 20
0.0
 30
0.0
 70
     2
  0
VERTEX
  5
1B7D1
330
1B7D0
100
AcDbEntity
  8
204
100
AcDbVertex
100
AcDb2dVertex
 10
478.8163187328983
 20
225.4398785114709
 30
0.0
  0
VERTEX
  5
1B7D2
330
1B7D0
100
AcDbEntity
  8
204
100
AcDbVertex
100
AcDb2dVertex
 10
478.8187322328987
 20
225.3415985114712
 30
0.0
 42
0.014592098
 70
     1
  0
VERTEX
  5
1B7D3
330
1B7D0
100
AcDbEntity
  8
204
100
AcDbVertex
100
AcDb2dVertex
 10
478.8263612328984
 20
225.244241011471
 30
0.0
 42
0.012641424
  0
VERTEX
  5
1B7D4
330
1B7D0
100
AcDbEntity
  8
204
100
AcDbVertex
100
AcDb2dVertex
 10
478.8391277328984
 20
225.1478965114712
 30
0.0
 42
0.014822649
 70
     1
  0
VERTEX
  5
1B7D5
330
1B7D0
100
AcDbEntity
  8
204
100
AcDbVertex
100
AcDb2dVertex
 10
478.8588357328982
 20
225.0521710114709
 30
0.0
 42
0.021249134
  0
VERTEX
  5
1B7D6
330
1B7D0
100
AcDbEntity
  8
204
100
AcDbVertex
100
AcDb2dVertex
 10
478.8868267328972
 20
224.957731011471
 30
0.0
 42
0.017199029
 70
     1
  0
VERTEX
  5
1B7D7
330
1B7D0
100
AcDbEntity
  8
204
100
AcDbVertex
100
AcDb2dVertex
 10
478.9169262328988
 20
224.8699750114711
 30
0.0
 42
0.0043827203
  0
VERTEX
  5
1B7D8
330
1B7D0
100
AcDbEntity
  8
204
100
AcDbVertex
100
AcDb2dVertex
 10
478.947516232899
 20
224.7915270114709
 30
0.0
 42
0.02848432
 70
     1
  0
VERTEX
  5
1B7D9
330
1B7D0
100
AcDbEntity
  8
204
100
AcDbVertex
100
AcDb2dVertex
 10
479.0029947328977
 20
224.7048450114708
 30
0.0
 42
0.059366594
  0
VERTEX
  5
1B7DA
330
1B7D0
100
AcDbEntity
  8
204
100
AcDbVertex
100
AcDb2dVertex
 10
479.1094987328971
 20
224.5917325114711
 30
0.0
 42
0.030723798
 70
     1
  0
VERTEX
  5
1B7DB
330
1B7D0
100
AcDbEntity
  8
204
100
AcDbVertex
100
AcDb2dVertex
 10
479.2616012328974
 20
224.455657011471
 30
0.0
 42
0.015726902
  0
SEQEND
  5
1B7DC
330
1B7D0
100
AcDbEntity
  8
204
  0
POLYLINE
  5
1B7DD
330
1F
100
AcDbEntity
  8
204
100
AcDb2dPolyline
 66
     1
 10
0.0
 20
0.0
 30
0.0
 70
     2
  0
VERTEX
  5
1B7DE
330
1B7DD
100
AcDbEntity
  8
204
100
AcDbVertex
100
AcDb2dVertex
 10
481.4116017328989
 20
228.1795665114715
 30
0.0
  0
VERTEX
  5
1B7DF
330
1B7DD
100
AcDbEntity
  8
204
100
AcDbVertex
100
AcDb2dVertex
 10
481.2877222328981
 20
228.2349095114715
 30
0.0
 42
0.041386569
 70
     1
  0
VERTEX
  5
1B7E0
330
1B7DD
100
AcDbEntity
  8
204
100
AcDbVertex
100
AcDb2dVertex
 10
481.1586122328981
 20
228.2689305114709
 30
0.0
 42
0.041063215
  0
VERTEX
  5
1B7E1
330
1B7DD
100
AcDbEntity
  8
204
100
AcDbVertex
100
AcDb2dVertex
 10
481.0248267328979
 20
228.2808010114714
 30
0.0
 42
0.0413368
 70
     1
  0
VERTEX
  5
1B7E2
330
1B7DD
100
AcDbEntity
  8
204
100
AcDbVertex
100
AcDb2dVertex
 10
480.8812902328983
 20
228.2710170114711
 30
0.0
 42
0.037007748
  0
VERTEX
  5
1B7E3
330
1B7DD
100
AcDbEntity
  8
204
100
AcDbVertex
100
AcDb2dVertex
 10
480.7223207328981
 20
228.237737011471
 30
0.0
 42
0.03151647
 70
     1
  0
VERTEX
  5
1B7E4
330
1B7DD
100
AcDbEntity
  8
204
100
AcDbVertex
100
AcDb2dVertex
 10
480.5503567328988
 20
228.1790540114712
 30
0.0
 42
0.030835626
  0
VERTEX
  5
1B7E5
330
1B7DD
100
AcDbEntity
  8
204
100
AcDbVertex
100
AcDb2dVertex
 10
480.3683312328986
 20
228.0909070114713
 30
0.0
 42
0.028389841
 70
     1
  0
VERTEX
  5
1B7E6
330
1B7DD
100
AcDbEntity
  8
204
100
AcDbVertex
100
AcDb2dVertex
 10
480.1799887328988
 20
227.9733215114712
 30
0.0
 42
0.026209107
  0
VERTEX
  5
1B7E7
330
1B7DD
100
AcDbEntity
  8
204
100
AcDbVertex
100
AcDb2dVertex
 10
479.9888397328987
 20
227.8249865114713
 30
0.0
 42
0.023247104
 70
     1
  0
VERTEX
  5
1B7E8
330
1B7DD
100
AcDbEntity
  8
204
100
AcDbVertex
100
AcDb2dVertex
 10
479.7998742328991
 20
227.6501615114713
 30
0.0
 42
0.021044629
  0
VERTEX
  5
1B7E9
330
1B7DD
100
AcDbEntity
  8
204
100
AcDbVertex
100
AcDb2dVertex
 10
479.6183917328991
 20
227.4510755114712
 30
0.0
 42
0.020839486
 70
     1
  0
VERTEX
  5
1B7EA
330
1B7DD
100
AcDbEntity
  8
204
100
AcDbVertex
100
AcDb2dVertex
 10
479.448388732898
 20
227.2295060114712
 30
0.0
 42
0.022220504
  0
VERTEX
  5
1B7EB
330
1B7DD
100
AcDbEntity
  8
204
100
AcDbVertex
100
AcDb2dVertex
 10
479.2947332328977
 20
226.9889610114711
 30
0.0
 42
0.018026833
 70
     1
  0
VERTEX
  5
1B7EC
330
1B7DD
100
AcDbEntity
  8
204
100
AcDbVertex
100
AcDb2dVertex
 10
479.1613267328986
 20
226.7526130114712
 30
0.0
 42
0.010138431
  0
VERTEX
  5
1B7ED
330
1B7DD
100
AcDbEntity
  8
204
100
AcDbVertex
100
AcDb2dVertex
 10
479.0519877328979
 20
226.5323265114712
 30
0.0
 42
0.021718397
 70
     1
  0
VERTEX
  5
1B7EE
330
1B7DD
100
AcDbEntity
  8
204
100
AcDbVertex
100
AcDb2dVertex
 10
478.9605352328972
 20
226.2694215114712
 30
0.0
 42
0.036771336
  0
VERTEX
  5
1B7EF
330
1B7DD
100
AcDbEntity
  8
204
100
AcDbVertex
100
AcDb2dVertex
 10
478.8818867328983
 20
225.9011230114712
 30
0.0
 42
0.022755686
 70
     1
  0
VERTEX
  5
1B7F0
330
1B7DD
100
AcDbEntity
  8
204
100
AcDbVertex
100
AcDb2dVertex
 10
478.8163187328983
 20
225.4398785114709
 30
0.0
 42
0.013905055
  0
SEQEND
  5
1B7F1
330
1B7DD
100
AcDbEntity
  8
204
  0
LINE
  5
1B7F2
330
1F
100
AcDbEntity
  8
204
100
AcDbLine
 10
479.2616012328974
 20
224.455657011471
 30
0.0
 11
480.3222597328978
 21
223.8432875114714
 31
0.0
  0
POLYLINE
  5
1B7F3
330
1F
100
AcDbEntity
  8
204
100
AcDb2dPolyline
 66
     1
 10
0.0
 20
0.0
 30
0.0
 70
     2
  0
VERTEX
  5
1B7F4
330
1B7F3
100
AcDbEntity
  8
204
100
AcDbVertex
100
AcDb2dVertex
 10
479.8769817328984
 20
224.8275045114711
 30
0.0
  0
VERTEX
  5
1B7F5
330
1B7F3
100
AcDbEntity
  8
204
100
AcDbVertex
100
AcDb2dVertex
 10
479.8817507328977
 20
224.6878915114713
 30
0.0
 42
0.021956526
 70
     1
  0
VERTEX
  5
1B7F6
330
1B7F3
100
AcDbEntity
  8
204
100
AcDbVertex
100
AcDb2dVertex
 10
479.8976447328977
 20
224.5509875114713
 30
0.0
 42
0.019266267
  0
VERTEX
  5
1B7F7
330
1B7F3
100
AcDbEntity
  8
204
100
AcDbVertex
100
AcDb2dVertex
 10
479.9245207328977
 20
224.4165655114711
 30
0.0
 42
0.022827231
 70
     1
  0
VERTEX
  5
1B7F8
330
1B7F3
100
AcDbEntity
  8
204
100
AcDbVertex
100
AcDb2dVertex
 10
479.9660687328987
 20
224.286838011471
 30
0.0
 42
0.034430656
  0
VERTEX
  5
1B7F9
330
1B7F3
100
AcDbEntity
  8
204
100
AcDbVertex
100
AcDb2dVertex
 10
480.0251842328972
 20
224.1651170114711
 30
0.0
 42
0.029723397
 70
     1
  0
VERTEX
  5
1B7FA
330
1B7F3
100
AcDbEntity
  8
204
100
AcDbVertex
100
AcDb2dVertex
 10
480.0898372328985
 20
224.0545605114713
 30
0.0
 42
0.0095914738
  0
VERTEX
  5
1B7FB
330
1B7F3
100
AcDbEntity
  8
204
100
AcDbVertex
100
AcDb2dVertex
 10
480.1566642328971
 20
223.9585090114711
 30
0.0
 42
0.049263512
 70
     1
  0
VERTEX
  5
1B7FC
330
1B7F3
100
AcDbEntity
  8
204
100
AcDbVertex
100
AcDb2dVertex
 10
480.2716392328976
 20
223.8754035114713
 30
0.0
 42
0.10049446
  0
VERTEX
  5
1B7FD
330
1B7F3
100
AcDbEntity
  8
204
100
AcDbVertex
100
AcDb2dVertex
 10
480.4841787328978
 20
223.8042815114714
 30
0.0
 42
0.047483658
 70
     1
  0
VERTEX
  5
1B7FE
330
1B7F3
100
AcDbEntity
  8
204
100
AcDbVertex
100
AcDb2dVertex
 10
480.7839842328986
 20
223.7448680114713
 30
0.0
 42
0.022436162
  0
SEQEND
  5
1B7FF
330
1B7F3
100
AcDbEntity
  8
204
  0
POLYLINE
  5
1B800
330
1F
100
AcDbEntity
  8
204
100
AcDb2dPolyline
 66
     1
 10
0.0
 20
0.0
 30
0.0
 70
     2
  0
VERTEX
  5
1B801
330
1B800
100
AcDbEntity
  8
204
100
AcDbVertex
100
AcDb2dVertex
 10
482.7883542328991
 20
227.2165390114711
 30
0.0
  0
VERTEX
  5
1B802
330
1B800
100
AcDbEntity
  8
204
100
AcDbVertex
100
AcDb2dVertex
 10
482.6838232328984
 20
227.3788935114708
 30
0.0
 42
0.041184495
 70
     1
  0
VERTEX
  5
1B803
330
1B800
100
AcDbEntity
  8
204
100
AcDbVertex
100
AcDb2dVertex
 10
482.5638992328978
 20
227.504383011471
 30
0.0
 42
0.055849119
  0
VERTEX
  5
1B804
330
1B800
100
AcDbEntity
  8
204
100
AcDbVertex
100
AcDb2dVertex
 10
482.4269862328974
 20
227.5908730114712
 30
0.0
 42
0.059598227
 70
     1
  0
VERTEX
  5
1B805
330
1B800
100
AcDbEntity
  8
204
100
AcDbVertex
100
AcDb2dVertex
 10
482.2802962328978
 20
227.6440455114713
 30
0.0
 42
0.049804988
  0
VERTEX
  5
1B806
330
1B800
100
AcDbEntity
  8
204
100
AcDbVertex
100
AcDb2dVertex
 10
482.1290922328982
 20
227.6670395114712
 30
0.0
 42
0.04791757
 70
     1
  0
VERTEX
  5
1B807
330
1B800
100
AcDbEntity
  8
204
100
AcDbVertex
100
AcDb2dVertex
 10
481.966536732899
 20
227.6616610114711
 30
0.0
 42
0.043618628
  0
VERTEX
  5
1B808
330
1B800
100
AcDbEntity
  8
204
100
AcDbVertex
100
AcDb2dVertex
 10
481.7842162328989
 20
227.6256770114711
 30
0.0
 42
0.036731021
 70
     1
  0
VERTEX
  5
1B809
330
1B800
100
AcDbEntity
  8
204
100
AcDbVertex
100
AcDb2dVertex
 10
481.5849662328973
 20
227.5556480114711
 30
0.0
 42
0.036056714
  0
VERTEX
  5
1B80A
330
1B800
100
AcDbEntity
  8
204
100
AcDbVertex
100
AcDb2dVertex
 10
481.3727092328981
 20
227.4455650114711
 30
0.0
 42
0.031768401
 70
     1
  0
VERTEX
  5
1B80B
330
1B800
100
AcDbEntity
  8
204
100
AcDbVertex
100
AcDb2dVertex
 10
481.1536637328981
 20
227.2973855114711
 30
0.0
 42
0.027764234
  0
VERTEX
  5
1B80C
330
1B800
100
AcDbEntity
  8
204
100
AcDbVertex
100
AcDb2dVertex
 10
480.9339717328977
 20
227.1106775114713
 30
0.0
 42
0.026289693
 70
     1
  0
VERTEX
  5
1B80D
330
1B800
100
AcDbEntity
  8
204
100
AcDbVertex
100
AcDb2dVertex
 10
480.7207042328983
 20
226.8866865114711
 30
0.0
 42
0.027387301
  0
VERTEX
  5
1B80E
330
1B800
100
AcDbEntity
  8
204
100
AcDbVertex
100
AcDb2dVertex
 10
480.5218652328977
 20
226.6285100114711
 30
0.0
 42
0.021621333
 70
     1
  0
VERTEX
  5
1B80F
330
1B800
100
AcDbEntity
  8
204
100
AcDbVertex
100
AcDb2dVertex
 10
480.345190732899
 20
226.3650540114714
 30
0.0
 42
0.01238562
  0
VERTEX
  5
1B810
330
1B800
100
AcDbEntity
  8
204
100
AcDbVertex
100
AcDb2dVertex
 10
480.1978767328973
 20
226.1118875114711
 30
0.0
 42
0.02511377
 70
     1
  0
VERTEX
  5
1B811
330
1B800
100
AcDbEntity
  8
204
100
AcDbVertex
100
AcDb2dVertex
 10
480.0734662328988
 20
225.8041320114708
 30
0.0
 42
0.041581632
  0
VERTEX
  5
1B812
330
1B800
100
AcDbEntity
  8
204
100
AcDbVertex
100
AcDb2dVertex
 10
479.9664407328991
 20
225.3712665114709
 30
0.0
 42
0.026122158
 70
     1
  0
VERTEX
  5
1B813
330
1B800
100
AcDbEntity
  8
204
100
AcDbVertex
100
AcDb2dVertex
 10
479.8769817328984
 20
224.8275045114711
 30
0.0
 42
0.015877652
  0
SEQEND
  5
1B814
330
1B800
100
AcDbEntity
  8
204
  0
LINE
  5
1B815
330
1F
100
AcDbEntity
  8
204
100
AcDbLine
 10
482.4722607328977
 20
227.5671965114712
 30
0.0
 11
481.4116017328989
 21
228.1795665114715
 31
0.0
  0
POLYLINE
  5
1B816
330
1F
100
AcDbEntity
  8
204
100
AcDb2dPolyline
 66
     1
 10
0.0
 20
0.0
 30
0.0
 70
     2
  0
VERTEX
  5
1B817
330
1B816
100
AcDbEntity
  8
204
100
AcDbVertex
100
AcDb2dVertex
 10
480.0537567328984
 20
224.9295680114711
 30
0.0
  0
VERTEX
  5
1B818
330
1B816
100
AcDbEntity
  8
204
100
AcDbVertex
100
AcDb2dVertex
 10
480.0558892328981
 20
224.8427155114715
 30
0.0
 42
0.014592051
 70
     1
  0
VERTEX
  5
1B819
330
1B816
100
AcDbEntity
  8
204
100
AcDbVertex
100
AcDb2dVertex
 10
480.0626312328978
 20
224.7566790114711
 30
0.0
 42
0.012641384
  0
VERTEX
  5
1B81A
330
1B816
100
AcDbEntity
  8
204
100
AcDbVertex
100
AcDb2dVertex
 10
480.073912732899
 20
224.6715375114709
 30
0.0
 42
0.014822603
 70
     1
  0
VERTEX
  5
1B81B
330
1B816
100
AcDbEntity
  8
204
100
AcDbVertex
100
AcDb2dVertex
 10
480.0913292328978
 20
224.5869425114711
 30
0.0
 42
0.021249072
  0
VERTEX
  5
1B81C
330
1B816
100
AcDbEntity
  8
204
100
AcDbVertex
100
AcDb2dVertex
 10
480.1160652328973
 20
224.5034840114714
 30
0.0
 42
0.017198983
 70
     1
  0
VERTEX
  5
1B81D
330
1B816
100
AcDbEntity
  8
204
100
AcDbVertex
100
AcDb2dVertex
 10
480.142664732898
 20
224.4259325114709
 30
0.0
 42
0.0043827094
  0
VERTEX
  5
1B81E
330
1B816
100
AcDbEntity
  8
204
100
AcDbVertex
100
AcDb2dVertex
 10
480.1696972328983
 20
224.356606511471
 30
0.0
 42
0.028484255
 70
     1
  0
VERTEX
  5
1B81F
330
1B816
100
AcDbEntity
  8
204
100
AcDbVertex
100
AcDb2dVertex
 10
480.2187247328975
 20
224.2800035114711
 30
0.0
 42
0.059366517
  0
VERTEX
  5
1B820
330
1B816
100
AcDbEntity
  8
204
100
AcDbVertex
100
AcDb2dVertex
 10
480.312844232899
 20
224.1800435114711
 30
0.0
 42
0.030723794
 70
     1
  0
VERTEX
  5
1B821
330
1B816
100
AcDbEntity
  8
204
100
AcDbVertex
100
AcDb2dVertex
 10
480.4472592328994
 20
224.0597910114712
 30
0.0
 42
0.015726909
  0
SEQEND
  5
1B822
330
1B816
100
AcDbEntity
  8
204
  0
POLYLINE
  5
1B823
330
1F
100
AcDbEntity
  8
204
100
AcDb2dPolyline
 66
     1
 10
0.0
 20
0.0
 30
0.0
 70
     2
  0
VERTEX
  5
1B824
330
1B823
100
AcDbEntity
  8
204
100
AcDbVertex
100
AcDb2dVertex
 10
482.3472612328979
 20
227.3506890114714
 30
0.0
  0
VERTEX
  5
1B825
330
1B823
100
AcDbEntity
  8
204
100
AcDbVertex
100
AcDb2dVertex
 10
482.2377867328987
 20
227.3995960114708
 30
0.0
 42
0.041386313
 70
     1
  0
VERTEX
  5
1B826
330
1B823
100
AcDbEntity
  8
204
100
AcDbVertex
100
AcDb2dVertex
 10
482.1236897328991
 20
227.4296605114715
 30
0.0
 42
0.041062587
  0
VERTEX
  5
1B827
330
1B823
100
AcDbEntity
  8
204
100
AcDbVertex
100
AcDb2dVertex
 10
482.0054602328991
 20
227.4401505114711
 30
0.0
 42
0.041336176
 70
     1
  0
VERTEX
  5
1B828
330
1B823
100
AcDbEntity
  8
204
100
AcDbVertex
100
AcDb2dVertex
 10
481.8786142328981
 20
227.4315045114709
 30
0.0
 42
0.037007702
  0
VERTEX
  5
1B829
330
1B823
100
AcDbEntity
  8
204
100
AcDbVertex
100
AcDb2dVertex
 10
481.7381297328984
 20
227.4020945114708
 30
0.0
 42
0.031516606
 70
     1
  0
VERTEX
  5
1B82A
330
1B823
100
AcDbEntity
  8
204
100
AcDbVertex
100
AcDb2dVertex
 10
481.5861617328984
 20
227.3502350114714
 30
0.0
 42
0.030835642
  0
VERTEX
  5
1B82B
330
1B823
100
AcDbEntity
  8
204
100
AcDbVertex
100
AcDb2dVertex
 10
481.4253017328984
 20
227.2723375114711
 30
0.0
 42
0.028389828
 70
     1
  0
VERTEX
  5
1B82C
330
1B823
100
AcDbEntity
  8
204
100
AcDbVertex
100
AcDb2dVertex
 10
481.2588597328987
 20
227.1684245114712
 30
0.0
 42
0.026209117
  0
VERTEX
  5
1B82D
330
1B823
100
AcDbEntity
  8
204
100
AcDbVertex
100
AcDb2dVertex
 10
481.0899372328978
 20
227.0373380114711
 30
0.0
 42
0.023247119
 70
     1
  0
VERTEX
  5
1B82E
330
1B823
100
AcDbEntity
  8
204
100
AcDbVertex
100
AcDb2dVertex
 10
480.9229447328972
 20
226.8828415114713
 30
0.0
 42
0.021044637
  0
VERTEX
  5
1B82F
330
1B823
100
AcDbEntity
  8
204
100
AcDbVertex
100
AcDb2dVertex
 10
480.7625647328977
 20
226.7069050114711
 30
0.0
 42
0.020839492
 70
     1
  0
VERTEX
  5
1B830
330
1B823
100
AcDbEntity
  8
204
100
AcDbVertex
100
AcDb2dVertex
 10
480.6123297328987
 20
226.5110995114711
 30
0.0
 42
0.02222051
  0
VERTEX
  5
1B831
330
1B823
100
AcDbEntity
  8
204
100
AcDbVertex
100
AcDb2dVertex
 10
480.4765412328988
 20
226.298524511471
 30
0.0
 42
0.018026837
 70
     1
  0
VERTEX
  5
1B832
330
1B823
100
AcDbEntity
  8
204
100
AcDbVertex
100
AcDb2dVertex
 10
480.358647232898
 20
226.0896590114708
 30
0.0
 42
0.010138432
  0
VERTEX
  5
1B833
330
1B823
100
AcDbEntity
  8
204
100
AcDbVertex
100
AcDb2dVertex
 10
480.2620222328979
 20
225.8949870114712
 30
0.0
 42
0.0217184
 70
     1
  0
VERTEX
  5
1B834
330
1B823
100
AcDbEntity
  8
204
100
AcDbVertex
100
AcDb2dVertex
 10
480.1812037328992
 20
225.6626520114711
 30
0.0
 42
0.036771337
  0
VERTEX
  5
1B835
330
1B823
100
AcDbEntity
  8
204
100
AcDbVertex
100
AcDb2dVertex
 10
480.1117002328983
 20
225.3371790114712
 30
0.0
 42
0.022755684
 70
     1
  0
VERTEX
  5
1B836
330
1B823
100
AcDbEntity
  8
204
100
AcDbVertex
100
AcDb2dVertex
 10
480.0537567328984
 20
224.9295680114711
 30
0.0
 42
0.013905053
  0
SEQEND
  5
1B837
330
1B823
100
AcDbEntity
  8
204
  0
LINE
  5
1B838
330
1F
100
AcDbEntity
  8
204
100
AcDbLine
 10
480.4472592328994
 20
224.0597910114712
 30
0.0
 11
480.7219627328986
 21
223.901192511471
 31
0.0
  0
LINE
  5
1B839
330
1F
100
AcDbEntity
  8
204
100
AcDbLine
 10
482.6219627328984
 20
227.1920890114712
 30
0.0
 11
482.3472612328979
 21
227.3506890114714
 31
0.0
  0
POLYLINE
  5
1B83A
330
1F
100
AcDbEntity
  8
204
100
AcDb2dPolyline
 66
     1
 10
0.0
 20
0.0
 30
0.0
 70
     2
  0
VERTEX
  5
1B83B
330
1B83A
100
AcDbEntity
  8
204
100
AcDbVertex
100
AcDb2dVertex
 10
480.6547977328984
 20
224.3784335114711
 30
0.0
  0
VERTEX
  5
1B83C
330
1B83A
100
AcDbEntity
  8
204
100
AcDbVertex
100
AcDb2dVertex
 10
480.6572112328987
 20
224.2801530114712
 30
0.0
 42
0.014592027
 70
     1
  0
VERTEX
  5
1B83D
330
1B83A
100
AcDbEntity
  8
204
100
AcDbVertex
100
AcDb2dVertex
 10
480.6648397328983
 20
224.1827955114714
 30
0.0
 42
0.012641367
  0
VERTEX
  5
1B83E
330
1B83A
100
AcDbEntity
  8
204
100
AcDbVertex
100
AcDb2dVertex
 10
480.677605732898
 20
224.0864510114712
 30
0.0
 42
0.014822588
 70
     1
  0
VERTEX
  5
1B83F
330
1B83A
100
AcDbEntity
  8
204
100
AcDbVertex
100
AcDb2dVertex
 10
480.6973142328979
 20
223.9907255114713
 30
0.0
 42
0.02124906
  0
VERTEX
  5
1B840
330
1B83A
100
AcDbEntity
  8
204
100
AcDbVertex
100
AcDb2dVertex
 10
480.7253042328984
 20
223.896285511471
 30
0.0
 42
0.017198983
 70
     1
  0
VERTEX
  5
1B841
330
1B83A
100
AcDbEntity
  8
204
100
AcDbVertex
100
AcDb2dVertex
 10
480.7554037328983
 20
223.8085295114711
 30
0.0
 42
0.0043827106
  0
VERTEX
  5
1B842
330
1B83A
100
AcDbEntity
  8
204
100
AcDbVertex
100
AcDb2dVertex
 10
480.7859932328985
 20
223.7300820114711
 30
0.0
 42
0.02848427
 70
     1
  0
VERTEX
  5
1B843
330
1B83A
100
AcDbEntity
  8
204
100
AcDbVertex
100
AcDb2dVertex
 10
480.8414717328989
 20
223.6433995114713
 30
0.0
 42
0.059366618
  0
VERTEX
  5
1B844
330
1B83A
100
AcDbEntity
  8
204
100
AcDbVertex
100
AcDb2dVertex
 10
480.9479747328978
 20
223.5302870114711
 30
0.0
 42
0.030723874
 70
     1
  0
VERTEX
  5
1B845
330
1B83A
100
AcDbEntity
  8
204
100
AcDbVertex
100
AcDb2dVertex
 10
481.1000762328977
 20
223.3942120114712
 30
0.0
 42
0.015726955
  0
SEQEND
  5
1B846
330
1B83A
100
AcDbEntity
  8
204
  0
POLYLINE
  5
1B847
330
1F
100
AcDbEntity
  8
204
100
AcDb2dPolyline
 66
     1
 10
0.0
 20
0.0
 30
0.0
 70
     2
  0
VERTEX
  5
1B848
330
1B847
100
AcDbEntity
  8
204
100
AcDbVertex
100
AcDb2dVertex
 10
483.2500767328993
 20
227.118121011471
 30
0.0
  0
VERTEX
  5
1B849
330
1B847
100
AcDbEntity
  8
204
100
AcDbVertex
100
AcDb2dVertex
 10
483.1261987328971
 20
227.173464011471
 30
0.0
 42
0.041387369
 70
     1
  0
VERTEX
  5
1B84A
330
1B847
100
AcDbEntity
  8
204
100
AcDbVertex
100
AcDb2dVertex
 10
482.9970897328995
 20
227.2074850114714
 30
0.0
 42
0.041063747
  0
VERTEX
  5
1B84B
330
1B847
100
AcDbEntity
  8
204
100
AcDbVertex
100
AcDb2dVertex
 10
482.8633042328974
 20
227.2193550114713
 30
0.0
 42
0.04133687
 70
     1
  0
VERTEX
  5
1B84C
330
1B847
100
AcDbEntity
  8
204
100
AcDbVertex
100
AcDb2dVertex
 10
482.7197677328978
 20
227.2095715114711
 30
0.0
 42
0.037007707
  0
VERTEX
  5
1B84D
330
1B847
100
AcDbEntity
  8
204
100
AcDbVertex
100
AcDb2dVertex
 10
482.5607987328977
 20
227.1762915114714
 30
0.0
 42
0.031516526
 70
     1
  0
VERTEX
  5
1B84E
330
1B847
100
AcDbEntity
  8
204
100
AcDbVertex
100
AcDb2dVertex
 10
482.3888347328985
 20
227.1176085114714
 30
0.0
 42
0.030835642
  0
VERTEX
  5
1B84F
330
1B847
100
AcDbEntity
  8
204
100
AcDbVertex
100
AcDb2dVertex
 10
482.2068087328981
 20
227.0294615114709
 30
0.0
 42
0.028389833
 70
     1
  0
VERTEX
  5
1B850
330
1B847
100
AcDbEntity
  8
204
100
AcDbVertex
100
AcDb2dVertex
 10
482.0184667328986
 20
226.9118760114712
 30
0.0
 42
0.026209117
  0
VERTEX
  5
1B851
330
1B847
100
AcDbEntity
  8
204
100
AcDbVertex
100
AcDb2dVertex
 10
481.8273177328983
 20
226.7635410114709
 30
0.0
 42
0.023247122
 70
     1
  0
VERTEX
  5
1B852
330
1B847
100
AcDbEntity
  8
204
100
AcDbVertex
100
AcDb2dVertex
 10
481.6383522328971
 20
226.5887160114708
 30
0.0
 42
0.02104464
  0
VERTEX
  5
1B853
330
1B847
100
AcDbEntity
  8
204
100
AcDbVertex
100
AcDb2dVertex
 10
481.4568697328986
 20
226.3896300114712
 30
0.0
 42
0.020839495
 70
     1
  0
VERTEX
  5
1B854
330
1B847
100
AcDbEntity
  8
204
100
AcDbVertex
100
AcDb2dVertex
 10
481.2868672328979
 20
226.1680605114712
 30
0.0
 42
0.022220515
  0
VERTEX
  5
1B855
330
1B847
100
AcDbEntity
  8
204
100
AcDbVertex
100
AcDb2dVertex
 10
481.1332117328993
 20
225.9275155114711
 30
0.0
 42
0.018026842
 70
     1
  0
VERTEX
  5
1B856
330
1B847
100
AcDbEntity
  8
204
100
AcDbVertex
100
AcDb2dVertex
 10
480.9998052328984
 20
225.6911675114712
 30
0.0
 42
0.010138435
  0
VERTEX
  5
1B857
330
1B847
100
AcDbEntity
  8
204
100
AcDbVertex
100
AcDb2dVertex
 10
480.8904662328979
 20
225.470881511471
 30
0.0
 42
0.021718406
 70
     1
  0
VERTEX
  5
1B858
330
1B847
100
AcDbEntity
  8
204
100
AcDbVertex
100
AcDb2dVertex
 10
480.799014232899
 20
225.2079760114712
 30
0.0
 42
0.036771349
  0
VERTEX
  5
1B859
330
1B847
100
AcDbEntity
  8
204
100
AcDbVertex
100
AcDb2dVertex
 10
480.7203652328982
 20
224.8396775114712
 30
0.0
 42
0.022755691
 70
     1
  0
VERTEX
  5
1B85A
330
1B847
100
AcDbEntity
  8
204
100
AcDbVertex
100
AcDb2dVertex
 10
480.6547977328984
 20
224.3784335114711
 30
0.0
 42
0.013905057
  0
SEQEND
  5
1B85B
330
1B847
100
AcDbEntity
  8
204
  0
LINE
  5
1B85C
330
1F
100
AcDbEntity
  8
204
100
AcDbLine
 10
481.1000762328977
 20
223.3942120114712
 30
0.0
 11
486.9464022328984
 21
220.0188375114713
 31
0.0
  0
POLYLINE
  5
1B85D
330
1F
100
AcDbEntity
  8
204
100
AcDb2dPolyline
 66
     1
 10
0.0
 20
0.0
 30
0.0
 70
     2
  0
VERTEX
  5
1B85E
330
1B85D
100
AcDbEntity
  8
204
100
AcDbVertex
100
AcDb2dVertex
 10
486.5011197328978
 20
221.0030590114712
 30
0.0
  0
VERTEX
  5
1B85F
330
1B85D
100
AcDbEntity
  8
204
100
AcDbVertex
100
AcDb2dVertex
 10
486.5062667328993
 20
220.8577945114712
 30
0.0
 42
0.023003444
 70
     1
  0
VERTEX
  5
1B860
330
1B85D
100
AcDbEntity
  8
204
100
AcDbVertex
100
AcDb2dVertex
 10
486.5235447328988
 20
220.7156055114711
 30
0.0
 42
0.020258806
  0
VERTEX
  5
1B861
330
1B85D
100
AcDbEntity
  8
204
100
AcDbVertex
100
AcDb2dVertex
 10
486.5528062328986
 20
220.5762005114712
 30
0.0
 42
0.02401354
 70
     1
  0
VERTEX
  5
1B862
330
1B85D
100
AcDbEntity
  8
204
100
AcDbVertex
100
AcDb2dVertex
 10
486.598008732898
 20
220.442331511471
 30
0.0
 42
0.036409347
  0
VERTEX
  5
1B863
330
1B85D
100
AcDbEntity
  8
204
100
AcDbVertex
100
AcDb2dVertex
 10
486.6622852328973
 20
220.3178450114711
 30
0.0
 42
0.031737497
 70
     1
  0
VERTEX
  5
1B864
330
1B85D
100
AcDbEntity
  8
204
100
AcDbVertex
100
AcDb2dVertex
 10
486.7327677328986
 20
220.2053660114712
 30
0.0
 42
0.010693547
  0
VERTEX
  5
1B865
330
1B85D
100
AcDbEntity
  8
204
100
AcDbVertex
100
AcDb2dVertex
 10
486.8057982328983
 20
220.1083210114712
 30
0.0
 42
0.052346174
 70
     1
  0
VERTEX
  5
1B866
330
1B85D
100
AcDbEntity
  8
204
100
AcDbVertex
100
AcDb2dVertex
 10
486.9301127328973
 20
220.0285305114713
 30
0.0
 42
0.10517086
  0
VERTEX
  5
1B867
330
1B85D
100
AcDbEntity
  8
204
100
AcDbVertex
100
AcDb2dVertex
 10
487.1581342328981
 20
219.9686730114709
 30
0.0
 42
0.048666998
 70
     1
  0
VERTEX
  5
1B868
330
1B85D
100
AcDbEntity
  8
204
100
AcDbVertex
100
AcDb2dVertex
 10
487.4789307328984
 20
219.9276885114715
 30
0.0
 42
0.022715708
  0
SEQEND
  5
1B869
330
1B85D
100
AcDbEntity
  8
204
  0
POLYLINE
  5
1B86A
330
1F
100
AcDbEntity
  8
204
100
AcDb2dPolyline
 66
     1
 10
0.0
 20
0.0
 30
0.0
 70
     2
  0
VERTEX
  5
1B86B
330
1B86A
100
AcDbEntity
  8
204
100
AcDbVertex
100
AcDb2dVertex
 10
489.441605732899
 20
223.3271370114708
 30
0.0
  0
VERTEX
  5
1B86C
330
1B86A
100
AcDbEntity
  8
204
100
AcDbVertex
100
AcDb2dVertex
 10
489.3437302328995
 20
223.505600011471
 30
0.0
 42
0.040590475
 70
     1
  0
VERTEX
  5
1B86D
330
1B86A
100
AcDbEntity
  8
204
100
AcDbVertex
100
AcDb2dVertex
 10
489.2278762328978
 20
223.645475511471
 30
0.0
 42
0.056240447
  0
VERTEX
  5
1B86E
330
1B86A
100
AcDbEntity
  8
204
100
AcDbVertex
100
AcDb2dVertex
 10
489.092132732897
 20
223.7446230114711
 30
0.0
 42
0.060813291
 70
     1
  0
VERTEX
  5
1B86F
330
1B86A
100
AcDbEntity
  8
204
100
AcDbVertex
100
AcDb2dVertex
 10
488.9452362328984
 20
223.8083355114714
 30
0.0
 42
0.051732391
  0
VERTEX
  5
1B870
330
1B86A
100
AcDbEntity
  8
204
100
AcDbVertex
100
AcDb2dVertex
 10
488.7939642328993
 20
223.8394035114712
 30
0.0
 42
0.050561231
 70
     1
  0
VERTEX
  5
1B871
330
1B86A
100
AcDbEntity
  8
204
100
AcDbVertex
100
AcDb2dVertex
 10
488.6318417328976
 20
223.8409655114711
 30
0.0
 42
0.045352131
  0
VERTEX
  5
1B872
330
1B86A
100
AcDbEntity
  8
204
100
AcDbVertex
100
AcDb2dVertex
 10
488.4503872328978
 20
223.8120205114711
 30
0.0
 42
0.038201358
 70
     1
  0
VERTEX
  5
1B873
330
1B86A
100
AcDbEntity
  8
204
100
AcDbVertex
100
AcDb2dVertex
 10
488.2514007328983
 20
223.7488435114711
 30
0.0
 42
0.037564368
  0
VERTEX
  5
1B874
330
1B86A
100
AcDbEntity
  8
204
100
AcDbVertex
100
AcDb2dVertex
 10
488.0377482328977
 20
223.6448045114713
 30
0.0
 42
0.032866073
 70
     1
  0
VERTEX
  5
1B875
330
1B86A
100
AcDbEntity
  8
204
100
AcDbVertex
100
AcDb2dVertex
 10
487.8157752328981
 20
223.5014095114712
 30
0.0
 42
0.028764425
  0
VERTEX
  5
1B876
330
1B86A
100
AcDbEntity
  8
204
100
AcDbVertex
100
AcDb2dVertex
 10
487.5918657328976
 20
223.3177205114712
 30
0.0
 42
0.027152818
 70
     1
  0
VERTEX
  5
1B877
330
1B86A
100
AcDbEntity
  8
204
100
AcDbVertex
100
AcDb2dVertex
 10
487.3734497328978
 20
223.0947400114711
 30
0.0
 42
0.028152077
  0
VERTEX
  5
1B878
330
1B86A
100
AcDbEntity
  8
204
100
AcDbVertex
100
AcDb2dVertex
 10
487.1688662328988
 20
222.8353520114711
 30
0.0
 42
0.022113315
 70
     1
  0
VERTEX
  5
1B879
330
1B86A
100
AcDbEntity
  8
204
100
AcDbVertex
100
AcDb2dVertex
 10
486.986452232898
 20
222.569153011471
 30
0.0
 42
0.012697033
  0
VERTEX
  5
1B87A
330
1B86A
100
AcDbEntity
  8
204
100
AcDbVertex
100
AcDb2dVertex
 10
486.8339507328993
 20
222.3121620114712
 30
0.0
 42
0.025577951
 70
     1
  0
VERTEX
  5
1B87B
330
1B86A
100
AcDbEntity
  8
204
100
AcDbVertex
100
AcDb2dVertex
 10
486.7049587328976
 20
221.998797511471
 30
0.0
 42
0.042206923
  0
VERTEX
  5
1B87C
330
1B86A
100
AcDbEntity
  8
204
100
AcDbVertex
100
AcDb2dVertex
 10
486.5939617328978
 20
221.5576180114713
 30
0.0
 42
0.0265516
 70
     1
  0
VERTEX
  5
1B87D
330
1B86A
100
AcDbEntity
  8
204
100
AcDbVertex
100
AcDb2dVertex
 10
486.5011197328978
 20
221.0030590114712
 30
0.0
 42
0.01611715
  0
SEQEND
  5
1B87E
330
1B86A
100
AcDbEntity
  8
204
  0
LINE
  5
1B87F
330
1F
100
AcDbEntity
  8
204
100
AcDbLine
 10
489.0963987328987
 20
223.7427470114708
 30
0.0
 11
483.2500767328993
 21
227.118121011471
 31
0.0
  0
POLYLINE
  5
1B880
330
1F
100
AcDbEntity
  8
204
100
AcDb2dPolyline
 66
     1
 10
0.0
 20
0.0
 30
0.0
 70
     2
  0
VERTEX
  5
1B881
330
1B880
100
AcDbEntity
  8
204
100
AcDbVertex
100
AcDb2dVertex
 10
489.9602892328977
 20
222.0350685114709
 30
0.0
  0
VERTEX
  5
1B882
330
1B880
100
AcDbEntity
  8
204
100
AcDbVertex
100
AcDb2dVertex
 10
489.9483697328988
 20
222.0680755114709
 30
0.0
 42
0.001267251
 70
     1
  0
VERTEX
  5
1B883
330
1B880
100
AcDbEntity
  8
204
100
AcDbVertex
100
AcDb2dVertex
 10
489.9360192328978
 20
222.1017825114714
 30
0.0
 42
0.001107379
  0
VERTEX
  5
1B884
330
1B880
100
AcDbEntity
  8
204
100
AcDbVertex
100
AcDb2dVertex
 10
489.9232772328987
 20
222.1360775114709
 30
0.0
 42
0.0011483599
 70
     1
  0
VERTEX
  5
1B885
330
1B880
100
AcDbEntity
  8
204
100
AcDbVertex
100
AcDb2dVertex
 10
489.9097682328983
 20
222.1719080114709
 30
0.0
 42
0.0012721059
  0
VERTEX
  5
1B886
330
1B880
100
AcDbEntity
  8
204
100
AcDbVertex
100
AcDb2dVertex
 10
489.8953202328987
 20
222.2096900114712
 30
0.0
 42
0.0009013537
 70
     1
  0
VERTEX
  5
1B887
330
1B880
100
AcDbEntity
  8
204
100
AcDbVertex
100
AcDb2dVertex
 10
489.8814642328972
 20
222.2456735114711
 30
0.0
 42
0.0003032186
  0
VERTEX
  5
1B888
330
1B880
100
AcDbEntity
  8
204
100
AcDbVertex
100
AcDb2dVertex
 10
489.8686932328993
 20
222.278634511471
 30
0.0
 42
0.0011789469
 70
     1
  0
VERTEX
  5
1B889
330
1B880
100
AcDbEntity
  8
204
100
AcDbVertex
100
AcDb2dVertex
 10
489.8510207328973
 20
222.3233335114711
 30
0.0
 42
0.0018034173
  0
VERTEX
  5
1B88A
330
1B880
100
AcDbEntity
  8
204
100
AcDbVertex
100
AcDb2dVertex
 10
489.8221257328978
 20
222.3953295114712
 30
0.0
 42
0.000800176
 70
     1
  0
VERTEX
  5
1B88B
330
1B880
100
AcDbEntity
  8
204
100
AcDbVertex
100
AcDb2dVertex
 10
489.783281732899
 20
222.4914980114709
 30
0.0
 42
0.000407691
  0
SEQEND
  5
1B88C
330
1B880
100
AcDbEntity
  8
204
  0
LINE
  5
1B88D
330
1F
100
AcDbEntity
  8
204
100
AcDbLine
 10
489.783281732899
 20
222.4914980114709
 30
0.0
 11
489.441605732899
 21
223.3271370114708
 31
0.0
  0
POLYLINE
  5
1B88E
330
1F
100
AcDbEntity
  8
204
100
AcDb2dPolyline
 66
     1
 10
0.0
 20
0.0
 30
0.0
 70
     2
  0
VERTEX
  5
1B88F
330
1B88E
100
AcDbEntity
  8
204
100
AcDbVertex
100
AcDb2dVertex
 10
486.8140157328991
 20
220.5451665114711
 30
0.0
  0
VERTEX
  5
1B890
330
1B88E
100
AcDbEntity
  8
204
100
AcDbVertex
100
AcDb2dVertex
 10
486.7977282328984
 20
220.6086415114711
 30
0.0
 42
-0.013352471
 70
     1
  0
VERTEX
  5
1B891
330
1B88E
100
AcDbEntity
  8
204
100
AcDbVertex
100
AcDb2dVertex
 10
486.7842297328981
 20
220.6744720114712
 30
0.0
 42
-0.011558888
  0
VERTEX
  5
1B892
330
1B88E
100
AcDbEntity
  8
204
100
AcDbVertex
100
AcDb2dVertex
 10
486.7735772328988
 20
220.742526011471
 30
0.0
 42
-0.011955513
 70
     1
  0
VERTEX
  5
1B893
330
1B88E
100
AcDbEntity
  8
204
100
AcDbVertex
100
AcDb2dVertex
 10
486.7660517328977
 20
220.8142890114714
 30
0.0
 42
-0.013598624
  0
VERTEX
  5
1B894
330
1B88E
100
AcDbEntity
  8
204
100
AcDbVertex
100
AcDb2dVertex
 10
486.7619682328977
 20
220.8902480114712
 30
0.0
 42
-0.0098806109
 70
     1
  0
VERTEX
  5
1B895
330
1B88E
100
AcDbEntity
  8
204
100
AcDbVertex
100
AcDb2dVertex
 10
486.7599402328989
 20
220.9630185114711
 30
0.0
 42
-0.0035145384
  0
VERTEX
  5
1B896
330
1B88E
100
AcDbEntity
  8
204
100
AcDbVertex
100
AcDb2dVertex
 10
486.7596547328986
 20
221.0300110114713
 30
0.0
 42
-0.012955824
 70
     1
  0
VERTEX
  5
1B897
330
1B88E
100
AcDbEntity
  8
204
100
AcDbVertex
100
AcDb2dVertex
 10
486.7660517328977
 20
221.1188055114708
 30
0.0
 42
-0.020462205
  0
VERTEX
  5
1B898
330
1B88E
100
AcDbEntity
  8
204
100
AcDbVertex
100
AcDb2dVertex
 10
486.7845652328971
 20
221.2585210114712
 30
0.0
 42
-0.0094493741
 70
     1
  0
VERTEX
  5
1B899
330
1B88E
100
AcDbEntity
  8
204
100
AcDbVertex
100
AcDb2dVertex
 10
486.8140157328991
 20
221.4433135114715
 30
0.0
 42
-0.0048664992
  0
SEQEND
  5
1B89A
330
1B88E
100
AcDbEntity
  8
204
  0
POLYLINE
  5
1B89B
330
1F
100
AcDbEntity
  8
204
100
AcDb2dPolyline
 66
     1
 10
0.0
 20
0.0
 30
0.0
 70
     2
  0
VERTEX
  5
1B89C
330
1B89B
100
AcDbEntity
  8
204
100
AcDbVertex
100
AcDb2dVertex
 10
486.8140157328991
 20
221.4433135114715
 30
0.0
  0
VERTEX
  5
1B89D
330
1B89B
100
AcDbEntity
  8
204
100
AcDbVertex
100
AcDb2dVertex
 10
487.0017722328984
 20
221.4163320114713
 30
0.0
 42
0.0002737646
 70
     1
  0
VERTEX
  5
1B89E
330
1B89B
100
AcDbEntity
  8
204
100
AcDbVertex
100
AcDb2dVertex
 10
487.1797542328978
 20
221.3909515114711
 30
0.0
 42
0.0002761293
  0
VERTEX
  5
1B89F
330
1B89B
100
AcDbEntity
  8
204
100
AcDbVertex
100
AcDb2dVertex
 10
487.3470912328984
 20
221.3672975114715
 30
0.0
 42
0.0003386293
 70
     1
  0
VERTEX
  5
1B8A0
330
1B89B
100
AcDbEntity
  8
204
100
AcDbVertex
100
AcDb2dVertex
 10
487.5073807328981
 20
221.3448960114711
 30
0.0
 42
0.0004531383
  0
VERTEX
  5
1B8A1
330
1B89B
100
AcDbEntity
  8
204
100
AcDbVertex
100
AcDb2dVertex
 10
487.6620462328984
 20
221.3235680114713
 30
0.0
 42
0.000381051
 70
     1
  0
VERTEX
  5
1B8A2
330
1B89B
100
AcDbEntity
  8
204
100
AcDbVertex
100
AcDb2dVertex
 10
487.8023692328979
 20
221.304361011471
 30
0.0
 42
0.0001252832
  0
VERTEX
  5
1B8A3
330
1B89B
100
AcDbEntity
  8
204
100
AcDbVertex
100
AcDb2dVertex
 10
487.9252177328991
 20
221.2876685114712
 30
0.0
 42
0.0006157692
 70
     1
  0
VERTEX
  5
1B8A4
330
1B89B
100
AcDbEntity
  8
204
100
AcDbVertex
100
AcDb2dVertex
 10
488.0691592328977
 20
221.2687340114708
 30
0.0
 42
0.0013036596
  0
VERTEX
  5
1B8A5
330
1B89B
100
AcDbEntity
  8
204
100
AcDbVertex
100
AcDb2dVertex
 10
488.273983232898
 20
221.242683011471
 30
0.0
 42
0.000750997
 70
     1
  0
VERTEX
  5
1B8A6
330
1B89B
100
AcDbEntity
  8
204
100
AcDbVertex
100
AcDb2dVertex
 10
488.5320032328992
 20
221.2104455114714
 30
0.0
 42
0.0004308548
  0
SEQEND
  5
1B8A7
330
1B89B
100
AcDbEntity
  8
204
  0
POLYLINE
  5
1B8A8
330
1F
100
AcDbEntity
  8
204
100
AcDb2dPolyline
 66
     1
 10
0.0
 20
0.0
 30
0.0
 70
     2
  0
VERTEX
  5
1B8A9
330
1B8A8
100
AcDbEntity
  8
204
100
AcDbVertex
100
AcDb2dVertex
 10
489.9602892328977
 20
222.0350685114709
 30
0.0
  0
VERTEX
  5
1B8AA
330
1B8A8
100
AcDbEntity
  8
204
100
AcDbVertex
100
AcDb2dVertex
 10
489.9129432328983
 20
222.0950665114711
 30
0.0
 42
0.035061207
 70
     1
  0
VERTEX
  5
1B8AB
330
1B8A8
100
AcDbEntity
  8
204
100
AcDbVertex
100
AcDb2dVertex
 10
489.8608912328992
 20
222.1432495114714
 30
0.0
 42
0.044052301
  0
VERTEX
  5
1B8AC
330
1B8A8
100
AcDbEntity
  8
204
100
AcDbVertex
100
AcDb2dVertex
 10
489.8036252328993
 20
222.1789940114714
 30
0.0
 42
0.045661733
 70
     1
  0
VERTEX
  5
1B8AD
330
1B8A8
100
AcDbEntity
  8
204
100
AcDbVertex
100
AcDb2dVertex
 10
489.7434837328975
 20
222.2037040114711
 30
0.0
 42
0.039851654
  0
VERTEX
  5
1B8AE
330
1B8A8
100
AcDbEntity
  8
204
100
AcDbVertex
100
AcDb2dVertex
 10
489.682290732898
 20
222.218066011471
 30
0.0
 42
0.038596609
 70
     1
  0
VERTEX
  5
1B8AF
330
1B8A8
100
AcDbEntity
  8
204
100
AcDbVertex
100
AcDb2dVertex
 10
489.6183157328987
 20
222.2234135114714
 30
0.0
 42
0.035046016
  0
VERTEX
  5
1B8B0
330
1B8A8
100
AcDbEntity
  8
204
100
AcDbVertex
100
AcDb2dVertex
 10
489.5491272328973
 20
222.2199005114708
 30
0.0
 42
0.031494533
 70
     1
  0
VERTEX
  5
1B8B1
330
1B8A8
100
AcDbEntity
  8
204
100
AcDbVertex
100
AcDb2dVertex
 10
489.4742842328987
 20
222.2066605114711
 30
0.0
 42
0.031412591
  0
VERTEX
  5
1B8B2
330
1B8A8
100
AcDbEntity
  8
204
100
AcDbVertex
100
AcDb2dVertex
 10
489.3935147328985
 20
222.1818785114711
 30
0.0
 42
0.027909658
 70
     1
  0
VERTEX
  5
1B8B3
330
1B8A8
100
AcDbEntity
  8
204
100
AcDbVertex
100
AcDb2dVertex
 10
489.3082427328983
 20
222.1457650114708
 30
0.0
 42
0.024638847
  0
VERTEX
  5
1B8B4
330
1B8A8
100
AcDbEntity
  8
204
100
AcDbVertex
100
AcDb2dVertex
 10
489.2195932328987
 20
222.0973545114712
 30
0.0
 42
0.024640346
 70
     1
  0
VERTEX
  5
1B8B5
330
1B8A8
100
AcDbEntity
  8
204
100
AcDbVertex
100
AcDb2dVertex
 10
489.1280607328981
 20
222.0345255114708
 30
0.0
 42
0.026657793
  0
VERTEX
  5
1B8B6
330
1B8A8
100
AcDbEntity
  8
204
100
AcDbVertex
100
AcDb2dVertex
 10
489.0348372328981
 20
221.9560595114709
 30
0.0
 42
0.018975218
 70
     1
  0
VERTEX
  5
1B8B7
330
1B8A8
100
AcDbEntity
  8
204
100
AcDbVertex
100
AcDb2dVertex
 10
488.9462522328987
 20
221.873323511471
 30
0.0
 42
0.0080142164
  0
VERTEX
  5
1B8B8
330
1B8A8
100
AcDbEntity
  8
204
100
AcDbVertex
100
AcDb2dVertex
 10
488.8658787328977
 20
221.7905570114709
 30
0.0
 42
0.023627308
 70
     1
  0
VERTEX
  5
1B8B9
330
1B8A8
100
AcDbEntity
  8
204
100
AcDbVertex
100
AcDb2dVertex
 10
488.7778592328987
 20
221.670961511471
 30
0.0
 42
0.037440111
  0
VERTEX
  5
1B8BA
330
1B8A8
100
AcDbEntity
  8
204
100
AcDbVertex
100
AcDb2dVertex
 10
488.6655067328985
 20
221.4748555114712
 30
0.0
 42
0.018733123
 70
     1
  0
VERTEX
  5
1B8BB
330
1B8A8
100
AcDbEntity
  8
204
100
AcDbVertex
100
AcDb2dVertex
 10
488.5320032328992
 20
221.2104455114714
 30
0.0
 42
0.0097913248
  0
SEQEND
  5
1B8BC
330
1B8A8
100
AcDbEntity
  8
204
  0
POLYLINE
  5
1B8BD
330
1F
100
AcDbEntity
  8
204
100
AcDb2dPolyline
 66
     1
 10
0.0
 20
0.0
 30
0.0
 70
     2
  0
VERTEX
  5
1B8BE
330
1B8BD
100
AcDbEntity
  8
204
100
AcDbVertex
100
AcDb2dVertex
 10
489.6691647328981
 20
221.8669875114711
 30
0.0
  0
VERTEX
  5
1B8BF
330
1B8BD
100
AcDbEntity
  8
204
100
AcDbVertex
100
AcDb2dVertex
 10
489.7008337328981
 20
221.7919425114711
 30
0.0
 42
-0.0007188511
 70
     1
  0
VERTEX
  5
1B8C0
330
1B8BD
100
AcDbEntity
  8
204
100
AcDbVertex
100
AcDb2dVertex
 10
489.7309842328986
 20
221.7199325114712
 30
0.0
 42
-0.0007074598
  0
VERTEX
  5
1B8C1
330
1B8BD
100
AcDbEntity
  8
204
100
AcDbVertex
100
AcDb2dVertex
 10
489.7594837328971
 20
221.6512695114712
 30
0.0
 42
-0.0008485384
 70
     1
  0
VERTEX
  5
1B8C2
330
1B8BD
100
AcDbEntity
  8
204
100
AcDbVertex
100
AcDb2dVertex
 10
489.7868712328992
 20
221.584555011471
 30
0.0
 42
-0.001119089
  0
VERTEX
  5
1B8C3
330
1B8BD
100
AcDbEntity
  8
204
100
AcDbVertex
100
AcDb2dVertex
 10
489.8133212328986
 20
221.5192940114712
 30
0.0
 42
-0.0009250853
 70
     1
  0
VERTEX
  5
1B8C4
330
1B8BD
100
AcDbEntity
  8
204
100
AcDbVertex
100
AcDb2dVertex
 10
489.8373557328986
 20
221.4595770114712
 30
0.0
 42
-0.0003050914
  0
VERTEX
  5
1B8C5
330
1B8BD
100
AcDbEntity
  8
204
100
AcDbVertex
100
AcDb2dVertex
 10
489.8584222328983
 20
221.4068765114713
 30
0.0
 42
-0.0014627328
 70
     1
  0
VERTEX
  5
1B8C6
330
1B8BD
100
AcDbEntity
  8
204
100
AcDbVertex
100
AcDb2dVertex
 10
489.8828697328982
 20
221.3439105114713
 30
0.0
 42
-0.00299392
  0
VERTEX
  5
1B8C7
330
1B8BD
100
AcDbEntity
  8
204
100
AcDbVertex
100
AcDb2dVertex
 10
489.917246232898
 20
221.252763011471
 30
0.0
 42
-0.0016770712
 70
     1
  0
VERTEX
  5
1B8C8
330
1B8BD
100
AcDbEntity
  8
204
100
AcDbVertex
100
AcDb2dVertex
 10
489.9602892328977
 20
221.136921511471
 30
0.0
 42
-0.000946532
  0
SEQEND
  5
1B8C9
330
1B8BD
100
AcDbEntity
  8
204
  0
POLYLINE
  5
1B8CA
330
1F
100
AcDbEntity
  8
204
100
AcDb2dPolyline
 66
     1
 10
0.0
 20
0.0
 30
0.0
 70
     2
  0
VERTEX
  5
1B8CB
330
1B8CA
100
AcDbEntity
  8
204
100
AcDbVertex
100
AcDb2dVertex
 10
488.5320032328992
 20
220.312302511471
 30
0.0
  0
VERTEX
  5
1B8CC
330
1B8CA
100
AcDbEntity
  8
204
100
AcDbVertex
100
AcDb2dVertex
 10
488.5798492328986
 20
220.2504855114713
 30
0.0
 42
0.046102921
 70
     1
  0
VERTEX
  5
1B8CD
330
1B8CA
100
AcDbEntity
  8
204
100
AcDbVertex
100
AcDb2dVertex
 10
488.6367482328979
 20
220.2001485114711
 30
0.0
 42
0.048527227
  0
VERTEX
  5
1B8CE
330
1B8CA
100
AcDbEntity
  8
204
100
AcDbVertex
100
AcDb2dVertex
 10
488.7032322328987
 20
220.1615595114709
 30
0.0
 42
0.048257425
 70
     1
  0
VERTEX
  5
1B8CF
330
1B8CA
100
AcDbEntity
  8
204
100
AcDbVertex
100
AcDb2dVertex
 10
488.7778592328987
 20
220.1356760114714
 30
0.0
 42
0.049290437
  0
VERTEX
  5
1B8D0
330
1B8CA
100
AcDbEntity
  8
204
100
AcDbVertex
100
AcDb2dVertex
 10
488.8595207328974
 20
220.1245695114713
 30
0.0
 42
0.046442199
 70
     1
  0
VERTEX
  5
1B8D1
330
1B8CA
100
AcDbEntity
  8
204
100
AcDbVertex
100
AcDb2dVertex
 10
488.9462522328987
 20
220.127757511471
 30
0.0
 42
0.041048765
  0
VERTEX
  5
1B8D2
330
1B8CA
100
AcDbEntity
  8
204
100
AcDbVertex
100
AcDb2dVertex
 10
489.0364252328973
 20
220.145521011471
 30
0.0
 42
0.035776586
 70
     1
  0
VERTEX
  5
1B8D3
330
1B8CA
100
AcDbEntity
  8
204
100
AcDbVertex
100
AcDb2dVertex
 10
489.1280607328981
 20
220.1764900114714
 30
0.0
 42
0.031256818
  0
VERTEX
  5
1B8D4
330
1B8CA
100
AcDbEntity
  8
204
100
AcDbVertex
100
AcDb2dVertex
 10
489.2192822328971
 20
220.2200175114713
 30
0.0
 42
0.026568195
 70
     1
  0
VERTEX
  5
1B8D5
330
1B8CA
100
AcDbEntity
  8
204
100
AcDbVertex
100
AcDb2dVertex
 10
489.3082427328983
 20
220.273307011471
 30
0.0
 42
0.021754088
  0
VERTEX
  5
1B8D6
330
1B8CA
100
AcDbEntity
  8
204
100
AcDbVertex
100
AcDb2dVertex
 10
489.3932307328988
 20
220.3346585114715
 30
0.0
 42
0.020733837
 70
     1
  0
VERTEX
  5
1B8D7
330
1B8CA
100
AcDbEntity
  8
204
100
AcDbVertex
100
AcDb2dVertex
 10
489.4742842328987
 20
220.404139511471
 30
0.0
 42
0.021485946
  0
VERTEX
  5
1B8D8
330
1B8CA
100
AcDbEntity
  8
204
100
AcDbVertex
100
AcDb2dVertex
 10
489.5506297328984
 20
220.4808495114713
 30
0.0
 42
0.014995513
 70
     1
  0
VERTEX
  5
1B8D9
330
1B8CA
100
AcDbEntity
  8
204
100
AcDbVertex
100
AcDb2dVertex
 10
489.6183157328987
 20
220.553700011471
 30
0.0
 42
0.0024819844
  0
VERTEX
  5
1B8DA
330
1B8CA
100
AcDbEntity
  8
204
100
AcDbVertex
100
AcDb2dVertex
 10
489.6762647328988
 20
220.619099011471
 30
0.0
 42
0.019340052
 70
     1
  0
VERTEX
  5
1B8DB
330
1B8CA
100
AcDbEntity
  8
204
100
AcDbVertex
100
AcDb2dVertex
 10
489.7434837328975
 20
220.7179405114712
 30
0.0
 42
0.034771367
  0
VERTEX
  5
1B8DC
330
1B8CA
100
AcDbEntity
  8
204
100
AcDbVertex
100
AcDb2dVertex
 10
489.8393977328987
 20
220.8934520114709
 30
0.0
 42
0.014543965
 70
     1
  0
VERTEX
  5
1B8DD
330
1B8CA
100
AcDbEntity
  8
204
100
AcDbVertex
100
AcDb2dVertex
 10
489.9602892328977
 20
221.136921511471
 30
0.0
 42
0.0070685898
  0
SEQEND
  5
1B8DE
330
1B8CA
100
AcDbEntity
  8
204
  0
LINE
  5
1B8DF
330
1F
100
AcDbEntity
  8
204
100
AcDbLine
 10
487.4789307328984
 20
219.9276885114715
 30
0.0
 11
488.9559862328979
 21
220.1290025114714
 31
0.0
  0
POLYLINE
  5
1B8E0
330
1F
100
AcDbEntity
  8
204
100
AcDb2dPolyline
 66
     1
 10
0.0
 20
0.0
 30
0.0
 70
     2
  0
VERTEX
  5
1B8E1
330
1B8E0
100
AcDbEntity
  8
204
100
AcDbVertex
100
AcDb2dVertex
 10
488.5320032328992
 20
220.312302511471
 30
0.0
  0
VERTEX
  5
1B8E2
330
1B8E0
100
AcDbEntity
  8
204
100
AcDbVertex
100
AcDb2dVertex
 10
488.4240302328971
 20
220.325394011471
 30
0.0
 42
-0.0008486653
 70
     1
  0
VERTEX
  5
1B8E3
330
1B8E0
100
AcDbEntity
  8
204
100
AcDbVertex
100
AcDb2dVertex
 10
488.3113767328987
 20
220.339401511471
 30
0.0
 42
-0.0007088181
  0
VERTEX
  5
1B8E4
330
1B8E0
100
AcDbEntity
  8
204
100
AcDbVertex
100
AcDb2dVertex
 10
488.1944912328973
 20
220.3542725114713
 30
0.0
 42
-0.0007100436
 70
     1
  0
VERTEX
  5
1B8E5
330
1B8E0
100
AcDbEntity
  8
204
100
AcDbVertex
100
AcDb2dVertex
 10
488.0691592328977
 20
220.3705895114709
 30
0.0
 42
-0.0007497994
  0
VERTEX
  5
1B8E6
330
1B8E0
100
AcDbEntity
  8
204
100
AcDbVertex
100
AcDb2dVertex
 10
487.9332112328985
 20
220.3886590114711
 30
0.0
 42
-0.0004976171
 70
     1
  0
VERTEX
  5
1B8E7
330
1B8E0
100
AcDbEntity
  8
204
100
AcDbVertex
100
AcDb2dVertex
 10
487.8023692328979
 20
220.4062155114712
 30
0.0
 42
-0.0001498167
  0
VERTEX
  5
1B8E8
330
1B8E0
100
AcDbEntity
  8
204
100
AcDbVertex
100
AcDb2dVertex
 10
487.6814052328983
 20
220.4225795114708
 30
0.0
 42
-0.000633387
 70
     1
  0
VERTEX
  5
1B8E9
330
1B8E0
100
AcDbEntity
  8
204
100
AcDbVertex
100
AcDb2dVertex
 10
487.5073807328981
 20
220.4467495114714
 30
0.0
 42
-0.0008896094
  0
VERTEX
  5
1B8EA
330
1B8E0
100
AcDbEntity
  8
204
100
AcDbVertex
100
AcDb2dVertex
 10
487.2137632328986
 20
220.4882575114712
 30
0.0
 42
-0.000360705
 70
     1
  0
VERTEX
  5
1B8EB
330
1B8E0
100
AcDbEntity
  8
204
100
AcDbVertex
100
AcDb2dVertex
 10
486.8140157328991
 20
220.5451665114711
 30
0.0
 42
-0.0001767597
  0
SEQEND
  5
1B8EC
330
1B8E0
100
AcDbEntity
  8
204
  0
LINE
  5
1B8ED
330
1F
100
AcDbEntity
  8
204
100
AcDbLine
 10
488.5320032328992
 20
221.2104455114714
 30
0.0
 11
489.9602892328977
 21
222.0350685114709
 31
0.0
  0
LINE
  5
1B8EE
330
1F
100
AcDbEntity
  8
204
100
AcDbLine
 10
486.8140157328991
 20
220.5451665114711
 30
0.0
 11
488.067623732898
 21
221.268936011471
 31
0.0
  0
LINE
  5
1B8EF
330
1F
100
AcDbEntity
  8
204
100
AcDbLine
 10
489.9602892328977
 20
221.136921511471
 30
0.0
 11
488.5320032328992
 21
220.312302511471
 31
0.0
  0
LINE
  5
1B8F0
330
1F
100
AcDbEntity
  8
CEN
  6
CENTER
 62
     1
 48
3.0
100
AcDbLine
 10
541.0829930417117
 20
265.7786884246581
 30
0.0
 11
518.5092416879201
 21
265.7786884246576
 31
0.0
  0
LINE
  5
1B8F1
330
1F
100
AcDbEntity
  8
DIM
100
AcDbLine
 10
518.8563729353614
 20
266.7786884246581
 30
0.0
 11
523.8563754353604
 21
266.7786884246581
 31
0.0
  0
LINE
  5
1B8F2
330
1F
100
AcDbEntity
  8
DIM
100
AcDbLine
 10
518.8563729353614
 20
264.7786884246581
 30
0.0
 11
523.8563754353604
 21
264.7786884246581
 31
0.0
  0
DIMENSION
  5
1B8F3
330
1F
100
AcDbEntity
  8
DIM
100
AcDbDimension
  2
*D2
 10
515.651970783017
 20
264.2786834246578
 30
0.0
 11
515.651970783017
 21
265.778685924658
 31
0.0
 70
   160
  1
M<>
 71
     5
 42
3.000005000000328
 73
     0
 74
     0
 75
     0
  3
01
100
AcDbAlignedDimension
 13
519.3563704353605
 23
267.2786884246581
 33
0.0
 14
519.3563704353605
 24
264.2786834246578
 34
0.0
 50
90.0
100
AcDbRotatedDimension
1001
ACAD
1000
DSTYLE
1002
{
1070
    40
1040
0.6
1070
   289
1070
     2
1002
}
  0
DIMENSION
  5
1B8F4
330
1F
100
AcDbEntity
  8
DIM
100
AcDbDimension
  2
*D3
 10
540.456370935361
 20
257.249681590336
 30
0.0
 11
528.9897926022502
 21
257.249681590336
 31
0.0
 70
   160
 71
     5
 42
21.59999799999969
 73
     0
 74
     0
 75
     0
  3
01
100
AcDbAlignedDimension
 13
518.8563729353614
 23
264.7786884246581
 33
0.0
 14
540.456370935361
 24
265.2286884246584
 34
0.0
100
AcDbRotatedDimension
1001
ACAD
1000
DSTYLE
1002
{
1070
    40
1040
0.6
1070
   289
1070
     2
1002
}
  0
DIMENSION
  5
1B8F5
330
1F
100
AcDbEntity
  8
DIM
100
AcDbDimension
  2
*D4
 10
546.6991477829505
 20
263.6286834246581
 30
0.0
 11
546.6991477829505
 21
265.473350425412
 31
0.0
 70
   160
  1
%%C<>
 71
     5
 42
4.300005000000055
 73
     0
 74
     0
 75
     0
  3
01
100
AcDbAlignedDimension
 13
538.724322435361
 23
267.9286884246582
 33
0.0
 14
538.724322435361
 24
263.6286834246581
 34
0.0
 50
270.0
100
AcDbRotatedDimension
1001
ACAD
1000
DSTYLE
1002
{
1070
    40
1040
0.6
1070
   289
1070
     2
1002
}
  0
DIMENSION
  5
1B8F6
102
{ACAD_XDICTIONARY
360
1B8F7
102
}
102
{ACAD_REACTORS
330
1B8F8
102
}
330
1F
100
AcDbEntity
  8
DIM
100
AcDbDimension
  2
*D5
 10
543.451155253285
 20
266.3286884246578
 30
0.0
 11
543.451155253285
 21
270.1461884246579
 31
0.0
 70
   160
 71
     5
 42
1.099999999999454
 73
     0
 74
     0
 75
     0
  3
01
100
AcDbAlignedDimension
 13
540.456370935361
 23
265.2286884246584
 33
0.0
 14
540.456370935361
 24
266.3286884246578
 34
0.0
 50
90.0
100
AcDbRotatedDimension
1001
ACAD
1000
DSTYLE
1002
{
1070
    40
1040
0.6
1070
   289
1070
     2
1002
}
  0
DIMENSION
  5
1B8F9
102
{ACAD_XDICTIONARY
360
1B8FA
102
}
102
{ACAD_REACTORS
330
1B8FB
102
}
330
1F
100
AcDbEntity
  8
DIM
100
AcDbDimension
  2
*D6
 10
523.8563754353585
 20
269.4692154713681
 30
0.0
 11
521.3563741853598
 21
270.6992154713681
 31
0.0
 70
    32
 71
     5
 42
5.000002499997208
 73
     0
 74
     0
 75
     0
  3
01
100
AcDbAlignedDimension
 13
518.8563729353614
 23
266.5888110772527
 33
0.0
 14
523.8563754353585
 24
267.2786884246581
 34
0.0
100
AcDbRotatedDimension
1001
ACAD
1000
DSTYLE
1002
{
1070
    40
1040
0.6
1070
   289
1070
     2
1002
}
  0
DIMENSION
  5
1B8FC
102
{ACAD_XDICTIONARY
360
1B8FD
102
}
102
{ACAD_REACTORS
330
1B8FE
102
}
330
1F
100
AcDbEntity
  8
DIM
100
AcDbDimension
  2
*D7
 10
527.8563729353614
 20
260.6605875093407
 30
0.0
 11
523.3563729353614
 21
261.8905875093407
 31
0.0
 70
    32
 71
     5
 42
9.0
 73
     0
 74
     0
 75
     0
  3
01
100
AcDbAlignedDimension
 13
518.8563729353614
 23
263.763438182879
 33
0.0
 14
527.8563729353614
 24
263.628688424658
 34
0.0
100
AcDbRotatedDimension
1001
ACAD
1000
DSTYLE
1002
{
1070
    40
1040
0.6
1070
   289
1070
     2
1002
}
  0
ENDSEC
  0
SECTION
  2
OBJECTS
  0
DICTIONARY
  5
C
330
0
100
AcDbDictionary
281
     1
  3
ACAD_COLOR
350
4FFE
  3
ACAD_GROUP
350
D
  3
ACAD_LAYOUT
350
1A
  3
ACAD_MATERIAL
350
4FE5
  3
ACAD_MLEADERSTYLE
350
5022
  3
ACAD_MLINESTYLE
350
17
  3
ACAD_PLOTSETTINGS
350
19
  3
ACAD_PLOTSTYLENAME
350
E
  3
ACAD_RENDER_PLOT_SETTINGS
350
6537
  3
ACAD_SCALELIST
350
5000
  3
ACAD_TABLESTYLE
350
4FE3
  3
ACAD_VISUALSTYLE
350
2A
  3
ACDB_RECOMPOSE_DATA
350
50EC
  3
AcDbVariableDictionary
350
5108
  3
ASE_INDEX_DICTIONARY
350
1AC53
  3
lxx_dict
350
1BAF2
  0
DICTIONARY
  5
50EE
330
8
100
AcDbDictionary
280
     1
281
     1
  0
DICTIONARY
  5
50B8
330
2
100
AcDbDictionary
280
     1
281
     1
  3
ACAD_LAYERFILTERS
360
1A674
  3
ACAD_LAYERSTATES
360
50B9
  3
ACLYDICTIONARY
360
1A673
  0
DICTIONARY
  5
50D0
330
10
100
AcDbDictionary
280
     1
281
     1
  3
ADSK_XREC_LAYER_RECONCILED
360
50D1
  0
DICTIONARY
  5
50D2
330
3B
100
AcDbDictionary
280
     1
281
     1
  3
ADSK_XREC_LAYER_RECONCILED
360
50D3
  0
DICTIONARY
  5
50AF
330
50AE
100
AcDbDictionary
280
     1
281
     1
  3
ADSK_XREC_LAYER_RECONCILED
360
50D4
  0
DICTIONARY
  5
67C0
330
1F
100
AcDbDictionary
280
     1
281
     1
  3
ACAD_SORTENTS
360
67C1
  0
DICTIONARY
  5
1BB8E
330
10FE8
100
AcDbDictionary
280
     1
281
     1
  0
DICTIONARY
  5
1BBBA
330
1BAF9
100
AcDbDictionary
280
     1
281
     1
  3
ACAD_MTEXT_2008_RT
360
1BBBB
  0
DICTIONARY
  5
1BBBC
330
1BB3D
100
AcDbDictionary
280
     1
281
     1
  3
ACAD_MTEXT_2008_RT
360
1BBBD
  0
DICTIONARY
  5
1BBBE
330
1BB3E
100
AcDbDictionary
280
     1
281
     1
  3
ACAD_MTEXT_2008_RT
360
1BBBF
  0
DICTIONARY
  5
1BBC0
330
1BB63
100
AcDbDictionary
280
     1
281
     1
  3
ACAD_MTEXT_2008_RT
360
1BBC1
  0
DICTIONARY
  5
1BBC2
330
1BB66
100
AcDbDictionary
280
     1
281
     1
  3
ACAD_MTEXT_2008_RT
360
1BBC3
  0
DICTIONARY
  5
1BBC4
330
1BB67
100
AcDbDictionary
280
     1
281
     1
  3
ACAD_MTEXT_2008_RT
360
1BBC5
  0
DICTIONARY
  5
1BBC6
330
1BB71
100
AcDbDictionary
280
     1
281
     1
  3
ACAD_MTEXT_2008_RT
360
1BBC7
  0
DICTIONARY
  5
1BBC8
330
1BB72
100
AcDbDictionary
280
     1
281
     1
  3
ACAD_MTEXT_2008_RT
360
1BBC9
  0
DICTIONARY
  5
1BBCA
330
1BB73
100
AcDbDictionary
280
     1
281
     1
  3
ACAD_MTEXT_2008_RT
360
1BBCB
  0
DICTIONARY
  5
1BBCC
330
1BB81
100
AcDbDictionary
280
     1
281
     1
  3
ACAD_MTEXT_2008_RT
360
1BBCD
  0
DICTIONARY
  5
1BBCE
330
1BB82
100
AcDbDictionary
280
     1
281
     1
  3
ACAD_MTEXT_2008_RT
360
1BBCF
  0
DICTIONARY
  5
1BBD0
330
1BB83
100
AcDbDictionary
280
     1
281
     1
  3
ACAD_MTEXT_2008_RT
360
1BBD1
  0
DICTIONARY
  5
1BBB8
330
1A5D3
100
AcDbDictionary
280
     1
281
     1
  3
ACAD_MTEXT_2008_RT
360
1BBB9
  0
DICTIONARY
  5
1B8F7
330
1B8F6
100
AcDbDictionary
280
     1
281
     1
  3
ACAD_DIMASSOC
360
1B8F8
  0
DICTIONARY
  5
1B8FA
330
1B8F9
100
AcDbDictionary
280
     1
281
     1
  3
ACAD_DIMASSOC
360
1B8FB
  0
DICTIONARY
  5
1B8FD
330
1B8FC
100
AcDbDictionary
280
     1
281
     1
  3
ACAD_DIMASSOC
360
1B8FE
  0
DICTIONARY
  5
4FFE
102
{ACAD_REACTORS
330
C
102
}
330
C
100
AcDbDictionary
281
     1
  0
DICTIONARY
  5
D
102
{ACAD_REACTORS
330
C
102
}
330
C
100
AcDbDictionary
281
     1
  0
DICTIONARY
  5
1A
102
{ACAD_REACTORS
330
C
102
}
330
C
100
AcDbDictionary
281
     1
  3
Layout1
350
1E
  3
Layout2
350
26
  3
Model
350
22
  0
DICTIONARY
  5
4FE5
102
{ACAD_REACTORS
330
C
102
}
330
C
100
AcDbDictionary
281
     1
  3
ByBlock
350
4FEE
  3
ByLayer
350
4FE6
  3
Global
350
4FF6
  0
DICTIONARY
  5
5022
102
{ACAD_REACTORS
330
C
102
}
330
C
100
AcDbDictionary
281
     1
  3
Standard
350
5023
  0
DICTIONARY
  5
17
102
{ACAD_REACTORS
330
C
102
}
330
C
100
AcDbDictionary
281
     1
  3
Standard
350
18
  0
DICTIONARY
  5
19
102
{ACAD_REACTORS
330
C
102
}
330
C
100
AcDbDictionary
281
     1
  0
ACDBDICTIONARYWDFLT
  5
E
102
{ACAD_REACTORS
330
C
102
}
330
C
100
AcDbDictionary
281
     1
  3
Normal
350
F
100
AcDbDictionaryWithDefault
340
F
  0
DICTIONARY
  5
6537
102
{ACAD_REACTORS
330
C
102
}
330
C
100
AcDbDictionary
281
     1
  3
{1DC63513-1B1A-422F-9880-65CFD2B8D533}
350
6538
  0
DICTIONARY
  5
5000
102
{ACAD_REACTORS
330
C
102
}
330
C
100
AcDbDictionary
281
     1
  3
A0
350
5001
  3
A1
350
5002
  3
A2
350
5003
  3
A3
350
5004
  3
A4
350
5005
  3
A5
350
5006
  3
A6
350
5007
  3
A7
350
5008
  3
A8
350
5009
  3
A9
350
500A
  3
B0
350
500B
  3
B1
350
500C
  3
B2
350
500D
  3
B3
350
500E
  3
B4
350
500F
  3
B5
350
5010
  3
B6
350
5011
  3
B7
350
5012
  3
B8
350
5013
  3
B9
350
5014
  3
C0
350
5015
  3
C1
350
5016
  3
C2
350
5017
  3
C3
350
5018
  3
C4
350
5019
  3
C5
350
501A
  3
C6
350
501B
  3
C7
350
501C
  3
C8
350
501D
  3
C9
350
501E
  3
D0
350
501F
  3
D1
350
5020
  3
D2
350
5021
  0
DICTIONARY
  5
4FE3
102
{ACAD_REACTORS
330
C
102
}
330
C
100
AcDbDictionary
281
     1
  3
Standard
350
4FFF
  0
DICTIONARY
  5
2A
102
{ACAD_REACTORS
330
C
102
}
330
C
100
AcDbDictionary
281
     1
  3
2dWireframe
350
2F
  3
3D Hidden
350
31
  3
3dWireframe
350
30
  3
Basic
350
32
  3
Brighten
350
36
  3
ColorChange
350
3A
  3
Conceptual
350
34
  3
Dim
350
35
  3
Facepattern
350
39
  3
Flat
350
2B
  3
FlatWithEdges
350
2C
  3
Gouraud
350
2D
  3
GouraudWithEdges
350
2E
  3
Linepattern
350
38
  3
Realistic
350
33
  3
Thicken
350
37
  0
XRECORD
  5
50EC
102
{ACAD_REACTORS
330
C
102
}
330
C
100
AcDbXrecord
280
     1
 90
        1
330
4FFF
330
1A5D3
330
1BAF9
330
1BB3D
330
1BB3E
330
1BB63
330
1BB66
330
1BB67
330
1BB71
330
1BB72
330
1BB73
330
1BB81
330
1BB82
330
1BB83
  0
DICTIONARY
  5
5108
102
{ACAD_REACTORS
330
C
102
}
330
C
100
AcDbDictionary
281
     1
  3
CANNOSCALE
350
510B
  3
CMLEADERSTYLE
350
510A
  3
CTABLESTYLE
350
5109
  3
DIMASSOC
350
510E
  3
INDEXCTL
350
510D
  3
LIGHTINGUNITS
350
1BB93
  3
MSLTSCALE
350
1BB92
  3
SORTENTS
350
510C
  0
DICTIONARY
  5
1AC53
102
{ACAD_REACTORS
330
C
102
}
330
C
100
AcDbDictionary
281
     1
  3
ASEBlockHierarchyIndexRecord
350
1AC54
1001
DCO15
1040
1903428922.171
  0
DICTIONARY
  5
1BAF2
102
{ACAD_REACTORS
330
C
102
}
330
C
100
AcDbDictionary
281
     1
  3
lxx_dimth
350
1BAF3
  0
DICTIONARY
  5
1A674
102
{ACAD_REACTORS
330
50B8
102
}
330
50B8
100
AcDbDictionary
281
     1
  0
DICTIONARY
  5
50B9
102
{ACAD_REACTORS
330
50B8
102
}
330
50B8
100
AcDbDictionary
281
     1
  0
DICTIONARY
  5
1A673
102
{ACAD_REACTORS
330
50B8
102
}
330
50B8
100
AcDbDictionary
281
     1
1001
ACAD
1000
<All
  0
XRECORD
  5
50D1
102
{ACAD_REACTORS
330
50D0
102
}
330
50D0
100
AcDbXrecord
280
     1
290
     1
  0
XRECORD
  5
50D3
102
{ACAD_REACTORS
330
50D2
102
}
330
50D2
100
AcDbXrecord
280
     1
290
     1
  0
XRECORD
  5
50D4
102
{ACAD_REACTORS
330
50AF
102
}
330
50AF
100
AcDbXrecord
280
     1
290
     1
  0
SORTENTSTABLE
  5
67C1
102
{ACAD_REACTORS
330
67C0
102
}
330
67C0
100
AcDbSortentsTable
330
1F
331
65A0
  5
65A1
331
3895
  5
3943
331
11089
  5
11089
331
2C65
  5
2EE7
331
4842
  5
4E94
331
35D8
  5
3807
331
3807
  5
3895
331
65A3
  5
65A4
331
35C8
  5
35D8
331
65A1
  5
65A2
331
2FDE
  5
35C8
331
65B2
  5
65B3
331
2F93
  5
2FDE
331
2EE7
  5
2F93
331
28AE
  5
2A38
331
3943
  5
4842
331
65A4
  5
65A5
  0
XRECORD
  5
1BBBB
102
{ACAD_REACTORS
330
1BBBA
102
}
330
1BBBA
100
AcDbXrecord
280
     1
 40
1527.0
  1
\pxqc;BQ LUO
  0
XRECORD
  5
1BBBD
102
{ACAD_REACTORS
330
1BBBC
102
}
330
1BBBC
100
AcDbXrecord
280
     1
 40
1262561.0
  1
\pxqc;档案员{\H0.7x;\P\Fromans|c134;Filing Clerk\fFangSong_GB2312|b0|i0|c134|p49; }
  0
XRECORD
  5
1BBBF
102
{ACAD_REACTORS
330
1BBBE
102
}
330
1BBBE
100
AcDbXrecord
280
     1
 40
650528.0
  1
\pxqc;日期{\Fromans|c134;/Date}
  0
XRECORD
  5
1BBC1
102
{ACAD_REACTORS
330
1BBC0
102
}
330
1BBC0
100
AcDbXrecord
280
     1
 40
2318748.0
  1
\pxsm0.7;{\f仿宋_GB2312|b0|i0|c134|p49;标准化}\PStand.
  0
XRECORD
  5
1BBC3
102
{ACAD_REACTORS
330
1BBC2
102
}
330
1BBC2
100
AcDbXrecord
280
     1
 40
118135.0
  1
\pxsm0.7;签名\P{\Fromans|c134;Signature} 
  0
XRECORD
  5
1BBC5
102
{ACAD_REACTORS
330
1BBC4
102
}
330
1BBC4
100
AcDbXrecord
280
     1
 40
108939.0
  1
\pxsm0.7,qc;处数\P{\Fromans|c134;Number }
  0
XRECORD
  5
1BBC7
102
{ACAD_REACTORS
330
1BBC6
102
}
330
1BBC6
100
AcDbXrecord
280
     1
 40
125762.0
  1
\pxsm0.7;标记\P{\Fromans|c134;Mark}
  0
XRECORD
  5
1BBC9
102
{ACAD_REACTORS
330
1BBC8
102
}
330
1BBC8
100
AcDbXrecord
280
     1
 40
111973.0
  1
\pxsm0.7;审核\P{\Fromans|c134;Checked}
  0
XRECORD
  5
1BBCB
102
{ACAD_REACTORS
330
1BBCA
102
}
330
1BBCA
100
AcDbXrecord
280
     1
 40
137968.0
  1
\pxsm0.7;绘图\P{\Fromans|c134;Drawn\Ftxt|c134; }
  0
XRECORD
  5
1BBCD
102
{ACAD_REACTORS
330
1BBCC
102
}
330
1BBCC
100
AcDbXrecord
280
     1
 40
106320.0
  1
\pxsm0.7;批准\P{\Fromans|c134;Approved}
  0
XRECORD
  5
1BBCF
102
{ACAD_REACTORS
330
1BBCE
102
}
330
1BBCE
100
AcDbXrecord
280
     1
 40
127283.0
  1
\pxsm0.7;工艺\P{\Fromans|c134;Process}
  0
XRECORD
  5
1BBD1
102
{ACAD_REACTORS
330
1BBD0
102
}
330
1BBD0
100
AcDbXrecord
280
     1
 40
106220.0
  1
\pxsm0.7;日期\P{\Fromans|c134;Date}
  0
XRECORD
  5
1BBB9
102
{ACAD_REACTORS
330
1BBB8
102
}
330
1BBB8
100
AcDbXrecord
280
     1
 40
8441165.0
  1
\A1;\pxql;技术参数:\P- 材料： 不锈钢\P- 螺纹规格: {\Fromans|c134;M3}\P{\Fromans|c134;\PTechnical specification:\P- Material: steel\P- Thread size: M3}
  0
DIMASSOC
  5
1B8F8
102
{ACAD_REACTORS
330
1B8F7
102
}
330
1B8F7
100
AcDbDimAssoc
330
1B8F6
 90
        3
 70
     0
 71
     0
  1
AcDbOsnapPointRef
 72
    13
331
1B73D
 73
     2
 91
        0
 40
0.0
 10
0.0
 20
0.0
 30
2.000000000000000E+50
 75
     0
  1
AcDbOsnapPointRef
 72
     1
331
1B73E
 73
     2
 91
        0
 40
1.0
 10
0.0
 20
0.0
 30
2.000000000000000E+50
 75
     0
  0
DIMASSOC
  5
1B8FB
102
{ACAD_REACTORS
330
1B8FA
102
}
330
1B8FA
100
AcDbDimAssoc
330
1B8F9
 90
        3
 70
     0
 71
     0
  1
AcDbOsnapPointRef
 72
    10
331
1B738
 73
     2
 91
        0
 40
0.8101226525946001
 10
0.0
 20
0.0
 30
0.0
 75
     0
  1
AcDbOsnapPointRef
 72
    13
331
1B746
 73
     2
 91
        0
 40
0.0
 10
0.0
 20
0.0
 30
2.000000000000000E+50
 75
     0
  0
DIMASSOC
  5
1B8FE
102
{ACAD_REACTORS
330
1B8FD
102
}
330
1B8FD
100
AcDbDimAssoc
330
1B8FC
 90
        2
 70
     0
 71
     0
  1
AcDbOsnapPointRef
 72
    13
331
1B74D
 73
     2
 91
        0
 40
0.0
 10
0.0
 20
0.0
 30
2.000000000000000E+50
 75
     0
  0
LAYOUT
  5
1E
102
{ACAD_REACTORS
330
1A
102
}
330
1A
100
AcDbPlotSettings
  1

  2
none_device
  4

  6

 40
0.0
 41
0.0
 42
0.0
 43
0.0
 44
0.0
 45
0.0
 46
0.0
 47
0.0
 48
0.0
 49
0.0
140
0.0
141
0.0
142
1.0
143
1.0
 70
   688
 72
     0
 73
     0
 74
     5
  7

 75
    16
147
1.0
 76
     0
 77
     2
 78
   300
148
0.0
149
0.0
100
AcDbLayout
  1
Layout1
 70
     1
 71
     1
 10
0.0
 20
0.0
 11
12.0
 21
9.0
 12
0.0
 22
0.0
 32
0.0
 14
1.000000000000000E+20
 24
1.000000000000000E+20
 34
1.000000000000000E+20
 15
-1.000000000000000E+20
 25
-1.000000000000000E+20
 35
-1.000000000000000E+20
146
0.0
 13
0.0
 23
0.0
 33
0.0
 16
1.0
 26
0.0
 36
0.0
 17
0.0
 27
1.0
 37
0.0
 76
     0
330
1B
  0
LAYOUT
  5
26
102
{ACAD_REACTORS
330
1A
102
}
330
1A
100
AcDbPlotSettings
  1

  2
none_device
  4

  6

 40
0.0
 41
0.0
 42
0.0
 43
0.0
 44
0.0
 45
0.0
 46
0.0
 47
0.0
 48
0.0
 49
0.0
140
0.0
141
0.0
142
1.0
143
1.0
 70
   688
 72
     0
 73
     0
 74
     5
  7

 75
    16
147
1.0
 76
     0
 77
     2
 78
   300
148
0.0
149
0.0
100
AcDbLayout
  1
Layout2
 70
     1
 71
     2
 10
0.0
 20
0.0
 11
0.0
 21
0.0
 12
0.0
 22
0.0
 32
0.0
 14
0.0
 24
0.0
 34
0.0
 15
0.0
 25
0.0
 35
0.0
146
0.0
 13
0.0
 23
0.0
 33
0.0
 16
1.0
 26
0.0
 36
0.0
 17
0.0
 27
1.0
 37
0.0
 76
     0
330
23
  0
LAYOUT
  5
22
102
{ACAD_REACTORS
330
1A
102
}
330
1A
100
AcDbPlotSettings
  1

  2
Adobe PDF Converter.pc3
  4
A4
  6

 40
3.174999952316281
 41
3.174999952316281
 42
3.17498779296875
 43
3.175003051757812
 44
297.0318298339844
 45
209.9733276367186
 46
0.0000000000000076
 47
1.630241740247063
 48
246.9897427644609
 49
39.36804549891383
140
544.952097801264
141
244.7492402188181
142
1.0
143
1.025046328645055
 70
  3764
 72
     1
 73
     0
 74
     4
  7
monochrome.ctb
 75
     0
147
0.9755656618192436
 76
     1
 77
     2
 78
   300
148
-246.9897427644609
149
-39.36804549891383
100
AcDbLayout
  1
Model
 70
     1
 71
     0
 10
0.0
 20
0.0
 11
12.0
 21
9.0
 12
0.0
 22
0.0
 32
0.0
 14
1.000000000000000E+20
 24
1.000000000000000E+20
 34
1.000000000000000E+20
 15
-1.000000000000000E+20
 25
-1.000000000000000E+20
 35
-1.000000000000000E+20
146
0.0
 13
0.0
 23
0.0
 33
0.0
 16
1.0
 26
0.0
 36
0.0
 17
0.0
 27
1.0
 37
0.0
 76
     0
330
1F
331
29
1001
ACAD_PSEXT
1000
Adobe PDF Converter.pc3
1000
Adobe PDF Converter
1000
桌面\*.pdf
1000

1070
     0
  0
MATERIAL
  5
4FEE
102
{ACAD_XDICTIONARY
360
4FEF
102
}
102
{ACAD_REACTORS
330
4FE5
102
}
330
4FE5
100
AcDbMaterial
  1
ByBlock
 72
     0
 43
0.0208333333333333
 43
0.0
 43
0.0
 43
0.0
 43
0.0
 43
0.0208333333333333
 43
0.0
 43
0.0
 43
0.0
 43
0.0
 43
1.0
 43
0.0
 43
0.0
 43
0.0
 43
0.0
 43
1.0
 77
     0
 47
0.0208333333333333
 47
0.0
 47
0.0
 47
0.0
 47
0.0
 47
0.0208333333333333
 47
0.0
 47
0.0
 47
0.0
 47
0.0
 47
1.0
 47
0.0
 47
0.0
 47
0.0
 47
0.0
 47
1.0
171
     0
 49
0.0208333333333333
 49
0.0
 49
0.0
 49
0.0
 49
0.0
 49
0.0208333333333333
 49
0.0
 49
0.0
 49
0.0
 49
0.0
 49
1.0
 49
0.0
 49
0.0
 49
0.0
 49
0.0
 49
1.0
175
     0
142
0.0208333333333333
142
0.0
142
0.0
142
0.0
142
0.0
142
0.0208333333333333
142
0.0
142
0.0
142
0.0
142
0.0
142
1.0
142
0.0
142
0.0
142
0.0
142
0.0
142
1.0
179
     0
144
0.0208333333333333
144
0.0
144
0.0
144
0.0
144
0.0
144
0.0208333333333333
144
0.0
144
0.0
144
0.0
144
0.0
144
1.0
144
0.0
144
0.0
144
0.0
144
0.0
144
1.0
147
0.0208333333333333
147
0.0
147
0.0
147
0.0
147
0.0
147
0.0208333333333333
147
0.0
147
0.0
147
0.0
147
0.0
147
1.0
147
0.0
147
0.0
147
0.0
147
0.0
147
1.0
  0
MATERIAL
  5
4FE6
102
{ACAD_XDICTIONARY
360
4FE7
102
}
102
{ACAD_REACTORS
330
4FE5
102
}
330
4FE5
100
AcDbMaterial
  1
ByLayer
 72
     0
 43
0.0208333333333333
 43
0.0
 43
0.0
 43
0.0
 43
0.0
 43
0.0208333333333333
 43
0.0
 43
0.0
 43
0.0
 43
0.0
 43
1.0
 43
0.0
 43
0.0
 43
0.0
 43
0.0
 43
1.0
 77
     0
 47
0.0208333333333333
 47
0.0
 47
0.0
 47
0.0
 47
0.0
 47
0.0208333333333333
 47
0.0
 47
0.0
 47
0.0
 47
0.0
 47
1.0
 47
0.0
 47
0.0
 47
0.0
 47
0.0
 47
1.0
171
     0
 49
0.0208333333333333
 49
0.0
 49
0.0
 49
0.0
 49
0.0
 49
0.0208333333333333
 49
0.0
 49
0.0
 49
0.0
 49
0.0
 49
1.0
 49
0.0
 49
0.0
 49
0.0
 49
0.0
 49
1.0
175
     0
142
0.0208333333333333
142
0.0
142
0.0
142
0.0
142
0.0
142
0.0208333333333333
142
0.0
142
0.0
142
0.0
142
0.0
142
1.0
142
0.0
142
0.0
142
0.0
142
0.0
142
1.0
179
     0
144
0.0208333333333333
144
0.0
144
0.0
144
0.0
144
0.0
144
0.0208333333333333
144
0.0
144
0.0
144
0.0
144
0.0
144
1.0
144
0.0
144
0.0
144
0.0
144
0.0
144
1.0
147
0.0208333333333333
147
0.0
147
0.0
147
0.0
147
0.0
147
0.0208333333333333
147
0.0
147
0.0
147
0.0
147
0.0
147
1.0
147
0.0
147
0.0
147
0.0
147
0.0
147
1.0
  0
MATERIAL
  5
4FF6
102
{ACAD_XDICTIONARY
360
4FF7
102
}
102
{ACAD_REACTORS
330
4FE5
102
}
330
4FE5
100
AcDbMaterial
  1
Global
 72
     0
 43
0.0208333333333333
 43
0.0
 43
0.0
 43
0.0
 43
0.0
 43
0.0208333333333333
 43
0.0
 43
0.0
 43
0.0
 43
0.0
 43
1.0
 43
0.0
 43
0.0
 43
0.0
 43
0.0
 43
1.0
 77
     0
 47
0.0208333333333333
 47
0.0
 47
0.0
 47
0.0
 47
0.0
 47
0.0208333333333333
 47
0.0
 47
0.0
 47
0.0
 47
0.0
 47
1.0
 47
0.0
 47
0.0
 47
0.0
 47
0.0
 47
1.0
171
     0
 49
0.0208333333333333
 49
0.0
 49
0.0
 49
0.0
 49
0.0
 49
0.0208333333333333
 49
0.0
 49
0.0
 49
0.0
 49
0.0
 49
1.0
 49
0.0
 49
0.0
 49
0.0
 49
0.0
 49
1.0
175
     0
142
0.0208333333333333
142
0.0
142
0.0
142
0.0
142
0.0
142
0.0208333333333333
142
0.0
142
0.0
142
0.0
142
0.0
142
1.0
142
0.0
142
0.0
142
0.0
142
0.0
142
1.0
179
     0
144
0.0208333333333333
144
0.0
144
0.0
144
0.0
144
0.0
144
0.0208333333333333
144
0.0
144
0.0
144
0.0
144
0.0
144
1.0
144
0.0
144
0.0
144
0.0
144
0.0
144
1.0
147
0.0208333333333333
147
0.0
147
0.0
147
0.0
147
0.0
147
0.0208333333333333
147
0.0
147
0.0
147
0.0
147
0.0
147
1.0
147
0.0
147
0.0
147
0.0
147
0.0
147
1.0
  0
MLEADERSTYLE
  5
5023
102
{ACAD_REACTORS
330
5022
102
}
330
5022
100
AcDbMLeaderStyle
170
     2
171
     1
172
     0
 90
        2
 40
0.0
 41
0.0
173
     1
 91
-1056964608
340
14
 92
       -2
290
     1
 42
0.09
291
     1
 43
0.36
  3
Standard
 44
0.18
300

342
11
174
     1
178
     6
175
     1
176
     0
 93
-1056964608
 45
0.18
292
     0
297
     0
 46
0.18
 94
-1056964608
 47
1.0
 49
1.0
140
1.0
293
     1
141
0.0
294
     1
177
     0
142
1.0
295
     0
296
     0
143
0.125
1001
ACAD_MLEADERVER
1070
     2
  0
MLINESTYLE
  5
18
102
{ACAD_REACTORS
330
17
102
}
330
17
100
AcDbMlineStyle
  2
STANDARD
 70
     0
  3

 62
   256
 51
90.0
 52
90.0
 71
     2
 49
0.5
 62
   256
  6
BYLAYER
 49
-0.5
 62
   256
  6
BYLAYER
  0
ACDBPLACEHOLDER
  5
F
102
{ACAD_REACTORS
330
E
102
}
330
E
  0
MENTALRAYRENDERSETTINGS
  5
6538
102
{ACAD_REACTORS
330
6537
102
}
330
6537
100
AcDbRenderSettings
 90
        2
  1
中
290
     1
290
     1
290
     1
290
     1
  1

  1
渲染质量好于“低级”。包括纹理过滤并且强制双面处于激活状态。处理中等级反锯齿和 5 反射/折射的光线跟踪深度。
 90
        0
100
AcDbMentalRayRenderSettings
 90
        2
 90
        0
 90
        1
 70
     2
 40
3.0
 40
3.0
 40
0.0500000007450581
 40
0.0500000007450581
 40
0.0500000007450581
 40
0.0500000007450581
 70
     0
290
     0
290
     1
 90
        5
 90
        5
 90
        5
290
     0
 90
      500
290
     0
 40
1.0
 90
    10000
 90
        5
 90
        5
 90
        5
290
     0
 90
      200
290
     0
290
     0
290
     0
 40
0.1
 40
1.0
 40
1500.0
 70
     0
 70
     0
 40
10.0
 70
     0
 70
     0
290
     0
  1

 90
       32
 70
     0
 90
     1048
290
     0
 40
1.0
  0
SCALE
  5
5001
102
{ACAD_REACTORS
330
5000
102
}
330
5000
100
AcDbScale
 70
     0
300
1:1
140
1.0
141
1.0
290
     1
  0
SCALE
  5
5002
102
{ACAD_REACTORS
330
5000
102
}
330
5000
100
AcDbScale
 70
     0
300
1:2
140
1.0
141
2.0
290
     0
  0
SCALE
  5
5003
102
{ACAD_REACTORS
330
5000
102
}
330
5000
100
AcDbScale
 70
     0
300
1:4
140
1.0
141
4.0
290
     0
  0
SCALE
  5
5004
102
{ACAD_REACTORS
330
5000
102
}
330
5000
100
AcDbScale
 70
     0
300
1:5
140
1.0
141
5.0
290
     0
  0
SCALE
  5
5005
102
{ACAD_REACTORS
330
5000
102
}
330
5000
100
AcDbScale
 70
     0
300
1:8
140
1.0
141
8.0
290
     0
  0
SCALE
  5
5006
102
{ACAD_REACTORS
330
5000
102
}
330
5000
100
AcDbScale
 70
     0
300
1:10
140
1.0
141
10.0
290
     0
  0
SCALE
  5
5007
102
{ACAD_REACTORS
330
5000
102
}
330
5000
100
AcDbScale
 70
     0
300
1:16
140
1.0
141
16.0
290
     0
  0
SCALE
  5
5008
102
{ACAD_REACTORS
330
5000
102
}
330
5000
100
AcDbScale
 70
     0
300
1:20
140
1.0
141
20.0
290
     0
  0
SCALE
  5
5009
102
{ACAD_REACTORS
330
5000
102
}
330
5000
100
AcDbScale
 70
     0
300
1:30
140
1.0
141
30.0
290
     0
  0
SCALE
  5
500A
102
{ACAD_REACTORS
330
5000
102
}
330
5000
100
AcDbScale
 70
     0
300
1:40
140
1.0
141
40.0
290
     0
  0
SCALE
  5
500B
102
{ACAD_REACTORS
330
5000
102
}
330
5000
100
AcDbScale
 70
     0
300
1:50
140
1.0
141
50.0
290
     0
  0
SCALE
  5
500C
102
{ACAD_REACTORS
330
5000
102
}
330
5000
100
AcDbScale
 70
     0
300
1:100
140
1.0
141
100.0
290
     0
  0
SCALE
  5
500D
102
{ACAD_REACTORS
330
5000
102
}
330
5000
100
AcDbScale
 70
     0
300
2:1
140
2.0
141
1.0
290
     0
  0
SCALE
  5
500E
102
{ACAD_REACTORS
330
5000
102
}
330
5000
100
AcDbScale
 70
     0
300
4:1
140
4.0
141
1.0
290
     0
  0
SCALE
  5
500F
102
{ACAD_REACTORS
330
5000
102
}
330
5000
100
AcDbScale
 70
     0
300
8:1
140
8.0
141
1.0
290
     0
  0
SCALE
  5
5010
102
{ACAD_REACTORS
330
5000
102
}
330
5000
100
AcDbScale
 70
     0
300
10:1
140
10.0
141
1.0
290
     0
  0
SCALE
  5
5011
102
{ACAD_REACTORS
330
5000
102
}
330
5000
100
AcDbScale
 70
     0
300
100:1
140
100.0
141
1.0
290
     0
  0
SCALE
  5
5012
102
{ACAD_REACTORS
330
5000
102
}
330
5000
100
AcDbScale
 70
     0
300
1/128" = 1'-0"
140
0.0078125
141
12.0
290
     0
  0
SCALE
  5
5013
102
{ACAD_REACTORS
330
5000
102
}
330
5000
100
AcDbScale
 70
     0
300
1/64" = 1'-0"
140
0.015625
141
12.0
290
     0
  0
SCALE
  5
5014
102
{ACAD_REACTORS
330
5000
102
}
330
5000
100
AcDbScale
 70
     0
300
1/32" = 1'-0"
140
0.03125
141
12.0
290
     0
  0
SCALE
  5
5015
102
{ACAD_REACTORS
330
5000
102
}
330
5000
100
AcDbScale
 70
     0
300
1/16" = 1'-0"
140
0.0625
141
12.0
290
     0
  0
SCALE
  5
5016
102
{ACAD_REACTORS
330
5000
102
}
330
5000
100
AcDbScale
 70
     0
300
3/32" = 1'-0"
140
0.09375
141
12.0
290
     0
  0
SCALE
  5
5017
102
{ACAD_REACTORS
330
5000
102
}
330
5000
100
AcDbScale
 70
     0
300
1/8" = 1'-0"
140
0.125
141
12.0
290
     0
  0
SCALE
  5
5018
102
{ACAD_REACTORS
330
5000
102
}
330
5000
100
AcDbScale
 70
     0
300
3/16" = 1'-0"
140
0.1875
141
12.0
290
     0
  0
SCALE
  5
5019
102
{ACAD_REACTORS
330
5000
102
}
330
5000
100
AcDbScale
 70
     0
300
1/4" = 1'-0"
140
0.25
141
12.0
290
     0
  0
SCALE
  5
501A
102
{ACAD_REACTORS
330
5000
102
}
330
5000
100
AcDbScale
 70
     0
300
3/8" = 1'-0"
140
0.375
141
12.0
290
     0
  0
SCALE
  5
501B
102
{ACAD_REACTORS
330
5000
102
}
330
5000
100
AcDbScale
 70
     0
300
1/2" = 1'-0"
140
0.5
141
12.0
290
     0
  0
SCALE
  5
501C
102
{ACAD_REACTORS
330
5000
102
}
330
5000
100
AcDbScale
 70
     0
300
3/4" = 1'-0"
140
0.75
141
12.0
290
     0
  0
SCALE
  5
501D
102
{ACAD_REACTORS
330
5000
102
}
330
5000
100
AcDbScale
 70
     0
300
1" = 1'-0"
140
1.0
141
12.0
290
     0
  0
SCALE
  5
501E
102
{ACAD_REACTORS
330
5000
102
}
330
5000
100
AcDbScale
 70
     0
300
1-1/2" = 1'-0"
140
1.5
141
12.0
290
     0
  0
SCALE
  5
501F
102
{ACAD_REACTORS
330
5000
102
}
330
5000
100
AcDbScale
 70
     0
300
3" = 1'-0"
140
3.0
141
12.0
290
     0
  0
SCALE
  5
5020
102
{ACAD_REACTORS
330
5000
102
}
330
5000
100
AcDbScale
 70
     0
300
6" = 1'-0"
140
6.0
141
12.0
290
     0
  0
SCALE
  5
5021
102
{ACAD_REACTORS
330
5000
102
}
330
5000
100
AcDbScale
 70
     0
300
1'-0" = 1'-0"
140
12.0
141
12.0
290
     0
  0
TABLESTYLE
  5
4FFF
102
{ACAD_XDICTIONARY
360
50D6
102
}
102
{ACAD_REACTORS
330
4FE3
102
}
330
4FE3
100
AcDbTableStyle
  3
Standard
 70
     0
 71
     0
 40
0.06
 41
0.06
280
     0
281
     0
  7
Standard
140
0.18
170
     2
 62
     0
 63
     7
283
     0
 90
      512
 91
        0
  1

274
    -2
284
     1
 64
     0
275
    -2
285
     1
 65
     0
276
    -2
286
     1
 66
     0
277
    -2
287
     1
 67
     0
278
    -2
288
     1
 68
     0
279
    -2
289
     1
 69
     0
  7
Standard
140
0.25
170
     5
 62
     0
 63
     7
283
     0
 90
      512
 91
        0
  1

274
    -2
284
     1
 64
     0
275
    -2
285
     1
 65
     0
276
    -2
286
     1
 66
     0
277
    -2
287
     1
 67
     0
278
    -2
288
     1
 68
     0
279
    -2
289
     1
 69
     0
  7
Standard
140
0.18
170
     5
 62
     0
 63
     7
283
     0
 90
      512
 91
        0
  1

274
    -2
284
     1
 64
     0
275
    -2
285
     1
 65
     0
276
    -2
286
     1
 66
     0
277
    -2
287
     1
 67
     0
278
    -2
288
     1
 68
     0
279
    -2
289
     1
 69
     0
  0
VISUALSTYLE
  5
2F
102
{ACAD_REACTORS
330
2A
102
}
330
2A
100
AcDbVisualStyle
  2
2dWireframe
 70
     4
 71
     0
 72
     2
 73
     0
 90
        0
 40
-0.6
 41
-30.0
 62
     5
 63
     7
 74
     1
 91
        4
 64
     7
 65
   257
 75
     1
175
     1
 42
1.0
 92
        0
 66
   257
 43
1.0
 76
     1
 77
     6
 78
     2
 67
     7
 79
     5
170
     0
171
     0
290
     0
174
     0
 93
        1
 44
0.0
173
     0
291
     0
 45
0.0
1001
ACAD
1000
AcDbSavedByObjectVersion
1070
     0
1000
AcDbSavedByObjectVersion
1070
     0
1000
AcDbSavedByObjectVersion
1070
     0
1000
AcDbSavedByObjectVersion
1070
     0
1000
AcDbSavedByObjectVersion
1070
     0
1000
AcDbSavedByObjectVersion
1070
     0
1000
AcDbSavedByObjectVersion
1070
     0
1000
AcDbSavedByObjectVersion
1070
     0
1000
AcDbSavedByObjectVersion
1070
     0
1000
AcDbSavedByObjectVersion
1070
     0
1000
AcDbSavedByObjectVersion
1070
     0
1000
AcDbSavedByObjectVersion
1070
     0
1000
AcDbSavedByObjectVersion
1070
     0
1000
AcDbSavedByObjectVersion
1070
     0
1000
AcDbSavedByObjectVersion
1070
     0
1000
AcDbSavedByObjectVersion
1070
     0
1000
AcDbSavedByObjectVersion
1070
     0
1000
AcDbSavedByObjectVersion
1070
     0
1000
AcDbSavedByObjectVersion
1070
     0
1000
AcDbSavedByObjectVersion
1070
     0
1000
AcDbSavedByObjectVersion
1070
     0
1000
AcDbSavedByObjectVersion
1070
     0
1000
AcDbSavedByObjectVersion
1070
     0
1000
AcDbSavedByObjectVersion
1070
     0
1000
AcDbSavedByObjectVersion
1070
     0
1000
AcDbSavedByObjectVersion
1070
     0
1000
AcDbSavedByObjectVersion
1070
     0
1000
AcDbSavedByObjectVersion
1070
     0
1000
AcDbSavedByObjectVersion
1070
     0
1000
AcDbSavedByObjectVersion
1070
     0
1000
AcDbSavedByObjectVersion
1070
     0
1000
AcDbSavedByObjectVersion
1070
     0
1000
AcDbSavedByObjectVersion
1070
     0
1000
AcDbSavedByObjectVersion
1070
     0
1000
AcDbSavedByObjectVersion
1070
     0
1000
AcDbSavedByObjectVersion
1070
     0
1000
AcDbSavedByObjectVersion
1070
     0
1000
AcDbSavedByObjectVersion
1070
     0
1000
AcDbSavedByObjectVersion
1070
     0
1000
AcDbSavedByObjectVersion
1070
     0
1000
AcDbSavedByObjectVersion
1070
     0
1000
AcDbSavedByObjectVersion
1070
     0
1000
AcDbSavedByObjectVersion
1070
     0
1000
AcDbSavedByObjectVersion
1070
     0
  0
VISUALSTYLE
  5
31
102
{ACAD_REACTORS
330
2A
102
}
330
2A
100
AcDbVisualStyle
  2
3D Hidden
 70
     6
 71
     1
 72
     2
 73
     2
 90
        0
 40
-0.6
 41
-30.0
 62
     5
 63
     7
 74
     2
 91
        2
 64
     7
 65
   257
 75
     2
175
     1
 42
40.0
 92
        0
 66
   257
 43
1.0
 76
     1
 77
     6
 78
     2
 67
     7
 79
     3
170
     0
171
     0
290
     0
174
     0
 93
        1
 44
0.0
173
     0
291
     0
 45
0.0
1001
ACAD
1000
AcDbSavedByObjectVersion
1070
     0
1000
AcDbSavedByObjectVersion
1070
     0
1000
AcDbSavedByObjectVersion
1070
     0
1000
AcDbSavedByObjectVersion
1070
     0
1000
AcDbSavedByObjectVersion
1070
     0
1000
AcDbSavedByObjectVersion
1070
     0
1000
AcDbSavedByObjectVersion
1070
     0
1000
AcDbSavedByObjectVersion
1070
     0
1000
AcDbSavedByObjectVersion
1070
     0
1000
AcDbSavedByObjectVersion
1070
     0
1000
AcDbSavedByObjectVersion
1070
     0
1000
AcDbSavedByObjectVersion
1070
     0
1000
AcDbSavedByObjectVersion
1070
     0
1000
AcDbSavedByObjectVersion
1070
     0
1000
AcDbSavedByObjectVersion
1070
     0
1000
AcDbSavedByObjectVersion
1070
     0
1000
AcDbSavedByObjectVersion
1070
     0
1000
AcDbSavedByObjectVersion
1070
     0
1000
AcDbSavedByObjectVersion
1070
     0
1000
AcDbSavedByObjectVersion
1070
     0
1000
AcDbSavedByObjectVersion
1070
     0
1000
AcDbSavedByObjectVersion
1070
     0
1000
AcDbSavedByObjectVersion
1070
     0
1000
AcDbSavedByObjectVersion
1070
     0
1000
AcDbSavedByObjectVersion
1070
     0
1000
AcDbSavedByObjectVersion
1070
     0
1000
AcDbSavedByObjectVersion
1070
     0
1000
AcDbSavedByObjectVersion
1070
     0
1000
AcDbSavedByObjectVersion
1070
     0
1000
AcDbSavedByObjectVersion
1070
     0
1000
AcDbSavedByObjectVersion
1070
     0
1000
AcDbSavedByObjectVersion
1070
     0
1000
AcDbSavedByObjectVersion
1070
     0
1000
AcDbSavedByObjectVersion
1070
     0
1000
AcDbSavedByObjectVersion
1070
     0
1000
AcDbSavedByObjectVersion
1070
     0
1000
AcDbSavedByObjectVersion
1070
     0
1000
AcDbSavedByObjectVersion
1070
     0
1000
AcDbSavedByObjectVersion
1070
     0
1000
AcDbSavedByObjectVersion
1070
     0
1000
AcDbSavedByObjectVersion
1070
     0
1000
AcDbSavedByObjectVersion
1070
     0
1000
AcDbSavedByObjectVersion
1070
     0
1000
AcDbSavedByObjectVersion
1070
     0
  0
VISUALSTYLE
  5
30
102
{ACAD_REACTORS
330
2A
102
}
330
2A
100
AcDbVisualStyle
  2
3dWireframe
 70
     5
 71
     0
 72
     2
 73
     0
 90
        0
 40
-0.6
 41
-30.0
 62
     5
 63
     7
 74
     1
 91
        4
 64
     7
 65
   257
 75
     1
175
     1
 42
1.0
 92
        0
 66
   257
 43
1.0
 76
     1
 77
     6
 78
     2
 67
     7
 79
     5
170
     0
171
     0
290
     0
174
     0
 93
        1
 44
0.0
173
     0
291
     0
 45
0.0
1001
ACAD
1000
AcDbSavedByObjectVersion
1070
     0
1000
AcDbSavedByObjectVersion
1070
     0
1000
AcDbSavedByObjectVersion
1070
     0
1000
AcDbSavedByObjectVersion
1070
     0
1000
AcDbSavedByObjectVersion
1070
     0
1000
AcDbSavedByObjectVersion
1070
     0
1000
AcDbSavedByObjectVersion
1070
     0
1000
AcDbSavedByObjectVersion
1070
     0
1000
AcDbSavedByObjectVersion
1070
     0
1000
AcDbSavedByObjectVersion
1070
     0
1000
AcDbSavedByObjectVersion
1070
     0
1000
AcDbSavedByObjectVersion
1070
     0
1000
AcDbSavedByObjectVersion
1070
     0
1000
AcDbSavedByObjectVersion
1070
     0
1000
AcDbSavedByObjectVersion
1070
     0
1000
AcDbSavedByObjectVersion
1070
     0
1000
AcDbSavedByObjectVersion
1070
     0
1000
AcDbSavedByObjectVersion
1070
     0
1000
AcDbSavedByObjectVersion
1070
     0
1000
AcDbSavedByObjectVersion
1070
     0
1000
AcDbSavedByObjectVersion
1070
     0
1000
AcDbSavedByObjectVersion
1070
     0
1000
AcDbSavedByObjectVersion
1070
     0
1000
AcDbSavedByObjectVersion
1070
     0
1000
AcDbSavedByObjectVersion
1070
     0
1000
AcDbSavedByObjectVersion
1070
     0
1000
AcDbSavedByObjectVersion
1070
     0
1000
AcDbSavedByObjectVersion
1070
     0
1000
AcDbSavedByObjectVersion
1070
     0
1000
AcDbSavedByObjectVersion
1070
     0
1000
AcDbSavedByObjectVersion
1070
     0
1000
AcDbSavedByObjectVersion
1070
     0
1000
AcDbSavedByObjectVersion
1070
     0
1000
AcDbSavedByObjectVersion
1070
     0
1000
AcDbSavedByObjectVersion
1070
     0
1000
AcDbSavedByObjectVersion
1070
     0
1000
AcDbSavedByObjectVersion
1070
     0
1000
AcDbSavedByObjectVersion
1070
     0
1000
AcDbSavedByObjectVersion
1070
     0
1000
AcDbSavedByObjectVersion
1070
     0
1000
AcDbSavedByObjectVersion
1070
     0
1000
AcDbSavedByObjectVersion
1070
     0
1000
AcDbSavedByObjectVersion
1070
     0
1000
AcDbSavedByObjectVersion
1070
     0
  0
VISUALSTYLE
  5
32
102
{ACAD_REACTORS
330
2A
102
}
330
2A
100
AcDbVisualStyle
  2
Basic
 70
     7
 71
     1
 72
     0
 73
     1
 90
        0
 40
-0.6
 41
-30.0
 62
     5
 63
     7
 74
     0
 91
        4
 64
     7
 65
   257
 75
     1
175
     1
 42
1.0
 92
        8
 66
     7
 43
1.0
 76
     1
 77
     6
 78
     2
 67
     7
 79
     5
170
     0
171
     0
290
     0
174
     0
 93
        1
 44
0.0
173
     0
291
     1
 45
0.0
1001
ACAD
1000
AcDbSavedByObjectVersion
1070
     0
1000
AcDbSavedByObjectVersion
1070
     0
1000
AcDbSavedByObjectVersion
1070
     0
1000
AcDbSavedByObjectVersion
1070
     0
1000
AcDbSavedByObjectVersion
1070
     0
1000
AcDbSavedByObjectVersion
1070
     0
1000
AcDbSavedByObjectVersion
1070
     0
1000
AcDbSavedByObjectVersion
1070
     0
1000
AcDbSavedByObjectVersion
1070
     0
1000
AcDbSavedByObjectVersion
1070
     0
1000
AcDbSavedByObjectVersion
1070
     0
1000
AcDbSavedByObjectVersion
1070
     0
1000
AcDbSavedByObjectVersion
1070
     0
1000
AcDbSavedByObjectVersion
1070
     0
1000
AcDbSavedByObjectVersion
1070
     0
1000
AcDbSavedByObjectVersion
1070
     0
1000
AcDbSavedByObjectVersion
1070
     0
1000
AcDbSavedByObjectVersion
1070
     0
1000
AcDbSavedByObjectVersion
1070
     0
1000
AcDbSavedByObjectVersion
1070
     0
1000
AcDbSavedByObjectVersion
1070
     0
1000
AcDbSavedByObjectVersion
1070
     0
1000
AcDbSavedByObjectVersion
1070
     0
1000
AcDbSavedByObjectVersion
1070
     0
1000
AcDbSavedByObjectVersion
1070
     0
1000
AcDbSavedByObjectVersion
1070
     0
1000
AcDbSavedByObjectVersion
1070
     0
1000
AcDbSavedByObjectVersion
1070
     0
1000
AcDbSavedByObjectVersion
1070
     0
1000
AcDbSavedByObjectVersion
1070
     0
1000
AcDbSavedByObjectVersion
1070
     0
1000
AcDbSavedByObjectVersion
1070
     0
1000
AcDbSavedByObjectVersion
1070
     0
1000
AcDbSavedByObjectVersion
1070
     0
1000
AcDbSavedByObjectVersion
1070
     0
1000
AcDbSavedByObjectVersion
1070
     0
1000
AcDbSavedByObjectVersion
1070
     0
1000
AcDbSavedByObjectVersion
1070
     0
1000
AcDbSavedByObjectVersion
1070
     0
1000
AcDbSavedByObjectVersion
1070
     0
1000
AcDbSavedByObjectVersion
1070
     0
1000
AcDbSavedByObjectVersion
1070
     0
1000
AcDbSavedByObjectVersion
1070
     0
1000
AcDbSavedByObjectVersion
1070
     0
  0
VISUALSTYLE
  5
36
102
{ACAD_REACTORS
330
2A
102
}
330
2A
100
AcDbVisualStyle
  2
Brighten
 70
    12
 71
     2
 72
     2
 73
     0
 90
        0
 40
-0.6
 41
-30.0
 62
     5
 63
     7
 74
     1
 91
        4
 64
     7
 65
   257
 75
     1
175
     1
 42
1.0
 92
        8
 66
     7
 43
1.0
 76
     1
 77
     6
 78
     2
 67
     7
 79
     5
170
     0
171
     0
290
     0
174
     0
 93
        1
 44
50.0
173
     0
291
     1
 45
0.0
1001
ACAD
1000
AcDbSavedByObjectVersion
1070
     0
1000
AcDbSavedByObjectVersion
1070
     0
1000
AcDbSavedByObjectVersion
1070
     0
1000
AcDbSavedByObjectVersion
1070
     0
1000
AcDbSavedByObjectVersion
1070
     0
1000
AcDbSavedByObjectVersion
1070
     0
1000
AcDbSavedByObjectVersion
1070
     0
1000
AcDbSavedByObjectVersion
1070
     0
1000
AcDbSavedByObjectVersion
1070
     0
1000
AcDbSavedByObjectVersion
1070
     0
1000
AcDbSavedByObjectVersion
1070
     0
1000
AcDbSavedByObjectVersion
1070
     0
1000
AcDbSavedByObjectVersion
1070
     0
1000
AcDbSavedByObjectVersion
1070
     0
1000
AcDbSavedByObjectVersion
1070
     0
1000
AcDbSavedByObjectVersion
1070
     0
1000
AcDbSavedByObjectVersion
1070
     0
1000
AcDbSavedByObjectVersion
1070
     0
1000
AcDbSavedByObjectVersion
1070
     0
1000
AcDbSavedByObjectVersion
1070
     0
1000
AcDbSavedByObjectVersion
1070
     0
1000
AcDbSavedByObjectVersion
1070
     0
1000
AcDbSavedByObjectVersion
1070
     0
1000
AcDbSavedByObjectVersion
1070
     0
1000
AcDbSavedByObjectVersion
1070
     0
1000
AcDbSavedByObjectVersion
1070
     0
1000
AcDbSavedByObjectVersion
1070
     0
1000
AcDbSavedByObjectVersion
1070
     0
1000
AcDbSavedByObjectVersion
1070
     0
1000
AcDbSavedByObjectVersion
1070
     0
1000
AcDbSavedByObjectVersion
1070
     0
1000
AcDbSavedByObjectVersion
1070
     0
1000
AcDbSavedByObjectVersion
1070
     0
1000
AcDbSavedByObjectVersion
1070
     0
1000
AcDbSavedByObjectVersion
1070
     0
1000
AcDbSavedByObjectVersion
1070
     0
1000
AcDbSavedByObjectVersion
1070
     0
1000
AcDbSavedByObjectVersion
1070
     0
1000
AcDbSavedByObjectVersion
1070
     0
1000
AcDbSavedByObjectVersion
1070
     0
1000
AcDbSavedByObjectVersion
1070
     0
1000
AcDbSavedByObjectVersion
1070
     0
1000
AcDbSavedByObjectVersion
1070
     0
1000
AcDbSavedByObjectVersion
1070
     0
  0
VISUALSTYLE
  5
3A
102
{ACAD_REACTORS
330
2A
102
}
330
2A
100
AcDbVisualStyle
  2
ColorChange
 70
    16
 71
     2
 72
     2
 73
     3
 90
        0
 40
-0.6
 41
-30.0
 62
     5
 63
     8
 74
     1
 91
        4
 64
     7
 65
   257
 75
     1
175
     1
 42
1.0
 92
        8
 66
     8
 43
1.0
 76
     1
 77
     6
 78
     2
 67
     7
 79
     5
170
     0
171
     0
290
     0
174
     0
 93
        1
 44
0.0
173
     0
291
     1
 45
0.0
1001
ACAD
1000
AcDbSavedByObjectVersion
1070
     0
1000
AcDbSavedByObjectVersion
1070
     0
1000
AcDbSavedByObjectVersion
1070
     0
1000
AcDbSavedByObjectVersion
1070
     0
1000
AcDbSavedByObjectVersion
1070
     0
1000
AcDbSavedByObjectVersion
1070
     0
1000
AcDbSavedByObjectVersion
1070
     0
1000
AcDbSavedByObjectVersion
1070
     0
1000
AcDbSavedByObjectVersion
1070
     0
1000
AcDbSavedByObjectVersion
1070
     0
1000
AcDbSavedByObjectVersion
1070
     0
1000
AcDbSavedByObjectVersion
1070
     0
1000
AcDbSavedByObjectVersion
1070
     0
1000
AcDbSavedByObjectVersion
1070
     0
1000
AcDbSavedByObjectVersion
1070
     0
1000
AcDbSavedByObjectVersion
1070
     0
1000
AcDbSavedByObjectVersion
1070
     0
1000
AcDbSavedByObjectVersion
1070
     0
1000
AcDbSavedByObjectVersion
1070
     0
1000
AcDbSavedByObjectVersion
1070
     0
1000
AcDbSavedByObjectVersion
1070
     0
1000
AcDbSavedByObjectVersion
1070
     0
1000
AcDbSavedByObjectVersion
1070
     0
1000
AcDbSavedByObjectVersion
1070
     0
1000
AcDbSavedByObjectVersion
1070
     0
1000
AcDbSavedByObjectVersion
1070
     0
1000
AcDbSavedByObjectVersion
1070
     0
1000
AcDbSavedByObjectVersion
1070
     0
1000
AcDbSavedByObjectVersion
1070
     0
1000
AcDbSavedByObjectVersion
1070
     0
1000
AcDbSavedByObjectVersion
1070
     0
1000
AcDbSavedByObjectVersion
1070
     0
1000
AcDbSavedByObjectVersion
1070
     0
1000
AcDbSavedByObjectVersion
1070
     0
1000
AcDbSavedByObjectVersion
1070
     0
1000
AcDbSavedByObjectVersion
1070
     0
1000
AcDbSavedByObjectVersion
1070
     0
1000
AcDbSavedByObjectVersion
1070
     0
1000
AcDbSavedByObjectVersion
1070
     0
1000
AcDbSavedByObjectVersion
1070
     0
1000
AcDbSavedByObjectVersion
1070
     0
1000
AcDbSavedByObjectVersion
1070
     0
1000
AcDbSavedByObjectVersion
1070
     0
1000
AcDbSavedByObjectVersion
1070
     0
  0
VISUALSTYLE
  5
34
102
{ACAD_REACTORS
330
2A
102
}
330
2A
100
AcDbVisualStyle
  2
Conceptual
 70
     9
 71
     3
 72
     2
 73
     0
 90
        0
 40
-0.6
 41
-30.0
 62
     5
 63
     7
 74
     2
 91
        2
 64
     7
 65
   257
 75
     1
175
     1
 42
40.0
 92
        8
 66
     7
 43
1.0
 76
     1
 77
     6
 78
     2
 67
     7
 79
     3
170
     0
171
     0
290
     0
174
     0
 93
        1
 44
0.0
173
     0
291
     0
 45
0.0
1001
ACAD
1000
AcDbSavedByObjectVersion
1070
     0
1000
AcDbSavedByObjectVersion
1070
     0
1000
AcDbSavedByObjectVersion
1070
     0
1000
AcDbSavedByObjectVersion
1070
     0
1000
AcDbSavedByObjectVersion
1070
     0
1000
AcDbSavedByObjectVersion
1070
     0
1000
AcDbSavedByObjectVersion
1070
     0
1000
AcDbSavedByObjectVersion
1070
     0
1000
AcDbSavedByObjectVersion
1070
     0
1000
AcDbSavedByObjectVersion
1070
     0
1000
AcDbSavedByObjectVersion
1070
     0
1000
AcDbSavedByObjectVersion
1070
     0
1000
AcDbSavedByObjectVersion
1070
     0
1000
AcDbSavedByObjectVersion
1070
     0
1000
AcDbSavedByObjectVersion
1070
     0
1000
AcDbSavedByObjectVersion
1070
     0
1000
AcDbSavedByObjectVersion
1070
     0
1000
AcDbSavedByObjectVersion
1070
     0
1000
AcDbSavedByObjectVersion
1070
     0
1000
AcDbSavedByObjectVersion
1070
     0
1000
AcDbSavedByObjectVersion
1070
     0
1000
AcDbSavedByObjectVersion
1070
     0
1000
AcDbSavedByObjectVersion
1070
     0
1000
AcDbSavedByObjectVersion
1070
     0
1000
AcDbSavedByObjectVersion
1070
     0
1000
AcDbSavedByObjectVersion
1070
     0
1000
AcDbSavedByObjectVersion
1070
     0
1000
AcDbSavedByObjectVersion
1070
     0
1000
AcDbSavedByObjectVersion
1070
     0
1000
AcDbSavedByObjectVersion
1070
     0
1000
AcDbSavedByObjectVersion
1070
     0
1000
AcDbSavedByObjectVersion
1070
     0
1000
AcDbSavedByObjectVersion
1070
     0
1000
AcDbSavedByObjectVersion
1070
     0
1000
AcDbSavedByObjectVersion
1070
     0
1000
AcDbSavedByObjectVersion
1070
     0
1000
AcDbSavedByObjectVersion
1070
     0
1000
AcDbSavedByObjectVersion
1070
     0
1000
AcDbSavedByObjectVersion
1070
     0
1000
AcDbSavedByObjectVersion
1070
     0
1000
AcDbSavedByObjectVersion
1070
     0
1000
AcDbSavedByObjectVersion
1070
     0
1000
AcDbSavedByObjectVersion
1070
     0
1000
AcDbSavedByObjectVersion
1070
     0
  0
VISUALSTYLE
  5
35
102
{ACAD_REACTORS
330
2A
102
}
330
2A
100
AcDbVisualStyle
  2
Dim
 70
    11
 71
     2
 72
     2
 73
     0
 90
        0
 40
-0.6
 41
-30.0
 62
     5
 63
     7
 74
     1
 91
        4
 64
     7
 65
   257
 75
     1
175
     1
 42
1.0
 92
        8
 66
     7
 43
1.0
 76
     1
 77
     6
 78
     2
 67
     7
 79
     5
170
     0
171
     0
290
     0
174
     0
 93
        1
 44
-50.0
173
     0
291
     1
 45
0.0
1001
ACAD
1000
AcDbSavedByObjectVersion
1070
     0
1000
AcDbSavedByObjectVersion
1070
     0
1000
AcDbSavedByObjectVersion
1070
     0
1000
AcDbSavedByObjectVersion
1070
     0
1000
AcDbSavedByObjectVersion
1070
     0
1000
AcDbSavedByObjectVersion
1070
     0
1000
AcDbSavedByObjectVersion
1070
     0
1000
AcDbSavedByObjectVersion
1070
     0
1000
AcDbSavedByObjectVersion
1070
     0
1000
AcDbSavedByObjectVersion
1070
     0
1000
AcDbSavedByObjectVersion
1070
     0
1000
AcDbSavedByObjectVersion
1070
     0
1000
AcDbSavedByObjectVersion
1070
     0
1000
AcDbSavedByObjectVersion
1070
     0
1000
AcDbSavedByObjectVersion
1070
     0
1000
AcDbSavedByObjectVersion
1070
     0
1000
AcDbSavedByObjectVersion
1070
     0
1000
AcDbSavedByObjectVersion
1070
     0
1000
AcDbSavedByObjectVersion
1070
     0
1000
AcDbSavedByObjectVersion
1070
     0
1000
AcDbSavedByObjectVersion
1070
     0
1000
AcDbSavedByObjectVersion
1070
     0
1000
AcDbSavedByObjectVersion
1070
     0
1000
AcDbSavedByObjectVersion
1070
     0
1000
AcDbSavedByObjectVersion
1070
     0
1000
AcDbSavedByObjectVersion
1070
     0
1000
AcDbSavedByObjectVersion
1070
     0
1000
AcDbSavedByObjectVersion
1070
     0
1000
AcDbSavedByObjectVersion
1070
     0
1000
AcDbSavedByObjectVersion
1070
     0
1000
AcDbSavedByObjectVersion
1070
     0
1000
AcDbSavedByObjectVersion
1070
     0
1000
AcDbSavedByObjectVersion
1070
     0
1000
AcDbSavedByObjectVersion
1070
     0
1000
AcDbSavedByObjectVersion
1070
     0
1000
AcDbSavedByObjectVersion
1070
     0
1000
AcDbSavedByObjectVersion
1070
     0
1000
AcDbSavedByObjectVersion
1070
     0
1000
AcDbSavedByObjectVersion
1070
     0
1000
AcDbSavedByObjectVersion
1070
     0
1000
AcDbSavedByObjectVersion
1070
     0
1000
AcDbSavedByObjectVersion
1070
     0
1000
AcDbSavedByObjectVersion
1070
     0
1000
AcDbSavedByObjectVersion
1070
     0
  0
VISUALSTYLE
  5
39
102
{ACAD_REACTORS
330
2A
102
}
330
2A
100
AcDbVisualStyle
  2
Facepattern
 70
    15
 71
     2
 72
     2
 73
     0
 90
        0
 40
-0.6
 41
-30.0
 62
     5
 63
     7
 74
     1
 91
        4
 64
     7
 65
   257
 75
     1
175
     1
 42
1.0
 92
        8
 66
     7
 43
1.0
 76
     1
 77
     6
 78
     2
 67
     7
 79
     5
170
     0
171
     0
290
     0
174
     0
 93
        1
 44
0.0
173
     0
291
     1
 45
0.0
1001
ACAD
1000
AcDbSavedByObjectVersion
1070
     0
1000
AcDbSavedByObjectVersion
1070
     0
1000
AcDbSavedByObjectVersion
1070
     0
1000
AcDbSavedByObjectVersion
1070
     0
1000
AcDbSavedByObjectVersion
1070
     0
1000
AcDbSavedByObjectVersion
1070
     0
1000
AcDbSavedByObjectVersion
1070
     0
1000
AcDbSavedByObjectVersion
1070
     0
1000
AcDbSavedByObjectVersion
1070
     0
1000
AcDbSavedByObjectVersion
1070
     0
1000
AcDbSavedByObjectVersion
1070
     0
1000
AcDbSavedByObjectVersion
1070
     0
1000
AcDbSavedByObjectVersion
1070
     0
1000
AcDbSavedByObjectVersion
1070
     0
1000
AcDbSavedByObjectVersion
1070
     0
1000
AcDbSavedByObjectVersion
1070
     0
1000
AcDbSavedByObjectVersion
1070
     0
1000
AcDbSavedByObjectVersion
1070
     0
1000
AcDbSavedByObjectVersion
1070
     0
1000
AcDbSavedByObjectVersion
1070
     0
1000
AcDbSavedByObjectVersion
1070
     0
1000
AcDbSavedByObjectVersion
1070
     0
1000
AcDbSavedByObjectVersion
1070
     0
1000
AcDbSavedByObjectVersion
1070
     0
1000
AcDbSavedByObjectVersion
1070
     0
1000
AcDbSavedByObjectVersion
1070
     0
1000
AcDbSavedByObjectVersion
1070
     0
1000
AcDbSavedByObjectVersion
1070
     0
1000
AcDbSavedByObjectVersion
1070
     0
1000
AcDbSavedByObjectVersion
1070
     0
1000
AcDbSavedByObjectVersion
1070
     0
1000
AcDbSavedByObjectVersion
1070
     0
1000
AcDbSavedByObjectVersion
1070
     0
1000
AcDbSavedByObjectVersion
1070
     0
1000
AcDbSavedByObjectVersion
1070
     0
1000
AcDbSavedByObjectVersion
1070
     0
1000
AcDbSavedByObjectVersion
1070
     0
1000
AcDbSavedByObjectVersion
1070
     0
1000
AcDbSavedByObjectVersion
1070
     0
1000
AcDbSavedByObjectVersion
1070
     0
1000
AcDbSavedByObjectVersion
1070
     0
1000
AcDbSavedByObjectVersion
1070
     0
1000
AcDbSavedByObjectVersion
1070
     0
1000
AcDbSavedByObjectVersion
1070
     0
  0
VISUALSTYLE
  5
2B
102
{ACAD_REACTORS
330
2A
102
}
330
2A
100
AcDbVisualStyle
  2
Flat
 70
     0
 71
     2
 72
     1
 73
     1
 90
        2
 40
-0.6
 41
30.0
 62
     5
 63
     7
 74
     0
 91
        4
 64
     7
 65
   257
 75
     1
175
     1
 42
1.0
 92
        8
 66
     7
 43
1.0
 76
     1
 77
     6
 78
     2
 67
     7
 79
     5
170
     0
171
     0
290
     0
174
     0
 93
       13
 44
0.0
173
     0
291
     1
 45
0.0
1001
ACAD
1000
AcDbSavedByObjectVersion
1070
     0
1000
AcDbSavedByObjectVersion
1070
     0
1000
AcDbSavedByObjectVersion
1070
     0
1000
AcDbSavedByObjectVersion
1070
     0
1000
AcDbSavedByObjectVersion
1070
     0
1000
AcDbSavedByObjectVersion
1070
     0
1000
AcDbSavedByObjectVersion
1070
     0
1000
AcDbSavedByObjectVersion
1070
     0
1000
AcDbSavedByObjectVersion
1070
     0
1000
AcDbSavedByObjectVersion
1070
     0
1000
AcDbSavedByObjectVersion
1070
     0
1000
AcDbSavedByObjectVersion
1070
     0
1000
AcDbSavedByObjectVersion
1070
     0
1000
AcDbSavedByObjectVersion
1070
     0
1000
AcDbSavedByObjectVersion
1070
     0
1000
AcDbSavedByObjectVersion
1070
     0
1000
AcDbSavedByObjectVersion
1070
     0
1000
AcDbSavedByObjectVersion
1070
     0
1000
AcDbSavedByObjectVersion
1070
     0
1000
AcDbSavedByObjectVersion
1070
     0
1000
AcDbSavedByObjectVersion
1070
     0
1000
AcDbSavedByObjectVersion
1070
     0
1000
AcDbSavedByObjectVersion
1070
     0
1000
AcDbSavedByObjectVersion
1070
     0
1000
AcDbSavedByObjectVersion
1070
     0
1000
AcDbSavedByObjectVersion
1070
     0
1000
AcDbSavedByObjectVersion
1070
     0
1000
AcDbSavedByObjectVersion
1070
     0
1000
AcDbSavedByObjectVersion
1070
     0
1000
AcDbSavedByObjectVersion
1070
     0
1000
AcDbSavedByObjectVersion
1070
     0
1000
AcDbSavedByObjectVersion
1070
     0
1000
AcDbSavedByObjectVersion
1070
     0
1000
AcDbSavedByObjectVersion
1070
     0
1000
AcDbSavedByObjectVersion
1070
     0
1000
AcDbSavedByObjectVersion
1070
     0
1000
AcDbSavedByObjectVersion
1070
     0
1000
AcDbSavedByObjectVersion
1070
     0
1000
AcDbSavedByObjectVersion
1070
     0
1000
AcDbSavedByObjectVersion
1070
     0
1000
AcDbSavedByObjectVersion
1070
     0
1000
AcDbSavedByObjectVersion
1070
     0
1000
AcDbSavedByObjectVersion
1070
     0
1000
AcDbSavedByObjectVersion
1070
     0
  0
VISUALSTYLE
  5
2C
102
{ACAD_REACTORS
330
2A
102
}
330
2A
100
AcDbVisualStyle
  2
FlatWithEdges
 70
     1
 71
     2
 72
     1
 73
     1
 90
        2
 40
-0.6
 41
30.0
 62
     5
 63
     7
 74
     1
 91
        4
 64
     7
 65
   257
 75
     1
175
     1
 42
1.0
 92
        0
 66
   257
 43
1.0
 76
     1
 77
     6
 78
     2
 67
     7
 79
     5
170
     0
171
     0
290
     0
174
     0
 93
       13
 44
0.0
173
     0
291
     1
 45
0.0
1001
ACAD
1000
AcDbSavedByObjectVersion
1070
     0
1000
AcDbSavedByObjectVersion
1070
     0
1000
AcDbSavedByObjectVersion
1070
     0
1000
AcDbSavedByObjectVersion
1070
     0
1000
AcDbSavedByObjectVersion
1070
     0
1000
AcDbSavedByObjectVersion
1070
     0
1000
AcDbSavedByObjectVersion
1070
     0
1000
AcDbSavedByObjectVersion
1070
     0
1000
AcDbSavedByObjectVersion
1070
     0
1000
AcDbSavedByObjectVersion
1070
     0
1000
AcDbSavedByObjectVersion
1070
     0
1000
AcDbSavedByObjectVersion
1070
     0
1000
AcDbSavedByObjectVersion
1070
     0
1000
AcDbSavedByObjectVersion
1070
     0
1000
AcDbSavedByObjectVersion
1070
     0
1000
AcDbSavedByObjectVersion
1070
     0
1000
AcDbSavedByObjectVersion
1070
     0
1000
AcDbSavedByObjectVersion
1070
     0
1000
AcDbSavedByObjectVersion
1070
     0
1000
AcDbSavedByObjectVersion
1070
     0
1000
AcDbSavedByObjectVersion
1070
     0
1000
AcDbSavedByObjectVersion
1070
     0
1000
AcDbSavedByObjectVersion
1070
     0
1000
AcDbSavedByObjectVersion
1070
     0
1000
AcDbSavedByObjectVersion
1070
     0
1000
AcDbSavedByObjectVersion
1070
     0
1000
AcDbSavedByObjectVersion
1070
     0
1000
AcDbSavedByObjectVersion
1070
     0
1000
AcDbSavedByObjectVersion
1070
     0
1000
AcDbSavedByObjectVersion
1070
     0
1000
AcDbSavedByObjectVersion
1070
     0
1000
AcDbSavedByObjectVersion
1070
     0
1000
AcDbSavedByObjectVersion
1070
     0
1000
AcDbSavedByObjectVersion
1070
     0
1000
AcDbSavedByObjectVersion
1070
     0
1000
AcDbSavedByObjectVersion
1070
     0
1000
AcDbSavedByObjectVersion
1070
     0
1000
AcDbSavedByObjectVersion
1070
     0
1000
AcDbSavedByObjectVersion
1070
     0
1000
AcDbSavedByObjectVersion
1070
     0
1000
AcDbSavedByObjectVersion
1070
     0
1000
AcDbSavedByObjectVersion
1070
     0
1000
AcDbSavedByObjectVersion
1070
     0
1000
AcDbSavedByObjectVersion
1070
     0
  0
VISUALSTYLE
  5
2D
102
{ACAD_REACTORS
330
2A
102
}
330
2A
100
AcDbVisualStyle
  2
Gouraud
 70
     2
 71
     2
 72
     2
 73
     1
 90
        2
 40
-0.6
 41
30.0
 62
     5
 63
     7
 74
     0
 91
        4
 64
     7
 65
   257
 75
     1
175
     1
 42
1.0
 92
        0
 66
     7
 43
1.0
 76
     1
 77
     6
 78
     2
 67
     7
 79
     5
170
     0
171
     0
290
     0
174
     0
 93
       13
 44
0.0
173
     0
291
     1
 45
0.0
1001
ACAD
1000
AcDbSavedByObjectVersion
1070
     0
1000
AcDbSavedByObjectVersion
1070
     0
1000
AcDbSavedByObjectVersion
1070
     0
1000
AcDbSavedByObjectVersion
1070
     0
1000
AcDbSavedByObjectVersion
1070
     0
1000
AcDbSavedByObjectVersion
1070
     0
1000
AcDbSavedByObjectVersion
1070
     0
1000
AcDbSavedByObjectVersion
1070
     0
1000
AcDbSavedByObjectVersion
1070
     0
1000
AcDbSavedByObjectVersion
1070
     0
1000
AcDbSavedByObjectVersion
1070
     0
1000
AcDbSavedByObjectVersion
1070
     0
1000
AcDbSavedByObjectVersion
1070
     0
1000
AcDbSavedByObjectVersion
1070
     0
1000
AcDbSavedByObjectVersion
1070
     0
1000
AcDbSavedByObjectVersion
1070
     0
1000
AcDbSavedByObjectVersion
1070
     0
1000
AcDbSavedByObjectVersion
1070
     0
1000
AcDbSavedByObjectVersion
1070
     0
1000
AcDbSavedByObjectVersion
1070
     0
1000
AcDbSavedByObjectVersion
1070
     0
1000
AcDbSavedByObjectVersion
1070
     0
1000
AcDbSavedByObjectVersion
1070
     0
1000
AcDbSavedByObjectVersion
1070
     0
1000
AcDbSavedByObjectVersion
1070
     0
1000
AcDbSavedByObjectVersion
1070
     0
1000
AcDbSavedByObjectVersion
1070
     0
1000
AcDbSavedByObjectVersion
1070
     0
1000
AcDbSavedByObjectVersion
1070
     0
1000
AcDbSavedByObjectVersion
1070
     0
1000
AcDbSavedByObjectVersion
1070
     0
1000
AcDbSavedByObjectVersion
1070
     0
1000
AcDbSavedByObjectVersion
1070
     0
1000
AcDbSavedByObjectVersion
1070
     0
1000
AcDbSavedByObjectVersion
1070
     0
1000
AcDbSavedByObjectVersion
1070
     0
1000
AcDbSavedByObjectVersion
1070
     0
1000
AcDbSavedByObjectVersion
1070
     0
1000
AcDbSavedByObjectVersion
1070
     0
1000
AcDbSavedByObjectVersion
1070
     0
1000
AcDbSavedByObjectVersion
1070
     0
1000
AcDbSavedByObjectVersion
1070
     0
1000
AcDbSavedByObjectVersion
1070
     0
1000
AcDbSavedByObjectVersion
1070
     0
  0
VISUALSTYLE
  5
2E
102
{ACAD_REACTORS
330
2A
102
}
330
2A
100
AcDbVisualStyle
  2
GouraudWithEdges
 70
     3
 71
     2
 72
     2
 73
     1
 90
        2
 40
-0.6
 41
30.0
 62
     5
 63
     7
 74
     1
 91
        4
 64
     7
 65
   257
 75
     1
175
     1
 42
1.0
 92
        0
 66
   257
 43
1.0
 76
     1
 77
     6
 78
     2
 67
     7
 79
     5
170
     0
171
     0
290
     0
174
     0
 93
       13
 44
0.0
173
     0
291
     1
 45
0.0
1001
ACAD
1000
AcDbSavedByObjectVersion
1070
     0
1000
AcDbSavedByObjectVersion
1070
     0
1000
AcDbSavedByObjectVersion
1070
     0
1000
AcDbSavedByObjectVersion
1070
     0
1000
AcDbSavedByObjectVersion
1070
     0
1000
AcDbSavedByObjectVersion
1070
     0
1000
AcDbSavedByObjectVersion
1070
     0
1000
AcDbSavedByObjectVersion
1070
     0
1000
AcDbSavedByObjectVersion
1070
     0
1000
AcDbSavedByObjectVersion
1070
     0
1000
AcDbSavedByObjectVersion
1070
     0
1000
AcDbSavedByObjectVersion
1070
     0
1000
AcDbSavedByObjectVersion
1070
     0
1000
AcDbSavedByObjectVersion
1070
     0
1000
AcDbSavedByObjectVersion
1070
     0
1000
AcDbSavedByObjectVersion
1070
     0
1000
AcDbSavedByObjectVersion
1070
     0
1000
AcDbSavedByObjectVersion
1070
     0
1000
AcDbSavedByObjectVersion
1070
     0
1000
AcDbSavedByObjectVersion
1070
     0
1000
AcDbSavedByObjectVersion
1070
     0
1000
AcDbSavedByObjectVersion
1070
     0
1000
AcDbSavedByObjectVersion
1070
     0
1000
AcDbSavedByObjectVersion
1070
     0
1000
AcDbSavedByObjectVersion
1070
     0
1000
AcDbSavedByObjectVersion
1070
     0
1000
AcDbSavedByObjectVersion
1070
     0
1000
AcDbSavedByObjectVersion
1070
     0
1000
AcDbSavedByObjectVersion
1070
     0
1000
AcDbSavedByObjectVersion
1070
     0
1000
AcDbSavedByObjectVersion
1070
     0
1000
AcDbSavedByObjectVersion
1070
     0
1000
AcDbSavedByObjectVersion
1070
     0
1000
AcDbSavedByObjectVersion
1070
     0
1000
AcDbSavedByObjectVersion
1070
     0
1000
AcDbSavedByObjectVersion
1070
     0
1000
AcDbSavedByObjectVersion
1070
     0
1000
AcDbSavedByObjectVersion
1070
     0
1000
AcDbSavedByObjectVersion
1070
     0
1000
AcDbSavedByObjectVersion
1070
     0
1000
AcDbSavedByObjectVersion
1070
     0
1000
AcDbSavedByObjectVersion
1070
     0
1000
AcDbSavedByObjectVersion
1070
     0
1000
AcDbSavedByObjectVersion
1070
     0
  0
VISUALSTYLE
  5
38
102
{ACAD_REACTORS
330
2A
102
}
330
2A
100
AcDbVisualStyle
  2
Linepattern
 70
    14
 71
     2
 72
     2
 73
     0
 90
        0
 40
-0.6
 41
-30.0
 62
     5
 63
     7
 74
     1
 91
        4
 64
     7
 65
   257
 75
     7
175
     7
 42
1.0
 92
        8
 66
     7
 43
1.0
 76
     1
 77
     6
 78
     2
 67
     7
 79
     5
170
     0
171
     0
290
     0
174
     0
 93
        1
 44
0.0
173
     0
291
     1
 45
0.0
1001
ACAD
1000
AcDbSavedByObjectVersion
1070
     0
1000
AcDbSavedByObjectVersion
1070
     0
1000
AcDbSavedByObjectVersion
1070
     0
1000
AcDbSavedByObjectVersion
1070
     0
1000
AcDbSavedByObjectVersion
1070
     0
1000
AcDbSavedByObjectVersion
1070
     0
1000
AcDbSavedByObjectVersion
1070
     0
1000
AcDbSavedByObjectVersion
1070
     0
1000
AcDbSavedByObjectVersion
1070
     0
1000
AcDbSavedByObjectVersion
1070
     0
1000
AcDbSavedByObjectVersion
1070
     0
1000
AcDbSavedByObjectVersion
1070
     0
1000
AcDbSavedByObjectVersion
1070
     0
1000
AcDbSavedByObjectVersion
1070
     0
1000
AcDbSavedByObjectVersion
1070
     0
1000
AcDbSavedByObjectVersion
1070
     0
1000
AcDbSavedByObjectVersion
1070
     0
1000
AcDbSavedByObjectVersion
1070
     0
1000
AcDbSavedByObjectVersion
1070
     0
1000
AcDbSavedByObjectVersion
1070
     0
1000
AcDbSavedByObjectVersion
1070
     0
1000
AcDbSavedByObjectVersion
1070
     0
1000
AcDbSavedByObjectVersion
1070
     0
1000
AcDbSavedByObjectVersion
1070
     0
1000
AcDbSavedByObjectVersion
1070
     0
1000
AcDbSavedByObjectVersion
1070
     0
1000
AcDbSavedByObjectVersion
1070
     0
1000
AcDbSavedByObjectVersion
1070
     0
1000
AcDbSavedByObjectVersion
1070
     0
1000
AcDbSavedByObjectVersion
1070
     0
1000
AcDbSavedByObjectVersion
1070
     0
1000
AcDbSavedByObjectVersion
1070
     0
1000
AcDbSavedByObjectVersion
1070
     0
1000
AcDbSavedByObjectVersion
1070
     0
1000
AcDbSavedByObjectVersion
1070
     0
1000
AcDbSavedByObjectVersion
1070
     0
1000
AcDbSavedByObjectVersion
1070
     0
1000
AcDbSavedByObjectVersion
1070
     0
1000
AcDbSavedByObjectVersion
1070
     0
1000
AcDbSavedByObjectVersion
1070
     0
1000
AcDbSavedByObjectVersion
1070
     0
1000
AcDbSavedByObjectVersion
1070
     0
1000
AcDbSavedByObjectVersion
1070
     0
1000
AcDbSavedByObjectVersion
1070
     0
  0
VISUALSTYLE
  5
33
102
{ACAD_REACTORS
330
2A
102
}
330
2A
100
AcDbVisualStyle
  2
Realistic
 70
     8
 71
     2
 72
     2
 73
     0
 90
        0
 40
-0.6
 41
-30.0
 62
     5
 63
     7
 74
     1
 91
        0
 64
     7
 65
   257
 75
     1
175
     1
 42
1.0
 92
        8
 66
     8
 43
1.0
 76
     1
 77
     6
 78
     2
 67
     7
 79
     5
170
     0
171
     0
290
     0
174
     0
 93
       13
 44
0.0
173
     0
291
     0
 45
0.0
1001
ACAD
1000
AcDbSavedByObjectVersion
1070
     0
1000
AcDbSavedByObjectVersion
1070
     0
1000
AcDbSavedByObjectVersion
1070
     0
1000
AcDbSavedByObjectVersion
1070
     0
1000
AcDbSavedByObjectVersion
1070
     0
1000
AcDbSavedByObjectVersion
1070
     0
1000
AcDbSavedByObjectVersion
1070
     0
1000
AcDbSavedByObjectVersion
1070
     0
1000
AcDbSavedByObjectVersion
1070
     0
1000
AcDbSavedByObjectVersion
1070
     0
1000
AcDbSavedByObjectVersion
1070
     0
1000
AcDbSavedByObjectVersion
1070
     0
1000
AcDbSavedByObjectVersion
1070
     0
1000
AcDbSavedByObjectVersion
1070
     0
1000
AcDbSavedByObjectVersion
1070
     0
1000
AcDbSavedByObjectVersion
1070
     0
1000
AcDbSavedByObjectVersion
1070
     0
1000
AcDbSavedByObjectVersion
1070
     0
1000
AcDbSavedByObjectVersion
1070
     0
1000
AcDbSavedByObjectVersion
1070
     0
1000
AcDbSavedByObjectVersion
1070
     0
1000
AcDbSavedByObjectVersion
1070
     0
1000
AcDbSavedByObjectVersion
1070
     0
1000
AcDbSavedByObjectVersion
1070
     0
1000
AcDbSavedByObjectVersion
1070
     0
1000
AcDbSavedByObjectVersion
1070
     0
1000
AcDbSavedByObjectVersion
1070
     0
1000
AcDbSavedByObjectVersion
1070
     0
1000
AcDbSavedByObjectVersion
1070
     0
1000
AcDbSavedByObjectVersion
1070
     0
1000
AcDbSavedByObjectVersion
1070
     0
1000
AcDbSavedByObjectVersion
1070
     0
1000
AcDbSavedByObjectVersion
1070
     0
1000
AcDbSavedByObjectVersion
1070
     0
1000
AcDbSavedByObjectVersion
1070
     0
1000
AcDbSavedByObjectVersion
1070
     0
1000
AcDbSavedByObjectVersion
1070
     0
1000
AcDbSavedByObjectVersion
1070
     0
1000
AcDbSavedByObjectVersion
1070
     0
1000
AcDbSavedByObjectVersion
1070
     0
1000
AcDbSavedByObjectVersion
1070
     0
1000
AcDbSavedByObjectVersion
1070
     0
1000
AcDbSavedByObjectVersion
1070
     0
1000
AcDbSavedByObjectVersion
1070
     0
  0
VISUALSTYLE
  5
37
102
{ACAD_REACTORS
330
2A
102
}
330
2A
100
AcDbVisualStyle
  2
Thicken
 70
    13
 71
     2
 72
     2
 73
     0
 90
        0
 40
-0.6
 41
-30.0
 62
     5
 63
     7
 74
     1
 91
        4
 64
     7
 65
   257
 75
     1
175
     1
 42
1.0
 92
       12
 66
     7
 43
1.0
 76
     1
 77
     6
 78
     2
 67
     7
 79
     5
170
     0
171
     0
290
     0
174
     0
 93
        1
 44
0.0
173
     0
291
     1
 45
0.0
1001
ACAD
1000
AcDbSavedByObjectVersion
1070
     0
1000
AcDbSavedByObjectVersion
1070
     0
1000
AcDbSavedByObjectVersion
1070
     0
1000
AcDbSavedByObjectVersion
1070
     0
1000
AcDbSavedByObjectVersion
1070
     0
1000
AcDbSavedByObjectVersion
1070
     0
1000
AcDbSavedByObjectVersion
1070
     0
1000
AcDbSavedByObjectVersion
1070
     0
1000
AcDbSavedByObjectVersion
1070
     0
1000
AcDbSavedByObjectVersion
1070
     0
1000
AcDbSavedByObjectVersion
1070
     0
1000
AcDbSavedByObjectVersion
1070
     0
1000
AcDbSavedByObjectVersion
1070
     0
1000
AcDbSavedByObjectVersion
1070
     0
1000
AcDbSavedByObjectVersion
1070
     0
1000
AcDbSavedByObjectVersion
1070
     0
1000
AcDbSavedByObjectVersion
1070
     0
1000
AcDbSavedByObjectVersion
1070
     0
1000
AcDbSavedByObjectVersion
1070
     0
1000
AcDbSavedByObjectVersion
1070
     0
1000
AcDbSavedByObjectVersion
1070
     0
1000
AcDbSavedByObjectVersion
1070
     0
1000
AcDbSavedByObjectVersion
1070
     0
1000
AcDbSavedByObjectVersion
1070
     0
1000
AcDbSavedByObjectVersion
1070
     0
1000
AcDbSavedByObjectVersion
1070
     0
1000
AcDbSavedByObjectVersion
1070
     0
1000
AcDbSavedByObjectVersion
1070
     0
1000
AcDbSavedByObjectVersion
1070
     0
1000
AcDbSavedByObjectVersion
1070
     0
1000
AcDbSavedByObjectVersion
1070
     0
1000
AcDbSavedByObjectVersion
1070
     0
1000
AcDbSavedByObjectVersion
1070
     0
1000
AcDbSavedByObjectVersion
1070
     0
1000
AcDbSavedByObjectVersion
1070
     0
1000
AcDbSavedByObjectVersion
1070
     0
1000
AcDbSavedByObjectVersion
1070
     0
1000
AcDbSavedByObjectVersion
1070
     0
1000
AcDbSavedByObjectVersion
1070
     0
1000
AcDbSavedByObjectVersion
1070
     0
1000
AcDbSavedByObjectVersion
1070
     0
1000
AcDbSavedByObjectVersion
1070
     0
1000
AcDbSavedByObjectVersion
1070
     0
1000
AcDbSavedByObjectVersion
1070
     0
  0
DICTIONARYVAR
  5
510B
102
{ACAD_REACTORS
330
5108
102
}
330
5108
100
DictionaryVariables
280
     0
  1
1:1
  0
DICTIONARYVAR
  5
510A
102
{ACAD_REACTORS
330
5108
102
}
330
5108
100
DictionaryVariables
280
     0
  1
STANDARD
  0
DICTIONARYVAR
  5
5109
102
{ACAD_REACTORS
330
5108
102
}
330
5108
100
DictionaryVariables
280
     0
  1
STANDARD
  0
DICTIONARYVAR
  5
510E
102
{ACAD_REACTORS
330
5108
102
}
330
5108
100
DictionaryVariables
280
     0
  1
1
  0
DICTIONARYVAR
  5
510D
102
{ACAD_REACTORS
330
5108
102
}
330
5108
100
DictionaryVariables
280
     0
  1
0
  0
DICTIONARYVAR
  5
1BB93
102
{ACAD_REACTORS
330
5108
102
}
330
5108
100
DictionaryVariables
280
     0
  1
0
  0
DICTIONARYVAR
  5
1BB92
102
{ACAD_REACTORS
330
5108
102
}
330
5108
100
DictionaryVariables
280
     0
  1
0
  0
DICTIONARYVAR
  5
510C
102
{ACAD_REACTORS
330
5108
102
}
330
5108
100
DictionaryVariables
280
     0
  1
127
  0
XRECORD
  5
1AC54
102
{ACAD_REACTORS
330
1AC53
102
}
330
1AC53
100
AcDbXrecord
280
     1
330
11089
  0
VLO-VL
  5
1BAF3
102
{ACAD_REACTORS
330
1BAF2
102
}
330
1BAF2
100
vlo_VL
 90
   -64512
 91
       12
 92
        1
 40
2.5
300
(&VLO-R . 0)
  0
DICTIONARY
  5
4FEF
330
4FEE
100
AcDbDictionary
280
     1
281
     1
  3
ACAD_XREC_ROUNDTRIP
360
7C2C
  3
BUMPTILE
360
4FF1
  3
DIFFUSETILE
360
4FF0
  3
OPACITYTILE
360
4FF4
  3
REFLECTIONTILE
360
4FF3
  3
REFRACTIONTILE
360
4FF5
  3
SPECULARTILE
360
4FF2
  0
DICTIONARY
  5
4FE7
330
4FE6
100
AcDbDictionary
280
     1
281
     1
  3
ACAD_XREC_ROUNDTRIP
360
7C2B
  3
BUMPTILE
360
4FE9
  3
DIFFUSETILE
360
4FE8
  3
OPACITYTILE
360
4FEC
  3
REFLECTIONTILE
360
4FEB
  3
REFRACTIONTILE
360
4FED
  3
SPECULARTILE
360
4FEA
  0
DICTIONARY
  5
4FF7
330
4FF6
100
AcDbDictionary
280
     1
281
     1
  3
ACAD_XREC_ROUNDTRIP
360
7C2D
  3
BUMPTILE
360
4FF9
  3
DIFFUSETILE
360
4FF8
  3
OPACITYTILE
360
4FFC
  3
REFLECTIONTILE
360
4FFB
  3
REFRACTIONTILE
360
4FFD
  3
SPECULARTILE
360
4FFA
  0
DICTIONARY
  5
50D6
330
4FFF
100
AcDbDictionary
280
     1
281
     1
  3
ACAD_ROUNDTRIP_2008_TABLESTYLE_CELLSTYLEMAP
360
1BBB7
  0
XRECORD
  5
7C2C
102
{ACAD_REACTORS
330
4FEF
102
}
330
4FEF
100
AcDbXrecord
280
     1
102
MATERIAL
148
0.0
149
0.0
149
0.0
 93
        0
 94
      127
282
     0
 72
     0
 77
     0
171
     0
175
     0
179
     0
273
     0
  0
XRECORD
  5
4FF1
102
{ACAD_REACTORS
330
4FEF
102
}
330
4FEF
100
AcDbXrecord
280
     1
270
     1
271
     1
  0
XRECORD
  5
4FF0
102
{ACAD_REACTORS
330
4FEF
102
}
330
4FEF
100
AcDbXrecord
280
     1
270
     1
271
     1
  0
XRECORD
  5
4FF4
102
{ACAD_REACTORS
330
4FEF
102
}
330
4FEF
100
AcDbXrecord
280
     1
270
     1
271
     1
  0
XRECORD
  5
4FF3
102
{ACAD_REACTORS
330
4FEF
102
}
330
4FEF
100
AcDbXrecord
280
     1
270
     1
271
     1
  0
XRECORD
  5
4FF5
102
{ACAD_REACTORS
330
4FEF
102
}
330
4FEF
100
AcDbXrecord
280
     1
270
     1
271
     1
  0
XRECORD
  5
4FF2
102
{ACAD_REACTORS
330
4FEF
102
}
330
4FEF
100
AcDbXrecord
280
     1
270
     1
271
     1
  0
XRECORD
  5
7C2B
102
{ACAD_REACTORS
330
4FE7
102
}
330
4FE7
100
AcDbXrecord
280
     1
102
MATERIAL
148
0.0
149
0.0
149
0.0
 93
        0
 94
      127
282
     0
 72
     0
 77
     0
171
     0
175
     0
179
     0
273
     0
  0
XRECORD
  5
4FE9
102
{ACAD_REACTORS
330
4FE7
102
}
330
4FE7
100
AcDbXrecord
280
     1
270
     1
271
     1
  0
XRECORD
  5
4FE8
102
{ACAD_REACTORS
330
4FE7
102
}
330
4FE7
100
AcDbXrecord
280
     1
270
     1
271
     1
  0
XRECORD
  5
4FEC
102
{ACAD_REACTORS
330
4FE7
102
}
330
4FE7
100
AcDbXrecord
280
     1
270
     1
271
     1
  0
XRECORD
  5
4FEB
102
{ACAD_REACTORS
330
4FE7
102
}
330
4FE7
100
AcDbXrecord
280
     1
270
     1
271
     1
  0
XRECORD
  5
4FED
102
{ACAD_REACTORS
330
4FE7
102
}
330
4FE7
100
AcDbXrecord
280
     1
270
     1
271
     1
  0
XRECORD
  5
4FEA
102
{ACAD_REACTORS
330
4FE7
102
}
330
4FE7
100
AcDbXrecord
280
     1
270
     1
271
     1
  0
XRECORD
  5
7C2D
102
{ACAD_REACTORS
330
4FF7
102
}
330
4FF7
100
AcDbXrecord
280
     1
102
MATERIAL
148
0.0
149
0.0
149
0.0
 93
        0
 94
      127
282
     0
 72
     0
 77
     0
171
     0
175
     0
179
     0
273
     0
  0
XRECORD
  5
4FF9
102
{ACAD_REACTORS
330
4FF7
102
}
330
4FF7
100
AcDbXrecord
280
     1
270
     1
271
     1
  0
XRECORD
  5
4FF8
102
{ACAD_REACTORS
330
4FF7
102
}
330
4FF7
100
AcDbXrecord
280
     1
270
     1
271
     1
  0
XRECORD
  5
4FFC
102
{ACAD_REACTORS
330
4FF7
102
}
330
4FF7
100
AcDbXrecord
280
     1
270
     1
271
     1
  0
XRECORD
  5
4FFB
102
{ACAD_REACTORS
330
4FF7
102
}
330
4FF7
100
AcDbXrecord
280
     1
270
     1
271
     1
  0
XRECORD
  5
4FFD
102
{ACAD_REACTORS
330
4FF7
102
}
330
4FF7
100
AcDbXrecord
280
     1
270
     1
271
     1
  0
XRECORD
  5
4FFA
102
{ACAD_REACTORS
330
4FF7
102
}
330
4FF7
100
AcDbXrecord
280
     1
270
     1
271
     1
  0
CELLSTYLEMAP
  5
1BBB7
102
{ACAD_REACTORS
330
50D6
102
}
330
50D6
100
AcDbCellStyleMap
 90
        3
300
CELLSTYLE
  1
TABLEFORMAT_BEGIN
 90
        5
170
     1
 91
        0
 92
    32768
 62
   257
 93
        1
300
CONTENTFORMAT
  1
CONTENTFORMAT_BEGIN
 90
        0
 91
        0
 92
      512
 93
        0
300

 40
0.0
140
1.0
 94
        5
 62
     0
340
11
144
0.25
309
CONTENTFORMAT_END
171
     1
301
MARGIN
  1
CELLMARGIN_BEGIN
 40
0.06
 40
0.06
 40
0.06
 40
0.06
 40
0.18
 40
0.18
309
CELLMARGIN_END
 94
        6
 95
        1
302
GRIDFORMAT
  1
GRIDFORMAT_BEGIN
 90
        0
 91
        1
 62
     0
 92
       -2
340
0
 93
        0
 40
0.045
309
GRIDFORMAT_END
 95
        2
302
GRIDFORMAT
  1
GRIDFORMAT_BEGIN
 90
        0
 91
        1
 62
     0
 92
       -2
340
0
 93
        0
 40
0.045
309
GRIDFORMAT_END
 95
        4
302
GRIDFORMAT
  1
GRIDFORMAT_BEGIN
 90
        0
 91
        1
 62
     0
 92
       -2
340
0
 93
        0
 40
0.045
309
GRIDFORMAT_END
 95
        8
302
GRIDFORMAT
  1
GRIDFORMAT_BEGIN
 90
        0
 91
        1
 62
     0
 92
       -2
340
0
 93
        0
 40
0.045
309
GRIDFORMAT_END
 95
       16
302
GRIDFORMAT
  1
GRIDFORMAT_BEGIN
 90
        0
 91
        1
 62
     0
 92
       -2
340
0
 93
        0
 40
0.045
309
GRIDFORMAT_END
 95
       32
302
GRIDFORMAT
  1
GRIDFORMAT_BEGIN
 90
        0
 91
        1
 62
     0
 92
       -2
340
0
 93
        0
 40
0.045
309
GRIDFORMAT_END
309
TABLEFORMAT_END
  1
CELLSTYLE_BEGIN
 90
        1
 91
        1
300
_TITLE
309
CELLSTYLE_END
300
CELLSTYLE
  1
TABLEFORMAT_BEGIN
 90
        5
170
     1
 91
        0
 92
        0
 62
   257
 93
        1
300
CONTENTFORMAT
  1
CONTENTFORMAT_BEGIN
 90
        0
 91
        0
 92
      512
 93
        0
300

 40
0.0
140
1.0
 94
        5
 62
     0
340
11
144
0.18
309
CONTENTFORMAT_END
171
     1
301
MARGIN
  1
CELLMARGIN_BEGIN
 40
0.06
 40
0.06
 40
0.06
 40
0.06
 40
0.18
 40
0.18
309
CELLMARGIN_END
 94
        6
 95
        1
302
GRIDFORMAT
  1
GRIDFORMAT_BEGIN
 90
        0
 91
        1
 62
     0
 92
       -2
340
0
 93
        0
 40
0.045
309
GRIDFORMAT_END
 95
        2
302
GRIDFORMAT
  1
GRIDFORMAT_BEGIN
 90
        0
 91
        1
 62
     0
 92
       -2
340
0
 93
        0
 40
0.045
309
GRIDFORMAT_END
 95
        4
302
GRIDFORMAT
  1
GRIDFORMAT_BEGIN
 90
        0
 91
        1
 62
     0
 92
       -2
340
0
 93
        0
 40
0.045
309
GRIDFORMAT_END
 95
        8
302
GRIDFORMAT
  1
GRIDFORMAT_BEGIN
 90
        0
 91
        1
 62
     0
 92
       -2
340
0
 93
        0
 40
0.045
309
GRIDFORMAT_END
 95
       16
302
GRIDFORMAT
  1
GRIDFORMAT_BEGIN
 90
        0
 91
        1
 62
     0
 92
       -2
340
0
 93
        0
 40
0.045
309
GRIDFORMAT_END
 95
       32
302
GRIDFORMAT
  1
GRIDFORMAT_BEGIN
 90
        0
 91
        1
 62
     0
 92
       -2
340
0
 93
        0
 40
0.045
309
GRIDFORMAT_END
309
TABLEFORMAT_END
  1
CELLSTYLE_BEGIN
 90
        2
 91
        1
300
_HEADER
309
CELLSTYLE_END
300
CELLSTYLE
  1
TABLEFORMAT_BEGIN
 90
        5
170
     1
 91
        0
 92
        0
 62
   257
 93
        1
300
CONTENTFORMAT
  1
CONTENTFORMAT_BEGIN
 90
        0
 91
        0
 92
      512
 93
        0
300

 40
0.0
140
1.0
 94
        2
 62
     0
340
11
144
0.18
309
CONTENTFORMAT_END
171
     1
301
MARGIN
  1
CELLMARGIN_BEGIN
 40
0.06
 40
0.06
 40
0.06
 40
0.06
 40
0.18
 40
0.18
309
CELLMARGIN_END
 94
        6
 95
        1
302
GRIDFORMAT
  1
GRIDFORMAT_BEGIN
 90
        0
 91
        1
 62
     0
 92
       -2
340
0
 93
        0
 40
0.045
309
GRIDFORMAT_END
 95
        2
302
GRIDFORMAT
  1
GRIDFORMAT_BEGIN
 90
        0
 91
        1
 62
     0
 92
       -2
340
0
 93
        0
 40
0.045
309
GRIDFORMAT_END
 95
        4
302
GRIDFORMAT
  1
GRIDFORMAT_BEGIN
 90
        0
 91
        1
 62
     0
 92
       -2
340
0
 93
        0
 40
0.045
309
GRIDFORMAT_END
 95
        8
302
GRIDFORMAT
  1
GRIDFORMAT_BEGIN
 90
        0
 91
        1
 62
     0
 92
       -2
340
0
 93
        0
 40
0.045
309
GRIDFORMAT_END
 95
       16
302
GRIDFORMAT
  1
GRIDFORMAT_BEGIN
 90
        0
 91
        1
 62
     0
 92
       -2
340
0
 93
        0
 40
0.045
309
GRIDFORMAT_END
 95
       32
302
GRIDFORMAT
  1
GRIDFORMAT_BEGIN
 90
        0
 91
        1
 62
     0
 92
       -2
340
0
 93
        0
 40
0.045
309
GRIDFORMAT_END
309
TABLEFORMAT_END
  1
CELLSTYLE_BEGIN
 90
        3
 91
        2
300
_DATA
309
CELLSTYLE_END
  0
ENDSEC
  0
EOF
