  0
SECTION
  2
HEADER
  9
$ACADVER
  1
AC1021
  9
$ACADMAINTVER
 70
    25
  9
$DWGCODEPAGE
  3
ANSI_936
  9
$LASTSAVEDBY
  1
yp.zhu
  9
$INSBASE
 10
0.0
 20
0.0
 30
0.0
  9
$EXTMIN
 10
460.6786082154463
 20
209.9231617638111
 30
-0.0015258207003583
  9
$EXTMAX
 10
609.2762625495366
 20
314.9743031953121
 30
0.0000000349246037
  9
$LIMMIN
 10
0.0
 20
0.0
  9
$LIMMAX
 10
12.0
 20
9.0
  9
$ORTHOMODE
 70
     1
  9
$REGENMODE
 70
     1
  9
$FILLMODE
 70
     1
  9
$QTEXTMODE
 70
     0
  9
$MIRRTEXT
 70
     1
  9
$LTSCALE
 40
1.0
  9
$ATTMODE
 70
     1
  9
$TEXTSIZE
 40
0.2
  9
$TRACEWID
 40
0.05
  9
$TEXTSTYLE
  7
Standard
  9
$CLAYER
  8
DIM
  9
$CELTYPE
  6
ByLayer
  9
$CECOLOR
 62
   256
  9
$CELTSCALE
 40
1.0
  9
$DISPSILH
 70
     0
  9
$DIMSCALE
 40
1.0
  9
$DIMASZ
 40
3.0
  9
$DIMEXO
 40
0.2
  9
$DIMDLI
 40
0.2
  9
$DIMRND
 40
0.0
  9
$DIMDLE
 40
0.0
  9
$DIMEXE
 40
1.199999999999999
  9
$DIMTP
 40
0.0
  9
$DIMTM
 40
0.0
  9
$DIMTXT
 40
3.5
  9
$DIMCEN
 40
0.0
  9
$DIMTSZ
 40
0.0
  9
$DIMTOL
 70
     0
  9
$DIMLIM
 70
     0
  9
$DIMTIH
 70
     0
  9
$DIMTOH
 70
     0
  9
$DIMSE1
 70
     0
  9
$DIMSE2
 70
     0
  9
$DIMTAD
 70
     1
  9
$DIMZIN
 70
     8
  9
$DIMBLK
  1

  9
$DIMASO
 70
     1
  9
$DIMSHO
 70
     1
  9
$DIMPOST
  1

  9
$DIMAPOST
  1

  9
$DIMALT
 70
     0
  9
$DIMALTD
 70
     2
  9
$DIMALTF
 40
25.4
  9
$DIMLFAC
 40
1.0
  9
$DIMTOFL
 70
     0
  9
$DIMTVP
 40
0.0
  9
$DIMTIX
 70
     0
  9
$DIMSOXD
 70
     0
  9
$DIMSAH
 70
     0
  9
$DIMBLK1
  1

  9
$DIMBLK2
  1

  9
$DIMSTYLE
  2
01
  9
$DIMCLRD
 70
     1
  9
$DIMCLRE
 70
     6
  9
$DIMCLRT
 70
     4
  9
$DIMTFAC
 40
1.0
  9
$DIMGAP
 40
0.8
  9
$DIMJUST
 70
     0
  9
$DIMSD1
 70
     0
  9
$DIMSD2
 70
     0
  9
$DIMTOLJ
 70
     1
  9
$DIMTZIN
 70
     0
  9
$DIMALTZ
 70
     0
  9
$DIMALTTZ
 70
     0
  9
$DIMUPT
 70
     0
  9
$DIMDEC
 70
     1
  9
$DIMTDEC
 70
     1
  9
$DIMALTU
 70
     2
  9
$DIMALTTD
 70
     2
  9
$DIMTXSTY
  7
Romans字体
  9
$DIMAUNIT
 70
     0
  9
$DIMADEC
 70
     2
  9
$DIMALTRND
 40
0.0
  9
$DIMAZIN
 70
     2
  9
$DIMDSEP
 70
    46
  9
$DIMATFIT
 70
     3
  9
$DIMFRAC
 70
     0
  9
$DIMLDRBLK
  1

  9
$DIMLUNIT
 70
     2
  9
$DIMLWD
 70
    -2
  9
$DIMLWE
 70
    -2
  9
$DIMTMOVE
 70
     0
  9
$DIMFXL
 40
1.0
  9
$DIMFXLON
 70
     0
  9
$DIMJOGANG
 40
0.7853981633974483
  9
$DIMTFILL
 70
     0
  9
$DIMTFILLCLR
 70
     0
  9
$DIMARCSYM
 70
     0
  9
$DIMLTYPE
  6

  9
$DIMLTEX1
  6

  9
$DIMLTEX2
  6

  9
$LUNITS
 70
     2
  9
$LUPREC
 70
     4
  9
$SKETCHINC
 40
0.1
  9
$FILLETRAD
 40
0.5
  9
$AUNITS
 70
     0
  9
$AUPREC
 70
     0
  9
$MENU
  1
.
  9
$ELEVATION
 40
0.0
  9
$PELEVATION
 40
0.0
  9
$THICKNESS
 40
0.0
  9
$LIMCHECK
 70
     0
  9
$CHAMFERA
 40
0.5
  9
$CHAMFERB
 40
0.5
  9
$CHAMFERC
 40
1.0
  9
$CHAMFERD
 40
0.0
  9
$SKPOLY
 70
     0
  9
$TDCREATE
 40
2456524.383632987
  9
$TDUCREATE
 40
2456524.050299653
  9
$TDUPDATE
 40
2460322.584892546
  9
$TDUUPDATE
 40
2460322.251559213
  9
$TDINDWG
 40
0.9479279861
  9
$TDUSRTIMER
 40
0.9479025463
  9
$USRTIMER
 70
     1
  9
$ANGBASE
 50
0.0
  9
$ANGDIR
 70
     0
  9
$PDMODE
 70
     0
  9
$PDSIZE
 40
0.0
  9
$PLINEWID
 40
0.0
  9
$SPLFRAME
 70
     0
  9
$SPLINETYPE
 70
     6
  9
$SPLINESEGS
 70
     8
  9
$HANDSEED
  5
1ABAE
  9
$SURFTAB1
 70
     6
  9
$SURFTAB2
 70
     6
  9
$SURFTYPE
 70
     6
  9
$SURFU
 70
     6
  9
$SURFV
 70
     6
  9
$UCSBASE
  2

  9
$UCSNAME
  2

  9
$UCSORG
 10
0.0
 20
0.0
 30
0.0
  9
$UCSXDIR
 10
1.0
 20
0.0
 30
0.0
  9
$UCSYDIR
 10
0.0
 20
1.0
 30
0.0
  9
$UCSORTHOREF
  2

  9
$UCSORTHOVIEW
 70
     0
  9
$UCSORGTOP
 10
0.0
 20
0.0
 30
0.0
  9
$UCSORGBOTTOM
 10
0.0
 20
0.0
 30
0.0
  9
$UCSORGLEFT
 10
0.0
 20
0.0
 30
0.0
  9
$UCSORGRIGHT
 10
0.0
 20
0.0
 30
0.0
  9
$UCSORGFRONT
 10
0.0
 20
0.0
 30
0.0
  9
$UCSORGBACK
 10
0.0
 20
0.0
 30
0.0
  9
$PUCSBASE
  2

  9
$PUCSNAME
  2

  9
$PUCSORG
 10
0.0
 20
0.0
 30
0.0
  9
$PUCSXDIR
 10
1.0
 20
0.0
 30
0.0
  9
$PUCSYDIR
 10
0.0
 20
1.0
 30
0.0
  9
$PUCSORTHOREF
  2

  9
$PUCSORTHOVIEW
 70
     0
  9
$PUCSORGTOP
 10
0.0
 20
0.0
 30
0.0
  9
$PUCSORGBOTTOM
 10
0.0
 20
0.0
 30
0.0
  9
$PUCSORGLEFT
 10
0.0
 20
0.0
 30
0.0
  9
$PUCSORGRIGHT
 10
0.0
 20
0.0
 30
0.0
  9
$PUCSORGFRONT
 10
0.0
 20
0.0
 30
0.0
  9
$PUCSORGBACK
 10
0.0
 20
0.0
 30
0.0
  9
$USERI1
 70
     0
  9
$USERI2
 70
     0
  9
$USERI3
 70
     0
  9
$USERI4
 70
     0
  9
$USERI5
 70
     0
  9
$USERR1
 40
0.0
  9
$USERR2
 40
0.0
  9
$USERR3
 40
0.0
  9
$USERR4
 40
0.0
  9
$USERR5
 40
2.5
  9
$WORLDVIEW
 70
     1
  9
$SHADEDGE
 70
     3
  9
$SHADEDIF
 70
    70
  9
$TILEMODE
 70
     1
  9
$MAXACTVP
 70
    64
  9
$PINSBASE
 10
0.0
 20
0.0
 30
0.0
  9
$PLIMCHECK
 70
     0
  9
$PEXTMIN
 10
1.000000000000000E+20
 20
1.000000000000000E+20
 30
1.000000000000000E+20
  9
$PEXTMAX
 10
-1.000000000000000E+20
 20
-1.000000000000000E+20
 30
-1.000000000000000E+20
  9
$PLIMMIN
 10
0.0
 20
0.0
  9
$PLIMMAX
 10
12.0
 20
9.0
  9
$UNITMODE
 70
     0
  9
$VISRETAIN
 70
     1
  9
$PLINEGEN
 70
     0
  9
$PSLTSCALE
 70
     1
  9
$TREEDEPTH
 70
  3020
  9
$CMLSTYLE
  2
Standard
  9
$CMLJUST
 70
     0
  9
$CMLSCALE
 40
1.0
  9
$PROXYGRAPHICS
 70
     1
  9
$MEASUREMENT
 70
     0
  9
$CELWEIGHT
370
    -1
  9
$ENDCAPS
280
     0
  9
$JOINSTYLE
280
     0
  9
$LWDISPLAY
290
     0
  9
$INSUNITS
 70
     1
  9
$HYPERLINKBASE
  1

  9
$STYLESHEET
  1
monochrome.ctb
  9
$XEDIT
290
     1
  9
$CEPSNTYPE
380
     0
  9
$PSTYLEMODE
290
     1
  9
$FINGERPRINTGUID
  2
{4A02065B-8BB3-4A96-9036-502DC906C165}
  9
$VERSIONGUID
  2
{75CE4088-DD0A-481C-86EB-0821519BC413}
  9
$EXTNAMES
290
     1
  9
$PSVPSCALE
 40
0.0
  9
$OLESTARTUP
290
     0
  9
$SORTENTS
280
   127
  9
$INDEXCTL
280
     0
  9
$HIDETEXT
280
     0
  9
$XCLIPFRAME
290
     0
  9
$HALOGAP
280
     0
  9
$OBSCOLOR
 70
   257
  9
$OBSLTYPE
280
     0
  9
$INTERSECTIONDISPLAY
280
     0
  9
$INTERSECTIONCOLOR
 70
   257
  9
$DIMASSOC
280
     1
  9
$PROJECTNAME
  1

  9
$CAMERADISPLAY
290
     0
  9
$LENSLENGTH
 40
50.0
  9
$CAMERAHEIGHT
 40
0.0
  9
$STEPSPERSEC
 40
2.0
  9
$STEPSIZE
 40
6.0
  9
$3DDWFPREC
 40
2.0
  9
$PSOLWIDTH
 40
0.25
  9
$PSOLHEIGHT
 40
4.0
  9
$LOFTANG1
 40
1.570796326794896
  9
$LOFTANG2
 40
1.570796326794896
  9
$LOFTMAG1
 40
0.0
  9
$LOFTMAG2
 40
0.0
  9
$LOFTPARAM
 70
     7
  9
$LOFTNORMALS
280
     1
  9
$LATITUDE
 40
37.795
  9
$LONGITUDE
 40
-122.394
  9
$NORTHDIRECTION
 40
0.0
  9
$TIMEZONE
 70
 -8000
  9
$LIGHTGLYPHDISPLAY
280
     1
  9
$TILEMODELIGHTSYNCH
280
     1
  9
$CMATERIAL
347
4FE6
  9
$SOLIDHIST
280
     1
  9
$SHOWHIST
280
     1
  9
$DWFFRAME
280
     2
  9
$DGNFRAME
280
     0
  9
$REALWORLDSCALE
290
     1
  9
$INTERFERECOLOR
 62
     1
  9
$INTERFEREOBJVS
345
33
  9
$INTERFEREVPVS
346
30
  9
$CSHADOW
280
     0
  9
$SHADOWPLANELOCATION
 40
0.0
  0
ENDSEC
  0
SECTION
  2
CLASSES
  0
CLASS
  1
ACDBDICTIONARYWDFLT
  2
AcDbDictionaryWithDefault
  3
ObjectDBX Classes
 90
        0
 91
        1
280
     0
281
     0
  0
CLASS
  1
VISUALSTYLE
  2
AcDbVisualStyle
  3
ObjectDBX Classes
 90
     4095
 91
       16
280
     0
281
     0
  0
CLASS
  1
MATERIAL
  2
AcDbMaterial
  3
ObjectDBX Classes
 90
     1153
 91
        3
280
     0
281
     0
  0
CLASS
  1
TABLESTYLE
  2
AcDbTableStyle
  3
ObjectDBX Classes
 90
     4095
 91
        1
280
     0
281
     0
  0
CLASS
  1
SCALE
  2
AcDbScale
  3
ObjectDBX Classes
 90
     1153
 91
       33
280
     0
281
     0
  0
CLASS
  1
MLEADERSTYLE
  2
AcDbMLeaderStyle
  3
ACDB_MLEADERSTYLE_CLASS
 90
     4095
 91
        1
280
     0
281
     0
  0
CLASS
  1
CELLSTYLEMAP
  2
AcDbCellStyleMap
  3
ObjectDBX Classes
 90
     1152
 91
        3
280
     0
281
     0
  0
CLASS
  1
DICTIONARYVAR
  2
AcDbDictionaryVar
  3
ObjectDBX Classes
 90
        0
 91
        8
280
     0
281
     0
  0
CLASS
  1
SORTENTSTABLE
  2
AcDbSortentsTable
  3
ObjectDBX Classes
 90
        0
 91
        1
280
     0
281
     0
  0
CLASS
  1
ACAD_EVALUATION_GRAPH
  2
AcDbEvalGraph
  3
ObjectDBX Classes
 90
     1153
 91
        1
280
     0
281
     0
  0
CLASS
  1
ACAECUSTOBJ
  2
AcAeEditorObj
  3
AcAeEditorObj
 90
     1024
 91
        1
280
     0
281
     0
  0
CLASS
  1
ACDB_DYNAMICBLOCKPURGEPREVENTER_VERSION
  2
AcDbDynamicBlockPurgePreventer
  3
ObjectDBX Classes
 90
     1153
 91
        1
280
     0
281
     0
  0
CLASS
  1
MENTALRAYRENDERSETTINGS
  2
AcDbMentalRayRenderSettings
  3
SCENEOE
 90
     1024
 91
        1
280
     0
281
     0
  0
CLASS
  1
ACDB_BLOCKREPRESENTATION_DATA
  2
AcDbBlockRepresentationData
  3
ObjectDBX Classes
 90
     1153
 91
        0
280
     0
281
     0
  0
CLASS
  1
DIMASSOC
  2
AcDbDimAssoc
  3
"AcDbDimAssoc|Product Desc:     AcDim ARX App For Dimension|Company:          Autodesk, Inc.|WEB Address:      www.autodesk.com"
 90
        0
 91
        1
280
     0
281
     0
  0
CLASS
  1
VLO-VL
  2
vlo_VL
  3
VL|AutoLISP based application
 90
      129
 91
        1
280
     0
281
     0
  0
ENDSEC
  0
SECTION
  2
TABLES
  0
TABLE
  2
VPORT
  5
8
102
{ACAD_XDICTIONARY
360
50EE
102
}
330
0
100
AcDbSymbolTable
 70
     1
  0
VPORT
  5
29
330
8
100
AcDbSymbolTableRecord
100
AcDbViewportTableRecord
  2
*Active
 70
     0
 10
0.0
 20
0.0
 11
1.0
 21
1.0
 12
430.0119385105828
 22
113.9465017109638
 13
0.0
 23
0.0
 14
0.5
 24
0.5
 15
0.5
 25
0.5
 16
0.0
 26
0.0
 36
1.0
 17
104.9654968719086
 27
148.5022307685978
 37
0.0
 40
105.8133020706655
 41
2.203389830508474
 42
50.0
 43
0.0
 44
0.0
 50
0.0
 51
0.0
 71
     0
 72
   100
 73
     1
 74
     3
 75
     0
 76
     0
 77
     0
 78
     0
281
     0
 65
     1
110
0.0
120
0.0
130
0.0
111
1.0
121
0.0
131
0.0
112
0.0
122
1.0
132
0.0
 79
     0
146
0.0
348
2F
 60
     3
 61
     5
292
     1
282
     1
141
0.0
142
0.0
 63
   250
421
  3355443
  0
ENDTAB
  0
TABLE
  2
LTYPE
  5
5
330
0
100
AcDbSymbolTable
 70
     2
  0
LTYPE
  5
14
330
5
100
AcDbSymbolTableRecord
100
AcDbLinetypeTableRecord
  2
ByBlock
 70
     0
  3

 72
    65
 73
     0
 40
0.0
  0
LTYPE
  5
15
330
5
100
AcDbSymbolTableRecord
100
AcDbLinetypeTableRecord
  2
ByLayer
 70
     0
  3

 72
    65
 73
     0
 40
0.0
  0
LTYPE
  5
16
330
5
100
AcDbSymbolTableRecord
100
AcDbLinetypeTableRecord
  2
Continuous
 70
     0
  3
Solid line
 72
    65
 73
     0
 40
0.0
  0
LTYPE
  5
67BA
330
5
100
AcDbSymbolTableRecord
100
AcDbLinetypeTableRecord
  2
CENTER
 70
     0
  3
Center ____ _ ____ _ ____ _ ____ _ ____ _ ____
 72
    65
 73
     4
 40
2.0
 49
1.25
 74
     0
 49
-0.25
 74
     0
 49
0.25
 74
     0
 49
-0.25
 74
     0
  0
ENDTAB
  0
TABLE
  2
LAYER
  5
2
102
{ACAD_XDICTIONARY
360
50B8
102
}
330
0
100
AcDbSymbolTable
 70
     7
  0
LAYER
  5
10
102
{ACAD_XDICTIONARY
360
50D0
102
}
330
2
100
AcDbSymbolTableRecord
100
AcDbLayerTableRecord
  2
0
 70
     0
 62
     7
  6
Continuous
370
    30
390
F
347
4FF6
  0
LAYER
  5
3B
102
{ACAD_XDICTIONARY
360
50D2
102
}
330
2
100
AcDbSymbolTableRecord
100
AcDbLayerTableRecord
  2
图层 1
 70
     0
 62
     7
  6
Continuous
370
    -3
390
F
347
4FF6
  0
LAYER
  5
50AE
102
{ACAD_XDICTIONARY
360
50AF
102
}
330
2
100
AcDbSymbolTableRecord
100
AcDbLayerTableRecord
  2
图框
 70
     0
 62
     7
  6
Continuous
370
    20
390
F
347
4FF6
  0
LAYER
  5
5141
330
2
100
AcDbSymbolTableRecord
100
AcDbLayerTableRecord
  2
Defpoints
 70
     0
 62
     7
  6
Continuous
290
     0
370
    -3
390
F
347
4FF6
  0
LAYER
  5
5144
330
2
100
AcDbSymbolTableRecord
100
AcDbLayerTableRecord
  2
DIM
 70
     0
 62
     3
  6
Continuous
370
    15
390
F
347
4FF6
1001
AcAecLayerStandard
1000

1000

  0
LAYER
  5
52F3
330
2
100
AcDbSymbolTableRecord
100
AcDbLayerTableRecord
  2
打标文字
 70
     0
 62
     3
  6
Continuous
370
    20
390
F
347
4FF6
  0
LAYER
  5
1A670
330
2
100
AcDbSymbolTableRecord
100
AcDbLayerTableRecord
  2
CEN
 70
     0
 62
     1
  6
CENTER
370
    15
390
F
347
4FF6
1001
AcAecLayerStandard
1000

1000

  0
ENDTAB
  0
TABLE
  2
STYLE
  5
3
330
0
100
AcDbSymbolTable
 70
     5
  0
STYLE
  5
11
330
3
100
AcDbSymbolTableRecord
100
AcDbTextStyleTableRecord
  2
Standard
 70
     0
 40
0.0
 41
0.75
 50
0.0
 71
     0
 42
0.2
  3

  4

1001
ACAD
1000
仿宋_GB2312
1071
    34353
  0
STYLE
  5
FD48
330
3
100
AcDbSymbolTableRecord
100
AcDbTextStyleTableRecord
  2
Romans字体
 70
     0
 40
0.0
 41
0.75
 50
0.0
 71
     0
 42
0.2
  3
romans.shx
  4

  0
STYLE
  5
11080
330
3
100
AcDbSymbolTableRecord
100
AcDbTextStyleTableRecord
  2
工程字
 70
     0
 40
0.0
 41
1.0
 50
0.0
 71
     0
 42
3.5
  3
gbenor.shx
  4
gbcbig.shx
  0
STYLE
  5
11081
330
3
100
AcDbSymbolTableRecord
100
AcDbTextStyleTableRecord
  2
Chinese
 70
     0
 40
0.0
 41
1.0
 50
0.0
 71
     0
 42
2.5
  3
PMingLiU.ttf
  4

1001
ACAD
1000
PMingLiU
1071
    34834
  0
ENDTAB
  0
TABLE
  2
VIEW
  5
6
330
0
100
AcDbSymbolTable
 70
     0
  0
ENDTAB
  0
TABLE
  2
UCS
  5
7
330
0
100
AcDbSymbolTable
 70
     0
  0
ENDTAB
  0
TABLE
  2
APPID
  5
9
330
0
100
AcDbSymbolTable
 70
    19
  0
APPID
  5
12
330
9
100
AcDbSymbolTableRecord
100
AcDbRegAppTableRecord
  2
ACAD
 70
     0
  0
APPID
  5
5024
330
9
100
AcDbSymbolTableRecord
100
AcDbRegAppTableRecord
  2
ACAD_MLEADERVER
 70
     0
  0
APPID
  5
50B5
330
9
100
AcDbSymbolTableRecord
100
AcDbRegAppTableRecord
  2
AcDbDynamicBlockGUID
 70
     0
  0
APPID
  5
50B6
330
9
100
AcDbSymbolTableRecord
100
AcDbRegAppTableRecord
  2
AcDbBlockRepETag
 70
     0
  0
APPID
  5
50B7
330
9
100
AcDbSymbolTableRecord
100
AcDbRegAppTableRecord
  2
ACAD_PSEXT
 70
     0
  0
APPID
  5
50CF
330
9
100
AcDbSymbolTableRecord
100
AcDbRegAppTableRecord
  2
AcadAnnoPO
 70
     0
  0
APPID
  5
5146
330
9
100
AcDbSymbolTableRecord
100
AcDbRegAppTableRecord
  2
AcAecLayerStandard
 70
     0
  0
APPID
  5
5147
330
9
100
AcDbSymbolTableRecord
100
AcDbRegAppTableRecord
  2
ACAD_DSTYLE_DIMJAG
 70
     0
  0
APPID
  5
5148
330
9
100
AcDbSymbolTableRecord
100
AcDbRegAppTableRecord
  2
ACAD_DSTYLE_DIMTALN
 70
     0
  0
APPID
  5
52AD
330
9
100
AcDbSymbolTableRecord
100
AcDbRegAppTableRecord
  2
ACAUTHENVIRON
 70
     0
  0
APPID
  5
52B0
330
9
100
AcDbSymbolTableRecord
100
AcDbRegAppTableRecord
  2
AcDbDynamicBlockTrueName
 70
     0
  0
APPID
  5
67C6
330
9
100
AcDbSymbolTableRecord
100
AcDbRegAppTableRecord
  2
ACAD_EXEMPT_FROM_CAD_STANDARDS
 70
     0
  0
APPID
  5
6838
330
9
100
AcDbSymbolTableRecord
100
AcDbRegAppTableRecord
  2
ACAD_NAV_VCDISPLAY
 70
     0
  0
APPID
  5
70A9
330
9
100
AcDbSymbolTableRecord
100
AcDbRegAppTableRecord
  2
DCO15
 70
     0
  0
APPID
  5
8725
330
9
100
AcDbSymbolTableRecord
100
AcDbRegAppTableRecord
  2
AcDbBlockRepBTag
 70
     0
  0
APPID
  5
FE64
330
9
100
AcDbSymbolTableRecord
100
AcDbRegAppTableRecord
  2
ACAD_DSTYLE_DIMRADIAL_EXTENSION
 70
     0
  0
APPID
  5
FF93
330
9
100
AcDbSymbolTableRecord
100
AcDbRegAppTableRecord
  2
ACAD_DSTYLE_DIMBREAK
 70
     0
  0
APPID
  5
14250
330
9
100
AcDbSymbolTableRecord
100
AcDbRegAppTableRecord
  2
GradientColor1ACI
 70
     0
  0
APPID
  5
14251
330
9
100
AcDbSymbolTableRecord
100
AcDbRegAppTableRecord
  2
GradientColor2ACI
 70
     0
  0
ENDTAB
  0
TABLE
  2
DIMSTYLE
  5
A
330
0
100
AcDbSymbolTable
 70
     4
100
AcDbDimStyleTable
 71
     2
340
5145
340
27
  0
DIMSTYLE
105
27
330
A
100
AcDbSymbolTableRecord
100
AcDbDimStyleTableRecord
  2
Standard
 70
     0
340
11
  0
DIMSTYLE
105
5145
102
{ACAD_REACTORS
330
1A15B
330
1A1E6
330
1A1EB
330
1A1E7
330
1A161
102
}
330
A
100
AcDbSymbolTableRecord
100
AcDbDimStyleTableRecord
  2
01
 70
     0
 41
3.0
 42
0.2
 43
0.2
 44
1.199999999999999
 73
     0
 74
     0
 77
     1
 78
     8
 79
     2
140
3.5
141
0.0
147
0.8
176
     1
177
     6
178
     4
179
     2
271
     1
272
     1
340
FD48
1001
ACAD_DSTYLE_DIMJAG
1070
   388
1040
1.5
1001
ACAD_DSTYLE_DIMTALN
1070
   392
1070
     0
  0
DIMSTYLE
105
1A094
102
{ACAD_REACTORS
330
1A4C6
330
1A4D0
102
}
330
A
100
AcDbSymbolTableRecord
100
AcDbDimStyleTableRecord
  2
01$3
 70
     0
 41
2.0
 42
0.0
 43
0.2
 44
0.5
 78
     8
 79
     2
140
2.5
141
0.0
147
0.3
176
     1
177
     6
178
     4
179
     2
271
     2
272
     2
340
FD48
1001
ACAD_DSTYLE_DIMJAG
1070
   388
1040
1.5
1001
ACAD_DSTYLE_DIMTALN
1070
   392
1070
     0
  0
ENDTAB
  0
TABLE
  2
BLOCK_RECORD
  5
1
330
0
100
AcDbSymbolTable
 70
    11
  0
BLOCK_RECORD
  5
1F
102
{ACAD_XDICTIONARY
360
67C0
102
}
330
1
100
AcDbSymbolTableRecord
100
AcDbBlockTableRecord
  2
*Model_Space
340
22
 70
     0
280
     1
281
     0
  0
BLOCK_RECORD
  5
1B
330
1
100
AcDbSymbolTableRecord
100
AcDbBlockTableRecord
  2
*Paper_Space
340
1E
 70
     0
280
     1
281
     0
  0
BLOCK_RECORD
  5
23
330
1
100
AcDbSymbolTableRecord
100
AcDbBlockTableRecord
  2
*Paper_Space0
340
26
 70
     0
280
     1
281
     0
  0
BLOCK_RECORD
  5
10FE8
102
{ACAD_XDICTIONARY
360
1AB6A
102
}
330
1
100
AcDbSymbolTableRecord
100
AcDbBlockTableRecord
  2
A4图框-NEW
340
0
310
2800000020000000200000000100080000000000000400000000000000000000000000000000000000000000000080000080000000808000800000008000800080800000C0C0C000C0DCC000F0CAA6000020400000206000002080000020A0000020C0000020E00000400000004020000040400000406000004080000040A0
310
000040C0000040E00000600000006020000060400000606000006080000060A0000060C0000060E00000800000008020000080400000806000008080000080A0000080C0000080E00000A0000000A0200000A0400000A0600000A0800000A0A00000A0C00000A0E00000C0000000C0200000C0400000C0600000C0800000C0
310
A00000C0C00000C0E00000E0000000E0200000E0400000E0600000E0800000E0A00000E0C00000E0E00040000000400020004000400040006000400080004000A0004000C0004000E00040200000402020004020400040206000402080004020A0004020C0004020E000404000004040200040404000404060004040800040
310
40A0004040C0004040E00040600000406020004060400040606000406080004060A0004060C0004060E00040800000408020004080400040806000408080004080A0004080C0004080E00040A0000040A0200040A0400040A0600040A0800040A0A00040A0C00040A0E00040C0000040C0200040C0400040C0600040C08000
310
40C0A00040C0C00040C0E00040E0000040E0200040E0400040E0600040E0800040E0A00040E0C00040E0E00080000000800020008000400080006000800080008000A0008000C0008000E00080200000802020008020400080206000802080008020A0008020C0008020E00080400000804020008040400080406000804080
310
008040A0008040C0008040E00080600000806020008060400080606000806080008060A0008060C0008060E00080800000808020008080400080806000808080008080A0008080C0008080E00080A0000080A0200080A0400080A0600080A0800080A0A00080A0C00080A0E00080C0000080C0200080C0400080C0600080C0
310
800080C0A00080C0C00080C0E00080E0000080E0200080E0400080E0600080E0800080E0A00080E0C00080E0E000C0000000C0002000C0004000C0006000C0008000C000A000C000C000C000E000C0200000C0202000C0204000C0206000C0208000C020A000C020C000C020E000C0400000C0402000C0404000C0406000C0
310
408000C040A000C040C000C040E000C0600000C0602000C0604000C0606000C0608000C060A000C060C000C060E000C0800000C0802000C0804000C0806000C0808000C080A000C080C000C080E000C0A00000C0A02000C0A04000C0A06000C0A08000C0A0A000C0A0C000C0A0E000C0C00000C0C02000C0C04000C0C06000
310
C0C08000C0C0A000F0FBFF00A4A0A000808080000000FF0000FF000000FFFF00FF000000FF00FF00FFFF0000FFFFFF0000000000000000000000000000000000000000000000000000000000000000000000000000000000000000000000000000000000000000000000000000000000000000000000000000000000000000
310
000000000000000000000000000000000000000000000000000000000000000000000000000000000000000000000000000000000000000000000000000000000000000000000000000000000000000000000000000000000000000000000000000000000000000000000000000000000000F9F9F9F9F9F9F9F9F9F9F9F9F9
310
F9F9F9F9F9F9F9F9F9F9F9F9F9F9FF00000000F9FF000000000000000000FFFFFFFFFFFFFFFFFFFFFFFFF9FAFAFAFF00000000F9FF000000000000000000FFFFFFFFFFFFFFFFFFFFFFFFFFFFFFFFFF00000000F9FD000000000000000000FFFFFFFFFFFFFFFFFFFFFFFFFFFFFFFFFF00000000F9FF000000000000000000FF
310
FFFFFFFFFFFFFFFFFFFFFFFFFFFFFFFF00000000F9FD000000000000000000FFFFFFFFFFFFFFFFFFFFFFFFFFFFFFFFFF00000000F9FF00000000000000000000000000000000000000000000000000FF00000000F9FD00000000000000000000000000000000000000000000000000FF00000000F9FF000000000000000000
310
00000000000000000000000000000000FF00000000F9FD00000000000000000000000000000000000000000000000000FF00000000F9FF00000000000000000000000000000000000000000000000000FF00000000F9FD00000000000000000000000000000000000000000000000000FF00000000F9FD0000000000000000
310
0000000000000000000000000000000000FF00000000F9FF00000000000000000000000000000000000000000000000000FF00000000F9FD00000000000000000000000000000000000000000000000000FF00000000F9FF00000000000000000000000000000000000000000000000000FF00000000F9FD00000000000000
310
000000000000000000000000000000000000FF00000000F9FF00000000000000000000000000000000000000000000000000FF00000000F9FFFFFFFFFFFFFFFFFFFFFFFFFFFFFFFFFFFFFFFFFFFFFFFFFFFFFF00000000F9FFFFFFF9F9F9F9F9F9F9F9F9F9F9F9F9F9F9F9F9F9F9F9F9F9F9F9000000000000000000000000
310
00000000000000000000000000000000000000000000000000000000000000000000000000000000000000000000000000000000000000000000000000000000000000000000000000000000000000000000000000000000000000000000000000000000000000000000000000000000000000000000000000000000000000
310
0000000000000000000000000000000000000000000000000000000000000000000000000000000000000000000000000000000000000000
102
{BLKREFS
331
11089
102
}
 70
     4
280
     1
281
     0
1001
AcDbDynamicBlockGUID
1000
{D22E98F2-B91E-438A-B477-6A57D93D8824}
1001
AcDbBlockRepETag
1070
     1
1071
      149
  0
BLOCK_RECORD
  5
1A21A
330
1
100
AcDbSymbolTableRecord
100
AcDbBlockTableRecord
  2
*D2
340
0
 70
     0
280
     1
281
     0
  0
BLOCK_RECORD
  5
1A227
330
1
100
AcDbSymbolTableRecord
100
AcDbBlockTableRecord
  2
*D3
340
0
 70
     0
280
     1
281
     0
  0
BLOCK_RECORD
  5
1A233
330
1
100
AcDbSymbolTableRecord
100
AcDbBlockTableRecord
  2
*D4
340
0
 70
     0
280
     1
281
     0
  0
BLOCK_RECORD
  5
1A240
330
1
100
AcDbSymbolTableRecord
100
AcDbBlockTableRecord
  2
*D5
340
0
 70
     0
280
     1
281
     0
  0
BLOCK_RECORD
  5
1A24C
330
1
100
AcDbSymbolTableRecord
100
AcDbBlockTableRecord
  2
*D6
340
0
 70
     0
280
     1
281
     0
  0
BLOCK_RECORD
  5
1A4C7
330
1
100
AcDbSymbolTableRecord
100
AcDbBlockTableRecord
  2
*D7
340
0
 70
     0
280
     1
281
     0
  0
BLOCK_RECORD
  5
1A4D1
330
1
100
AcDbSymbolTableRecord
100
AcDbBlockTableRecord
  2
*D8
340
0
 70
     0
280
     1
281
     0
  0
ENDTAB
  0
ENDSEC
  0
SECTION
  2
BLOCKS
  0
BLOCK
  5
20
330
1F
100
AcDbEntity
  8
0
100
AcDbBlockBegin
  2
*Model_Space
 70
     0
 10
0.0
 20
0.0
 30
0.0
  3
*Model_Space
  1

  0
ENDBLK
  5
21
330
1F
100
AcDbEntity
  8
0
100
AcDbBlockEnd
  0
BLOCK
  5
1C
330
1B
100
AcDbEntity
 67
     1
  8
0
100
AcDbBlockBegin
  2
*Paper_Space
 70
     0
 10
0.0
 20
0.0
 30
0.0
  3
*Paper_Space
  1

  0
ENDBLK
  5
1D
330
1B
100
AcDbEntity
 67
     1
  8
0
100
AcDbBlockEnd
  0
BLOCK
  5
24
330
23
100
AcDbEntity
 67
     1
  8
0
100
AcDbBlockBegin
  2
*Paper_Space0
 70
     0
 10
0.0
 20
0.0
 30
0.0
  3
*Paper_Space0
  1

  0
ENDBLK
  5
25
330
23
100
AcDbEntity
 67
     1
  8
0
100
AcDbBlockEnd
  0
BLOCK
  5
10FEA
330
10FE8
100
AcDbEntity
  8
0
100
AcDbBlockBegin
  2
A4图框-NEW
 70
     0
 10
0.0
 20
0.0
 30
0.0
  3
A4图框-NEW
  1

  0
MTEXT
  5
1AAD5
102
{ACAD_XDICTIONARY
360
1AB96
102
}
330
10FE8
100
AcDbEntity
  8
图框
 62
     3
100
AcDbMText
 10
967.6594956750133
 20
499.7664151964293
 30
0.0
 40
2.985513575034151
 41
15.50176341157864
 46
6.292658374511018
 71
     5
 72
     5
  1
BQ LUO
  7
Romans字体
 73
     1
 44
1.0
1001
AcDbBlockRepETag
1070
     1
1071
        0
1005
1AAD5
1001
ACAD
1000
ACAD_MTEXT_DEFINED_HEIGHT_BEGIN
1070
    46
1040
6.292658374511018
1000
ACAD_MTEXT_DEFINED_HEIGHT_END
  0
MTEXT
  5
1AAD6
330
10FE8
100
AcDbEntity
  8
图框
 62
     3
100
AcDbMText
 10
983.041569333247
 20
499.7664151964293
 30
0.0
 40
2.487927979195124
 41
15.26238390489051
 46
6.292658374511042
 71
     5
 72
     5
  1
{\W0.7;18.10.2010}
  7
Romans字体
 73
     1
 44
1.0
1001
AcDbBlockRepETag
1070
     1
1071
        1
1005
1AAD6
1001
ACAD
1000
ACAD_MTEXT_DEFINED_HEIGHT_BEGIN
1070
    46
1040
6.292658374511042
1000
ACAD_MTEXT_DEFINED_HEIGHT_END
  0
MTEXT
  5
1AAD7
330
10FE8
100
AcDbEntity
  8
图框
 62
     3
100
AcDbMText
 10
1012.477254728976
 20
487.1810984474071
 30
0.0
 40
2.985513575034151
 41
17.64876416884615
 46
6.292658374511455
 71
     5
 72
     5
  1
YY LIN
  7
Romans字体
 73
     1
 44
1.0
1001
AcDbBlockRepETag
1070
     1
1071
        2
1005
1AAD7
1001
ACAD
1000
ACAD_MTEXT_DEFINED_HEIGHT_BEGIN
1070
    46
1040
6.292658374511455
1000
ACAD_MTEXT_DEFINED_HEIGHT_END
  0
MTEXT
  5
1AAD8
330
10FE8
100
AcDbEntity
  8
图框
 62
     3
100
AcDbMText
 10
1028.977802139886
 20
487.1810984474071
 30
0.0
 40
2.487927979195124
 41
15.35233065297276
 46
6.292658374511495
 71
     5
 72
     5
  1
{\W0.7;18.10.2010}
  7
Romans字体
 73
     1
 44
1.0
1001
AcDbBlockRepETag
1070
     1
1071
        3
1005
1AAD8
1001
ACAD
1000
ACAD_MTEXT_DEFINED_HEIGHT_BEGIN
1070
    46
1040
6.292658374511495
1000
ACAD_MTEXT_DEFINED_HEIGHT_END
  0
MTEXT
  5
1AAD9
330
10FE8
100
AcDbEntity
  8
图框
 62
     3
100
AcDbMText
 10
1063.722665487208
 20
525.4145966538831
 30
0.0
 40
2.985513575034151
 41
32.4973914334545
 46
11.82914190181707
 71
     5
 72
     5
  1
-
  7
Romans字体
 73
     1
 44
1.0
1001
AcDbBlockRepETag
1070
     1
1071
        4
1005
1AAD9
1001
ACAD
1000
ACAD_MTEXT_DEFINED_HEIGHT_BEGIN
1070
    46
1040
11.82914190181707
1000
ACAD_MTEXT_DEFINED_HEIGHT_END
  0
MTEXT
  5
1AADA
330
10FE8
100
AcDbEntity
  8
图框
 62
     3
100
AcDbMText
 10
1063.727338552349
 20
513.5854547520641
 30
0.0
 40
2.985513575034151
 41
32.48804530317308
 46
11.82914190182139
 71
     5
 72
     5
  1
-
  7
Romans字体
 73
     1
 44
1.0
1001
AcDbBlockRepETag
1070
     1
1071
        5
1005
1AADA
1001
ACAD
1000
ACAD_MTEXT_DEFINED_HEIGHT_BEGIN
1070
    46
1040
11.82914190182139
1000
ACAD_MTEXT_DEFINED_HEIGHT_END
  0
MTEXT
  5
1AADB
330
10FE8
100
AcDbEntity
  8
图框
 62
     3
100
AcDbMText
 10
1110.122306614152
 20
526.8006839312707
 30
0.0
 40
2.985513575034151
 41
33.61239199242139
 46
9.05696734704178
 71
     5
 72
     5
  1
-
  7
Romans字体
 73
     1
 44
1.0
1001
AcDbBlockRepETag
1070
     1
1071
        6
1005
1AADB
1001
ACAD
1000
ACAD_MTEXT_DEFINED_HEIGHT_BEGIN
1070
    46
1040
9.05696734704178
1000
ACAD_MTEXT_DEFINED_HEIGHT_END
  0
MTEXT
  5
1AADC
330
10FE8
100
AcDbEntity
  8
图框
 62
     3
100
AcDbMText
 10
1110.122306614152
 20
500.2775205517162
 30
0.0
 40
2.985513575034151
 41
33.61239199242139
 46
8.871557304763419
 71
     5
 72
     5
  1
-
  7
Romans字体
 73
     1
 44
1.0
1001
AcDbBlockRepETag
1070
     1
1071
        7
1005
1AADC
1001
ACAD
1000
ACAD_MTEXT_DEFINED_HEIGHT_BEGIN
1070
    46
1040
8.871557304763419
1000
ACAD_MTEXT_DEFINED_HEIGHT_END
  0
MTEXT
  5
1AADD
330
10FE8
100
AcDbEntity
  8
图框
 62
     3
100
AcDbMText
 10
967.6594956750133
 20
493.4737568219182
 30
0.0
 40
2.985513575034151
 41
15.50176341157864
 46
6.292658374510335
 71
     5
 72
     5
  1
P RAO
  7
Romans字体
 73
     1
 44
1.0
1001
AcDbBlockRepETag
1070
     1
1071
        8
1005
1AADD
1001
ACAD
1000
ACAD_MTEXT_DEFINED_HEIGHT_BEGIN
1070
    46
1040
6.292658374510335
1000
ACAD_MTEXT_DEFINED_HEIGHT_END
  0
MTEXT
  5
1AADE
330
10FE8
100
AcDbEntity
  8
图框
 62
     3
100
AcDbMText
 10
983.041569333247
 20
493.2441970450405
 30
0.0
 40
2.487927979195124
 41
15.26238390489051
 46
6.751777928266487
 71
     5
 72
     5
  1
{\W0.7;18.10.2010}
  7
Romans字体
 73
     1
 44
1.0
1001
AcDbBlockRepETag
1070
     1
1071
        9
1005
1AADE
1001
ACAD
1000
ACAD_MTEXT_DEFINED_HEIGHT_BEGIN
1070
    46
1040
6.751777928266487
1000
ACAD_MTEXT_DEFINED_HEIGHT_END
  0
MTEXT
  5
1AADF
330
10FE8
100
AcDbEntity
  8
图框
 62
     3
100
AcDbMText
 10
1012.477254728976
 20
499.7664151964291
 30
0.0
 40
2.985513575034151
 41
17.64876416884615
 46
6.292658374511397
 71
     5
 72
     5
  1
-
  7
Romans字体
 73
     1
 44
1.0
1001
AcDbBlockRepETag
1070
     1
1071
       10
1005
1AADF
1001
ACAD
1000
ACAD_MTEXT_DEFINED_HEIGHT_BEGIN
1070
    46
1040
6.292658374511397
1000
ACAD_MTEXT_DEFINED_HEIGHT_END
  0
MTEXT
  5
1AAE0
330
10FE8
100
AcDbEntity
  8
图框
 62
     3
100
AcDbMText
 10
1028.977802139886
 20
499.7664151964289
 30
0.0
 40
2.487927979195124
 41
15.35233065297265
 46
6.292658374511382
 71
     5
 72
     5
  1
-
  7
Romans字体
 73
     1
 44
1.0
1001
AcDbBlockRepETag
1070
     1
1071
       11
1005
1AAE0
1001
ACAD
1000
ACAD_MTEXT_DEFINED_HEIGHT_BEGIN
1070
    46
1040
6.292658374511382
1000
ACAD_MTEXT_DEFINED_HEIGHT_END
  0
MTEXT
  5
1AAE1
330
10FE8
100
AcDbEntity
  8
图框
 62
     3
100
AcDbMText
 10
967.6594956750133
 20
487.1810984474071
 30
0.0
 40
2.985513575034151
 41
15.50176341157863
 46
6.292658374511478
 71
     5
 72
     5
  1
-
  7
Romans字体
 73
     1
 44
1.0
1001
AcDbBlockRepETag
1070
     1
1071
       12
1005
1AAE1
1001
ACAD
1000
ACAD_MTEXT_DEFINED_HEIGHT_BEGIN
1070
    46
1040
6.292658374511478
1000
ACAD_MTEXT_DEFINED_HEIGHT_END
  0
MTEXT
  5
1AAE2
330
10FE8
100
AcDbEntity
  8
图框
 62
     3
100
AcDbMText
 10
983.041569333247
 20
487.1810984474071
 30
0.0
 40
2.487927979195124
 41
15.26238390489062
 46
6.292658374511495
 71
     5
 72
     5
  1
-
  7
Romans字体
 73
     1
 44
1.0
1001
AcDbBlockRepETag
1070
     1
1071
       13
1005
1AAE2
1001
ACAD
1000
ACAD_MTEXT_DEFINED_HEIGHT_BEGIN
1070
    46
1040
6.292658374511495
1000
ACAD_MTEXT_DEFINED_HEIGHT_END
  0
MTEXT
  5
1AAE3
330
10FE8
100
AcDbEntity
  8
图框
 62
     3
100
AcDbMText
 10
1074.556686986741
 20
495.8417418993361
 30
0.0
 40
2.985513575034151
 41
10.82934843438978
 46
7.886094601210427
 71
     5
 72
     5
  1
-
  7
Romans字体
 73
     1
 44
1.0
1001
AcDbBlockRepETag
1070
     1
1071
       14
1005
1AAE3
1001
ACAD
1000
ACAD_MTEXT_DEFINED_HEIGHT_BEGIN
1070
    46
1040
7.886094601210427
1000
ACAD_MTEXT_DEFINED_HEIGHT_END
  0
LINE
  5
1AAE4
330
10FE8
100
AcDbEntity
  8
图框
370
    -3
100
AcDbLine
 10
1036.653967466372
 20
499.7847891999413
 30
0.0
 11
1079.971361203936
 21
499.7847891999413
 31
0.0
1001
AcDbBlockRepETag
1070
     1
1071
       15
1005
1AAE4
  0
MTEXT
  5
1AAE5
330
10FE8
100
AcDbEntity
  8
图框
 62
     1
370
    20
100
AcDbMText
 10
1108.26336443907
 20
491.5162596080882
 30
0.0
 40
2.699054613030988
 41
82.30831305643079
 46
0.0
 71
     5
 72
     5
  1
{\fSimHei|b0|i0|c134|p2;厦门唯恩电气有限公司}
 73
     1
 44
1.0
1001
AcDbBlockRepETag
1070
     1
1071
       16
1005
1AAE5
  0
MTEXT
  5
1AAE6
330
10FE8
100
AcDbEntity
  8
图框
 62
     3
370
    20
100
AcDbMText
 10
1108.435451459908
 20
487.298967726064
 30
0.0
 40
1.652482416141417
 41
68.08558693693567
 46
0.0
 71
     5
 72
     5
  1
{\fArial Narrow|b0|i0|c0|p34;XIAMEN WAIN ELECTRICAL CO.LTD}
  7
工程字
 73
     1
 44
1.0
1001
AcDbBlockRepETag
1070
     1
1071
       17
1005
1AAE6
  0
MTEXT
  5
1AAE7
330
10FE8
100
AcDbEntity
  8
图框
 62
     1
370
    20
100
AcDbMText
 10
1085.711816899387
 20
491.0944802995856
 30
0.0
 40
2.005930044038334
 41
5.047240019334847
 46
0.0
 71
     1
 72
     5
  1
{\fArial|b0|i0|c0|p34;A}
  7
Chinese
 73
     1
 44
1.0
1001
AcDbBlockRepETag
1070
     1
1071
       18
1005
1AAE7
  0
MTEXT
  5
1AAE8
330
10FE8
100
AcDbEntity
  8
图框
 62
     1
370
    20
100
AcDbMText
 10
1088.213485935716
 20
491.0944802995856
 30
0.0
 40
2.005930044038334
 41
5.047240019334847
 46
0.0
 71
     1
 72
     5
  1
{\fArial|b0|i0|c0|p34;I}
  7
Chinese
 73
     1
 44
1.0
1001
AcDbBlockRepETag
1070
     1
1071
       19
1005
1AAE8
  0
MTEXT
  5
1AAE9
330
10FE8
100
AcDbEntity
  8
图框
 62
     1
370
    20
100
AcDbMText
 10
1089.142375222864
 20
491.0822866326808
 30
0.0
 40
2.005930044038334
 41
5.047240019334847
 46
0.0
 71
     1
 72
     5
  1
{\fArial|b0|i0|c0|p34;N}
  7
Chinese
 73
     1
 44
1.0
1001
AcDbBlockRepETag
1070
     1
1071
       20
1005
1AAE9
  0
MTEXT
  5
1AAEA
330
10FE8
100
AcDbEntity
  8
图框
100
AcDbMText
 10
1069.142012769545
 20
487.9667319294409
 30
0.0
 40
2.252848170144607
 41
21.65869686878327
 46
7.863925338579296
 71
     5
 72
     5
  1
{\W0.5;\C1;All Dimensions in mm\POriginal Size DIN A 4}
  7
Romans字体
 73
     1
 44
1.0
1001
AcDbBlockRepETag
1070
     1
1071
       21
1005
1AAEA
1001
ACAD
1000
ACAD_MTEXT_DEFINED_HEIGHT_BEGIN
1070
    46
1040
7.863925338579296
1000
ACAD_MTEXT_DEFINED_HEIGHT_END
  0
MTEXT
  5
1AAEB
330
10FE8
100
AcDbEntity
  8
图框
  6
ByBlock
 62
     6
370
    18
100
AcDbMText
 10
1127.40434942308
 20
508.7896535755975
 30
0.0
 40
2.651776162684904
 41
2.557913877927211
 46
0.0
 71
     1
 72
     5
  1
A
  7
Romans字体
 11
0.0000000000000001
 21
1.0
 31
0.0
 73
     1
 44
1.0
1001
AcDbBlockRepETag
1070
     1
1071
       22
1005
1AAEB
  0
MTEXT
  5
1AAEC
330
10FE8
100
AcDbEntity
  8
图框
 62
     6
100
AcDbMText
 10
1127.40434942308
 20
556.3746573232886
 30
0.0
 40
2.651776162684904
 41
2.557913877927211
 46
0.0
 71
     1
 72
     5
  1
B
  7
Romans字体
 11
0.0000000000000001
 21
1.0
 31
0.0
 73
     1
 44
1.0
1001
AcDbBlockRepETag
1070
     1
1071
       23
1005
1AAEC
  0
MTEXT
  5
1AAED
330
10FE8
100
AcDbEntity
  8
图框
 62
     6
100
AcDbMText
 10
1127.40434942308
 20
607.5539372630998
 30
0.0
 40
2.651776162684904
 41
2.557913877927211
 46
0.0
 71
     1
 72
     5
  1
C
  7
Romans字体
 11
0.0000000000000001
 21
1.0
 31
0.0
 73
     1
 44
1.0
1001
AcDbBlockRepETag
1070
     1
1071
       24
1005
1AAED
  0
MTEXT
  5
1AAEE
330
10FE8
100
AcDbEntity
  8
图框
 62
     6
100
AcDbMText
 10
1127.40434942308
 20
658.7332172029115
 30
0.0
 40
2.651776162684904
 41
2.557913877927211
 46
0.0
 71
     1
 72
     5
  1
D
  7
Romans字体
 11
0.0000000000000001
 21
1.0
 31
0.0
 73
     1
 44
1.0
1001
AcDbBlockRepETag
1070
     1
1071
       25
1005
1AAEE
  0
LINE
  5
1AAEF
330
10FE8
100
AcDbEntity
  8
图框
 62
     6
100
AcDbLine
 10
1130.411601781241
 20
634.0726090796082
 30
0.0
 11
1126.928502610363
 21
634.0726090796082
 31
0.0
1001
AcDbBlockRepETag
1070
     1
1071
       26
1005
1AAEF
  0
LINE
  5
1AAF0
330
10FE8
100
AcDbEntity
  8
图框
 62
     6
100
AcDbLine
 10
1130.411601781241
 20
582.89332913979
 30
0.0
 11
1126.928502610363
 21
582.89332913979
 31
0.0
1001
AcDbBlockRepETag
1070
     1
1071
       27
1005
1AAF0
  0
MTEXT
  5
1AAF1
330
10FE8
100
AcDbEntity
  8
图框
 62
     6
100
AcDbMText
 10
1105.329704038389
 20
483.6164543011163
 30
0.0
 40
2.651776162684904
 41
2.557913877927211
 46
0.0
 71
     1
 72
     5
  1
6
  7
Romans字体
 73
     1
 44
1.0
1001
AcDbBlockRepETag
1070
     1
1071
       28
1005
1AAF1
  0
LINE
  5
1AAF2
330
10FE8
100
AcDbEntity
  8
图框
 62
     6
100
AcDbLine
 10
1081.088565155284
 20
484.0347692601515
 30
0.0
 11
1081.088565155284
 21
480.5347692601475
 31
0.0
1001
AcDbBlockRepETag
1070
     1
1071
       29
1005
1AAF2
  0
MTEXT
  5
1AAF3
330
10FE8
100
AcDbEntity
  8
图框
 62
     6
100
AcDbMText
 10
1055.900596365941
 20
483.520053108993
 30
0.0
 40
2.651776162684904
 41
2.557913877927211
 46
0.0
 71
     1
 72
     5
  1
5
  7
Romans字体
 73
     1
 44
1.0
1001
AcDbBlockRepETag
1070
     1
1071
       30
1005
1AAF3
  0
LINE
  5
1AAF4
330
10FE8
100
AcDbEntity
  8
图框
 62
     6
100
AcDbLine
 10
1031.553386436349
 20
484.0347692601515
 30
0.0
 11
1031.553386436349
 21
480.5347692601475
 31
0.0
1001
AcDbBlockRepETag
1070
     1
1071
       31
1005
1AAF4
  0
MTEXT
  5
1AAF5
330
10FE8
100
AcDbEntity
  8
图框
 62
     6
100
AcDbMText
 10
1006.383180575197
 20
483.5687958215896
 30
0.0
 40
2.651776162684904
 41
2.557913877927211
 46
0.0
 71
     1
 72
     5
  1
4
  7
Romans字体
 73
     1
 44
1.0
1001
AcDbBlockRepETag
1070
     1
1071
       32
1005
1AAF5
  0
LINE
  5
1AAF6
330
10FE8
100
AcDbEntity
  8
图框
 62
     6
100
AcDbLine
 10
982.0182077173887
 20
484.0347692601515
 30
0.0
 11
982.0182077173887
 21
480.5347692601475
 31
0.0
1001
AcDbBlockRepETag
1070
     1
1071
       33
1005
1AAF6
  0
MTEXT
  5
1AAF7
330
10FE8
100
AcDbEntity
  8
图框
 62
     6
100
AcDbMText
 10
956.8302389280352
 20
483.5989680297948
 30
0.0
 40
2.651776162684904
 41
2.557913877927211
 46
0.0
 71
     1
 72
     5
  1
3
  7
Romans字体
 73
     1
 44
1.0
1001
AcDbBlockRepETag
1070
     1
1071
       34
1005
1AAF7
  0
LINE
  5
1AAF8
330
10FE8
100
AcDbEntity
  8
图框
 62
     6
100
AcDbLine
 10
932.4830289984245
 20
484.0347692601515
 30
0.0
 11
932.4830289984245
 21
480.5347692601475
 31
0.0
1001
AcDbBlockRepETag
1070
     1
1071
       35
1005
1AAF8
  0
MTEXT
  5
1AAF9
330
10FE8
100
AcDbEntity
  8
图框
 62
     6
100
AcDbMText
 10
906.0252349826365
 20
483.6475250013156
 30
0.0
 40
2.651776162684904
 41
2.557913877927211
 46
0.0
 71
     1
 72
     5
  1
2
  7
Romans字体
 73
     1
 44
1.0
1001
AcDbBlockRepETag
1070
     1
1071
       36
1005
1AAF9
  0
LINE
  5
1AAFA
330
10FE8
100
AcDbEntity
  8
图框
 62
     6
100
AcDbLine
 10
882.9478502794648
 20
484.0347692601515
 30
0.0
 11
882.9478502794648
 21
480.5347692601475
 31
0.0
1001
AcDbBlockRepETag
1070
     1
1071
       37
1005
1AAFA
  0
MTEXT
  5
1AAFB
330
10FE8
100
AcDbEntity
  8
图框
 62
     6
100
AcDbMText
 10
857.7598814901191
 20
483.651829494754
 30
0.0
 40
2.651776162684904
 41
2.557913877927211
 46
0.0
 71
     1
 72
     5
  1
1
  7
Romans字体
 73
     1
 44
1.0
1001
AcDbBlockRepETag
1070
     1
1071
       38
1005
1AAFB
  0
LINE
  5
1AAFC
330
10FE8
100
AcDbEntity
  8
图框
370
    50
100
AcDbLine
 10
836.8548209370597
 20
484.0347692601515
 30
0.0
 11
1126.928502610363
 21
484.0347692601515
 31
0.0
1001
AcDbBlockRepETag
1070
     1
1071
       39
1005
1AAFC
  0
LINE
  5
1AAFD
330
10FE8
100
AcDbEntity
  8
图框
370
    50
100
AcDbLine
 10
836.9128518455362
 20
484.0178684310246
 30
0.0
 11
836.9128518455394
 21
675.0207195125422
 31
0.0
1001
AcDbBlockRepETag
1070
     1
1071
       40
1005
1AAFD
  0
MTEXT
  5
1AAFE
330
10FE8
100
AcDbEntity
  8
图框
 62
     6
100
AcDbMText
 10
833.8475685789031
 20
658.7332172029115
 30
0.0
 40
2.651776162684904
 41
2.557913877927211
 46
0.0
 71
     1
 72
     5
  1
D
  7
Romans字体
 11
0.0000000000000001
 21
1.0
 31
0.0
 73
     1
 44
1.0
1001
AcDbBlockRepETag
1070
     1
1071
       41
1005
1AAFE
  0
LINE
  5
1AAFF
330
10FE8
100
AcDbEntity
  8
图框
 62
     6
100
AcDbLine
 10
836.9128518455386
 20
634.0726090796082
 30
0.0
 11
833.4128518455365
 21
634.0726090796082
 31
0.0
1001
AcDbBlockRepETag
1070
     1
1071
       42
1005
1AAFF
  0
MTEXT
  5
1AB00
330
10FE8
100
AcDbEntity
  8
图框
 62
     6
100
AcDbMText
 10
833.9039177480142
 20
607.5539372630998
 30
0.0
 40
2.651776162684904
 41
2.557913877927211
 46
0.0
 71
     1
 72
     5
  1
C
  7
Romans字体
 11
0.0000000000000001
 21
1.0
 31
0.0
 73
     1
 44
1.0
1001
AcDbBlockRepETag
1070
     1
1071
       43
1005
1AB00
  0
LINE
  5
1AB01
330
10FE8
100
AcDbEntity
  8
图框
 62
     6
100
AcDbLine
 10
836.9128518455378
 20
582.89332913979
 30
0.0
 11
833.4128518455365
 21
582.89332913979
 31
0.0
1001
AcDbBlockRepETag
1070
     1
1071
       44
1005
1AB01
  0
MTEXT
  5
1AB02
330
10FE8
100
AcDbEntity
  8
图框
 62
     6
100
AcDbMText
 10
833.9039177480142
 20
556.3746573232886
 30
0.0
 40
2.651776162684904
 41
2.557913877927211
 46
0.0
 71
     1
 72
     5
  1
B
  7
Romans字体
 11
0.0000000000000001
 21
1.0
 31
0.0
 73
     1
 44
1.0
1001
AcDbBlockRepETag
1070
     1
1071
       45
1005
1AB02
  0
LINE
  5
1AB03
330
10FE8
100
AcDbEntity
  8
图框
 62
     6
100
AcDbLine
 10
836.9128518455367
 20
531.714049199969
 30
0.0
 11
833.4128518455365
 21
531.714049199969
 31
0.0
1001
AcDbBlockRepETag
1070
     1
1071
       46
1005
1AB03
  0
MTEXT
  5
1AB04
330
10FE8
100
AcDbEntity
  8
图框
 62
     6
100
AcDbMText
 10
833.9039177480142
 20
508.7896535755975
 30
0.0
 40
2.651776162684904
 41
2.557913877927211
 46
0.0
 71
     1
 72
     5
  1
A
  7
Romans字体
 11
0.0000000000000001
 21
1.0
 31
0.0
 73
     1
 44
1.0
1001
AcDbBlockRepETag
1070
     1
1071
       47
1005
1AB04
  0
LINE
  5
1AB05
330
10FE8
100
AcDbEntity
  8
图框
370
    -3
100
AcDbLine
 10
836.9128518455394
 20
675.0207195125422
 30
0.0
 11
836.9128518455394
 21
684.5021384922564
 31
0.0
1001
AcDbBlockRepETag
1070
     1
1071
       48
1005
1AB05
  0
LINE
  5
1AB06
330
10FE8
100
AcDbEntity
  8
图框
370
    -3
100
AcDbLine
 10
842.6237321475781
 20
675.5347692601515
 30
0.0
 11
842.6237321475781
 21
685.0161882398658
 31
0.0
1001
AcDbBlockRepETag
1070
     1
1071
       49
1005
1AB06
  0
LINE
  5
1AB07
330
10FE8
100
AcDbEntity
  8
图框
370
    -3
100
AcDbLine
 10
848.3346124496179
 20
675.5347692601515
 30
0.0
 11
848.3346124496179
 21
685.0161882398658
 31
0.0
1001
AcDbBlockRepETag
1070
     1
1071
       50
1005
1AB07
  0
LINE
  5
1AB08
330
10FE8
100
AcDbEntity
  8
图框
370
    -3
100
AcDbLine
 10
854.0454927516588
 20
675.5347692601515
 30
0.0
 11
854.0454927516588
 21
685.0161882398658
 31
0.0
1001
AcDbBlockRepETag
1070
     1
1071
       51
1005
1AB08
  0
LINE
  5
1AB09
330
10FE8
100
AcDbEntity
  8
图框
370
    -3
100
AcDbLine
 10
861.5351874539182
 20
675.5347692601515
 30
0.0
 11
861.5351874539182
 21
686.7901958362482
 31
0.0
1001
AcDbBlockRepETag
1070
     1
1071
       52
1005
1AB09
  0
MTEXT
  5
1AB0A
330
10FE8
100
AcDbEntity
  8
图框
 62
     6
100
AcDbMText
 10
1105.329704038389
 20
678.859919059449
 30
0.0
 40
2.651776162684904
 41
2.557913877927211
 46
0.0
 71
     1
 72
     5
  1
6
  7
Romans字体
 73
     1
 44
1.0
1001
AcDbBlockRepETag
1070
     1
1071
       53
1005
1AB0A
  0
LINE
  5
1AB0B
330
10FE8
100
AcDbEntity
  8
图框
 62
     6
100
AcDbLine
 10
1081.088565155284
 20
679.0347692601516
 30
0.0
 11
1081.088565155284
 21
675.5347692601515
 31
0.0
1001
AcDbBlockRepETag
1070
     1
1071
       54
1005
1AB0B
  0
MTEXT
  5
1AB0C
330
10FE8
100
AcDbEntity
  8
图框
 62
     6
100
AcDbMText
 10
1055.900596365941
 20
678.859919059449
 30
0.0
 40
2.651776162684904
 41
2.557913877927211
 46
0.0
 71
     1
 72
     5
  1
5
  7
Romans字体
 73
     1
 44
1.0
1001
AcDbBlockRepETag
1070
     1
1071
       55
1005
1AB0C
  0
LINE
  5
1AB0D
330
10FE8
100
AcDbEntity
  8
图框
 62
     6
100
AcDbLine
 10
1031.553386436349
 20
679.0347692601516
 30
0.0
 11
1031.553386436349
 21
675.5347692601515
 31
0.0
1001
AcDbBlockRepETag
1070
     1
1071
       56
1005
1AB0D
  0
MTEXT
  5
1AB0E
330
10FE8
100
AcDbEntity
  8
图框
 62
     6
100
AcDbMText
 10
1006.36541764698
 20
678.7312083656147
 30
0.0
 40
2.651776162684904
 41
2.557913877927211
 46
0.0
 71
     1
 72
     5
  1
4
  7
Romans字体
 73
     1
 44
1.0
1001
AcDbBlockRepETag
1070
     1
1071
       57
1005
1AB0E
  0
LINE
  5
1AB0F
330
10FE8
100
AcDbEntity
  8
图框
 62
     6
100
AcDbLine
 10
982.0182077173887
 20
679.0347692601516
 30
0.0
 11
982.0182077173887
 21
675.5347692601515
 31
0.0
1001
AcDbBlockRepETag
1070
     1
1071
       58
1005
1AB0F
  0
MTEXT
  5
1AB10
330
10FE8
100
AcDbEntity
  8
图框
 62
     6
100
AcDbMText
 10
956.8302389280352
 20
678.859919059449
 30
0.0
 40
2.651776162684904
 41
2.557913877927211
 46
0.0
 71
     1
 72
     5
  1
3
  7
Romans字体
 73
     1
 44
1.0
1001
AcDbBlockRepETag
1070
     1
1071
       59
1005
1AB10
  0
LINE
  5
1AB11
330
10FE8
100
AcDbEntity
  8
图框
 62
     6
100
AcDbLine
 10
932.4830289984245
 20
679.0347692601516
 30
0.0
 11
932.4830289984245
 21
675.5347692601515
 31
0.0
1001
AcDbBlockRepETag
1070
     1
1071
       60
1005
1AB11
  0
MTEXT
  5
1AB12
330
10FE8
100
AcDbEntity
  8
图框
 62
     6
100
AcDbMText
 10
907.295060209082
 20
678.859919059449
 30
0.0
 40
2.651776162684904
 41
2.557913877927211
 46
0.0
 71
     1
 72
     5
  1
2
  7
Romans字体
 73
     1
 44
1.0
1001
AcDbBlockRepETag
1070
     1
1071
       61
1005
1AB12
  0
LINE
  5
1AB13
330
10FE8
100
AcDbEntity
  8
图框
 62
     6
100
AcDbLine
 10
882.9478502794648
 20
678.7962435131815
 30
0.0
 11
882.9478502794648
 21
675.5347692601515
 31
0.0
1001
AcDbBlockRepETag
1070
     1
1071
       62
1005
1AB13
  0
MTEXT
  5
1AB14
330
10FE8
100
AcDbEntity
  8
图框
 62
     6
100
AcDbMText
 10
862.6286629643733
 20
678.859919059449
 30
0.0
 40
2.651776162684904
 41
2.557913877927211
 46
0.0
 71
     1
 72
     5
  1
1
  7
Romans字体
 73
     1
 44
1.0
1001
AcDbBlockRepETag
1070
     1
1071
       63
1005
1AB14
  0
LINE
  5
1AB15
330
10FE8
100
AcDbEntity
  8
图框
370
    -3
100
AcDbLine
 10
836.9128518455394
 20
675.0207195125422
 30
0.0
 11
836.9128518455394
 21
686.7901958362482
 31
0.0
1001
AcDbBlockRepETag
1070
     1
1071
       64
1005
1AB15
  0
LINE
  5
1AB16
330
10FE8
100
AcDbEntity
  8
图框
370
    50
100
AcDbLine
 10
836.9128518455394
 20
675.5347692601515
 30
0.0
 11
1126.928502610363
 21
675.5347692601515
 31
0.0
1001
AcDbBlockRepETag
1070
     1
1071
       65
1005
1AB16
  0
LINE
  5
1AB17
330
10FE8
100
AcDbEntity
  8
图框
370
    -3
100
AcDbLine
 10
842.6237321475781
 20
675.5347692601515
 30
0.0
 11
842.6237321475781
 21
686.7901958362482
 31
0.0
1001
AcDbBlockRepETag
1070
     1
1071
       66
1005
1AB17
  0
LINE
  5
1AB18
330
10FE8
100
AcDbEntity
  8
图框
370
    -3
100
AcDbLine
 10
848.3346124496179
 20
675.5347692601515
 30
0.0
 11
848.3346124496179
 21
686.7901958362482
 31
0.0
1001
AcDbBlockRepETag
1070
     1
1071
       67
1005
1AB18
  0
MTEXT
  5
1AB19
102
{ACAD_XDICTIONARY
360
1AB98
102
}
330
10FE8
100
AcDbEntity
  8
图框
100
AcDbMText
 10
857.7903401027889
 20
686.7901958362482
 30
0.0
 40
1.958998408821398
 41
11.25542657609672
 46
7.489694702258906
 71
     4
 72
     5
  1
\pi2.8203;档案员{\H0.7x;\P\pi1.4159;\Fromans|c134;Filing Clerk\fFangSong_GB2312|b0|i0|c134|p49; }
 11
-0.0000000000000002
 21
-1.0
 31
0.0
 73
     1
 44
1.0
1001
AcDbBlockRepETag
1070
     1
1071
       68
1005
1AB19
1001
ACAD
1000
ACAD_MTEXT_DEFINED_HEIGHT_BEGIN
1070
    46
1040
7.489694702258906
1000
ACAD_MTEXT_DEFINED_HEIGHT_END
  0
MTEXT
  5
1AB1A
102
{ACAD_XDICTIONARY
360
1AB9A
102
}
330
10FE8
100
AcDbEntity
  8
图框
100
AcDbMText
 10
845.479172298598
 20
686.7901958362482
 30
0.0
 40
1.958998408821398
 41
11.25542657609672
 46
5.710880302039671
 71
     4
 72
     5
  1
\pi0.7115;日期{\Fromans|c134;/Date}
 11
-0.0000000000000002
 21
-1.0
 31
0.0
 73
     1
 44
1.0
1001
AcDbBlockRepETag
1070
     1
1071
       69
1005
1AB1A
1001
ACAD
1000
ACAD_MTEXT_DEFINED_HEIGHT_BEGIN
1070
    46
1040
5.710880302039671
1000
ACAD_MTEXT_DEFINED_HEIGHT_END
  0
LINE
  5
1AB1B
330
10FE8
100
AcDbEntity
  8
图框
370
    -3
100
AcDbLine
 10
854.0454927516588
 20
675.5347692601515
 30
0.0
 11
854.0454927516588
 21
686.7901958362482
 31
0.0
1001
AcDbBlockRepETag
1070
     1
1071
       70
1005
1AB1B
  0
LINE
  5
1AB1C
330
10FE8
100
AcDbEntity
  8
图框
370
    -3
100
AcDbLine
 10
1036.653967466372
 20
531.3291676047914
 30
0.0
 11
1036.653967466372
 21
484.0126019753161
 31
0.0
1001
AcDbBlockRepETag
1070
     1
1071
       71
1005
1AB1C
  0
LINE
  5
1AB1D
330
10FE8
100
AcDbEntity
  8
图框
370
    -3
100
AcDbLine
 10
1047.483315900763
 20
507.6708838011533
 30
0.0
 11
1047.483315900763
 21
491.8986945987308
 31
0.0
1001
AcDbBlockRepETag
1070
     1
1071
       72
1005
1AB1D
  0
LINE
  5
1AB1E
330
10FE8
100
AcDbEntity
  8
图框
370
    -3
100
AcDbLine
 10
1058.312664335153
 20
507.6708838011533
 30
0.0
 11
1058.312664335153
 21
484.0347692601515
 31
0.0
1001
AcDbBlockRepETag
1070
     1
1071
       73
1005
1AB1E
  0
LINE
  5
1AB1F
330
10FE8
100
AcDbEntity
  8
图框
370
    25
100
AcDbLine
 10
1048.474135214456
 20
488.1095628329926
 30
0.0
 11
1054.946420288459
 21
488.1095628329926
 31
0.0
1001
AcDbBlockRepETag
1070
     1
1071
       74
1005
1AB1F
  0
LINE
  5
1AB20
330
10FE8
100
AcDbEntity
  8
图框
370
    25
100
AcDbLine
 10
1054.232527365989
 20
487.0761716842634
 30
0.0
 11
1049.156490914508
 21
486.4576273751
 31
0.0
1001
AcDbBlockRepETag
1070
     1
1071
       75
1005
1AB20
  0
LINE
  5
1AB21
330
10FE8
100
AcDbEntity
  8
图框
370
    25
100
AcDbLine
 10
1054.232527365989
 20
489.1429539817209
 30
0.0
 11
1049.156490914508
 21
489.7614982908846
 31
0.0
1001
AcDbBlockRepETag
1070
     1
1071
       76
1005
1AB21
  0
LINE
  5
1AB22
330
10FE8
100
AcDbEntity
  8
图框
370
    25
100
AcDbLine
 10
1049.156490914508
 20
489.7614982908846
 30
0.0
 11
1049.156490914508
 21
486.4576273751
 31
0.0
1001
AcDbBlockRepETag
1070
     1
1071
       77
1005
1AB22
  0
LINE
  5
1AB23
330
10FE8
100
AcDbEntity
  8
图框
370
    25
100
AcDbLine
 10
1054.232527365989
 20
489.1429539817209
 30
0.0
 11
1054.232527365989
 21
487.0761716842634
 31
0.0
1001
AcDbBlockRepETag
1070
     1
1071
       78
1005
1AB23
  0
CIRCLE
  5
1AB24
330
10FE8
100
AcDbEntity
  8
图框
370
    25
100
AcDbCircle
 10
1042.502700458579
 20
488.1095628329926
 30
0.0
 40
1.651935457891863
1001
AcDbBlockRepETag
1070
     1
1071
       79
1005
1AB24
  0
CIRCLE
  5
1AB25
330
10FE8
100
AcDbEntity
  8
图框
370
    25
100
AcDbCircle
 10
1042.502700458579
 20
488.1095628329926
 30
0.0
 40
1.033391148728775
1001
AcDbBlockRepETag
1070
     1
1071
       80
1005
1AB25
  0
LINE
  5
1AB26
330
10FE8
100
AcDbEntity
  8
图框
370
    25
100
AcDbLine
 10
1040.136872078216
 20
488.1095628329926
 30
0.0
 11
1044.868528838943
 21
488.1095628329926
 31
0.0
1001
AcDbBlockRepETag
1070
     1
1071
       81
1005
1AB26
  0
LINE
  5
1AB27
330
10FE8
100
AcDbEntity
  8
图框
370
    25
100
AcDbLine
 10
1042.502700458579
 20
490.475391213355
 30
0.0
 11
1042.502700458579
 21
485.743734452629
 31
0.0
1001
AcDbBlockRepETag
1070
     1
1071
       82
1005
1AB27
  0
LINE
  5
1AB28
330
10FE8
100
AcDbEntity
  8
图框
370
    -3
100
AcDbLine
 10
1069.142012769546
 20
507.6708838011533
 30
0.0
 11
1069.142012769546
 21
491.8986945987308
 31
0.0
1001
AcDbBlockRepETag
1070
     1
1071
       83
1005
1AB28
  0
MTEXT
  5
1AB29
330
10FE8
100
AcDbEntity
  8
图框
100
AcDbMText
 10
1086.643735910939
 20
526.8006839312707
 30
0.0
 40
2.154898249703542
 41
13.34474941400573
 46
9.056967347041775
 71
     5
 72
     5
  1
图号{\Ftxt|c134;\P\Fromans|c134;\W0.65;Drawing No.}
 73
     1
 44
1.0
1001
AcDbBlockRepETag
1070
     1
1071
       84
1005
1AB29
1001
ACAD
1000
ACAD_MTEXT_DEFINED_HEIGHT_BEGIN
1070
    46
1040
9.056967347041775
1000
ACAD_MTEXT_DEFINED_HEIGHT_END
  0
LINE
  5
1AB2A
330
10FE8
100
AcDbEntity
  8
图框
370
    -3
100
AcDbLine
 10
1093.316110617942
 20
531.3291676047914
 30
0.0
 11
1093.316110617942
 21
495.8417418993347
 31
0.0
1001
AcDbBlockRepETag
1070
     1
1071
       85
1005
1AB2A
  0
LINE
  5
1AB2B
330
10FE8
100
AcDbEntity
  8
图框
370
    -3
100
AcDbLine
 10
1047.473969770481
 20
531.3291676047914
 30
0.0
 11
1047.473969770481
 21
507.6708838011533
 31
0.0
1001
AcDbBlockRepETag
1070
     1
1071
       86
1005
1AB2B
  0
MTEXT
  5
1AB2C
330
10FE8
100
AcDbEntity
  8
图框
100
AcDbMText
 10
1063.72733855235
 20
503.7278365005473
 30
0.0
 40
2.252848170144607
 41
10.82934843439208
 46
7.886094601212128
 71
     5
 72
     5
  1
重量\P{\Fromans|c134;Weight}
 73
     1
 44
1.0
1001
AcDbBlockRepETag
1070
     1
1071
       87
1005
1AB2C
1001
ACAD
1000
ACAD_MTEXT_DEFINED_HEIGHT_BEGIN
1070
    46
1040
7.886094601212128
1000
ACAD_MTEXT_DEFINED_HEIGHT_END
  0
LINE
  5
1AB2D
330
10FE8
100
AcDbEntity
  8
图框
370
    -3
100
AcDbLine
 10
1036.653967466372
 20
519.5000257029746
 30
0.0
 11
1079.971361203936
 21
519.5000257029746
 31
0.0
1001
AcDbBlockRepETag
1070
     1
1071
       88
1005
1AB2D
  0
MTEXT
  5
1AB2E
330
10FE8
100
AcDbEntity
  8
图框
100
AcDbMText
 10
1074.556686986741
 20
503.7278365005473
 30
0.0
 40
2.252848170144607
 41
10.82934843438984
 46
7.886094601212141
 71
     5
 72
     5
  1
数量\P{\Fromans|c134;Qty.}
 73
     1
 44
1.0
1001
AcDbBlockRepETag
1070
     1
1071
       89
1005
1AB2E
1001
ACAD
1000
ACAD_MTEXT_DEFINED_HEIGHT_BEGIN
1070
    46
1040
7.886094601212141
1000
ACAD_MTEXT_DEFINED_HEIGHT_END
  0
LINE
  5
1AB2F
330
10FE8
100
AcDbEntity
  8
图框
370
    -3
100
AcDbLine
 10
1079.971361203936
 20
495.8417418993347
 30
0.0
 11
1126.928502610363
 21
495.8417418993342
 31
0.0
1001
AcDbBlockRepETag
1070
     1
1071
       90
1005
1AB2F
  0
LINE
  5
1AB30
330
10FE8
100
AcDbEntity
  8
图框
370
    -3
100
AcDbLine
 10
1079.971361203936
 20
504.7132992040975
 30
0.0
 11
1126.928502610363
 21
504.7132992040975
 31
0.0
1001
AcDbBlockRepETag
1070
     1
1071
       91
1005
1AB30
  0
MTEXT
  5
1AB31
330
10FE8
100
AcDbEntity
  8
图框
100
AcDbMText
 10
1052.893317052817
 20
503.7278365005473
 30
0.0
 40
2.252848170144607
 41
10.83869456467139
 46
7.886094601212101
 71
     5
 72
     5
  1
版本\P{\Fromans|c134;REV.}
 73
     1
 44
1.0
1001
AcDbBlockRepETag
1070
     1
1071
       92
1005
1AB31
1001
ACAD
1000
ACAD_MTEXT_DEFINED_HEIGHT_BEGIN
1070
    46
1040
7.886094601212101
1000
ACAD_MTEXT_DEFINED_HEIGHT_END
  0
MTEXT
  5
1AB32
330
10FE8
100
AcDbEntity
  8
图框
100
AcDbMText
 10
1042.068641683568
 20
503.7278365005473
 30
0.0
 40
2.252848170144607
 41
10.8293484343908
 46
7.886094601212136
 71
     5
 72
     5
  1
比例\P{\Fromans|c134;Scale}
 73
     1
 44
1.0
1001
AcDbBlockRepETag
1070
     1
1071
       93
1005
1AB32
1001
ACAD
1000
ACAD_MTEXT_DEFINED_HEIGHT_BEGIN
1070
    46
1040
7.886094601212136
1000
ACAD_MTEXT_DEFINED_HEIGHT_END
  0
LINE
  5
1AB33
330
10FE8
100
AcDbEntity
  8
图框
370
    -3
100
AcDbLine
 10
1036.653967466372
 20
507.6708838011533
 30
0.0
 11
1079.971361203936
 21
507.6708838011533
 31
0.0
1001
AcDbBlockRepETag
1070
     1
1071
       94
1005
1AB33
  0
LINE
  5
1AB34
330
10FE8
100
AcDbEntity
  8
图框
370
    -3
100
AcDbLine
 10
1036.653967466372
 20
491.8986945987308
 30
0.0
 11
1079.971361203936
 21
491.8986945987308
 31
0.0
1001
AcDbBlockRepETag
1070
     1
1071
       95
1005
1AB34
  0
LINE
  5
1AB35
330
10FE8
100
AcDbEntity
  8
图框
370
    -3
100
AcDbLine
 10
1079.971361203936
 20
531.3291676047914
 30
0.0
 11
1079.971361203936
 21
484.0125999975168
 31
0.0
1001
AcDbBlockRepETag
1070
     1
1071
       96
1005
1AB35
  0
MTEXT
  5
1AB36
330
10FE8
100
AcDbEntity
  8
图框
100
AcDbMText
 10
1042.063968618426
 20
525.4145966538832
 30
0.0
 40
2.252848170144607
 41
10.82000230410933
 46
11.82914190181708
 71
     5
 72
     5
  1
表面处理\P{\Fromans|c134;Finish}
 73
     1
 44
1.0
1001
AcDbBlockRepETag
1070
     1
1071
       97
1005
1AB36
1001
ACAD
1000
ACAD_MTEXT_DEFINED_HEIGHT_BEGIN
1070
    46
1040
11.82914190181708
1000
ACAD_MTEXT_DEFINED_HEIGHT_END
  0
MTEXT
  5
1AB37
330
10FE8
100
AcDbEntity
  8
图框
100
AcDbMText
 10
1042.063968618426
 20
513.5854547520639
 30
0.0
 40
2.252848170144607
 41
10.82000230410933
 46
11.8291419018212
 71
     5
 72
     5
  1
材料\P{\Fromans|c134;Material}
 73
     1
 44
1.0
1001
AcDbBlockRepETag
1070
     1
1071
       98
1005
1AB37
1001
ACAD
1000
ACAD_MTEXT_DEFINED_HEIGHT_BEGIN
1070
    46
1040
11.8291419018212
1000
ACAD_MTEXT_DEFINED_HEIGHT_END
  0
LINE
  5
1AB38
330
10FE8
100
AcDbEntity
  8
图框
370
    -3
100
AcDbLine
 10
1079.971361203936
 20
522.27220025775
 30
0.0
 11
1126.928502610363
 21
522.27220025775
 31
0.0
1001
AcDbBlockRepETag
1070
     1
1071
       99
1005
1AB38
  0
LINE
  5
1AB39
330
10FE8
100
AcDbEntity
  8
图框
370
    -3
100
AcDbLine
 10
1079.971361203936
 20
513.5854547520641
 30
0.0
 11
1126.928502610363
 21
513.5854547520639
 31
0.0
1001
AcDbBlockRepETag
1070
     1
1071
      100
1005
1AB39
  0
MTEXT
  5
1AB3A
330
10FE8
100
AcDbEntity
  8
图框
100
AcDbMText
 10
1086.643735910939
 20
517.9288275049072
 30
0.0
 40
1.958998408821398
 41
13.34474941400573
 46
8.686745505685811
 71
     5
 72
     5
  1
产品代号\P{\Fromans|c134;Part Code}
 73
     1
 44
1.0
1001
AcDbBlockRepETag
1070
     1
1071
      101
1005
1AB3A
1001
ACAD
1000
ACAD_MTEXT_DEFINED_HEIGHT_BEGIN
1070
    46
1040
8.686745505685811
1000
ACAD_MTEXT_DEFINED_HEIGHT_END
  0
LINE
  5
1AB3B
330
10FE8
100
AcDbEntity
  8
图框
370
    -3
100
AcDbLine
 10
946.9285026103634
 20
525.7982263931411
 30
0.0
 11
1036.653967466372
 21
525.7982263931411
 31
0.0
1001
AcDbBlockRepETag
1070
     1
1071
      102
1005
1AB3B
  0
LINE
  5
1AB3C
330
10FE8
100
AcDbEntity
  8
图框
370
    -3
100
AcDbLine
 10
946.9285026103634
 20
520.2672851814959
 30
0.0
 11
1036.653967466372
 21
520.2672851814959
 31
0.0
1001
AcDbBlockRepETag
1070
     1
1071
      103
1005
1AB3C
  0
LINE
  5
1AB3D
330
10FE8
100
AcDbEntity
  8
图框
370
    35
100
AcDbLine
 10
946.9285026103634
 20
531.3291676047914
 30
0.0
 11
1126.928502610363
 21
531.3291676047914
 31
0.0
1001
AcDbBlockRepETag
1070
     1
1071
      104
1005
1AB3D
  0
LINE
  5
1AB3E
330
10FE8
100
AcDbEntity
  8
图框
370
    -3
100
AcDbLine
 10
990.6727612856927
 20
509.2054027581959
 30
0.0
 11
990.6727612856927
 21
484.0347692601515
 31
0.0
1001
AcDbBlockRepETag
1070
     1
1071
      105
1005
1AB3E
  0
MTEXT
  5
1AB3F
102
{ACAD_XDICTIONARY
360
1AB9C
102
}
330
10FE8
100
AcDbEntity
  8
图框
100
AcDbMText
 10
997.1628169651232
 20
499.816589978722
 30
0.0
 40
2.252848170144607
 41
12.98011135886052
 46
6.19230880992475
 71
     5
 72
     5
  1
{\f仿宋_GB2312|b0|i0|c134|p49;标准化}\PStand.
  7
Romans字体
 73
     1
 44
1.0
1001
AcDbBlockRepETag
1070
     1
1071
      106
1005
1AB3F
1001
ACAD
1000
ACAD_MTEXT_DEFINED_HEIGHT_BEGIN
1070
    46
1040
6.19230880992475
1000
ACAD_MTEXT_DEFINED_HEIGHT_END
  0
LINE
  5
1AB40
330
10FE8
100
AcDbEntity
  8
图框
370
    -3
100
AcDbLine
 10
975.4103773808022
 20
509.2054027581959
 30
0.0
 11
975.4103773808022
 21
484.0347692601515
 31
0.0
1001
AcDbBlockRepETag
1070
     1
1071
      107
1005
1AB40
  0
MTEXT
  5
1AB41
330
10FE8
100
AcDbEntity
  8
图框
100
AcDbMText
 10
984.5089229802068
 20
511.9708733640202
 30
0.0
 40
2.448748011026752
 41
38.287899328693
 46
5.530941211648832
 71
     5
 72
     5
  1
  变更描述{\Fromans|c134;/Description}
 73
     1
 44
1.0
1001
AcDbBlockRepETag
1070
     1
1071
      108
1005
1AB41
1001
ACAD
1000
ACAD_MTEXT_DEFINED_HEIGHT_BEGIN
1070
    46
1040
5.530941211648832
1000
ACAD_MTEXT_DEFINED_HEIGHT_END
  0
MTEXT
  5
1AB42
102
{ACAD_XDICTIONARY
360
1AB9E
102
}
330
10FE8
100
AcDbEntity
  8
图框
100
AcDbMText
 10
1012.466086049227
 20
511.9708733640202
 30
0.0
 40
1.958998408821398
 41
17.6264268093469
 46
5.530941211648825
 71
     5
 72
     5
  1
签名\P{\Fromans|c134;Signature} 
 73
     1
 44
1.0
1001
AcDbBlockRepETag
1070
     1
1071
      109
1005
1AB42
1001
ACAD
1000
ACAD_MTEXT_DEFINED_HEIGHT_BEGIN
1070
    46
1040
5.530941211648825
1000
ACAD_MTEXT_DEFINED_HEIGHT_END
  0
MTEXT
  5
1AB43
102
{ACAD_XDICTIONARY
360
1ABA0
102
}
330
10FE8
100
AcDbEntity
  8
图框
100
AcDbMText
 10
960.7558556394856
 20
511.9708733640202
 30
0.0
 40
1.958998408821398
 41
9.218235352749283
 46
5.530941211648841
 71
     5
 72
     5
  1
处数\P{\Fromans|c134;Number }
 73
     1
 44
1.0
1001
AcDbBlockRepETag
1070
     1
1071
      110
1005
1AB43
1001
ACAD
1000
ACAD_MTEXT_DEFINED_HEIGHT_BEGIN
1070
    46
1040
5.530941211648841
1000
ACAD_MTEXT_DEFINED_HEIGHT_END
  0
LINE
  5
1AB44
330
10FE8
100
AcDbEntity
  8
图框
370
    -3
100
AcDbLine
 10
946.9285026103634
 20
514.7363439698449
 30
0.0
 11
1036.653967466372
 21
514.7363439698449
 31
0.0
1001
AcDbBlockRepETag
1070
     1
1071
      111
1005
1AB44
  0
LINE
  5
1AB45
330
10FE8
100
AcDbEntity
  8
图框
370
    -3
100
AcDbLine
 10
946.9285026103634
 20
509.2054027581959
 30
0.0
 11
1036.653967466372
 21
509.2054027581959
 31
0.0
1001
AcDbBlockRepETag
1070
     1
1071
      112
1005
1AB45
  0
LINE
  5
1AB46
330
10FE8
100
AcDbEntity
  8
图框
370
    -3
100
AcDbLine
 10
946.9285026103634
 20
502.9127443836848
 30
0.0
 11
1036.653967466372
 21
502.9127443836848
 31
0.0
1001
AcDbBlockRepETag
1070
     1
1071
      113
1005
1AB46
  0
LINE
  5
1AB47
330
10FE8
100
AcDbEntity
  8
图框
370
    -3
100
AcDbLine
 10
946.9285026103634
 20
496.620086009173
 30
0.0
 11
1036.653967466372
 21
496.620086009173
 31
0.0
1001
AcDbBlockRepETag
1070
     1
1071
      114
1005
1AB47
  0
LINE
  5
1AB48
330
10FE8
100
AcDbEntity
  8
图框
370
    35
380
     1
100
AcDbLine
 10
946.9285026103634
 20
531.3291676047914
 30
0.0
 11
946.9285026103634
 21
484.0347692601515
 31
0.0
1001
AcDbBlockRepETag
1070
     1
1071
      115
1005
1AB48
  0
LINE
  5
1AB49
330
10FE8
100
AcDbEntity
  8
图框
370
    -3
100
AcDbLine
 10
1021.301636813399
 20
531.3291676047914
 30
0.0
 11
1021.301636813399
 21
484.0347692601515
 31
0.0
1001
AcDbBlockRepETag
1070
     1
1071
      116
1005
1AB49
  0
LINE
  5
1AB4A
330
10FE8
100
AcDbEntity
  8
图框
370
    -3
100
AcDbLine
 10
1003.652872644553
 20
531.3291676047914
 30
0.0
 11
1003.652872644553
 21
484.0347692601515
 31
0.0
1001
AcDbBlockRepETag
1070
     1
1071
      117
1005
1AB4A
  0
LINE
  5
1AB4B
330
10FE8
100
AcDbEntity
  8
图框
370
    -3
100
AcDbLine
 10
965.3649733158603
 20
531.3291676047914
 30
0.0
 11
965.3649733158603
 21
509.2054027581959
 31
0.0
1001
AcDbBlockRepETag
1070
     1
1071
      118
1005
1AB4B
  0
LINE
  5
1AB4C
330
10FE8
100
AcDbEntity
  8
图框
370
    -3
100
AcDbLine
 10
956.1467379631109
 20
531.3291676047914
 30
0.0
 11
956.1467379631109
 21
509.2054027581959
 31
0.0
1001
AcDbBlockRepETag
1070
     1
1071
      119
1005
1AB4C
  0
MTEXT
  5
1AB4D
102
{ACAD_XDICTIONARY
360
1ABA2
102
}
330
10FE8
100
AcDbEntity
  8
图框
100
AcDbMText
 10
951.537620286737
 20
511.9708733640202
 30
0.0
 40
1.958998408821398
 41
9.218235352747692
 46
5.530941211648832
 71
     5
 72
     5
  1
标记\P{\Fromans|c134;Mark}
 73
     1
 44
1.0
1001
AcDbBlockRepETag
1070
     1
1071
      120
1005
1AB4D
1001
ACAD
1000
ACAD_MTEXT_DEFINED_HEIGHT_BEGIN
1070
    46
1040
5.530941211648832
1000
ACAD_MTEXT_DEFINED_HEIGHT_END
  0
MTEXT
  5
1AB4E
102
{ACAD_XDICTIONARY
360
1ABA4
102
}
330
10FE8
100
AcDbEntity
  8
图框
100
AcDbMText
 10
953.4185582897936
 20
493.4737568219182
 30
0.0
 40
2.252848170144607
 41
12.98011135886041
 46
6.292658374510382
 71
     5
 72
     5
  1
审核\P{\Fromans|c134;Checked}
 73
     1
 44
1.0
1001
AcDbBlockRepETag
1070
     1
1071
      121
1005
1AB4E
1001
ACAD
1000
ACAD_MTEXT_DEFINED_HEIGHT_BEGIN
1070
    46
1040
6.292658374510382
1000
ACAD_MTEXT_DEFINED_HEIGHT_END
  0
MTEXT
  5
1AB4F
102
{ACAD_XDICTIONARY
360
1ABA6
102
}
330
10FE8
100
AcDbEntity
  8
图框
100
AcDbMText
 10
953.4185582897936
 20
499.8775635376777
 30
0.0
 40
2.252848170144607
 41
12.98011135886041
 46
6.070361692014189
 71
     5
 72
     5
  1
绘图\P{\Fromans|c134;Drawn\Ftxt|c134; }
 73
     1
 44
1.0
1001
AcDbBlockRepETag
1070
     1
1071
      122
1005
1AB4F
1001
ACAD
1000
ACAD_MTEXT_DEFINED_HEIGHT_BEGIN
1070
    46
1040
6.070361692014189
1000
ACAD_MTEXT_DEFINED_HEIGHT_END
  0
ARC
  5
1AB50
330
10FE8
100
AcDbEntity
  8
图框
 62
     4
370
    35
100
AcDbCircle
 10
1086.900627017421
 20
490.0179944151195
 30
0.0
 40
4.063310408393665
100
AcDbArc
 50
18.95237904564806
 51
161.0476209543519
1001
AcDbBlockRepETag
1070
     1
1071
      123
1005
1AB50
  0
ARC
  5
1AB51
330
10FE8
100
AcDbEntity
  8
图框
 62
     4
370
    35
100
AcDbCircle
 10
1086.900627017421
 20
490.0179944151195
 30
0.0
 40
4.063310408393665
100
AcDbArc
 50
198.952379045648
 51
341.0476209543519
1001
AcDbBlockRepETag
1070
     1
1071
      124
1005
1AB51
  0
LINE
  5
1AB52
330
10FE8
100
AcDbEntity
  8
图框
 62
     4
370
    35
100
AcDbLine
 10
1083.057593369548
 20
488.6983035966752
 30
0.0
 11
1090.74366066529
 21
488.6983035966752
 31
0.0
1001
AcDbBlockRepETag
1070
     1
1071
      125
1005
1AB52
  0
LINE
  5
1AB53
330
10FE8
100
AcDbEntity
  8
图框
 62
     4
370
    35
100
AcDbLine
 10
1083.057593369548
 20
491.3376852335652
 30
0.0
 11
1090.74366066529
 21
491.3376852335652
 31
0.0
1001
AcDbBlockRepETag
1070
     1
1071
      126
1005
1AB53
  0
MTEXT
  5
1AB54
330
10FE8
100
AcDbEntity
  8
图框
 62
     1
370
    20
100
AcDbMText
 10
1083.034582879669
 20
491.0506288081688
 30
0.0
 40
2.005930044038334
 41
5.047240019334847
 46
0.0
 71
     1
 72
     5
  1
{\fArial|b0|i0|c0|p34;W}
  7
Chinese
 73
     1
 44
1.0
1001
AcDbBlockRepETag
1070
     1
1071
      127
1005
1AB54
  0
LINE
  5
1AB55
330
10FE8
100
AcDbEntity
  8
图框
370
    -3
100
AcDbLine
 10
946.9285026103634
 20
490.327427634663
 30
0.0
 11
1036.653967466372
 21
490.327427634663
 31
0.0
1001
AcDbBlockRepETag
1070
     1
1071
      128
1005
1AB55
  0
LINE
  5
1AB56
330
10FE8
100
AcDbEntity
  8
图框
370
    -3
100
AcDbLine
 10
959.9086139692238
 20
509.2054027581959
 30
0.0
 11
959.9086139692238
 21
484.0347692601515
 31
0.0
1001
AcDbBlockRepETag
1070
     1
1071
      129
1005
1AB56
  0
MTEXT
  5
1AB57
330
10FE8
100
AcDbEntity
  8
图框
100
AcDbMText
 10
967.6594956750129
 20
506.0590735709403
 30
0.0
 40
2.252848170144607
 41
15.50176341157869
 46
6.292658374511246
 71
     5
 72
     5
  1
姓名{\Fromans|c134;/Name\Ftxt|c134; }
 73
     1
 44
1.0
1001
AcDbBlockRepETag
1070
     1
1071
      130
1005
1AB57
1001
ACAD
1000
ACAD_MTEXT_DEFINED_HEIGHT_BEGIN
1070
    46
1040
6.292658374511246
1000
ACAD_MTEXT_DEFINED_HEIGHT_END
  0
MTEXT
  5
1AB58
330
10FE8
100
AcDbEntity
  8
图框
100
AcDbMText
 10
983.0415693332477
 20
506.0590735709403
 30
0.0
 40
2.252848170144607
 41
15.26238390489042
 46
6.2926583745112
 71
     5
 72
     5
  1
日期{\Fromans|c134;/Date}
 73
     1
 44
1.0
1001
AcDbBlockRepETag
1070
     1
1071
      131
1005
1AB58
1001
ACAD
1000
ACAD_MTEXT_DEFINED_HEIGHT_BEGIN
1070
    46
1040
6.2926583745112
1000
ACAD_MTEXT_DEFINED_HEIGHT_END
  0
LINE
  5
1AB59
330
10FE8
100
AcDbEntity
  8
图框
370
    -3
100
AcDbLine
 10
946.9285026103634
 20
509.2054027581959
 30
0.0
 11
959.9086139692238
 21
502.9127443836848
 31
0.0
1001
AcDbBlockRepETag
1070
     1
1071
      132
1005
1AB59
  0
MTEXT
  5
1AB5A
330
10FE8
100
AcDbEntity
  8
图框
100
AcDbMText
 10
1012.931405110086
 20
506.0185715840725
 30
0.0
 40
2.252848170144607
 41
16.93492221063566
 46
0.0
 71
     5
 72
     5
  1
姓名{\Fromans|c134;/Name}
 73
     1
 44
1.0
1001
AcDbBlockRepETag
1070
     1
1071
      133
1005
1AB5A
  0
MTEXT
  5
1AB5B
330
10FE8
100
AcDbEntity
  8
图框
100
AcDbMText
 10
1028.977802139886
 20
506.0590735709403
 30
0.0
 40
2.252848170144607
 41
15.35233065297283
 46
6.292658374511256
 71
     5
 72
     5
  1
日期{\Fromans|c134;/Date}
 73
     1
 44
1.0
1001
AcDbBlockRepETag
1070
     1
1071
      134
1005
1AB5B
1001
ACAD
1000
ACAD_MTEXT_DEFINED_HEIGHT_BEGIN
1070
    46
1040
6.292658374511256
1000
ACAD_MTEXT_DEFINED_HEIGHT_END
  0
LINE
  5
1AB5C
330
10FE8
100
AcDbEntity
  8
图框
370
    -3
100
AcDbLine
 10
1003.652872644553
 20
502.9127443836848
 30
0.0
 11
990.6727612856927
 21
509.2054027581959
 31
0.0
1001
AcDbBlockRepETag
1070
     1
1071
      135
1005
1AB5C
  0
MTEXT
  5
1AB5D
102
{ACAD_XDICTIONARY
360
1ABA8
102
}
330
10FE8
100
AcDbEntity
  8
图框
100
AcDbMText
 10
997.1628169651232
 20
487.1810984474071
 30
0.0
 40
2.252848170144607
 41
12.98011135886052
 46
6.292658374511517
 71
     5
 72
     5
  1
批准\P{\Fromans|c134;Approved}
 73
     1
 44
1.0
1001
AcDbBlockRepETag
1070
     1
1071
      136
1005
1AB5D
1001
ACAD
1000
ACAD_MTEXT_DEFINED_HEIGHT_BEGIN
1070
    46
1040
6.292658374511517
1000
ACAD_MTEXT_DEFINED_HEIGHT_END
  0
MTEXT
  5
1AB5E
102
{ACAD_XDICTIONARY
360
1ABAA
102
}
330
10FE8
100
AcDbEntity
  8
图框
100
AcDbMText
 10
953.4185582897936
 20
487.1810984474071
 30
0.0
 40
2.252848170144607
 41
12.98011135886041
 46
6.292658374511495
 71
     5
 72
     5
  1
工艺\P{\Fromans|c134;Process}
 73
     1
 44
1.0
1001
AcDbBlockRepETag
1070
     1
1071
      137
1005
1AB5E
1001
ACAD
1000
ACAD_MTEXT_DEFINED_HEIGHT_BEGIN
1070
    46
1040
6.292658374511495
1000
ACAD_MTEXT_DEFINED_HEIGHT_END
  0
MTEXT
  5
1AB5F
102
{ACAD_XDICTIONARY
360
1ABAC
102
}
330
10FE8
100
AcDbEntity
  8
图框
100
AcDbMText
 10
1028.977802139886
 20
511.8287965307664
 30
0.0
 40
1.958998408821398
 41
15.3523306529728
 46
5.246787545140668
 71
     5
 72
     5
  1
日期\P{\Fromans|c134;Date}
 73
     1
 44
1.0
1001
AcDbBlockRepETag
1070
     1
1071
      138
1005
1AB5F
1001
ACAD
1000
ACAD_MTEXT_DEFINED_HEIGHT_BEGIN
1070
    46
1040
5.246787545140668
1000
ACAD_MTEXT_DEFINED_HEIGHT_END
  0
MTEXT
  5
1AB60
330
10FE8
100
AcDbEntity
  8
图框
100
AcDbMText
 10
1086.643735910939
 20
509.1493769780809
 30
0.0
 40
2.154898249703542
 41
13.34474941400573
 46
8.87215554796615
 71
     5
 72
     5
  1
产品料号\P{\Fromans|c134;Part No.}
 73
     1
 44
1.0
1001
AcDbBlockRepETag
1070
     1
1071
      139
1005
1AB60
1001
ACAD
1000
ACAD_MTEXT_DEFINED_HEIGHT_BEGIN
1070
    46
1040
8.87215554796615
1000
ACAD_MTEXT_DEFINED_HEIGHT_END
  0
MTEXT
  5
1AB61
330
10FE8
100
AcDbEntity
  8
图框
100
AcDbMText
 10
1086.643735910939
 20
500.2775205517163
 30
0.0
 40
1.958998408821398
 41
13.34474941400573
 46
8.871557304763321
 71
     5
 72
     5
  1
产品名称\P{\Fromans|c134;Part Name}
 73
     1
 44
1.0
1001
AcDbBlockRepETag
1070
     1
1071
      140
1005
1AB61
1001
ACAD
1000
ACAD_MTEXT_DEFINED_HEIGHT_BEGIN
1070
    46
1040
8.871557304763321
1000
ACAD_MTEXT_DEFINED_HEIGHT_END
  0
LINE
  5
1AB62
330
10FE8
100
AcDbEntity
  8
图框
 62
     1
370
    18
100
AcDbLine
 10
833.4128518455365
 20
690.5347692601515
 30
0.0
 11
833.4128518455365
 21
480.5347692601515
 31
0.0
1001
AcDbBlockRepETag
1070
     1
1071
      141
1005
1AB62
  0
LINE
  5
1AB63
330
10FE8
100
AcDbEntity
  8
图框
 62
     1
370
    18
100
AcDbLine
 10
833.4128518455365
 20
480.5347692601515
 30
0.0
 11
1130.411601781236
 21
480.5347692601515
 31
0.0
1001
AcDbBlockRepETag
1070
     1
1071
      142
1005
1AB63
  0
LINE
  5
1AB64
330
10FE8
100
AcDbEntity
  8
图框
 62
     1
370
    18
100
AcDbLine
 10
833.4128518455365
 20
690.5347692601515
 30
0.0
 11
1130.411601781236
 21
690.5347692601515
 31
0.0
1001
AcDbBlockRepETag
1070
     1
1071
      143
1005
1AB64
  0
LINE
  5
1AB65
330
10FE8
100
AcDbEntity
  8
图框
 62
     1
370
    18
100
AcDbLine
 10
1130.411601781236
 20
480.5347692601515
 30
0.0
 11
1130.411601781236
 21
690.5347692601515
 31
0.0
1001
AcDbBlockRepETag
1070
     1
1071
      144
1005
1AB65
  0
LINE
  5
1AB66
330
10FE8
100
AcDbEntity
  8
图框
370
    18
100
AcDbLine
 10
836.9128518455394
 20
686.7901958362482
 30
0.0
 11
861.5351874539182
 21
686.7901958362482
 31
0.0
1001
AcDbBlockRepETag
1070
     1
1071
      145
1005
1AB66
  0
LINE
  5
1AB67
330
10FE8
100
AcDbEntity
  8
图框
370
    50
100
AcDbLine
 10
1126.928502610363
 20
484.3410054693078
 30
0.0
 11
1126.928502610363
 21
675.5347692601515
 31
0.0
1001
AcDbBlockRepETag
1070
     1
1071
      146
1005
1AB67
  0
MTEXT
  5
1AB68
330
10FE8
100
AcDbEntity
  8
图框
 62
     3
100
AcDbMText
 10
1052.897990117958
 20
495.8417418993364
 30
0.0
 40
2.985513575034151
 41
10.82934843439114
 46
7.886094601211307
 71
     5
 72
     5
  1
V1.0
  7
Romans字体
 73
     1
 44
1.0
1001
AcDbBlockRepETag
1070
     1
1071
      147
1005
1AB68
1001
ACAD
1000
ACAD_MTEXT_DEFINED_HEIGHT_BEGIN
1070
    46
1040
7.886094601211307
1000
ACAD_MTEXT_DEFINED_HEIGHT_END
  0
LINE
  5
1AB69
330
10FE8
100
AcDbEntity
  8
图框
 62
     6
100
AcDbLine
 10
1126.911601781236
 20
531.714049199969
 30
0.0
 11
1130.411601781236
 21
531.714049199969
 31
0.0
1001
AcDbBlockRepETag
1070
     1
1071
      148
1005
1AB69
  0
ENDBLK
  5
1107F
330
10FE8
100
AcDbEntity
  8
0
100
AcDbBlockEnd
  0
BLOCK
  5
1A21B
330
1A21A
100
AcDbEntity
  8
0
100
AcDbBlockBegin
  2
*D2
 70
     1
 10
0.0
 20
0.0
 30
0.0
  3
*D2
  1

  0
LINE
  5
1A8A2
330
1A21A
100
AcDbEntity
  8
DIM
 62
     6
370
    -2
100
AcDbLine
 10
504.9344523128104
 20
264.5304189846509
 30
0.0
 11
504.9344523128104
 21
260.4080609559792
 31
0.0
  0
LINE
  5
1A8A3
330
1A21A
100
AcDbEntity
  8
DIM
 62
     6
370
    -2
100
AcDbLine
 10
506.9344523128111
 20
267.2304189846514
 30
0.0
 11
506.9344523128111
 21
260.4080609559792
 31
0.0
  0
LINE
  5
1A8A4
330
1A21A
100
AcDbEntity
  8
DIM
 62
     1
370
    -2
100
AcDbLine
 10
503.1344523128105
 20
261.1280609559792
 30
0.0
 11
501.3344523128107
 21
261.1280609559792
 31
0.0
  0
LINE
  5
1A8A5
330
1A21A
100
AcDbEntity
  8
DIM
 62
     1
370
    -2
100
AcDbLine
 10
508.7344523128112
 20
261.1280609559792
 30
0.0
 11
512.5444523128112
 21
261.1280609559792
 31
0.0
  0
SOLID
  5
1A8A6
330
1A21A
100
AcDbEntity
  8
DIM
 62
     1
100
AcDbTrace
 10
503.1344523128105
 20
261.4280609559792
 30
0.0
 11
503.1344523128105
 21
260.8280609559792
 31
0.0
 12
504.9344523128104
 22
261.1280609559792
 32
0.0
 13
504.9344523128104
 23
261.1280609559792
 33
0.0
  0
SOLID
  5
1A8A7
330
1A21A
100
AcDbEntity
  8
DIM
 62
     1
100
AcDbTrace
 10
508.7344523128112
 20
261.4280609559792
 30
0.0
 11
508.7344523128112
 21
260.8280609559792
 31
0.0
 12
506.9344523128111
 22
261.1280609559792
 32
0.0
 13
506.9344523128111
 23
261.1280609559792
 33
0.0
  0
MTEXT
  5
1A8A8
330
1A21A
100
AcDbEntity
  8
DIM
 62
     4
100
AcDbMText
 10
511.5394523128109
 20
262.6580609559792
 30
0.0
 40
2.1
 41
0.0
 46
0.0
 71
     5
 72
     1
  1
\A1;2
  7
Romans字体
 73
     1
 44
1.0
  0
POINT
  5
1A8A9
330
1A21A
100
AcDbEntity
  8
Defpoints
 62
     0
100
AcDbPoint
 10
504.9344523128104
 20
264.650418984651
 30
0.0
  0
POINT
  5
1A8AA
330
1A21A
100
AcDbEntity
  8
Defpoints
 62
     0
100
AcDbPoint
 10
506.9344523128111
 20
267.3504189846515
 30
0.0
  0
POINT
  5
1A8AB
330
1A21A
100
AcDbEntity
  8
Defpoints
 62
     0
100
AcDbPoint
 10
506.9344523128111
 20
261.1280609559792
 30
0.0
  0
ENDBLK
  5
1A21C
330
1A21A
100
AcDbEntity
  8
0
100
AcDbBlockEnd
  0
BLOCK
  5
1A228
330
1A227
100
AcDbEntity
  8
0
100
AcDbBlockBegin
  2
*D3
 70
     1
 10
0.0
 20
0.0
 30
0.0
  3
*D3
  1

  0
LINE
  5
1A8AC
330
1A227
100
AcDbEntity
  8
DIM
 62
     6
370
    -2
100
AcDbLine
 10
531.1344523128108
 20
269.2704189471886
 30
0.0
 11
531.1344523128108
 21
275.0545787297723
 31
0.0
  0
LINE
  5
1A8AD
330
1A227
100
AcDbEntity
  8
DIM
 62
     6
370
    -2
100
AcDbLine
 10
522.1344523128108
 20
271.270418984651
 30
0.0
 11
522.1344523128108
 21
275.0545787297723
 31
0.0
  0
LINE
  5
1A8AE
330
1A227
100
AcDbEntity
  8
DIM
 62
     1
370
    -2
100
AcDbLine
 10
529.3344523128109
 20
274.3345787297723
 30
0.0
 11
523.9344523128107
 21
274.3345787297723
 31
0.0
  0
SOLID
  5
1A8AF
330
1A227
100
AcDbEntity
  8
DIM
 62
     1
100
AcDbTrace
 10
529.3344523128109
 20
274.6345787297723
 30
0.0
 11
529.3344523128109
 21
274.0345787297723
 31
0.0
 12
531.1344523128108
 22
274.3345787297723
 32
0.0
 13
531.1344523128108
 23
274.3345787297723
 33
0.0
  0
SOLID
  5
1A8B0
330
1A227
100
AcDbEntity
  8
DIM
 62
     1
100
AcDbTrace
 10
523.9344523128107
 20
274.6345787297723
 30
0.0
 11
523.9344523128107
 21
274.0345787297723
 31
0.0
 12
522.1344523128108
 22
274.3345787297723
 32
0.0
 13
522.1344523128108
 23
274.3345787297723
 33
0.0
  0
MTEXT
  5
1A8B1
330
1A227
100
AcDbEntity
  8
DIM
 62
     4
100
AcDbMText
 10
526.6344523128108
 20
275.8645787297723
 30
0.0
 40
2.1
 41
0.0
 46
0.0
 71
     5
 72
     1
  1
\A1;9
  7
Romans字体
 73
     1
 44
1.0
  0
POINT
  5
1A8B2
330
1A227
100
AcDbEntity
  8
Defpoints
 62
     0
100
AcDbPoint
 10
531.1344523128108
 20
269.1504189471885
 30
0.0
  0
POINT
  5
1A8B3
330
1A227
100
AcDbEntity
  8
Defpoints
 62
     0
100
AcDbPoint
 10
522.1344523128108
 20
271.150418984651
 30
0.0
  0
POINT
  5
1A8B4
330
1A227
100
AcDbEntity
  8
Defpoints
 62
     0
100
AcDbPoint
 10
522.1344523128108
 20
274.3345787297723
 30
0.0
  0
ENDBLK
  5
1A229
330
1A227
100
AcDbEntity
  8
0
100
AcDbBlockEnd
  0
BLOCK
  5
1A234
330
1A233
100
AcDbEntity
  8
0
100
AcDbBlockBegin
  2
*D4
 70
     1
 10
0.0
 20
0.0
 30
0.0
  3
*D4
  1

  0
LINE
  5
1A8B5
330
1A233
100
AcDbEntity
  8
DIM
 62
     6
370
    -2
100
AcDbLine
 10
505.8144523128112
 20
267.3504189846511
 30
0.0
 11
499.6766208224998
 21
267.3504189846511
 31
0.0
  0
LINE
  5
1A8B6
330
1A233
100
AcDbEntity
  8
DIM
 62
     6
370
    -2
100
AcDbLine
 10
505.8144523128112
 20
268.450418984651
 30
0.0
 11
499.6766208224998
 21
268.450418984651
 31
0.0
  0
LINE
  5
1A8B7
330
1A233
100
AcDbEntity
  8
DIM
 62
     1
370
    -2
100
AcDbLine
 10
500.3966208225
 20
265.5504189846511
 30
0.0
 11
500.3966208225
 21
263.7504189846511
 31
0.0
  0
LINE
  5
1A8B8
330
1A233
100
AcDbEntity
  8
DIM
 62
     1
370
    -2
100
AcDbLine
 10
500.3966208225
 20
270.2504189846511
 30
0.0
 11
500.3966208225
 21
275.635418984651
 31
0.0
  0
SOLID
  5
1A8B9
330
1A233
100
AcDbEntity
  8
DIM
 62
     1
100
AcDbTrace
 10
500.0966208224999
 20
265.5504189846511
 30
0.0
 11
500.6966208225001
 21
265.5504189846511
 31
0.0
 12
500.3966208225
 22
267.3504189846511
 32
0.0
 13
500.3966208225
 23
267.3504189846511
 33
0.0
  0
SOLID
  5
1A8BA
330
1A233
100
AcDbEntity
  8
DIM
 62
     1
100
AcDbTrace
 10
500.0966208224999
 20
270.2504189846511
 30
0.0
 11
500.6966208225001
 21
270.2504189846511
 31
0.0
 12
500.3966208225
 22
268.450418984651
 32
0.0
 13
500.3966208225
 23
268.450418984651
 33
0.0
  0
MTEXT
  5
1A8BB
330
1A233
100
AcDbEntity
  8
DIM
 62
     4
100
AcDbMText
 10
498.8666208225001
 20
273.8429189846511
 30
0.0
 40
2.1
 41
0.0
 46
0.0
 71
     5
 72
     1
  1
\A1;1.1
  7
Romans字体
 11
0.0000000000000001
 21
1.0
 31
0.0
 73
     1
 44
1.0
  0
POINT
  5
1A8BC
330
1A233
100
AcDbEntity
  8
Defpoints
 62
     0
100
AcDbPoint
 10
505.934452312811
 20
267.3504189846511
 30
0.0
  0
POINT
  5
1A8BD
330
1A233
100
AcDbEntity
  8
Defpoints
 62
     0
100
AcDbPoint
 10
505.934452312811
 20
268.450418984651
 30
0.0
  0
POINT
  5
1A8BE
330
1A233
100
AcDbEntity
  8
Defpoints
 62
     0
100
AcDbPoint
 10
500.3966208225
 20
268.450418984651
 30
0.0
  0
ENDBLK
  5
1A235
330
1A233
100
AcDbEntity
  8
0
100
AcDbBlockEnd
  0
BLOCK
  5
1A241
330
1A240
100
AcDbEntity
  8
0
100
AcDbBlockBegin
  2
*D5
 70
     1
 10
0.0
 20
0.0
 30
0.0
  3
*D5
  1

  0
LINE
  5
1A8BF
330
1A240
100
AcDbEntity
  8
DIM
 62
     6
370
    -2
100
AcDbLine
 10
531.1344523128108
 20
274.4545787297723
 30
0.0
 11
531.1344523128108
 21
278.4804592177969
 31
0.0
  0
LINE
  5
1A8C0
330
1A240
100
AcDbEntity
  8
DIM
 62
     6
370
    -2
100
AcDbLine
 10
504.9344523128104
 20
271.270418984651
 30
0.0
 11
504.9344523128104
 21
278.4804592177969
 31
0.0
  0
LINE
  5
1A8C1
330
1A240
100
AcDbEntity
  8
DIM
 62
     1
370
    -2
100
AcDbLine
 10
529.3344523128109
 20
277.7604592177969
 30
0.0
 11
506.7344523128108
 21
277.7604592177969
 31
0.0
  0
SOLID
  5
1A8C2
330
1A240
100
AcDbEntity
  8
DIM
 62
     1
100
AcDbTrace
 10
529.3344523128109
 20
278.0604592177969
 30
0.0
 11
529.3344523128109
 21
277.4604592177969
 31
0.0
 12
531.1344523128108
 22
277.7604592177969
 32
0.0
 13
531.1344523128108
 23
277.7604592177969
 33
0.0
  0
SOLID
  5
1A8C3
330
1A240
100
AcDbEntity
  8
DIM
 62
     1
100
AcDbTrace
 10
506.7344523128108
 20
278.0604592177969
 30
0.0
 11
506.7344523128108
 21
277.4604592177969
 31
0.0
 12
504.9344523128104
 22
277.7604592177969
 32
0.0
 13
504.9344523128104
 23
277.7604592177969
 33
0.0
  0
MTEXT
  5
1A8C4
330
1A240
100
AcDbEntity
  8
DIM
 62
     4
100
AcDbMText
 10
518.0344523128106
 20
279.2904592177968
 30
0.0
 40
2.1
 41
0.0
 46
0.0
 71
     5
 72
     1
  1
\A1;26.2
  7
Romans字体
 73
     1
 44
1.0
  0
POINT
  5
1A8C5
330
1A240
100
AcDbEntity
  8
Defpoints
 62
     0
100
AcDbPoint
 10
531.1344523128108
 20
274.3345787297723
 30
0.0
  0
POINT
  5
1A8C6
330
1A240
100
AcDbEntity
  8
Defpoints
 62
     0
100
AcDbPoint
 10
504.9344523128104
 20
271.150418984651
 30
0.0
  0
POINT
  5
1A8C7
330
1A240
100
AcDbEntity
  8
Defpoints
 62
     0
100
AcDbPoint
 10
504.9344523128104
 20
277.7604592177969
 30
0.0
  0
ENDBLK
  5
1A242
330
1A240
100
AcDbEntity
  8
0
100
AcDbBlockEnd
  0
BLOCK
  5
1A24D
330
1A24C
100
AcDbEntity
  8
0
100
AcDbBlockBegin
  2
*D6
 70
     1
 10
0.0
 20
0.0
 30
0.0
  3
*D6
  1

  0
LINE
  5
1A898
330
1A24C
100
AcDbEntity
  8
DIM
 62
     6
370
    -2
100
AcDbLine
 10
531.1294523128108
 20
269.4004189846511
 30
0.0
 11
536.3139466585074
 21
269.4004189846511
 31
0.0
  0
LINE
  5
1A899
330
1A24C
100
AcDbEntity
  8
DIM
 62
     6
370
    -2
100
AcDbLine
 10
531.1294523128108
 20
266.400418984651
 30
0.0
 11
536.3139466585074
 21
266.400418984651
 31
0.0
  0
LINE
  5
1A89A
330
1A24C
100
AcDbEntity
  8
DIM
 62
     1
370
    -2
100
AcDbLine
 10
535.5939466585073
 20
264.600418984651
 30
0.0
 11
535.5939466585073
 21
262.8004189846509
 31
0.0
  0
LINE
  5
1A89B
330
1A24C
100
AcDbEntity
  8
DIM
 62
     1
370
    -2
100
AcDbLine
 10
535.5939466585073
 20
271.2004189846511
 30
0.0
 11
535.5939466585073
 21
282.4729189846511
 31
0.0
  0
SOLID
  5
1A89C
330
1A24C
100
AcDbEntity
  8
DIM
 62
     1
100
AcDbTrace
 10
535.2939466585071
 20
264.600418984651
 30
0.0
 11
535.8939466585073
 21
264.600418984651
 31
0.0
 12
535.5939466585073
 22
266.400418984651
 32
0.0
 13
535.5939466585073
 23
266.400418984651
 33
0.0
  0
SOLID
  5
1A89D
330
1A24C
100
AcDbEntity
  8
DIM
 62
     1
100
AcDbTrace
 10
535.2939466585071
 20
271.2004189846511
 30
0.0
 11
535.8939466585073
 21
271.2004189846511
 31
0.0
 12
535.5939466585073
 22
269.4004189846511
 32
0.0
 13
535.5939466585073
 23
269.4004189846511
 33
0.0
  0
MTEXT
  5
1A89E
330
1A24C
100
AcDbEntity
  8
DIM
 62
     4
100
AcDbMText
 10
534.0639466585071
 20
278.1304189846511
 30
0.0
 40
2.1
 41
0.0
 46
0.0
 71
     5
 72
     1
  1
\A1;M3*0.5
  7
Romans字体
 11
0.0000000000000001
 21
1.0
 31
0.0
 73
     1
 44
1.0
  0
POINT
  5
1A89F
330
1A24C
100
AcDbEntity
  8
Defpoints
 62
     0
100
AcDbPoint
 10
531.0094523128108
 20
269.4004189846511
 30
0.0
  0
POINT
  5
1A8A0
330
1A24C
100
AcDbEntity
  8
Defpoints
 62
     0
100
AcDbPoint
 10
531.0094523128108
 20
266.400418984651
 30
0.0
  0
POINT
  5
1A8A1
330
1A24C
100
AcDbEntity
  8
Defpoints
 62
     0
100
AcDbPoint
 10
535.5939466585073
 20
266.400418984651
 30
0.0
  0
ENDBLK
  5
1A24E
330
1A24C
100
AcDbEntity
  8
0
100
AcDbBlockEnd
  0
BLOCK
  5
1A4C8
330
1A4C7
100
AcDbEntity
  8
0
100
AcDbBlockBegin
  2
*D7
 70
     1
 10
0.0
 20
0.0
 30
0.0
  3
*D7
  1

  0
LINE
  5
1A88C
330
1A4C7
100
AcDbEntity
  8
DIM
 62
     1
370
    -2
100
AcDbLine
 10
554.4600765073196
 20
273.7991670636966
 30
0.0
 11
552.4600765073188
 21
273.7991670636966
 31
0.0
  0
LINE
  5
1A88D
330
1A4C7
100
AcDbEntity
  8
DIM
 62
     1
370
    -2
100
AcDbLine
 10
552.4600765073188
 20
273.7991670636966
 30
0.0
 11
551.1066425811598
 21
271.544368364838
 31
0.0
  0
MTEXT
  5
1A88E
330
1A4C7
100
AcDbEntity
  8
DIM
 62
     4
100
AcDbMText
 10
557.5725765073197
 20
273.7991670636966
 30
0.0
 40
2.5
 41
0.0
 46
0.0
 71
     5
 72
     1
  1
\A1;∅4.5
  7
Romans字体
 73
     1
 44
1.0
  0
SOLID
  5
1A88F
330
1A4C7
100
AcDbEntity
  8
DIM
 62
     1
100
AcDbTrace
 10
550.8208426297726
 20
271.7159186458
 30
0.0
 11
551.3924425325468
 21
271.3728180838758
 31
0.0
 12
550.0773408953871
 22
269.8295686565145
 32
0.0
 13
550.0773408953871
 23
269.8295686565145
 33
0.0
  0
POINT
  5
1A890
330
1A4C7
100
AcDbEntity
  8
Defpoints
 62
     0
100
AcDbPoint
 10
550.0773408953871
 20
269.8295686565145
 30
0.0
  0
POINT
  5
1A891
330
1A4C7
100
AcDbEntity
  8
Defpoints
 62
     0
100
AcDbPoint
 10
547.7614121023989
 20
265.9712693127874
 30
0.0
  0
ENDBLK
  5
1A4C9
330
1A4C7
100
AcDbEntity
  8
0
100
AcDbBlockEnd
  0
BLOCK
  5
1A4D2
330
1A4D1
100
AcDbEntity
  8
0
100
AcDbBlockBegin
  2
*D8
 70
     1
 10
0.0
 20
0.0
 30
0.0
  3
*D8
  1

  0
LINE
  5
1A892
330
1A4D1
100
AcDbEntity
  8
DIM
 62
     1
370
    -2
100
AcDbLine
 10
553.3737937716108
 20
278.1990176890689
 30
0.0
 11
551.3737937716098
 21
278.1990176890689
 31
0.0
  0
LINE
  5
1A893
330
1A4D1
100
AcDbEntity
  8
DIM
 62
     1
370
    -2
100
AcDbLine
 10
551.3737937716098
 20
278.1990176890689
 30
0.0
 11
550.136592475606
 21
273.0077896913842
 31
0.0
  0
MTEXT
  5
1A894
330
1A4D1
100
AcDbEntity
  8
DIM
 62
     4
100
AcDbMText
 10
556.4862937716111
 20
278.1990176890688
 30
0.0
 40
2.5
 41
0.0
 46
0.0
 71
     5
 72
     1
  1
\A1;∅6.5
  7
Romans字体
 73
     1
 44
1.0
  0
SOLID
  5
1A895
330
1A4D1
100
AcDbEntity
  8
DIM
 62
     1
100
AcDbTrace
 10
549.8123405582211
 20
273.0850671472384
 30
0.0
 11
550.4608443929909
 21
272.9305122355299
 31
0.0
 12
549.6729277404803
 22
271.0622781870746
 32
0.0
 13
549.6729277404803
 23
271.0622781870746
 33
0.0
  0
POINT
  5
1A896
330
1A4D1
100
AcDbEntity
  8
Defpoints
 62
     0
100
AcDbPoint
 10
549.6729277404803
 20
271.0622781870746
 30
0.0
  0
POINT
  5
1A897
330
1A4D1
100
AcDbEntity
  8
Defpoints
 62
     0
100
AcDbPoint
 10
548.165825257304
 20
264.7385597822264
 30
0.0
  0
ENDBLK
  5
1A4D3
330
1A4D1
100
AcDbEntity
  8
0
100
AcDbBlockEnd
  0
ENDSEC
  0
SECTION
  2
ENTITIES
  0
HATCH
  5
28AE
330
1F
100
AcDbEntity
  8
图层 1
 62
     7
100
AcDbHatch
 10
0.0
 20
0.0
 30
0.0
210
0.0
220
0.0
230
1.0
  2
SOLID
 70
     1
 71
     0
 91
        1
 92
        1
 93
        2
 72
     4
 94
        3
 73
     0
 74
     0
 95
       17
 96
       13
 40
0.0
 40
0.0
 40
0.0
 40
0.0
 40
0.3527780104152769
 40
0.3527780104152769
 40
0.3527780104152769
 40
0.7055560208305538
 40
0.7055560208305538
 40
0.7055560208305538
 40
1.058334031245828
 40
1.058334031245828
 40
1.058334031245828
 40
1.411112041661104
 40
1.411112041661104
 40
1.411112041661104
 40
1.411112041661104
 10
11.07013262565829
 20
29.50312817963231
 10
11.07013262565829
 20
29.50312817963231
 10
10.9431807732774
 20
29.50312817963231
 10
10.9431807732774
 20
29.50312817963231
 10
10.9431807732774
 20
29.50312817963231
 10
10.85843136843155
 20
29.22786486877117
 10
10.85843136843155
 20
29.22786486877117
 10
10.85843136843155
 20
29.22786486877117
 10
10.90080607085448
 20
29.2068497724476
 10
10.90080607085448
 20
29.2068497724476
 10
10.94455881238059
 20
29.31571486159919
 10
11.00346998404173
 20
29.40907701083995
 10
11.07013262565829
 20
29.50312817963231
 72
     1
 10
11.07013262565829
 20
29.50312817963231
 11
11.07013262565829
 21
29.50312817963231
 97
        0
 75
     0
 76
     1
 98
        0
450
        0
451
        0
460
0.0
461
0.0
452
        0
462
0.0
453
        0
470

  0
HATCH
  5
2C65
330
1F
100
AcDbEntity
  8
图层 1
 62
     7
100
AcDbHatch
 10
0.0
 20
0.0
 30
0.0
210
0.0
220
0.0
230
1.0
  2
SOLID
 70
     1
 71
     0
 91
        1
 92
        1
 93
        2
 72
     4
 94
        3
 73
     0
 74
     0
 95
       47
 96
       43
 40
0.0
 40
0.0
 40
0.0
 40
0.0
 40
0.3527780104152769
 40
0.3527780104152769
 40
0.3527780104152769
 40
0.7055560208305538
 40
0.7055560208305538
 40
0.7055560208305538
 40
1.058334031245828
 40
1.058334031245828
 40
1.058334031245828
 40
1.411112041661104
 40
1.411112041661104
 40
1.411112041661104
 40
1.763890052076384
 40
1.763890052076384
 40
1.763890052076384
 40
2.116668062491659
 40
2.116668062491659
 40
2.116668062491659
 40
2.469446072906936
 40
2.469446072906936
 40
2.469446072906936
 40
2.822224083322215
 40
2.822224083322215
 40
2.822224083322215
 40
3.175002093737492
 40
3.175002093737492
 40
3.175002093737492
 40
3.527780104152768
 40
3.527780104152768
 40
3.527780104152768
 40
3.880558114568044
 40
3.880558114568044
 40
3.880558114568044
 40
4.233336124983321
 40
4.233336124983321
 40
4.233336124983321
 40
4.586114135398599
 40
4.586114135398599
 40
4.586114135398599
 40
4.938892145813873
 40
4.938892145813873
 40
4.938892145813873
 40
4.938892145813873
 10
162.8986914070121
 20
257.4895347631509
 10
162.8986914070121
 20
257.4895347631509
 10
162.9200510131114
 20
257.4471600607279
 10
162.9200510131114
 20
257.4471600607279
 10
162.9200510131114
 20
257.4471600607279
 10
162.9200510131114
 20
257.404785358305
 10
162.9200510131114
 20
257.404785358305
 10
162.9200510131114
 20
257.404785358305
 10
162.8986914070121
 20
257.36258291077
 10
162.8986914070121
 20
257.36258291077
 10
162.8986914070121
 20
257.36258291077
 10
162.8986914070121
 20
257.320208208347
 10
162.8986914070121
 20
257.320208208347
 10
162.8986914070121
 20
257.320208208347
 10
162.8563167045891
 20
257.2990208571356
 10
162.8563167045891
 20
257.2990208571356
 10
162.8563167045891
 20
257.2990208571356
 10
162.8139420021662
 20
257.2563016449369
 10
162.8139420021662
 20
257.2563016449369
 10
162.8139420021662
 20
257.2563016449369
 10
162.7295371070961
 20
257.2563016449369
 10
162.7295371070961
 20
257.2563016449369
 10
162.7295371070961
 20
257.2563016449369
 10
162.6658027985738
 20
257.2778335059241
 10
162.6658027985738
 20
257.2778335059241
 10
162.6658027985738
 20
257.2778335059241
 10
162.6237726059267
 20
257.2990208571356
 10
162.6237726059267
 20
257.2990208571356
 10
162.6237726059267
 20
257.2990208571356
 10
162.5813979035038
 20
257.3413955595585
 10
162.5813979035038
 20
257.3413955595585
 10
162.5813979035038
 20
257.3413955595585
 10
162.5813979035038
 20
257.4895347631509
 10
162.5813979035038
 20
257.4895347631509
 10
162.5813979035038
 20
257.4895347631509
 10
162.6447877022503
 20
257.5525800521216
 10
162.6447877022503
 20
257.5525800521216
 10
162.6447877022503
 20
257.5525800521216
 10
162.7081775009967
 20
257.5525800521216
 10
162.7081775009967
 20
257.5525800521216
 10
162.8749202324821
 20
257.5424170137356
 10
162.7918933765152
 20
257.5939212252171
 10
162.8986914070121
 20
257.4895347631509
 72
     1
 10
162.8986914070121
 20
257.4895347631509
 11
162.8986914070121
 21
257.4895347631509
 97
        0
 75
     0
 76
     1
 98
        0
450
        0
451
        0
460
0.0
461
0.0
452
        0
462
0.0
453
        0
470

  0
HATCH
  5
2EE7
330
1F
100
AcDbEntity
  8
图层 1
 62
     7
100
AcDbHatch
 10
0.0
 20
0.0
 30
0.0
210
0.0
220
0.0
230
1.0
  2
SOLID
 70
     1
 71
     0
 91
        1
 92
        1
 93
        2
 72
     4
 94
        3
 73
     0
 74
     0
 95
       56
 96
       52
 40
0.0
 40
0.0
 40
0.0
 40
0.0
 40
0.3527780104152769
 40
0.3527780104152769
 40
0.3527780104152769
 40
0.7055560208305538
 40
0.7055560208305538
 40
0.7055560208305538
 40
1.058334031245828
 40
1.058334031245828
 40
1.058334031245828
 40
1.411112041661104
 40
1.411112041661104
 40
1.411112041661104
 40
1.763890052076384
 40
1.763890052076384
 40
1.763890052076384
 40
2.116668062491659
 40
2.116668062491659
 40
2.116668062491659
 40
2.469446072906936
 40
2.469446072906936
 40
2.469446072906936
 40
2.822224083322215
 40
2.822224083322215
 40
2.822224083322215
 40
3.175002093737492
 40
3.175002093737492
 40
3.175002093737492
 40
3.527780104152768
 40
3.527780104152768
 40
3.527780104152768
 40
3.880558114568044
 40
3.880558114568044
 40
3.880558114568044
 40
4.233336124983321
 40
4.233336124983321
 40
4.233336124983321
 40
4.586114135398599
 40
4.586114135398599
 40
4.586114135398599
 40
4.938892145813873
 40
4.938892145813873
 40
4.938892145813873
 40
5.291670156229153
 40
5.291670156229153
 40
5.291670156229153
 40
5.64444816664443
 40
5.64444816664443
 40
5.64444816664443
 40
5.997226177059705
 40
5.997226177059705
 40
5.997226177059705
 40
5.997226177059705
 10
185.4837187788815
 20
241.4451977396596
 10
185.4837187788815
 20
241.4451977396596
 10
185.4837187788815
 20
241.4028230372367
 10
185.4837187788815
 20
241.4028230372367
 10
185.4837187788815
 20
241.4028230372367
 10
185.5047338752051
 20
241.3604483348137
 10
185.5047338752051
 20
241.3604483348137
 10
185.4520238795082
 20
241.2782827532863
 10
185.4671823096433
 20
241.1897437409066
 10
185.335579575289
 20
241.2119646214456
 10
185.335579575289
 20
241.2119646214456
 10
185.2932048728662
 20
241.2119646214456
 10
185.2932048728662
 20
241.2119646214456
 10
185.2932048728662
 20
241.2119646214456
 10
185.2294705643439
 20
241.2334964824328
 10
185.2294705643439
 20
241.2334964824328
 10
185.2294705643439
 20
241.2334964824328
 10
185.1660807655974
 20
241.2543393238685
 10
185.1660807655974
 20
241.2543393238685
 10
185.1660807655974
 20
241.2543393238685
 10
185.1450656692739
 20
241.2758711848558
 10
185.1450656692739
 20
241.2758711848558
 10
185.1450656692739
 20
241.2758711848558
 10
185.1450656692739
 20
241.2967140262914
 10
185.1450656692739
 20
241.2967140262914
 10
185.1450656692739
 20
241.2967140262914
 10
185.1237060631745
 20
241.3604483348137
 10
185.1237060631745
 20
241.3604483348137
 10
185.1237060631745
 20
241.3604483348137
 10
185.1237060631745
 20
241.4028230372367
 10
185.1237060631745
 20
241.4028230372367
 10
185.1237060631745
 20
241.4028230372367
 10
185.1660807655974
 20
241.4875724420825
 10
185.1660807655974
 20
241.4875724420825
 10
185.1660807655974
 20
241.4875724420825
 10
185.2084554680203
 20
241.5085875384061
 10
185.2084554680203
 20
241.5085875384061
 10
185.2084554680203
 20
241.5085875384061
 10
185.2718452667668
 20
241.5297748896175
 10
185.2718452667668
 20
241.5297748896175
 10
185.2718452667668
 20
241.5297748896175
 10
185.3565946716127
 20
241.5297748896175
 10
185.3565946716127
 20
241.5297748896175
 10
185.3565946716127
 20
241.5297748896175
 10
185.4199844703592
 20
241.5085875384061
 10
185.4199844703592
 20
241.5085875384061
 10
185.4199844703592
 20
241.5085875384061
 10
185.4623591727821
 20
241.4875724420825
 10
185.4623591727821
 20
241.4875724420825
 10
185.4623591727821
 20
241.4875724420825
 10
185.4837187788815
 20
241.4451977396596
 10
185.4837187788815
 20
241.4451977396596
 72
     1
 10
185.4837187788815
 20
241.4451977396596
 11
185.4837187788815
 21
241.4451977396596
 97
        0
 75
     0
 76
     1
 98
        0
450
        0
451
        0
460
0.0
461
0.0
452
        0
462
0.0
453
        0
470

  0
HATCH
  5
2F93
330
1F
100
AcDbEntity
  8
图层 1
 62
     7
100
AcDbHatch
 10
0.0
 20
0.0
 30
0.0
210
0.0
220
0.0
230
1.0
  2
SOLID
 70
     1
 71
     0
 91
        1
 92
        1
 93
        2
 72
     4
 94
        3
 73
     0
 74
     0
 95
       38
 96
       34
 40
0.0
 40
0.0
 40
0.0
 40
0.0
 40
0.3527780104152769
 40
0.3527780104152769
 40
0.3527780104152769
 40
0.7055560208305538
 40
0.7055560208305538
 40
0.7055560208305538
 40
1.058334031245828
 40
1.058334031245828
 40
1.058334031245828
 40
1.411112041661104
 40
1.411112041661104
 40
1.411112041661104
 40
1.763890052076384
 40
1.763890052076384
 40
1.763890052076384
 40
2.116668062491659
 40
2.116668062491659
 40
2.116668062491659
 40
2.469446072906936
 40
2.469446072906936
 40
2.469446072906936
 40
2.822224083322215
 40
2.822224083322215
 40
2.822224083322215
 40
3.175002093737492
 40
3.175002093737492
 40
3.175002093737492
 40
3.527780104152768
 40
3.527780104152768
 40
3.527780104152768
 40
3.880558114568044
 40
3.880558114568044
 40
3.880558114568044
 40
3.880558114568044
 10
185.907121293335
 20
220.1937677098971
 10
185.9005756075949
 20
220.0449394867532
 10
185.9329595265197
 20
220.1136691870245
 10
185.864746590912
 20
219.9817219428946
 10
185.864746590912
 20
219.9817219428946
 10
185.822371888489
 20
219.9605345916831
 10
185.822371888489
 20
219.9605345916831
 10
185.822371888489
 20
219.9605345916831
 10
185.6528730787974
 20
219.9605345916831
 10
185.6528730787974
 20
219.9605345916831
 10
185.6528730787974
 20
219.9605345916831
 10
185.5894832800509
 20
220.002909294106
 10
185.5894832800509
 20
220.002909294106
 10
185.5894832800509
 20
220.002909294106
 10
185.5681236739515
 20
220.0240966453175
 10
185.5681236739515
 20
220.0240966453175
 10
185.5681236739515
 20
220.0240966453175
 10
185.5681236739515
 20
220.045283996529
 10
185.5681236739515
 20
220.045283996529
 10
185.5681236739515
 20
220.045283996529
 10
185.547108577628
 20
220.0876586989519
 10
185.547108577628
 20
220.0876586989519
 10
185.547108577628
 20
220.0876586989519
 10
185.547108577628
 20
220.1513930074742
 10
185.547108577628
 20
220.1513930074742
 10
185.547108577628
 20
220.1513930074742
 10
185.5894832800509
 20
220.23614241232
 10
185.5894832800509
 20
220.23614241232
 10
185.5894832800509
 20
220.23614241232
 10
185.6318579824738
 20
220.2573297635315
 10
185.6318579824738
 20
220.2573297635315
 10
185.7055830744942
 20
220.2566407439799
 10
185.8416644359337
 20
220.3310548555519
 10
185.907121293335
 20
220.1937677098971
 72
     1
 10
185.907121293335
 20
220.1937677098971
 11
185.907121293335
 21
220.1937677098971
 97
        0
 75
     0
 76
     1
 98
        0
450
        0
451
        0
460
0.0
461
0.0
452
        0
462
0.0
453
        0
470

  0
HATCH
  5
2FDE
330
1F
100
AcDbEntity
  8
图层 1
 62
     7
100
AcDbHatch
 10
0.0
 20
0.0
 30
0.0
210
0.0
220
0.0
230
1.0
  2
SOLID
 70
     1
 71
     0
 91
        1
 92
        1
 93
        2
 72
     4
 94
        3
 73
     0
 74
     0
 95
       50
 96
       46
 40
0.0
 40
0.0
 40
0.0
 40
0.0
 40
0.3527780104152769
 40
0.3527780104152769
 40
0.3527780104152769
 40
0.7055560208305538
 40
0.7055560208305538
 40
0.7055560208305538
 40
1.058334031245828
 40
1.058334031245828
 40
1.058334031245828
 40
1.411112041661104
 40
1.411112041661104
 40
1.411112041661104
 40
1.763890052076384
 40
1.763890052076384
 40
1.763890052076384
 40
2.116668062491659
 40
2.116668062491659
 40
2.116668062491659
 40
2.469446072906936
 40
2.469446072906936
 40
2.469446072906936
 40
2.822224083322215
 40
2.822224083322215
 40
2.822224083322215
 40
3.175002093737492
 40
3.175002093737492
 40
3.175002093737492
 40
3.527780104152768
 40
3.527780104152768
 40
3.527780104152768
 40
3.880558114568044
 40
3.880558114568044
 40
3.880558114568044
 40
4.233336124983321
 40
4.233336124983321
 40
4.233336124983321
 40
4.586114135398599
 40
4.586114135398599
 40
4.586114135398599
 40
4.938892145813873
 40
4.938892145813873
 40
4.938892145813873
 40
5.291670156229153
 40
5.291670156229153
 40
5.291670156229153
 40
5.291670156229153
 10
180.9117295442905
 20
208.9327766684477
 10
180.9117295442905
 20
208.9327766684477
 10
180.9117295442905
 20
208.7637946234197
 10
180.9117295442905
 20
208.7637946234197
 10
181.2273004989198
 20
208.6749111012643
 10
181.3833634273555
 20
208.6776671794706
 10
181.6948002646751
 20
208.5097186637701
 10
181.9542161258496
 20
208.4294478860095
 10
182.1388733656765
 20
208.2134402565853
 10
182.3297317814676
 20
208.02292635057
 10
182.3297317814676
 20
208.02292635057
 10
182.435496282637
 20
208.065301052993
 10
182.435496282637
 20
208.065301052993
 10
182.288390608372
 20
208.2733849575739
 10
182.3752070718726
 20
208.2134402565853
 10
182.1605774815516
 20
208.3824223016133
 10
182.1605774815516
 20
208.3824223016133
 10
182.1182027791287
 20
208.4247970040363
 10
182.1182027791287
 20
208.4247970040363
 10
182.1182027791287
 20
208.4247970040363
 10
182.0968431730294
 20
208.467516216235
 10
182.0968431730294
 20
208.467516216235
 10
182.0968431730294
 20
208.467516216235
 10
182.0544684706064
 20
208.4883590576707
 10
182.0544684706064
 20
208.4883590576707
 10
182.0544684706064
 20
208.4883590576707
 10
181.9910786718599
 20
208.5305615052057
 10
181.9910786718599
 20
208.5305615052057
 10
181.9910786718599
 20
208.5305615052057
 10
181.948703969437
 20
208.552093366193
 10
181.948703969437
 20
208.552093366193
 10
181.948703969437
 20
208.552093366193
 10
181.9063292670141
 20
208.5729362076286
 10
181.9063292670141
 20
208.5729362076286
 10
181.9063292670141
 20
208.5729362076286
 10
181.8639545645911
 20
208.6156554198274
 10
181.8639545645911
 20
208.6156554198274
 10
181.8639545645911
 20
208.6156554198274
 10
181.821924371944
 20
208.6368427710388
 10
181.821924371944
 20
208.6368427710388
 10
181.6637943848536
 20
208.6742220817127
 10
181.5452830219797
 20
208.8092699138248
 10
181.3771622513911
 20
208.8061693258427
 10
181.2803550043924
 20
208.8573290275484
 10
181.0126709085988
 20
208.8971199066528
 10
180.9117295442905
 20
208.9327766684477
 72
     1
 10
180.9117295442905
 20
208.9327766684477
 11
180.9117295442905
 21
208.9327766684477
 97
        0
 75
     0
 76
     1
 98
        0
450
        0
451
        0
460
0.0
461
0.0
452
        0
462
0.0
453
        0
470

  0
HATCH
  5
35C8
330
1F
100
AcDbEntity
  8
图层 1
 62
     7
100
AcDbHatch
 10
0.0
 20
0.0
 30
0.0
210
0.0
220
0.0
230
1.0
  2
SOLID
 70
     1
 71
     0
 91
        1
 92
        1
 93
        2
 72
     4
 94
        3
 73
     0
 74
     0
 95
       38
 96
       34
 40
0.0
 40
0.0
 40
0.0
 40
0.0
 40
0.3527780104152769
 40
0.3527780104152769
 40
0.3527780104152769
 40
0.7055560208305538
 40
0.7055560208305538
 40
0.7055560208305538
 40
1.058334031245828
 40
1.058334031245828
 40
1.058334031245828
 40
1.411112041661104
 40
1.411112041661104
 40
1.411112041661104
 40
1.763890052076384
 40
1.763890052076384
 40
1.763890052076384
 40
2.116668062491659
 40
2.116668062491659
 40
2.116668062491659
 40
2.469446072906936
 40
2.469446072906936
 40
2.469446072906936
 40
2.822224083322215
 40
2.822224083322215
 40
2.822224083322215
 40
3.175002093737492
 40
3.175002093737492
 40
3.175002093737492
 40
3.527780104152768
 40
3.527780104152768
 40
3.527780104152768
 40
3.880558114568044
 40
3.880558114568044
 40
3.880558114568044
 40
3.880558114568044
 10
189.145513185819
 20
166.8326485368285
 10
189.207869455238
 20
166.740492171803
 10
189.1317327947871
 20
166.6833035490209
 10
189.103138483396
 20
166.6209472796017
 10
189.103138483396
 20
166.6209472796017
 10
189.0607637809731
 20
166.5997599283903
 10
189.0607637809731
 20
166.5997599283903
 10
189.0607637809731
 20
166.5997599283903
 10
188.9973739822266
 20
166.5785725771788
 10
188.9973739822266
 20
166.5785725771788
 10
188.9973739822266
 20
166.5785725771788
 10
188.9549992798037
 20
166.5997599283903
 10
188.9549992798037
 20
166.5997599283903
 10
188.9549992798037
 20
166.5997599283903
 10
188.8916094810572
 20
166.5997599283903
 10
188.8916094810572
 20
166.5997599283903
 10
188.8916094810572
 20
166.5997599283903
 10
188.8492347786343
 20
166.6209472796017
 10
188.8492347786343
 20
166.6209472796017
 10
188.8492347786343
 20
166.6209472796017
 10
188.8278751725349
 20
166.6633219820247
 10
188.8278751725349
 20
166.6633219820247
 10
188.8278751725349
 20
166.6633219820247
 10
188.8068600762114
 20
166.6845093332361
 10
188.8068600762114
 20
166.6845093332361
 10
188.8068600762114
 20
166.6845093332361
 10
188.8068600762114
 20
166.8326485368285
 10
188.8068600762114
 20
166.8326485368285
 10
188.8068600762114
 20
166.8326485368285
 10
188.8702498749578
 20
166.896038335575
 10
188.8702498749578
 20
166.896038335575
 10
189.0228677056355
 20
166.8819134347673
 10
189.0686875058164
 20
166.9411691162043
 10
189.145513185819
 20
166.8326485368285
 72
     1
 10
189.145513185819
 20
166.8326485368285
 11
189.145513185819
 21
166.8326485368285
 97
        0
 75
     0
 76
     1
 98
        0
450
        0
451
        0
460
0.0
461
0.0
452
        0
462
0.0
453
        0
470

  0
HATCH
  5
35D8
330
1F
100
AcDbEntity
  8
图层 1
 62
     7
100
AcDbHatch
 10
0.0
 20
0.0
 30
0.0
210
0.0
220
0.0
230
1.0
  2
SOLID
 70
     1
 71
     0
 91
        1
 92
        1
 93
        2
 72
     4
 94
        3
 73
     0
 74
     0
 95
       68
 96
       64
 40
0.0
 40
0.0
 40
0.0
 40
0.0
 40
0.3527780104152769
 40
0.3527780104152769
 40
0.3527780104152769
 40
0.7055560208305538
 40
0.7055560208305538
 40
0.7055560208305538
 40
1.058334031245828
 40
1.058334031245828
 40
1.058334031245828
 40
1.411112041661104
 40
1.411112041661104
 40
1.411112041661104
 40
1.763890052076384
 40
1.763890052076384
 40
1.763890052076384
 40
2.116668062491659
 40
2.116668062491659
 40
2.116668062491659
 40
2.469446072906936
 40
2.469446072906936
 40
2.469446072906936
 40
2.822224083322215
 40
2.822224083322215
 40
2.822224083322215
 40
3.175002093737492
 40
3.175002093737492
 40
3.175002093737492
 40
3.527780104152768
 40
3.527780104152768
 40
3.527780104152768
 40
3.880558114568044
 40
3.880558114568044
 40
3.880558114568044
 40
4.233336124983321
 40
4.233336124983321
 40
4.233336124983321
 40
4.586114135398599
 40
4.586114135398599
 40
4.586114135398599
 40
4.938892145813873
 40
4.938892145813873
 40
4.938892145813873
 40
5.291670156229153
 40
5.291670156229153
 40
5.291670156229153
 40
5.64444816664443
 40
5.64444816664443
 40
5.64444816664443
 40
5.997226177059705
 40
5.997226177059705
 40
5.997226177059705
 40
6.350004187474984
 40
6.350004187474984
 40
6.350004187474984
 40
6.702782197890257
 40
6.702782197890257
 40
6.702782197890257
 40
7.055560208305537
 40
7.055560208305537
 40
7.055560208305537
 40
7.408338218720808
 40
7.408338218720808
 40
7.408338218720808
 40
7.408338218720808
 10
174.7732543591544
 20
135.4846705078077
 10
174.7732543591544
 20
135.4846705078077
 10
174.7732543591544
 20
135.3789060066383
 10
174.7732543591544
 20
135.3789060066383
 10
174.7732543591544
 20
135.3789060066383
 10
174.8156290615773
 20
135.3789060066383
 10
174.8156290615773
 20
135.3789060066383
 10
174.8156290615773
 20
135.3789060066383
 10
174.8580037640002
 20
135.3578909103147
 10
174.8580037640002
 20
135.3578909103147
 10
174.8580037640002
 20
135.3578909103147
 10
174.9213935627468
 20
135.3578909103147
 10
174.9213935627468
 20
135.3578909103147
 10
174.9213935627468
 20
135.3578909103147
 10
174.9637682651697
 20
135.3365313042154
 10
174.9637682651697
 20
135.3365313042154
 10
174.9637682651697
 20
135.3365313042154
 10
174.9847833614933
 20
135.3365313042154
 10
174.9847833614933
 20
135.3365313042154
 10
174.9847833614933
 20
135.3365313042154
 10
175.0271580639162
 20
135.3155162078918
 10
175.0271580639162
 20
135.3155162078918
 10
175.0271580639162
 20
135.3155162078918
 10
175.0485176700155
 20
135.2941566017924
 10
175.0485176700155
 20
135.2941566017924
 10
175.0485176700155
 20
135.2941566017924
 10
175.0695327663391
 20
135.2941566017924
 10
175.0695327663391
 20
135.2941566017924
 10
175.0695327663391
 20
135.2941566017924
 10
175.0908923724385
 20
135.2731415054689
 10
175.0908923724385
 20
135.2731415054689
 10
175.0908923724385
 20
135.2731415054689
 10
175.1332670748614
 20
135.2731415054689
 10
175.1332670748614
 20
135.2731415054689
 10
175.1332670748614
 20
135.2731415054689
 10
175.154282171185
 20
135.2517818993695
 10
175.154282171185
 20
135.2517818993695
 10
175.154282171185
 20
135.2517818993695
 10
175.154282171185
 20
135.3578909103147
 10
175.154282171185
 20
135.3578909103147
 10
175.154282171185
 20
135.3578909103147
 10
175.1332670748614
 20
135.3789060066383
 10
175.1332670748614
 20
135.3789060066383
 10
175.1332670748614
 20
135.3789060066383
 10
175.0908923724385
 20
135.3789060066383
 10
175.0908923724385
 20
135.3789060066383
 10
175.0908923724385
 20
135.3789060066383
 10
175.0908923724385
 20
135.3999211029619
 10
175.0908923724385
 20
135.3999211029619
 10
175.0908923724385
 20
135.3999211029619
 10
175.0695327663391
 20
135.3999211029619
 10
175.0695327663391
 20
135.3999211029619
 10
175.0695327663391
 20
135.3999211029619
 10
175.0271580639162
 20
135.4212807090612
 10
175.0271580639162
 20
135.4212807090612
 10
175.0271580639162
 20
135.4212807090612
 10
175.0061429675926
 20
135.4212807090612
 10
175.0061429675926
 20
135.4212807090612
 10
175.0061429675926
 20
135.4212807090612
 10
174.9637682651697
 20
135.4422958053848
 10
174.9637682651697
 20
135.4422958053848
 10
174.8996894468716
 20
135.4498750204523
 10
174.8394002361073
 20
135.4860485469109
 10
174.7732543591544
 20
135.4846705078077
 72
     1
 10
174.7732543591544
 20
135.4846705078077
 11
174.7732543591544
 21
135.4846705078077
 97
        0
 75
     0
 76
     1
 98
        0
450
        0
451
        0
460
0.0
461
0.0
452
        0
462
0.0
453
        0
470

  0
HATCH
  5
3807
330
1F
100
AcDbEntity
  8
图层 1
 62
     7
100
AcDbHatch
 10
0.0
 20
0.0
 30
0.0
210
0.0
220
0.0
230
1.0
  2
SOLID
 70
     1
 71
     0
 91
        1
 92
        1
 93
        2
 72
     4
 94
        3
 73
     0
 74
     0
 95
       29
 96
       25
 40
0.0
 40
0.0
 40
0.0
 40
0.0
 40
0.3527780104152769
 40
0.3527780104152769
 40
0.3527780104152769
 40
0.7055560208305538
 40
0.7055560208305538
 40
0.7055560208305538
 40
1.058334031245828
 40
1.058334031245828
 40
1.058334031245828
 40
1.411112041661104
 40
1.411112041661104
 40
1.411112041661104
 40
1.763890052076384
 40
1.763890052076384
 40
1.763890052076384
 40
2.116668062491659
 40
2.116668062491659
 40
2.116668062491659
 40
2.469446072906936
 40
2.469446072906936
 40
2.469446072906936
 40
2.822224083322215
 40
2.822224083322215
 40
2.822224083322215
 40
2.822224083322215
 10
175.4929352807925
 20
164.0174869039101
 10
175.4929352807925
 20
164.0174869039101
 10
175.5139503771161
 20
163.9751122014871
 10
175.5139503771161
 20
163.9751122014871
 10
175.5139503771161
 20
163.9751122014871
 10
175.5139503771161
 20
163.9327374990642
 10
175.5139503771161
 20
163.9327374990642
 10
175.5139503771161
 20
163.9327374990642
 10
175.4929352807925
 20
163.8903627966413
 10
175.4929352807925
 20
163.8903627966413
 10
175.4929352807925
 20
163.8903627966413
 10
175.471920184469
 20
163.8691754454298
 10
175.471920184469
 20
163.8691754454298
 10
175.471920184469
 20
163.8691754454298
 10
175.4505605783696
 20
163.8269729978948
 10
175.4505605783696
 20
163.8269729978948
 10
175.3571984291289
 20
163.7715069239916
 10
175.272449024283
 20
163.8195660377152
 10
175.1966568736079
 20
163.8691754454298
 10
175.208370205985
 20
163.9930267098286
 10
175.1563492298397
 20
164.0216210212197
 10
175.2600466723544
 20
164.0596893514451
 10
175.3330827448232
 20
164.1094710140476
 10
175.4357466580104
 20
164.0753645462439
 10
175.4929352807925
 20
164.0174869039101
 72
     1
 10
175.4929352807925
 20
164.0174869039101
 11
175.4929352807925
 21
164.0174869039101
 97
        0
 75
     0
 76
     1
 98
        0
450
        0
451
        0
460
0.0
461
0.0
452
        0
462
0.0
453
        0
470

  0
HATCH
  5
3895
330
1F
100
AcDbEntity
  8
图层 1
 62
     7
100
AcDbHatch
 10
0.0
 20
0.0
 30
0.0
210
0.0
220
0.0
230
1.0
  2
SOLID
 70
     1
 71
     0
 91
        1
 92
        1
 93
        2
 72
     4
 94
        3
 73
     0
 74
     0
 95
       11
 96
        7
 40
0.0
 40
0.0
 40
0.0
 40
0.0
 40
0.3527780104152769
 40
0.3527780104152769
 40
0.3527780104152769
 40
0.7055560208305538
 40
0.7055560208305538
 40
0.7055560208305538
 40
0.7055560208305538
 10
174.9213935627468
 20
174.5369206529582
 10
174.9213935627468
 20
174.5369206529582
 10
174.9213935627468
 20
174.3043765542958
 10
174.9213935627468
 20
174.3043765542958
 10
174.9213935627468
 20
174.3043765542958
 10
174.9213935627468
 20
174.5369206529582
 10
174.9213935627468
 20
174.5369206529582
 72
     1
 10
174.9213935627468
 20
174.5369206529582
 11
174.9213935627468
 21
174.5369206529582
 97
        0
 75
     0
 76
     1
 98
        0
450
        0
451
        0
460
0.0
461
0.0
452
        0
462
0.0
453
        0
470

  0
HATCH
  5
3943
330
1F
100
AcDbEntity
  8
图层 1
 62
     7
100
AcDbHatch
 10
0.0
 20
0.0
 30
0.0
210
0.0
220
0.0
230
1.0
  2
SOLID
 70
     1
 71
     0
 91
        1
 92
        1
 93
        2
 72
     4
 94
        3
 73
     0
 74
     0
 95
      131
 96
      127
 40
0.0
 40
0.0
 40
0.0
 40
0.0
 40
0.3527780104152769
 40
0.3527780104152769
 40
0.3527780104152769
 40
0.7055560208305538
 40
0.7055560208305538
 40
0.7055560208305538
 40
1.058334031245828
 40
1.058334031245828
 40
1.058334031245828
 40
1.411112041661104
 40
1.411112041661104
 40
1.411112041661104
 40
1.763890052076384
 40
1.763890052076384
 40
1.763890052076384
 40
2.116668062491659
 40
2.116668062491659
 40
2.116668062491659
 40
2.469446072906936
 40
2.469446072906936
 40
2.469446072906936
 40
2.822224083322215
 40
2.822224083322215
 40
2.822224083322215
 40
3.175002093737492
 40
3.175002093737492
 40
3.175002093737492
 40
3.527780104152768
 40
3.527780104152768
 40
3.527780104152768
 40
3.880558114568044
 40
3.880558114568044
 40
3.880558114568044
 40
4.233336124983321
 40
4.233336124983321
 40
4.233336124983321
 40
4.586114135398599
 40
4.586114135398599
 40
4.586114135398599
 40
4.938892145813873
 40
4.938892145813873
 40
4.938892145813873
 40
5.291670156229153
 40
5.291670156229153
 40
5.291670156229153
 40
5.64444816664443
 40
5.64444816664443
 40
5.64444816664443
 40
5.997226177059705
 40
5.997226177059705
 40
5.997226177059705
 40
6.350004187474984
 40
6.350004187474984
 40
6.350004187474984
 40
6.702782197890257
 40
6.702782197890257
 40
6.702782197890257
 40
7.055560208305537
 40
7.055560208305537
 40
7.055560208305537
 40
7.408338218720808
 40
7.408338218720808
 40
7.408338218720808
 40
7.76111622913609
 40
7.76111622913609
 40
7.76111622913609
 40
8.113894239551369
 40
8.113894239551369
 40
8.113894239551369
 40
8.466672249966642
 40
8.466672249966642
 40
8.466672249966642
 40
8.819450260381922
 40
8.819450260381922
 40
8.819450260381922
 40
9.172228270797198
 40
9.172228270797198
 40
9.172228270797198
 40
9.525006281212476
 40
9.525006281212476
 40
9.525006281212476
 40
9.877784291627751
 40
9.877784291627751
 40
9.877784291627751
 40
10.23056230204303
 40
10.23056230204303
 40
10.23056230204303
 40
10.58334031245831
 40
10.58334031245831
 40
10.58334031245831
 40
10.93611832287358
 40
10.93611832287358
 40
10.93611832287358
 40
11.28889633328886
 40
11.28889633328886
 40
11.28889633328886
 40
11.64167434370414
 40
11.64167434370414
 40
11.64167434370414
 40
11.99445235411941
 40
11.99445235411941
 40
11.99445235411941
 40
12.34723036453469
 40
12.34723036453469
 40
12.34723036453469
 40
12.70000837494997
 40
12.70000837494997
 40
12.70000837494997
 40
13.05278638536524
 40
13.05278638536524
 40
13.05278638536524
 40
13.40556439578052
 40
13.40556439578052
 40
13.40556439578052
 40
13.7583424061958
 40
13.7583424061958
 40
13.7583424061958
 40
14.11112041661107
 40
14.11112041661107
 40
14.11112041661107
 40
14.46389842702635
 40
14.46389842702635
 40
14.46389842702635
 40
14.81667643744163
 40
14.81667643744163
 40
14.81667643744163
 40
14.81667643744163
 10
173.3972823146245
 20
126.8274843518258
 10
173.3972823146245
 20
126.8274843518258
 10
173.3972823146245
 20
126.7217198506564
 10
173.3972823146245
 20
126.7217198506564
 10
173.3972823146245
 20
126.7217198506564
 10
173.4186419207238
 20
126.7217198506564
 10
173.4186419207238
 20
126.7217198506564
 10
173.4186419207238
 20
126.7217198506564
 10
173.4820317194703
 20
126.7007047543328
 10
173.4820317194703
 20
126.7007047543328
 10
173.4820317194703
 20
126.7007047543328
 10
173.5244064218933
 20
126.6793451482334
 10
173.5244064218933
 20
126.6793451482334
 10
173.5244064218933
 20
126.6793451482334
 10
173.5877962206398
 20
126.6793451482334
 10
173.5877962206398
 20
126.6793451482334
 10
173.5877962206398
 20
126.6793451482334
 10
173.6301709230627
 20
126.6583300519099
 10
173.6301709230627
 20
126.6583300519099
 10
173.7955356154449
 20
126.5911506456296
 10
173.759706598762
 20
126.6380039751379
 10
173.9478089363468
 20
126.5525655507404
 10
173.9478089363468
 20
126.5525655507404
 10
173.9688240326703
 20
126.4464565397952
 10
173.9688240326703
 20
126.4464565397952
 10
173.9688240326703
 20
126.4464565397952
 10
174.0325583411926
 20
126.5101908483175
 10
174.0325583411926
 20
126.5101908483175
 10
174.0325583411926
 20
126.5101908483175
 10
174.0749330436156
 20
126.5101908483175
 10
174.0749330436156
 20
126.5101908483175
 10
174.0749330436156
 20
126.5101908483175
 10
174.1593379386856
 20
126.4678161458946
 10
174.1593379386856
 20
126.4678161458946
 10
174.1593379386856
 20
126.4678161458946
 10
174.180697544785
 20
126.4464565397952
 10
174.180697544785
 20
126.4464565397952
 10
174.2464989119621
 20
126.3982251711837
 10
174.3298702777047
 20
126.3716979184474
 10
174.3922265471239
 20
126.3196769423022
 10
174.608234176548
 20
126.2059887162895
 10
174.7749769080334
 20
126.0278771622029
 10
174.9637682651697
 20
125.8749148217494
 10
174.9637682651697
 20
125.8749148217494
 10
175.0061429675926
 20
125.9172895241723
 10
175.0061429675926
 20
125.9172895241723
 10
174.961356696739
 20
125.9631093243532
 10
174.782211613325
 20
126.1246844092016
 10
174.7308796567315
 20
126.1501781326105
 10
174.7308796567315
 20
126.1501781326105
 10
174.6885049543085
 20
126.1925528350335
 10
174.6885049543085
 20
126.1925528350335
 10
174.6885049543085
 20
126.1925528350335
 10
174.667489857985
 20
126.2349275374564
 10
174.667489857985
 20
126.2349275374564
 10
174.667489857985
 20
126.2349275374564
 10
174.625115155562
 20
126.2559426337799
 10
174.625115155562
 20
126.2559426337799
 10
174.625115155562
 20
126.2559426337799
 10
174.5827404531391
 20
126.2983173362029
 10
174.5827404531391
 20
126.2983173362029
 10
174.5827404531391
 20
126.2983173362029
 10
174.5403657507162
 20
126.3196769423022
 10
174.5403657507162
 20
126.3196769423022
 10
174.5403657507162
 20
126.3196769423022
 10
174.4979910482932
 20
126.3620516447252
 10
174.4979910482932
 20
126.3620516447252
 10
174.4735308542117
 20
126.3875453681341
 10
174.3247026310678
 20
126.4695386947736
 10
174.2864620459544
 20
126.4888312422181
 10
174.2864620459544
 20
126.4888312422181
 10
174.2654469496308
 20
126.5101908483175
 10
174.2654469496308
 20
126.5101908483175
 10
174.2654469496308
 20
126.5101908483175
 10
174.2230722472079
 20
126.5312059446411
 10
174.2230722472079
 20
126.5312059446411
 10
174.2230722472079
 20
126.5312059446411
 10
174.2017126411085
 20
126.5525655507404
 10
174.2017126411085
 20
126.5525655507404
 10
174.2017126411085
 20
126.5525655507404
 10
174.1383228423621
 20
126.573580647064
 10
174.1383228423621
 20
126.573580647064
 10
174.1383228423621
 20
126.573580647064
 10
174.1169632362627
 20
126.5945957433876
 10
174.1169632362627
 20
126.5945957433876
 10
174.1169632362627
 20
126.5945957433876
 10
174.0959481399391
 20
126.7007047543328
 10
174.0959481399391
 20
126.7007047543328
 10
174.0959481399391
 20
126.7007047543328
 10
174.0325583411926
 20
126.6369704458105
 10
174.0325583411926
 20
126.6369704458105
 10
174.0325583411926
 20
126.6369704458105
 10
173.9901836387697
 20
126.6369704458105
 10
173.9901836387697
 20
126.6369704458105
 10
173.9901836387697
 20
126.6369704458105
 10
173.9054342339239
 20
126.6793451482334
 10
173.9054342339239
 20
126.6793451482334
 10
173.9054342339239
 20
126.6793451482334
 10
173.8420444351773
 20
126.7007047543328
 10
173.8420444351773
 20
126.7007047543328
 10
173.8420444351773
 20
126.7007047543328
 10
173.7996697327544
 20
126.7217198506564
 10
173.7996697327544
 20
126.7217198506564
 10
173.7996697327544
 20
126.7217198506564
 10
173.7572950303315
 20
126.7217198506564
 10
173.7572950303315
 20
126.7217198506564
 10
173.7572950303315
 20
126.7217198506564
 10
173.6725456254856
 20
126.7640945530793
 10
173.6725456254856
 20
126.7640945530793
 10
173.6725456254856
 20
126.7640945530793
 10
173.6515305291621
 20
126.7640945530793
 10
173.6515305291621
 20
126.7640945530793
 10
173.6515305291621
 20
126.7640945530793
 10
173.5667811243162
 20
126.7851096494029
 10
173.5667811243162
 20
126.7851096494029
 10
173.5667811243162
 20
126.7851096494029
 10
173.5033913255697
 20
126.8064692555022
 10
173.5033913255697
 20
126.8064692555022
 10
173.5033913255697
 20
126.8064692555022
 10
173.4396570170474
 20
126.8064692555022
 10
173.4396570170474
 20
126.8064692555022
 10
173.4396570170474
 20
126.8064692555022
 10
173.4186419207238
 20
126.8274843518258
 10
173.4186419207238
 20
126.8274843518258
 10
173.4186419207238
 20
126.8274843518258
 10
173.3972823146245
 20
126.8274843518258
 10
173.3972823146245
 20
126.8274843518258
 72
     1
 10
173.3972823146245
 20
126.8274843518258
 11
173.3972823146245
 21
126.8274843518258
 97
        0
 75
     0
 76
     1
 98
        0
450
        0
451
        0
460
0.0
461
0.0
452
        0
462
0.0
453
        0
470

  0
HATCH
  5
4842
330
1F
100
AcDbEntity
  8
图层 1
 62
     7
100
AcDbHatch
 10
0.0
 20
0.0
 30
0.0
210
0.0
220
0.0
230
1.0
  2
SOLID
 70
     1
 71
     0
 91
        1
 92
        1
 93
        2
 72
     4
 94
        3
 73
     0
 74
     0
 95
       47
 96
       43
 40
0.0
 40
0.0
 40
0.0
 40
0.0
 40
0.3527780104152769
 40
0.3527780104152769
 40
0.3527780104152769
 40
0.7055560208305538
 40
0.7055560208305538
 40
0.7055560208305538
 40
1.058334031245828
 40
1.058334031245828
 40
1.058334031245828
 40
1.411112041661104
 40
1.411112041661104
 40
1.411112041661104
 40
1.763890052076384
 40
1.763890052076384
 40
1.763890052076384
 40
2.116668062491659
 40
2.116668062491659
 40
2.116668062491659
 40
2.469446072906936
 40
2.469446072906936
 40
2.469446072906936
 40
2.822224083322215
 40
2.822224083322215
 40
2.822224083322215
 40
3.175002093737492
 40
3.175002093737492
 40
3.175002093737492
 40
3.527780104152768
 40
3.527780104152768
 40
3.527780104152768
 40
3.880558114568044
 40
3.880558114568044
 40
3.880558114568044
 40
4.233336124983321
 40
4.233336124983321
 40
4.233336124983321
 40
4.586114135398599
 40
4.586114135398599
 40
4.586114135398599
 40
4.938892145813873
 40
4.938892145813873
 40
4.938892145813873
 40
4.938892145813873
 10
180.1920486226523
 20
255.6479577566324
 10
180.1920486226523
 20
255.6479577566324
 10
180.2130637189759
 20
255.6055830542095
 10
180.2130637189759
 20
255.6055830542095
 10
180.2130637189759
 20
255.6055830542095
 10
180.2130637189759
 20
255.5210059042515
 10
180.2130637189759
 20
255.5210059042515
 10
180.2130637189759
 20
255.5210059042515
 10
180.1920486226523
 20
255.4786312018286
 10
180.1920486226523
 20
255.4786312018286
 10
180.1920486226523
 20
255.4786312018286
 10
180.1496739202294
 20
255.4359119896299
 10
180.1496739202294
 20
255.4359119896299
 10
180.1496739202294
 20
255.4359119896299
 10
180.1283143141301
 20
255.4147246384184
 10
180.1283143141301
 20
255.4147246384184
 10
180.1283143141301
 20
255.4147246384184
 10
180.0225498129606
 20
255.4147246384184
 10
180.0225498129606
 20
255.4147246384184
 10
180.0225498129606
 20
255.4147246384184
 10
179.9591600142141
 20
255.4359119896299
 10
179.9591600142141
 20
255.4359119896299
 10
179.9591600142141
 20
255.4359119896299
 10
179.9167853117912
 20
255.4570993408414
 10
179.9167853117912
 20
255.4570993408414
 10
179.9167853117912
 20
255.4570993408414
 10
179.8957702154676
 20
255.4786312018286
 10
179.8957702154676
 20
255.4786312018286
 10
179.8957702154676
 20
255.4786312018286
 10
179.8744106093683
 20
255.4994740432643
 10
179.8744106093683
 20
255.4994740432643
 10
179.8744106093683
 20
255.4994740432643
 10
179.8744106093683
 20
255.6479577566324
 10
179.8744106093683
 20
255.6479577566324
 10
179.9608825630931
 20
255.7323626517025
 10
180.045631967939
 20
255.7085914771726
 10
180.1496739202294
 20
255.7115198102668
 10
180.1496739202294
 20
255.7115198102668
 10
180.170689016553
 20
255.6688005980681
 10
180.170689016553
 20
255.6688005980681
 10
180.170689016553
 20
255.6688005980681
 10
180.1920486226523
 20
255.6479577566324
 10
180.1920486226523
 20
255.6479577566324
 72
     1
 10
180.1920486226523
 20
255.6479577566324
 11
180.1920486226523
 21
255.6479577566324
 97
        0
 75
     0
 76
     1
 98
        0
450
        0
451
        0
460
0.0
461
0.0
452
        0
462
0.0
453
        0
470

  0
MTEXT
  5
65A0
330
1F
100
AcDbEntity
  8
图框
 62
     3
100
AcDbMText
 10
599.071704550352
 20
228.6676486843801
 30
0.0
 40
1.492756787517073
 41
16.80619599621068
 46
4.343372752842933
 71
     5
 72
     5
  1
GBUSH-M3/S
  7
Romans字体
 73
     1
 44
1.0
1001
ACAD
1000
ACAD_MTEXT_DEFINED_HEIGHT_BEGIN
1070
    46
1040
4.343372752842933
1000
ACAD_MTEXT_DEFINED_HEIGHT_END
  0
MTEXT
  5
65A1
330
1F
100
AcDbEntity
  8
图框
 62
     3
100
AcDbMText
 10
599.071704550352
 20
224.277923420967
 30
0.0
 40
1.492756787517073
 41
16.80619599621068
 46
4.43607777398305
 71
     5
 72
     5
  1
1980020050018
  7
Romans字体
 73
     1
 44
1.0
1001
ACAD
1000
ACAD_MTEXT_DEFINED_HEIGHT_BEGIN
1070
    46
1040
4.43607777398305
1000
ACAD_MTEXT_DEFINED_HEIGHT_END
  0
MTEXT
  5
65A3
330
1F
100
AcDbEntity
  8
图框
 62
     3
100
AcDbMText
 10
565.0448720850595
 20
217.6241058815945
 30
0.0
 40
1.492756787517073
 41
5.414674217195233
 46
3.943047300605248
 71
     5
 72
     5
  1
2:1
  7
Romans字体
 73
     1
 44
1.0
1001
ACAD
1000
ACAD_MTEXT_DEFINED_HEIGHT_BEGIN
1070
    46
1040
3.943047300605248
1000
ACAD_MTEXT_DEFINED_HEIGHT_END
  0
MTEXT
  5
65A4
330
1F
100
AcDbEntity
  8
图框
 62
     3
100
AcDbMText
 10
570.4595463022549
 20
217.6241058815946
 30
0.0
 40
1.492756787517073
 41
5.41467421719563
 46
3.943047300605226
 71
     5
 72
     5
  1
V1.0 
  7
Romans字体
 73
     1
 44
1.0
1001
ACAD
1000
ACAD_MTEXT_DEFINED_HEIGHT_BEGIN
1070
    46
1040
3.943047300605226
1000
ACAD_MTEXT_DEFINED_HEIGHT_END
  0
MTEXT
  5
65B2
330
1F
100
AcDbEntity
  8
图框
 62
     3
100
AcDbMText
 10
575.8742205194506
 20
217.6241058815946
 30
0.0
 40
1.492756787517073
 41
16.80619599621068
 46
3.943047300605201
 71
     5
 72
     5
  1
3.2g 
  7
Romans字体
 73
     1
 44
1.0
1001
ACAD
1000
ACAD_MTEXT_DEFINED_HEIGHT_BEGIN
1070
    46
1040
3.943047300605201
1000
ACAD_MTEXT_DEFINED_HEIGHT_END
  0
INSERT
  5
11089
330
1F
100
AcDbEntity
  8
DIM
100
AcDbBlockReference
  2
A4图框-NEW
 10
44.01055124327593
 20
-30.29676506807346
 30
0.0
 41
0.5
 42
0.5
 43
0.5
  0
DIMENSION
  5
1A15B
102
{ACAD_XDICTIONARY
360
1A15C
102
}
102
{ACAD_REACTORS
330
1A15D
102
}
330
1F
100
AcDbEntity
  8
DIM
100
AcDbDimension
  2
*D6
 10
535.5939466585073
 20
266.400418984651
 30
0.0
 11
535.5939466585072
 21
278.1304189846511
 31
0.0
 70
   160
  1
M3*0.5
 71
     5
 42
3.000000000000111
 73
     0
 74
     0
 75
     0
  3
01
100
AcDbAlignedDimension
 13
531.0094523128108
 23
269.4004189846511
 33
0.0
 14
531.0094523128108
 24
266.400418984651
 34
0.0
 50
270.0
100
AcDbRotatedDimension
1001
ACAD
1000
DSTYLE
1002
{
1070
    40
1040
0.6
1070
   289
1070
     2
1002
}
  0
DIMENSION
  5
1A161
330
1F
100
AcDbEntity
  8
DIM
100
AcDbDimension
  2
*D2
 10
506.9344523128111
 20
261.1280609559792
 30
0.0
 11
511.5394523128109
 21
262.6580609559792
 31
0.0
 70
    32
 71
     5
 42
2.000000000000451
 73
     0
 74
     0
 75
     0
  3
01
100
AcDbAlignedDimension
 13
504.9344523128104
 23
264.650418984651
 33
0.0
 14
506.9344523128111
 24
267.3504189846515
 34
0.0
 50
180.0
100
AcDbRotatedDimension
1001
ACAD
1000
DSTYLE
1002
{
1070
    40
1040
0.6
1070
   289
1070
     2
1002
}
  0
CIRCLE
  5
1A162
330
1F
100
AcDbEntity
  8
0
100
AcDbCircle
 10
548.9193764988931
 20
267.900418984651
 30
0.0
 40
1.35
  0
CIRCLE
  5
1A163
330
1F
100
AcDbEntity
  8
0
100
AcDbCircle
 10
548.9193764988931
 20
267.900418984651
 30
0.0
 40
1.150129501617928
  0
CIRCLE
  5
1A164
330
1F
100
AcDbEntity
  8
0
100
AcDbCircle
 10
548.9193764988931
 20
267.900418984651
 30
0.0
 40
1.500035256071438
  0
CIRCLE
  5
1A165
330
1F
100
AcDbEntity
  8
0
100
AcDbCircle
 10
548.9193764988931
 20
267.900418984651
 30
0.0
 40
3.250414295078785
  0
LINE
  5
1A166
330
1F
100
AcDbEntity
  8
0
100
AcDbLine
 10
526.3844523128108
 20
269.1504189471883
 30
0.0
 11
526.2594523128107
 21
269.4004189471883
 31
0.0
  0
LINE
  5
1A167
330
1F
100
AcDbEntity
  8
0
100
AcDbLine
 10
526.2594523128107
 20
269.4004189471883
 30
0.0
 11
526.1344523128108
 21
269.1504189471883
 31
0.0
  0
LINE
  5
1A168
330
1F
100
AcDbEntity
  8
0
100
AcDbLine
 10
526.6344523128108
 20
269.1504189471883
 30
0.0
 11
526.5094523128108
 21
269.4004189471883
 31
0.0
  0
LINE
  5
1A169
330
1F
100
AcDbEntity
  8
0
100
AcDbLine
 10
526.5094523128108
 20
269.4004189471883
 30
0.0
 11
526.3844523128108
 21
269.1504189471883
 31
0.0
  0
LINE
  5
1A16A
330
1F
100
AcDbEntity
  8
0
100
AcDbLine
 10
526.8844523128108
 20
269.1504189471883
 30
0.0
 11
526.7594523128108
 21
269.4004189471883
 31
0.0
  0
LINE
  5
1A16B
330
1F
100
AcDbEntity
  8
0
100
AcDbLine
 10
526.7594523128108
 20
269.4004189471883
 30
0.0
 11
526.6344523128108
 21
269.1504189471883
 31
0.0
  0
LINE
  5
1A16C
330
1F
100
AcDbEntity
  8
0
100
AcDbLine
 10
527.1344523128107
 20
269.1504189471883
 30
0.0
 11
527.0094523128108
 21
269.4004189471883
 31
0.0
  0
LINE
  5
1A16D
330
1F
100
AcDbEntity
  8
0
100
AcDbLine
 10
527.0094523128108
 20
269.4004189471883
 30
0.0
 11
526.8844523128108
 21
269.1504189471883
 31
0.0
  0
LINE
  5
1A16E
330
1F
100
AcDbEntity
  8
0
100
AcDbLine
 10
527.3844523128108
 20
269.1504189471883
 30
0.0
 11
527.2594523128108
 21
269.4004189471883
 31
0.0
  0
LINE
  5
1A16F
330
1F
100
AcDbEntity
  8
0
100
AcDbLine
 10
527.2594523128108
 20
269.4004189471883
 30
0.0
 11
527.1344523128107
 21
269.1504189471883
 31
0.0
  0
LINE
  5
1A170
330
1F
100
AcDbEntity
  8
0
100
AcDbLine
 10
527.6344523128108
 20
269.1504189471883
 30
0.0
 11
527.5094523128108
 21
269.4004189471883
 31
0.0
  0
LINE
  5
1A171
330
1F
100
AcDbEntity
  8
0
100
AcDbLine
 10
527.5094523128108
 20
269.4004189471883
 30
0.0
 11
527.3844523128108
 21
269.1504189471883
 31
0.0
  0
LINE
  5
1A172
330
1F
100
AcDbEntity
  8
0
100
AcDbLine
 10
527.8844523128108
 20
269.1504189471883
 30
0.0
 11
527.7594523128108
 21
269.4004189471883
 31
0.0
  0
LINE
  5
1A173
330
1F
100
AcDbEntity
  8
0
100
AcDbLine
 10
527.7594523128108
 20
269.4004189471883
 30
0.0
 11
527.6344523128108
 21
269.1504189471883
 31
0.0
  0
LINE
  5
1A174
330
1F
100
AcDbEntity
  8
0
100
AcDbLine
 10
528.1344523128108
 20
269.1504189471883
 30
0.0
 11
528.0094523128108
 21
269.4004189471883
 31
0.0
  0
LINE
  5
1A175
330
1F
100
AcDbEntity
  8
0
100
AcDbLine
 10
528.0094523128108
 20
269.4004189471883
 30
0.0
 11
527.8844523128108
 21
269.1504189471883
 31
0.0
  0
LINE
  5
1A176
330
1F
100
AcDbEntity
  8
0
100
AcDbLine
 10
528.3844523128108
 20
269.1504189471883
 30
0.0
 11
528.2594523128108
 21
269.4004189471883
 31
0.0
  0
LINE
  5
1A177
330
1F
100
AcDbEntity
  8
0
100
AcDbLine
 10
528.2594523128108
 20
269.4004189471883
 30
0.0
 11
528.1344523128108
 21
269.1504189471883
 31
0.0
  0
LINE
  5
1A178
330
1F
100
AcDbEntity
  8
0
100
AcDbLine
 10
528.6344523128108
 20
269.1504189471883
 30
0.0
 11
528.5094523128107
 21
269.4004189471883
 31
0.0
  0
LINE
  5
1A179
330
1F
100
AcDbEntity
  8
0
100
AcDbLine
 10
528.5094523128107
 20
269.4004189471883
 30
0.0
 11
528.3844523128108
 21
269.1504189471883
 31
0.0
  0
LINE
  5
1A17A
330
1F
100
AcDbEntity
  8
0
100
AcDbLine
 10
528.8844523128108
 20
269.1504189471883
 30
0.0
 11
528.7594523128108
 21
269.4004189471883
 31
0.0
  0
LINE
  5
1A17B
330
1F
100
AcDbEntity
  8
0
100
AcDbLine
 10
528.7594523128108
 20
269.4004189471883
 30
0.0
 11
528.6344523128108
 21
269.1504189471883
 31
0.0
  0
LINE
  5
1A17C
330
1F
100
AcDbEntity
  8
0
100
AcDbLine
 10
529.1344523128108
 20
269.1504189471883
 30
0.0
 11
529.0094523128108
 21
269.4004189471883
 31
0.0
  0
LINE
  5
1A17D
330
1F
100
AcDbEntity
  8
0
100
AcDbLine
 10
529.0094523128108
 20
269.4004189471883
 30
0.0
 11
528.8844523128108
 21
269.1504189471883
 31
0.0
  0
LINE
  5
1A17E
330
1F
100
AcDbEntity
  8
0
100
AcDbLine
 10
529.3844523128107
 20
269.1504189471883
 30
0.0
 11
529.2594523128108
 21
269.4004189471883
 31
0.0
  0
LINE
  5
1A17F
330
1F
100
AcDbEntity
  8
0
100
AcDbLine
 10
529.2594523128108
 20
269.4004189471883
 30
0.0
 11
529.1344523128108
 21
269.1504189471883
 31
0.0
  0
LINE
  5
1A180
330
1F
100
AcDbEntity
  8
0
100
AcDbLine
 10
529.6344523128108
 20
269.1504189471883
 30
0.0
 11
529.5094523128108
 21
269.4004189471883
 31
0.0
  0
LINE
  5
1A181
330
1F
100
AcDbEntity
  8
0
100
AcDbLine
 10
529.5094523128108
 20
269.4004189471883
 30
0.0
 11
529.3844523128107
 21
269.1504189471883
 31
0.0
  0
LINE
  5
1A182
330
1F
100
AcDbEntity
  8
0
100
AcDbLine
 10
529.8844523128108
 20
269.1504189471883
 30
0.0
 11
529.7594523128108
 21
269.4004189471883
 31
0.0
  0
LINE
  5
1A183
330
1F
100
AcDbEntity
  8
0
100
AcDbLine
 10
529.7594523128108
 20
269.4004189471883
 30
0.0
 11
529.6344523128108
 21
269.1504189471883
 31
0.0
  0
LINE
  5
1A184
330
1F
100
AcDbEntity
  8
0
100
AcDbLine
 10
530.1344523128108
 20
269.1504189471883
 30
0.0
 11
530.0094523128108
 21
269.4004189471883
 31
0.0
  0
LINE
  5
1A185
330
1F
100
AcDbEntity
  8
0
100
AcDbLine
 10
530.0094523128108
 20
269.4004189471883
 30
0.0
 11
529.8844523128108
 21
269.1504189471883
 31
0.0
  0
LINE
  5
1A186
330
1F
100
AcDbEntity
  8
0
100
AcDbLine
 10
530.3844523128108
 20
269.1504189471883
 30
0.0
 11
530.2594523128107
 21
269.4004189471883
 31
0.0
  0
LINE
  5
1A187
330
1F
100
AcDbEntity
  8
0
100
AcDbLine
 10
530.2594523128107
 20
269.4004189471883
 30
0.0
 11
530.1344523128108
 21
269.1504189471883
 31
0.0
  0
LINE
  5
1A188
330
1F
100
AcDbEntity
  8
0
100
AcDbLine
 10
530.6344523128108
 20
269.1504189471883
 30
0.0
 11
530.5094523128108
 21
269.4004189471883
 31
0.0
  0
LINE
  5
1A189
330
1F
100
AcDbEntity
  8
0
100
AcDbLine
 10
530.5094523128108
 20
269.4004189471883
 30
0.0
 11
530.3844523128108
 21
269.1504189471883
 31
0.0
  0
LINE
  5
1A18A
330
1F
100
AcDbEntity
  8
0
100
AcDbLine
 10
530.8844523128108
 20
269.1504189471883
 30
0.0
 11
530.7594523128108
 21
269.4004189471883
 31
0.0
  0
LINE
  5
1A18B
330
1F
100
AcDbEntity
  8
0
100
AcDbLine
 10
530.7594523128108
 20
269.4004189471883
 30
0.0
 11
530.6344523128108
 21
269.1504189471883
 31
0.0
  0
LINE
  5
1A18C
330
1F
100
AcDbEntity
  8
0
100
AcDbLine
 10
531.1344523128108
 20
269.1504189471883
 30
0.0
 11
531.0094523128108
 21
269.4004189471883
 31
0.0
  0
LINE
  5
1A18D
330
1F
100
AcDbEntity
  8
0
100
AcDbLine
 10
531.0094523128108
 20
269.4004189471883
 30
0.0
 11
530.8844523128108
 21
269.1504189471883
 31
0.0
  0
LINE
  5
1A18E
330
1F
100
AcDbEntity
  8
0
100
AcDbLine
 10
526.3844523128108
 20
266.650418984651
 30
0.0
 11
526.2594523128107
 21
266.400418984651
 31
0.0
  0
LINE
  5
1A18F
330
1F
100
AcDbEntity
  8
0
100
AcDbLine
 10
526.2594523128107
 20
266.400418984651
 30
0.0
 11
526.1344523128108
 21
266.650418984651
 31
0.0
  0
LINE
  5
1A190
330
1F
100
AcDbEntity
  8
0
100
AcDbLine
 10
526.6344523128108
 20
266.650418984651
 30
0.0
 11
526.5094523128108
 21
266.400418984651
 31
0.0
  0
LINE
  5
1A191
330
1F
100
AcDbEntity
  8
0
100
AcDbLine
 10
526.5094523128108
 20
266.400418984651
 30
0.0
 11
526.3844523128108
 21
266.650418984651
 31
0.0
  0
LINE
  5
1A192
330
1F
100
AcDbEntity
  8
0
100
AcDbLine
 10
526.8844523128108
 20
266.650418984651
 30
0.0
 11
526.7594523128108
 21
266.400418984651
 31
0.0
  0
LINE
  5
1A193
330
1F
100
AcDbEntity
  8
0
100
AcDbLine
 10
526.7594523128108
 20
266.400418984651
 30
0.0
 11
526.6344523128108
 21
266.650418984651
 31
0.0
  0
LINE
  5
1A194
330
1F
100
AcDbEntity
  8
0
100
AcDbLine
 10
527.1344523128107
 20
266.650418984651
 30
0.0
 11
527.0094523128108
 21
266.400418984651
 31
0.0
  0
LINE
  5
1A195
330
1F
100
AcDbEntity
  8
0
100
AcDbLine
 10
527.0094523128108
 20
266.400418984651
 30
0.0
 11
526.8844523128108
 21
266.650418984651
 31
0.0
  0
LINE
  5
1A196
330
1F
100
AcDbEntity
  8
0
100
AcDbLine
 10
527.3844523128108
 20
266.650418984651
 30
0.0
 11
527.2594523128108
 21
266.400418984651
 31
0.0
  0
LINE
  5
1A197
330
1F
100
AcDbEntity
  8
0
100
AcDbLine
 10
527.2594523128108
 20
266.400418984651
 30
0.0
 11
527.1344523128107
 21
266.650418984651
 31
0.0
  0
LINE
  5
1A198
330
1F
100
AcDbEntity
  8
0
100
AcDbLine
 10
527.6344523128108
 20
266.650418984651
 30
0.0
 11
527.5094523128108
 21
266.400418984651
 31
0.0
  0
LINE
  5
1A199
330
1F
100
AcDbEntity
  8
0
100
AcDbLine
 10
527.5094523128108
 20
266.400418984651
 30
0.0
 11
527.3844523128108
 21
266.650418984651
 31
0.0
  0
LINE
  5
1A19A
330
1F
100
AcDbEntity
  8
0
100
AcDbLine
 10
527.8844523128108
 20
266.650418984651
 30
0.0
 11
527.7594523128108
 21
266.400418984651
 31
0.0
  0
LINE
  5
1A19B
330
1F
100
AcDbEntity
  8
0
100
AcDbLine
 10
527.7594523128108
 20
266.400418984651
 30
0.0
 11
527.6344523128108
 21
266.650418984651
 31
0.0
  0
LINE
  5
1A19C
330
1F
100
AcDbEntity
  8
0
100
AcDbLine
 10
528.1344523128108
 20
266.650418984651
 30
0.0
 11
528.0094523128108
 21
266.400418984651
 31
0.0
  0
LINE
  5
1A19D
330
1F
100
AcDbEntity
  8
0
100
AcDbLine
 10
528.0094523128108
 20
266.400418984651
 30
0.0
 11
527.8844523128108
 21
266.650418984651
 31
0.0
  0
LINE
  5
1A19E
330
1F
100
AcDbEntity
  8
0
100
AcDbLine
 10
528.3844523128108
 20
266.650418984651
 30
0.0
 11
528.2594523128108
 21
266.400418984651
 31
0.0
  0
LINE
  5
1A19F
330
1F
100
AcDbEntity
  8
0
100
AcDbLine
 10
528.2594523128108
 20
266.400418984651
 30
0.0
 11
528.1344523128108
 21
266.650418984651
 31
0.0
  0
LINE
  5
1A1A0
330
1F
100
AcDbEntity
  8
0
100
AcDbLine
 10
528.6344523128108
 20
266.650418984651
 30
0.0
 11
528.5094523128107
 21
266.400418984651
 31
0.0
  0
LINE
  5
1A1A1
330
1F
100
AcDbEntity
  8
0
100
AcDbLine
 10
528.5094523128107
 20
266.400418984651
 30
0.0
 11
528.3844523128108
 21
266.650418984651
 31
0.0
  0
LINE
  5
1A1A2
330
1F
100
AcDbEntity
  8
0
100
AcDbLine
 10
528.8844523128108
 20
266.650418984651
 30
0.0
 11
528.7594523128108
 21
266.400418984651
 31
0.0
  0
LINE
  5
1A1A3
330
1F
100
AcDbEntity
  8
0
100
AcDbLine
 10
528.7594523128108
 20
266.400418984651
 30
0.0
 11
528.6344523128108
 21
266.650418984651
 31
0.0
  0
LINE
  5
1A1A4
330
1F
100
AcDbEntity
  8
0
100
AcDbLine
 10
529.1344523128108
 20
266.650418984651
 30
0.0
 11
529.0094523128108
 21
266.400418984651
 31
0.0
  0
LINE
  5
1A1A5
330
1F
100
AcDbEntity
  8
0
100
AcDbLine
 10
529.0094523128108
 20
266.400418984651
 30
0.0
 11
528.8844523128108
 21
266.650418984651
 31
0.0
  0
LINE
  5
1A1A6
330
1F
100
AcDbEntity
  8
0
100
AcDbLine
 10
529.3844523128107
 20
266.650418984651
 30
0.0
 11
529.2594523128108
 21
266.400418984651
 31
0.0
  0
LINE
  5
1A1A7
330
1F
100
AcDbEntity
  8
0
100
AcDbLine
 10
529.2594523128108
 20
266.400418984651
 30
0.0
 11
529.1344523128108
 21
266.650418984651
 31
0.0
  0
LINE
  5
1A1A8
330
1F
100
AcDbEntity
  8
0
100
AcDbLine
 10
529.6344523128108
 20
266.650418984651
 30
0.0
 11
529.5094523128108
 21
266.400418984651
 31
0.0
  0
LINE
  5
1A1A9
330
1F
100
AcDbEntity
  8
0
100
AcDbLine
 10
529.5094523128108
 20
266.400418984651
 30
0.0
 11
529.3844523128107
 21
266.650418984651
 31
0.0
  0
LINE
  5
1A1AA
330
1F
100
AcDbEntity
  8
0
100
AcDbLine
 10
529.8844523128108
 20
266.650418984651
 30
0.0
 11
529.7594523128108
 21
266.400418984651
 31
0.0
  0
LINE
  5
1A1AB
330
1F
100
AcDbEntity
  8
0
100
AcDbLine
 10
529.7594523128108
 20
266.400418984651
 30
0.0
 11
529.6344523128108
 21
266.650418984651
 31
0.0
  0
LINE
  5
1A1AC
330
1F
100
AcDbEntity
  8
0
100
AcDbLine
 10
530.1344523128108
 20
266.650418984651
 30
0.0
 11
530.0094523128108
 21
266.400418984651
 31
0.0
  0
LINE
  5
1A1AD
330
1F
100
AcDbEntity
  8
0
100
AcDbLine
 10
530.0094523128108
 20
266.400418984651
 30
0.0
 11
529.8844523128108
 21
266.650418984651
 31
0.0
  0
LINE
  5
1A1AE
330
1F
100
AcDbEntity
  8
0
100
AcDbLine
 10
530.3844523128108
 20
266.650418984651
 30
0.0
 11
530.2594523128107
 21
266.400418984651
 31
0.0
  0
LINE
  5
1A1AF
330
1F
100
AcDbEntity
  8
0
100
AcDbLine
 10
530.2594523128107
 20
266.400418984651
 30
0.0
 11
530.1344523128108
 21
266.650418984651
 31
0.0
  0
LINE
  5
1A1B0
330
1F
100
AcDbEntity
  8
0
100
AcDbLine
 10
530.6344523128108
 20
266.650418984651
 30
0.0
 11
530.5094523128108
 21
266.400418984651
 31
0.0
  0
LINE
  5
1A1B1
330
1F
100
AcDbEntity
  8
0
100
AcDbLine
 10
530.5094523128108
 20
266.400418984651
 30
0.0
 11
530.3844523128108
 21
266.650418984651
 31
0.0
  0
LINE
  5
1A1B2
330
1F
100
AcDbEntity
  8
0
100
AcDbLine
 10
530.8844523128108
 20
266.650418984651
 30
0.0
 11
530.7594523128108
 21
266.400418984651
 31
0.0
  0
LINE
  5
1A1B3
330
1F
100
AcDbEntity
  8
0
100
AcDbLine
 10
530.7594523128108
 20
266.400418984651
 30
0.0
 11
530.6344523128108
 21
266.650418984651
 31
0.0
  0
LINE
  5
1A1B4
330
1F
100
AcDbEntity
  8
0
100
AcDbLine
 10
531.0094523128108
 20
266.400418984651
 30
0.0
 11
530.8844523128108
 21
266.650418984651
 31
0.0
  0
LINE
  5
1A1B5
330
1F
100
AcDbEntity
  8
0
100
AcDbLine
 10
531.1344523128108
 20
266.650418984651
 30
0.0
 11
531.0094523128108
 21
266.400418984651
 31
0.0
  0
LINE
  5
1A1B6
330
1F
100
AcDbEntity
  8
0
100
AcDbLine
 10
526.1344523128108
 20
266.650418984651
 30
0.0
 11
526.1344523128108
 21
269.1504189471883
 31
0.0
  0
LINE
  5
1A1B7
330
1F
100
AcDbEntity
  8
0
100
AcDbLine
 10
526.2594523128107
 20
266.400418984651
 30
0.0
 11
526.2594523128107
 21
269.400418984651
 31
0.0
  0
LINE
  5
1A1B8
330
1F
100
AcDbEntity
  8
0
100
AcDbLine
 10
526.3844523128108
 20
266.650418984651
 30
0.0
 11
526.3844523128108
 21
269.1504189471882
 31
0.0
  0
LINE
  5
1A1B9
330
1F
100
AcDbEntity
  8
0
100
AcDbLine
 10
526.5094523128108
 20
266.400418984651
 30
0.0
 11
526.5094523128108
 21
269.400418984651
 31
0.0
  0
LINE
  5
1A1BA
330
1F
100
AcDbEntity
  8
0
100
AcDbLine
 10
526.6344523128108
 20
266.650418984651
 30
0.0
 11
526.6344523128108
 21
269.1504189471882
 31
0.0
  0
LINE
  5
1A1BB
330
1F
100
AcDbEntity
  8
0
100
AcDbLine
 10
526.7594523128108
 20
266.400418984651
 30
0.0
 11
526.7594523128108
 21
269.400418984651
 31
0.0
  0
LINE
  5
1A1BC
330
1F
100
AcDbEntity
  8
0
100
AcDbLine
 10
526.8844523128108
 20
266.650418984651
 30
0.0
 11
526.8844523128108
 21
269.1504189471883
 31
0.0
  0
LINE
  5
1A1BD
330
1F
100
AcDbEntity
  8
0
100
AcDbLine
 10
527.0094523128108
 20
266.400418984651
 30
0.0
 11
527.0094523128108
 21
269.400418984651
 31
0.0
  0
LINE
  5
1A1BE
330
1F
100
AcDbEntity
  8
0
100
AcDbLine
 10
527.1344523128107
 20
266.650418984651
 30
0.0
 11
527.1344523128107
 21
269.1504189471883
 31
0.0
  0
LINE
  5
1A1BF
330
1F
100
AcDbEntity
  8
0
100
AcDbLine
 10
527.2594523128108
 20
266.400418984651
 30
0.0
 11
527.2594523128108
 21
269.400418984651
 31
0.0
  0
LINE
  5
1A1C0
330
1F
100
AcDbEntity
  8
0
100
AcDbLine
 10
527.3844523128108
 20
266.650418984651
 30
0.0
 11
527.3844523128108
 21
269.1504189471882
 31
0.0
  0
LINE
  5
1A1C1
330
1F
100
AcDbEntity
  8
0
100
AcDbLine
 10
527.5094523128108
 20
266.400418984651
 30
0.0
 11
527.5094523128108
 21
269.400418984651
 31
0.0
  0
LINE
  5
1A1C2
330
1F
100
AcDbEntity
  8
0
100
AcDbLine
 10
527.6344523128108
 20
266.650418984651
 30
0.0
 11
527.6344523128108
 21
269.1504189471882
 31
0.0
  0
LINE
  5
1A1C3
330
1F
100
AcDbEntity
  8
0
100
AcDbLine
 10
527.7594523128108
 20
266.400418984651
 30
0.0
 11
527.7594523128108
 21
269.400418984651
 31
0.0
  0
LINE
  5
1A1C4
330
1F
100
AcDbEntity
  8
0
100
AcDbLine
 10
527.8844523128108
 20
266.650418984651
 30
0.0
 11
527.8844523128108
 21
269.1504189471887
 31
0.0
  0
LINE
  5
1A1C5
330
1F
100
AcDbEntity
  8
0
100
AcDbLine
 10
528.0094523128108
 20
266.400418984651
 30
0.0
 11
528.0094523128108
 21
269.400418984651
 31
0.0
  0
LINE
  5
1A1C6
330
1F
100
AcDbEntity
  8
0
100
AcDbLine
 10
528.1344523128108
 20
266.650418984651
 30
0.0
 11
528.1344523128108
 21
269.1504189471887
 31
0.0
  0
LINE
  5
1A1C7
330
1F
100
AcDbEntity
  8
0
100
AcDbLine
 10
528.2594523128108
 20
266.400418984651
 30
0.0
 11
528.2594523128108
 21
269.400418984651
 31
0.0
  0
LINE
  5
1A1C8
330
1F
100
AcDbEntity
  8
0
100
AcDbLine
 10
528.3844523128108
 20
266.6504189846514
 30
0.0
 11
528.3844523128108
 21
269.1504189471884
 31
0.0
  0
LINE
  5
1A1C9
330
1F
100
AcDbEntity
  8
0
100
AcDbLine
 10
528.5094523128107
 20
266.400418984651
 30
0.0
 11
528.5094523128107
 21
269.400418984651
 31
0.0
  0
LINE
  5
1A1CA
330
1F
100
AcDbEntity
  8
0
100
AcDbLine
 10
528.6344523128108
 20
266.6504189846514
 30
0.0
 11
528.6344523128108
 21
269.1504189471891
 31
0.0
  0
LINE
  5
1A1CB
330
1F
100
AcDbEntity
  8
0
100
AcDbLine
 10
528.7594523128108
 20
266.400418984651
 30
0.0
 11
528.7594523128108
 21
269.400418984651
 31
0.0
  0
LINE
  5
1A1CC
330
1F
100
AcDbEntity
  8
0
100
AcDbLine
 10
528.8844523128108
 20
266.650418984651
 30
0.0
 11
528.8844523128108
 21
269.1504189471885
 31
0.0
  0
LINE
  5
1A1CD
330
1F
100
AcDbEntity
  8
0
100
AcDbLine
 10
529.0094523128108
 20
266.400418984651
 30
0.0
 11
529.0094523128108
 21
269.400418984651
 31
0.0
  0
LINE
  5
1A1CE
330
1F
100
AcDbEntity
  8
0
100
AcDbLine
 10
529.1344523128108
 20
266.650418984651
 30
0.0
 11
529.1344523128108
 21
269.1504189471885
 31
0.0
  0
LINE
  5
1A1CF
330
1F
100
AcDbEntity
  8
0
100
AcDbLine
 10
529.2594523128108
 20
266.400418984651
 30
0.0
 11
529.2594523128108
 21
269.400418984651
 31
0.0
  0
LINE
  5
1A1D0
330
1F
100
AcDbEntity
  8
0
100
AcDbLine
 10
529.3844523128107
 20
266.650418984651
 30
0.0
 11
529.3844523128107
 21
269.1504189471882
 31
0.0
  0
LINE
  5
1A1D1
330
1F
100
AcDbEntity
  8
0
100
AcDbLine
 10
529.5094523128108
 20
266.400418984651
 30
0.0
 11
529.5094523128108
 21
269.400418984651
 31
0.0
  0
LINE
  5
1A1D2
330
1F
100
AcDbEntity
  8
0
100
AcDbLine
 10
529.6344523128108
 20
266.650418984651
 30
0.0
 11
529.6344523128108
 21
269.1504189471882
 31
0.0
  0
LINE
  5
1A1D3
330
1F
100
AcDbEntity
  8
0
100
AcDbLine
 10
529.7594523128108
 20
266.400418984651
 30
0.0
 11
529.7594523128108
 21
269.400418984651
 31
0.0
  0
LINE
  5
1A1D4
330
1F
100
AcDbEntity
  8
0
100
AcDbLine
 10
529.8844523128108
 20
266.650418984651
 30
0.0
 11
529.8844523128108
 21
269.1504189471882
 31
0.0
  0
LINE
  5
1A1D5
330
1F
100
AcDbEntity
  8
0
100
AcDbLine
 10
530.0094523128108
 20
266.400418984651
 30
0.0
 11
530.0094523128108
 21
269.400418984651
 31
0.0
  0
LINE
  5
1A1D6
330
1F
100
AcDbEntity
  8
0
100
AcDbLine
 10
530.1344523128108
 20
266.650418984651
 30
0.0
 11
530.1344523128108
 21
269.1504189471882
 31
0.0
  0
LINE
  5
1A1D7
330
1F
100
AcDbEntity
  8
0
100
AcDbLine
 10
530.2594523128107
 20
266.400418984651
 30
0.0
 11
530.2594523128107
 21
269.400418984651
 31
0.0
  0
LINE
  5
1A1D8
330
1F
100
AcDbEntity
  8
0
100
AcDbLine
 10
530.3844523128108
 20
266.650418984651
 30
0.0
 11
530.3844523128108
 21
269.1504189471882
 31
0.0
  0
LINE
  5
1A1D9
330
1F
100
AcDbEntity
  8
0
100
AcDbLine
 10
530.5094523128108
 20
266.400418984651
 30
0.0
 11
530.5094523128108
 21
269.400418984651
 31
0.0
  0
LINE
  5
1A1DA
330
1F
100
AcDbEntity
  8
0
100
AcDbLine
 10
530.6344523128108
 20
266.650418984651
 30
0.0
 11
530.6344523128108
 21
269.1504189471882
 31
0.0
  0
LINE
  5
1A1DB
330
1F
100
AcDbEntity
  8
0
100
AcDbLine
 10
530.7594523128108
 20
266.400418984651
 30
0.0
 11
530.7594523128108
 21
269.400418984651
 31
0.0
  0
LINE
  5
1A1DC
330
1F
100
AcDbEntity
  8
0
100
AcDbLine
 10
530.8844523128108
 20
266.650418984651
 30
0.0
 11
530.8844523128108
 21
269.1504189471884
 31
0.0
  0
LINE
  5
1A1DD
102
{ACAD_REACTORS
330
1A15D
102
}
330
1F
100
AcDbEntity
  8
0
100
AcDbLine
 10
531.0094523128108
 20
266.400418984651
 30
0.0
 11
531.0094523128108
 21
269.4004189846511
 31
0.0
  0
LINE
  5
1A1DE
330
1F
100
AcDbEntity
  8
0
100
AcDbLine
 10
504.9344523128111
 20
268.450418984651
 30
0.0
 11
504.9344523128104
 21
271.150418984651
 31
0.0
  0
LINE
  5
1A1DF
330
1F
100
AcDbEntity
  8
0
100
AcDbLine
 10
526.1344523128108
 20
269.0504189846511
 30
0.0
 11
522.1344523128108
 21
269.0504189846511
 31
0.0
  0
LINE
  5
1A1E0
330
1F
100
AcDbEntity
  8
0
100
AcDbLine
 10
526.1344523128108
 20
266.7504189846511
 30
0.0
 11
522.1344523128108
 21
266.7504189846511
 31
0.0
  0
LINE
  5
1A1E1
330
1F
100
AcDbEntity
  8
0
100
AcDbLine
 10
531.1344523128108
 20
266.650418984651
 30
0.0
 11
531.1344523128108
 21
269.1504189471885
 31
0.0
  0
LINE
  5
1A1E2
330
1F
100
AcDbEntity
  8
0
100
AcDbLine
 10
504.9344523128111
 20
264.650418984651
 30
0.0
 11
504.9344523128111
 21
267.3504189846511
 31
0.0
  0
LINE
  5
1A1E3
330
1F
100
AcDbEntity
  8
0
100
AcDbLine
 10
522.1344523128108
 20
271.150418984651
 30
0.0
 11
504.9344523128104
 21
271.150418984651
 31
0.0
  0
LINE
  5
1A1E4
330
1F
100
AcDbEntity
  8
0
100
AcDbLine
 10
522.1344523128108
 20
264.650418984651
 30
0.0
 11
504.9344523128111
 21
264.650418984651
 31
0.0
  0
LINE
  5
1A1E5
330
1F
100
AcDbEntity
  8
0
100
AcDbLine
 10
522.1344523128108
 20
264.650418984651
 30
0.0
 11
522.1344523128108
 21
271.1504189846511
 31
0.0
  0
DIMENSION
  5
1A1E6
330
1F
100
AcDbEntity
  8
DIM
100
AcDbDimension
  2
*D3
 10
522.1344523128108
 20
274.3345787297723
 30
0.0
 11
526.6344523128108
 21
274.3345787297723
 31
0.0
 70
   160
  1
<>
 71
     5
 42
9.0
 73
     0
 74
     0
 75
     0
  3
01
100
AcDbAlignedDimension
 13
531.1344523128108
 23
269.1504189471885
 33
0.0
 14
522.1344523128108
 24
271.150418984651
 34
0.0
 50
180.0
100
AcDbRotatedDimension
1001
ACAD
1000
DSTYLE
1002
{
1070
    40
1040
0.6
1070
   289
1070
     2
1002
}
  0
DIMENSION
  5
1A1E7
330
1F
100
AcDbEntity
  8
DIM
100
AcDbDimension
  2
*D4
 10
500.3966208225
 20
268.450418984651
 30
0.0
 11
500.3966208225
 21
273.8429189846511
 31
0.0
 70
   160
 71
     5
 42
1.099999999999909
 73
     0
 74
     0
 75
     0
  3
01
100
AcDbAlignedDimension
 13
505.934452312811
 23
267.3504189846511
 33
0.0
 14
505.934452312811
 24
268.450418984651
 34
0.0
 50
90.0
100
AcDbRotatedDimension
1001
ACAD
1000
DSTYLE
1002
{
1070
    40
1040
0.6
1070
   289
1070
     2
1002
}
  0
LINE
  5
1A1E8
330
1F
100
AcDbEntity
  8
0
100
AcDbLine
 10
506.9344523128111
 20
268.450418984651
 30
0.0
 11
504.9344523128111
 21
268.450418984651
 31
0.0
  0
LINE
  5
1A1E9
330
1F
100
AcDbEntity
  8
0
100
AcDbLine
 10
506.9344523128115
 20
267.3504189846511
 30
0.0
 11
504.9344523128111
 21
267.3504189846511
 31
0.0
  0
LINE
  5
1A1EA
330
1F
100
AcDbEntity
  8
0
100
AcDbLine
 10
506.9344523128111
 20
268.4504189846515
 30
0.0
 11
506.9344523128111
 21
267.3504189846515
 31
0.0
  0
DIMENSION
  5
1A1EB
330
1F
100
AcDbEntity
  8
DIM
100
AcDbDimension
  2
*D5
 10
504.9344523128104
 20
277.7604592177969
 30
0.0
 11
518.0344523128106
 21
279.2904592177968
 31
0.0
 70
    32
 71
     5
 42
26.20000000000004
 73
     0
 74
     0
 75
     0
  3
01
100
AcDbAlignedDimension
 13
531.1344523128108
 23
274.3345787297723
 33
0.0
 14
504.9344523128104
 24
271.150418984651
 34
0.0
 50
180.0
100
AcDbRotatedDimension
1001
ACAD
1000
DSTYLE
1002
{
1070
    40
1040
0.6
1070
   289
1070
     2
1002
}
  0
LINE
  5
1A1EC
330
1F
100
AcDbEntity
  8
0
100
AcDbLine
 10
552.1229203318466
 20
268.450418984651
 30
0.0
 11
551.1011189218203
 21
268.450418984651
 31
0.0
  0
LINE
  5
1A1ED
330
1F
100
AcDbEntity
  8
0
100
AcDbLine
 10
552.1229203318466
 20
267.350418984651
 30
0.0
 11
551.1011189218203
 21
267.350418984651
 31
0.0
  0
LINE
  5
1A1EE
330
1F
100
AcDbEntity
  8
0
100
AcDbLine
 10
545.7158326659402
 20
267.350418984651
 30
0.0
 11
546.7376340759662
 21
267.350418984651
 31
0.0
  0
LINE
  5
1A1EF
330
1F
100
AcDbEntity
  8
0
100
AcDbLine
 10
545.7158326659402
 20
268.450418984651
 30
0.0
 11
546.7376340759662
 21
268.450418984651
 31
0.0
  0
CIRCLE
  5
1A1F0
330
1F
100
AcDbEntity
  8
0
100
AcDbCircle
 10
548.9193764988931
 20
267.900418984651
 30
0.0
 40
2.25
  0
LINE
  5
1A1F4
330
1F
100
AcDbEntity
  8
CEN
  6
CENTER
 62
     1
 48
3.0
100
AcDbLine
 10
502.881870988553
 20
267.9004189846511
 30
0.0
 11
532.5655752350078
 21
267.9004189846511
 31
0.0
  0
LINE
  5
1A1F5
330
1F
100
AcDbEntity
  8
CEN
  6
CENTER
 62
     1
 48
3.0
100
AcDbLine
 10
544.4891097939678
 20
267.9004189846511
 30
0.0
 11
553.6169133038352
 21
267.9004189846511
 31
0.0
  0
LINE
  5
1A1F6
330
1F
100
AcDbEntity
  8
CEN
  6
CENTER
 62
     1
 48
3.0
100
AcDbLine
 10
548.9193764988931
 20
271.8610199420349
 30
0.0
 11
548.9193764988931
 21
263.7496590636109
 31
0.0
  0
LINE
  5
1A1F7
330
1F
100
AcDbEntity
  8
0
100
AcDbLine
 10
476.2052034163708
 20
220.9994306046961
 30
0.0
 11
476.2771673071902
 21
220.4143464070436
 31
0.0
  0
LINE
  5
1A1F8
330
1F
100
AcDbEntity
  8
0
100
AcDbLine
 10
477.5956578941204
 20
219.3462147482795
 30
0.0
 11
478.1829392973149
 21
219.3972331165499
 31
0.0
  0
LINE
  5
1A1F9
330
1F
100
AcDbEntity
  8
0
100
AcDbLine
 10
488.7216510619929
 20
238.8887047052737
 30
0.0
 11
479.5832934034033
 21
227.6084112578996
 31
0.0
  0
LINE
  5
1A1FA
330
1F
100
AcDbEntity
  8
0
100
AcDbLine
 10
488.8142216078648
 20
238.5058136597492
 30
0.0
 11
488.0660519745551
 21
237.5822808626122
 31
0.0
  0
LINE
  5
1A1FB
330
1F
100
AcDbEntity
  8
0
100
AcDbLine
 10
488.4223385831691
 20
237.1123596266679
 30
0.0
 11
489.1705082164788
 21
238.0358924227076
 31
0.0
  0
LINE
  5
1A1FC
330
1F
100
AcDbEntity
  8
0
100
AcDbLine
 10
489.2844229376966
 20
237.9673632991921
 30
0.0
 11
489.4236327642699
 21
238.1392024594196
 31
0.0
  0
LINE
  5
1A1FD
330
1F
100
AcDbEntity
  8
0
100
AcDbLine
 10
480.4670233846215
 20
226.2972829325771
 30
0.0
 11
476.2156882603441
 21
221.0494791650813
 31
0.0
  0
LINE
  5
1A1FE
330
1F
100
AcDbEntity
  8
0
100
AcDbLine
 10
492.027123735647
 20
236.572987367665
 30
0.0
 11
491.673193708106
 21
236.1360998317086
 31
0.0
  0
LINE
  5
1A1FF
330
1F
100
AcDbEntity
  8
0
100
AcDbLine
 10
478.229722559806
 20
219.4178757097172
 30
0.0
 11
482.4810966506908
 21
224.6657275753844
 31
0.0
  0
LINE
  5
1A200
330
1F
100
AcDbEntity
  8
0
100
AcDbLine
 10
492.2071744137973
 20
235.8855223374366
 30
0.0
 11
492.3834103442612
 21
236.1030661317208
 31
0.0
  0
LINE
  5
1A201
330
1F
100
AcDbEntity
  8
0
100
AcDbLine
 10
492.4973250654788
 20
236.034537007108
 30
0.0
 11
492.6365348920521
 21
236.2063761673354
 31
0.0
  0
LINE
  5
1A202
330
1F
100
AcDbEntity
  8
0
100
AcDbLine
 10
483.9470343879484
 20
224.0732704373953
 30
0.0
 11
493.0853920465382
 21
235.3535638847694
 31
0.0
  0
LINE
  5
1A203
330
1F
100
AcDbEntity
  8
0
100
AcDbLine
 10
478.229722559806
 20
219.4178757097172
 30
0.0
 11
478.1829392973149
 21
219.3972331165499
 31
0.0
  0
LINE
  5
1A204
330
1F
100
AcDbEntity
  8
0
100
AcDbLine
 10
488.0660519745551
 20
237.5822808626122
 30
0.0
 11
488.56154841084
 21
237.2841987857982
 31
0.0
  0
LINE
  5
1A205
330
1F
100
AcDbEntity
  8
0
100
AcDbLine
 10
489.1705082164788
 20
238.0358924227076
 30
0.0
 11
489.779919372884
 21
237.669281222378
 31
0.0
  0
LINE
  5
1A206
330
1F
100
AcDbEntity
  8
0
100
AcDbLine
 10
492.3834103442612
 20
236.1030661317208
 30
0.0
 11
492.9928215006659
 21
235.7364549313912
 31
0.0
  0
LINE
  5
1A207
330
1F
100
AcDbEntity
  8
0
100
AcDbLine
 10
492.6365348920521
 20
236.2063761673354
 30
0.0
 11
492.027123735647
 21
236.572987367665
 31
0.0
  0
LINE
  5
1A208
330
1F
100
AcDbEntity
  8
0
100
AcDbLine
 10
488.8142216078648
 20
238.5058136597492
 30
0.0
 11
489.4236327642699
 21
238.1392024594196
 31
0.0
  0
SPLINE
  5
1A209
330
1F
100
AcDbEntity
  8
0
100
AcDbSpline
210
0.0
220
0.0
230
1.0
 70
     8
 71
     3
 72
    12
 73
     8
 74
     6
 42
0.0000000001
 43
0.0000000001
 44
0.0000000001
 12
-0.4580095553631841
 22
0.8889472690750665
 32
0.0
 13
0.6357546509582283
 23
0.7718911994478118
 33
0.0
 40
0.0
 40
0.0
 40
0.0
 40
0.0
 40
0.0717250397878466
 40
0.1285996093649213
 40
0.1741113674933136
 40
0.2099166944739076
 40
0.2174666529457771
 40
0.2174666529457771
 40
0.2174666529457771
 40
0.2174666529457771
 10
489.4236327642699
 20
238.1392024594196
 30
0.0
 10
489.412682513076
 20
238.1604557188342
 30
0.0
 10
489.3946242855232
 20
238.1994543952707
 30
0.0
 10
489.3777238599726
 20
238.2552379801633
 30
0.0
 10
489.3739469634794
 20
238.3017040876747
 30
0.0
 10
489.3828600301285
 20
238.3311804069961
 30
0.0
 10
489.3914387741183
 20
238.3428596152422
 30
0.0
 10
489.393038747856
 20
238.3448021974091
 30
0.0
 11
489.4236327642699
 21
238.1392024594196
 31
0.0
 11
489.3942733326968
 21
238.204643311418
 31
0.0
 11
489.3788240922518
 21
238.2593793839319
 31
0.0
 11
489.3769326240303
 21
238.3048518203732
 31
0.0
 11
489.3885792285656
 21
238.3387100253313
 31
0.0
 11
489.393038747856
 21
238.3448021974091
 31
0.0
  0
SPLINE
  5
1A20A
330
1F
100
AcDbEntity
  8
0
100
AcDbSpline
210
0.0
220
0.0
230
1.0
 70
     8
 71
     3
 72
    38
 73
    34
 74
    32
 42
0.0000000001
 43
0.0000000001
 44
0.0000000001
 12
-0.6573151576665755
 22
0.7536158062977218
 32
0.0
 13
-0.6299029347526554
 23
-0.7766738651390247
 33
0.0
 40
0.0
 40
0.0
 40
0.0
 40
0.0
 40
0.1953254751181497
 40
0.4125054303952015
 40
0.6510001259405369
 40
0.9089014036288379
 40
1.183839190613717
 40
1.472274014056591
 40
1.770175307496796
 40
2.072705425625607
 40
2.374806082041779
 40
2.671332628401589
 40
2.95729648897716
 40
3.228410027765741
 40
3.480860674889195
 40
3.712025145616221
 40
3.919903088601318
 40
4.1037831707045
 40
4.263486069378817
 40
4.399767733908106
 40
4.459567041497806
 40
4.513964535797615
 40
4.563449108060319
 40
4.586928941477334
 40
4.609689804524572
 40
4.652968374474505
 40
4.693096441872762
 40
4.72993839381388
 40
4.763477130386485
 40
4.793884310205781
 40
4.821612259075422
 40
4.847498272637482
 40
4.863147743687711
 40
4.863147743687711
 40
4.863147743687711
 40
4.863147743687711
 10
492.6365348887602
 20
236.2063761640436
 30
0.0
 10
492.593738090269
 20
236.2554429525175
 30
0.0
 10
492.5017144471071
 20
236.3576411094403
 30
0.0
 10
492.3522311124945
 20
236.5149729441372
 30
0.0
 10
492.1841802443124
 20
236.683336852777
 30
0.0
 10
491.9984476195021
 20
236.8611578411341
 30
0.0
 10
491.7966361049403
 20
237.0461622350251
 30
0.0
 10
491.5810680299574
 20
237.2358018864029
 30
0.0
 10
491.3546736696104
 20
237.4269674928338
 30
0.0
 10
491.1210177252743
 20
237.6165038638743
 30
0.0
 10
490.8839417357821
 20
237.8010001397999
 30
0.0
 10
490.6475988356669
 20
237.977349985964
 30
0.0
 10
490.4159275142249
 20
238.1425809568676
 30
0.0
 10
490.1927669934212
 20
238.2943299753035
 30
0.0
 10
489.9813037688955
 20
238.4306659399497
 30
0.0
 10
489.7843074104001
 20
238.5503980486408
 30
0.0
 10
489.6036741379059
 20
238.6528711144889
 30
0.0
 10
489.4407533268668
 20
238.7380915826723
 30
0.0
 10
489.2961142496717
 20
238.806500838864
 30
0.0
 10
489.1865491229804
 20
238.8520606952002
 30
0.0
 10
489.1080327140222
 20
238.8804939611302
 30
0.0
 10
489.0561315662064
 20
238.8973556364913
 30
0.0
 10
489.0152721532356
 20
238.9089298275865
 30
0.0
 10
488.9842933123849
 20
238.9165875417321
 30
0.0
 10
488.9551592476058
 20
238.9230486672664
 30
0.0
 10
488.9203143999472
 20
238.9293526159392
 30
0.0
 10
488.8804569000604
 20
238.9339113158452
 30
0.0
 10
488.8435888443814
 20
238.9351049931711
 30
0.0
 10
488.8100022343601
 20
238.9326976942333
 30
0.0
 10
488.7799757645873
 20
238.9264156095432
 30
0.0
 10
488.7538019797506
 20
238.915973391628
 30
0.0
 10
488.7345374568949
 20
238.9028239111931
 30
0.0
 10
488.7249406621582
 20
238.8927531248613
 30
0.0
 10
488.7216547795776
 20
238.8887016131387
 30
0.0
 11
492.6365348887602
 21
236.2063761640436
 31
0.0
 11
492.5059853072792
 21
236.3516650074049
 31
0.0
 11
492.3565163505206
 21
236.5092282135783
 31
0.0
 11
492.1881445687581
 21
236.6781384350256
 31
0.0
 11
492.001933792509
 21
236.8565722206212
 31
0.0
 11
491.7993408968879
 21
237.0424401989176
 31
0.0
 11
491.5828116114814
 21
237.2329912837633
 31
0.0
 11
491.3552334571392
 21
237.4252238624266
 31
0.0
 11
491.1202722740678
 21
237.615795934947
 31
0.0
 11
490.8818505167642
 21
237.8013218691217
 31
0.0
 11
490.644138773139
 21
237.9785819030795
 31
0.0
 11
490.4112712014047
 21
238.1445578760088
 31
0.0
 11
490.1869881053846
 21
238.2968721686872
 31
0.0
 11
489.9747202001271
 21
238.4335237900849
 31
0.0
 11
489.7770537032688
 21
238.5533777368129
 31
0.0
 11
489.5961132802684
 21
238.655719333948
 31
0.0
 11
489.4330219061315
 21
238.7406492360817
 31
0.0
 11
489.2884913457954
 21
238.8085898938197
 31
0.0
 11
489.1624740124203
 21
238.8604775009714
 31
0.0
 11
489.1062260504638
 21
238.8807783375044
 31
0.0
 11
489.0544675810983
 21
238.897515966818
 31
0.0
 11
489.0068352137162
 21
238.9109279193082
 31
0.0
 11
488.9840388453495
 21
238.9165518117841
 31
0.0
 11
488.9618151188851
 21
238.9214673858798
 31
0.0
 11
488.9192073370749
 21
238.9290576128939
 31
0.0
 11
488.8793224577796
 21
238.933468757498
 31
0.0
 11
488.8424941605552
 21
238.934471726282
 31
0.0
 11
488.8090590239712
 21
238.9318376244433
 31
0.0
 11
488.7793530307742
 21
238.9253452787387
 31
0.0
 11
488.7537068715308
 21
238.914804232084
 31
0.0
 11
488.7324499178753
 21
238.9000317028686
 31
0.0
 11
488.7216547795776
 21
238.8887016131387
 31
0.0
  0
SPLINE
  5
1A20B
330
1F
100
AcDbEntity
  8
0
100
AcDbSpline
210
0.0
220
0.0
230
1.0
 70
     8
 71
     3
 72
    19
 73
    15
 74
    13
 42
0.0000000001
 43
0.0000000001
 44
0.0000000001
 12
-0.6041654227803388
 22
0.7968589222168843
 32
0.0
 13
0.6299027358287611
 23
0.7766740264714934
 33
0.0
 40
0.0
 40
0.0
 40
0.0
 40
0.0
 40
0.1758164296832086
 40
0.2538347711755926
 40
0.3249957330335096
 40
0.3891868284741545
 40
0.4465071040153822
 40
0.4971537337024096
 40
0.5414115302526187
 40
0.5797382231934318
 40
0.6129180565346188
 40
0.64202192894639
 40
0.6684252752439625
 40
0.6781572930915237
 40
0.6781572930915237
 40
0.6781572930915237
 40
0.6781572930915237
 10
479.8260381838511
 20
227.0073853012849
 30
0.0
 10
479.7906307813272
 20
227.0540855981734
 30
0.0
 10
479.7410862487356
 20
227.1227612432362
 30
0.0
 10
479.6824149060027
 20
227.2138547651124
 30
0.0
 10
479.646338013929
 20
227.2751768588779
 30
0.0
 10
479.6164989274732
 20
227.3320824905566
 30
0.0
 10
479.59286514925
 20
227.3844198468129
 30
0.0
 10
479.5753561789184
 20
227.4321024731756
 30
0.0
 10
479.5638798192495
 20
227.4750857606859
 30
0.0
 10
479.5583726911964
 20
227.5133931707748
 30
0.0
 10
479.5586831610641
 20
227.5470940692296
 30
0.0
 10
479.5646936499008
 20
227.5762657653049
 30
0.0
 10
479.5741293263537
 20
227.5961522594478
 30
0.0
 10
479.5812536985005
 20
227.6058886152402
 30
0.0
 10
479.583297106723
 20
227.6084081504027
 30
0.0
 11
479.8260381838511
 21
227.0073853012849
 31
0.0
 11
479.7237822129608
 21
227.1504067450052
 31
0.0
 11
479.6816440724771
 21
227.2160667688081
 31
0.0
 11
479.6456912302253
 21
227.2774774814449
 31
0.0
 11
479.6160313304699
 21
227.3344053927044
 31
0.0
 11
479.5926263733072
 21
227.3867295933035
 31
0.0
 11
479.5754019510836
 21
227.4343573202881
 31
0.0
 11
479.5642836561444
 21
227.4771958085098
 31
0.0
 11
479.559168491206
 21
227.5151796271624
 31
0.0
 11
479.5598391026564
 21
227.5483526828075
 31
0.0
 11
479.5660495472533
 21
227.5767862152519
 31
0.0
 11
479.5775538828528
 21
227.6005514621079
 31
0.0
 11
479.583297106723
 21
227.6084081504027
 31
0.0
  0
SPLINE
  5
1A20C
330
1F
100
AcDbEntity
  8
0
100
AcDbSpline
210
0.0
220
0.0
230
1.0
 70
     8
 71
     3
 72
    13
 73
     9
 74
     7
 42
0.0000000001
 43
0.0000000001
 44
0.0000000001
 12
-0.6041654255972496
 22
0.7968589200811488
 32
0.0
 13
-0.1216038132259565
 23
0.9925787185956117
 33
0.0
 40
0.0
 40
0.0
 40
0.0
 40
0.0
 40
0.0540971648049639
 40
0.0999890950277764
 40
0.1373614723133332
 40
0.1529450313633844
 40
0.1665621440245125
 40
0.1736503142597296
 40
0.1736503142597296
 40
0.1736503142597296
 40
0.1736503142597296
 10
476.3588479042858
 20
220.2627810507592
 30
0.0
 10
476.3479533587531
 20
220.2771503202012
 30
0.0
 10
476.3284452298144
 20
220.3042043270567
 30
0.0
 10
476.3041817844717
 20
220.3430745010465
 30
0.0
 10
476.2893773796402
 20
220.3726132915469
 30
0.0
 10
476.2817130437796
 20
220.3934623272868
 30
0.0
 10
476.2785882394977
 20
220.4051731121672
 30
0.0
 10
476.2774573446207
 20
220.41198915896
 30
0.0
 10
476.2771700284442
 20
220.4143343479364
 30
0.0
 11
476.3588479042858
 21
220.2627810507592
 31
0.0
 11
476.3273847521347
 21
220.3067875650117
 31
0.0
 11
476.3033565344453
 21
220.3458863375531
 31
0.0
 11
476.2870277714112
 21
220.3795027930734
 31
0.0
 11
476.2817279770422
 21
220.3941574678331
 31
0.0
 11
476.2783080504509
 21
220.4073381301585
 31
0.0
 11
476.2771700284442
 21
220.4143343479364
 31
0.0
  0
SPLINE
  5
1A20D
330
1F
100
AcDbEntity
  8
0
100
AcDbSpline
210
0.0
220
0.0
230
1.0
 70
     8
 71
     3
 72
    29
 73
    25
 74
    23
 42
0.0000000001
 43
0.0000000001
 44
0.0000000001
 12
-0.9962739283461786
 22
-0.0862453459479021
 32
0.0
 13
-0.6041654233615698
 23
0.7968589217762047
 33
0.0
 40
0.0
 40
0.0
 40
0.0
 40
0.0
 40
0.007189663963267
 40
0.021316515922612
 40
0.0374369380147357
 40
0.0556281453221246
 40
0.0758842955251644
 40
0.1223985103113125
 40
0.1764276165312447
 40
0.2369695431106833
 40
0.3028468775714053
 40
0.3727341838126419
 40
0.4452772133953486
 40
0.5192080976333074
 40
0.6665768399795982
 40
0.7381382045437622
 40
0.8087705557637827
 40
0.9597072532700664
 40
1.119785306887926
 40
1.280639034248615
 40
1.358064859075394
 40
1.431572919179756
 40
1.499768949877102
 40
1.561441338157008
 40
1.561441338157008
 40
1.561441338157008
 40
1.561441338157008
 10
477.595647637844
 20
219.3462228802215
 30
0.0
 10
477.5932600129239
 20
219.3460161885362
 30
0.0
 10
477.5861536163901
 20
219.3457058651425
 30
0.0
 10
477.5736666672288
 20
219.3463771541503
 30
0.0
 10
477.5576779900473
 20
219.3487465335356
 30
0.0
 10
477.5399182624644
 20
219.3527377054032
 30
0.0
 10
477.5126860574371
 20
219.360557868262
 30
0.0
 10
477.474855354868
 20
219.374496716974
 30
0.0
 10
477.4257838159914
 20
219.3963532531513
 30
0.0
 10
477.3720885082561
 20
219.4235046951327
 30
0.0
 10
477.3148872665696
 20
219.4553092782935
 30
0.0
 10
477.2552890451782
 20
219.4909567811426
 30
0.0
 10
477.1944095885204
 20
219.529636900665
 30
0.0
 10
477.1129668000283
 20
219.584061772748
 30
0.0
 10
477.0334689975645
 20
219.6407635841763
 30
0.0
 10
476.95632492624
 20
219.6987770674954
 30
0.0
 10
476.8791680989956
 20
219.758733535247
 30
0.0
 10
476.780585232931
 20
219.839178878834
 30
0.0
 10
476.6621210283646
 20
219.9426960263705
 30
0.0
 10
476.5655405897077
 20
220.0338938868641
 30
0.0
 10
476.4926403176696
 20
220.1079815956191
 30
0.0
 10
476.442874518552
 20
220.1614647902486
 30
0.0
 10
476.3983683822477
 20
220.2126187590344
 30
0.0
 10
476.3712680124775
 20
220.2463996531498
 30
0.0
 10
476.3588479042858
 20
220.2627810507592
 30
0.0
 11
477.595647637844
 21
219.3462228802215
 31
0.0
 11
477.5884658875746
 21
219.3458856399918
 31
0.0
 11
477.5743544706566
 21
219.3465458360603
 31
0.0
 11
477.5583965125496
 21
219.3488287249057
 31
0.0
 11
477.540632824389
 21
219.3527493634042
 31
0.0
 11
477.5211475851071
 21
219.3582844398423
 31
0.0
 11
477.477392529026
 21
219.3740663042603
 31
0.0
 11
477.4279478259646
 21
219.3958462413149
 31
0.0
 11
477.3738552873224
 21
219.4230367201114
 31
0.0
 11
477.3162245199427
 21
219.454950946514
 31
0.0
 11
477.2562109958752
 21
219.4907645263777
 31
0.0
 11
477.1949515070763
 21
219.5296202360372
 31
0.0
 11
477.1334622610123
 21
219.5706671392418
 31
0.0
 11
477.0133905053021
 21
219.6561090475854
 31
0.0
 11
476.9561926423143
 21
219.6991140864519
 31
0.0
 11
476.9004160509973
 21
219.7424488404021
 31
0.0
 11
476.7834779952931
 21
219.8378814227953
 31
0.0
 11
476.6630029836957
 21
219.9432889881342
 31
0.0
 11
476.5462511737151
 21
220.0539367918724
 31
0.0
 11
476.4919906974661
 21
220.1091686582843
 31
0.0
 11
476.4419834792994
 21
220.1630454903323
 31
0.0
 11
476.3973046330615
 21
220.2145673235851
 31
0.0
 11
476.3588479042858
 21
220.2627810507592
 31
0.0
  0
SPLINE
  5
1A20E
330
1F
100
AcDbEntity
  8
0
100
AcDbSpline
210
0.0
220
0.0
230
1.0
 70
     8
 71
     3
 72
    12
 73
     8
 74
     6
 42
0.0000000001
 43
0.0000000001
 44
0.0000000001
 12
-0.1214490190394908
 22
0.9925976706472495
 32
0.0
 13
0.6290765125666156
 23
0.7773433870156901
 33
0.0
 40
0.0
 40
0.0
 40
0.0
 40
0.0
 40
0.0070469479619345
 40
0.022359656036128
 40
0.0357922442662751
 40
0.0479778191452235
 40
0.0524697795618565
 40
0.0524697795618565
 40
0.0524697795618565
 40
0.0524697795618565
 10
476.2052051906723
 20
220.9994308219575
 30
0.0
 10
476.2049199090331
 20
221.0017624166682
 30
0.0
 10
476.2042233911447
 20
221.0091848544173
 30
0.0
 10
476.2043364037863
 20
221.0211778898674
 30
0.0
 10
476.2071110898054
 20
221.0346396120304
 30
0.0
 10
476.2114610990657
 20
221.0438197140896
 30
0.0
 10
476.2147446141694
 20
221.0483166223297
 30
0.0
 10
476.2156865431006
 20
221.0494805542379
 30
0.0
 11
476.2052051906723
 21
220.9994308219575
 31
0.0
 11
476.2045570712674
 21
221.0064479023201
 31
0.0
 11
476.2048695524716
 21
221.0217574217137
 31
0.0
 11
476.2077357015981
 21
221.0348806688631
 31
0.0
 11
476.2130392497619
 21
221.0458515672769
 31
0.0
 11
476.2156865431006
 21
221.0494805542379
 31
0.0
  0
SPLINE
  5
1A20F
330
1F
100
AcDbEntity
  8
0
100
AcDbSpline
210
0.0
220
0.0
230
1.0
 70
     8
 71
     3
 72
    31
 73
    27
 74
    25
 42
0.0000000001
 43
0.0000000001
 44
0.0000000001
 12
-0.6353274802552927
 22
-0.7722428328139153
 32
0.0
 13
-0.6755411570536266
 23
0.7373222803677151
 33
0.0
 40
0.0
 40
0.0
 40
0.0
 40
0.0
 40
0.0267909208869873
 40
0.0675434982802257
 40
0.1188076695043011
 40
0.1836918406898936
 40
0.2627456636618964
 40
0.355721035147904
 40
0.4632135109924033
 40
0.5824943314435575
 40
0.7159046206540203
 40
0.857631739616028
 40
1.012977006983725
 40
1.172267729756498
 40
1.344701487308585
 40
1.516084229459451
 40
1.698802458286603
 40
1.877317462763452
 40
2.056050619475985
 40
2.242963720192155
 40
2.420975693123611
 40
2.602005161129819
 40
2.773140224959867
 40
2.942260930516663
 40
3.100515647614481
 40
3.25210379959413
 40
3.25210379959413
 40
3.25210379959413
 40
3.25210379959413
 10
492.4140075746083
 20
235.8974647412277
 30
0.0
 10
492.408333905188
 20
235.8905683756812
 30
0.0
 10
492.390485369496
 20
235.875844909706
 30
0.0
 10
492.3513289528982
 20
235.8651545017586
 30
0.0
 10
492.2987593614505
 20
235.8653060900648
 30
0.0
 10
492.2344059637695
 20
235.8763201892172
 30
0.0
 10
492.1584156974477
 20
235.8981617093408
 30
0.0
 10
492.071070356483
 20
235.9308036487093
 30
0.0
 10
491.973529587473
 20
235.9738769306563
 30
0.0
 10
491.8659837709104
 20
236.027322497242
 30
0.0
 10
491.7504688161294
 20
236.0901557689698
 30
0.0
 10
491.6265801475675
 20
236.162596297436
 30
0.0
 10
491.497352277248
 20
236.2428834293206
 30
0.0
 10
491.3614991395951
 20
236.3318092756338
 30
0.0
 10
491.2231827164396
 20
236.426661143917
 30
0.0
 10
491.0804256963524
 20
236.5287802592719
 30
0.0
 10
490.9379779442604
 20
236.634762981517
 30
0.0
 10
490.7955204353826
 20
236.7447860054462
 30
0.0
 10
490.6538814247472
 20
236.8581121879088
 30
0.0
 10
490.5143687582511
 20
236.97378528514
 30
0.0
 10
490.3763438831377
 20
237.0924063300343
 30
0.0
 10
490.2444208655673
 20
237.2100158754326
 30
0.0
 10
490.1169428514211
 20
237.3281098872014
 30
0.0
 10
489.9973528520355
 20
237.4435011378262
 30
0.0
 10
489.8849453473023
 20
237.5568954003355
 30
0.0
 10
489.8140540514119
 20
237.6320247817465
 30
0.0
 10
489.779919372884
 20
237.669281222378
 30
0.0
 11
492.4140075746083
 21
235.8974647412277
 31
0.0
 11
492.3934805853753
 21
235.8802485815223
 31
0.0
 11
492.3546945935951
 21
235.8677418071252
 31
0.0
 11
492.3034443305588
 21
235.8665477426401
 31
0.0
 11
492.2393383756417
 21
235.8765668351445
 31
0.0
 11
492.1631814794817
 21
235.8977714123339
 31
0.0
 11
492.0759269424855
 21
235.9298816206254
 31
0.0
 11
491.9774552544
 21
235.9729856692609
 31
0.0
 11
491.8705242419679
 21
236.0258408743758
 31
0.0
 11
491.7532334886508
 21
236.0894111854773
 31
0.0
 11
491.6308117772437
 21
236.160821974756
 31
0.0
 11
491.498795453906
 21
236.242698970707
 31
0.0
 11
491.3654705561365
 21
236.3298655124315
 31
0.0
 11
491.2232222877253
 21
236.4273274582235
 31
0.0
 11
491.0838039779521
 21
236.526999817517
 31
0.0
 11
490.9371886075613
 21
236.6360405636209
 31
0.0
 11
490.7958935857881
 21
236.7451429176078
 31
0.0
 11
490.6563312393608
 21
236.8568026362539
 31
0.0
 11
490.5124487907484
 21
236.9761104239319
 31
0.0
 11
490.377458488578
 21
237.0921530058875
 31
0.0
 11
490.242357411603
 21
237.2126493431214
 31
0.0
 11
490.1168505756777
 21
237.3289904115717
 31
0.0
 11
489.9952009576614
 21
237.4464773618449
 31
0.0
 11
489.8838569846271
 21
237.5589365773528
 31
0.0
 11
489.779919372884
 21
237.669281222378
 31
0.0
  0
SPLINE
  5
1A210
330
1F
100
AcDbEntity
  8
0
100
AcDbSpline
210
0.0
220
0.0
230
1.0
 70
     8
 71
     3
 72
    17
 73
    13
 74
    11
 42
0.0000000001
 43
0.0000000001
 44
0.0000000001
 12
0.6289004213041376
 22
0.7774858584459773
 32
0.0
 13
-0.5180655791960107
 23
0.8553409002569104
 33
0.0
 40
0.0
 40
0.0
 40
0.0
 40
0.0
 40
0.0226176929227994
 40
0.0510135938511802
 40
0.0821792618231831
 40
0.117042685450782
 40
0.1560636426552344
 40
0.1993983485988242
 40
0.246984174044886
 40
0.2986689019816584
 40
0.3541926768647929
 40
0.4132421919768279
 40
0.4132421919768279
 40
0.4132421919768279
 40
0.4132421919768279
 10
493.0853599829191
 20
235.3535899100565
 30
0.0
 10
493.0901014084552
 20
235.3594515555225
 30
0.0
 10
493.0992853159485
 20
235.3739684183883
 30
0.0
 10
493.1078877650784
 20
235.4002713310166
 30
0.0
 10
493.1108632901606
 20
235.4318016306064
 30
0.0
 10
493.108248736708
 20
235.4668432488222
 30
0.0
 10
493.1003950100434
 20
235.5052001021384
 30
0.0
 10
493.0875841851416
 20
235.5466319181983
 30
0.0
 10
493.0700807598316
 20
235.5908664097488
 30
0.0
 10
493.0482016693249
 20
235.6376242888034
 30
0.0
 10
493.0222589220274
 20
235.6866166562973
 30
0.0
 10
493.0030186689291
 20
235.7196191051968
 30
0.0
 10
492.9928214951798
 20
235.736454927002
 30
0.0
 11
493.0853599829191
 21
235.3535899100565
 31
0.0
 11
493.0974894740477
 21
235.372680103301
 31
0.0
 11
493.1066073145267
 21
235.399572335907
 31
0.0
 11
493.1099171027356
 21
235.4305617560718
 31
0.0
 11
493.10765943926
 21
235.4653520027319
 31
0.0
 11
493.10010000302
 21
235.5036337219316
 31
0.0
 11
493.0875044740329
 21
235.5450975542286
 31
0.0
 11
493.0701595265741
 21
235.5894096697393
 31
0.0
 11
493.0483781092886
 21
235.6362805664977
 31
0.0
 11
493.0224891285647
 21
235.6853993027838
 31
0.0
 11
492.9928214951798
 21
235.736454927002
 31
0.0
  0
SPLINE
  5
1A211
330
1F
100
AcDbEntity
  8
0
100
AcDbSpline
210
0.0
220
0.0
230
1.0
 70
     8
 71
     3
 72
    40
 73
    36
 74
    34
 42
0.0000000001
 43
0.0000000001
 44
0.0000000001
 12
-0.628900627706315
 22
-0.7774856914893053
 32
0.0
 13
-0.6041654232058376
 23
0.7968589218942781
 33
0.0
 40
0.0
 40
0.0
 40
0.0
 40
0.0
 40
0.0045385974725977
 40
0.0322814379757861
 40
0.0626012935197488
 40
0.0971466230766528
 40
0.1370266862605432
 40
0.1829391584822797
 40
0.2353308768926184
 40
0.2944525487184413
 40
0.3602851038154716
 40
0.4326916861752496
 40
0.5114866632219349
 40
0.5964217157085529
 40
0.6870994176694927
 40
0.8838612632870548
 40
1.09796452556533
 40
1.325096335967419
 40
1.560854019263866
 40
1.801136568595799
 40
2.041993078051549
 40
2.280105527304363
 40
2.51267996312518
 40
2.626471298308633
 40
2.742236817160987
 40
2.982491176276062
 40
3.232797288420401
 40
3.49073284457688
 40
3.753072659310276
 40
4.016226729761991
 40
4.275878457740187
 40
4.527505166423765
 40
4.766413550540195
 40
4.988052075274326
 40
5.188485925201364
 40
5.188485925201364
 40
5.188485925201364
 40
5.188485925201364
 10
483.9470023078701
 20
224.073296441834
 30
0.0
 10
483.9460508656036
 20
224.0721202103026
 30
0.0
 10
483.9390891088113
 20
224.0639132825001
 30
0.0
 10
483.9228751665934
 20
224.0503002829819
 30
0.0
 10
483.8946507126727
 20
224.0371312872759
 30
0.0
 10
483.8604278469533
 20
224.0292768152994
 30
0.0
 10
483.8202818733815
 20
224.0265930281864
 30
0.0
 10
483.7742020534331
 20
224.0290719061241
 30
0.0
 10
483.7222349779906
 20
224.0367727997442
 30
0.0
 10
483.6645177793581
 20
224.0497469386058
 30
0.0
 10
483.6012546505023
 20
224.0679020456731
 30
0.0
 10
483.5327238438812
 20
224.0911519702859
 30
0.0
 10
483.4592351024823
 20
224.1193972336584
 30
0.0
 10
483.3811486407214
 20
224.1525087941503
 30
0.0
 10
483.2683117509501
 20
224.2042605121413
 30
0.0
 10
483.1190697180169
 20
224.2797415778368
 30
0.0
 10
482.9331658253938
 20
224.3831014959339
 30
0.0
 10
482.7394731248199
 20
224.4989557591987
 30
0.0
 10
482.5416164732318
 20
224.6246655705152
 30
0.0
 10
482.3429123724069
 20
224.7574441768383
 30
0.0
 10
482.1463330543775
 20
224.8947180563326
 30
0.0
 10
481.9543937192458
 20
225.0340731646922
 30
0.0
 10
481.7986799071618
 20
225.1511798918115
 30
0.0
 10
481.6766687449647
 20
225.2452179080143
 30
0.0
 10
481.5533720315841
 20
225.3417739948876
 30
0.0
 10
481.3957291122908
 20
225.468266436211
 30
0.0
 10
481.2036757079272
 20
225.6275482625846
 30
0.0
 10
481.0087850672026
 20
225.7948855015663
 30
0.0
 10
480.8137585347753
 20
225.9685764854936
 30
0.0
 10
480.621787622226
 20
226.1464855807192
 30
0.0
 10
480.4362608954179
 20
226.3260130619447
 30
0.0
 10
480.260868729218
 20
226.504289489502
 30
0.0
 10
480.0991252036444
 20
226.6781051060513
 30
0.0
 10
479.9544791484109
 20
226.8443580533539
 30
0.0
 10
479.8664032511064
 20
226.9541461340969
 30
0.0
 10
479.8260381838511
 20
227.0073853012849
 30
0.0
 11
483.9470023078701
 21
224.073296441834
 31
0.0
 11
483.9440656354606
 21
224.0698359762327
 31
0.0
 11
483.9229359059346
 21
224.0518582197169
 31
0.0
 11
483.8956274201605
 21
224.0386847522564
 31
0.0
 11
483.8620604267306
 21
224.0305216188951
 31
0.0
 11
483.8222970174284
 21
224.0274735506199
 31
0.0
 11
483.7764347448357
 21
224.0296199564872
 31
0.0
 11
483.7245711593374
 21
224.0370402433585
 31
0.0
 11
483.6668390219394
 21
224.0497827859201
 31
0.0
 11
483.6035119405065
 21
224.0677718400308
 31
0.0
 11
483.5348987324245
 21
224.0909006282766
 31
0.0
 11
483.4613082139821
 21
224.1190623754378
 31
0.0
 11
483.3830720589081
 21
224.1521239419486
 31
0.0
 11
483.3006133652024
 21
224.1898467396346
 31
0.0
 11
483.1248121770746
 21
224.2782162261313
 31
0.0
 11
482.9375106452521
 21
224.381938659072
 31
0.0
 11
482.7424682298719
 21
224.4983315948507
 31
0.0
 11
482.5433806072807
 21
224.6246082901047
 31
0.0
 11
482.3435348421169
 21
224.7580150877559
 31
0.0
 11
482.1460142834985
 21
224.8958464596213
 31
0.0
 11
481.9533016360566
 21
225.0357012915189
 31
0.0
 11
481.7674085805235
 21
225.1754676683838
 31
0.0
 11
481.6772790623933
 21
225.2449308811259
 31
0.0
 11
481.5861346590181
 21
225.3163056181729
 31
0.0
 11
481.3987439227209
 21
225.4666614262542
 31
0.0
 11
481.2060859779792
 21
225.6264615079336
 31
0.0
 11
481.0104071742143
 21
225.7945107771581
 31
0.0
 11
480.8145421927575
 21
225.9690360974794
 31
0.0
 11
480.6215854773252
 21
226.1479711995832
 31
0.0
 11
480.4350988097712
 21
226.3286414590801
 31
0.0
 11
480.258758142834
 21
226.5081406783182
 31
0.0
 11
480.0962287999025
 21
226.6832447293489
 31
0.0
 11
479.9510213758146
 21
226.8506915556433
 31
0.0
 11
479.8260381838511
 21
227.0073853012849
 31
0.0
  0
SPLINE
  5
1A212
330
1F
100
AcDbEntity
  8
0
100
AcDbSpline
210
0.0
220
0.0
230
1.0
 70
     8
 71
     3
 72
     9
 73
     5
 74
     3
 42
0.0000000001
 43
0.0000000001
 44
0.0000000001
 12
0.6041654233007707
 22
-0.7968589218223015
 32
0.0
 13
0.6572297725083124
 23
-0.7536902720140894
 33
0.0
 40
0.0
 40
0.0
 40
0.0
 40
0.0
 40
0.1559092635710178
 40
0.3254364435092627
 40
0.3254364435092627
 40
0.3254364435092627
 40
0.3254364435092627
 10
488.2162262102283
 20
237.3641459526194
 30
0.0
 10
488.2476245389689
 20
237.3227333900623
 30
0.0
 10
488.3150241131196
 20
237.2376960799915
 30
0.0
 10
488.3852037573048
 20
237.1549539747918
 30
0.0
 10
488.4223431939398
 20
237.1123636460046
 30
0.0
 11
488.2162262102283
 21
237.3641459526194
 31
0.0
 11
488.3128418404155
 21
237.2417812580756
 31
0.0
 11
488.4223431939398
 21
237.1123636460046
 31
0.0
  0
SPLINE
  5
1A213
330
1F
100
AcDbEntity
  8
0
100
AcDbSpline
210
0.0
220
0.0
230
1.0
 70
     8
 71
     3
 72
     9
 73
     5
 74
     3
 42
0.0000000001
 43
0.0000000001
 44
0.0000000001
 12
0.518274223139641
 22
-0.8552144933459686
 32
0.0
 13
0.6041654244787173
 23
-0.7968589209292016
 33
0.0
 40
0.0
 40
0.0
 40
0.0
 40
0.0
 40
0.1243070464617924
 40
0.2649165592251773
 40
0.2649165592251773
 40
0.2649165592251773
 40
0.2649165592251773
 10
488.0660599089869
 20
237.5822856708933
 30
0.0
 10
488.0875349549655
 20
237.5468492749736
 30
0.0
 10
488.1359154273694
 20
237.4729072338035
 30
0.0
 10
488.1879090749069
 20
237.4014946008237
 30
0.0
 10
488.2162262102283
 20
237.3641459526194
 30
0.0
 11
488.0660599089869
 21
237.5822856708933
 31
0.0
 11
488.1337337246876
 21
237.4780144070257
 31
0.0
 11
488.2162262102283
 21
237.3641459526194
 31
0.0
  0
SPLINE
  5
1A214
330
1F
100
AcDbEntity
  8
0
100
AcDbSpline
210
0.0
220
0.0
230
1.0
 70
     8
 71
     3
 72
    15
 73
    11
 74
     9
 42
0.0000000001
 43
0.0000000001
 44
0.0000000001
 12
-0.6041654223522435
 22
0.7968589225414592
 32
0.0
 13
-0.1214490276734021
 23
0.9925976695908495
 33
0.0
 40
0.0
 40
0.0
 40
0.0
 40
0.0
 40
0.0811457473993185
 40
0.1171541774367003
 40
0.1499980107109614
 40
0.1796253702411437
 40
0.2060814805850287
 40
0.229456819159791
 40
0.2498824877583928
 40
0.2605331829716216
 40
0.2605331829716216
 40
0.2605331829716216
 40
0.2605331829716216
 10
476.3277243131116
 20
220.7720825697208
 30
0.0
 10
476.3113824948617
 20
220.7936364740013
 30
0.0
 10
476.2885159976686
 20
220.825332951608
 30
0.0
 10
476.2614370013713
 20
220.8673761388663
 30
0.0
 10
476.244785793364
 20
220.8956788679695
 30
0.0
 10
476.2310130862554
 20
220.9219430105447
 30
0.0
 10
476.2201042598146
 20
220.9460992686633
 30
0.0
 10
476.2120233872975
 20
220.9681050265791
 30
0.0
 10
476.2073331244742
 20
220.9856765412116
 30
0.0
 10
476.2056363628649
 20
220.9959068702081
 30
0.0
 10
476.2052051906723
 20
220.9994308219575
 30
0.0
 11
476.3277243131116
 21
220.7720825697208
 31
0.0
 11
476.2805295837877
 21
220.8380923405508
 31
0.0
 11
476.2610812526158
 21
220.8683969515595
 31
0.0
 11
476.2444872572543
 21
220.896740499363
 31
0.0
 11
476.2307971947588
 21
220.9230152519137
 31
0.0
 11
476.2199941121536
 21
220.9471651831921
 31
0.0
 11
476.2120444206009
 21
220.9691471953316
 31
0.0
 11
476.2069145301648
 21
220.9889181882711
 31
0.0
 11
476.2052051906723
 21
220.9994308219575
 31
0.0
  0
SPLINE
  5
1A215
330
1F
100
AcDbEntity
  8
0
100
AcDbSpline
210
0.0
220
0.0
230
1.0
 70
     8
 71
     3
 72
    31
 73
    27
 74
    25
 42
0.0000000001
 43
0.0000000001
 44
0.0000000001
 12
-0.9962639863931189
 22
-0.0863601147294951
 32
0.0
 13
-0.6041654233132691
 23
0.7968589218128254
 33
0.0
 40
0.0
 40
0.0
 40
0.0
 40
0.0
 40
0.0107986627015753
 40
0.0319890344805821
 40
0.0561698104613696
 40
0.0834566992398482
 40
0.1138409227271606
 40
0.1836121448632954
 40
0.2646558105640444
 40
0.3554686963462095
 40
0.4542845601231771
 40
0.5591156566881408
 40
0.667930750154844
 40
0.7788265282700247
 40
0.8899910714340578
 40
0.9998891247865284
 40
1.107231172071161
 40
1.213179698467516
 40
1.439584743686564
 40
1.679701824422549
 40
1.801144801517743
 40
1.920996774215809
 40
2.037135511064375
 40
2.147397602340566
 40
2.249691646893796
 40
2.342200229400572
 40
2.342200229400572
 40
2.342200229400572
 40
2.342200229400572
 10
478.1829382033267
 20
219.3972457264917
 30
0.0
 10
478.1793520970764
 20
219.3969348685751
 30
0.0
 10
478.1686877244196
 20
219.3964687879224
 30
0.0
 10
478.1499525234709
 20
219.3974763513584
 30
0.0
 10
478.1259694686471
 20
219.401030853383
 30
0.0
 10
478.0993298451258
 20
219.4070177675949
 30
0.0
 10
478.0584815411591
 20
219.4187479877322
 30
0.0
 10
478.0017354359241
 20
219.4396560276702
 30
0.0
 10
477.9281281594006
 20
219.4724408358005
 30
0.0
 10
477.8475852545993
 20
219.513168020454
 30
0.0
 10
477.7617834350694
 20
219.5608749172144
 30
0.0
 10
477.6723857527591
 20
219.6143461287279
 30
0.0
 10
477.5810672772411
 20
219.6723668498147
 30
0.0
 10
477.4893574379617
 20
219.7336488438935
 30
0.0
 10
477.3986296585612
 20
219.7970053946402
 30
0.0
 10
477.3100422283733
 20
219.8613231639209
 30
0.0
 10
477.2239399990866
 20
219.9260773952231
 30
0.0
 10
477.1082040200655
 20
220.0160106078353
 30
0.0
 10
476.9603352326194
 20
220.1366814597986
 30
0.0
 10
476.8127045674309
 20
220.2656593320398
 30
0.0
 10
476.6949977363193
 20
220.3747424489145
 30
0.0
 10
476.6093675668815
 20
220.4576007190971
 30
0.0
 10
476.5284139531424
 20
220.5398847043209
 30
0.0
 10
476.453763984391
 20
220.6201078578621
 30
0.0
 10
476.3870050907248
 20
220.6968392114342
 30
0.0
 10
476.3463544754151
 20
220.7475104732826
 30
0.0
 10
476.3277243131116
 20
220.7720825697208
 30
0.0
 11
478.1829382033267
 21
219.3972457264917
 31
0.0
 11
478.1721514504424
 21
219.3967386975439
 31
0.0
 11
478.1509842477071
 21
219.397729346068
 31
0.0
 11
478.1270472238618
 21
219.4011540820378
 31
0.0
 11
478.1004016543132
 21
219.4070352318096
 31
0.0
 11
478.0711737986822
 21
219.4153378514046
 31
0.0
 11
478.005541249673
 21
219.439010450521
 31
0.0
 11
477.931374173136
 21
219.4716803220874
 31
0.0
 11
477.8502353865696
 21
219.5124660737492
 31
0.0
 11
477.7637893572978
 21
219.5603373486135
 31
0.0
 11
477.673768949399
 21
219.6140577820513
 31
0.0
 11
477.581879250405
 21
219.6723416373198
 31
0.0
 11
477.489645847105
 21
219.7339117024446
 31
0.0
 11
477.3984825123577
 21
219.7975261823579
 31
0.0
 11
477.3095382135386
 21
219.8620745660574
 31
0.0
 11
477.2237414185084
 21
219.9265821243572
 31
0.0
 11
477.1400765320819
 21
219.9915842552823
 31
0.0
 11
476.9646694485254
 21
220.1347331272263
 31
0.0
 11
476.7839569316784
 21
220.2928444763319
 31
0.0
 11
476.6949103005265
 21
220.3754222830734
 31
0.0
 11
476.6088292167068
 21
220.4588161819393
 31
0.0
 11
476.5274385023336
 21
220.5416639810084
 31
0.0
 11
476.4524276734376
 21
220.6224792290804
 31
0.0
 11
476.3854094057268
 21
220.699761978411
 31
0.0
 11
476.3277243131116
 21
220.7720825697208
 31
0.0
  0
SPLINE
  5
1A216
330
1F
100
AcDbEntity
  8
0
100
AcDbSpline
210
0.0
220
0.0
230
1.0
 70
     8
 71
     3
 72
    20
 73
    16
 74
    14
 42
0.0000000001
 43
0.0000000001
 44
0.0000000001
 12
-0.6299029342915772
 22
-0.7766738655129714
 32
0.0
 13
0.5182740581718829
 23
-0.8552145933191551
 33
0.0
 40
0.0
 40
0.0
 40
0.0
 40
0.0
 40
0.0097320377815701
 40
0.0361353845886723
 40
0.0652392559286117
 40
0.0984190903668752
 40
0.1367457831610577
 40
0.1581069781857943
 40
0.1810189258484868
 40
0.2055290884188803
 40
0.2316762637673314
 40
0.2889965403099795
 40
0.3531876357508596
 40
0.3826097933558446
 40
0.4132731333539346
 40
0.4132731333539346
 40
0.4132731333539346
 40
0.4132731333539346
 10
488.7216547795776
 20
238.8887016131387
 30
0.0
 10
488.7196113665258
 20
238.8861820733376
 30
0.0
 10
488.7124869826774
 20
238.8764457097221
 30
0.0
 10
488.7030513411125
 20
238.8565592724599
 30
0.0
 10
488.6970406931669
 20
238.8273872612834
 30
0.0
 10
488.6967309320196
 20
238.7936877901885
 30
0.0
 10
488.7011461926548
 20
238.7629517528088
 30
0.0
 10
488.7073841788553
 20
238.7361258797065
 30
0.0
 10
488.7137451877064
 20
238.7140871628385
 30
0.0
 10
488.7216269173983
 20
238.6908574034828
 30
0.0
 10
488.734582229904
 20
238.6572681144977
 30
0.0
 10
488.7548583037825
 20
238.612375381973
 30
0.0
 10
488.7782308702773
 20
238.567796023499
 30
0.0
 10
488.7987006946468
 20
238.5317794005214
 30
0.0
 10
488.8089322033133
 20
238.5145597133123
 30
0.0
 10
488.8142295411993
 20
238.5058184680302
 30
0.0
 11
488.7216547795776
 21
238.8887016131387
 31
0.0
 11
488.7159115414426
 21
238.8808449105793
 31
0.0
 11
488.7044072069405
 21
238.8570796626261
 31
0.0
 11
488.6981967623433
 21
238.8286461312788
 31
0.0
 11
488.6975261508931
 21
238.7954730745364
 31
0.0
 11
488.7026413147343
 21
238.757489255884
 31
0.0
 11
488.707441846703
 21
238.7366744643717
 31
0.0
 11
488.7137596096732
 21
238.7146507676622
 31
0.0
 11
488.7216039041903
 21
238.6914297618107
 31
0.0
 11
488.730984031897
 21
238.6670230417748
 31
0.0
 11
488.7543889890593
 21
238.6146988400785
 31
0.0
 11
488.7840488888151
 21
238.557770928819
 31
0.0
 11
488.7985765150098
 21
238.532185553401
 31
0.0
 11
488.8142295411993
 21
238.5058184680302
 31
0.0
  0
SPLINE
  5
1A217
330
1F
100
AcDbEntity
  8
0
100
AcDbSpline
210
0.0
220
0.0
230
1.0
 70
     8
 71
     3
 72
    31
 73
    27
 74
    25
 42
0.0000000001
 43
0.0000000001
 44
0.0000000001
 12
0.6357546522703581
 22
0.771891198367099
 32
0.0
 13
0.6755411570541337
 23
-0.7373222803672506
 33
0.0
 40
0.0
 40
0.0
 40
0.0
 40
0.0
 40
0.0277130221527676
 40
0.0675447319020461
 40
0.1203331545057169
 40
0.1836900764133226
 40
0.2609338196342468
 40
0.3557197065936997
 40
0.4602665870221046
 40
0.5824931635879033
 40
0.7123983887225951
 40
0.8576306384587262
 40
1.008970483446533
 40
1.172266663107676
 40
1.340239362234494
 40
1.516083184862167
 40
1.695045190791721
 40
1.87731642847141
 40
2.060866238529966
 40
2.242962693674584
 40
2.425574982299417
 40
2.602004144902136
 40
2.777463652295462
 40
2.942259932254391
 40
3.104497203676697
 40
3.252102832386331
 40
3.252102832386331
 40
3.252102832386331
 40
3.252102832386331
 10
489.393038747856
 20
238.3448021974091
 30
0.0
 10
489.39891164211
 20
238.3519326767024
 30
0.0
 10
489.4168918393388
 20
238.366553212437
 30
0.0
 10
489.4565107149365
 20
238.3772366676252
 30
0.0
 10
489.5088094430236
 20
238.3768839822413
 30
0.0
 10
489.5725250797132
 20
238.36591544859
 30
0.0
 10
489.6480569660635
 20
238.3443092401531
 30
0.0
 10
489.7344998948172
 20
238.3120515998432
 30
0.0
 10
489.8326265385659
 20
238.2688181448563
 30
0.0
 10
489.9391500603166
 20
238.2159342804592
 30
0.0
 10
490.0555581308903
 20
238.1526921262138
 30
0.0
 10
490.1783176344443
 20
238.0809622414714
 30
0.0
 10
490.3085660271354
 20
238.0001060534074
 30
0.0
 10
490.4431983952412
 20
237.9120284280521
 30
0.0
 10
490.5826427868483
 20
237.8164621711973
 30
0.0
 10
490.7244057951635
 20
237.7151041628096
 30
0.0
 10
490.868067324452
 20
237.6082625971857
 30
0.0
 10
491.0118158499013
 20
237.4972835746532
 30
0.0
 10
491.1544067731026
 20
237.383141958345
 30
0.0
 10
491.2950722517
 20
237.2664577739351
 30
0.0
 10
491.4318539195661
 20
237.148852425405
 30
0.0
 10
491.5648228887087
 20
237.0302510570691
 30
0.0
 10
491.6911493923806
 20
236.9131692412152
 30
0.0
 10
491.8116600905177
 20
236.7968216105005
 30
0.0
 10
491.9230235501505
 20
236.6844206171918
 30
0.0
 10
491.9938858432449
 20
236.6092650072501
 30
0.0
 10
492.027123735647
 20
236.572987367665
 30
0.0
 11
489.393038747856
 21
238.3448021974091
 31
0.0
 11
489.4143827454422
 21
238.3624783215284
 31
0.0
 11
489.452348514936
 21
238.3745267840152
 31
0.0
 11
489.5051259997083
 21
238.3756013360545
 31
0.0
 11
489.5677047328894
 21
238.3657017548987
 31
0.0
 11
489.6421387633861
 21
238.3450578460926
 31
0.0
 11
489.7311161660453
 21
238.3123869694177
 31
0.0
 11
489.8269179096413
 21
238.2705291609313
 31
0.0
 11
489.9365188665626
 21
238.2164277167646
 31
0.0
 11
490.0507549350066
 21
238.1545771857745
 31
0.0
 11
490.1762313312874
 21
238.0814466152871
 31
0.0
 11
490.3048693994362
 21
238.00172211401
 31
0.0
 11
490.4415725523946
 21
237.9124030776116
 31
0.0
 11
490.5801661629792
 21
237.8174997649345
 31
0.0
 11
490.7232391316765
 21
237.7152687736234
 31
0.0
 11
490.8668608424205
 21
237.6084970368702
 31
0.0
 11
491.011149522743
 21
237.4971256724353
 31
0.0
 11
491.1544464923741
 21
237.3824238360635
 31
0.0
 11
491.2945943177827
 21
237.2661581661111
 31
0.0
 11
491.4330457987861
 21
237.1470849308113
 31
0.0
 11
491.5646856969281
 21
237.029619248019
 31
0.0
 11
491.6933340740227
 21
236.9103060726961
 31
0.0
 11
491.8118421508695
 21
236.7957912281982
 31
0.0
 11
491.9259533258061
 21
236.6804674579115
 31
0.0
 11
492.027123735647
 21
236.572987367665
 31
0.0
  0
SPLINE
  5
1A218
330
1F
100
AcDbEntity
  8
0
100
AcDbSpline
210
0.0
220
0.0
230
1.0
 70
     8
 71
     3
 72
    12
 73
     8
 74
     6
 42
0.0000000001
 43
0.0000000001
 44
0.0000000001
 12
0.4580095565499266
 22
-0.8889472684636247
 32
0.0
 13
-0.63532748111468
 23
-0.7722428321068936
 33
0.0
 40
0.0
 40
0.0
 40
0.0
 40
0.0
 40
0.0700789300535884
 40
0.128597635909505
 40
0.1731068266720822
 40
0.2099071748351972
 40
0.2174565692125388
 40
0.2174565692125388
 40
0.2174565692125388
 40
0.2174565692125388
 10
492.3834103442612
 20
236.1030661317208
 30
0.0
 10
492.3941092841536
 20
236.0823006405715
 30
0.0
 10
492.4121888613374
 20
236.0433329028719
 30
0.0
 10
492.4291751455415
 20
235.987889064986
 30
0.0
 10
492.4330904201182
 20
235.9409466483
 30
0.0
 10
492.4243759948774
 20
235.9113597444113
 30
0.0
 10
492.4156063538462
 20
235.8994080631259
 30
0.0
 10
492.4140075746083
 20
235.8974647412277
 30
0.0
 11
492.3834103442612
 21
236.1030661317208
 31
0.0
 11
492.4121924353785
 21
236.0391705319633
 31
0.0
 11
492.4282190162792
 21
235.9828892061111
 31
0.0
 11
492.4302346143003
 21
235.9384256769332
 31
0.0
 11
492.4184638799655
 21
235.903558565809
 31
0.0
 11
492.4140075746083
 21
235.8974647412277
 31
0.0
  0
SPLINE
  5
1A219
330
1F
100
AcDbEntity
  8
0
100
AcDbSpline
210
0.0
220
0.0
230
1.0
 70
     8
 71
     3
 72
    39
 73
    35
 74
    33
 42
0.0000000001
 43
0.0000000001
 44
0.0000000001
 12
0.6572297451563011
 22
-0.7536902958654728
 32
0.0
 13
0.6289004211984628
 23
0.7774858585314566
 33
0.0
 40
0.0
 40
0.0
 40
0.0
 40
0.0
 40
0.0966496209042503
 40
0.3355580042741992
 40
0.5871847129577575
 40
0.8468364409607547
 40
1.109990511353742
 40
1.372330325357182
 40
1.630265882346226
 40
1.880571994346466
 40
2.120826352774933
 40
2.236591871627048
 40
2.350383207480441
 40
2.582957642642301
 40
2.821070091894808
 40
3.061926601978246
 40
3.302209151310367
 40
3.537966835533246
 40
3.7650986444311
 40
3.979201907240859
 40
4.1759637523656
 40
4.266641454782858
 40
4.351576507269644
 40
4.430371483923964
 40
4.502778066634281
 40
4.568610621731257
 40
4.627732293557425
 40
4.680124011811962
 40
4.726036485130196
 40
4.765916547136177
 40
4.80046187695183
 40
4.830781732019224
 40
4.858524573233606
 40
4.86306319641529
 40
4.86306319641529
 40
4.86306319641529
 40
4.86306319641529
 10
489.1705128261523
 20
238.0358964431415
 30
0.0
 10
489.1916864947244
 20
238.01161514935
 30
0.0
 10
489.265866013212
 20
237.9278930931924
 30
0.0
 10
489.3992276707757
 20
237.784583021983
 30
0.0
 10
489.5746181900214
 20
237.6063064846705
 30
0.0
 10
489.7601453828952
 20
237.426779036723
 30
0.0
 10
489.9521161656631
 20
237.2488699305721
 30
0.0
 10
490.1471427332956
 20
237.0751789501772
 30
0.0
 10
490.3420333660484
 20
236.9078417117624
 30
0.0
 10
490.5340867706574
 20
236.7485598830551
 30
0.0
 10
490.691729690315
 20
236.6220674432266
 30
0.0
 10
490.8150264039077
 20
236.5255113565682
 30
0.0
 10
490.9370375649102
 20
236.4314733388234
 30
0.0
 10
491.0927513783226
 20
236.3143666134338
 30
0.0
 10
491.284690713221
 20
236.1750115048135
 30
0.0
 10
491.4812700306807
 20
236.0377376241229
 30
0.0
 10
491.6799741320475
 20
235.9049590176728
 30
0.0
 10
491.8778307837628
 20
235.7792492068814
 30
0.0
 10
492.0715234848923
 20
235.6633949446639
 30
0.0
 10
492.2574273758231
 20
235.5600350244272
 30
0.0
 10
492.4066694102292
 20
235.48455396132
 30
0.0
 10
492.5195062990838
 20
235.4328022414247
 30
0.0
 10
492.5975927607975
 20
235.3996906806492
 30
0.0
 10
492.671081502954
 20
235.3714454193841
 30
0.0
 10
492.7396123088374
 20
235.3481954926504
 30
0.0
 10
492.8028754380031
 20
235.3300403861918
 30
0.0
 10
492.8605926364459
 20
235.3170662467224
 30
0.0
 10
492.9125597125225
 20
235.3093653546646
 30
0.0
 10
492.9586395321895
 20
235.3068864772355
 30
0.0
 10
492.9987855062787
 20
235.3095702618182
 30
0.0
 10
493.0330083705531
 20
235.3174247366419
 30
0.0
 10
493.0612328263476
 20
235.3305937295337
 30
0.0
 10
493.0774467729856
 20
235.3442067371474
 30
0.0
 10
493.0844085355756
 20
235.3524136716095
 30
0.0
 10
493.0853599829191
 20
235.3535899100565
 30
0.0
 11
489.1705128261523
 21
238.0358964431415
 31
0.0
 11
489.2345864595895
 21
237.963538176723
 31
0.0
 11
489.3971158014237
 21
237.7884341256923
 31
0.0
 11
489.5734564683609
 21
237.6089349064542
 31
0.0
 11
489.7599431370124
 21
237.4282646480545
 31
0.0
 11
489.9528998513472
 21
237.2493295448536
 31
0.0
 11
490.1487648328041
 21
237.0748042256296
 31
0.0
 11
490.3444436376663
 21
236.9067549564049
 31
0.0
 11
490.5371015813106
 21
236.7469548736283
 31
0.0
 11
490.7244923176079
 21
236.5965990666442
 31
0.0
 11
490.8156367209829
 21
236.5252243295973
 31
0.0
 11
490.9057662391131
 21
236.4557611157578
 31
0.0
 11
491.0916592946468
 21
236.3159947399902
 31
0.0
 11
491.2843719420883
 21
236.1761399080926
 31
0.0
 11
491.4818925007065
 21
236.03830853513
 31
0.0
 11
491.6817382658705
 21
235.9049017374788
 31
0.0
 11
491.8808258895587
 21
235.7786250422247
 31
0.0
 11
492.0758683038421
 21
235.6622321075435
 31
0.0
 11
492.2631698356645
 21
235.5585096735054
 31
0.0
 11
492.4389710237924
 21
235.4701401881061
 31
0.0
 11
492.5214297174979
 21
235.4324173893227
 31
0.0
 11
492.599665872572
 21
235.3993558228119
 31
0.0
 11
492.6732563910142
 21
235.3711940767479
 31
0.0
 11
492.7418695990962
 21
235.3480652874049
 31
0.0
 11
492.805196680529
 21
235.3300762332942
 31
0.0
 11
492.8629288179274
 21
235.3173336907325
 31
0.0
 11
492.9147924034253
 21
235.3099134049585
 31
0.0
 11
492.9606546771156
 21
235.3077669990913
 31
0.0
 11
493.0004180853207
 21
235.3108150662692
 31
0.0
 11
493.03398507875
 21
235.3189782007278
 31
0.0
 11
493.0612935645243
 21
235.332151667091
 31
0.0
 11
493.0824232940505
 21
235.3501294247041
 31
0.0
 11
493.0853599829191
 21
235.3535899100565
 31
0.0
  0
DIMENSION
  5
1A4C6
330
1F
100
AcDbEntity
  8
DIM
100
AcDbDimension
  2
*D7
 10
547.7614121023989
 20
265.9712693127874
 30
0.0
 11
557.5725765073197
 21
273.7991670636966
 31
0.0
 70
   163
 71
     5
 42
4.499999999999545
 73
     0
 74
     0
 75
     0
  3
01$3
100
AcDbDiametricDimension
 15
550.0773408953871
 25
269.8295686565145
 35
0.0
 40
0.0
1001
ACAD
1000
DSTYLE
1002
{
1070
   288
1070
     1
1002
}
1001
ACAD_DSTYLE_DIMRADIAL_EXTENSION
1070
   387
1070
     1
1070
   388
1040
0.0
1070
   390
1040
0.0
  0
DIMENSION
  5
1A4D0
330
1F
100
AcDbEntity
  8
DIM
100
AcDbDimension
  2
*D8
 10
548.165825257304
 20
264.7385597822264
 30
0.0
 11
556.4862937716111
 21
278.1990176890688
 31
0.0
 70
   163
 71
     5
 42
6.500828590157705
 73
     0
 74
     0
 75
     0
  3
01$3
100
AcDbDiametricDimension
 15
549.6729277404803
 25
271.0622781870746
 35
0.0
 40
0.0
1001
ACAD
1000
DSTYLE
1002
{
1070
   288
1070
     1
1002
}
1001
ACAD_DSTYLE_DIMRADIAL_EXTENSION
1070
   387
1070
     1
1070
   388
1040
0.0
1070
   390
1040
0.0
  0
MTEXT
  5
1A5D3
102
{ACAD_XDICTIONARY
360
1AB94
102
}
330
1F
100
AcDbEntity
  8
打标文字
 62
     3
100
AcDbMText
 10
581.7563858846961
 20
254.7081011286576
 30
0.0
 40
1.5
 41
40.58854755587267
 46
49.02347725636656
 71
     1
 72
     5
  1
\A1;技术参数:\P- 材料： 不锈钢\P- 螺纹规格: {\Fromans|c134;M3}\P{\Fromans|c134;\PTechnical specification:\P- Material: steel\P- Thread size: M3}
 73
     1
 44
1.0
1001
ACAD
1000
ACAD_MTEXT_DEFINED_HEIGHT_BEGIN
1070
    46
1040
49.02347725636656
1000
ACAD_MTEXT_DEFINED_HEIGHT_END
  0
ENDSEC
  0
SECTION
  2
OBJECTS
  0
DICTIONARY
  5
C
330
0
100
AcDbDictionary
281
     1
  3
ACAD_COLOR
350
4FFE
  3
ACAD_GROUP
350
D
  3
ACAD_LAYOUT
350
1A
  3
ACAD_MATERIAL
350
4FE5
  3
ACAD_MLEADERSTYLE
350
5022
  3
ACAD_MLINESTYLE
350
17
  3
ACAD_PLOTSETTINGS
350
19
  3
ACAD_PLOTSTYLENAME
350
E
  3
ACAD_RENDER_PLOT_SETTINGS
350
6537
  3
ACAD_SCALELIST
350
5000
  3
ACAD_TABLESTYLE
350
4FE3
  3
ACAD_VISUALSTYLE
350
2A
  3
ACDB_RECOMPOSE_DATA
350
50EC
  3
AcDbVariableDictionary
350
5108
  3
ASE_INDEX_DICTIONARY
350
11ACE
  3
lxx_dict
350
1AACE
  0
DICTIONARY
  5
50EE
330
8
100
AcDbDictionary
280
     1
281
     1
  0
DICTIONARY
  5
50B8
330
2
100
AcDbDictionary
280
     1
281
     1
  3
ACAD_LAYERFILTERS
360
1A674
  3
ACAD_LAYERSTATES
360
50B9
  3
ACLYDICTIONARY
360
1A673
  0
DICTIONARY
  5
50D0
330
10
100
AcDbDictionary
280
     1
281
     1
  3
ADSK_XREC_LAYER_RECONCILED
360
50D1
  0
DICTIONARY
  5
50D2
330
3B
100
AcDbDictionary
280
     1
281
     1
  3
ADSK_XREC_LAYER_RECONCILED
360
50D3
  0
DICTIONARY
  5
50AF
330
50AE
100
AcDbDictionary
280
     1
281
     1
  3
ADSK_XREC_LAYER_RECONCILED
360
50D4
  0
DICTIONARY
  5
67C0
330
1F
100
AcDbDictionary
280
     1
281
     1
  3
ACAD_SORTENTS
360
67C1
  0
DICTIONARY
  5
1AB6A
330
10FE8
100
AcDbDictionary
280
     1
281
     1
  0
DICTIONARY
  5
1AB96
330
1AAD5
100
AcDbDictionary
280
     1
281
     1
  3
ACAD_MTEXT_2008_RT
360
1AB97
  0
DICTIONARY
  5
1AB98
330
1AB19
100
AcDbDictionary
280
     1
281
     1
  3
ACAD_MTEXT_2008_RT
360
1AB99
  0
DICTIONARY
  5
1AB9A
330
1AB1A
100
AcDbDictionary
280
     1
281
     1
  3
ACAD_MTEXT_2008_RT
360
1AB9B
  0
DICTIONARY
  5
1AB9C
330
1AB3F
100
AcDbDictionary
280
     1
281
     1
  3
ACAD_MTEXT_2008_RT
360
1AB9D
  0
DICTIONARY
  5
1AB9E
330
1AB42
100
AcDbDictionary
280
     1
281
     1
  3
ACAD_MTEXT_2008_RT
360
1AB9F
  0
DICTIONARY
  5
1ABA0
330
1AB43
100
AcDbDictionary
280
     1
281
     1
  3
ACAD_MTEXT_2008_RT
360
1ABA1
  0
DICTIONARY
  5
1ABA2
330
1AB4D
100
AcDbDictionary
280
     1
281
     1
  3
ACAD_MTEXT_2008_RT
360
1ABA3
  0
DICTIONARY
  5
1ABA4
330
1AB4E
100
AcDbDictionary
280
     1
281
     1
  3
ACAD_MTEXT_2008_RT
360
1ABA5
  0
DICTIONARY
  5
1ABA6
330
1AB4F
100
AcDbDictionary
280
     1
281
     1
  3
ACAD_MTEXT_2008_RT
360
1ABA7
  0
DICTIONARY
  5
1ABA8
330
1AB5D
100
AcDbDictionary
280
     1
281
     1
  3
ACAD_MTEXT_2008_RT
360
1ABA9
  0
DICTIONARY
  5
1ABAA
330
1AB5E
100
AcDbDictionary
280
     1
281
     1
  3
ACAD_MTEXT_2008_RT
360
1ABAB
  0
DICTIONARY
  5
1ABAC
330
1AB5F
100
AcDbDictionary
280
     1
281
     1
  3
ACAD_MTEXT_2008_RT
360
1ABAD
  0
DICTIONARY
  5
1A15C
330
1A15B
100
AcDbDictionary
280
     1
281
     1
  3
ACAD_DIMASSOC
360
1A15D
  0
DICTIONARY
  5
1AB94
330
1A5D3
100
AcDbDictionary
280
     1
281
     1
  3
ACAD_MTEXT_2008_RT
360
1AB95
  0
DICTIONARY
  5
4FFE
102
{ACAD_REACTORS
330
C
102
}
330
C
100
AcDbDictionary
281
     1
  0
DICTIONARY
  5
D
102
{ACAD_REACTORS
330
C
102
}
330
C
100
AcDbDictionary
281
     1
  0
DICTIONARY
  5
1A
102
{ACAD_REACTORS
330
C
102
}
330
C
100
AcDbDictionary
281
     1
  3
Layout1
350
1E
  3
Layout2
350
26
  3
Model
350
22
  0
DICTIONARY
  5
4FE5
102
{ACAD_REACTORS
330
C
102
}
330
C
100
AcDbDictionary
281
     1
  3
ByBlock
350
4FEE
  3
ByLayer
350
4FE6
  3
Global
350
4FF6
  0
DICTIONARY
  5
5022
102
{ACAD_REACTORS
330
C
102
}
330
C
100
AcDbDictionary
281
     1
  3
Standard
350
5023
  0
DICTIONARY
  5
17
102
{ACAD_REACTORS
330
C
102
}
330
C
100
AcDbDictionary
281
     1
  3
Standard
350
18
  0
DICTIONARY
  5
19
102
{ACAD_REACTORS
330
C
102
}
330
C
100
AcDbDictionary
281
     1
  0
ACDBDICTIONARYWDFLT
  5
E
102
{ACAD_REACTORS
330
C
102
}
330
C
100
AcDbDictionary
281
     1
  3
Normal
350
F
100
AcDbDictionaryWithDefault
340
F
  0
DICTIONARY
  5
6537
102
{ACAD_REACTORS
330
C
102
}
330
C
100
AcDbDictionary
281
     1
  3
{1DC63513-1B1A-422F-9880-65CFD2B8D533}
350
6538
  0
DICTIONARY
  5
5000
102
{ACAD_REACTORS
330
C
102
}
330
C
100
AcDbDictionary
281
     1
  3
A0
350
5001
  3
A1
350
5002
  3
A2
350
5003
  3
A3
350
5004
  3
A4
350
5005
  3
A5
350
5006
  3
A6
350
5007
  3
A7
350
5008
  3
A8
350
5009
  3
A9
350
500A
  3
B0
350
500B
  3
B1
350
500C
  3
B2
350
500D
  3
B3
350
500E
  3
B4
350
500F
  3
B5
350
5010
  3
B6
350
5011
  3
B7
350
5012
  3
B8
350
5013
  3
B9
350
5014
  3
C0
350
5015
  3
C1
350
5016
  3
C2
350
5017
  3
C3
350
5018
  3
C4
350
5019
  3
C5
350
501A
  3
C6
350
501B
  3
C7
350
501C
  3
C8
350
501D
  3
C9
350
501E
  3
D0
350
501F
  3
D1
350
5020
  3
D2
350
5021
  0
DICTIONARY
  5
4FE3
102
{ACAD_REACTORS
330
C
102
}
330
C
100
AcDbDictionary
281
     1
  3
Standard
350
4FFF
  0
DICTIONARY
  5
2A
102
{ACAD_REACTORS
330
C
102
}
330
C
100
AcDbDictionary
281
     1
  3
2dWireframe
350
2F
  3
3D Hidden
350
31
  3
3dWireframe
350
30
  3
Basic
350
32
  3
Brighten
350
36
  3
ColorChange
350
3A
  3
Conceptual
350
34
  3
Dim
350
35
  3
Facepattern
350
39
  3
Flat
350
2B
  3
FlatWithEdges
350
2C
  3
Gouraud
350
2D
  3
GouraudWithEdges
350
2E
  3
Linepattern
350
38
  3
Realistic
350
33
  3
Thicken
350
37
  0
XRECORD
  5
50EC
102
{ACAD_REACTORS
330
C
102
}
330
C
100
AcDbXrecord
280
     1
 90
        1
330
4FFF
330
1A5D3
330
1AAD5
330
1AB19
330
1AB1A
330
1AB3F
330
1AB42
330
1AB43
330
1AB4D
330
1AB4E
330
1AB4F
330
1AB5D
330
1AB5E
330
1AB5F
  0
DICTIONARY
  5
5108
102
{ACAD_REACTORS
330
C
102
}
330
C
100
AcDbDictionary
281
     1
  3
CANNOSCALE
350
510B
  3
CMLEADERSTYLE
350
510A
  3
CTABLESTYLE
350
5109
  3
DIMASSOC
350
510E
  3
INDEXCTL
350
510D
  3
LIGHTINGUNITS
350
1AB77
  3
MSLTSCALE
350
1AB76
  3
SORTENTS
350
510C
  0
DICTIONARY
  5
11ACE
102
{ACAD_REACTORS
330
C
102
}
330
C
100
AcDbDictionary
281
     1
  3
ASEBlockHierarchyIndexRecord
350
11ACF
1001
DCO15
1040
1901610418.781
  0
DICTIONARY
  5
1AACE
102
{ACAD_REACTORS
330
C
102
}
330
C
100
AcDbDictionary
281
     1
  3
lxx_dimth
350
1AACF
  0
DICTIONARY
  5
1A674
102
{ACAD_REACTORS
330
50B8
102
}
330
50B8
100
AcDbDictionary
281
     1
  0
DICTIONARY
  5
50B9
102
{ACAD_REACTORS
330
50B8
102
}
330
50B8
100
AcDbDictionary
281
     1
  0
DICTIONARY
  5
1A673
102
{ACAD_REACTORS
330
50B8
102
}
330
50B8
100
AcDbDictionary
281
     1
1001
ACAD
1000
<All
  0
XRECORD
  5
50D1
102
{ACAD_REACTORS
330
50D0
102
}
330
50D0
100
AcDbXrecord
280
     1
290
     1
  0
XRECORD
  5
50D3
102
{ACAD_REACTORS
330
50D2
102
}
330
50D2
100
AcDbXrecord
280
     1
290
     1
  0
XRECORD
  5
50D4
102
{ACAD_REACTORS
330
50AF
102
}
330
50AF
100
AcDbXrecord
280
     1
290
     1
  0
SORTENTSTABLE
  5
67C1
102
{ACAD_REACTORS
330
67C0
102
}
330
67C0
100
AcDbSortentsTable
330
1F
331
65A3
  5
65A4
331
35C8
  5
35D8
331
65A1
  5
65A2
331
2FDE
  5
35C8
331
11089
  5
11089
331
2C65
  5
2EE7
331
65B2
  5
65B3
331
65A4
  5
65A5
331
3943
  5
4842
331
65A0
  5
65A1
331
3895
  5
3943
331
2F93
  5
2FDE
331
4842
  5
4E94
331
35D8
  5
3807
331
3807
  5
3895
331
28AE
  5
2A38
331
2EE7
  5
2F93
  0
XRECORD
  5
1AB97
102
{ACAD_REACTORS
330
1AB96
102
}
330
1AB96
100
AcDbXrecord
280
     1
 40
1527.0
  1
\pxqc;BQ LUO
  0
XRECORD
  5
1AB99
102
{ACAD_REACTORS
330
1AB98
102
}
330
1AB98
100
AcDbXrecord
280
     1
 40
1262561.0
  1
\pxqc;档案员{\H0.7x;\P\Fromans|c134;Filing Clerk\fFangSong_GB2312|b0|i0|c134|p49; }
  0
XRECORD
  5
1AB9B
102
{ACAD_REACTORS
330
1AB9A
102
}
330
1AB9A
100
AcDbXrecord
280
     1
 40
650528.0
  1
\pxqc;日期{\Fromans|c134;/Date}
  0
XRECORD
  5
1AB9D
102
{ACAD_REACTORS
330
1AB9C
102
}
330
1AB9C
100
AcDbXrecord
280
     1
 40
2318748.0
  1
\pxsm0.7;{\f仿宋_GB2312|b0|i0|c134|p49;标准化}\PStand.
  0
XRECORD
  5
1AB9F
102
{ACAD_REACTORS
330
1AB9E
102
}
330
1AB9E
100
AcDbXrecord
280
     1
 40
118135.0
  1
\pxsm0.7;签名\P{\Fromans|c134;Signature} 
  0
XRECORD
  5
1ABA1
102
{ACAD_REACTORS
330
1ABA0
102
}
330
1ABA0
100
AcDbXrecord
280
     1
 40
108939.0
  1
\pxsm0.7,qc;处数\P{\Fromans|c134;Number }
  0
XRECORD
  5
1ABA3
102
{ACAD_REACTORS
330
1ABA2
102
}
330
1ABA2
100
AcDbXrecord
280
     1
 40
125762.0
  1
\pxsm0.7;标记\P{\Fromans|c134;Mark}
  0
XRECORD
  5
1ABA5
102
{ACAD_REACTORS
330
1ABA4
102
}
330
1ABA4
100
AcDbXrecord
280
     1
 40
111973.0
  1
\pxsm0.7;审核\P{\Fromans|c134;Checked}
  0
XRECORD
  5
1ABA7
102
{ACAD_REACTORS
330
1ABA6
102
}
330
1ABA6
100
AcDbXrecord
280
     1
 40
137968.0
  1
\pxsm0.7;绘图\P{\Fromans|c134;Drawn\Ftxt|c134; }
  0
XRECORD
  5
1ABA9
102
{ACAD_REACTORS
330
1ABA8
102
}
330
1ABA8
100
AcDbXrecord
280
     1
 40
106320.0
  1
\pxsm0.7;批准\P{\Fromans|c134;Approved}
  0
XRECORD
  5
1ABAB
102
{ACAD_REACTORS
330
1ABAA
102
}
330
1ABAA
100
AcDbXrecord
280
     1
 40
127283.0
  1
\pxsm0.7;工艺\P{\Fromans|c134;Process}
  0
XRECORD
  5
1ABAD
102
{ACAD_REACTORS
330
1ABAC
102
}
330
1ABAC
100
AcDbXrecord
280
     1
 40
106220.0
  1
\pxsm0.7;日期\P{\Fromans|c134;Date}
  0
DIMASSOC
  5
1A15D
102
{ACAD_REACTORS
330
1A15C
102
}
330
1A15C
100
AcDbDimAssoc
330
1A15B
 90
        3
 70
     0
 71
     0
  1
AcDbOsnapPointRef
 72
     1
331
1A1DD
 73
     2
 91
        0
 40
1.0
 10
0.0
 20
0.0
 30
2.000000000000000E+50
 75
     0
  1
AcDbOsnapPointRef
 72
    13
331
1A1DD
 73
     2
 91
        0
 40
0.0
 10
0.0
 20
0.0
 30
2.000000000000000E+50
 75
     0
  0
XRECORD
  5
1AB95
102
{ACAD_REACTORS
330
1AB94
102
}
330
1AB94
100
AcDbXrecord
280
     1
 40
8441165.0
  1
\A1;\pxql;技术参数:\P- 材料： 不锈钢\P- 螺纹规格: {\Fromans|c134;M3}\P{\Fromans|c134;\PTechnical specification:\P- Material: steel\P- Thread size: M3}
  0
LAYOUT
  5
1E
102
{ACAD_REACTORS
330
1A
102
}
330
1A
100
AcDbPlotSettings
  1

  2
none_device
  4

  6

 40
0.0
 41
0.0
 42
0.0
 43
0.0
 44
0.0
 45
0.0
 46
0.0
 47
0.0
 48
0.0
 49
0.0
140
0.0
141
0.0
142
1.0
143
1.0
 70
   688
 72
     0
 73
     0
 74
     5
  7

 75
    16
147
1.0
 76
     0
 77
     2
 78
   300
148
0.0
149
0.0
100
AcDbLayout
  1
Layout1
 70
     1
 71
     1
 10
0.0
 20
0.0
 11
12.0
 21
9.0
 12
0.0
 22
0.0
 32
0.0
 14
1.000000000000000E+20
 24
1.000000000000000E+20
 34
1.000000000000000E+20
 15
-1.000000000000000E+20
 25
-1.000000000000000E+20
 35
-1.000000000000000E+20
146
0.0
 13
0.0
 23
0.0
 33
0.0
 16
1.0
 26
0.0
 36
0.0
 17
0.0
 27
1.0
 37
0.0
 76
     0
330
1B
  0
LAYOUT
  5
26
102
{ACAD_REACTORS
330
1A
102
}
330
1A
100
AcDbPlotSettings
  1

  2
none_device
  4

  6

 40
0.0
 41
0.0
 42
0.0
 43
0.0
 44
0.0
 45
0.0
 46
0.0
 47
0.0
 48
0.0
 49
0.0
140
0.0
141
0.0
142
1.0
143
1.0
 70
   688
 72
     0
 73
     0
 74
     5
  7

 75
    16
147
1.0
 76
     0
 77
     2
 78
   300
148
0.0
149
0.0
100
AcDbLayout
  1
Layout2
 70
     1
 71
     2
 10
0.0
 20
0.0
 11
0.0
 21
0.0
 12
0.0
 22
0.0
 32
0.0
 14
0.0
 24
0.0
 34
0.0
 15
0.0
 25
0.0
 35
0.0
146
0.0
 13
0.0
 23
0.0
 33
0.0
 16
1.0
 26
0.0
 36
0.0
 17
0.0
 27
1.0
 37
0.0
 76
     0
330
23
  0
LAYOUT
  5
22
102
{ACAD_REACTORS
330
1A
102
}
330
1A
100
AcDbPlotSettings
  1

  2
Adobe PDF Converter.pc3
  4
A4
  6

 40
3.174999952316281
 41
3.174999952316281
 42
3.17498779296875
 43
3.175003051757812
 44
297.0318298339844
 45
209.9733276367186
 46
0.0000000000000076
 47
1.630241740247063
 48
246.9897427644609
 49
39.36804549891383
140
544.952097801264
141
244.7492402188181
142
1.0
143
1.025046328645055
 70
  3764
 72
     1
 73
     0
 74
     4
  7
monochrome.ctb
 75
     0
147
0.9755656618192436
 76
     1
 77
     2
 78
   300
148
-246.9897427644609
149
-39.36804549891383
100
AcDbLayout
  1
Model
 70
     1
 71
     0
 10
0.0
 20
0.0
 11
12.0
 21
9.0
 12
0.0
 22
0.0
 32
0.0
 14
1.000000000000000E+20
 24
1.000000000000000E+20
 34
1.000000000000000E+20
 15
-1.000000000000000E+20
 25
-1.000000000000000E+20
 35
-1.000000000000000E+20
146
0.0
 13
0.0
 23
0.0
 33
0.0
 16
1.0
 26
0.0
 36
0.0
 17
0.0
 27
1.0
 37
0.0
 76
     0
330
1F
331
29
1001
ACAD_PSEXT
1000
Adobe PDF Converter.pc3
1000
Adobe PDF Converter
1000
桌面\*.pdf
1000

1070
     0
  0
MATERIAL
  5
4FEE
102
{ACAD_XDICTIONARY
360
4FEF
102
}
102
{ACAD_REACTORS
330
4FE5
102
}
330
4FE5
100
AcDbMaterial
  1
ByBlock
 72
     0
 43
0.0208333333333333
 43
0.0
 43
0.0
 43
0.0
 43
0.0
 43
0.0208333333333333
 43
0.0
 43
0.0
 43
0.0
 43
0.0
 43
1.0
 43
0.0
 43
0.0
 43
0.0
 43
0.0
 43
1.0
 77
     0
 47
0.0208333333333333
 47
0.0
 47
0.0
 47
0.0
 47
0.0
 47
0.0208333333333333
 47
0.0
 47
0.0
 47
0.0
 47
0.0
 47
1.0
 47
0.0
 47
0.0
 47
0.0
 47
0.0
 47
1.0
171
     0
 49
0.0208333333333333
 49
0.0
 49
0.0
 49
0.0
 49
0.0
 49
0.0208333333333333
 49
0.0
 49
0.0
 49
0.0
 49
0.0
 49
1.0
 49
0.0
 49
0.0
 49
0.0
 49
0.0
 49
1.0
175
     0
142
0.0208333333333333
142
0.0
142
0.0
142
0.0
142
0.0
142
0.0208333333333333
142
0.0
142
0.0
142
0.0
142
0.0
142
1.0
142
0.0
142
0.0
142
0.0
142
0.0
142
1.0
179
     0
144
0.0208333333333333
144
0.0
144
0.0
144
0.0
144
0.0
144
0.0208333333333333
144
0.0
144
0.0
144
0.0
144
0.0
144
1.0
144
0.0
144
0.0
144
0.0
144
0.0
144
1.0
147
0.0208333333333333
147
0.0
147
0.0
147
0.0
147
0.0
147
0.0208333333333333
147
0.0
147
0.0
147
0.0
147
0.0
147
1.0
147
0.0
147
0.0
147
0.0
147
0.0
147
1.0
  0
MATERIAL
  5
4FE6
102
{ACAD_XDICTIONARY
360
4FE7
102
}
102
{ACAD_REACTORS
330
4FE5
102
}
330
4FE5
100
AcDbMaterial
  1
ByLayer
 72
     0
 43
0.0208333333333333
 43
0.0
 43
0.0
 43
0.0
 43
0.0
 43
0.0208333333333333
 43
0.0
 43
0.0
 43
0.0
 43
0.0
 43
1.0
 43
0.0
 43
0.0
 43
0.0
 43
0.0
 43
1.0
 77
     0
 47
0.0208333333333333
 47
0.0
 47
0.0
 47
0.0
 47
0.0
 47
0.0208333333333333
 47
0.0
 47
0.0
 47
0.0
 47
0.0
 47
1.0
 47
0.0
 47
0.0
 47
0.0
 47
0.0
 47
1.0
171
     0
 49
0.0208333333333333
 49
0.0
 49
0.0
 49
0.0
 49
0.0
 49
0.0208333333333333
 49
0.0
 49
0.0
 49
0.0
 49
0.0
 49
1.0
 49
0.0
 49
0.0
 49
0.0
 49
0.0
 49
1.0
175
     0
142
0.0208333333333333
142
0.0
142
0.0
142
0.0
142
0.0
142
0.0208333333333333
142
0.0
142
0.0
142
0.0
142
0.0
142
1.0
142
0.0
142
0.0
142
0.0
142
0.0
142
1.0
179
     0
144
0.0208333333333333
144
0.0
144
0.0
144
0.0
144
0.0
144
0.0208333333333333
144
0.0
144
0.0
144
0.0
144
0.0
144
1.0
144
0.0
144
0.0
144
0.0
144
0.0
144
1.0
147
0.0208333333333333
147
0.0
147
0.0
147
0.0
147
0.0
147
0.0208333333333333
147
0.0
147
0.0
147
0.0
147
0.0
147
1.0
147
0.0
147
0.0
147
0.0
147
0.0
147
1.0
  0
MATERIAL
  5
4FF6
102
{ACAD_XDICTIONARY
360
4FF7
102
}
102
{ACAD_REACTORS
330
4FE5
102
}
330
4FE5
100
AcDbMaterial
  1
Global
 72
     0
 43
0.0208333333333333
 43
0.0
 43
0.0
 43
0.0
 43
0.0
 43
0.0208333333333333
 43
0.0
 43
0.0
 43
0.0
 43
0.0
 43
1.0
 43
0.0
 43
0.0
 43
0.0
 43
0.0
 43
1.0
 77
     0
 47
0.0208333333333333
 47
0.0
 47
0.0
 47
0.0
 47
0.0
 47
0.0208333333333333
 47
0.0
 47
0.0
 47
0.0
 47
0.0
 47
1.0
 47
0.0
 47
0.0
 47
0.0
 47
0.0
 47
1.0
171
     0
 49
0.0208333333333333
 49
0.0
 49
0.0
 49
0.0
 49
0.0
 49
0.0208333333333333
 49
0.0
 49
0.0
 49
0.0
 49
0.0
 49
1.0
 49
0.0
 49
0.0
 49
0.0
 49
0.0
 49
1.0
175
     0
142
0.0208333333333333
142
0.0
142
0.0
142
0.0
142
0.0
142
0.0208333333333333
142
0.0
142
0.0
142
0.0
142
0.0
142
1.0
142
0.0
142
0.0
142
0.0
142
0.0
142
1.0
179
     0
144
0.0208333333333333
144
0.0
144
0.0
144
0.0
144
0.0
144
0.0208333333333333
144
0.0
144
0.0
144
0.0
144
0.0
144
1.0
144
0.0
144
0.0
144
0.0
144
0.0
144
1.0
147
0.0208333333333333
147
0.0
147
0.0
147
0.0
147
0.0
147
0.0208333333333333
147
0.0
147
0.0
147
0.0
147
0.0
147
1.0
147
0.0
147
0.0
147
0.0
147
0.0
147
1.0
  0
MLEADERSTYLE
  5
5023
102
{ACAD_REACTORS
330
5022
102
}
330
5022
100
AcDbMLeaderStyle
170
     2
171
     1
172
     0
 90
        2
 40
0.0
 41
0.0
173
     1
 91
-1056964608
340
14
 92
       -2
290
     1
 42
0.09
291
     1
 43
0.36
  3
Standard
 44
0.18
300

342
11
174
     1
178
     6
175
     1
176
     0
 93
-1056964608
 45
0.18
292
     0
297
     0
 46
0.18
 94
-1056964608
 47
1.0
 49
1.0
140
1.0
293
     1
141
0.0
294
     1
177
     0
142
1.0
295
     0
296
     0
143
0.125
1001
ACAD_MLEADERVER
1070
     2
  0
MLINESTYLE
  5
18
102
{ACAD_REACTORS
330
17
102
}
330
17
100
AcDbMlineStyle
  2
STANDARD
 70
     0
  3

 62
   256
 51
90.0
 52
90.0
 71
     2
 49
0.5
 62
   256
  6
BYLAYER
 49
-0.5
 62
   256
  6
BYLAYER
  0
ACDBPLACEHOLDER
  5
F
102
{ACAD_REACTORS
330
E
102
}
330
E
  0
MENTALRAYRENDERSETTINGS
  5
6538
102
{ACAD_REACTORS
330
6537
102
}
330
6537
100
AcDbRenderSettings
 90
        2
  1
中
290
     1
290
     1
290
     1
290
     1
  1

  1
渲染质量好于“低级”。包括纹理过滤并且强制双面处于激活状态。处理中等级反锯齿和 5 反射/折射的光线跟踪深度。
 90
        0
100
AcDbMentalRayRenderSettings
 90
        2
 90
        0
 90
        1
 70
     2
 40
3.0
 40
3.0
 40
0.0500000007450581
 40
0.0500000007450581
 40
0.0500000007450581
 40
0.0500000007450581
 70
     0
290
     0
290
     1
 90
        5
 90
        5
 90
        5
290
     0
 90
      500
290
     0
 40
1.0
 90
    10000
 90
        5
 90
        5
 90
        5
290
     0
 90
      200
290
     0
290
     0
290
     0
 40
0.1
 40
1.0
 40
1500.0
 70
     0
 70
     0
 40
10.0
 70
     0
 70
     0
290
     0
  1

 90
       32
 70
     0
 90
     1048
290
     0
 40
1.0
  0
SCALE
  5
5001
102
{ACAD_REACTORS
330
5000
102
}
330
5000
100
AcDbScale
 70
     0
300
1:1
140
1.0
141
1.0
290
     1
  0
SCALE
  5
5002
102
{ACAD_REACTORS
330
5000
102
}
330
5000
100
AcDbScale
 70
     0
300
1:2
140
1.0
141
2.0
290
     0
  0
SCALE
  5
5003
102
{ACAD_REACTORS
330
5000
102
}
330
5000
100
AcDbScale
 70
     0
300
1:4
140
1.0
141
4.0
290
     0
  0
SCALE
  5
5004
102
{ACAD_REACTORS
330
5000
102
}
330
5000
100
AcDbScale
 70
     0
300
1:5
140
1.0
141
5.0
290
     0
  0
SCALE
  5
5005
102
{ACAD_REACTORS
330
5000
102
}
330
5000
100
AcDbScale
 70
     0
300
1:8
140
1.0
141
8.0
290
     0
  0
SCALE
  5
5006
102
{ACAD_REACTORS
330
5000
102
}
330
5000
100
AcDbScale
 70
     0
300
1:10
140
1.0
141
10.0
290
     0
  0
SCALE
  5
5007
102
{ACAD_REACTORS
330
5000
102
}
330
5000
100
AcDbScale
 70
     0
300
1:16
140
1.0
141
16.0
290
     0
  0
SCALE
  5
5008
102
{ACAD_REACTORS
330
5000
102
}
330
5000
100
AcDbScale
 70
     0
300
1:20
140
1.0
141
20.0
290
     0
  0
SCALE
  5
5009
102
{ACAD_REACTORS
330
5000
102
}
330
5000
100
AcDbScale
 70
     0
300
1:30
140
1.0
141
30.0
290
     0
  0
SCALE
  5
500A
102
{ACAD_REACTORS
330
5000
102
}
330
5000
100
AcDbScale
 70
     0
300
1:40
140
1.0
141
40.0
290
     0
  0
SCALE
  5
500B
102
{ACAD_REACTORS
330
5000
102
}
330
5000
100
AcDbScale
 70
     0
300
1:50
140
1.0
141
50.0
290
     0
  0
SCALE
  5
500C
102
{ACAD_REACTORS
330
5000
102
}
330
5000
100
AcDbScale
 70
     0
300
1:100
140
1.0
141
100.0
290
     0
  0
SCALE
  5
500D
102
{ACAD_REACTORS
330
5000
102
}
330
5000
100
AcDbScale
 70
     0
300
2:1
140
2.0
141
1.0
290
     0
  0
SCALE
  5
500E
102
{ACAD_REACTORS
330
5000
102
}
330
5000
100
AcDbScale
 70
     0
300
4:1
140
4.0
141
1.0
290
     0
  0
SCALE
  5
500F
102
{ACAD_REACTORS
330
5000
102
}
330
5000
100
AcDbScale
 70
     0
300
8:1
140
8.0
141
1.0
290
     0
  0
SCALE
  5
5010
102
{ACAD_REACTORS
330
5000
102
}
330
5000
100
AcDbScale
 70
     0
300
10:1
140
10.0
141
1.0
290
     0
  0
SCALE
  5
5011
102
{ACAD_REACTORS
330
5000
102
}
330
5000
100
AcDbScale
 70
     0
300
100:1
140
100.0
141
1.0
290
     0
  0
SCALE
  5
5012
102
{ACAD_REACTORS
330
5000
102
}
330
5000
100
AcDbScale
 70
     0
300
1/128" = 1'-0"
140
0.0078125
141
12.0
290
     0
  0
SCALE
  5
5013
102
{ACAD_REACTORS
330
5000
102
}
330
5000
100
AcDbScale
 70
     0
300
1/64" = 1'-0"
140
0.015625
141
12.0
290
     0
  0
SCALE
  5
5014
102
{ACAD_REACTORS
330
5000
102
}
330
5000
100
AcDbScale
 70
     0
300
1/32" = 1'-0"
140
0.03125
141
12.0
290
     0
  0
SCALE
  5
5015
102
{ACAD_REACTORS
330
5000
102
}
330
5000
100
AcDbScale
 70
     0
300
1/16" = 1'-0"
140
0.0625
141
12.0
290
     0
  0
SCALE
  5
5016
102
{ACAD_REACTORS
330
5000
102
}
330
5000
100
AcDbScale
 70
     0
300
3/32" = 1'-0"
140
0.09375
141
12.0
290
     0
  0
SCALE
  5
5017
102
{ACAD_REACTORS
330
5000
102
}
330
5000
100
AcDbScale
 70
     0
300
1/8" = 1'-0"
140
0.125
141
12.0
290
     0
  0
SCALE
  5
5018
102
{ACAD_REACTORS
330
5000
102
}
330
5000
100
AcDbScale
 70
     0
300
3/16" = 1'-0"
140
0.1875
141
12.0
290
     0
  0
SCALE
  5
5019
102
{ACAD_REACTORS
330
5000
102
}
330
5000
100
AcDbScale
 70
     0
300
1/4" = 1'-0"
140
0.25
141
12.0
290
     0
  0
SCALE
  5
501A
102
{ACAD_REACTORS
330
5000
102
}
330
5000
100
AcDbScale
 70
     0
300
3/8" = 1'-0"
140
0.375
141
12.0
290
     0
  0
SCALE
  5
501B
102
{ACAD_REACTORS
330
5000
102
}
330
5000
100
AcDbScale
 70
     0
300
1/2" = 1'-0"
140
0.5
141
12.0
290
     0
  0
SCALE
  5
501C
102
{ACAD_REACTORS
330
5000
102
}
330
5000
100
AcDbScale
 70
     0
300
3/4" = 1'-0"
140
0.75
141
12.0
290
     0
  0
SCALE
  5
501D
102
{ACAD_REACTORS
330
5000
102
}
330
5000
100
AcDbScale
 70
     0
300
1" = 1'-0"
140
1.0
141
12.0
290
     0
  0
SCALE
  5
501E
102
{ACAD_REACTORS
330
5000
102
}
330
5000
100
AcDbScale
 70
     0
300
1-1/2" = 1'-0"
140
1.5
141
12.0
290
     0
  0
SCALE
  5
501F
102
{ACAD_REACTORS
330
5000
102
}
330
5000
100
AcDbScale
 70
     0
300
3" = 1'-0"
140
3.0
141
12.0
290
     0
  0
SCALE
  5
5020
102
{ACAD_REACTORS
330
5000
102
}
330
5000
100
AcDbScale
 70
     0
300
6" = 1'-0"
140
6.0
141
12.0
290
     0
  0
SCALE
  5
5021
102
{ACAD_REACTORS
330
5000
102
}
330
5000
100
AcDbScale
 70
     0
300
1'-0" = 1'-0"
140
12.0
141
12.0
290
     0
  0
TABLESTYLE
  5
4FFF
102
{ACAD_XDICTIONARY
360
50D6
102
}
102
{ACAD_REACTORS
330
4FE3
102
}
330
4FE3
100
AcDbTableStyle
  3
Standard
 70
     0
 71
     0
 40
0.06
 41
0.06
280
     0
281
     0
  7
Standard
140
0.18
170
     2
 62
     0
 63
     7
283
     0
 90
      512
 91
        0
  1

274
    -2
284
     1
 64
     0
275
    -2
285
     1
 65
     0
276
    -2
286
     1
 66
     0
277
    -2
287
     1
 67
     0
278
    -2
288
     1
 68
     0
279
    -2
289
     1
 69
     0
  7
Standard
140
0.25
170
     5
 62
     0
 63
     7
283
     0
 90
      512
 91
        0
  1

274
    -2
284
     1
 64
     0
275
    -2
285
     1
 65
     0
276
    -2
286
     1
 66
     0
277
    -2
287
     1
 67
     0
278
    -2
288
     1
 68
     0
279
    -2
289
     1
 69
     0
  7
Standard
140
0.18
170
     5
 62
     0
 63
     7
283
     0
 90
      512
 91
        0
  1

274
    -2
284
     1
 64
     0
275
    -2
285
     1
 65
     0
276
    -2
286
     1
 66
     0
277
    -2
287
     1
 67
     0
278
    -2
288
     1
 68
     0
279
    -2
289
     1
 69
     0
  0
VISUALSTYLE
  5
2F
102
{ACAD_REACTORS
330
2A
102
}
330
2A
100
AcDbVisualStyle
  2
2dWireframe
 70
     4
 71
     0
 72
     2
 73
     0
 90
        0
 40
-0.6
 41
-30.0
 62
     5
 63
     7
 74
     1
 91
        4
 64
     7
 65
   257
 75
     1
175
     1
 42
1.0
 92
        0
 66
   257
 43
1.0
 76
     1
 77
     6
 78
     2
 67
     7
 79
     5
170
     0
171
     0
290
     0
174
     0
 93
        1
 44
0.0
173
     0
291
     0
 45
0.0
1001
ACAD
1000
AcDbSavedByObjectVersion
1070
     0
1000
AcDbSavedByObjectVersion
1070
     0
1000
AcDbSavedByObjectVersion
1070
     0
1000
AcDbSavedByObjectVersion
1070
     0
1000
AcDbSavedByObjectVersion
1070
     0
1000
AcDbSavedByObjectVersion
1070
     0
1000
AcDbSavedByObjectVersion
1070
     0
1000
AcDbSavedByObjectVersion
1070
     0
1000
AcDbSavedByObjectVersion
1070
     0
1000
AcDbSavedByObjectVersion
1070
     0
1000
AcDbSavedByObjectVersion
1070
     0
1000
AcDbSavedByObjectVersion
1070
     0
1000
AcDbSavedByObjectVersion
1070
     0
1000
AcDbSavedByObjectVersion
1070
     0
1000
AcDbSavedByObjectVersion
1070
     0
1000
AcDbSavedByObjectVersion
1070
     0
1000
AcDbSavedByObjectVersion
1070
     0
1000
AcDbSavedByObjectVersion
1070
     0
1000
AcDbSavedByObjectVersion
1070
     0
1000
AcDbSavedByObjectVersion
1070
     0
1000
AcDbSavedByObjectVersion
1070
     0
1000
AcDbSavedByObjectVersion
1070
     0
1000
AcDbSavedByObjectVersion
1070
     0
1000
AcDbSavedByObjectVersion
1070
     0
1000
AcDbSavedByObjectVersion
1070
     0
1000
AcDbSavedByObjectVersion
1070
     0
1000
AcDbSavedByObjectVersion
1070
     0
1000
AcDbSavedByObjectVersion
1070
     0
1000
AcDbSavedByObjectVersion
1070
     0
1000
AcDbSavedByObjectVersion
1070
     0
1000
AcDbSavedByObjectVersion
1070
     0
1000
AcDbSavedByObjectVersion
1070
     0
1000
AcDbSavedByObjectVersion
1070
     0
1000
AcDbSavedByObjectVersion
1070
     0
1000
AcDbSavedByObjectVersion
1070
     0
1000
AcDbSavedByObjectVersion
1070
     0
1000
AcDbSavedByObjectVersion
1070
     0
1000
AcDbSavedByObjectVersion
1070
     0
1000
AcDbSavedByObjectVersion
1070
     0
1000
AcDbSavedByObjectVersion
1070
     0
1000
AcDbSavedByObjectVersion
1070
     0
  0
VISUALSTYLE
  5
31
102
{ACAD_REACTORS
330
2A
102
}
330
2A
100
AcDbVisualStyle
  2
3D Hidden
 70
     6
 71
     1
 72
     2
 73
     2
 90
        0
 40
-0.6
 41
-30.0
 62
     5
 63
     7
 74
     2
 91
        2
 64
     7
 65
   257
 75
     2
175
     1
 42
40.0
 92
        0
 66
   257
 43
1.0
 76
     1
 77
     6
 78
     2
 67
     7
 79
     3
170
     0
171
     0
290
     0
174
     0
 93
        1
 44
0.0
173
     0
291
     0
 45
0.0
1001
ACAD
1000
AcDbSavedByObjectVersion
1070
     0
1000
AcDbSavedByObjectVersion
1070
     0
1000
AcDbSavedByObjectVersion
1070
     0
1000
AcDbSavedByObjectVersion
1070
     0
1000
AcDbSavedByObjectVersion
1070
     0
1000
AcDbSavedByObjectVersion
1070
     0
1000
AcDbSavedByObjectVersion
1070
     0
1000
AcDbSavedByObjectVersion
1070
     0
1000
AcDbSavedByObjectVersion
1070
     0
1000
AcDbSavedByObjectVersion
1070
     0
1000
AcDbSavedByObjectVersion
1070
     0
1000
AcDbSavedByObjectVersion
1070
     0
1000
AcDbSavedByObjectVersion
1070
     0
1000
AcDbSavedByObjectVersion
1070
     0
1000
AcDbSavedByObjectVersion
1070
     0
1000
AcDbSavedByObjectVersion
1070
     0
1000
AcDbSavedByObjectVersion
1070
     0
1000
AcDbSavedByObjectVersion
1070
     0
1000
AcDbSavedByObjectVersion
1070
     0
1000
AcDbSavedByObjectVersion
1070
     0
1000
AcDbSavedByObjectVersion
1070
     0
1000
AcDbSavedByObjectVersion
1070
     0
1000
AcDbSavedByObjectVersion
1070
     0
1000
AcDbSavedByObjectVersion
1070
     0
1000
AcDbSavedByObjectVersion
1070
     0
1000
AcDbSavedByObjectVersion
1070
     0
1000
AcDbSavedByObjectVersion
1070
     0
1000
AcDbSavedByObjectVersion
1070
     0
1000
AcDbSavedByObjectVersion
1070
     0
1000
AcDbSavedByObjectVersion
1070
     0
1000
AcDbSavedByObjectVersion
1070
     0
1000
AcDbSavedByObjectVersion
1070
     0
1000
AcDbSavedByObjectVersion
1070
     0
1000
AcDbSavedByObjectVersion
1070
     0
1000
AcDbSavedByObjectVersion
1070
     0
1000
AcDbSavedByObjectVersion
1070
     0
1000
AcDbSavedByObjectVersion
1070
     0
1000
AcDbSavedByObjectVersion
1070
     0
1000
AcDbSavedByObjectVersion
1070
     0
1000
AcDbSavedByObjectVersion
1070
     0
1000
AcDbSavedByObjectVersion
1070
     0
  0
VISUALSTYLE
  5
30
102
{ACAD_REACTORS
330
2A
102
}
330
2A
100
AcDbVisualStyle
  2
3dWireframe
 70
     5
 71
     0
 72
     2
 73
     0
 90
        0
 40
-0.6
 41
-30.0
 62
     5
 63
     7
 74
     1
 91
        4
 64
     7
 65
   257
 75
     1
175
     1
 42
1.0
 92
        0
 66
   257
 43
1.0
 76
     1
 77
     6
 78
     2
 67
     7
 79
     5
170
     0
171
     0
290
     0
174
     0
 93
        1
 44
0.0
173
     0
291
     0
 45
0.0
1001
ACAD
1000
AcDbSavedByObjectVersion
1070
     0
1000
AcDbSavedByObjectVersion
1070
     0
1000
AcDbSavedByObjectVersion
1070
     0
1000
AcDbSavedByObjectVersion
1070
     0
1000
AcDbSavedByObjectVersion
1070
     0
1000
AcDbSavedByObjectVersion
1070
     0
1000
AcDbSavedByObjectVersion
1070
     0
1000
AcDbSavedByObjectVersion
1070
     0
1000
AcDbSavedByObjectVersion
1070
     0
1000
AcDbSavedByObjectVersion
1070
     0
1000
AcDbSavedByObjectVersion
1070
     0
1000
AcDbSavedByObjectVersion
1070
     0
1000
AcDbSavedByObjectVersion
1070
     0
1000
AcDbSavedByObjectVersion
1070
     0
1000
AcDbSavedByObjectVersion
1070
     0
1000
AcDbSavedByObjectVersion
1070
     0
1000
AcDbSavedByObjectVersion
1070
     0
1000
AcDbSavedByObjectVersion
1070
     0
1000
AcDbSavedByObjectVersion
1070
     0
1000
AcDbSavedByObjectVersion
1070
     0
1000
AcDbSavedByObjectVersion
1070
     0
1000
AcDbSavedByObjectVersion
1070
     0
1000
AcDbSavedByObjectVersion
1070
     0
1000
AcDbSavedByObjectVersion
1070
     0
1000
AcDbSavedByObjectVersion
1070
     0
1000
AcDbSavedByObjectVersion
1070
     0
1000
AcDbSavedByObjectVersion
1070
     0
1000
AcDbSavedByObjectVersion
1070
     0
1000
AcDbSavedByObjectVersion
1070
     0
1000
AcDbSavedByObjectVersion
1070
     0
1000
AcDbSavedByObjectVersion
1070
     0
1000
AcDbSavedByObjectVersion
1070
     0
1000
AcDbSavedByObjectVersion
1070
     0
1000
AcDbSavedByObjectVersion
1070
     0
1000
AcDbSavedByObjectVersion
1070
     0
1000
AcDbSavedByObjectVersion
1070
     0
1000
AcDbSavedByObjectVersion
1070
     0
1000
AcDbSavedByObjectVersion
1070
     0
1000
AcDbSavedByObjectVersion
1070
     0
1000
AcDbSavedByObjectVersion
1070
     0
1000
AcDbSavedByObjectVersion
1070
     0
  0
VISUALSTYLE
  5
32
102
{ACAD_REACTORS
330
2A
102
}
330
2A
100
AcDbVisualStyle
  2
Basic
 70
     7
 71
     1
 72
     0
 73
     1
 90
        0
 40
-0.6
 41
-30.0
 62
     5
 63
     7
 74
     0
 91
        4
 64
     7
 65
   257
 75
     1
175
     1
 42
1.0
 92
        8
 66
     7
 43
1.0
 76
     1
 77
     6
 78
     2
 67
     7
 79
     5
170
     0
171
     0
290
     0
174
     0
 93
        1
 44
0.0
173
     0
291
     1
 45
0.0
1001
ACAD
1000
AcDbSavedByObjectVersion
1070
     0
1000
AcDbSavedByObjectVersion
1070
     0
1000
AcDbSavedByObjectVersion
1070
     0
1000
AcDbSavedByObjectVersion
1070
     0
1000
AcDbSavedByObjectVersion
1070
     0
1000
AcDbSavedByObjectVersion
1070
     0
1000
AcDbSavedByObjectVersion
1070
     0
1000
AcDbSavedByObjectVersion
1070
     0
1000
AcDbSavedByObjectVersion
1070
     0
1000
AcDbSavedByObjectVersion
1070
     0
1000
AcDbSavedByObjectVersion
1070
     0
1000
AcDbSavedByObjectVersion
1070
     0
1000
AcDbSavedByObjectVersion
1070
     0
1000
AcDbSavedByObjectVersion
1070
     0
1000
AcDbSavedByObjectVersion
1070
     0
1000
AcDbSavedByObjectVersion
1070
     0
1000
AcDbSavedByObjectVersion
1070
     0
1000
AcDbSavedByObjectVersion
1070
     0
1000
AcDbSavedByObjectVersion
1070
     0
1000
AcDbSavedByObjectVersion
1070
     0
1000
AcDbSavedByObjectVersion
1070
     0
1000
AcDbSavedByObjectVersion
1070
     0
1000
AcDbSavedByObjectVersion
1070
     0
1000
AcDbSavedByObjectVersion
1070
     0
1000
AcDbSavedByObjectVersion
1070
     0
1000
AcDbSavedByObjectVersion
1070
     0
1000
AcDbSavedByObjectVersion
1070
     0
1000
AcDbSavedByObjectVersion
1070
     0
1000
AcDbSavedByObjectVersion
1070
     0
1000
AcDbSavedByObjectVersion
1070
     0
1000
AcDbSavedByObjectVersion
1070
     0
1000
AcDbSavedByObjectVersion
1070
     0
1000
AcDbSavedByObjectVersion
1070
     0
1000
AcDbSavedByObjectVersion
1070
     0
1000
AcDbSavedByObjectVersion
1070
     0
1000
AcDbSavedByObjectVersion
1070
     0
1000
AcDbSavedByObjectVersion
1070
     0
1000
AcDbSavedByObjectVersion
1070
     0
1000
AcDbSavedByObjectVersion
1070
     0
1000
AcDbSavedByObjectVersion
1070
     0
1000
AcDbSavedByObjectVersion
1070
     0
  0
VISUALSTYLE
  5
36
102
{ACAD_REACTORS
330
2A
102
}
330
2A
100
AcDbVisualStyle
  2
Brighten
 70
    12
 71
     2
 72
     2
 73
     0
 90
        0
 40
-0.6
 41
-30.0
 62
     5
 63
     7
 74
     1
 91
        4
 64
     7
 65
   257
 75
     1
175
     1
 42
1.0
 92
        8
 66
     7
 43
1.0
 76
     1
 77
     6
 78
     2
 67
     7
 79
     5
170
     0
171
     0
290
     0
174
     0
 93
        1
 44
50.0
173
     0
291
     1
 45
0.0
1001
ACAD
1000
AcDbSavedByObjectVersion
1070
     0
1000
AcDbSavedByObjectVersion
1070
     0
1000
AcDbSavedByObjectVersion
1070
     0
1000
AcDbSavedByObjectVersion
1070
     0
1000
AcDbSavedByObjectVersion
1070
     0
1000
AcDbSavedByObjectVersion
1070
     0
1000
AcDbSavedByObjectVersion
1070
     0
1000
AcDbSavedByObjectVersion
1070
     0
1000
AcDbSavedByObjectVersion
1070
     0
1000
AcDbSavedByObjectVersion
1070
     0
1000
AcDbSavedByObjectVersion
1070
     0
1000
AcDbSavedByObjectVersion
1070
     0
1000
AcDbSavedByObjectVersion
1070
     0
1000
AcDbSavedByObjectVersion
1070
     0
1000
AcDbSavedByObjectVersion
1070
     0
1000
AcDbSavedByObjectVersion
1070
     0
1000
AcDbSavedByObjectVersion
1070
     0
1000
AcDbSavedByObjectVersion
1070
     0
1000
AcDbSavedByObjectVersion
1070
     0
1000
AcDbSavedByObjectVersion
1070
     0
1000
AcDbSavedByObjectVersion
1070
     0
1000
AcDbSavedByObjectVersion
1070
     0
1000
AcDbSavedByObjectVersion
1070
     0
1000
AcDbSavedByObjectVersion
1070
     0
1000
AcDbSavedByObjectVersion
1070
     0
1000
AcDbSavedByObjectVersion
1070
     0
1000
AcDbSavedByObjectVersion
1070
     0
1000
AcDbSavedByObjectVersion
1070
     0
1000
AcDbSavedByObjectVersion
1070
     0
1000
AcDbSavedByObjectVersion
1070
     0
1000
AcDbSavedByObjectVersion
1070
     0
1000
AcDbSavedByObjectVersion
1070
     0
1000
AcDbSavedByObjectVersion
1070
     0
1000
AcDbSavedByObjectVersion
1070
     0
1000
AcDbSavedByObjectVersion
1070
     0
1000
AcDbSavedByObjectVersion
1070
     0
1000
AcDbSavedByObjectVersion
1070
     0
1000
AcDbSavedByObjectVersion
1070
     0
1000
AcDbSavedByObjectVersion
1070
     0
1000
AcDbSavedByObjectVersion
1070
     0
1000
AcDbSavedByObjectVersion
1070
     0
  0
VISUALSTYLE
  5
3A
102
{ACAD_REACTORS
330
2A
102
}
330
2A
100
AcDbVisualStyle
  2
ColorChange
 70
    16
 71
     2
 72
     2
 73
     3
 90
        0
 40
-0.6
 41
-30.0
 62
     5
 63
     8
 74
     1
 91
        4
 64
     7
 65
   257
 75
     1
175
     1
 42
1.0
 92
        8
 66
     8
 43
1.0
 76
     1
 77
     6
 78
     2
 67
     7
 79
     5
170
     0
171
     0
290
     0
174
     0
 93
        1
 44
0.0
173
     0
291
     1
 45
0.0
1001
ACAD
1000
AcDbSavedByObjectVersion
1070
     0
1000
AcDbSavedByObjectVersion
1070
     0
1000
AcDbSavedByObjectVersion
1070
     0
1000
AcDbSavedByObjectVersion
1070
     0
1000
AcDbSavedByObjectVersion
1070
     0
1000
AcDbSavedByObjectVersion
1070
     0
1000
AcDbSavedByObjectVersion
1070
     0
1000
AcDbSavedByObjectVersion
1070
     0
1000
AcDbSavedByObjectVersion
1070
     0
1000
AcDbSavedByObjectVersion
1070
     0
1000
AcDbSavedByObjectVersion
1070
     0
1000
AcDbSavedByObjectVersion
1070
     0
1000
AcDbSavedByObjectVersion
1070
     0
1000
AcDbSavedByObjectVersion
1070
     0
1000
AcDbSavedByObjectVersion
1070
     0
1000
AcDbSavedByObjectVersion
1070
     0
1000
AcDbSavedByObjectVersion
1070
     0
1000
AcDbSavedByObjectVersion
1070
     0
1000
AcDbSavedByObjectVersion
1070
     0
1000
AcDbSavedByObjectVersion
1070
     0
1000
AcDbSavedByObjectVersion
1070
     0
1000
AcDbSavedByObjectVersion
1070
     0
1000
AcDbSavedByObjectVersion
1070
     0
1000
AcDbSavedByObjectVersion
1070
     0
1000
AcDbSavedByObjectVersion
1070
     0
1000
AcDbSavedByObjectVersion
1070
     0
1000
AcDbSavedByObjectVersion
1070
     0
1000
AcDbSavedByObjectVersion
1070
     0
1000
AcDbSavedByObjectVersion
1070
     0
1000
AcDbSavedByObjectVersion
1070
     0
1000
AcDbSavedByObjectVersion
1070
     0
1000
AcDbSavedByObjectVersion
1070
     0
1000
AcDbSavedByObjectVersion
1070
     0
1000
AcDbSavedByObjectVersion
1070
     0
1000
AcDbSavedByObjectVersion
1070
     0
1000
AcDbSavedByObjectVersion
1070
     0
1000
AcDbSavedByObjectVersion
1070
     0
1000
AcDbSavedByObjectVersion
1070
     0
1000
AcDbSavedByObjectVersion
1070
     0
1000
AcDbSavedByObjectVersion
1070
     0
1000
AcDbSavedByObjectVersion
1070
     0
  0
VISUALSTYLE
  5
34
102
{ACAD_REACTORS
330
2A
102
}
330
2A
100
AcDbVisualStyle
  2
Conceptual
 70
     9
 71
     3
 72
     2
 73
     0
 90
        0
 40
-0.6
 41
-30.0
 62
     5
 63
     7
 74
     2
 91
        2
 64
     7
 65
   257
 75
     1
175
     1
 42
40.0
 92
        8
 66
     7
 43
1.0
 76
     1
 77
     6
 78
     2
 67
     7
 79
     3
170
     0
171
     0
290
     0
174
     0
 93
        1
 44
0.0
173
     0
291
     0
 45
0.0
1001
ACAD
1000
AcDbSavedByObjectVersion
1070
     0
1000
AcDbSavedByObjectVersion
1070
     0
1000
AcDbSavedByObjectVersion
1070
     0
1000
AcDbSavedByObjectVersion
1070
     0
1000
AcDbSavedByObjectVersion
1070
     0
1000
AcDbSavedByObjectVersion
1070
     0
1000
AcDbSavedByObjectVersion
1070
     0
1000
AcDbSavedByObjectVersion
1070
     0
1000
AcDbSavedByObjectVersion
1070
     0
1000
AcDbSavedByObjectVersion
1070
     0
1000
AcDbSavedByObjectVersion
1070
     0
1000
AcDbSavedByObjectVersion
1070
     0
1000
AcDbSavedByObjectVersion
1070
     0
1000
AcDbSavedByObjectVersion
1070
     0
1000
AcDbSavedByObjectVersion
1070
     0
1000
AcDbSavedByObjectVersion
1070
     0
1000
AcDbSavedByObjectVersion
1070
     0
1000
AcDbSavedByObjectVersion
1070
     0
1000
AcDbSavedByObjectVersion
1070
     0
1000
AcDbSavedByObjectVersion
1070
     0
1000
AcDbSavedByObjectVersion
1070
     0
1000
AcDbSavedByObjectVersion
1070
     0
1000
AcDbSavedByObjectVersion
1070
     0
1000
AcDbSavedByObjectVersion
1070
     0
1000
AcDbSavedByObjectVersion
1070
     0
1000
AcDbSavedByObjectVersion
1070
     0
1000
AcDbSavedByObjectVersion
1070
     0
1000
AcDbSavedByObjectVersion
1070
     0
1000
AcDbSavedByObjectVersion
1070
     0
1000
AcDbSavedByObjectVersion
1070
     0
1000
AcDbSavedByObjectVersion
1070
     0
1000
AcDbSavedByObjectVersion
1070
     0
1000
AcDbSavedByObjectVersion
1070
     0
1000
AcDbSavedByObjectVersion
1070
     0
1000
AcDbSavedByObjectVersion
1070
     0
1000
AcDbSavedByObjectVersion
1070
     0
1000
AcDbSavedByObjectVersion
1070
     0
1000
AcDbSavedByObjectVersion
1070
     0
1000
AcDbSavedByObjectVersion
1070
     0
1000
AcDbSavedByObjectVersion
1070
     0
1000
AcDbSavedByObjectVersion
1070
     0
  0
VISUALSTYLE
  5
35
102
{ACAD_REACTORS
330
2A
102
}
330
2A
100
AcDbVisualStyle
  2
Dim
 70
    11
 71
     2
 72
     2
 73
     0
 90
        0
 40
-0.6
 41
-30.0
 62
     5
 63
     7
 74
     1
 91
        4
 64
     7
 65
   257
 75
     1
175
     1
 42
1.0
 92
        8
 66
     7
 43
1.0
 76
     1
 77
     6
 78
     2
 67
     7
 79
     5
170
     0
171
     0
290
     0
174
     0
 93
        1
 44
-50.0
173
     0
291
     1
 45
0.0
1001
ACAD
1000
AcDbSavedByObjectVersion
1070
     0
1000
AcDbSavedByObjectVersion
1070
     0
1000
AcDbSavedByObjectVersion
1070
     0
1000
AcDbSavedByObjectVersion
1070
     0
1000
AcDbSavedByObjectVersion
1070
     0
1000
AcDbSavedByObjectVersion
1070
     0
1000
AcDbSavedByObjectVersion
1070
     0
1000
AcDbSavedByObjectVersion
1070
     0
1000
AcDbSavedByObjectVersion
1070
     0
1000
AcDbSavedByObjectVersion
1070
     0
1000
AcDbSavedByObjectVersion
1070
     0
1000
AcDbSavedByObjectVersion
1070
     0
1000
AcDbSavedByObjectVersion
1070
     0
1000
AcDbSavedByObjectVersion
1070
     0
1000
AcDbSavedByObjectVersion
1070
     0
1000
AcDbSavedByObjectVersion
1070
     0
1000
AcDbSavedByObjectVersion
1070
     0
1000
AcDbSavedByObjectVersion
1070
     0
1000
AcDbSavedByObjectVersion
1070
     0
1000
AcDbSavedByObjectVersion
1070
     0
1000
AcDbSavedByObjectVersion
1070
     0
1000
AcDbSavedByObjectVersion
1070
     0
1000
AcDbSavedByObjectVersion
1070
     0
1000
AcDbSavedByObjectVersion
1070
     0
1000
AcDbSavedByObjectVersion
1070
     0
1000
AcDbSavedByObjectVersion
1070
     0
1000
AcDbSavedByObjectVersion
1070
     0
1000
AcDbSavedByObjectVersion
1070
     0
1000
AcDbSavedByObjectVersion
1070
     0
1000
AcDbSavedByObjectVersion
1070
     0
1000
AcDbSavedByObjectVersion
1070
     0
1000
AcDbSavedByObjectVersion
1070
     0
1000
AcDbSavedByObjectVersion
1070
     0
1000
AcDbSavedByObjectVersion
1070
     0
1000
AcDbSavedByObjectVersion
1070
     0
1000
AcDbSavedByObjectVersion
1070
     0
1000
AcDbSavedByObjectVersion
1070
     0
1000
AcDbSavedByObjectVersion
1070
     0
1000
AcDbSavedByObjectVersion
1070
     0
1000
AcDbSavedByObjectVersion
1070
     0
1000
AcDbSavedByObjectVersion
1070
     0
  0
VISUALSTYLE
  5
39
102
{ACAD_REACTORS
330
2A
102
}
330
2A
100
AcDbVisualStyle
  2
Facepattern
 70
    15
 71
     2
 72
     2
 73
     0
 90
        0
 40
-0.6
 41
-30.0
 62
     5
 63
     7
 74
     1
 91
        4
 64
     7
 65
   257
 75
     1
175
     1
 42
1.0
 92
        8
 66
     7
 43
1.0
 76
     1
 77
     6
 78
     2
 67
     7
 79
     5
170
     0
171
     0
290
     0
174
     0
 93
        1
 44
0.0
173
     0
291
     1
 45
0.0
1001
ACAD
1000
AcDbSavedByObjectVersion
1070
     0
1000
AcDbSavedByObjectVersion
1070
     0
1000
AcDbSavedByObjectVersion
1070
     0
1000
AcDbSavedByObjectVersion
1070
     0
1000
AcDbSavedByObjectVersion
1070
     0
1000
AcDbSavedByObjectVersion
1070
     0
1000
AcDbSavedByObjectVersion
1070
     0
1000
AcDbSavedByObjectVersion
1070
     0
1000
AcDbSavedByObjectVersion
1070
     0
1000
AcDbSavedByObjectVersion
1070
     0
1000
AcDbSavedByObjectVersion
1070
     0
1000
AcDbSavedByObjectVersion
1070
     0
1000
AcDbSavedByObjectVersion
1070
     0
1000
AcDbSavedByObjectVersion
1070
     0
1000
AcDbSavedByObjectVersion
1070
     0
1000
AcDbSavedByObjectVersion
1070
     0
1000
AcDbSavedByObjectVersion
1070
     0
1000
AcDbSavedByObjectVersion
1070
     0
1000
AcDbSavedByObjectVersion
1070
     0
1000
AcDbSavedByObjectVersion
1070
     0
1000
AcDbSavedByObjectVersion
1070
     0
1000
AcDbSavedByObjectVersion
1070
     0
1000
AcDbSavedByObjectVersion
1070
     0
1000
AcDbSavedByObjectVersion
1070
     0
1000
AcDbSavedByObjectVersion
1070
     0
1000
AcDbSavedByObjectVersion
1070
     0
1000
AcDbSavedByObjectVersion
1070
     0
1000
AcDbSavedByObjectVersion
1070
     0
1000
AcDbSavedByObjectVersion
1070
     0
1000
AcDbSavedByObjectVersion
1070
     0
1000
AcDbSavedByObjectVersion
1070
     0
1000
AcDbSavedByObjectVersion
1070
     0
1000
AcDbSavedByObjectVersion
1070
     0
1000
AcDbSavedByObjectVersion
1070
     0
1000
AcDbSavedByObjectVersion
1070
     0
1000
AcDbSavedByObjectVersion
1070
     0
1000
AcDbSavedByObjectVersion
1070
     0
1000
AcDbSavedByObjectVersion
1070
     0
1000
AcDbSavedByObjectVersion
1070
     0
1000
AcDbSavedByObjectVersion
1070
     0
1000
AcDbSavedByObjectVersion
1070
     0
  0
VISUALSTYLE
  5
2B
102
{ACAD_REACTORS
330
2A
102
}
330
2A
100
AcDbVisualStyle
  2
Flat
 70
     0
 71
     2
 72
     1
 73
     1
 90
        2
 40
-0.6
 41
30.0
 62
     5
 63
     7
 74
     0
 91
        4
 64
     7
 65
   257
 75
     1
175
     1
 42
1.0
 92
        8
 66
     7
 43
1.0
 76
     1
 77
     6
 78
     2
 67
     7
 79
     5
170
     0
171
     0
290
     0
174
     0
 93
       13
 44
0.0
173
     0
291
     1
 45
0.0
1001
ACAD
1000
AcDbSavedByObjectVersion
1070
     0
1000
AcDbSavedByObjectVersion
1070
     0
1000
AcDbSavedByObjectVersion
1070
     0
1000
AcDbSavedByObjectVersion
1070
     0
1000
AcDbSavedByObjectVersion
1070
     0
1000
AcDbSavedByObjectVersion
1070
     0
1000
AcDbSavedByObjectVersion
1070
     0
1000
AcDbSavedByObjectVersion
1070
     0
1000
AcDbSavedByObjectVersion
1070
     0
1000
AcDbSavedByObjectVersion
1070
     0
1000
AcDbSavedByObjectVersion
1070
     0
1000
AcDbSavedByObjectVersion
1070
     0
1000
AcDbSavedByObjectVersion
1070
     0
1000
AcDbSavedByObjectVersion
1070
     0
1000
AcDbSavedByObjectVersion
1070
     0
1000
AcDbSavedByObjectVersion
1070
     0
1000
AcDbSavedByObjectVersion
1070
     0
1000
AcDbSavedByObjectVersion
1070
     0
1000
AcDbSavedByObjectVersion
1070
     0
1000
AcDbSavedByObjectVersion
1070
     0
1000
AcDbSavedByObjectVersion
1070
     0
1000
AcDbSavedByObjectVersion
1070
     0
1000
AcDbSavedByObjectVersion
1070
     0
1000
AcDbSavedByObjectVersion
1070
     0
1000
AcDbSavedByObjectVersion
1070
     0
1000
AcDbSavedByObjectVersion
1070
     0
1000
AcDbSavedByObjectVersion
1070
     0
1000
AcDbSavedByObjectVersion
1070
     0
1000
AcDbSavedByObjectVersion
1070
     0
1000
AcDbSavedByObjectVersion
1070
     0
1000
AcDbSavedByObjectVersion
1070
     0
1000
AcDbSavedByObjectVersion
1070
     0
1000
AcDbSavedByObjectVersion
1070
     0
1000
AcDbSavedByObjectVersion
1070
     0
1000
AcDbSavedByObjectVersion
1070
     0
1000
AcDbSavedByObjectVersion
1070
     0
1000
AcDbSavedByObjectVersion
1070
     0
1000
AcDbSavedByObjectVersion
1070
     0
1000
AcDbSavedByObjectVersion
1070
     0
1000
AcDbSavedByObjectVersion
1070
     0
1000
AcDbSavedByObjectVersion
1070
     0
  0
VISUALSTYLE
  5
2C
102
{ACAD_REACTORS
330
2A
102
}
330
2A
100
AcDbVisualStyle
  2
FlatWithEdges
 70
     1
 71
     2
 72
     1
 73
     1
 90
        2
 40
-0.6
 41
30.0
 62
     5
 63
     7
 74
     1
 91
        4
 64
     7
 65
   257
 75
     1
175
     1
 42
1.0
 92
        0
 66
   257
 43
1.0
 76
     1
 77
     6
 78
     2
 67
     7
 79
     5
170
     0
171
     0
290
     0
174
     0
 93
       13
 44
0.0
173
     0
291
     1
 45
0.0
1001
ACAD
1000
AcDbSavedByObjectVersion
1070
     0
1000
AcDbSavedByObjectVersion
1070
     0
1000
AcDbSavedByObjectVersion
1070
     0
1000
AcDbSavedByObjectVersion
1070
     0
1000
AcDbSavedByObjectVersion
1070
     0
1000
AcDbSavedByObjectVersion
1070
     0
1000
AcDbSavedByObjectVersion
1070
     0
1000
AcDbSavedByObjectVersion
1070
     0
1000
AcDbSavedByObjectVersion
1070
     0
1000
AcDbSavedByObjectVersion
1070
     0
1000
AcDbSavedByObjectVersion
1070
     0
1000
AcDbSavedByObjectVersion
1070
     0
1000
AcDbSavedByObjectVersion
1070
     0
1000
AcDbSavedByObjectVersion
1070
     0
1000
AcDbSavedByObjectVersion
1070
     0
1000
AcDbSavedByObjectVersion
1070
     0
1000
AcDbSavedByObjectVersion
1070
     0
1000
AcDbSavedByObjectVersion
1070
     0
1000
AcDbSavedByObjectVersion
1070
     0
1000
AcDbSavedByObjectVersion
1070
     0
1000
AcDbSavedByObjectVersion
1070
     0
1000
AcDbSavedByObjectVersion
1070
     0
1000
AcDbSavedByObjectVersion
1070
     0
1000
AcDbSavedByObjectVersion
1070
     0
1000
AcDbSavedByObjectVersion
1070
     0
1000
AcDbSavedByObjectVersion
1070
     0
1000
AcDbSavedByObjectVersion
1070
     0
1000
AcDbSavedByObjectVersion
1070
     0
1000
AcDbSavedByObjectVersion
1070
     0
1000
AcDbSavedByObjectVersion
1070
     0
1000
AcDbSavedByObjectVersion
1070
     0
1000
AcDbSavedByObjectVersion
1070
     0
1000
AcDbSavedByObjectVersion
1070
     0
1000
AcDbSavedByObjectVersion
1070
     0
1000
AcDbSavedByObjectVersion
1070
     0
1000
AcDbSavedByObjectVersion
1070
     0
1000
AcDbSavedByObjectVersion
1070
     0
1000
AcDbSavedByObjectVersion
1070
     0
1000
AcDbSavedByObjectVersion
1070
     0
1000
AcDbSavedByObjectVersion
1070
     0
1000
AcDbSavedByObjectVersion
1070
     0
  0
VISUALSTYLE
  5
2D
102
{ACAD_REACTORS
330
2A
102
}
330
2A
100
AcDbVisualStyle
  2
Gouraud
 70
     2
 71
     2
 72
     2
 73
     1
 90
        2
 40
-0.6
 41
30.0
 62
     5
 63
     7
 74
     0
 91
        4
 64
     7
 65
   257
 75
     1
175
     1
 42
1.0
 92
        0
 66
     7
 43
1.0
 76
     1
 77
     6
 78
     2
 67
     7
 79
     5
170
     0
171
     0
290
     0
174
     0
 93
       13
 44
0.0
173
     0
291
     1
 45
0.0
1001
ACAD
1000
AcDbSavedByObjectVersion
1070
     0
1000
AcDbSavedByObjectVersion
1070
     0
1000
AcDbSavedByObjectVersion
1070
     0
1000
AcDbSavedByObjectVersion
1070
     0
1000
AcDbSavedByObjectVersion
1070
     0
1000
AcDbSavedByObjectVersion
1070
     0
1000
AcDbSavedByObjectVersion
1070
     0
1000
AcDbSavedByObjectVersion
1070
     0
1000
AcDbSavedByObjectVersion
1070
     0
1000
AcDbSavedByObjectVersion
1070
     0
1000
AcDbSavedByObjectVersion
1070
     0
1000
AcDbSavedByObjectVersion
1070
     0
1000
AcDbSavedByObjectVersion
1070
     0
1000
AcDbSavedByObjectVersion
1070
     0
1000
AcDbSavedByObjectVersion
1070
     0
1000
AcDbSavedByObjectVersion
1070
     0
1000
AcDbSavedByObjectVersion
1070
     0
1000
AcDbSavedByObjectVersion
1070
     0
1000
AcDbSavedByObjectVersion
1070
     0
1000
AcDbSavedByObjectVersion
1070
     0
1000
AcDbSavedByObjectVersion
1070
     0
1000
AcDbSavedByObjectVersion
1070
     0
1000
AcDbSavedByObjectVersion
1070
     0
1000
AcDbSavedByObjectVersion
1070
     0
1000
AcDbSavedByObjectVersion
1070
     0
1000
AcDbSavedByObjectVersion
1070
     0
1000
AcDbSavedByObjectVersion
1070
     0
1000
AcDbSavedByObjectVersion
1070
     0
1000
AcDbSavedByObjectVersion
1070
     0
1000
AcDbSavedByObjectVersion
1070
     0
1000
AcDbSavedByObjectVersion
1070
     0
1000
AcDbSavedByObjectVersion
1070
     0
1000
AcDbSavedByObjectVersion
1070
     0
1000
AcDbSavedByObjectVersion
1070
     0
1000
AcDbSavedByObjectVersion
1070
     0
1000
AcDbSavedByObjectVersion
1070
     0
1000
AcDbSavedByObjectVersion
1070
     0
1000
AcDbSavedByObjectVersion
1070
     0
1000
AcDbSavedByObjectVersion
1070
     0
1000
AcDbSavedByObjectVersion
1070
     0
1000
AcDbSavedByObjectVersion
1070
     0
  0
VISUALSTYLE
  5
2E
102
{ACAD_REACTORS
330
2A
102
}
330
2A
100
AcDbVisualStyle
  2
GouraudWithEdges
 70
     3
 71
     2
 72
     2
 73
     1
 90
        2
 40
-0.6
 41
30.0
 62
     5
 63
     7
 74
     1
 91
        4
 64
     7
 65
   257
 75
     1
175
     1
 42
1.0
 92
        0
 66
   257
 43
1.0
 76
     1
 77
     6
 78
     2
 67
     7
 79
     5
170
     0
171
     0
290
     0
174
     0
 93
       13
 44
0.0
173
     0
291
     1
 45
0.0
1001
ACAD
1000
AcDbSavedByObjectVersion
1070
     0
1000
AcDbSavedByObjectVersion
1070
     0
1000
AcDbSavedByObjectVersion
1070
     0
1000
AcDbSavedByObjectVersion
1070
     0
1000
AcDbSavedByObjectVersion
1070
     0
1000
AcDbSavedByObjectVersion
1070
     0
1000
AcDbSavedByObjectVersion
1070
     0
1000
AcDbSavedByObjectVersion
1070
     0
1000
AcDbSavedByObjectVersion
1070
     0
1000
AcDbSavedByObjectVersion
1070
     0
1000
AcDbSavedByObjectVersion
1070
     0
1000
AcDbSavedByObjectVersion
1070
     0
1000
AcDbSavedByObjectVersion
1070
     0
1000
AcDbSavedByObjectVersion
1070
     0
1000
AcDbSavedByObjectVersion
1070
     0
1000
AcDbSavedByObjectVersion
1070
     0
1000
AcDbSavedByObjectVersion
1070
     0
1000
AcDbSavedByObjectVersion
1070
     0
1000
AcDbSavedByObjectVersion
1070
     0
1000
AcDbSavedByObjectVersion
1070
     0
1000
AcDbSavedByObjectVersion
1070
     0
1000
AcDbSavedByObjectVersion
1070
     0
1000
AcDbSavedByObjectVersion
1070
     0
1000
AcDbSavedByObjectVersion
1070
     0
1000
AcDbSavedByObjectVersion
1070
     0
1000
AcDbSavedByObjectVersion
1070
     0
1000
AcDbSavedByObjectVersion
1070
     0
1000
AcDbSavedByObjectVersion
1070
     0
1000
AcDbSavedByObjectVersion
1070
     0
1000
AcDbSavedByObjectVersion
1070
     0
1000
AcDbSavedByObjectVersion
1070
     0
1000
AcDbSavedByObjectVersion
1070
     0
1000
AcDbSavedByObjectVersion
1070
     0
1000
AcDbSavedByObjectVersion
1070
     0
1000
AcDbSavedByObjectVersion
1070
     0
1000
AcDbSavedByObjectVersion
1070
     0
1000
AcDbSavedByObjectVersion
1070
     0
1000
AcDbSavedByObjectVersion
1070
     0
1000
AcDbSavedByObjectVersion
1070
     0
1000
AcDbSavedByObjectVersion
1070
     0
1000
AcDbSavedByObjectVersion
1070
     0
  0
VISUALSTYLE
  5
38
102
{ACAD_REACTORS
330
2A
102
}
330
2A
100
AcDbVisualStyle
  2
Linepattern
 70
    14
 71
     2
 72
     2
 73
     0
 90
        0
 40
-0.6
 41
-30.0
 62
     5
 63
     7
 74
     1
 91
        4
 64
     7
 65
   257
 75
     7
175
     7
 42
1.0
 92
        8
 66
     7
 43
1.0
 76
     1
 77
     6
 78
     2
 67
     7
 79
     5
170
     0
171
     0
290
     0
174
     0
 93
        1
 44
0.0
173
     0
291
     1
 45
0.0
1001
ACAD
1000
AcDbSavedByObjectVersion
1070
     0
1000
AcDbSavedByObjectVersion
1070
     0
1000
AcDbSavedByObjectVersion
1070
     0
1000
AcDbSavedByObjectVersion
1070
     0
1000
AcDbSavedByObjectVersion
1070
     0
1000
AcDbSavedByObjectVersion
1070
     0
1000
AcDbSavedByObjectVersion
1070
     0
1000
AcDbSavedByObjectVersion
1070
     0
1000
AcDbSavedByObjectVersion
1070
     0
1000
AcDbSavedByObjectVersion
1070
     0
1000
AcDbSavedByObjectVersion
1070
     0
1000
AcDbSavedByObjectVersion
1070
     0
1000
AcDbSavedByObjectVersion
1070
     0
1000
AcDbSavedByObjectVersion
1070
     0
1000
AcDbSavedByObjectVersion
1070
     0
1000
AcDbSavedByObjectVersion
1070
     0
1000
AcDbSavedByObjectVersion
1070
     0
1000
AcDbSavedByObjectVersion
1070
     0
1000
AcDbSavedByObjectVersion
1070
     0
1000
AcDbSavedByObjectVersion
1070
     0
1000
AcDbSavedByObjectVersion
1070
     0
1000
AcDbSavedByObjectVersion
1070
     0
1000
AcDbSavedByObjectVersion
1070
     0
1000
AcDbSavedByObjectVersion
1070
     0
1000
AcDbSavedByObjectVersion
1070
     0
1000
AcDbSavedByObjectVersion
1070
     0
1000
AcDbSavedByObjectVersion
1070
     0
1000
AcDbSavedByObjectVersion
1070
     0
1000
AcDbSavedByObjectVersion
1070
     0
1000
AcDbSavedByObjectVersion
1070
     0
1000
AcDbSavedByObjectVersion
1070
     0
1000
AcDbSavedByObjectVersion
1070
     0
1000
AcDbSavedByObjectVersion
1070
     0
1000
AcDbSavedByObjectVersion
1070
     0
1000
AcDbSavedByObjectVersion
1070
     0
1000
AcDbSavedByObjectVersion
1070
     0
1000
AcDbSavedByObjectVersion
1070
     0
1000
AcDbSavedByObjectVersion
1070
     0
1000
AcDbSavedByObjectVersion
1070
     0
1000
AcDbSavedByObjectVersion
1070
     0
1000
AcDbSavedByObjectVersion
1070
     0
  0
VISUALSTYLE
  5
33
102
{ACAD_REACTORS
330
2A
102
}
330
2A
100
AcDbVisualStyle
  2
Realistic
 70
     8
 71
     2
 72
     2
 73
     0
 90
        0
 40
-0.6
 41
-30.0
 62
     5
 63
     7
 74
     1
 91
        0
 64
     7
 65
   257
 75
     1
175
     1
 42
1.0
 92
        8
 66
     8
 43
1.0
 76
     1
 77
     6
 78
     2
 67
     7
 79
     5
170
     0
171
     0
290
     0
174
     0
 93
       13
 44
0.0
173
     0
291
     0
 45
0.0
1001
ACAD
1000
AcDbSavedByObjectVersion
1070
     0
1000
AcDbSavedByObjectVersion
1070
     0
1000
AcDbSavedByObjectVersion
1070
     0
1000
AcDbSavedByObjectVersion
1070
     0
1000
AcDbSavedByObjectVersion
1070
     0
1000
AcDbSavedByObjectVersion
1070
     0
1000
AcDbSavedByObjectVersion
1070
     0
1000
AcDbSavedByObjectVersion
1070
     0
1000
AcDbSavedByObjectVersion
1070
     0
1000
AcDbSavedByObjectVersion
1070
     0
1000
AcDbSavedByObjectVersion
1070
     0
1000
AcDbSavedByObjectVersion
1070
     0
1000
AcDbSavedByObjectVersion
1070
     0
1000
AcDbSavedByObjectVersion
1070
     0
1000
AcDbSavedByObjectVersion
1070
     0
1000
AcDbSavedByObjectVersion
1070
     0
1000
AcDbSavedByObjectVersion
1070
     0
1000
AcDbSavedByObjectVersion
1070
     0
1000
AcDbSavedByObjectVersion
1070
     0
1000
AcDbSavedByObjectVersion
1070
     0
1000
AcDbSavedByObjectVersion
1070
     0
1000
AcDbSavedByObjectVersion
1070
     0
1000
AcDbSavedByObjectVersion
1070
     0
1000
AcDbSavedByObjectVersion
1070
     0
1000
AcDbSavedByObjectVersion
1070
     0
1000
AcDbSavedByObjectVersion
1070
     0
1000
AcDbSavedByObjectVersion
1070
     0
1000
AcDbSavedByObjectVersion
1070
     0
1000
AcDbSavedByObjectVersion
1070
     0
1000
AcDbSavedByObjectVersion
1070
     0
1000
AcDbSavedByObjectVersion
1070
     0
1000
AcDbSavedByObjectVersion
1070
     0
1000
AcDbSavedByObjectVersion
1070
     0
1000
AcDbSavedByObjectVersion
1070
     0
1000
AcDbSavedByObjectVersion
1070
     0
1000
AcDbSavedByObjectVersion
1070
     0
1000
AcDbSavedByObjectVersion
1070
     0
1000
AcDbSavedByObjectVersion
1070
     0
1000
AcDbSavedByObjectVersion
1070
     0
1000
AcDbSavedByObjectVersion
1070
     0
1000
AcDbSavedByObjectVersion
1070
     0
  0
VISUALSTYLE
  5
37
102
{ACAD_REACTORS
330
2A
102
}
330
2A
100
AcDbVisualStyle
  2
Thicken
 70
    13
 71
     2
 72
     2
 73
     0
 90
        0
 40
-0.6
 41
-30.0
 62
     5
 63
     7
 74
     1
 91
        4
 64
     7
 65
   257
 75
     1
175
     1
 42
1.0
 92
       12
 66
     7
 43
1.0
 76
     1
 77
     6
 78
     2
 67
     7
 79
     5
170
     0
171
     0
290
     0
174
     0
 93
        1
 44
0.0
173
     0
291
     1
 45
0.0
1001
ACAD
1000
AcDbSavedByObjectVersion
1070
     0
1000
AcDbSavedByObjectVersion
1070
     0
1000
AcDbSavedByObjectVersion
1070
     0
1000
AcDbSavedByObjectVersion
1070
     0
1000
AcDbSavedByObjectVersion
1070
     0
1000
AcDbSavedByObjectVersion
1070
     0
1000
AcDbSavedByObjectVersion
1070
     0
1000
AcDbSavedByObjectVersion
1070
     0
1000
AcDbSavedByObjectVersion
1070
     0
1000
AcDbSavedByObjectVersion
1070
     0
1000
AcDbSavedByObjectVersion
1070
     0
1000
AcDbSavedByObjectVersion
1070
     0
1000
AcDbSavedByObjectVersion
1070
     0
1000
AcDbSavedByObjectVersion
1070
     0
1000
AcDbSavedByObjectVersion
1070
     0
1000
AcDbSavedByObjectVersion
1070
     0
1000
AcDbSavedByObjectVersion
1070
     0
1000
AcDbSavedByObjectVersion
1070
     0
1000
AcDbSavedByObjectVersion
1070
     0
1000
AcDbSavedByObjectVersion
1070
     0
1000
AcDbSavedByObjectVersion
1070
     0
1000
AcDbSavedByObjectVersion
1070
     0
1000
AcDbSavedByObjectVersion
1070
     0
1000
AcDbSavedByObjectVersion
1070
     0
1000
AcDbSavedByObjectVersion
1070
     0
1000
AcDbSavedByObjectVersion
1070
     0
1000
AcDbSavedByObjectVersion
1070
     0
1000
AcDbSavedByObjectVersion
1070
     0
1000
AcDbSavedByObjectVersion
1070
     0
1000
AcDbSavedByObjectVersion
1070
     0
1000
AcDbSavedByObjectVersion
1070
     0
1000
AcDbSavedByObjectVersion
1070
     0
1000
AcDbSavedByObjectVersion
1070
     0
1000
AcDbSavedByObjectVersion
1070
     0
1000
AcDbSavedByObjectVersion
1070
     0
1000
AcDbSavedByObjectVersion
1070
     0
1000
AcDbSavedByObjectVersion
1070
     0
1000
AcDbSavedByObjectVersion
1070
     0
1000
AcDbSavedByObjectVersion
1070
     0
1000
AcDbSavedByObjectVersion
1070
     0
1000
AcDbSavedByObjectVersion
1070
     0
  0
DICTIONARYVAR
  5
510B
102
{ACAD_REACTORS
330
5108
102
}
330
5108
100
DictionaryVariables
280
     0
  1
1:1
  0
DICTIONARYVAR
  5
510A
102
{ACAD_REACTORS
330
5108
102
}
330
5108
100
DictionaryVariables
280
     0
  1
STANDARD
  0
DICTIONARYVAR
  5
5109
102
{ACAD_REACTORS
330
5108
102
}
330
5108
100
DictionaryVariables
280
     0
  1
STANDARD
  0
DICTIONARYVAR
  5
510E
102
{ACAD_REACTORS
330
5108
102
}
330
5108
100
DictionaryVariables
280
     0
  1
1
  0
DICTIONARYVAR
  5
510D
102
{ACAD_REACTORS
330
5108
102
}
330
5108
100
DictionaryVariables
280
     0
  1
0
  0
DICTIONARYVAR
  5
1AB77
102
{ACAD_REACTORS
330
5108
102
}
330
5108
100
DictionaryVariables
280
     0
  1
0
  0
DICTIONARYVAR
  5
1AB76
102
{ACAD_REACTORS
330
5108
102
}
330
5108
100
DictionaryVariables
280
     0
  1
0
  0
DICTIONARYVAR
  5
510C
102
{ACAD_REACTORS
330
5108
102
}
330
5108
100
DictionaryVariables
280
     0
  1
127
  0
XRECORD
  5
11ACF
102
{ACAD_REACTORS
330
11ACE
102
}
330
11ACE
100
AcDbXrecord
280
     1
330
11089
  0
VLO-VL
  5
1AACF
102
{ACAD_REACTORS
330
1AACE
102
}
330
1AACE
100
vlo_VL
 90
   -64512
 91
       12
 92
        1
 40
2.5
300
(&VLO-R . 0)
  0
DICTIONARY
  5
4FEF
330
4FEE
100
AcDbDictionary
280
     1
281
     1
  3
ACAD_XREC_ROUNDTRIP
360
7C2C
  3
BUMPTILE
360
4FF1
  3
DIFFUSETILE
360
4FF0
  3
OPACITYTILE
360
4FF4
  3
REFLECTIONTILE
360
4FF3
  3
REFRACTIONTILE
360
4FF5
  3
SPECULARTILE
360
4FF2
  0
DICTIONARY
  5
4FE7
330
4FE6
100
AcDbDictionary
280
     1
281
     1
  3
ACAD_XREC_ROUNDTRIP
360
7C2B
  3
BUMPTILE
360
4FE9
  3
DIFFUSETILE
360
4FE8
  3
OPACITYTILE
360
4FEC
  3
REFLECTIONTILE
360
4FEB
  3
REFRACTIONTILE
360
4FED
  3
SPECULARTILE
360
4FEA
  0
DICTIONARY
  5
4FF7
330
4FF6
100
AcDbDictionary
280
     1
281
     1
  3
ACAD_XREC_ROUNDTRIP
360
7C2D
  3
BUMPTILE
360
4FF9
  3
DIFFUSETILE
360
4FF8
  3
OPACITYTILE
360
4FFC
  3
REFLECTIONTILE
360
4FFB
  3
REFRACTIONTILE
360
4FFD
  3
SPECULARTILE
360
4FFA
  0
DICTIONARY
  5
50D6
330
4FFF
100
AcDbDictionary
280
     1
281
     1
  3
ACAD_ROUNDTRIP_2008_TABLESTYLE_CELLSTYLEMAP
360
1AB93
  0
XRECORD
  5
7C2C
102
{ACAD_REACTORS
330
4FEF
102
}
330
4FEF
100
AcDbXrecord
280
     1
102
MATERIAL
148
0.0
149
0.0
149
0.0
 93
        0
 94
      127
282
     0
 72
     0
 77
     0
171
     0
175
     0
179
     0
273
     0
  0
XRECORD
  5
4FF1
102
{ACAD_REACTORS
330
4FEF
102
}
330
4FEF
100
AcDbXrecord
280
     1
270
     1
271
     1
  0
XRECORD
  5
4FF0
102
{ACAD_REACTORS
330
4FEF
102
}
330
4FEF
100
AcDbXrecord
280
     1
270
     1
271
     1
  0
XRECORD
  5
4FF4
102
{ACAD_REACTORS
330
4FEF
102
}
330
4FEF
100
AcDbXrecord
280
     1
270
     1
271
     1
  0
XRECORD
  5
4FF3
102
{ACAD_REACTORS
330
4FEF
102
}
330
4FEF
100
AcDbXrecord
280
     1
270
     1
271
     1
  0
XRECORD
  5
4FF5
102
{ACAD_REACTORS
330
4FEF
102
}
330
4FEF
100
AcDbXrecord
280
     1
270
     1
271
     1
  0
XRECORD
  5
4FF2
102
{ACAD_REACTORS
330
4FEF
102
}
330
4FEF
100
AcDbXrecord
280
     1
270
     1
271
     1
  0
XRECORD
  5
7C2B
102
{ACAD_REACTORS
330
4FE7
102
}
330
4FE7
100
AcDbXrecord
280
     1
102
MATERIAL
148
0.0
149
0.0
149
0.0
 93
        0
 94
      127
282
     0
 72
     0
 77
     0
171
     0
175
     0
179
     0
273
     0
  0
XRECORD
  5
4FE9
102
{ACAD_REACTORS
330
4FE7
102
}
330
4FE7
100
AcDbXrecord
280
     1
270
     1
271
     1
  0
XRECORD
  5
4FE8
102
{ACAD_REACTORS
330
4FE7
102
}
330
4FE7
100
AcDbXrecord
280
     1
270
     1
271
     1
  0
XRECORD
  5
4FEC
102
{ACAD_REACTORS
330
4FE7
102
}
330
4FE7
100
AcDbXrecord
280
     1
270
     1
271
     1
  0
XRECORD
  5
4FEB
102
{ACAD_REACTORS
330
4FE7
102
}
330
4FE7
100
AcDbXrecord
280
     1
270
     1
271
     1
  0
XRECORD
  5
4FED
102
{ACAD_REACTORS
330
4FE7
102
}
330
4FE7
100
AcDbXrecord
280
     1
270
     1
271
     1
  0
XRECORD
  5
4FEA
102
{ACAD_REACTORS
330
4FE7
102
}
330
4FE7
100
AcDbXrecord
280
     1
270
     1
271
     1
  0
XRECORD
  5
7C2D
102
{ACAD_REACTORS
330
4FF7
102
}
330
4FF7
100
AcDbXrecord
280
     1
102
MATERIAL
148
0.0
149
0.0
149
0.0
 93
        0
 94
      127
282
     0
 72
     0
 77
     0
171
     0
175
     0
179
     0
273
     0
  0
XRECORD
  5
4FF9
102
{ACAD_REACTORS
330
4FF7
102
}
330
4FF7
100
AcDbXrecord
280
     1
270
     1
271
     1
  0
XRECORD
  5
4FF8
102
{ACAD_REACTORS
330
4FF7
102
}
330
4FF7
100
AcDbXrecord
280
     1
270
     1
271
     1
  0
XRECORD
  5
4FFC
102
{ACAD_REACTORS
330
4FF7
102
}
330
4FF7
100
AcDbXrecord
280
     1
270
     1
271
     1
  0
XRECORD
  5
4FFB
102
{ACAD_REACTORS
330
4FF7
102
}
330
4FF7
100
AcDbXrecord
280
     1
270
     1
271
     1
  0
XRECORD
  5
4FFD
102
{ACAD_REACTORS
330
4FF7
102
}
330
4FF7
100
AcDbXrecord
280
     1
270
     1
271
     1
  0
XRECORD
  5
4FFA
102
{ACAD_REACTORS
330
4FF7
102
}
330
4FF7
100
AcDbXrecord
280
     1
270
     1
271
     1
  0
CELLSTYLEMAP
  5
1AB93
102
{ACAD_REACTORS
330
50D6
102
}
330
50D6
100
AcDbCellStyleMap
 90
        3
300
CELLSTYLE
  1
TABLEFORMAT_BEGIN
 90
        5
170
     1
 91
        0
 92
    32768
 62
   257
 93
        1
300
CONTENTFORMAT
  1
CONTENTFORMAT_BEGIN
 90
        0
 91
        0
 92
      512
 93
        0
300

 40
0.0
140
1.0
 94
        5
 62
     0
340
11
144
0.25
309
CONTENTFORMAT_END
171
     1
301
MARGIN
  1
CELLMARGIN_BEGIN
 40
0.06
 40
0.06
 40
0.06
 40
0.06
 40
0.18
 40
0.18
309
CELLMARGIN_END
 94
        6
 95
        1
302
GRIDFORMAT
  1
GRIDFORMAT_BEGIN
 90
        0
 91
        1
 62
     0
 92
       -2
340
0
 93
        0
 40
0.045
309
GRIDFORMAT_END
 95
        2
302
GRIDFORMAT
  1
GRIDFORMAT_BEGIN
 90
        0
 91
        1
 62
     0
 92
       -2
340
0
 93
        0
 40
0.045
309
GRIDFORMAT_END
 95
        4
302
GRIDFORMAT
  1
GRIDFORMAT_BEGIN
 90
        0
 91
        1
 62
     0
 92
       -2
340
0
 93
        0
 40
0.045
309
GRIDFORMAT_END
 95
        8
302
GRIDFORMAT
  1
GRIDFORMAT_BEGIN
 90
        0
 91
        1
 62
     0
 92
       -2
340
0
 93
        0
 40
0.045
309
GRIDFORMAT_END
 95
       16
302
GRIDFORMAT
  1
GRIDFORMAT_BEGIN
 90
        0
 91
        1
 62
     0
 92
       -2
340
0
 93
        0
 40
0.045
309
GRIDFORMAT_END
 95
       32
302
GRIDFORMAT
  1
GRIDFORMAT_BEGIN
 90
        0
 91
        1
 62
     0
 92
       -2
340
0
 93
        0
 40
0.045
309
GRIDFORMAT_END
309
TABLEFORMAT_END
  1
CELLSTYLE_BEGIN
 90
        1
 91
        1
300
_TITLE
309
CELLSTYLE_END
300
CELLSTYLE
  1
TABLEFORMAT_BEGIN
 90
        5
170
     1
 91
        0
 92
        0
 62
   257
 93
        1
300
CONTENTFORMAT
  1
CONTENTFORMAT_BEGIN
 90
        0
 91
        0
 92
      512
 93
        0
300

 40
0.0
140
1.0
 94
        5
 62
     0
340
11
144
0.18
309
CONTENTFORMAT_END
171
     1
301
MARGIN
  1
CELLMARGIN_BEGIN
 40
0.06
 40
0.06
 40
0.06
 40
0.06
 40
0.18
 40
0.18
309
CELLMARGIN_END
 94
        6
 95
        1
302
GRIDFORMAT
  1
GRIDFORMAT_BEGIN
 90
        0
 91
        1
 62
     0
 92
       -2
340
0
 93
        0
 40
0.045
309
GRIDFORMAT_END
 95
        2
302
GRIDFORMAT
  1
GRIDFORMAT_BEGIN
 90
        0
 91
        1
 62
     0
 92
       -2
340
0
 93
        0
 40
0.045
309
GRIDFORMAT_END
 95
        4
302
GRIDFORMAT
  1
GRIDFORMAT_BEGIN
 90
        0
 91
        1
 62
     0
 92
       -2
340
0
 93
        0
 40
0.045
309
GRIDFORMAT_END
 95
        8
302
GRIDFORMAT
  1
GRIDFORMAT_BEGIN
 90
        0
 91
        1
 62
     0
 92
       -2
340
0
 93
        0
 40
0.045
309
GRIDFORMAT_END
 95
       16
302
GRIDFORMAT
  1
GRIDFORMAT_BEGIN
 90
        0
 91
        1
 62
     0
 92
       -2
340
0
 93
        0
 40
0.045
309
GRIDFORMAT_END
 95
       32
302
GRIDFORMAT
  1
GRIDFORMAT_BEGIN
 90
        0
 91
        1
 62
     0
 92
       -2
340
0
 93
        0
 40
0.045
309
GRIDFORMAT_END
309
TABLEFORMAT_END
  1
CELLSTYLE_BEGIN
 90
        2
 91
        1
300
_HEADER
309
CELLSTYLE_END
300
CELLSTYLE
  1
TABLEFORMAT_BEGIN
 90
        5
170
     1
 91
        0
 92
        0
 62
   257
 93
        1
300
CONTENTFORMAT
  1
CONTENTFORMAT_BEGIN
 90
        0
 91
        0
 92
      512
 93
        0
300

 40
0.0
140
1.0
 94
        2
 62
     0
340
11
144
0.18
309
CONTENTFORMAT_END
171
     1
301
MARGIN
  1
CELLMARGIN_BEGIN
 40
0.06
 40
0.06
 40
0.06
 40
0.06
 40
0.18
 40
0.18
309
CELLMARGIN_END
 94
        6
 95
        1
302
GRIDFORMAT
  1
GRIDFORMAT_BEGIN
 90
        0
 91
        1
 62
     0
 92
       -2
340
0
 93
        0
 40
0.045
309
GRIDFORMAT_END
 95
        2
302
GRIDFORMAT
  1
GRIDFORMAT_BEGIN
 90
        0
 91
        1
 62
     0
 92
       -2
340
0
 93
        0
 40
0.045
309
GRIDFORMAT_END
 95
        4
302
GRIDFORMAT
  1
GRIDFORMAT_BEGIN
 90
        0
 91
        1
 62
     0
 92
       -2
340
0
 93
        0
 40
0.045
309
GRIDFORMAT_END
 95
        8
302
GRIDFORMAT
  1
GRIDFORMAT_BEGIN
 90
        0
 91
        1
 62
     0
 92
       -2
340
0
 93
        0
 40
0.045
309
GRIDFORMAT_END
 95
       16
302
GRIDFORMAT
  1
GRIDFORMAT_BEGIN
 90
        0
 91
        1
 62
     0
 92
       -2
340
0
 93
        0
 40
0.045
309
GRIDFORMAT_END
 95
       32
302
GRIDFORMAT
  1
GRIDFORMAT_BEGIN
 90
        0
 91
        1
 62
     0
 92
       -2
340
0
 93
        0
 40
0.045
309
GRIDFORMAT_END
309
TABLEFORMAT_END
  1
CELLSTYLE_BEGIN
 90
        3
 91
        2
300
_DATA
309
CELLSTYLE_END
  0
ENDSEC
  0
EOF
