  0
SECTION
  2
HEADER
  9
$ACADVER
  1
AC1021
  9
$ACADMAINTVER
 70
    25
  9
$DWGCODEPAGE
  3
ANSI_936
  9
$LASTSAVEDBY
  1
yp.zhu
  9
$INSBASE
 10
0.0
 20
0.0
 30
0.0
  9
$EXTMIN
 10
460.6786082154463
 20
209.9231617638111
 30
-0.0015258207003583
  9
$EXTMAX
 10
609.2762625495366
 20
314.9743031953121
 30
0.0000000349246037
  9
$LIMMIN
 10
0.0
 20
0.0
  9
$LIMMAX
 10
12.0
 20
9.0
  9
$ORTHOMODE
 70
     1
  9
$REGENMODE
 70
     1
  9
$FILLMODE
 70
     1
  9
$QTEXTMODE
 70
     0
  9
$MIRRTEXT
 70
     1
  9
$LTSCALE
 40
1.0
  9
$ATTMODE
 70
     1
  9
$TEXTSIZE
 40
0.2
  9
$TRACEWID
 40
0.05
  9
$TEXTSTYLE
  7
Standard
  9
$CLAYER
  8
DIM
  9
$CELTYPE
  6
ByLayer
  9
$CECOLOR
 62
   256
  9
$CELTSCALE
 40
1.0
  9
$DISPSILH
 70
     0
  9
$DIMSCALE
 40
1.0
  9
$DIMASZ
 40
1.5
  9
$DIMEXO
 40
0.2
  9
$DIMDLI
 40
0.2
  9
$DIMRND
 40
0.0
  9
$DIMDLE
 40
0.0
  9
$DIMEXE
 40
1.199999999999999
  9
$DIMTP
 40
0.0
  9
$DIMTM
 40
0.0
  9
$DIMTXT
 40
2.0
  9
$DIMCEN
 40
0.0
  9
$DIMTSZ
 40
0.0
  9
$DIMTOL
 70
     0
  9
$DIMLIM
 70
     0
  9
$DIMTIH
 70
     0
  9
$DIMTOH
 70
     0
  9
$DIMSE1
 70
     0
  9
$DIMSE2
 70
     0
  9
$DIMTAD
 70
     1
  9
$DIMZIN
 70
     8
  9
$DIMBLK
  1

  9
$DIMASO
 70
     1
  9
$DIMSHO
 70
     1
  9
$DIMPOST
  1

  9
$DIMAPOST
  1

  9
$DIMALT
 70
     0
  9
$DIMALTD
 70
     2
  9
$DIMALTF
 40
25.4
  9
$DIMLFAC
 40
1.0
  9
$DIMTOFL
 70
     0
  9
$DIMTVP
 40
0.0
  9
$DIMTIX
 70
     0
  9
$DIMSOXD
 70
     0
  9
$DIMSAH
 70
     0
  9
$DIMBLK1
  1

  9
$DIMBLK2
  1

  9
$DIMSTYLE
  2
01
  9
$DIMCLRD
 70
     1
  9
$DIMCLRE
 70
     6
  9
$DIMCLRT
 70
     4
  9
$DIMTFAC
 40
1.0
  9
$DIMGAP
 40
0.8
  9
$DIMJUST
 70
     0
  9
$DIMSD1
 70
     0
  9
$DIMSD2
 70
     0
  9
$DIMTOLJ
 70
     1
  9
$DIMTZIN
 70
     0
  9
$DIMALTZ
 70
     0
  9
$DIMALTTZ
 70
     0
  9
$DIMUPT
 70
     0
  9
$DIMDEC
 70
     1
  9
$DIMTDEC
 70
     1
  9
$DIMALTU
 70
     2
  9
$DIMALTTD
 70
     2
  9
$DIMTXSTY
  7
Romans字体
  9
$DIMAUNIT
 70
     0
  9
$DIMADEC
 70
     2
  9
$DIMALTRND
 40
0.0
  9
$DIMAZIN
 70
     2
  9
$DIMDSEP
 70
    46
  9
$DIMATFIT
 70
     3
  9
$DIMFRAC
 70
     0
  9
$DIMLDRBLK
  1

  9
$DIMLUNIT
 70
     2
  9
$DIMLWD
 70
    -2
  9
$DIMLWE
 70
    -2
  9
$DIMTMOVE
 70
     0
  9
$DIMFXL
 40
1.0
  9
$DIMFXLON
 70
     0
  9
$DIMJOGANG
 40
0.7853981633974483
  9
$DIMTFILL
 70
     0
  9
$DIMTFILLCLR
 70
     0
  9
$DIMARCSYM
 70
     0
  9
$DIMLTYPE
  6

  9
$DIMLTEX1
  6

  9
$DIMLTEX2
  6

  9
$LUNITS
 70
     2
  9
$LUPREC
 70
     4
  9
$SKETCHINC
 40
0.1
  9
$FILLETRAD
 40
0.5
  9
$AUNITS
 70
     0
  9
$AUPREC
 70
     0
  9
$MENU
  1
.
  9
$ELEVATION
 40
0.0
  9
$PELEVATION
 40
0.0
  9
$THICKNESS
 40
0.0
  9
$LIMCHECK
 70
     0
  9
$CHAMFERA
 40
0.5
  9
$CHAMFERB
 40
0.5
  9
$CHAMFERC
 40
1.0
  9
$CHAMFERD
 40
0.0
  9
$SKPOLY
 70
     0
  9
$TDCREATE
 40
2456524.383632987
  9
$TDUCREATE
 40
2456524.050299653
  9
$TDUPDATE
 40
2460301.666845174
  9
$TDUUPDATE
 40
2460301.333511840
  9
$TDINDWG
 40
1.0479067593
  9
$TDUSRTIMER
 40
1.0478808102
  9
$USRTIMER
 70
     1
  9
$ANGBASE
 50
0.0
  9
$ANGDIR
 70
     0
  9
$PDMODE
 70
     0
  9
$PDSIZE
 40
0.0
  9
$PLINEWID
 40
0.0
  9
$SPLFRAME
 70
     0
  9
$SPLINETYPE
 70
     6
  9
$SPLINESEGS
 70
     8
  9
$HANDSEED
  5
1C440
  9
$SURFTAB1
 70
     6
  9
$SURFTAB2
 70
     6
  9
$SURFTYPE
 70
     6
  9
$SURFU
 70
     6
  9
$SURFV
 70
     6
  9
$UCSBASE
  2

  9
$UCSNAME
  2

  9
$UCSORG
 10
0.0
 20
0.0
 30
0.0
  9
$UCSXDIR
 10
1.0
 20
0.0
 30
0.0
  9
$UCSYDIR
 10
0.0
 20
1.0
 30
0.0
  9
$UCSORTHOREF
  2

  9
$UCSORTHOVIEW
 70
     0
  9
$UCSORGTOP
 10
0.0
 20
0.0
 30
0.0
  9
$UCSORGBOTTOM
 10
0.0
 20
0.0
 30
0.0
  9
$UCSORGLEFT
 10
0.0
 20
0.0
 30
0.0
  9
$UCSORGRIGHT
 10
0.0
 20
0.0
 30
0.0
  9
$UCSORGFRONT
 10
0.0
 20
0.0
 30
0.0
  9
$UCSORGBACK
 10
0.0
 20
0.0
 30
0.0
  9
$PUCSBASE
  2

  9
$PUCSNAME
  2

  9
$PUCSORG
 10
0.0
 20
0.0
 30
0.0
  9
$PUCSXDIR
 10
1.0
 20
0.0
 30
0.0
  9
$PUCSYDIR
 10
0.0
 20
1.0
 30
0.0
  9
$PUCSORTHOREF
  2

  9
$PUCSORTHOVIEW
 70
     0
  9
$PUCSORGTOP
 10
0.0
 20
0.0
 30
0.0
  9
$PUCSORGBOTTOM
 10
0.0
 20
0.0
 30
0.0
  9
$PUCSORGLEFT
 10
0.0
 20
0.0
 30
0.0
  9
$PUCSORGRIGHT
 10
0.0
 20
0.0
 30
0.0
  9
$PUCSORGFRONT
 10
0.0
 20
0.0
 30
0.0
  9
$PUCSORGBACK
 10
0.0
 20
0.0
 30
0.0
  9
$USERI1
 70
     0
  9
$USERI2
 70
     0
  9
$USERI3
 70
     0
  9
$USERI4
 70
     0
  9
$USERI5
 70
     0
  9
$USERR1
 40
0.0
  9
$USERR2
 40
0.0
  9
$USERR3
 40
0.0
  9
$USERR4
 40
0.0
  9
$USERR5
 40
2.5
  9
$WORLDVIEW
 70
     1
  9
$SHADEDGE
 70
     3
  9
$SHADEDIF
 70
    70
  9
$TILEMODE
 70
     1
  9
$MAXACTVP
 70
    64
  9
$PINSBASE
 10
0.0
 20
0.0
 30
0.0
  9
$PLIMCHECK
 70
     0
  9
$PEXTMIN
 10
1.000000000000000E+20
 20
1.000000000000000E+20
 30
1.000000000000000E+20
  9
$PEXTMAX
 10
-1.000000000000000E+20
 20
-1.000000000000000E+20
 30
-1.000000000000000E+20
  9
$PLIMMIN
 10
0.0
 20
0.0
  9
$PLIMMAX
 10
12.0
 20
9.0
  9
$UNITMODE
 70
     0
  9
$VISRETAIN
 70
     1
  9
$PLINEGEN
 70
     0
  9
$PSLTSCALE
 70
     1
  9
$TREEDEPTH
 70
  3020
  9
$CMLSTYLE
  2
Standard
  9
$CMLJUST
 70
     0
  9
$CMLSCALE
 40
1.0
  9
$PROXYGRAPHICS
 70
     1
  9
$MEASUREMENT
 70
     0
  9
$CELWEIGHT
370
    -1
  9
$ENDCAPS
280
     0
  9
$JOINSTYLE
280
     0
  9
$LWDISPLAY
290
     0
  9
$INSUNITS
 70
     4
  9
$HYPERLINKBASE
  1

  9
$STYLESHEET
  1
monochrome.ctb
  9
$XEDIT
290
     1
  9
$CEPSNTYPE
380
     0
  9
$PSTYLEMODE
290
     1
  9
$FINGERPRINTGUID
  2
{4A02065B-8BB3-4A96-9036-502DC906C165}
  9
$VERSIONGUID
  2
{B4D26B34-C7AC-492C-9F93-1C480965163F}
  9
$EXTNAMES
290
     1
  9
$PSVPSCALE
 40
0.0
  9
$OLESTARTUP
290
     0
  9
$SORTENTS
280
   127
  9
$INDEXCTL
280
     0
  9
$HIDETEXT
280
     0
  9
$XCLIPFRAME
290
     0
  9
$HALOGAP
280
     0
  9
$OBSCOLOR
 70
   257
  9
$OBSLTYPE
280
     0
  9
$INTERSECTIONDISPLAY
280
     0
  9
$INTERSECTIONCOLOR
 70
   257
  9
$DIMASSOC
280
     1
  9
$PROJECTNAME
  1

  9
$CAMERADISPLAY
290
     0
  9
$LENSLENGTH
 40
50.0
  9
$CAMERAHEIGHT
 40
0.0
  9
$STEPSPERSEC
 40
2.0
  9
$STEPSIZE
 40
6.0
  9
$3DDWFPREC
 40
2.0
  9
$PSOLWIDTH
 40
0.25
  9
$PSOLHEIGHT
 40
4.0
  9
$LOFTANG1
 40
1.570796326794896
  9
$LOFTANG2
 40
1.570796326794896
  9
$LOFTMAG1
 40
0.0
  9
$LOFTMAG2
 40
0.0
  9
$LOFTPARAM
 70
     7
  9
$LOFTNORMALS
280
     1
  9
$LATITUDE
 40
37.795
  9
$LONGITUDE
 40
-122.394
  9
$NORTHDIRECTION
 40
0.0
  9
$TIMEZONE
 70
 -8000
  9
$LIGHTGLYPHDISPLAY
280
     1
  9
$TILEMODELIGHTSYNCH
280
     1
  9
$CMATERIAL
347
4FE6
  9
$SOLIDHIST
280
     1
  9
$SHOWHIST
280
     1
  9
$DWFFRAME
280
     2
  9
$DGNFRAME
280
     0
  9
$REALWORLDSCALE
290
     1
  9
$INTERFERECOLOR
 62
     1
  9
$INTERFEREOBJVS
345
33
  9
$INTERFEREVPVS
346
30
  9
$CSHADOW
280
     0
  9
$SHADOWPLANELOCATION
 40
0.0
  0
ENDSEC
  0
SECTION
  2
CLASSES
  0
CLASS
  1
ACDBDICTIONARYWDFLT
  2
AcDbDictionaryWithDefault
  3
ObjectDBX Classes
 90
        0
 91
        1
280
     0
281
     0
  0
CLASS
  1
VISUALSTYLE
  2
AcDbVisualStyle
  3
ObjectDBX Classes
 90
     4095
 91
       16
280
     0
281
     0
  0
CLASS
  1
MATERIAL
  2
AcDbMaterial
  3
ObjectDBX Classes
 90
     1153
 91
        3
280
     0
281
     0
  0
CLASS
  1
TABLESTYLE
  2
AcDbTableStyle
  3
ObjectDBX Classes
 90
     4095
 91
        1
280
     0
281
     0
  0
CLASS
  1
SCALE
  2
AcDbScale
  3
ObjectDBX Classes
 90
     1153
 91
       33
280
     0
281
     0
  0
CLASS
  1
MLEADERSTYLE
  2
AcDbMLeaderStyle
  3
ACDB_MLEADERSTYLE_CLASS
 90
     4095
 91
        1
280
     0
281
     0
  0
CLASS
  1
CELLSTYLEMAP
  2
AcDbCellStyleMap
  3
ObjectDBX Classes
 90
     1152
 91
        3
280
     0
281
     0
  0
CLASS
  1
DICTIONARYVAR
  2
AcDbDictionaryVar
  3
ObjectDBX Classes
 90
        0
 91
        8
280
     0
281
     0
  0
CLASS
  1
SORTENTSTABLE
  2
AcDbSortentsTable
  3
ObjectDBX Classes
 90
        0
 91
        1
280
     0
281
     0
  0
CLASS
  1
ACAD_EVALUATION_GRAPH
  2
AcDbEvalGraph
  3
ObjectDBX Classes
 90
     1153
 91
        4
280
     0
281
     0
  0
CLASS
  1
ACAECUSTOBJ
  2
AcAeEditorObj
  3
AcAeEditorObj
 90
     1024
 91
        2
280
     0
281
     0
  0
CLASS
  1
ACDB_DYNAMICBLOCKPURGEPREVENTER_VERSION
  2
AcDbDynamicBlockPurgePreventer
  3
ObjectDBX Classes
 90
     1153
 91
        4
280
     0
281
     0
  0
CLASS
  1
MENTALRAYRENDERSETTINGS
  2
AcDbMentalRayRenderSettings
  3
SCENEOE
 90
     1024
 91
        1
280
     0
281
     0
  0
CLASS
  1
ACDB_BLOCKREPRESENTATION_DATA
  2
AcDbBlockRepresentationData
  3
ObjectDBX Classes
 90
     1153
 91
        0
280
     0
281
     0
  0
CLASS
  1
DIMASSOC
  2
AcDbDimAssoc
  3
"AcDbDimAssoc|Product Desc:     AcDim ARX App For Dimension|Company:          Autodesk, Inc.|WEB Address:      www.autodesk.com"
 90
        0
 91
        5
280
     0
281
     0
  0
CLASS
  1
VLO-VL
  2
vlo_VL
  3
VL|AutoLISP based application
 90
      129
 91
        1
280
     0
281
     0
  0
ENDSEC
  0
SECTION
  2
TABLES
  0
TABLE
  2
VPORT
  5
8
102
{ACAD_XDICTIONARY
360
50EE
102
}
330
0
100
AcDbSymbolTable
 70
     1
  0
VPORT
  5
29
330
8
100
AcDbSymbolTableRecord
100
AcDbViewportTableRecord
  2
*Active
 70
     0
 10
0.0
 20
0.0
 11
1.0
 21
1.0
 12
430.0119385105828
 22
113.9465017109638
 13
0.0
 23
0.0
 14
0.5
 24
0.5
 15
0.5
 25
0.5
 16
0.0
 26
0.0
 36
1.0
 17
104.9654968719086
 27
148.5022307685978
 37
0.0
 40
105.8133020706655
 41
2.203389830508474
 42
50.0
 43
0.0
 44
0.0
 50
0.0
 51
0.0
 71
     0
 72
   100
 73
     1
 74
     3
 75
     0
 76
     0
 77
     0
 78
     0
281
     0
 65
     1
110
0.0
120
0.0
130
0.0
111
1.0
121
0.0
131
0.0
112
0.0
122
1.0
132
0.0
 79
     0
146
0.0
348
2F
 60
     3
 61
     5
292
     1
282
     1
141
0.0
142
0.0
 63
   250
421
  3355443
  0
ENDTAB
  0
TABLE
  2
LTYPE
  5
5
330
0
100
AcDbSymbolTable
 70
     4
  0
LTYPE
  5
14
330
5
100
AcDbSymbolTableRecord
100
AcDbLinetypeTableRecord
  2
ByBlock
 70
     0
  3

 72
    65
 73
     0
 40
0.0
  0
LTYPE
  5
15
330
5
100
AcDbSymbolTableRecord
100
AcDbLinetypeTableRecord
  2
ByLayer
 70
     0
  3

 72
    65
 73
     0
 40
0.0
  0
LTYPE
  5
16
330
5
100
AcDbSymbolTableRecord
100
AcDbLinetypeTableRecord
  2
Continuous
 70
     0
  3
Solid line
 72
    65
 73
     0
 40
0.0
  0
LTYPE
  5
67BA
330
5
100
AcDbSymbolTableRecord
100
AcDbLinetypeTableRecord
  2
CENTER
 70
     0
  3
Center ____ _ ____ _ ____ _ ____ _ ____ _ ____
 72
    65
 73
     4
 40
2.0
 49
1.25
 74
     0
 49
-0.25
 74
     0
 49
0.25
 74
     0
 49
-0.25
 74
     0
  0
LTYPE
  5
1BB0F
330
5
100
AcDbSymbolTableRecord
100
AcDbLinetypeTableRecord
  2
CENTERLINE
 70
     0
  3
_
 72
    65
 73
     5
 40
30.0
 49
12.0
 74
     0
 49
-1.5
 74
     0
 49
3.0
 74
     0
 49
-1.5
 74
     0
 49
12.0
 74
     0
  0
LTYPE
  5
1BB10
330
5
100
AcDbSymbolTableRecord
100
AcDbLinetypeTableRecord
  2
CENTER2
 70
     0
  3
Center (.5x) ___ _ ___ _ ___ _ ___ _ ___ _ ___
 72
    65
 73
     4
 40
1.125
 49
0.75
 74
     0
 49
-0.125
 74
     0
 49
0.125
 74
     0
 49
-0.125
 74
     0
  0
ENDTAB
  0
TABLE
  2
LAYER
  5
2
102
{ACAD_XDICTIONARY
360
50B8
102
}
330
0
100
AcDbSymbolTable
 70
    11
  0
LAYER
  5
10
102
{ACAD_XDICTIONARY
360
50D0
102
}
330
2
100
AcDbSymbolTableRecord
100
AcDbLayerTableRecord
  2
0
 70
     0
 62
     7
  6
Continuous
370
    30
390
F
347
4FF6
  0
LAYER
  5
3B
102
{ACAD_XDICTIONARY
360
50D2
102
}
330
2
100
AcDbSymbolTableRecord
100
AcDbLayerTableRecord
  2
图层 1
 70
     0
 62
     7
  6
Continuous
370
    -3
390
F
347
4FF6
  0
LAYER
  5
50AE
102
{ACAD_XDICTIONARY
360
50AF
102
}
330
2
100
AcDbSymbolTableRecord
100
AcDbLayerTableRecord
  2
图框
 70
     0
 62
     7
  6
Continuous
370
    20
390
F
347
4FF6
  0
LAYER
  5
5141
330
2
100
AcDbSymbolTableRecord
100
AcDbLayerTableRecord
  2
Defpoints
 70
     0
 62
     7
  6
Continuous
290
     0
370
    -3
390
F
347
4FF6
  0
LAYER
  5
5144
330
2
100
AcDbSymbolTableRecord
100
AcDbLayerTableRecord
  2
DIM
 70
     0
 62
     3
  6
Continuous
370
    15
390
F
347
4FF6
1001
AcAecLayerStandard
1000

1000

  0
LAYER
  5
52F3
330
2
100
AcDbSymbolTableRecord
100
AcDbLayerTableRecord
  2
打标文字
 70
     0
 62
     3
  6
Continuous
370
    20
390
F
347
4FF6
  0
LAYER
  5
1A670
330
2
100
AcDbSymbolTableRecord
100
AcDbLayerTableRecord
  2
CEN
 70
     0
 62
     1
  6
CENTER
370
    15
390
F
347
4FF6
1001
AcAecLayerStandard
1000

1000

  0
LAYER
  5
1B55C
330
2
100
AcDbSymbolTableRecord
100
AcDbLayerTableRecord
  2
204
 70
     0
 62
     7
  6
Continuous
370
    -3
390
F
347
4FF6
  0
LAYER
  5
1B55D
330
2
100
AcDbSymbolTableRecord
100
AcDbLayerTableRecord
  2
205
 70
     0
 62
     7
  6
Continuous
370
    -3
390
F
347
4FF6
  0
LAYER
  5
1BB11
330
2
100
AcDbSymbolTableRecord
100
AcDbLayerTableRecord
  2
3
 70
     0
 62
     7
  6
Continuous
370
    -3
390
F
347
4FF6
  0
LAYER
  5
1BDEB
330
2
100
AcDbSymbolTableRecord
100
AcDbLayerTableRecord
  2
hatch
 70
     0
 62
    56
  6
Continuous
370
     0
390
F
347
4FF6
  0
ENDTAB
  0
TABLE
  2
STYLE
  5
3
330
0
100
AcDbSymbolTable
 70
     5
  0
STYLE
  5
11
330
3
100
AcDbSymbolTableRecord
100
AcDbTextStyleTableRecord
  2
Standard
 70
     0
 40
0.0
 41
0.75
 50
0.0
 71
     0
 42
0.2
  3

  4

1001
ACAD
1000
仿宋_GB2312
1071
    34353
  0
STYLE
  5
FD48
330
3
100
AcDbSymbolTableRecord
100
AcDbTextStyleTableRecord
  2
Romans字体
 70
     0
 40
0.0
 41
0.75
 50
0.0
 71
     0
 42
0.2
  3
romans.shx
  4

  0
STYLE
  5
11080
330
3
100
AcDbSymbolTableRecord
100
AcDbTextStyleTableRecord
  2
工程字
 70
     0
 40
0.0
 41
1.0
 50
0.0
 71
     0
 42
3.5
  3
gbenor.shx
  4
gbcbig.shx
  0
STYLE
  5
11081
330
3
100
AcDbSymbolTableRecord
100
AcDbTextStyleTableRecord
  2
Chinese
 70
     0
 40
0.0
 41
1.0
 50
0.0
 71
     0
 42
2.5
  3
PMingLiU.ttf
  4

1001
ACAD
1000
PMingLiU
1071
    34834
  0
ENDTAB
  0
TABLE
  2
VIEW
  5
6
330
0
100
AcDbSymbolTable
 70
     0
  0
ENDTAB
  0
TABLE
  2
UCS
  5
7
330
0
100
AcDbSymbolTable
 70
     0
  0
ENDTAB
  0
TABLE
  2
APPID
  5
9
330
0
100
AcDbSymbolTable
 70
    19
  0
APPID
  5
12
330
9
100
AcDbSymbolTableRecord
100
AcDbRegAppTableRecord
  2
ACAD
 70
     0
  0
APPID
  5
5024
330
9
100
AcDbSymbolTableRecord
100
AcDbRegAppTableRecord
  2
ACAD_MLEADERVER
 70
     0
  0
APPID
  5
50B5
330
9
100
AcDbSymbolTableRecord
100
AcDbRegAppTableRecord
  2
AcDbDynamicBlockGUID
 70
     0
  0
APPID
  5
50B6
330
9
100
AcDbSymbolTableRecord
100
AcDbRegAppTableRecord
  2
AcDbBlockRepETag
 70
     0
  0
APPID
  5
50B7
330
9
100
AcDbSymbolTableRecord
100
AcDbRegAppTableRecord
  2
ACAD_PSEXT
 70
     0
  0
APPID
  5
50CF
330
9
100
AcDbSymbolTableRecord
100
AcDbRegAppTableRecord
  2
AcadAnnoPO
 70
     0
  0
APPID
  5
5146
330
9
100
AcDbSymbolTableRecord
100
AcDbRegAppTableRecord
  2
AcAecLayerStandard
 70
     0
  0
APPID
  5
5147
330
9
100
AcDbSymbolTableRecord
100
AcDbRegAppTableRecord
  2
ACAD_DSTYLE_DIMJAG
 70
     0
  0
APPID
  5
5148
330
9
100
AcDbSymbolTableRecord
100
AcDbRegAppTableRecord
  2
ACAD_DSTYLE_DIMTALN
 70
     0
  0
APPID
  5
52AD
330
9
100
AcDbSymbolTableRecord
100
AcDbRegAppTableRecord
  2
ACAUTHENVIRON
 70
     0
  0
APPID
  5
52B0
330
9
100
AcDbSymbolTableRecord
100
AcDbRegAppTableRecord
  2
AcDbDynamicBlockTrueName
 70
     0
  0
APPID
  5
67C6
330
9
100
AcDbSymbolTableRecord
100
AcDbRegAppTableRecord
  2
ACAD_EXEMPT_FROM_CAD_STANDARDS
 70
     0
  0
APPID
  5
6838
330
9
100
AcDbSymbolTableRecord
100
AcDbRegAppTableRecord
  2
ACAD_NAV_VCDISPLAY
 70
     0
  0
APPID
  5
70A9
330
9
100
AcDbSymbolTableRecord
100
AcDbRegAppTableRecord
  2
DCO15
 70
     0
  0
APPID
  5
8725
330
9
100
AcDbSymbolTableRecord
100
AcDbRegAppTableRecord
  2
AcDbBlockRepBTag
 70
     0
  0
APPID
  5
FE64
330
9
100
AcDbSymbolTableRecord
100
AcDbRegAppTableRecord
  2
ACAD_DSTYLE_DIMRADIAL_EXTENSION
 70
     0
  0
APPID
  5
FF93
330
9
100
AcDbSymbolTableRecord
100
AcDbRegAppTableRecord
  2
ACAD_DSTYLE_DIMBREAK
 70
     0
  0
APPID
  5
14250
330
9
100
AcDbSymbolTableRecord
100
AcDbRegAppTableRecord
  2
GradientColor1ACI
 70
     0
  0
APPID
  5
14251
330
9
100
AcDbSymbolTableRecord
100
AcDbRegAppTableRecord
  2
GradientColor2ACI
 70
     0
  0
ENDTAB
  0
TABLE
  2
DIMSTYLE
  5
A
330
0
100
AcDbSymbolTable
 70
     9
100
AcDbDimStyleTable
 71
     2
340
5145
340
27
  0
DIMSTYLE
105
27
330
A
100
AcDbSymbolTableRecord
100
AcDbDimStyleTableRecord
  2
Standard
 70
     0
340
11
  0
DIMSTYLE
105
5145
102
{ACAD_REACTORS
330
1BF89
330
1BF80
330
1BEC3
330
1BF8C
330
1BF86
330
1C258
102
}
330
A
100
AcDbSymbolTableRecord
100
AcDbDimStyleTableRecord
  2
01
 70
     0
 41
1.5
 42
0.2
 43
0.2
 44
1.199999999999999
 73
     0
 74
     0
 77
     1
 78
     8
 79
     2
140
2.0
141
0.0
147
0.8
176
     1
177
     6
178
     4
179
     2
271
     1
272
     1
340
FD48
1001
ACAD_DSTYLE_DIMJAG
1070
   388
1040
1.5
1001
ACAD_DSTYLE_DIMTALN
1070
   392
1070
     0
  0
DIMSTYLE
105
1BB12
330
A
100
AcDbSymbolTableRecord
100
AcDbDimStyleTableRecord
  2
DSTYLE1
 70
     0
 41
3.0
 42
0.0
 44
2.0
 45
0.01
 47
1.0
 48
1.0
 73
     0
 74
     0
 78
    11
140
3.0
143
0.039370079
144
0.2
147
0.8
176
     1
177
     6
178
     4
271
     3
272
     3
279
     2
340
11
1001
ACAD_DSTYLE_DIMJAG
1070
   388
1040
1.5
1001
ACAD_DSTYLE_DIMTALN
1070
   392
1070
     0
  0
DIMSTYLE
105
1BDEC
330
A
100
AcDbSymbolTableRecord
100
AcDbDimStyleTableRecord
  2
sca2-1
 70
     0
 41
1.8
 42
0.3
 44
0.8
 47
0.1
 48
0.1
 73
     0
 74
     0
 77
     1
 78
     8
140
1.8
144
0.5
147
0.4
176
     2
177
     2
178
     2
179
     1
271
     1
272
     1
284
     8
340
11
341
1BD9D
371
     0
372
     0
1001
ACAD_DSTYLE_DIMJAG
1070
   388
1040
1.5
1001
ACAD_DSTYLE_DIMTALN
1070
   392
1070
     0
  0
DIMSTYLE
105
1BDED
330
A
100
AcDbSymbolTableRecord
100
AcDbDimStyleTableRecord
  2
ISO lin01-1-1
 70
     0
 41
2.0
 42
0.3
 44
0.8
 47
0.01
 48
0.01
 73
     0
 77
     1
 78
     8
 79
     2
140
2.0
147
0.3
176
     1
177
     6
178
     4
179
     1
271
     1
272
     1
284
     8
340
11
1001
ACAD_DSTYLE_DIMBREAK
1070
   391
1040
3.75
1001
ACAD_DSTYLE_DIMJAG
1070
   388
1040
1.5
1001
ACAD_DSTYLE_DIMTALN
1070
   392
1070
     0
  0
DIMSTYLE
105
1BDEE
330
A
100
AcDbSymbolTableRecord
100
AcDbDimStyleTableRecord
  2
lin01-1-1
 70
     0
 41
1.5
 42
0.5
 44
0.8
 47
0.01
 48
0.01
 73
     0
 74
     0
 77
     1
 78
     8
 79
     2
140
1.5
147
0.3
176
     1
177
     6
178
     4
179
     1
271
     1
272
     1
284
     8
340
11
1001
ACAD_DSTYLE_DIMBREAK
1070
   391
1040
3.75
1001
ACAD_DSTYLE_DIMJAG
1070
   388
1040
1.5
1001
ACAD_DSTYLE_DIMTALN
1070
   392
1070
     0
  0
DIMSTYLE
105
1BDEF
330
A
100
AcDbSymbolTableRecord
100
AcDbDimStyleTableRecord
  2
lin02-1-1
 70
     0
 41
1.8
 42
0.3
 44
1.0
 47
0.01
 48
0.01
 73
     0
 74
     0
 77
     1
 78
     8
 79
     2
140
1.8
147
0.3
176
     1
177
     6
178
     4
179
     1
271
     2
272
     2
284
     8
340
11
1001
ACAD_DSTYLE_DIMBREAK
1070
   391
1040
3.75
1001
ACAD_DSTYLE_DIMJAG
1070
   388
1040
1.5
1001
ACAD_DSTYLE_DIMTALN
1070
   392
1070
     0
  0
DIMSTYLE
105
1BDF0
330
A
100
AcDbSymbolTableRecord
100
AcDbDimStyleTableRecord
  2
ISO SCA2-1
 70
     0
 41
1.8
 42
0.5
 44
1.199999999999999
 47
0.1
 48
0.1
 73
     0
 77
     1
 78
     8
140
1.8
144
0.5
147
0.2
176
     2
177
     2
178
     2
179
     1
271
     2
272
     2
284
     8
340
11
341
1BD9D
1001
ACAD_DSTYLE_DIMBREAK
1070
   391
1040
3.75
1001
ACAD_DSTYLE_DIMJAG
1070
   388
1040
1.5
1001
ACAD_DSTYLE_DIMTALN
1070
   392
1070
     0
  0
ENDTAB
  0
TABLE
  2
BLOCK_RECORD
  5
1
330
0
100
AcDbSymbolTable
 70
    32
  0
BLOCK_RECORD
  5
1F
102
{ACAD_XDICTIONARY
360
67C0
102
}
330
1
100
AcDbSymbolTableRecord
100
AcDbBlockTableRecord
  2
*Model_Space
340
22
 70
     0
280
     1
281
     0
  0
BLOCK_RECORD
  5
1B
330
1
100
AcDbSymbolTableRecord
100
AcDbBlockTableRecord
  2
*Paper_Space
340
1E
 70
     0
280
     1
281
     0
  0
BLOCK_RECORD
  5
23
330
1
100
AcDbSymbolTableRecord
100
AcDbBlockTableRecord
  2
*Paper_Space0
340
26
 70
     0
280
     1
281
     0
  0
BLOCK_RECORD
  5
10FE8
102
{ACAD_XDICTIONARY
360
1C3EA
102
}
330
1
100
AcDbSymbolTableRecord
100
AcDbBlockTableRecord
  2
A4图框-NEW
340
0
310
2800000020000000200000000100080000000000000400000000000000000000000000000000000000000000000080000080000000808000800000008000800080800000C0C0C000C0DCC000F0CAA6000020400000206000002080000020A0000020C0000020E00000400000004020000040400000406000004080000040A0
310
000040C0000040E00000600000006020000060400000606000006080000060A0000060C0000060E00000800000008020000080400000806000008080000080A0000080C0000080E00000A0000000A0200000A0400000A0600000A0800000A0A00000A0C00000A0E00000C0000000C0200000C0400000C0600000C0800000C0
310
A00000C0C00000C0E00000E0000000E0200000E0400000E0600000E0800000E0A00000E0C00000E0E00040000000400020004000400040006000400080004000A0004000C0004000E00040200000402020004020400040206000402080004020A0004020C0004020E000404000004040200040404000404060004040800040
310
40A0004040C0004040E00040600000406020004060400040606000406080004060A0004060C0004060E00040800000408020004080400040806000408080004080A0004080C0004080E00040A0000040A0200040A0400040A0600040A0800040A0A00040A0C00040A0E00040C0000040C0200040C0400040C0600040C08000
310
40C0A00040C0C00040C0E00040E0000040E0200040E0400040E0600040E0800040E0A00040E0C00040E0E00080000000800020008000400080006000800080008000A0008000C0008000E00080200000802020008020400080206000802080008020A0008020C0008020E00080400000804020008040400080406000804080
310
008040A0008040C0008040E00080600000806020008060400080606000806080008060A0008060C0008060E00080800000808020008080400080806000808080008080A0008080C0008080E00080A0000080A0200080A0400080A0600080A0800080A0A00080A0C00080A0E00080C0000080C0200080C0400080C0600080C0
310
800080C0A00080C0C00080C0E00080E0000080E0200080E0400080E0600080E0800080E0A00080E0C00080E0E000C0000000C0002000C0004000C0006000C0008000C000A000C000C000C000E000C0200000C0202000C0204000C0206000C0208000C020A000C020C000C020E000C0400000C0402000C0404000C0406000C0
310
408000C040A000C040C000C040E000C0600000C0602000C0604000C0606000C0608000C060A000C060C000C060E000C0800000C0802000C0804000C0806000C0808000C080A000C080C000C080E000C0A00000C0A02000C0A04000C0A06000C0A08000C0A0A000C0A0C000C0A0E000C0C00000C0C02000C0C04000C0C06000
310
C0C08000C0C0A000F0FBFF00A4A0A000808080000000FF0000FF000000FFFF00FF000000FF00FF00FFFF0000FFFFFF0000000000000000000000000000000000000000000000000000000000000000000000000000000000000000000000000000000000000000000000000000000000000000000000000000000000000000
310
000000000000000000000000000000000000000000000000000000000000000000000000000000000000000000000000000000000000000000000000000000000000000000000000000000000000000000000000000000000000000000000000000000000000000000000000000000000000F9F9F9F9F9F9F9F9F9F9F9F9F9
310
F9F9F9F9F9F9F9F9F9F9F9F9F9F9FF00000000F9FF000000000000000000FFFFFFFFFFFFFFFFFFFFFFFFF9FAFAFAFF00000000F9FF000000000000000000FFFFFFFFFFFFFFFFFFFFFFFFFFFFFFFFFF00000000F9FD000000000000000000FFFFFFFFFFFFFFFFFFFFFFFFFFFFFFFFFF00000000F9FF000000000000000000FF
310
FFFFFFFFFFFFFFFFFFFFFFFFFFFFFFFF00000000F9FD000000000000000000FFFFFFFFFFFFFFFFFFFFFFFFFFFFFFFFFF00000000F9FF00000000000000000000000000000000000000000000000000FF00000000F9FD00000000000000000000000000000000000000000000000000FF00000000F9FF000000000000000000
310
00000000000000000000000000000000FF00000000F9FD00000000000000000000000000000000000000000000000000FF00000000F9FF00000000000000000000000000000000000000000000000000FF00000000F9FD00000000000000000000000000000000000000000000000000FF00000000F9FD0000000000000000
310
0000000000000000000000000000000000FF00000000F9FF00000000000000000000000000000000000000000000000000FF00000000F9FD00000000000000000000000000000000000000000000000000FF00000000F9FF00000000000000000000000000000000000000000000000000FF00000000F9FD00000000000000
310
000000000000000000000000000000000000FF00000000F9FF00000000000000000000000000000000000000000000000000FF00000000F9FFFFFFFFFFFFFFFFFFFFFFFFFFFFFFFFFFFFFFFFFFFFFFFFFFFFFF00000000F9FFFFFFF9F9F9F9F9F9F9F9F9F9F9F9F9F9F9F9F9F9F9F9F9F9F9F9000000000000000000000000
310
00000000000000000000000000000000000000000000000000000000000000000000000000000000000000000000000000000000000000000000000000000000000000000000000000000000000000000000000000000000000000000000000000000000000000000000000000000000000000000000000000000000000000
310
0000000000000000000000000000000000000000000000000000000000000000000000000000000000000000000000000000000000000000
102
{BLKREFS
331
11089
102
}
 70
     4
280
     1
281
     0
1001
AcDbDynamicBlockGUID
1000
{8D27D14E-8696-4C09-BD0E-7471C54A70D0}
1001
AcDbBlockRepETag
1070
     1
1071
      151
  0
BLOCK_RECORD
  5
1B8FF
330
1
100
AcDbSymbolTableRecord
100
AcDbBlockTableRecord
  2
*D2
340
0
 70
     0
280
     1
281
     0
  0
BLOCK_RECORD
  5
1B90C
330
1
100
AcDbSymbolTableRecord
100
AcDbBlockTableRecord
  2
*D3
340
0
 70
     0
280
     1
281
     0
  0
BLOCK_RECORD
  5
1B919
330
1
100
AcDbSymbolTableRecord
100
AcDbBlockTableRecord
  2
*D4
340
0
 70
     0
280
     1
281
     0
  0
BLOCK_RECORD
  5
1B944
330
1
100
AcDbSymbolTableRecord
100
AcDbBlockTableRecord
  2
*D5
340
0
 70
     0
280
     1
281
     0
  0
BLOCK_RECORD
  5
1B951
330
1
100
AcDbSymbolTableRecord
100
AcDbBlockTableRecord
  2
*D6
340
0
 70
     0
280
     1
281
     0
  0
BLOCK_RECORD
  5
1B95E
330
1
100
AcDbSymbolTableRecord
100
AcDbBlockTableRecord
  2
*D7
340
0
 70
     0
280
     1
281
     0
  0
BLOCK_RECORD
  5
1BAF5
330
1
100
AcDbSymbolTableRecord
100
AcDbBlockTableRecord
  2
*D8
340
0
 70
     0
280
     1
281
     0
  0
BLOCK_RECORD
  5
1BB02
330
1
100
AcDbSymbolTableRecord
100
AcDbBlockTableRecord
  2
*D9
340
0
 70
     0
280
     1
281
     0
  0
BLOCK_RECORD
  5
1BB78
330
1
100
AcDbSymbolTableRecord
100
AcDbBlockTableRecord
  2
*D10
340
0
 70
     0
280
     1
281
     0
  0
BLOCK_RECORD
  5
1BB8F
330
1
100
AcDbSymbolTableRecord
100
AcDbBlockTableRecord
  2
*D11
340
0
 70
     0
280
     1
281
     0
  0
BLOCK_RECORD
  5
1BBD8
330
1
100
AcDbSymbolTableRecord
100
AcDbBlockTableRecord
  2
*D12
340
0
 70
     0
280
     1
281
     0
  0
BLOCK_RECORD
  5
1BD9D
330
1
100
AcDbSymbolTableRecord
100
AcDbBlockTableRecord
  2
_FILLED
340
0
 70
     0
280
     1
281
     0
  0
BLOCK_RECORD
  5
1BDA1
330
1
100
AcDbSymbolTableRecord
100
AcDbBlockTableRecord
  2
*D14
340
0
 70
     0
280
     1
281
     0
  0
BLOCK_RECORD
  5
1BDAE
330
1
100
AcDbSymbolTableRecord
100
AcDbBlockTableRecord
  2
*D15
340
0
 70
     0
280
     1
281
     0
  0
BLOCK_RECORD
  5
1BDBA
330
1
100
AcDbSymbolTableRecord
100
AcDbBlockTableRecord
  2
*D16
340
0
 70
     0
280
     1
281
     0
  0
BLOCK_RECORD
  5
1BDC6
330
1
100
AcDbSymbolTableRecord
100
AcDbBlockTableRecord
  2
*D17
340
0
 70
     0
280
     1
281
     0
  0
BLOCK_RECORD
  5
1BDD2
330
1
100
AcDbSymbolTableRecord
100
AcDbBlockTableRecord
  2
*D18
340
0
 70
     0
280
     1
281
     0
  0
BLOCK_RECORD
  5
1BDDF
330
1
100
AcDbSymbolTableRecord
100
AcDbBlockTableRecord
  2
*D19
340
0
 70
     0
280
     1
281
     0
  0
BLOCK_RECORD
  5
1BF8F
330
1
100
AcDbSymbolTableRecord
100
AcDbBlockTableRecord
  2
*D20
340
0
 70
     0
280
     1
281
     0
  0
BLOCK_RECORD
  5
1BF9C
330
1
100
AcDbSymbolTableRecord
100
AcDbBlockTableRecord
  2
*D21
340
0
 70
     0
280
     1
281
     0
  0
BLOCK_RECORD
  5
1BFB2
330
1
100
AcDbSymbolTableRecord
100
AcDbBlockTableRecord
  2
*D22
340
0
 70
     0
280
     1
281
     0
  0
BLOCK_RECORD
  5
1BFBF
330
1
100
AcDbSymbolTableRecord
100
AcDbBlockTableRecord
  2
*D23
340
0
 70
     0
280
     1
281
     0
  0
BLOCK_RECORD
  5
1BFCB
330
1
100
AcDbSymbolTableRecord
100
AcDbBlockTableRecord
  2
*D24
340
0
 70
     0
280
     1
281
     0
  0
BLOCK_RECORD
  5
1BFD7
330
1
100
AcDbSymbolTableRecord
100
AcDbBlockTableRecord
  2
*D25
340
0
 70
     0
280
     1
281
     0
  0
BLOCK_RECORD
  5
1C259
330
1
100
AcDbSymbolTableRecord
100
AcDbBlockTableRecord
  2
*D26
340
0
 70
     0
280
     1
281
     0
  0
ENDTAB
  0
ENDSEC
  0
SECTION
  2
BLOCKS
  0
BLOCK
  5
20
330
1F
100
AcDbEntity
  8
0
100
AcDbBlockBegin
  2
*Model_Space
 70
     0
 10
0.0
 20
0.0
 30
0.0
  3
*Model_Space
  1

  0
ENDBLK
  5
21
330
1F
100
AcDbEntity
  8
0
100
AcDbBlockEnd
  0
BLOCK
  5
1C
330
1B
100
AcDbEntity
 67
     1
  8
0
100
AcDbBlockBegin
  2
*Paper_Space
 70
     0
 10
0.0
 20
0.0
 30
0.0
  3
*Paper_Space
  1

  0
ENDBLK
  5
1D
330
1B
100
AcDbEntity
 67
     1
  8
0
100
AcDbBlockEnd
  0
BLOCK
  5
24
330
23
100
AcDbEntity
 67
     1
  8
0
100
AcDbBlockBegin
  2
*Paper_Space0
 70
     0
 10
0.0
 20
0.0
 30
0.0
  3
*Paper_Space0
  1

  0
ENDBLK
  5
25
330
23
100
AcDbEntity
 67
     1
  8
0
100
AcDbBlockEnd
  0
BLOCK
  5
10FEA
330
10FE8
100
AcDbEntity
  8
0
100
AcDbBlockBegin
  2
A4图框-NEW
 70
     0
 10
0.0
 20
0.0
 30
0.0
  3
A4图框-NEW
  1

  0
MTEXT
  5
1C355
102
{ACAD_XDICTIONARY
360
1C428
102
}
330
10FE8
100
AcDbEntity
  8
图框
 62
     3
100
AcDbMText
 10
967.6594956750133
 20
499.7664151964293
 30
0.0
 40
2.985513575034151
 41
15.50176341157864
 46
6.292658374511018
 71
     5
 72
     5
  1
YP ZHU
  7
Romans字体
 73
     1
 44
1.0
1001
AcDbBlockRepETag
1070
     1
1071
        0
1005
1C355
1001
ACAD
1000
ACAD_MTEXT_DEFINED_HEIGHT_BEGIN
1070
    46
1040
6.292658374511018
1000
ACAD_MTEXT_DEFINED_HEIGHT_END
  0
MTEXT
  5
1C356
330
10FE8
100
AcDbEntity
  8
图框
 62
     3
100
AcDbMText
 10
983.041569333247
 20
499.7664151964293
 30
0.0
 40
2.487927979195124
 41
15.26238390489051
 46
6.292658374511042
 71
     5
 72
     5
  1
{\W0.7;22.12.2023}
  7
Romans字体
 73
     1
 44
1.0
1001
AcDbBlockRepETag
1070
     1
1071
        1
1005
1C356
1001
ACAD
1000
ACAD_MTEXT_DEFINED_HEIGHT_BEGIN
1070
    46
1040
6.292658374511042
1000
ACAD_MTEXT_DEFINED_HEIGHT_END
  0
MTEXT
  5
1C357
330
10FE8
100
AcDbEntity
  8
图框
 62
     3
100
AcDbMText
 10
1012.477254728976
 20
487.1810984474071
 30
0.0
 40
2.985513575034151
 41
17.64876416884615
 46
6.292658374511455
 71
     5
 72
     5
  1
HQ ZHANG
  7
Romans字体
 73
     1
 44
1.0
1001
AcDbBlockRepETag
1070
     1
1071
        2
1005
1C357
1001
ACAD
1000
ACAD_MTEXT_DEFINED_HEIGHT_BEGIN
1070
    46
1040
6.292658374511455
1000
ACAD_MTEXT_DEFINED_HEIGHT_END
  0
MTEXT
  5
1C359
330
10FE8
100
AcDbEntity
  8
图框
 62
     3
100
AcDbMText
 10
1063.722665487208
 20
525.4145966538831
 30
0.0
 40
2.985513575034151
 41
32.4973914334545
 46
11.82914190181707
 71
     5
 72
     5
  1
-
  7
Romans字体
 73
     1
 44
1.0
1001
AcDbBlockRepETag
1070
     1
1071
        4
1005
1C359
1001
ACAD
1000
ACAD_MTEXT_DEFINED_HEIGHT_BEGIN
1070
    46
1040
11.82914190181707
1000
ACAD_MTEXT_DEFINED_HEIGHT_END
  0
MTEXT
  5
1C35A
330
10FE8
100
AcDbEntity
  8
图框
 62
     3
100
AcDbMText
 10
1063.727338552349
 20
513.5854547520641
 30
0.0
 40
2.985513575034151
 41
32.48804530317308
 46
11.82914190182139
 71
     5
 72
     5
  1
-
  7
Romans字体
 73
     1
 44
1.0
1001
AcDbBlockRepETag
1070
     1
1071
        5
1005
1C35A
1001
ACAD
1000
ACAD_MTEXT_DEFINED_HEIGHT_BEGIN
1070
    46
1040
11.82914190182139
1000
ACAD_MTEXT_DEFINED_HEIGHT_END
  0
MTEXT
  5
1C35B
330
10FE8
100
AcDbEntity
  8
图框
 62
     3
100
AcDbMText
 10
1110.122306614152
 20
526.8006839312707
 30
0.0
 40
2.985513575034151
 41
33.61239199242139
 46
9.05696734704178
 71
     5
 72
     5
  1
-
  7
Romans字体
 73
     1
 44
1.0
1001
AcDbBlockRepETag
1070
     1
1071
        6
1005
1C35B
1001
ACAD
1000
ACAD_MTEXT_DEFINED_HEIGHT_BEGIN
1070
    46
1040
9.05696734704178
1000
ACAD_MTEXT_DEFINED_HEIGHT_END
  0
MTEXT
  5
1C35C
330
10FE8
100
AcDbEntity
  8
图框
 62
     3
100
AcDbMText
 10
1110.122306614152
 20
500.2775205517162
 30
0.0
 40
2.985513575034151
 41
33.61239199242139
 46
8.871557304763419
 71
     5
 72
     5
  1
-
  7
Romans字体
 73
     1
 44
1.0
1001
AcDbBlockRepETag
1070
     1
1071
        7
1005
1C35C
1001
ACAD
1000
ACAD_MTEXT_DEFINED_HEIGHT_BEGIN
1070
    46
1040
8.871557304763419
1000
ACAD_MTEXT_DEFINED_HEIGHT_END
  0
MTEXT
  5
1C35D
330
10FE8
100
AcDbEntity
  8
图框
 62
     3
100
AcDbMText
 10
967.6594956750133
 20
493.4737568219182
 30
0.0
 40
2.985513575034151
 41
15.50176341157864
 46
6.292658374510335
 71
     5
 72
     5
  1
Q GAO
  7
Romans字体
 73
     1
 44
1.0
1001
AcDbBlockRepETag
1070
     1
1071
        8
1005
1C35D
1001
ACAD
1000
ACAD_MTEXT_DEFINED_HEIGHT_BEGIN
1070
    46
1040
6.292658374510335
1000
ACAD_MTEXT_DEFINED_HEIGHT_END
  0
MTEXT
  5
1C35F
330
10FE8
100
AcDbEntity
  8
图框
 62
     3
100
AcDbMText
 10
1012.477254728976
 20
499.7664151964291
 30
0.0
 40
2.985513575034151
 41
17.64876416884615
 46
6.292658374511397
 71
     5
 72
     5
  1
-
  7
Romans字体
 73
     1
 44
1.0
1001
AcDbBlockRepETag
1070
     1
1071
       10
1005
1C35F
1001
ACAD
1000
ACAD_MTEXT_DEFINED_HEIGHT_BEGIN
1070
    46
1040
6.292658374511397
1000
ACAD_MTEXT_DEFINED_HEIGHT_END
  0
MTEXT
  5
1C360
330
10FE8
100
AcDbEntity
  8
图框
 62
     3
100
AcDbMText
 10
1028.977802139886
 20
499.7664151964289
 30
0.0
 40
2.487927979195124
 41
15.35233065297265
 46
6.292658374511382
 71
     5
 72
     5
  1
-
  7
Romans字体
 73
     1
 44
1.0
1001
AcDbBlockRepETag
1070
     1
1071
       11
1005
1C360
1001
ACAD
1000
ACAD_MTEXT_DEFINED_HEIGHT_BEGIN
1070
    46
1040
6.292658374511382
1000
ACAD_MTEXT_DEFINED_HEIGHT_END
  0
MTEXT
  5
1C361
330
10FE8
100
AcDbEntity
  8
图框
 62
     3
100
AcDbMText
 10
967.6594956750133
 20
487.1810984474071
 30
0.0
 40
2.985513575034151
 41
15.50176341157863
 46
6.292658374511478
 71
     5
 72
     5
  1
-
  7
Romans字体
 73
     1
 44
1.0
1001
AcDbBlockRepETag
1070
     1
1071
       12
1005
1C361
1001
ACAD
1000
ACAD_MTEXT_DEFINED_HEIGHT_BEGIN
1070
    46
1040
6.292658374511478
1000
ACAD_MTEXT_DEFINED_HEIGHT_END
  0
MTEXT
  5
1C362
330
10FE8
100
AcDbEntity
  8
图框
 62
     3
100
AcDbMText
 10
983.041569333247
 20
487.1810984474071
 30
0.0
 40
2.487927979195124
 41
15.26238390489062
 46
6.292658374511495
 71
     5
 72
     5
  1
-
  7
Romans字体
 73
     1
 44
1.0
1001
AcDbBlockRepETag
1070
     1
1071
       13
1005
1C362
1001
ACAD
1000
ACAD_MTEXT_DEFINED_HEIGHT_BEGIN
1070
    46
1040
6.292658374511495
1000
ACAD_MTEXT_DEFINED_HEIGHT_END
  0
MTEXT
  5
1C363
330
10FE8
100
AcDbEntity
  8
图框
 62
     3
100
AcDbMText
 10
1074.556686986741
 20
495.8417418993361
 30
0.0
 40
2.985513575034151
 41
10.82934843438978
 46
7.886094601210427
 71
     5
 72
     5
  1
-
  7
Romans字体
 73
     1
 44
1.0
1001
AcDbBlockRepETag
1070
     1
1071
       14
1005
1C363
1001
ACAD
1000
ACAD_MTEXT_DEFINED_HEIGHT_BEGIN
1070
    46
1040
7.886094601210427
1000
ACAD_MTEXT_DEFINED_HEIGHT_END
  0
LINE
  5
1C364
330
10FE8
100
AcDbEntity
  8
图框
370
    -3
100
AcDbLine
 10
1036.653967466372
 20
499.7847891999413
 30
0.0
 11
1079.971361203936
 21
499.7847891999413
 31
0.0
1001
AcDbBlockRepETag
1070
     1
1071
       15
1005
1C364
  0
MTEXT
  5
1C365
330
10FE8
100
AcDbEntity
  8
图框
 62
     1
370
    20
100
AcDbMText
 10
1108.26336443907
 20
491.5162596080882
 30
0.0
 40
2.699054613030988
 41
82.30831305643079
 46
0.0
 71
     5
 72
     5
  1
{\fSimHei|b0|i0|c134|p2;厦门唯恩电气有限公司}
 73
     1
 44
1.0
1001
AcDbBlockRepETag
1070
     1
1071
       16
1005
1C365
  0
MTEXT
  5
1C366
330
10FE8
100
AcDbEntity
  8
图框
 62
     3
370
    20
100
AcDbMText
 10
1108.435451459908
 20
487.298967726064
 30
0.0
 40
1.652482416141417
 41
68.08558693693567
 46
0.0
 71
     5
 72
     5
  1
{\fArial Narrow|b0|i0|c0|p34;XIAMEN WAIN ELECTRICAL CO.LTD}
  7
工程字
 73
     1
 44
1.0
1001
AcDbBlockRepETag
1070
     1
1071
       17
1005
1C366
  0
MTEXT
  5
1C367
330
10FE8
100
AcDbEntity
  8
图框
 62
     1
370
    20
100
AcDbMText
 10
1085.711816899387
 20
491.0944802995856
 30
0.0
 40
2.005930044038334
 41
5.047240019334847
 46
0.0
 71
     1
 72
     5
  1
{\fArial|b0|i0|c0|p34;A}
  7
Chinese
 73
     1
 44
1.0
1001
AcDbBlockRepETag
1070
     1
1071
       18
1005
1C367
  0
MTEXT
  5
1C368
330
10FE8
100
AcDbEntity
  8
图框
 62
     1
370
    20
100
AcDbMText
 10
1088.213485935716
 20
491.0944802995856
 30
0.0
 40
2.005930044038334
 41
5.047240019334847
 46
0.0
 71
     1
 72
     5
  1
{\fArial|b0|i0|c0|p34;I}
  7
Chinese
 73
     1
 44
1.0
1001
AcDbBlockRepETag
1070
     1
1071
       19
1005
1C368
  0
MTEXT
  5
1C369
330
10FE8
100
AcDbEntity
  8
图框
 62
     1
370
    20
100
AcDbMText
 10
1089.142375222864
 20
491.0822866326808
 30
0.0
 40
2.005930044038334
 41
5.047240019334847
 46
0.0
 71
     1
 72
     5
  1
{\fArial|b0|i0|c0|p34;N}
  7
Chinese
 73
     1
 44
1.0
1001
AcDbBlockRepETag
1070
     1
1071
       20
1005
1C369
  0
MTEXT
  5
1C36A
330
10FE8
100
AcDbEntity
  8
图框
100
AcDbMText
 10
1069.142012769545
 20
487.9667319294409
 30
0.0
 40
2.252848170144607
 41
21.65869686878327
 46
7.863925338579296
 71
     5
 72
     5
  1
{\W0.5;\C1;All Dimensions in mm\POriginal Size DIN A 4}
  7
Romans字体
 73
     1
 44
1.0
1001
AcDbBlockRepETag
1070
     1
1071
       21
1005
1C36A
1001
ACAD
1000
ACAD_MTEXT_DEFINED_HEIGHT_BEGIN
1070
    46
1040
7.863925338579296
1000
ACAD_MTEXT_DEFINED_HEIGHT_END
  0
MTEXT
  5
1C36B
330
10FE8
100
AcDbEntity
  8
图框
  6
ByBlock
 62
     6
370
    18
100
AcDbMText
 10
1127.40434942308
 20
508.7896535755975
 30
0.0
 40
2.651776162684904
 41
2.557913877927211
 46
0.0
 71
     1
 72
     5
  1
A
  7
Romans字体
 11
0.0000000000000001
 21
1.0
 31
0.0
 73
     1
 44
1.0
1001
AcDbBlockRepETag
1070
     1
1071
       22
1005
1C36B
  0
MTEXT
  5
1C36C
330
10FE8
100
AcDbEntity
  8
图框
 62
     6
100
AcDbMText
 10
1127.40434942308
 20
556.3746573232886
 30
0.0
 40
2.651776162684904
 41
2.557913877927211
 46
0.0
 71
     1
 72
     5
  1
B
  7
Romans字体
 11
0.0000000000000001
 21
1.0
 31
0.0
 73
     1
 44
1.0
1001
AcDbBlockRepETag
1070
     1
1071
       23
1005
1C36C
  0
MTEXT
  5
1C36D
330
10FE8
100
AcDbEntity
  8
图框
 62
     6
100
AcDbMText
 10
1127.40434942308
 20
607.5539372630998
 30
0.0
 40
2.651776162684904
 41
2.557913877927211
 46
0.0
 71
     1
 72
     5
  1
C
  7
Romans字体
 11
0.0000000000000001
 21
1.0
 31
0.0
 73
     1
 44
1.0
1001
AcDbBlockRepETag
1070
     1
1071
       24
1005
1C36D
  0
MTEXT
  5
1C36E
330
10FE8
100
AcDbEntity
  8
图框
 62
     6
100
AcDbMText
 10
1127.40434942308
 20
658.7332172029115
 30
0.0
 40
2.651776162684904
 41
2.557913877927211
 46
0.0
 71
     1
 72
     5
  1
D
  7
Romans字体
 11
0.0000000000000001
 21
1.0
 31
0.0
 73
     1
 44
1.0
1001
AcDbBlockRepETag
1070
     1
1071
       25
1005
1C36E
  0
LINE
  5
1C36F
330
10FE8
100
AcDbEntity
  8
图框
 62
     6
100
AcDbLine
 10
1130.411601781241
 20
634.0726090796082
 30
0.0
 11
1126.928502610363
 21
634.0726090796082
 31
0.0
1001
AcDbBlockRepETag
1070
     1
1071
       26
1005
1C36F
  0
LINE
  5
1C370
330
10FE8
100
AcDbEntity
  8
图框
 62
     6
100
AcDbLine
 10
1130.411601781241
 20
582.89332913979
 30
0.0
 11
1126.928502610363
 21
582.89332913979
 31
0.0
1001
AcDbBlockRepETag
1070
     1
1071
       27
1005
1C370
  0
MTEXT
  5
1C371
330
10FE8
100
AcDbEntity
  8
图框
 62
     6
100
AcDbMText
 10
1105.329704038389
 20
483.6164543011163
 30
0.0
 40
2.651776162684904
 41
2.557913877927211
 46
0.0
 71
     1
 72
     5
  1
6
  7
Romans字体
 73
     1
 44
1.0
1001
AcDbBlockRepETag
1070
     1
1071
       28
1005
1C371
  0
LINE
  5
1C372
330
10FE8
100
AcDbEntity
  8
图框
 62
     6
100
AcDbLine
 10
1081.088565155284
 20
484.0347692601515
 30
0.0
 11
1081.088565155284
 21
480.5347692601475
 31
0.0
1001
AcDbBlockRepETag
1070
     1
1071
       29
1005
1C372
  0
MTEXT
  5
1C373
330
10FE8
100
AcDbEntity
  8
图框
 62
     6
100
AcDbMText
 10
1055.900596365941
 20
483.520053108993
 30
0.0
 40
2.651776162684904
 41
2.557913877927211
 46
0.0
 71
     1
 72
     5
  1
5
  7
Romans字体
 73
     1
 44
1.0
1001
AcDbBlockRepETag
1070
     1
1071
       30
1005
1C373
  0
LINE
  5
1C374
330
10FE8
100
AcDbEntity
  8
图框
 62
     6
100
AcDbLine
 10
1031.553386436349
 20
484.0347692601515
 30
0.0
 11
1031.553386436349
 21
480.5347692601475
 31
0.0
1001
AcDbBlockRepETag
1070
     1
1071
       31
1005
1C374
  0
MTEXT
  5
1C375
330
10FE8
100
AcDbEntity
  8
图框
 62
     6
100
AcDbMText
 10
1006.383180575197
 20
483.5687958215896
 30
0.0
 40
2.651776162684904
 41
2.557913877927211
 46
0.0
 71
     1
 72
     5
  1
4
  7
Romans字体
 73
     1
 44
1.0
1001
AcDbBlockRepETag
1070
     1
1071
       32
1005
1C375
  0
LINE
  5
1C376
330
10FE8
100
AcDbEntity
  8
图框
 62
     6
100
AcDbLine
 10
982.0182077173887
 20
484.0347692601515
 30
0.0
 11
982.0182077173887
 21
480.5347692601475
 31
0.0
1001
AcDbBlockRepETag
1070
     1
1071
       33
1005
1C376
  0
MTEXT
  5
1C377
330
10FE8
100
AcDbEntity
  8
图框
 62
     6
100
AcDbMText
 10
956.8302389280352
 20
483.5989680297948
 30
0.0
 40
2.651776162684904
 41
2.557913877927211
 46
0.0
 71
     1
 72
     5
  1
3
  7
Romans字体
 73
     1
 44
1.0
1001
AcDbBlockRepETag
1070
     1
1071
       34
1005
1C377
  0
LINE
  5
1C378
330
10FE8
100
AcDbEntity
  8
图框
 62
     6
100
AcDbLine
 10
932.4830289984245
 20
484.0347692601515
 30
0.0
 11
932.4830289984245
 21
480.5347692601475
 31
0.0
1001
AcDbBlockRepETag
1070
     1
1071
       35
1005
1C378
  0
MTEXT
  5
1C379
330
10FE8
100
AcDbEntity
  8
图框
 62
     6
100
AcDbMText
 10
906.0252349826365
 20
483.6475250013156
 30
0.0
 40
2.651776162684904
 41
2.557913877927211
 46
0.0
 71
     1
 72
     5
  1
2
  7
Romans字体
 73
     1
 44
1.0
1001
AcDbBlockRepETag
1070
     1
1071
       36
1005
1C379
  0
LINE
  5
1C37A
330
10FE8
100
AcDbEntity
  8
图框
 62
     6
100
AcDbLine
 10
882.9478502794648
 20
484.0347692601515
 30
0.0
 11
882.9478502794648
 21
480.5347692601475
 31
0.0
1001
AcDbBlockRepETag
1070
     1
1071
       37
1005
1C37A
  0
MTEXT
  5
1C37B
330
10FE8
100
AcDbEntity
  8
图框
 62
     6
100
AcDbMText
 10
857.7598814901191
 20
483.651829494754
 30
0.0
 40
2.651776162684904
 41
2.557913877927211
 46
0.0
 71
     1
 72
     5
  1
1
  7
Romans字体
 73
     1
 44
1.0
1001
AcDbBlockRepETag
1070
     1
1071
       38
1005
1C37B
  0
LINE
  5
1C37C
330
10FE8
100
AcDbEntity
  8
图框
370
    50
100
AcDbLine
 10
836.8548209370597
 20
484.0347692601515
 30
0.0
 11
1126.928502610363
 21
484.0347692601515
 31
0.0
1001
AcDbBlockRepETag
1070
     1
1071
       39
1005
1C37C
  0
LINE
  5
1C37D
330
10FE8
100
AcDbEntity
  8
图框
370
    50
100
AcDbLine
 10
836.9128518455362
 20
484.0178684310246
 30
0.0
 11
836.9128518455394
 21
675.0207195125422
 31
0.0
1001
AcDbBlockRepETag
1070
     1
1071
       40
1005
1C37D
  0
MTEXT
  5
1C37E
330
10FE8
100
AcDbEntity
  8
图框
 62
     6
100
AcDbMText
 10
833.8475685789031
 20
658.7332172029115
 30
0.0
 40
2.651776162684904
 41
2.557913877927211
 46
0.0
 71
     1
 72
     5
  1
D
  7
Romans字体
 11
0.0000000000000001
 21
1.0
 31
0.0
 73
     1
 44
1.0
1001
AcDbBlockRepETag
1070
     1
1071
       41
1005
1C37E
  0
LINE
  5
1C37F
330
10FE8
100
AcDbEntity
  8
图框
 62
     6
100
AcDbLine
 10
836.9128518455386
 20
634.0726090796082
 30
0.0
 11
833.4128518455365
 21
634.0726090796082
 31
0.0
1001
AcDbBlockRepETag
1070
     1
1071
       42
1005
1C37F
  0
MTEXT
  5
1C380
330
10FE8
100
AcDbEntity
  8
图框
 62
     6
100
AcDbMText
 10
833.9039177480142
 20
607.5539372630998
 30
0.0
 40
2.651776162684904
 41
2.557913877927211
 46
0.0
 71
     1
 72
     5
  1
C
  7
Romans字体
 11
0.0000000000000001
 21
1.0
 31
0.0
 73
     1
 44
1.0
1001
AcDbBlockRepETag
1070
     1
1071
       43
1005
1C380
  0
LINE
  5
1C381
330
10FE8
100
AcDbEntity
  8
图框
 62
     6
100
AcDbLine
 10
836.9128518455378
 20
582.89332913979
 30
0.0
 11
833.4128518455365
 21
582.89332913979
 31
0.0
1001
AcDbBlockRepETag
1070
     1
1071
       44
1005
1C381
  0
MTEXT
  5
1C382
330
10FE8
100
AcDbEntity
  8
图框
 62
     6
100
AcDbMText
 10
833.9039177480142
 20
556.3746573232886
 30
0.0
 40
2.651776162684904
 41
2.557913877927211
 46
0.0
 71
     1
 72
     5
  1
B
  7
Romans字体
 11
0.0000000000000001
 21
1.0
 31
0.0
 73
     1
 44
1.0
1001
AcDbBlockRepETag
1070
     1
1071
       45
1005
1C382
  0
LINE
  5
1C383
330
10FE8
100
AcDbEntity
  8
图框
 62
     6
100
AcDbLine
 10
836.9128518455367
 20
531.714049199969
 30
0.0
 11
833.4128518455365
 21
531.714049199969
 31
0.0
1001
AcDbBlockRepETag
1070
     1
1071
       46
1005
1C383
  0
MTEXT
  5
1C384
330
10FE8
100
AcDbEntity
  8
图框
 62
     6
100
AcDbMText
 10
833.9039177480142
 20
508.7896535755975
 30
0.0
 40
2.651776162684904
 41
2.557913877927211
 46
0.0
 71
     1
 72
     5
  1
A
  7
Romans字体
 11
0.0000000000000001
 21
1.0
 31
0.0
 73
     1
 44
1.0
1001
AcDbBlockRepETag
1070
     1
1071
       47
1005
1C384
  0
LINE
  5
1C385
330
10FE8
100
AcDbEntity
  8
图框
370
    -3
100
AcDbLine
 10
836.9128518455394
 20
675.0207195125422
 30
0.0
 11
836.9128518455394
 21
684.5021384922564
 31
0.0
1001
AcDbBlockRepETag
1070
     1
1071
       48
1005
1C385
  0
LINE
  5
1C386
330
10FE8
100
AcDbEntity
  8
图框
370
    -3
100
AcDbLine
 10
842.6237321475781
 20
675.5347692601515
 30
0.0
 11
842.6237321475781
 21
685.0161882398658
 31
0.0
1001
AcDbBlockRepETag
1070
     1
1071
       49
1005
1C386
  0
LINE
  5
1C387
330
10FE8
100
AcDbEntity
  8
图框
370
    -3
100
AcDbLine
 10
848.3346124496179
 20
675.5347692601515
 30
0.0
 11
848.3346124496179
 21
685.0161882398658
 31
0.0
1001
AcDbBlockRepETag
1070
     1
1071
       50
1005
1C387
  0
LINE
  5
1C388
330
10FE8
100
AcDbEntity
  8
图框
370
    -3
100
AcDbLine
 10
854.0454927516588
 20
675.5347692601515
 30
0.0
 11
854.0454927516588
 21
685.0161882398658
 31
0.0
1001
AcDbBlockRepETag
1070
     1
1071
       51
1005
1C388
  0
LINE
  5
1C389
330
10FE8
100
AcDbEntity
  8
图框
370
    -3
100
AcDbLine
 10
861.5351874539182
 20
675.5347692601515
 30
0.0
 11
861.5351874539182
 21
686.7901958362482
 31
0.0
1001
AcDbBlockRepETag
1070
     1
1071
       52
1005
1C389
  0
MTEXT
  5
1C38A
330
10FE8
100
AcDbEntity
  8
图框
 62
     6
100
AcDbMText
 10
1105.329704038389
 20
678.859919059449
 30
0.0
 40
2.651776162684904
 41
2.557913877927211
 46
0.0
 71
     1
 72
     5
  1
6
  7
Romans字体
 73
     1
 44
1.0
1001
AcDbBlockRepETag
1070
     1
1071
       53
1005
1C38A
  0
LINE
  5
1C38B
330
10FE8
100
AcDbEntity
  8
图框
 62
     6
100
AcDbLine
 10
1081.088565155284
 20
679.0347692601516
 30
0.0
 11
1081.088565155284
 21
675.5347692601515
 31
0.0
1001
AcDbBlockRepETag
1070
     1
1071
       54
1005
1C38B
  0
MTEXT
  5
1C38C
330
10FE8
100
AcDbEntity
  8
图框
 62
     6
100
AcDbMText
 10
1055.900596365941
 20
678.859919059449
 30
0.0
 40
2.651776162684904
 41
2.557913877927211
 46
0.0
 71
     1
 72
     5
  1
5
  7
Romans字体
 73
     1
 44
1.0
1001
AcDbBlockRepETag
1070
     1
1071
       55
1005
1C38C
  0
LINE
  5
1C38D
330
10FE8
100
AcDbEntity
  8
图框
 62
     6
100
AcDbLine
 10
1031.553386436349
 20
679.0347692601516
 30
0.0
 11
1031.553386436349
 21
675.5347692601515
 31
0.0
1001
AcDbBlockRepETag
1070
     1
1071
       56
1005
1C38D
  0
MTEXT
  5
1C38E
330
10FE8
100
AcDbEntity
  8
图框
 62
     6
100
AcDbMText
 10
1006.36541764698
 20
678.7312083656147
 30
0.0
 40
2.651776162684904
 41
2.557913877927211
 46
0.0
 71
     1
 72
     5
  1
4
  7
Romans字体
 73
     1
 44
1.0
1001
AcDbBlockRepETag
1070
     1
1071
       57
1005
1C38E
  0
LINE
  5
1C38F
330
10FE8
100
AcDbEntity
  8
图框
 62
     6
100
AcDbLine
 10
982.0182077173887
 20
679.0347692601516
 30
0.0
 11
982.0182077173887
 21
675.5347692601515
 31
0.0
1001
AcDbBlockRepETag
1070
     1
1071
       58
1005
1C38F
  0
MTEXT
  5
1C390
330
10FE8
100
AcDbEntity
  8
图框
 62
     6
100
AcDbMText
 10
956.8302389280352
 20
678.859919059449
 30
0.0
 40
2.651776162684904
 41
2.557913877927211
 46
0.0
 71
     1
 72
     5
  1
3
  7
Romans字体
 73
     1
 44
1.0
1001
AcDbBlockRepETag
1070
     1
1071
       59
1005
1C390
  0
LINE
  5
1C391
330
10FE8
100
AcDbEntity
  8
图框
 62
     6
100
AcDbLine
 10
932.4830289984245
 20
679.0347692601516
 30
0.0
 11
932.4830289984245
 21
675.5347692601515
 31
0.0
1001
AcDbBlockRepETag
1070
     1
1071
       60
1005
1C391
  0
MTEXT
  5
1C392
330
10FE8
100
AcDbEntity
  8
图框
 62
     6
100
AcDbMText
 10
907.295060209082
 20
678.859919059449
 30
0.0
 40
2.651776162684904
 41
2.557913877927211
 46
0.0
 71
     1
 72
     5
  1
2
  7
Romans字体
 73
     1
 44
1.0
1001
AcDbBlockRepETag
1070
     1
1071
       61
1005
1C392
  0
LINE
  5
1C393
330
10FE8
100
AcDbEntity
  8
图框
 62
     6
100
AcDbLine
 10
882.9478502794648
 20
678.7962435131815
 30
0.0
 11
882.9478502794648
 21
675.5347692601515
 31
0.0
1001
AcDbBlockRepETag
1070
     1
1071
       62
1005
1C393
  0
MTEXT
  5
1C394
330
10FE8
100
AcDbEntity
  8
图框
 62
     6
100
AcDbMText
 10
862.6286629643733
 20
678.859919059449
 30
0.0
 40
2.651776162684904
 41
2.557913877927211
 46
0.0
 71
     1
 72
     5
  1
1
  7
Romans字体
 73
     1
 44
1.0
1001
AcDbBlockRepETag
1070
     1
1071
       63
1005
1C394
  0
LINE
  5
1C395
330
10FE8
100
AcDbEntity
  8
图框
370
    -3
100
AcDbLine
 10
836.9128518455394
 20
675.0207195125422
 30
0.0
 11
836.9128518455394
 21
686.7901958362482
 31
0.0
1001
AcDbBlockRepETag
1070
     1
1071
       64
1005
1C395
  0
LINE
  5
1C396
330
10FE8
100
AcDbEntity
  8
图框
370
    50
100
AcDbLine
 10
836.9128518455394
 20
675.5347692601515
 30
0.0
 11
1126.928502610363
 21
675.5347692601515
 31
0.0
1001
AcDbBlockRepETag
1070
     1
1071
       65
1005
1C396
  0
LINE
  5
1C397
330
10FE8
100
AcDbEntity
  8
图框
370
    -3
100
AcDbLine
 10
842.6237321475781
 20
675.5347692601515
 30
0.0
 11
842.6237321475781
 21
686.7901958362482
 31
0.0
1001
AcDbBlockRepETag
1070
     1
1071
       66
1005
1C397
  0
LINE
  5
1C398
330
10FE8
100
AcDbEntity
  8
图框
370
    -3
100
AcDbLine
 10
848.3346124496179
 20
675.5347692601515
 30
0.0
 11
848.3346124496179
 21
686.7901958362482
 31
0.0
1001
AcDbBlockRepETag
1070
     1
1071
       67
1005
1C398
  0
MTEXT
  5
1C399
102
{ACAD_XDICTIONARY
360
1C42A
102
}
330
10FE8
100
AcDbEntity
  8
图框
100
AcDbMText
 10
857.7903401027889
 20
686.7901958362482
 30
0.0
 40
1.958998408821398
 41
11.25542657609672
 46
7.489694702258906
 71
     4
 72
     5
  1
\pi2.8203;档案员{\H0.7x;\P\pi1.4159;\Fromans|c134;Filing Clerk\fFangSong_GB2312|b0|i0|c134|p49; }
 11
-0.0000000000000002
 21
-1.0
 31
0.0
 73
     1
 44
1.0
1001
AcDbBlockRepETag
1070
     1
1071
       68
1005
1C399
1001
ACAD
1000
ACAD_MTEXT_DEFINED_HEIGHT_BEGIN
1070
    46
1040
7.489694702258906
1000
ACAD_MTEXT_DEFINED_HEIGHT_END
  0
MTEXT
  5
1C39A
102
{ACAD_XDICTIONARY
360
1C42C
102
}
330
10FE8
100
AcDbEntity
  8
图框
100
AcDbMText
 10
845.479172298598
 20
686.7901958362482
 30
0.0
 40
1.958998408821398
 41
11.25542657609672
 46
5.710880302039671
 71
     4
 72
     5
  1
\pi0.7115;日期{\Fromans|c134;/Date}
 11
-0.0000000000000002
 21
-1.0
 31
0.0
 73
     1
 44
1.0
1001
AcDbBlockRepETag
1070
     1
1071
       69
1005
1C39A
1001
ACAD
1000
ACAD_MTEXT_DEFINED_HEIGHT_BEGIN
1070
    46
1040
5.710880302039671
1000
ACAD_MTEXT_DEFINED_HEIGHT_END
  0
LINE
  5
1C39B
330
10FE8
100
AcDbEntity
  8
图框
370
    -3
100
AcDbLine
 10
854.0454927516588
 20
675.5347692601515
 30
0.0
 11
854.0454927516588
 21
686.7901958362482
 31
0.0
1001
AcDbBlockRepETag
1070
     1
1071
       70
1005
1C39B
  0
LINE
  5
1C39C
330
10FE8
100
AcDbEntity
  8
图框
370
    -3
100
AcDbLine
 10
1036.653967466372
 20
531.3291676047914
 30
0.0
 11
1036.653967466372
 21
484.0126019753161
 31
0.0
1001
AcDbBlockRepETag
1070
     1
1071
       71
1005
1C39C
  0
LINE
  5
1C39D
330
10FE8
100
AcDbEntity
  8
图框
370
    -3
100
AcDbLine
 10
1047.483315900763
 20
507.6708838011533
 30
0.0
 11
1047.483315900763
 21
491.8986945987308
 31
0.0
1001
AcDbBlockRepETag
1070
     1
1071
       72
1005
1C39D
  0
LINE
  5
1C39E
330
10FE8
100
AcDbEntity
  8
图框
370
    -3
100
AcDbLine
 10
1058.312664335153
 20
507.6708838011533
 30
0.0
 11
1058.312664335153
 21
484.0347692601515
 31
0.0
1001
AcDbBlockRepETag
1070
     1
1071
       73
1005
1C39E
  0
LINE
  5
1C39F
330
10FE8
100
AcDbEntity
  8
图框
370
    25
100
AcDbLine
 10
1048.474135214456
 20
488.1095628329926
 30
0.0
 11
1054.946420288459
 21
488.1095628329926
 31
0.0
1001
AcDbBlockRepETag
1070
     1
1071
       74
1005
1C39F
  0
LINE
  5
1C3A0
330
10FE8
100
AcDbEntity
  8
图框
370
    25
100
AcDbLine
 10
1054.232527365989
 20
487.0761716842634
 30
0.0
 11
1049.156490914508
 21
486.4576273751
 31
0.0
1001
AcDbBlockRepETag
1070
     1
1071
       75
1005
1C3A0
  0
LINE
  5
1C3A1
330
10FE8
100
AcDbEntity
  8
图框
370
    25
100
AcDbLine
 10
1054.232527365989
 20
489.1429539817209
 30
0.0
 11
1049.156490914508
 21
489.7614982908846
 31
0.0
1001
AcDbBlockRepETag
1070
     1
1071
       76
1005
1C3A1
  0
LINE
  5
1C3A2
330
10FE8
100
AcDbEntity
  8
图框
370
    25
100
AcDbLine
 10
1049.156490914508
 20
489.7614982908846
 30
0.0
 11
1049.156490914508
 21
486.4576273751
 31
0.0
1001
AcDbBlockRepETag
1070
     1
1071
       77
1005
1C3A2
  0
LINE
  5
1C3A3
330
10FE8
100
AcDbEntity
  8
图框
370
    25
100
AcDbLine
 10
1054.232527365989
 20
489.1429539817209
 30
0.0
 11
1054.232527365989
 21
487.0761716842634
 31
0.0
1001
AcDbBlockRepETag
1070
     1
1071
       78
1005
1C3A3
  0
CIRCLE
  5
1C3A4
330
10FE8
100
AcDbEntity
  8
图框
370
    25
100
AcDbCircle
 10
1042.502700458579
 20
488.1095628329926
 30
0.0
 40
1.651935457891863
1001
AcDbBlockRepETag
1070
     1
1071
       79
1005
1C3A4
  0
CIRCLE
  5
1C3A5
330
10FE8
100
AcDbEntity
  8
图框
370
    25
100
AcDbCircle
 10
1042.502700458579
 20
488.1095628329926
 30
0.0
 40
1.033391148728775
1001
AcDbBlockRepETag
1070
     1
1071
       80
1005
1C3A5
  0
LINE
  5
1C3A6
330
10FE8
100
AcDbEntity
  8
图框
370
    25
100
AcDbLine
 10
1040.136872078216
 20
488.1095628329926
 30
0.0
 11
1044.868528838943
 21
488.1095628329926
 31
0.0
1001
AcDbBlockRepETag
1070
     1
1071
       81
1005
1C3A6
  0
LINE
  5
1C3A7
330
10FE8
100
AcDbEntity
  8
图框
370
    25
100
AcDbLine
 10
1042.502700458579
 20
490.475391213355
 30
0.0
 11
1042.502700458579
 21
485.743734452629
 31
0.0
1001
AcDbBlockRepETag
1070
     1
1071
       82
1005
1C3A7
  0
LINE
  5
1C3A8
330
10FE8
100
AcDbEntity
  8
图框
370
    -3
100
AcDbLine
 10
1069.142012769546
 20
507.6708838011533
 30
0.0
 11
1069.142012769546
 21
491.8986945987308
 31
0.0
1001
AcDbBlockRepETag
1070
     1
1071
       83
1005
1C3A8
  0
MTEXT
  5
1C3A9
330
10FE8
100
AcDbEntity
  8
图框
100
AcDbMText
 10
1086.643735910939
 20
526.8006839312707
 30
0.0
 40
2.154898249703542
 41
13.34474941400573
 46
9.056967347041775
 71
     5
 72
     5
  1
图号{\Ftxt|c134;\P\Fromans|c134;\W0.65;Drawing No.}
 73
     1
 44
1.0
1001
AcDbBlockRepETag
1070
     1
1071
       84
1005
1C3A9
1001
ACAD
1000
ACAD_MTEXT_DEFINED_HEIGHT_BEGIN
1070
    46
1040
9.056967347041775
1000
ACAD_MTEXT_DEFINED_HEIGHT_END
  0
LINE
  5
1C3AA
330
10FE8
100
AcDbEntity
  8
图框
370
    -3
100
AcDbLine
 10
1093.316110617942
 20
531.3291676047914
 30
0.0
 11
1093.316110617942
 21
495.8417418993347
 31
0.0
1001
AcDbBlockRepETag
1070
     1
1071
       85
1005
1C3AA
  0
LINE
  5
1C3AB
330
10FE8
100
AcDbEntity
  8
图框
370
    -3
100
AcDbLine
 10
1047.473969770481
 20
531.3291676047914
 30
0.0
 11
1047.473969770481
 21
507.6708838011533
 31
0.0
1001
AcDbBlockRepETag
1070
     1
1071
       86
1005
1C3AB
  0
MTEXT
  5
1C3AC
330
10FE8
100
AcDbEntity
  8
图框
100
AcDbMText
 10
1063.72733855235
 20
503.7278365005473
 30
0.0
 40
2.252848170144607
 41
10.82934843439208
 46
7.886094601212128
 71
     5
 72
     5
  1
重量\P{\Fromans|c134;Weight}
 73
     1
 44
1.0
1001
AcDbBlockRepETag
1070
     1
1071
       87
1005
1C3AC
1001
ACAD
1000
ACAD_MTEXT_DEFINED_HEIGHT_BEGIN
1070
    46
1040
7.886094601212128
1000
ACAD_MTEXT_DEFINED_HEIGHT_END
  0
LINE
  5
1C3AD
330
10FE8
100
AcDbEntity
  8
图框
370
    -3
100
AcDbLine
 10
1036.653967466372
 20
519.5000257029746
 30
0.0
 11
1079.971361203936
 21
519.5000257029746
 31
0.0
1001
AcDbBlockRepETag
1070
     1
1071
       88
1005
1C3AD
  0
MTEXT
  5
1C3AE
330
10FE8
100
AcDbEntity
  8
图框
100
AcDbMText
 10
1074.556686986741
 20
503.7278365005473
 30
0.0
 40
2.252848170144607
 41
10.82934843438984
 46
7.886094601212141
 71
     5
 72
     5
  1
数量\P{\Fromans|c134;Qty.}
 73
     1
 44
1.0
1001
AcDbBlockRepETag
1070
     1
1071
       89
1005
1C3AE
1001
ACAD
1000
ACAD_MTEXT_DEFINED_HEIGHT_BEGIN
1070
    46
1040
7.886094601212141
1000
ACAD_MTEXT_DEFINED_HEIGHT_END
  0
LINE
  5
1C3AF
330
10FE8
100
AcDbEntity
  8
图框
370
    -3
100
AcDbLine
 10
1079.971361203936
 20
495.8417418993347
 30
0.0
 11
1126.928502610363
 21
495.8417418993342
 31
0.0
1001
AcDbBlockRepETag
1070
     1
1071
       90
1005
1C3AF
  0
LINE
  5
1C3B0
330
10FE8
100
AcDbEntity
  8
图框
370
    -3
100
AcDbLine
 10
1079.971361203936
 20
504.7132992040975
 30
0.0
 11
1126.928502610363
 21
504.7132992040975
 31
0.0
1001
AcDbBlockRepETag
1070
     1
1071
       91
1005
1C3B0
  0
MTEXT
  5
1C3B1
330
10FE8
100
AcDbEntity
  8
图框
100
AcDbMText
 10
1052.893317052817
 20
503.7278365005473
 30
0.0
 40
2.252848170144607
 41
10.83869456467139
 46
7.886094601212101
 71
     5
 72
     5
  1
版本\P{\Fromans|c134;REV.}
 73
     1
 44
1.0
1001
AcDbBlockRepETag
1070
     1
1071
       92
1005
1C3B1
1001
ACAD
1000
ACAD_MTEXT_DEFINED_HEIGHT_BEGIN
1070
    46
1040
7.886094601212101
1000
ACAD_MTEXT_DEFINED_HEIGHT_END
  0
MTEXT
  5
1C3B2
330
10FE8
100
AcDbEntity
  8
图框
100
AcDbMText
 10
1042.068641683568
 20
503.7278365005473
 30
0.0
 40
2.252848170144607
 41
10.8293484343908
 46
7.886094601212136
 71
     5
 72
     5
  1
比例\P{\Fromans|c134;Scale}
 73
     1
 44
1.0
1001
AcDbBlockRepETag
1070
     1
1071
       93
1005
1C3B2
1001
ACAD
1000
ACAD_MTEXT_DEFINED_HEIGHT_BEGIN
1070
    46
1040
7.886094601212136
1000
ACAD_MTEXT_DEFINED_HEIGHT_END
  0
LINE
  5
1C3B3
330
10FE8
100
AcDbEntity
  8
图框
370
    -3
100
AcDbLine
 10
1036.653967466372
 20
507.6708838011533
 30
0.0
 11
1079.971361203936
 21
507.6708838011533
 31
0.0
1001
AcDbBlockRepETag
1070
     1
1071
       94
1005
1C3B3
  0
LINE
  5
1C3B4
330
10FE8
100
AcDbEntity
  8
图框
370
    -3
100
AcDbLine
 10
1036.653967466372
 20
491.8986945987308
 30
0.0
 11
1079.971361203936
 21
491.8986945987308
 31
0.0
1001
AcDbBlockRepETag
1070
     1
1071
       95
1005
1C3B4
  0
LINE
  5
1C3B5
330
10FE8
100
AcDbEntity
  8
图框
370
    -3
100
AcDbLine
 10
1079.971361203936
 20
531.3291676047914
 30
0.0
 11
1079.971361203936
 21
484.0125999975168
 31
0.0
1001
AcDbBlockRepETag
1070
     1
1071
       96
1005
1C3B5
  0
MTEXT
  5
1C3B6
330
10FE8
100
AcDbEntity
  8
图框
100
AcDbMText
 10
1042.063968618426
 20
525.4145966538832
 30
0.0
 40
2.252848170144607
 41
10.82000230410933
 46
11.82914190181708
 71
     5
 72
     5
  1
表面处理\P{\Fromans|c134;Finish}
 73
     1
 44
1.0
1001
AcDbBlockRepETag
1070
     1
1071
       97
1005
1C3B6
1001
ACAD
1000
ACAD_MTEXT_DEFINED_HEIGHT_BEGIN
1070
    46
1040
11.82914190181708
1000
ACAD_MTEXT_DEFINED_HEIGHT_END
  0
MTEXT
  5
1C3B7
330
10FE8
100
AcDbEntity
  8
图框
100
AcDbMText
 10
1042.063968618426
 20
513.5854547520639
 30
0.0
 40
2.252848170144607
 41
10.82000230410933
 46
11.8291419018212
 71
     5
 72
     5
  1
材料\P{\Fromans|c134;Material}
 73
     1
 44
1.0
1001
AcDbBlockRepETag
1070
     1
1071
       98
1005
1C3B7
1001
ACAD
1000
ACAD_MTEXT_DEFINED_HEIGHT_BEGIN
1070
    46
1040
11.8291419018212
1000
ACAD_MTEXT_DEFINED_HEIGHT_END
  0
LINE
  5
1C3B8
330
10FE8
100
AcDbEntity
  8
图框
370
    -3
100
AcDbLine
 10
1079.971361203936
 20
522.27220025775
 30
0.0
 11
1126.928502610363
 21
522.27220025775
 31
0.0
1001
AcDbBlockRepETag
1070
     1
1071
       99
1005
1C3B8
  0
LINE
  5
1C3B9
330
10FE8
100
AcDbEntity
  8
图框
370
    -3
100
AcDbLine
 10
1079.971361203936
 20
513.5854547520641
 30
0.0
 11
1126.928502610363
 21
513.5854547520639
 31
0.0
1001
AcDbBlockRepETag
1070
     1
1071
      100
1005
1C3B9
  0
MTEXT
  5
1C3BA
330
10FE8
100
AcDbEntity
  8
图框
100
AcDbMText
 10
1086.643735910939
 20
517.9288275049072
 30
0.0
 40
1.958998408821398
 41
13.34474941400573
 46
8.686745505685811
 71
     5
 72
     5
  1
产品代号\P{\Fromans|c134;Part Code}
 73
     1
 44
1.0
1001
AcDbBlockRepETag
1070
     1
1071
      101
1005
1C3BA
1001
ACAD
1000
ACAD_MTEXT_DEFINED_HEIGHT_BEGIN
1070
    46
1040
8.686745505685811
1000
ACAD_MTEXT_DEFINED_HEIGHT_END
  0
LINE
  5
1C3BB
330
10FE8
100
AcDbEntity
  8
图框
370
    -3
100
AcDbLine
 10
946.9285026103634
 20
525.7982263931411
 30
0.0
 11
1036.653967466372
 21
525.7982263931411
 31
0.0
1001
AcDbBlockRepETag
1070
     1
1071
      102
1005
1C3BB
  0
LINE
  5
1C3BC
330
10FE8
100
AcDbEntity
  8
图框
370
    -3
100
AcDbLine
 10
946.9285026103634
 20
520.2672851814959
 30
0.0
 11
1036.653967466372
 21
520.2672851814959
 31
0.0
1001
AcDbBlockRepETag
1070
     1
1071
      103
1005
1C3BC
  0
LINE
  5
1C3BD
330
10FE8
100
AcDbEntity
  8
图框
370
    35
100
AcDbLine
 10
946.9285026103634
 20
531.3291676047914
 30
0.0
 11
1126.928502610363
 21
531.3291676047914
 31
0.0
1001
AcDbBlockRepETag
1070
     1
1071
      104
1005
1C3BD
  0
LINE
  5
1C3BE
330
10FE8
100
AcDbEntity
  8
图框
370
    -3
100
AcDbLine
 10
990.6727612856927
 20
509.2054027581959
 30
0.0
 11
990.6727612856927
 21
484.0347692601515
 31
0.0
1001
AcDbBlockRepETag
1070
     1
1071
      105
1005
1C3BE
  0
MTEXT
  5
1C3BF
102
{ACAD_XDICTIONARY
360
1C42E
102
}
330
10FE8
100
AcDbEntity
  8
图框
100
AcDbMText
 10
997.1628169651232
 20
499.816589978722
 30
0.0
 40
2.252848170144607
 41
12.98011135886052
 46
6.19230880992475
 71
     5
 72
     5
  1
{\f仿宋_GB2312|b0|i0|c134|p49;标准化}\PStand.
  7
Romans字体
 73
     1
 44
1.0
1001
AcDbBlockRepETag
1070
     1
1071
      106
1005
1C3BF
1001
ACAD
1000
ACAD_MTEXT_DEFINED_HEIGHT_BEGIN
1070
    46
1040
6.19230880992475
1000
ACAD_MTEXT_DEFINED_HEIGHT_END
  0
LINE
  5
1C3C0
330
10FE8
100
AcDbEntity
  8
图框
370
    -3
100
AcDbLine
 10
975.4103773808022
 20
509.2054027581959
 30
0.0
 11
975.4103773808022
 21
484.0347692601515
 31
0.0
1001
AcDbBlockRepETag
1070
     1
1071
      107
1005
1C3C0
  0
MTEXT
  5
1C3C1
330
10FE8
100
AcDbEntity
  8
图框
100
AcDbMText
 10
984.5089229802068
 20
511.9708733640202
 30
0.0
 40
2.448748011026752
 41
38.287899328693
 46
5.530941211648832
 71
     5
 72
     5
  1
  变更描述{\Fromans|c134;/Description}
 73
     1
 44
1.0
1001
AcDbBlockRepETag
1070
     1
1071
      108
1005
1C3C1
1001
ACAD
1000
ACAD_MTEXT_DEFINED_HEIGHT_BEGIN
1070
    46
1040
5.530941211648832
1000
ACAD_MTEXT_DEFINED_HEIGHT_END
  0
MTEXT
  5
1C3C2
102
{ACAD_XDICTIONARY
360
1C430
102
}
330
10FE8
100
AcDbEntity
  8
图框
100
AcDbMText
 10
1012.477254728976
 20
511.9708733640202
 30
0.0
 40
1.958998408821398
 41
17.64876416884548
 46
5.530941211649166
 71
     5
 72
     5
  1
签名\P{\Fromans|c134;Signature} 
 73
     1
 44
1.0
1001
AcDbBlockRepETag
1070
     1
1071
      109
1005
1C3C2
1001
ACAD
1000
ACAD_MTEXT_DEFINED_HEIGHT_BEGIN
1070
    46
1040
5.530941211649166
1000
ACAD_MTEXT_DEFINED_HEIGHT_END
  0
MTEXT
  5
1C3C3
102
{ACAD_XDICTIONARY
360
1C432
102
}
330
10FE8
100
AcDbEntity
  8
图框
100
AcDbMText
 10
960.7558556394856
 20
511.9708733640202
 30
0.0
 40
1.958998408821398
 41
9.218235352749283
 46
5.530941211648841
 71
     5
 72
     5
  1
处数\P{\Fromans|c134;Number }
 73
     1
 44
1.0
1001
AcDbBlockRepETag
1070
     1
1071
      110
1005
1C3C3
1001
ACAD
1000
ACAD_MTEXT_DEFINED_HEIGHT_BEGIN
1070
    46
1040
5.530941211648841
1000
ACAD_MTEXT_DEFINED_HEIGHT_END
  0
LINE
  5
1C3C4
330
10FE8
100
AcDbEntity
  8
图框
370
    -3
100
AcDbLine
 10
946.9285026103634
 20
514.7363439698449
 30
0.0
 11
1036.653967466372
 21
514.7363439698449
 31
0.0
1001
AcDbBlockRepETag
1070
     1
1071
      111
1005
1C3C4
  0
LINE
  5
1C3C5
330
10FE8
100
AcDbEntity
  8
图框
370
    -3
100
AcDbLine
 10
946.9285026103634
 20
509.2054027581959
 30
0.0
 11
1036.653967466372
 21
509.2054027581959
 31
0.0
1001
AcDbBlockRepETag
1070
     1
1071
      112
1005
1C3C5
  0
LINE
  5
1C3C6
330
10FE8
100
AcDbEntity
  8
图框
370
    -3
100
AcDbLine
 10
946.9285026103634
 20
502.9127443836848
 30
0.0
 11
1036.653967466372
 21
502.9127443836848
 31
0.0
1001
AcDbBlockRepETag
1070
     1
1071
      113
1005
1C3C6
  0
LINE
  5
1C3C7
330
10FE8
100
AcDbEntity
  8
图框
370
    -3
100
AcDbLine
 10
946.9285026103634
 20
496.620086009173
 30
0.0
 11
1036.653967466372
 21
496.620086009173
 31
0.0
1001
AcDbBlockRepETag
1070
     1
1071
      114
1005
1C3C7
  0
LINE
  5
1C3C8
330
10FE8
100
AcDbEntity
  8
图框
370
    35
380
     1
100
AcDbLine
 10
946.9285026103634
 20
531.3291676047914
 30
0.0
 11
946.9285026103634
 21
484.0347692601515
 31
0.0
1001
AcDbBlockRepETag
1070
     1
1071
      115
1005
1C3C8
  0
LINE
  5
1C3C9
330
10FE8
100
AcDbEntity
  8
图框
370
    -3
100
AcDbLine
 10
1021.301636813399
 20
531.3291676047914
 30
0.0
 11
1021.301636813399
 21
484.0347692601515
 31
0.0
1001
AcDbBlockRepETag
1070
     1
1071
      116
1005
1C3C9
  0
LINE
  5
1C3CA
330
10FE8
100
AcDbEntity
  8
图框
370
    -3
100
AcDbLine
 10
1003.652872644553
 20
531.3291676047914
 30
0.0
 11
1003.652872644553
 21
484.0347692601515
 31
0.0
1001
AcDbBlockRepETag
1070
     1
1071
      117
1005
1C3CA
  0
LINE
  5
1C3CB
330
10FE8
100
AcDbEntity
  8
图框
370
    -3
100
AcDbLine
 10
965.3649733158603
 20
531.3291676047914
 30
0.0
 11
965.3649733158603
 21
509.2054027581959
 31
0.0
1001
AcDbBlockRepETag
1070
     1
1071
      118
1005
1C3CB
  0
LINE
  5
1C3CC
330
10FE8
100
AcDbEntity
  8
图框
370
    -3
100
AcDbLine
 10
956.1467379631109
 20
531.3291676047914
 30
0.0
 11
956.1467379631109
 21
509.2054027581959
 31
0.0
1001
AcDbBlockRepETag
1070
     1
1071
      119
1005
1C3CC
  0
MTEXT
  5
1C3CD
102
{ACAD_XDICTIONARY
360
1C434
102
}
330
10FE8
100
AcDbEntity
  8
图框
100
AcDbMText
 10
951.537620286737
 20
511.9708733640202
 30
0.0
 40
1.958998408821398
 41
9.218235352747692
 46
5.530941211648832
 71
     5
 72
     5
  1
标记\P{\Fromans|c134;Mark}
 73
     1
 44
1.0
1001
AcDbBlockRepETag
1070
     1
1071
      120
1005
1C3CD
1001
ACAD
1000
ACAD_MTEXT_DEFINED_HEIGHT_BEGIN
1070
    46
1040
5.530941211648832
1000
ACAD_MTEXT_DEFINED_HEIGHT_END
  0
MTEXT
  5
1C3CE
102
{ACAD_XDICTIONARY
360
1C436
102
}
330
10FE8
100
AcDbEntity
  8
图框
100
AcDbMText
 10
953.4185582897936
 20
493.4737568219182
 30
0.0
 40
2.252848170144607
 41
12.98011135886041
 46
6.292658374510382
 71
     5
 72
     5
  1
审核\P{\Fromans|c134;Checked}
 73
     1
 44
1.0
1001
AcDbBlockRepETag
1070
     1
1071
      121
1005
1C3CE
1001
ACAD
1000
ACAD_MTEXT_DEFINED_HEIGHT_BEGIN
1070
    46
1040
6.292658374510382
1000
ACAD_MTEXT_DEFINED_HEIGHT_END
  0
MTEXT
  5
1C3CF
102
{ACAD_XDICTIONARY
360
1C438
102
}
330
10FE8
100
AcDbEntity
  8
图框
100
AcDbMText
 10
953.4185582897936
 20
499.8775635376777
 30
0.0
 40
2.252848170144607
 41
12.98011135886041
 46
6.070361692014189
 71
     5
 72
     5
  1
绘图\P{\Fromans|c134;Drawn\Ftxt|c134; }
 73
     1
 44
1.0
1001
AcDbBlockRepETag
1070
     1
1071
      122
1005
1C3CF
1001
ACAD
1000
ACAD_MTEXT_DEFINED_HEIGHT_BEGIN
1070
    46
1040
6.070361692014189
1000
ACAD_MTEXT_DEFINED_HEIGHT_END
  0
ARC
  5
1C3D0
330
10FE8
100
AcDbEntity
  8
图框
 62
     4
370
    35
100
AcDbCircle
 10
1086.900627017421
 20
490.0179944151195
 30
0.0
 40
4.063310408393665
100
AcDbArc
 50
18.95237904564806
 51
161.0476209543519
1001
AcDbBlockRepETag
1070
     1
1071
      123
1005
1C3D0
  0
ARC
  5
1C3D1
330
10FE8
100
AcDbEntity
  8
图框
 62
     4
370
    35
100
AcDbCircle
 10
1086.900627017421
 20
490.0179944151195
 30
0.0
 40
4.063310408393665
100
AcDbArc
 50
198.952379045648
 51
341.0476209543519
1001
AcDbBlockRepETag
1070
     1
1071
      124
1005
1C3D1
  0
LINE
  5
1C3D2
330
10FE8
100
AcDbEntity
  8
图框
 62
     4
370
    35
100
AcDbLine
 10
1083.057593369548
 20
488.6983035966752
 30
0.0
 11
1090.74366066529
 21
488.6983035966752
 31
0.0
1001
AcDbBlockRepETag
1070
     1
1071
      125
1005
1C3D2
  0
LINE
  5
1C3D3
330
10FE8
100
AcDbEntity
  8
图框
 62
     4
370
    35
100
AcDbLine
 10
1083.057593369548
 20
491.3376852335652
 30
0.0
 11
1090.74366066529
 21
491.3376852335652
 31
0.0
1001
AcDbBlockRepETag
1070
     1
1071
      126
1005
1C3D3
  0
MTEXT
  5
1C3D4
330
10FE8
100
AcDbEntity
  8
图框
 62
     1
370
    20
100
AcDbMText
 10
1083.034582879669
 20
491.0506288081688
 30
0.0
 40
2.005930044038334
 41
5.047240019334847
 46
0.0
 71
     1
 72
     5
  1
{\fArial|b0|i0|c0|p34;W}
  7
Chinese
 73
     1
 44
1.0
1001
AcDbBlockRepETag
1070
     1
1071
      127
1005
1C3D4
  0
LINE
  5
1C3D5
330
10FE8
100
AcDbEntity
  8
图框
370
    -3
100
AcDbLine
 10
946.9285026103634
 20
490.327427634663
 30
0.0
 11
1036.653967466372
 21
490.327427634663
 31
0.0
1001
AcDbBlockRepETag
1070
     1
1071
      128
1005
1C3D5
  0
LINE
  5
1C3D6
330
10FE8
100
AcDbEntity
  8
图框
370
    -3
100
AcDbLine
 10
959.9086139692238
 20
509.2054027581959
 30
0.0
 11
959.9086139692238
 21
484.0347692601515
 31
0.0
1001
AcDbBlockRepETag
1070
     1
1071
      129
1005
1C3D6
  0
MTEXT
  5
1C3D7
330
10FE8
100
AcDbEntity
  8
图框
100
AcDbMText
 10
967.6594956750129
 20
506.0590735709403
 30
0.0
 40
2.252848170144607
 41
15.50176341157869
 46
6.292658374511246
 71
     5
 72
     5
  1
姓名{\Fromans|c134;/Name\Ftxt|c134; }
 73
     1
 44
1.0
1001
AcDbBlockRepETag
1070
     1
1071
      130
1005
1C3D7
1001
ACAD
1000
ACAD_MTEXT_DEFINED_HEIGHT_BEGIN
1070
    46
1040
6.292658374511246
1000
ACAD_MTEXT_DEFINED_HEIGHT_END
  0
MTEXT
  5
1C3D8
330
10FE8
100
AcDbEntity
  8
图框
100
AcDbMText
 10
983.0415693332477
 20
506.0590735709403
 30
0.0
 40
2.252848170144607
 41
15.26238390489042
 46
6.2926583745112
 71
     5
 72
     5
  1
日期{\Fromans|c134;/Date}
 73
     1
 44
1.0
1001
AcDbBlockRepETag
1070
     1
1071
      131
1005
1C3D8
1001
ACAD
1000
ACAD_MTEXT_DEFINED_HEIGHT_BEGIN
1070
    46
1040
6.2926583745112
1000
ACAD_MTEXT_DEFINED_HEIGHT_END
  0
LINE
  5
1C3D9
330
10FE8
100
AcDbEntity
  8
图框
370
    -3
100
AcDbLine
 10
946.9285026103634
 20
509.2054027581959
 30
0.0
 11
959.9086139692238
 21
502.9127443836848
 31
0.0
1001
AcDbBlockRepETag
1070
     1
1071
      132
1005
1C3D9
  0
MTEXT
  5
1C3DA
330
10FE8
100
AcDbEntity
  8
图框
100
AcDbMText
 10
1012.931405110086
 20
506.0185715840725
 30
0.0
 40
2.252848170144607
 41
16.93492221063566
 46
0.0
 71
     5
 72
     5
  1
姓名{\Fromans|c134;/Name}
 73
     1
 44
1.0
1001
AcDbBlockRepETag
1070
     1
1071
      133
1005
1C3DA
  0
MTEXT
  5
1C3DB
330
10FE8
100
AcDbEntity
  8
图框
100
AcDbMText
 10
1028.977802139886
 20
506.0590735709403
 30
0.0
 40
2.252848170144607
 41
15.35233065297283
 46
6.292658374511256
 71
     5
 72
     5
  1
日期{\Fromans|c134;/Date}
 73
     1
 44
1.0
1001
AcDbBlockRepETag
1070
     1
1071
      134
1005
1C3DB
1001
ACAD
1000
ACAD_MTEXT_DEFINED_HEIGHT_BEGIN
1070
    46
1040
6.292658374511256
1000
ACAD_MTEXT_DEFINED_HEIGHT_END
  0
LINE
  5
1C3DC
330
10FE8
100
AcDbEntity
  8
图框
370
    -3
100
AcDbLine
 10
1003.652872644553
 20
502.9127443836848
 30
0.0
 11
990.6727612856927
 21
509.2054027581959
 31
0.0
1001
AcDbBlockRepETag
1070
     1
1071
      135
1005
1C3DC
  0
MTEXT
  5
1C3DD
102
{ACAD_XDICTIONARY
360
1C43A
102
}
330
10FE8
100
AcDbEntity
  8
图框
100
AcDbMText
 10
997.1628169651232
 20
487.1810984474071
 30
0.0
 40
2.252848170144607
 41
12.98011135886052
 46
6.292658374511517
 71
     5
 72
     5
  1
批准\P{\Fromans|c134;Approved}
 73
     1
 44
1.0
1001
AcDbBlockRepETag
1070
     1
1071
      136
1005
1C3DD
1001
ACAD
1000
ACAD_MTEXT_DEFINED_HEIGHT_BEGIN
1070
    46
1040
6.292658374511517
1000
ACAD_MTEXT_DEFINED_HEIGHT_END
  0
MTEXT
  5
1C3DE
102
{ACAD_XDICTIONARY
360
1C43C
102
}
330
10FE8
100
AcDbEntity
  8
图框
100
AcDbMText
 10
953.4185582897936
 20
487.1810984474071
 30
0.0
 40
2.252848170144607
 41
12.98011135886041
 46
6.292658374511495
 71
     5
 72
     5
  1
工艺\P{\Fromans|c134;Process}
 73
     1
 44
1.0
1001
AcDbBlockRepETag
1070
     1
1071
      137
1005
1C3DE
1001
ACAD
1000
ACAD_MTEXT_DEFINED_HEIGHT_BEGIN
1070
    46
1040
6.292658374511495
1000
ACAD_MTEXT_DEFINED_HEIGHT_END
  0
MTEXT
  5
1C3DF
102
{ACAD_XDICTIONARY
360
1C43E
102
}
330
10FE8
100
AcDbEntity
  8
图框
100
AcDbMText
 10
1028.977802139886
 20
511.9708733640203
 30
0.0
 40
1.958998408821398
 41
15.3523306529728
 46
5.530941211648912
 71
     5
 72
     5
  1
日期\P{\Fromans|c134;Date}
 73
     1
 44
1.0
1001
AcDbBlockRepETag
1070
     1
1071
      138
1005
1C3DF
1001
ACAD
1000
ACAD_MTEXT_DEFINED_HEIGHT_BEGIN
1070
    46
1040
5.530941211648912
1000
ACAD_MTEXT_DEFINED_HEIGHT_END
  0
MTEXT
  5
1C3E0
330
10FE8
100
AcDbEntity
  8
图框
100
AcDbMText
 10
1086.643735910939
 20
509.1493769780809
 30
0.0
 40
2.154898249703542
 41
13.34474941400573
 46
8.87215554796615
 71
     5
 72
     5
  1
产品料号\P{\Fromans|c134;Part No.}
 73
     1
 44
1.0
1001
AcDbBlockRepETag
1070
     1
1071
      139
1005
1C3E0
1001
ACAD
1000
ACAD_MTEXT_DEFINED_HEIGHT_BEGIN
1070
    46
1040
8.87215554796615
1000
ACAD_MTEXT_DEFINED_HEIGHT_END
  0
MTEXT
  5
1C3E1
330
10FE8
100
AcDbEntity
  8
图框
100
AcDbMText
 10
1086.643735910939
 20
500.2775205517163
 30
0.0
 40
1.958998408821398
 41
13.34474941400573
 46
8.871557304763321
 71
     5
 72
     5
  1
产品名称\P{\Fromans|c134;Part Name}
 73
     1
 44
1.0
1001
AcDbBlockRepETag
1070
     1
1071
      140
1005
1C3E1
1001
ACAD
1000
ACAD_MTEXT_DEFINED_HEIGHT_BEGIN
1070
    46
1040
8.871557304763321
1000
ACAD_MTEXT_DEFINED_HEIGHT_END
  0
LINE
  5
1C3E2
330
10FE8
100
AcDbEntity
  8
图框
 62
     1
370
    18
100
AcDbLine
 10
833.4128518455365
 20
690.5347692601515
 30
0.0
 11
833.4128518455365
 21
480.5347692601515
 31
0.0
1001
AcDbBlockRepETag
1070
     1
1071
      141
1005
1C3E2
  0
LINE
  5
1C3E3
330
10FE8
100
AcDbEntity
  8
图框
 62
     1
370
    18
100
AcDbLine
 10
833.4128518455365
 20
480.5347692601515
 30
0.0
 11
1130.411601781236
 21
480.5347692601515
 31
0.0
1001
AcDbBlockRepETag
1070
     1
1071
      142
1005
1C3E3
  0
LINE
  5
1C3E4
330
10FE8
100
AcDbEntity
  8
图框
 62
     1
370
    18
100
AcDbLine
 10
833.4128518455365
 20
690.5347692601515
 30
0.0
 11
1130.411601781236
 21
690.5347692601515
 31
0.0
1001
AcDbBlockRepETag
1070
     1
1071
      143
1005
1C3E4
  0
LINE
  5
1C3E5
330
10FE8
100
AcDbEntity
  8
图框
 62
     1
370
    18
100
AcDbLine
 10
1130.411601781236
 20
480.5347692601515
 30
0.0
 11
1130.411601781236
 21
690.5347692601515
 31
0.0
1001
AcDbBlockRepETag
1070
     1
1071
      144
1005
1C3E5
  0
LINE
  5
1C3E6
330
10FE8
100
AcDbEntity
  8
图框
370
    18
100
AcDbLine
 10
836.9128518455394
 20
686.7901958362482
 30
0.0
 11
861.5351874539182
 21
686.7901958362482
 31
0.0
1001
AcDbBlockRepETag
1070
     1
1071
      145
1005
1C3E6
  0
LINE
  5
1C3E7
330
10FE8
100
AcDbEntity
  8
图框
370
    50
100
AcDbLine
 10
1126.928502610363
 20
484.3410054693078
 30
0.0
 11
1126.928502610363
 21
675.5347692601515
 31
0.0
1001
AcDbBlockRepETag
1070
     1
1071
      146
1005
1C3E7
  0
MTEXT
  5
1C3E8
330
10FE8
100
AcDbEntity
  8
图框
 62
     3
100
AcDbMText
 10
1052.897990117958
 20
495.8417418993364
 30
0.0
 40
2.985513575034151
 41
10.82934843439114
 46
7.886094601211307
 71
     5
 72
     5
  1
V1.1
  7
Romans字体
 73
     1
 44
1.0
1001
AcDbBlockRepETag
1070
     1
1071
      147
1005
1C3E8
1001
ACAD
1000
ACAD_MTEXT_DEFINED_HEIGHT_BEGIN
1070
    46
1040
7.886094601211307
1000
ACAD_MTEXT_DEFINED_HEIGHT_END
  0
LINE
  5
1C3E9
330
10FE8
100
AcDbEntity
  8
图框
 62
     6
100
AcDbLine
 10
1126.911601781236
 20
531.714049199969
 30
0.0
 11
1130.411601781236
 21
531.714049199969
 31
0.0
1001
AcDbBlockRepETag
1070
     1
1071
      148
1005
1C3E9
  0
MTEXT
  5
1C3F5
330
10FE8
100
AcDbEntity
  8
图框
 62
     3
100
AcDbMText
 10
983.041569333247
 20
493.4737568219181
 30
0.0
 40
2.487927979195124
 41
15.26238390489051
 46
6.292658374511042
 71
     5
 72
     5
  1
{\W0.7;22.12.2023}
  7
Romans字体
 73
     1
 44
1.0
1001
AcDbBlockRepETag
1070
     1
1071
      149
1005
1C3F5
1001
ACAD
1000
ACAD_MTEXT_DEFINED_HEIGHT_BEGIN
1070
    46
1040
6.292658374511042
1000
ACAD_MTEXT_DEFINED_HEIGHT_END
  0
MTEXT
  5
1C3FE
330
10FE8
100
AcDbEntity
  8
图框
 62
     3
100
AcDbMText
 10
1028.932828765843
 20
487.1810984474074
 30
0.0
 40
2.487927979195124
 41
15.26238390489051
 46
6.292658374511042
 71
     5
 72
     5
  1
{\W0.7;22.12.2023}
  7
Romans字体
 73
     1
 44
1.0
1001
AcDbBlockRepETag
1070
     1
1071
      150
1005
1C3FE
1001
ACAD
1000
ACAD_MTEXT_DEFINED_HEIGHT_BEGIN
1070
    46
1040
6.292658374511042
1000
ACAD_MTEXT_DEFINED_HEIGHT_END
  0
ENDBLK
  5
1107F
330
10FE8
100
AcDbEntity
  8
0
100
AcDbBlockEnd
  0
BLOCK
  5
1B900
330
1B8FF
100
AcDbEntity
  8
0
100
AcDbBlockBegin
  2
*D2
 70
     1
 10
0.0
 20
0.0
 30
0.0
  3
*D2
  1

  0
LINE
  5
1BA45
330
1B8FF
100
AcDbEntity
  8
DIM
 62
     6
370
    -2
100
AcDbLine
 10
519.2363704353604
 20
267.2786884246581
 30
0.0
 11
514.9319707830169
 21
267.2786884246581
 31
0.0
  0
LINE
  5
1BA46
330
1B8FF
100
AcDbEntity
  8
DIM
 62
     6
370
    -2
100
AcDbLine
 10
519.2363704353604
 20
264.2786834246578
 30
0.0
 11
514.9319707830169
 21
264.2786834246578
 31
0.0
  0
LINE
  5
1BA47
330
1B8FF
100
AcDbEntity
  8
DIM
 62
     1
370
    -2
100
AcDbLine
 10
515.6519707830168
 20
268.4786884246581
 30
0.0
 11
515.6519707830168
 21
269.6786884246581
 31
0.0
  0
LINE
  5
1BA48
330
1B8FF
100
AcDbEntity
  8
DIM
 62
     1
370
    -2
100
AcDbLine
 10
515.6519707830168
 20
263.0786834246578
 30
0.0
 11
515.6519707830168
 21
261.8786834246578
 31
0.0
  0
SOLID
  5
1BA49
330
1B8FF
100
AcDbEntity
  8
DIM
 62
     1
100
AcDbTrace
 10
515.4519707830171
 20
268.4786884246581
 30
0.0
 11
515.8519707830172
 21
268.4786884246581
 31
0.0
 12
515.6519707830168
 22
267.2786884246581
 32
0.0
 13
515.6519707830168
 23
267.2786884246581
 33
0.0
  0
SOLID
  5
1BA4A
330
1B8FF
100
AcDbEntity
  8
DIM
 62
     1
100
AcDbTrace
 10
515.4519707830171
 20
263.0786834246578
 30
0.0
 11
515.8519707830172
 21
263.0786834246578
 31
0.0
 12
515.6519707830168
 22
264.2786834246578
 32
0.0
 13
515.6519707830168
 23
264.2786834246578
 33
0.0
  0
MTEXT
  5
1BA4B
330
1B8FF
100
AcDbEntity
  8
DIM
 62
     4
100
AcDbMText
 10
514.4219707830171
 20
265.778685924658
 30
0.0
 40
1.5
 41
0.0
 46
0.0
 71
     5
 72
     1
  1
\A1;M3
  7
Romans字体
 11
0.0000000000000001
 21
1.0
 31
0.0
 73
     1
 44
1.0
  0
POINT
  5
1BA4C
330
1B8FF
100
AcDbEntity
  8
Defpoints
 62
     0
100
AcDbPoint
 10
519.3563704353604
 20
267.2786884246581
 30
0.0
  0
POINT
  5
1BA4D
330
1B8FF
100
AcDbEntity
  8
Defpoints
 62
     0
100
AcDbPoint
 10
519.3563704353604
 20
264.2786834246578
 30
0.0
  0
POINT
  5
1BA4E
330
1B8FF
100
AcDbEntity
  8
Defpoints
 62
     0
100
AcDbPoint
 10
515.6519707830168
 20
264.2786834246578
 30
0.0
  0
ENDBLK
  5
1B901
330
1B8FF
100
AcDbEntity
  8
0
100
AcDbBlockEnd
  0
BLOCK
  5
1B90D
330
1B90C
100
AcDbEntity
  8
0
100
AcDbBlockBegin
  2
*D3
 70
     1
 10
0.0
 20
0.0
 30
0.0
  3
*D3
  1

  0
LINE
  5
1BA4F
330
1B90C
100
AcDbEntity
  8
DIM
 62
     6
370
    -2
100
AcDbLine
 10
518.8563729353614
 20
264.658688424658
 30
0.0
 11
518.8563729353614
 21
256.529681590336
 31
0.0
  0
LINE
  5
1BA50
330
1B90C
100
AcDbEntity
  8
DIM
 62
     6
370
    -2
100
AcDbLine
 10
540.4563709353608
 20
265.1086884246583
 30
0.0
 11
540.4563709353608
 21
256.529681590336
 31
0.0
  0
LINE
  5
1BA51
330
1B90C
100
AcDbEntity
  8
DIM
 62
     1
370
    -2
100
AcDbLine
 10
520.0563729353614
 20
257.249681590336
 30
0.0
 11
539.256370935361
 21
257.249681590336
 31
0.0
  0
SOLID
  5
1BA52
330
1B90C
100
AcDbEntity
  8
DIM
 62
     1
100
AcDbTrace
 10
520.0563729353614
 20
257.4496815903359
 30
0.0
 11
520.0563729353614
 21
257.049681590336
 31
0.0
 12
518.8563729353614
 22
257.249681590336
 32
0.0
 13
518.8563729353614
 23
257.249681590336
 33
0.0
  0
SOLID
  5
1BA53
330
1B90C
100
AcDbEntity
  8
DIM
 62
     1
100
AcDbTrace
 10
539.256370935361
 20
257.4496815903359
 30
0.0
 11
539.256370935361
 21
257.049681590336
 31
0.0
 12
540.4563709353608
 22
257.249681590336
 32
0.0
 13
540.4563709353608
 23
257.249681590336
 33
0.0
  0
MTEXT
  5
1BA54
330
1B90C
100
AcDbEntity
  8
DIM
 62
     4
100
AcDbMText
 10
528.9897926022502
 20
258.479681590336
 30
0.0
 40
1.5
 41
0.0
 46
0.0
 71
     5
 72
     1
  1
\A1;21.6
  7
Romans字体
 73
     1
 44
1.0
  0
POINT
  5
1BA55
330
1B90C
100
AcDbEntity
  8
Defpoints
 62
     0
100
AcDbPoint
 10
518.8563729353614
 20
264.7786884246581
 30
0.0
  0
POINT
  5
1BA56
330
1B90C
100
AcDbEntity
  8
Defpoints
 62
     0
100
AcDbPoint
 10
540.4563709353608
 20
265.2286884246584
 30
0.0
  0
POINT
  5
1BA57
330
1B90C
100
AcDbEntity
  8
Defpoints
 62
     0
100
AcDbPoint
 10
540.4563709353608
 20
257.249681590336
 30
0.0
  0
ENDBLK
  5
1B90E
330
1B90C
100
AcDbEntity
  8
0
100
AcDbBlockEnd
  0
BLOCK
  5
1B91A
330
1B919
100
AcDbEntity
  8
0
100
AcDbBlockBegin
  2
*D4
 70
     1
 10
0.0
 20
0.0
 30
0.0
  3
*D4
  1

  0
LINE
  5
1BA58
330
1B919
100
AcDbEntity
  8
DIM
 62
     6
370
    -2
100
AcDbLine
 10
538.8443224353608
 20
267.9286884246582
 30
0.0
 11
547.4191477829505
 21
267.9286884246582
 31
0.0
  0
LINE
  5
1BA59
330
1B919
100
AcDbEntity
  8
DIM
 62
     6
370
    -2
100
AcDbLine
 10
538.8443224353608
 20
263.6286834246581
 30
0.0
 11
547.4191477829505
 21
263.6286834246581
 31
0.0
  0
LINE
  5
1BA5A
330
1B919
100
AcDbEntity
  8
DIM
 62
     1
370
    -2
100
AcDbLine
 10
546.6991477829505
 20
266.7286884246582
 30
0.0
 11
546.6991477829505
 21
264.8286834246581
 31
0.0
  0
SOLID
  5
1BA5B
330
1B919
100
AcDbEntity
  8
DIM
 62
     1
100
AcDbTrace
 10
546.4991477829506
 20
266.7286884246582
 30
0.0
 11
546.8991477829505
 21
266.7286884246582
 31
0.0
 12
546.6991477829505
 22
267.9286884246582
 32
0.0
 13
546.6991477829505
 23
267.9286884246582
 33
0.0
  0
SOLID
  5
1BA5C
330
1B919
100
AcDbEntity
  8
DIM
 62
     1
100
AcDbTrace
 10
546.4991477829506
 20
264.8286834246581
 30
0.0
 11
546.8991477829505
 21
264.8286834246581
 31
0.0
 12
546.6991477829505
 22
263.6286834246581
 32
0.0
 13
546.6991477829505
 23
263.6286834246581
 33
0.0
  0
MTEXT
  5
1BA5D
330
1B919
100
AcDbEntity
  8
DIM
 62
     4
100
AcDbMText
 10
545.4691477829506
 20
265.473350425412
 30
0.0
 40
1.5
 41
0.0
 46
0.0
 71
     5
 72
     1
  1
\A1;%%C4.3
  7
Romans字体
 11
0.0000000000000001
 21
1.0
 31
0.0
 73
     1
 44
1.0
  0
POINT
  5
1BA5E
330
1B919
100
AcDbEntity
  8
Defpoints
 62
     0
100
AcDbPoint
 10
538.7243224353608
 20
267.9286884246582
 30
0.0
  0
POINT
  5
1BA5F
330
1B919
100
AcDbEntity
  8
Defpoints
 62
     0
100
AcDbPoint
 10
538.7243224353608
 20
263.6286834246581
 30
0.0
  0
POINT
  5
1BA60
330
1B919
100
AcDbEntity
  8
Defpoints
 62
     0
100
AcDbPoint
 10
546.6991477829505
 20
263.6286834246581
 30
0.0
  0
ENDBLK
  5
1B91B
330
1B919
100
AcDbEntity
  8
0
100
AcDbBlockEnd
  0
BLOCK
  5
1B945
330
1B944
100
AcDbEntity
  8
0
100
AcDbBlockBegin
  2
*D5
 70
     1
 10
0.0
 20
0.0
 30
0.0
  3
*D5
  1

  0
LINE
  5
1BA61
330
1B944
100
AcDbEntity
  8
DIM
 62
     6
370
    -2
100
AcDbLine
 10
540.5763709353608
 20
265.2286884246584
 30
0.0
 11
544.1711552532849
 21
265.2286884246584
 31
0.0
  0
LINE
  5
1BA62
330
1B944
100
AcDbEntity
  8
DIM
 62
     6
370
    -2
100
AcDbLine
 10
540.5763709353608
 20
266.3286884246578
 30
0.0
 11
544.1711552532849
 21
266.3286884246578
 31
0.0
  0
LINE
  5
1BA63
330
1B944
100
AcDbEntity
  8
DIM
 62
     1
370
    -2
100
AcDbLine
 10
543.451155253285
 20
264.0286884246584
 30
0.0
 11
543.451155253285
 21
262.8286884246584
 31
0.0
  0
LINE
  5
1BA64
330
1B944
100
AcDbEntity
  8
DIM
 62
     1
370
    -2
100
AcDbLine
 10
543.451155253285
 20
267.5286884246578
 30
0.0
 11
543.451155253285
 21
271.5636884246578
 31
0.0
  0
SOLID
  5
1BA65
330
1B944
100
AcDbEntity
  8
DIM
 62
     1
100
AcDbTrace
 10
543.251155253285
 20
264.0286884246584
 30
0.0
 11
543.651155253285
 21
264.0286884246584
 31
0.0
 12
543.451155253285
 22
265.2286884246584
 32
0.0
 13
543.451155253285
 23
265.2286884246584
 33
0.0
  0
SOLID
  5
1BA66
330
1B944
100
AcDbEntity
  8
DIM
 62
     1
100
AcDbTrace
 10
543.251155253285
 20
267.5286884246578
 30
0.0
 11
543.651155253285
 21
267.5286884246578
 31
0.0
 12
543.451155253285
 22
266.3286884246578
 32
0.0
 13
543.451155253285
 23
266.3286884246578
 33
0.0
  0
MTEXT
  5
1BA67
330
1B944
100
AcDbEntity
  8
DIM
 62
     4
100
AcDbMText
 10
542.221155253285
 20
270.1461884246579
 30
0.0
 40
1.5
 41
0.0
 46
0.0
 71
     5
 72
     1
  1
\A1;1.1
  7
Romans字体
 11
0.0000000000000001
 21
1.0
 31
0.0
 73
     1
 44
1.0
  0
POINT
  5
1BA68
330
1B944
100
AcDbEntity
  8
Defpoints
 62
     0
100
AcDbPoint
 10
540.4563709353608
 20
265.2286884246584
 30
0.0
  0
POINT
  5
1BA69
330
1B944
100
AcDbEntity
  8
Defpoints
 62
     0
100
AcDbPoint
 10
540.4563709353608
 20
266.3286884246578
 30
0.0
  0
POINT
  5
1BA6A
330
1B944
100
AcDbEntity
  8
Defpoints
 62
     0
100
AcDbPoint
 10
543.451155253285
 20
266.3286884246578
 30
0.0
  0
ENDBLK
  5
1B946
330
1B944
100
AcDbEntity
  8
0
100
AcDbBlockEnd
  0
BLOCK
  5
1B952
330
1B951
100
AcDbEntity
  8
0
100
AcDbBlockBegin
  2
*D6
 70
     1
 10
0.0
 20
0.0
 30
0.0
  3
*D6
  1

  0
LINE
  5
1BA6B
330
1B951
100
AcDbEntity
  8
DIM
 62
     6
370
    -2
100
AcDbLine
 10
518.8563729353614
 20
266.7088110772527
 30
0.0
 11
518.8563729353614
 21
270.1892154713681
 31
0.0
  0
LINE
  5
1BA6C
330
1B951
100
AcDbEntity
  8
DIM
 62
     6
370
    -2
100
AcDbLine
 10
523.8563754353585
 20
267.3986884246581
 30
0.0
 11
523.8563754353585
 21
270.1892154713681
 31
0.0
  0
LINE
  5
1BA6D
330
1B951
100
AcDbEntity
  8
DIM
 62
     1
370
    -2
100
AcDbLine
 10
520.0563729353614
 20
269.4692154713681
 30
0.0
 11
522.6563754353585
 21
269.4692154713681
 31
0.0
  0
SOLID
  5
1BA6E
330
1B951
100
AcDbEntity
  8
DIM
 62
     1
100
AcDbTrace
 10
520.0563729353614
 20
269.6692154713681
 30
0.0
 11
520.0563729353614
 21
269.2692154713681
 31
0.0
 12
518.8563729353614
 22
269.4692154713681
 32
0.0
 13
518.8563729353614
 23
269.4692154713681
 33
0.0
  0
SOLID
  5
1BA6F
330
1B951
100
AcDbEntity
  8
DIM
 62
     1
100
AcDbTrace
 10
522.6563754353585
 20
269.6692154713681
 30
0.0
 11
522.6563754353585
 21
269.2692154713681
 31
0.0
 12
523.8563754353585
 22
269.4692154713681
 32
0.0
 13
523.8563754353585
 23
269.4692154713681
 33
0.0
  0
MTEXT
  5
1BA70
330
1B951
100
AcDbEntity
  8
DIM
 62
     4
100
AcDbMText
 10
521.3563741853596
 20
270.6992154713681
 30
0.0
 40
1.5
 41
0.0
 46
0.0
 71
     5
 72
     1
  1
\A1;5
  7
Romans字体
 73
     1
 44
1.0
  0
POINT
  5
1BA71
330
1B951
100
AcDbEntity
  8
Defpoints
 62
     0
100
AcDbPoint
 10
518.8563729353614
 20
266.5888110772527
 30
0.0
  0
POINT
  5
1BA72
330
1B951
100
AcDbEntity
  8
Defpoints
 62
     0
100
AcDbPoint
 10
523.8563754353585
 20
267.2786884246581
 30
0.0
  0
POINT
  5
1BA73
330
1B951
100
AcDbEntity
  8
Defpoints
 62
     0
100
AcDbPoint
 10
523.8563754353585
 20
269.4692154713681
 30
0.0
  0
ENDBLK
  5
1B953
330
1B951
100
AcDbEntity
  8
0
100
AcDbBlockEnd
  0
BLOCK
  5
1B95F
330
1B95E
100
AcDbEntity
  8
0
100
AcDbBlockBegin
  2
*D7
 70
     1
 10
0.0
 20
0.0
 30
0.0
  3
*D7
  1

  0
LINE
  5
1BA74
330
1B95E
100
AcDbEntity
  8
DIM
 62
     6
370
    -2
100
AcDbLine
 10
518.8563729353614
 20
263.643438182879
 30
0.0
 11
518.8563729353614
 21
259.9405875093407
 31
0.0
  0
LINE
  5
1BA75
330
1B95E
100
AcDbEntity
  8
DIM
 62
     6
370
    -2
100
AcDbLine
 10
527.8563729353614
 20
263.508688424658
 30
0.0
 11
527.8563729353614
 21
259.9405875093407
 31
0.0
  0
LINE
  5
1BA76
330
1B95E
100
AcDbEntity
  8
DIM
 62
     1
370
    -2
100
AcDbLine
 10
520.0563729353614
 20
260.6605875093407
 30
0.0
 11
526.6563729353613
 21
260.6605875093407
 31
0.0
  0
SOLID
  5
1BA77
330
1B95E
100
AcDbEntity
  8
DIM
 62
     1
100
AcDbTrace
 10
520.0563729353614
 20
260.8605875093407
 30
0.0
 11
520.0563729353614
 21
260.4605875093407
 31
0.0
 12
518.8563729353614
 22
260.6605875093407
 32
0.0
 13
518.8563729353614
 23
260.6605875093407
 33
0.0
  0
SOLID
  5
1BA78
330
1B95E
100
AcDbEntity
  8
DIM
 62
     1
100
AcDbTrace
 10
526.6563729353613
 20
260.8605875093407
 30
0.0
 11
526.6563729353613
 21
260.4605875093407
 31
0.0
 12
527.8563729353614
 22
260.6605875093407
 32
0.0
 13
527.8563729353614
 23
260.6605875093407
 33
0.0
  0
MTEXT
  5
1BA79
330
1B95E
100
AcDbEntity
  8
DIM
 62
     4
100
AcDbMText
 10
523.3563729353614
 20
261.8905875093407
 30
0.0
 40
1.5
 41
0.0
 46
0.0
 71
     5
 72
     1
  1
\A1;9
  7
Romans字体
 73
     1
 44
1.0
  0
POINT
  5
1BA7A
330
1B95E
100
AcDbEntity
  8
Defpoints
 62
     0
100
AcDbPoint
 10
518.8563729353614
 20
263.763438182879
 30
0.0
  0
POINT
  5
1BA7B
330
1B95E
100
AcDbEntity
  8
Defpoints
 62
     0
100
AcDbPoint
 10
527.8563729353614
 20
263.628688424658
 30
0.0
  0
POINT
  5
1BA7C
330
1B95E
100
AcDbEntity
  8
Defpoints
 62
     0
100
AcDbPoint
 10
527.8563729353614
 20
260.6605875093407
 30
0.0
  0
ENDBLK
  5
1B960
330
1B95E
100
AcDbEntity
  8
0
100
AcDbBlockEnd
  0
BLOCK
  5
1BAF6
330
1BAF5
100
AcDbEntity
  8
0
100
AcDbBlockBegin
  2
*D8
 70
     1
 10
0.0
 20
0.0
 30
0.0
  3
*D8
  1

  0
LINE
  5
1BAF7
330
1BAF5
100
AcDbEntity
  8
DIM
 62
     6
370
    -2
100
AcDbLine
 10
826.45020732815
 20
61.5404785438805
 30
0.0
 11
826.45020732815
 21
47.25888185500696
 31
0.0
  0
LINE
  5
1BAF8
330
1BAF5
100
AcDbEntity
  8
DIM
 62
     6
370
    -2
100
AcDbLine
 10
946.45019332815
 20
65.7904685438805
 30
0.0
 11
946.45019332815
 21
47.25888185500696
 31
0.0
  0
LINE
  5
1BAF9
330
1BAF5
100
AcDbEntity
  8
DIM
 62
     1
370
    -2
100
AcDbLine
 10
829.4502073281499
 20
49.25888185500696
 30
0.0
 11
883.65020032815
 21
49.25888185500696
 31
0.0
  0
LINE
  5
1BAFA
330
1BAF5
100
AcDbEntity
  8
DIM
 62
     1
370
    -2
100
AcDbLine
 10
943.45019332815
 20
49.25888185500696
 30
0.0
 11
889.2502003281498
 21
49.25888185500696
 31
0.0
  0
SOLID
  5
1BAFB
330
1BAF5
100
AcDbEntity
  8
DIM
 62
     1
100
AcDbTrace
 10
829.4502073281499
 20
49.75888185500696
 30
0.0
 11
829.4502073281499
 21
48.75888185500695
 31
0.0
 12
826.45020732815
 22
49.25888185500696
 32
0.0
 13
826.45020732815
 23
49.25888185500696
 33
0.0
  0
SOLID
  5
1BAFC
330
1BAF5
100
AcDbEntity
  8
DIM
 62
     1
100
AcDbTrace
 10
943.45019332815
 20
49.75888185500696
 30
0.0
 11
943.45019332815
 21
48.75888185500695
 31
0.0
 12
946.45019332815
 22
49.25888185500696
 32
0.0
 13
946.45019332815
 23
49.25888185500696
 33
0.0
  0
MTEXT
  5
1BAFD
330
1BAF5
100
AcDbEntity
  8
DIM
 62
     4
100
AcDbMText
 10
886.4502003281499
 20
49.25888185500696
 30
0.0
 40
3.0
 41
0.0
 46
0.0
 71
     5
 72
     1
  1
\A1;24
 73
     1
 44
1.0
  0
POINT
  5
1BAFE
330
1BAF5
100
AcDbEntity
  8
Defpoints
 62
     0
100
AcDbPoint
 10
826.45020732815
 20
61.5404785438805
 30
0.0
  0
POINT
  5
1BAFF
330
1BAF5
100
AcDbEntity
  8
Defpoints
 62
     0
100
AcDbPoint
 10
946.45019332815
 20
65.7904685438805
 30
0.0
  0
POINT
  5
1BB00
330
1BAF5
100
AcDbEntity
  8
Defpoints
 62
     0
100
AcDbPoint
 10
946.45019332815
 20
49.25888185500696
 30
0.0
  0
ENDBLK
  5
1BB01
330
1BAF5
100
AcDbEntity
  8
0
100
AcDbBlockEnd
  0
BLOCK
  5
1BB03
330
1BB02
100
AcDbEntity
  8
0
100
AcDbBlockBegin
  2
*D9
 70
     1
 10
0.0
 20
0.0
 30
0.0
  3
*D9
  1

  0
LINE
  5
1BB04
330
1BB02
100
AcDbEntity
  8
DIM
 62
     6
370
    -2
100
AcDbLine
 10
934.4501833281499
 20
82.04047854388045
 30
0.0
 11
956.3327897235318
 21
82.04047854388045
 31
0.0
  0
LINE
  5
1BB05
330
1BB02
100
AcDbEntity
  8
DIM
 62
     6
370
    -2
100
AcDbLine
 10
934.4501833281499
 20
59.54046854388045
 30
0.0
 11
956.3327897235318
 21
59.54046854388043
 31
0.0
  0
LINE
  5
1BB06
330
1BB02
100
AcDbEntity
  8
DIM
 62
     1
370
    -2
100
AcDbLine
 10
954.3327897235316
 20
79.04047854388045
 30
0.0
 11
954.3327897235316
 21
75.30475925816617
 31
0.0
  0
LINE
  5
1BB07
330
1BB02
100
AcDbEntity
  8
DIM
 62
     1
370
    -2
100
AcDbLine
 10
954.3327897235316
 20
62.54046854388043
 30
0.0
 11
954.3327897235316
 21
66.27618782959473
 31
0.0
  0
SOLID
  5
1BB08
330
1BB02
100
AcDbEntity
  8
DIM
 62
     1
100
AcDbTrace
 10
953.8327897235316
 20
79.04047854388045
 30
0.0
 11
954.8327897235315
 21
79.04047854388045
 31
0.0
 12
954.3327897235316
 22
82.04047854388045
 32
0.0
 13
954.3327897235316
 23
82.04047854388045
 33
0.0
  0
SOLID
  5
1BB09
330
1BB02
100
AcDbEntity
  8
DIM
 62
     1
100
AcDbTrace
 10
953.8327897235316
 20
62.54046854388043
 30
0.0
 11
954.8327897235315
 21
62.54046854388043
 31
0.0
 12
954.3327897235316
 22
59.54046854388043
 32
0.0
 13
954.3327897235316
 23
59.54046854388043
 33
0.0
  0
MTEXT
  5
1BB0A
330
1BB02
100
AcDbEntity
  8
DIM
 62
     4
100
AcDbMText
 10
954.3327897235316
 20
70.79047354388061
 30
0.0
 40
3.0
 41
0.0
 46
0.0
 71
     5
 72
     1
  1
\A1;%%C4.5
 11
0.0000000000000001
 21
1.0
 31
0.0
 73
     1
 44
1.0
  0
POINT
  5
1BB0B
330
1BB02
100
AcDbEntity
  8
Defpoints
 62
     0
100
AcDbPoint
 10
934.4501833281499
 20
82.04047854388045
 30
0.0
  0
POINT
  5
1BB0C
330
1BB02
100
AcDbEntity
  8
Defpoints
 62
     0
100
AcDbPoint
 10
934.4501833281499
 20
59.54046854388045
 30
0.0
  0
POINT
  5
1BB0D
330
1BB02
100
AcDbEntity
  8
Defpoints
 62
     0
100
AcDbPoint
 10
954.3327897235316
 20
59.54046854388043
 30
0.0
  0
ENDBLK
  5
1BB0E
330
1BB02
100
AcDbEntity
  8
0
100
AcDbBlockEnd
  0
BLOCK
  5
1BB79
330
1BB78
100
AcDbEntity
  8
0
100
AcDbBlockBegin
  2
*D10
 70
     1
 10
0.0
 20
0.0
 30
0.0
  3
*D10
  1

  0
LINE
  5
1BC01
330
1BB78
100
AcDbEntity
  8
DIM
 62
     6
370
    -2
100
AcDbLine
 10
706.3969546073982
 20
259.8976961962216
 30
0.0
 11
706.3969546073982
 21
256.4413768584469
 31
0.0
  0
LINE
  5
1BC02
330
1BB78
100
AcDbEntity
  8
DIM
 62
     6
370
    -2
100
AcDbLine
 10
730.3969518073984
 20
260.7476941962216
 30
0.0
 11
730.3969518073984
 21
256.4413768584469
 31
0.0
  0
LINE
  5
1BC03
330
1BB78
100
AcDbEntity
  8
DIM
 62
     1
370
    -2
100
AcDbLine
 10
708.3969546073982
 20
257.6413768584469
 30
0.0
 11
728.3969518073985
 21
257.6413768584469
 31
0.0
  0
SOLID
  5
1BC04
330
1BB78
100
AcDbEntity
  8
DIM
 62
     1
100
AcDbTrace
 10
708.3969546073982
 20
257.9747101917801
 30
0.0
 11
708.3969546073982
 21
257.3080435251135
 31
0.0
 12
706.3969546073982
 22
257.6413768584469
 32
0.0
 13
706.3969546073982
 23
257.6413768584469
 33
0.0
  0
SOLID
  5
1BC05
330
1BB78
100
AcDbEntity
  8
DIM
 62
     1
100
AcDbTrace
 10
728.3969518073985
 20
257.9747101917801
 30
0.0
 11
728.3969518073985
 21
257.3080435251135
 31
0.0
 12
730.3969518073984
 22
257.6413768584469
 32
0.0
 13
730.3969518073984
 23
257.6413768584469
 33
0.0
  0
MTEXT
  5
1BC06
330
1BB78
100
AcDbEntity
  8
DIM
 62
     4
100
AcDbMText
 10
718.3969532073985
 20
259.6913768584469
 30
0.0
 40
2.5
 41
0.0
 46
0.0
 71
     5
 72
     1
  1
\A1;24
  7
Romans字体
 73
     1
 44
1.0
  0
POINT
  5
1BC07
330
1BB78
100
AcDbEntity
  8
Defpoints
 62
     0
100
AcDbPoint
 10
706.3969546073982
 20
260.0976961962215
 30
0.0
  0
POINT
  5
1BC08
330
1BB78
100
AcDbEntity
  8
Defpoints
 62
     0
100
AcDbPoint
 10
730.3969518073984
 20
260.9476941962216
 30
0.0
  0
POINT
  5
1BC09
330
1BB78
100
AcDbEntity
  8
Defpoints
 62
     0
100
AcDbPoint
 10
730.3969518073984
 20
257.6413768584469
 30
0.0
  0
ENDBLK
  5
1BB7A
330
1BB78
100
AcDbEntity
  8
0
100
AcDbBlockEnd
  0
BLOCK
  5
1BB90
330
1BB8F
100
AcDbEntity
  8
0
100
AcDbBlockBegin
  2
*D11
 70
     1
 10
0.0
 20
0.0
 30
0.0
  3
*D11
  1

  0
LINE
  5
1BC27
330
1BB8F
100
AcDbEntity
  8
DIM
 62
     6
370
    -2
100
AcDbLine
 10
541.5017227811862
 20
273.4386171795963
 30
0.0
 11
549.9973927102728
 21
273.4386171795963
 31
0.0
  0
LINE
  5
1BC28
330
1BB8F
100
AcDbEntity
  8
DIM
 62
     6
370
    -2
100
AcDbLine
 10
541.5017227811862
 20
268.9386151795964
 30
0.0
 11
549.9973927102728
 21
268.9386151795964
 31
0.0
  0
LINE
  5
1BC29
330
1BB8F
100
AcDbEntity
  8
DIM
 62
     1
370
    -2
100
AcDbLine
 10
548.7973927102728
 20
275.4386171795963
 30
0.0
 11
548.7973927102728
 21
277.4386171795963
 31
0.0
  0
LINE
  5
1BC2A
330
1BB8F
100
AcDbEntity
  8
DIM
 62
     1
370
    -2
100
AcDbLine
 10
548.7973927102728
 20
266.9386151795964
 30
0.0
 11
548.7973927102728
 21
257.7136151795963
 31
0.0
  0
SOLID
  5
1BC2B
330
1BB8F
100
AcDbEntity
  8
DIM
 62
     1
100
AcDbTrace
 10
548.4640593769394
 20
275.4386171795963
 30
0.0
 11
549.1307260436061
 21
275.4386171795963
 31
0.0
 12
548.7973927102728
 22
273.4386171795963
 32
0.0
 13
548.7973927102728
 23
273.4386171795963
 33
0.0
  0
SOLID
  5
1BC2C
330
1BB8F
100
AcDbEntity
  8
DIM
 62
     1
100
AcDbTrace
 10
548.4640593769394
 20
266.9386151795964
 30
0.0
 11
549.1307260436061
 21
266.9386151795964
 31
0.0
 12
548.7973927102728
 22
268.9386151795964
 32
0.0
 13
548.7973927102728
 23
268.9386151795964
 33
0.0
  0
MTEXT
  5
1BC2D
330
1BB8F
100
AcDbEntity
  8
DIM
 62
     4
100
AcDbMText
 10
546.7473927102728
 20
261.3261151795963
 30
0.0
 40
2.5
 41
0.0
 46
0.0
 71
     5
 72
     1
  1
\A1;%%C4.5
  7
Romans字体
 11
0.0000000000000001
 21
1.0
 31
0.0
 73
     1
 44
1.0
  0
POINT
  5
1BC2E
330
1BB8F
100
AcDbEntity
  8
Defpoints
 62
     0
100
AcDbPoint
 10
541.3017227811861
 20
273.4386171795963
 30
0.0
  0
POINT
  5
1BC2F
330
1BB8F
100
AcDbEntity
  8
Defpoints
 62
     0
100
AcDbPoint
 10
541.3017227811861
 20
268.9386151795964
 30
0.0
  0
POINT
  5
1BC30
330
1BB8F
100
AcDbEntity
  8
Defpoints
 62
     0
100
AcDbPoint
 10
548.7973927102728
 20
268.9386151795964
 30
0.0
  0
ENDBLK
  5
1BB91
330
1BB8F
100
AcDbEntity
  8
0
100
AcDbBlockEnd
  0
BLOCK
  5
1BBD9
330
1BBD8
100
AcDbEntity
  8
0
100
AcDbBlockBegin
  2
*D12
 70
     1
 10
0.0
 20
0.0
 30
0.0
  3
*D12
  1

  0
LINE
  5
1BC63
330
1BBD8
100
AcDbEntity
  8
DIM
 62
     6
370
    -2
100
AcDbLine
 10
519.7017275811863
 20
267.7104575107089
 30
0.0
 11
519.7017275811863
 21
261.6344145625238
 31
0.0
  0
LINE
  5
1BC64
330
1BBD8
100
AcDbEntity
  8
DIM
 62
     6
370
    -2
100
AcDbLine
 10
543.7017247811864
 20
270.2680438082235
 30
0.0
 11
543.7017247811864
 21
261.6344145625238
 31
0.0
  0
LINE
  5
1BC65
330
1BBD8
100
AcDbEntity
  8
DIM
 62
     1
370
    -2
100
AcDbLine
 10
521.7017275811863
 20
262.8344145625238
 30
0.0
 11
541.7017247811863
 21
262.8344145625238
 31
0.0
  0
SOLID
  5
1BC66
330
1BBD8
100
AcDbEntity
  8
DIM
 62
     1
100
AcDbTrace
 10
521.7017275811863
 20
263.1677478958571
 30
0.0
 11
521.7017275811863
 21
262.5010812291904
 31
0.0
 12
519.7017275811863
 22
262.8344145625238
 32
0.0
 13
519.7017275811863
 23
262.8344145625238
 33
0.0
  0
SOLID
  5
1BC67
330
1BBD8
100
AcDbEntity
  8
DIM
 62
     1
100
AcDbTrace
 10
541.7017247811863
 20
263.1677478958571
 30
0.0
 11
541.7017247811863
 21
262.5010812291904
 31
0.0
 12
543.7017247811864
 22
262.8344145625238
 32
0.0
 13
543.7017247811864
 23
262.8344145625238
 33
0.0
  0
MTEXT
  5
1BC68
330
1BBD8
100
AcDbEntity
  8
DIM
 62
     4
100
AcDbMText
 10
531.7017261811862
 20
264.8844145625238
 30
0.0
 40
2.5
 41
0.0
 46
0.0
 71
     5
 72
     1
  1
\A1;24
  7
Romans字体
 73
     1
 44
1.0
  0
POINT
  5
1BC69
330
1BBD8
100
AcDbEntity
  8
Defpoints
 62
     0
100
AcDbPoint
 10
519.7017275811863
 20
267.9104575107089
 30
0.0
  0
POINT
  5
1BC6A
330
1BBD8
100
AcDbEntity
  8
Defpoints
 62
     0
100
AcDbPoint
 10
543.7017247811864
 20
270.4680438082235
 30
0.0
  0
POINT
  5
1BC6B
330
1BBD8
100
AcDbEntity
  8
Defpoints
 62
     0
100
AcDbPoint
 10
543.7017247811864
 20
262.8344145625238
 30
0.0
  0
ENDBLK
  5
1BBDA
330
1BBD8
100
AcDbEntity
  8
0
100
AcDbBlockEnd
  0
BLOCK
  5
1BD9E
330
1BD9D
100
AcDbEntity
  8
0
100
AcDbBlockBegin
  2
_FILLED
 70
     0
 10
0.0
 20
0.0
 30
0.0
  3
_FILLED
  1

  0
SOLID
  5
1BD9F
330
1BD9D
100
AcDbEntity
  8
0
  6
ByBlock
 62
     0
100
AcDbTrace
 10
0.0
 20
0.0
 30
0.0
 11
-1.0
 21
0.2
 31
0.0
 12
-1.0
 22
-0.2
 32
0.0
 13
-1.0
 23
-0.2
 33
0.0
  0
ENDBLK
  5
1BDA0
330
1BD9D
100
AcDbEntity
  8
0
  6
ByBlock
 62
     0
100
AcDbBlockEnd
  0
BLOCK
  5
1BDA2
330
1BDA1
100
AcDbEntity
  8
0
100
AcDbBlockBegin
  2
*D14
 70
     1
 10
0.0
 20
0.0
 30
0.0
  3
*D14
  1

  0
LINE
  5
1BDA3
330
1BDA1
100
AcDbEntity
  8
DIM
 62
     6
370
    -2
100
AcDbLine
 10
5171.326809781146
 20
-2340.562492571223
 30
0.0
 11
5169.311724710996
 21
-2340.562492571223
 31
0.0
  0
LINE
  5
1BDA4
330
1BDA1
100
AcDbEntity
  8
DIM
 62
     6
370
    -2
100
AcDbLine
 10
5171.326809781146
 20
-2342.762492571222
 30
0.0
 11
5169.311724710996
 21
-2342.762492571222
 31
0.0
  0
LINE
  5
1BDA5
330
1BDA1
100
AcDbEntity
  8
DIM
 62
     1
370
    -2
100
AcDbLine
 10
5170.111724710996
 20
-2339.062492571223
 30
0.0
 11
5170.111724710996
 21
-2337.562492571223
 31
0.0
  0
LINE
  5
1BDA6
330
1BDA1
100
AcDbEntity
  8
DIM
 62
     1
370
    -2
100
AcDbLine
 10
5170.111724710996
 20
-2344.262492571222
 30
0.0
 11
5170.111724710996
 21
-2350.261681760411
 31
0.0
  0
SOLID
  5
1BDA7
330
1BDA1
100
AcDbEntity
  8
DIM
 62
     1
100
AcDbTrace
 10
5169.861724710996
 20
-2339.062492571223
 30
0.0
 11
5170.361724710996
 21
-2339.062492571223
 31
0.0
 12
5170.111724710996
 22
-2340.562492571223
 32
0.0
 13
5170.111724710996
 23
-2340.562492571223
 33
0.0
  0
SOLID
  5
1BDA8
330
1BDA1
100
AcDbEntity
  8
DIM
 62
     1
100
AcDbTrace
 10
5169.861724710996
 20
-2344.262492571222
 30
0.0
 11
5170.361724710996
 21
-2344.262492571222
 31
0.0
 12
5170.111724710996
 22
-2342.762492571222
 32
0.0
 13
5170.111724710996
 23
-2342.762492571222
 33
0.0
  0
MTEXT
  5
1BDA9
330
1BDA1
100
AcDbEntity
  8
DIM
 62
     4
100
AcDbMText
 10
5168.311724710996
 20
-2347.749789868518
 30
0.0
 40
1.5
 41
0.0
 46
0.0
 71
     3
 72
     1
  1
\A1;2.2
 11
0.0000000000000001
 21
1.0
 31
0.0
 73
     1
 44
1.0
  0
POINT
  5
1BDAA
330
1BDA1
100
AcDbEntity
  8
Defpoints
 62
     0
100
AcDbPoint
 10
5171.826809781146
 20
-2340.562492571223
 30
0.0
  0
POINT
  5
1BDAB
330
1BDA1
100
AcDbEntity
  8
Defpoints
 62
     0
100
AcDbPoint
 10
5171.826809781146
 20
-2342.762492571222
 30
0.0
  0
POINT
  5
1BDAC
330
1BDA1
100
AcDbEntity
  8
Defpoints
 62
     0
100
AcDbPoint
 10
5170.111724710996
 20
-2342.762492571222
 30
0.0
  0
ENDBLK
  5
1BDAD
330
1BDA1
100
AcDbEntity
  8
0
100
AcDbBlockEnd
  0
BLOCK
  5
1BDAF
330
1BDAE
100
AcDbEntity
  8
0
100
AcDbBlockBegin
  2
*D15
 70
     1
 10
0.0
 20
0.0
 30
0.0
  3
*D15
  1

  0
LINE
  5
1BDB0
330
1BDAE
100
AcDbEntity
  8
DIM
 62
     6
370
    -2
100
AcDbLine
 10
5157.588379356274
 20
-2332.064146402121
 30
0.0
 11
5154.534572508243
 21
-2332.064146402121
 31
0.0
  0
LINE
  5
1BDB1
330
1BDAE
100
AcDbEntity
  8
DIM
 62
     6
370
    -2
100
AcDbLine
 10
5157.588379356274
 20
-2327.764146402121
 30
0.0
 11
5154.534572508243
 21
-2327.764146402121
 31
0.0
  0
LINE
  5
1BDB2
330
1BDAE
100
AcDbEntity
  8
DIM
 62
     1
370
    -2
100
AcDbLine
 10
5155.334572508243
 20
-2330.564146402121
 30
0.0
 11
5155.334572508243
 21
-2329.264146402121
 31
0.0
  0
SOLID
  5
1BDB3
330
1BDAE
100
AcDbEntity
  8
DIM
 62
     1
100
AcDbTrace
 10
5155.084572508243
 20
-2330.564146402121
 30
0.0
 11
5155.584572508242
 21
-2330.564146402121
 31
0.0
 12
5155.334572508243
 22
-2332.064146402121
 32
0.0
 13
5155.334572508243
 23
-2332.064146402121
 33
0.0
  0
SOLID
  5
1BDB4
330
1BDAE
100
AcDbEntity
  8
DIM
 62
     1
100
AcDbTrace
 10
5155.084572508243
 20
-2329.264146402121
 30
0.0
 11
5155.584572508242
 21
-2329.264146402121
 31
0.0
 12
5155.334572508243
 22
-2327.764146402121
 32
0.0
 13
5155.334572508243
 23
-2327.764146402121
 33
0.0
  0
MTEXT
  5
1BDB5
330
1BDAE
100
AcDbEntity
  8
DIM
 62
     4
100
AcDbMText
 10
5154.284572508243
 20
-2329.914146402121
 30
0.0
 40
1.5
 41
0.0
 46
0.0
 71
     5
 72
     1
  1
\A1;4.3
 11
0.0000000000000001
 21
1.0
 31
0.0
 73
     1
 44
1.0
  0
POINT
  5
1BDB6
330
1BDAE
100
AcDbEntity
  8
Defpoints
 62
     0
100
AcDbPoint
 10
5158.088379356271
 20
-2332.064146402121
 30
0.0
  0
POINT
  5
1BDB7
330
1BDAE
100
AcDbEntity
  8
Defpoints
 62
     0
100
AcDbPoint
 10
5158.088379356271
 20
-2327.764146402121
 30
0.0
  0
POINT
  5
1BDB8
330
1BDAE
100
AcDbEntity
  8
Defpoints
 62
     0
100
AcDbPoint
 10
5155.334572508243
 20
-2327.764146402121
 30
0.0
  0
ENDBLK
  5
1BDB9
330
1BDAE
100
AcDbEntity
  8
0
100
AcDbBlockEnd
  0
BLOCK
  5
1BDBB
330
1BDBA
100
AcDbEntity
  8
0
100
AcDbBlockBegin
  2
*D16
 70
     1
 10
0.0
 20
0.0
 30
0.0
  3
*D16
  1

  0
LINE
  5
1BDBC
330
1BDBA
100
AcDbEntity
  8
DIM
 62
     6
370
    -2
100
AcDbLine
 10
5177.60995456329
 20
-2332.314146402121
 30
0.0
 11
5177.60995456329
 21
-2335.834810791035
 31
0.0
  0
LINE
  5
1BDBD
330
1BDBA
100
AcDbEntity
  8
DIM
 62
     6
370
    -2
100
AcDbLine
 10
5185.555758552445
 20
-2332.564146402121
 30
0.0
 11
5185.555758552445
 21
-2335.834810791035
 31
0.0
  0
LINE
  5
1BDBE
330
1BDBA
100
AcDbEntity
  8
DIM
 62
     1
370
    -2
100
AcDbLine
 10
5179.109954563291
 20
-2335.034810791035
 30
0.0
 11
5184.055758552445
 21
-2335.034810791035
 31
0.0
  0
SOLID
  5
1BDBF
330
1BDBA
100
AcDbEntity
  8
DIM
 62
     1
100
AcDbTrace
 10
5179.109954563291
 20
-2334.784810791035
 30
0.0
 11
5179.109954563291
 21
-2335.284810791035
 31
0.0
 12
5177.60995456329
 22
-2335.034810791035
 32
0.0
 13
5177.60995456329
 23
-2335.034810791035
 33
0.0
  0
SOLID
  5
1BDC0
330
1BDBA
100
AcDbEntity
  8
DIM
 62
     1
100
AcDbTrace
 10
5184.055758552445
 20
-2334.784810791035
 30
0.0
 11
5184.055758552445
 21
-2335.284810791035
 31
0.0
 12
5185.555758552445
 22
-2335.034810791035
 32
0.0
 13
5185.555758552445
 23
-2335.034810791035
 33
0.0
  0
MTEXT
  5
1BDC1
330
1BDBA
100
AcDbEntity
  8
DIM
 62
     4
100
AcDbMText
 10
5181.582856557866
 20
-2333.984810791035
 30
0.0
 40
1.5
 41
0.0
 46
0.0
 71
     5
 72
     1
  1
\A1;7.9
 73
     1
 44
1.0
  0
POINT
  5
1BDC2
330
1BDBA
100
AcDbEntity
  8
Defpoints
 62
     0
100
AcDbPoint
 10
5177.60995456329
 20
-2331.814146402121
 30
0.0
  0
POINT
  5
1BDC3
330
1BDBA
100
AcDbEntity
  8
Defpoints
 62
     0
100
AcDbPoint
 10
5185.555758552445
 20
-2332.064146402121
 30
0.0
  0
POINT
  5
1BDC4
330
1BDBA
100
AcDbEntity
  8
Defpoints
 62
     0
100
AcDbPoint
 10
5185.555758552445
 20
-2335.034810791035
 30
0.0
  0
ENDBLK
  5
1BDC5
330
1BDBA
100
AcDbEntity
  8
0
100
AcDbBlockEnd
  0
BLOCK
  5
1BDC7
330
1BDC6
100
AcDbEntity
  8
0
100
AcDbBlockBegin
  2
*D17
 70
     1
 10
0.0
 20
0.0
 30
0.0
  3
*D17
  1

  0
LINE
  5
1BDC8
330
1BDC6
100
AcDbEntity
  8
DIM
 62
     6
370
    -2
100
AcDbLine
 10
5171.705758552445
 20
-2327.938110959221
 30
0.0
 11
5171.705758552445
 21
-2323.349803284132
 31
0.0
  0
LINE
  5
1BDC9
330
1BDC6
100
AcDbEntity
  8
DIM
 62
     6
370
    -2
100
AcDbLine
 10
5201.705758552446
 20
-2328.264146402121
 30
0.0
 11
5201.705758552446
 21
-2323.349803284132
 31
0.0
  0
LINE
  5
1BDCA
330
1BDC6
100
AcDbEntity
  8
DIM
 62
     1
370
    -2
100
AcDbLine
 10
5173.205758552445
 20
-2324.149803284132
 30
0.0
 11
5200.205758552446
 21
-2324.149803284132
 31
0.0
  0
SOLID
  5
1BDCB
330
1BDC6
100
AcDbEntity
  8
DIM
 62
     1
100
AcDbTrace
 10
5173.205758552445
 20
-2323.899803284132
 30
0.0
 11
5173.205758552445
 21
-2324.399803284132
 31
0.0
 12
5171.705758552445
 22
-2324.149803284132
 32
0.0
 13
5171.705758552445
 23
-2324.149803284132
 33
0.0
  0
SOLID
  5
1BDCC
330
1BDC6
100
AcDbEntity
  8
DIM
 62
     1
100
AcDbTrace
 10
5200.205758552446
 20
-2323.899803284132
 30
0.0
 11
5200.205758552446
 21
-2324.399803284132
 31
0.0
 12
5201.705758552446
 22
-2324.149803284132
 32
0.0
 13
5201.705758552446
 23
-2324.149803284132
 33
0.0
  0
MTEXT
  5
1BDCD
330
1BDC6
100
AcDbEntity
  8
DIM
 62
     4
100
AcDbMText
 10
5186.705758552445
 20
-2323.099803284132
 30
0.0
 40
1.5
 41
0.0
 46
0.0
 71
     5
 72
     1
  1
\A1;30
 73
     1
 44
1.0
  0
POINT
  5
1BDCE
330
1BDC6
100
AcDbEntity
  8
Defpoints
 62
     0
100
AcDbPoint
 10
5171.705758552445
 20
-2328.438110959221
 30
0.0
  0
POINT
  5
1BDCF
330
1BDC6
100
AcDbEntity
  8
Defpoints
 62
     0
100
AcDbPoint
 10
5201.705758552446
 20
-2328.764146402121
 30
0.0
  0
POINT
  5
1BDD0
330
1BDC6
100
AcDbEntity
  8
Defpoints
 62
     0
100
AcDbPoint
 10
5201.705758552446
 20
-2324.149803284132
 30
0.0
  0
ENDBLK
  5
1BDD1
330
1BDC6
100
AcDbEntity
  8
0
100
AcDbBlockEnd
  0
BLOCK
  5
1BDD3
330
1BDD2
100
AcDbEntity
  8
0
100
AcDbBlockBegin
  2
*D18
 70
     1
 10
0.0
 20
0.0
 30
0.0
  3
*D18
  1

  0
LINE
  5
1BDD4
330
1BDD2
100
AcDbEntity
  8
DIM
 62
     6
370
    -2
100
AcDbLine
 10
5201.705758625719
 20
-2327.764146402121
 30
0.0
 11
5205.991229579799
 21
-2327.764146402121
 31
0.0
  0
LINE
  5
1BDD5
330
1BDD2
100
AcDbEntity
  8
DIM
 62
     6
370
    -2
100
AcDbLine
 10
5201.705758310646
 20
-2329.914146402122
 30
0.0
 11
5205.991229579799
 21
-2329.914146402122
 31
0.0
  0
LINE
  5
1BDD6
330
1BDD2
100
AcDbEntity
  8
DIM
 62
     1
370
    -2
100
AcDbLine
 10
5205.191229579799
 20
-2326.264146402121
 30
0.0
 11
5205.191229579799
 21
-2324.764146402122
 31
0.0
  0
LINE
  5
1BDD7
330
1BDD2
100
AcDbEntity
  8
DIM
 62
     1
370
    -2
100
AcDbLine
 10
5205.191229579799
 20
-2331.414146402122
 30
0.0
 11
5205.191229579799
 21
-2337.66308559131
 31
0.0
  0
SOLID
  5
1BDD8
330
1BDD2
100
AcDbEntity
  8
DIM
 62
     1
100
AcDbTrace
 10
5204.941229579799
 20
-2326.264146402121
 30
0.0
 11
5205.4412295798
 21
-2326.264146402121
 31
0.0
 12
5205.191229579799
 22
-2327.764146402121
 32
0.0
 13
5205.191229579799
 23
-2327.764146402121
 33
0.0
  0
SOLID
  5
1BDD9
330
1BDD2
100
AcDbEntity
  8
DIM
 62
     1
100
AcDbTrace
 10
5204.941229579799
 20
-2331.414146402122
 30
0.0
 11
5205.4412295798
 21
-2331.414146402122
 31
0.0
 12
5205.191229579799
 22
-2329.914146402122
 32
0.0
 13
5205.191229579799
 23
-2329.914146402122
 33
0.0
  0
MTEXT
  5
1BDDA
330
1BDD2
100
AcDbEntity
  8
DIM
 62
     4
100
AcDbMText
 10
5204.141229579799
 20
-2336.257139645363
 30
0.0
 40
1.5
 41
0.0
 46
0.0
 71
     5
 72
     1
  1
\A1;2.2
 11
0.0000000000000001
 21
1.0
 31
0.0
 73
     1
 44
1.0
  0
POINT
  5
1BDDB
330
1BDD2
100
AcDbEntity
  8
Defpoints
 62
     0
100
AcDbPoint
 10
5201.205758625718
 20
-2327.764146402121
 30
0.0
  0
POINT
  5
1BDDC
330
1BDD2
100
AcDbEntity
  8
Defpoints
 62
     0
100
AcDbPoint
 10
5201.205758310646
 20
-2329.914146402122
 30
0.0
  0
POINT
  5
1BDDD
330
1BDD2
100
AcDbEntity
  8
Defpoints
 62
     0
100
AcDbPoint
 10
5205.191229579799
 20
-2329.914146402122
 30
0.0
  0
ENDBLK
  5
1BDDE
330
1BDD2
100
AcDbEntity
  8
0
100
AcDbBlockEnd
  0
BLOCK
  5
1BDE0
330
1BDDF
100
AcDbEntity
  8
0
100
AcDbBlockBegin
  2
*D19
 70
     1
 10
0.0
 20
0.0
 30
0.0
  3
*D19
  1

  0
LINE
  5
1BDE1
330
1BDDF
100
AcDbEntity
  8
DIM
 62
     6
370
    -2
100
AcDbLine
 10
5157.08837935627
 20
-2331.564146402121
 30
0.0
 11
5157.08837935627
 21
-2334.750081225716
 31
0.0
  0
LINE
  5
1BDE2
330
1BDDF
100
AcDbEntity
  8
DIM
 62
     6
370
    -2
100
AcDbLine
 10
5161.388379356271
 20
-2331.564146402121
 30
0.0
 11
5161.388379356271
 21
-2334.750081225716
 31
0.0
  0
LINE
  5
1BDE3
330
1BDDF
100
AcDbEntity
  8
DIM
 62
     1
370
    -2
100
AcDbLine
 10
5158.58837935627
 20
-2333.950081225716
 30
0.0
 11
5159.888379356271
 21
-2333.950081225716
 31
0.0
  0
SOLID
  5
1BDE4
330
1BDDF
100
AcDbEntity
  8
DIM
 62
     1
100
AcDbTrace
 10
5158.58837935627
 20
-2333.700081225716
 30
0.0
 11
5158.58837935627
 21
-2334.200081225716
 31
0.0
 12
5157.08837935627
 22
-2333.950081225716
 32
0.0
 13
5157.08837935627
 23
-2333.950081225716
 33
0.0
  0
SOLID
  5
1BDE5
330
1BDDF
100
AcDbEntity
  8
DIM
 62
     1
100
AcDbTrace
 10
5159.888379356271
 20
-2333.700081225716
 30
0.0
 11
5159.888379356271
 21
-2334.200081225716
 31
0.0
 12
5161.388379356271
 22
-2333.950081225716
 32
0.0
 13
5161.388379356271
 23
-2333.950081225716
 33
0.0
  0
MTEXT
  5
1BDE6
330
1BDDF
100
AcDbEntity
  8
DIM
 62
     4
100
AcDbMText
 10
5159.238379356271
 20
-2332.900081225716
 30
0.0
 40
1.5
 41
0.0
 46
0.0
 71
     5
 72
     1
  1
\A1;4.3
 73
     1
 44
1.0
  0
POINT
  5
1BDE7
330
1BDDF
100
AcDbEntity
  8
Defpoints
 62
     0
100
AcDbPoint
 10
5157.08837935627
 20
-2331.064146402121
 30
0.0
  0
POINT
  5
1BDE8
330
1BDDF
100
AcDbEntity
  8
Defpoints
 62
     0
100
AcDbPoint
 10
5161.388379356271
 20
-2331.064146402121
 30
0.0
  0
POINT
  5
1BDE9
330
1BDDF
100
AcDbEntity
  8
Defpoints
 62
     0
100
AcDbPoint
 10
5161.388379356271
 20
-2333.950081225716
 30
0.0
  0
ENDBLK
  5
1BDEA
330
1BDDF
100
AcDbEntity
  8
0
100
AcDbBlockEnd
  0
BLOCK
  5
1BF90
330
1BF8F
100
AcDbEntity
  8
0
100
AcDbBlockBegin
  2
*D20
 70
     1
 10
0.0
 20
0.0
 30
0.0
  3
*D20
  1

  0
LINE
  5
1C348
330
1BF8F
100
AcDbEntity
  8
DIM
 62
     6
370
    -2
100
AcDbLine
 10
520.8819284626501
 20
256.5654892601662
 30
0.0
 11
518.166843392501
 21
256.5654892601662
 31
0.0
  0
LINE
  5
1C349
330
1BF8F
100
AcDbEntity
  8
DIM
 62
     6
370
    -2
100
AcDbLine
 10
520.8819284626501
 20
254.3654892601664
 30
0.0
 11
518.1668433925009
 21
254.3654892601664
 31
0.0
  0
LINE
  5
1C34A
330
1BF8F
100
AcDbEntity
  8
DIM
 62
     1
370
    -2
100
AcDbLine
 10
519.3668433925011
 20
258.0654892601662
 30
0.0
 11
519.3668433925011
 21
259.5654892601662
 31
0.0
  0
LINE
  5
1C34B
330
1BF8F
100
AcDbEntity
  8
DIM
 62
     1
370
    -2
100
AcDbLine
 10
519.366843392501
 20
252.8654892601664
 30
0.0
 11
519.366843392501
 21
245.2297749744522
 31
0.0
  0
SOLID
  5
1C34C
330
1BF8F
100
AcDbEntity
  8
DIM
 62
     1
100
AcDbTrace
 10
519.116843392501
 20
258.0654892601662
 30
0.0
 11
519.616843392501
 21
258.0654892601662
 31
0.0
 12
519.3668433925011
 22
256.5654892601662
 32
0.0
 13
519.3668433925011
 23
256.5654892601662
 33
0.0
  0
SOLID
  5
1C34D
330
1BF8F
100
AcDbEntity
  8
DIM
 62
     1
100
AcDbTrace
 10
519.1168433925009
 20
252.8654892601664
 30
0.0
 11
519.6168433925009
 21
252.8654892601664
 31
0.0
 12
519.366843392501
 22
254.3654892601664
 32
0.0
 13
519.366843392501
 23
254.3654892601664
 33
0.0
  0
MTEXT
  5
1C34E
330
1BF8F
100
AcDbEntity
  8
DIM
 62
     4
370
     0
100
AcDbMText
 10
516.566843392501
 20
249.1726321173094
 30
0.0
 40
2.0
 41
0.0
 46
0.0
 71
     3
 72
     1
  1
\A1;2.2
  7
Romans字体
 11
0.0000000000000001
 21
1.0
 31
0.0
 73
     1
 44
1.0
  0
POINT
  5
1C34F
330
1BF8F
100
AcDbEntity
  8
Defpoints
 62
     0
100
AcDbPoint
 10
521.0819284626501
 20
256.5654892601662
 30
0.0
  0
POINT
  5
1C350
330
1BF8F
100
AcDbEntity
  8
Defpoints
 62
     0
100
AcDbPoint
 10
521.0819284626501
 20
254.3654892601664
 30
0.0
  0
POINT
  5
1C351
330
1BF8F
100
AcDbEntity
  8
Defpoints
 62
     0
100
AcDbPoint
 10
519.366843392501
 20
254.3654892601664
 30
0.0
  0
ENDBLK
  5
1BF91
330
1BF8F
100
AcDbEntity
  8
0
100
AcDbBlockEnd
  0
BLOCK
  5
1BF9D
330
1BF9C
100
AcDbEntity
  8
0
100
AcDbBlockBegin
  2
*D21
 70
     1
 10
0.0
 20
0.0
 30
0.0
  3
*D21
  1

  0
LINE
  5
1C33F
330
1BF9C
100
AcDbEntity
  8
DIM
 62
     6
370
    -2
100
AcDbLine
 10
520.9608772339501
 20
279.3184514325781
 30
0.0
 11
520.9608772339501
 21
284.6067591076671
 31
0.0
  0
LINE
  5
1C340
330
1BF9C
100
AcDbEntity
  8
DIM
 62
     6
370
    -2
100
AcDbLine
 10
550.9608772339499
 20
278.9924159896782
 30
0.0
 11
550.9608772339499
 21
284.6067591076671
 31
0.0
  0
LINE
  5
1C341
330
1BF9C
100
AcDbEntity
  8
DIM
 62
     1
370
    -2
100
AcDbLine
 10
522.46087723395
 20
283.4067591076671
 30
0.0
 11
549.46087723395
 21
283.4067591076671
 31
0.0
  0
SOLID
  5
1C342
330
1BF9C
100
AcDbEntity
  8
DIM
 62
     1
100
AcDbTrace
 10
522.46087723395
 20
283.6567591076672
 30
0.0
 11
522.46087723395
 21
283.1567591076671
 31
0.0
 12
520.9608772339501
 22
283.4067591076671
 32
0.0
 13
520.9608772339501
 23
283.4067591076671
 33
0.0
  0
SOLID
  5
1C343
330
1BF9C
100
AcDbEntity
  8
DIM
 62
     1
100
AcDbTrace
 10
549.46087723395
 20
283.6567591076672
 30
0.0
 11
549.46087723395
 21
283.1567591076671
 31
0.0
 12
550.9608772339499
 22
283.4067591076671
 32
0.0
 13
550.9608772339499
 23
283.4067591076671
 33
0.0
  0
MTEXT
  5
1C344
330
1BF9C
100
AcDbEntity
  8
DIM
 62
     4
370
     0
100
AcDbMText
 10
535.9608772339499
 20
285.2067591076671
 30
0.0
 40
2.0
 41
0.0
 46
0.0
 71
     5
 72
     1
  1
\A1;30
  7
Romans字体
 73
     1
 44
1.0
  0
POINT
  5
1C345
330
1BF9C
100
AcDbEntity
  8
Defpoints
 62
     0
100
AcDbPoint
 10
520.9608772339501
 20
279.1184514325781
 30
0.0
  0
POINT
  5
1C346
330
1BF9C
100
AcDbEntity
  8
Defpoints
 62
     0
100
AcDbPoint
 10
550.9608772339499
 20
278.7924159896782
 30
0.0
  0
POINT
  5
1C347
330
1BF9C
100
AcDbEntity
  8
Defpoints
 62
     0
100
AcDbPoint
 10
550.9608772339499
 20
283.4067591076671
 30
0.0
  0
ENDBLK
  5
1BF9E
330
1BF9C
100
AcDbEntity
  8
0
100
AcDbBlockEnd
  0
BLOCK
  5
1BFB3
330
1BFB2
100
AcDbEntity
  8
0
100
AcDbBlockBegin
  2
*D22
 70
     1
 10
0.0
 20
0.0
 30
0.0
  3
*D22
  1

  0
LINE
  5
1C0C2
330
1BFB2
100
AcDbEntity
  8
DIM
 62
     6
370
    -2
100
AcDbLine
 10
550.6608773072229
 20
279.7924159896782
 30
0.0
 11
555.6463482613044
 21
279.7924159896782
 31
0.0
  0
LINE
  5
1C0C3
330
1BFB2
100
AcDbEntity
  8
DIM
 62
     6
370
    -2
100
AcDbLine
 10
550.6608769921503
 20
277.6424159896781
 30
0.0
 11
555.6463482613044
 21
277.6424159896781
 31
0.0
  0
LINE
  5
1C0C4
330
1BFB2
100
AcDbEntity
  8
DIM
 62
     1
370
    -2
100
AcDbLine
 10
554.4463482613044
 20
281.2924159896782
 30
0.0
 11
554.4463482613044
 21
282.7924159896782
 31
0.0
  0
LINE
  5
1C0C5
330
1BFB2
100
AcDbEntity
  8
DIM
 62
     1
370
    -2
100
AcDbLine
 10
554.4463482613044
 20
276.1424159896781
 30
0.0
 11
554.4463482613044
 21
268.5067017039639
 31
0.0
  0
SOLID
  5
1C0C6
330
1BFB2
100
AcDbEntity
  8
DIM
 62
     1
100
AcDbTrace
 10
554.1963482613043
 20
281.2924159896782
 30
0.0
 11
554.6963482613043
 21
281.2924159896782
 31
0.0
 12
554.4463482613044
 22
279.7924159896782
 32
0.0
 13
554.4463482613044
 23
279.7924159896782
 33
0.0
  0
SOLID
  5
1C0C7
330
1BFB2
100
AcDbEntity
  8
DIM
 62
     1
100
AcDbTrace
 10
554.1963482613043
 20
276.1424159896781
 30
0.0
 11
554.6963482613043
 21
276.1424159896781
 31
0.0
 12
554.4463482613044
 22
277.6424159896781
 32
0.0
 13
554.4463482613044
 23
277.6424159896781
 33
0.0
  0
MTEXT
  5
1C0C8
330
1BFB2
100
AcDbEntity
  8
DIM
 62
     4
100
AcDbMText
 10
552.6463482613043
 20
270.8781302753926
 30
0.0
 40
2.0
 41
0.0
 46
0.0
 71
     5
 72
     1
  1
\A1;2.2
  7
Romans字体
 11
0.0000000000000001
 21
1.0
 31
0.0
 73
     1
 44
1.0
  0
POINT
  5
1C0C9
330
1BFB2
100
AcDbEntity
  8
Defpoints
 62
     0
100
AcDbPoint
 10
550.4608773072228
 20
279.7924159896782
 30
0.0
  0
POINT
  5
1C0CA
330
1BFB2
100
AcDbEntity
  8
Defpoints
 62
     0
100
AcDbPoint
 10
550.4608769921502
 20
277.6424159896781
 30
0.0
  0
POINT
  5
1C0CB
330
1BFB2
100
AcDbEntity
  8
Defpoints
 62
     0
100
AcDbPoint
 10
554.4463482613044
 20
277.6424159896781
 30
0.0
  0
ENDBLK
  5
1BFB4
330
1BFB2
100
AcDbEntity
  8
0
100
AcDbBlockEnd
  0
BLOCK
  5
1BFC0
330
1BFBF
100
AcDbEntity
  8
0
100
AcDbBlockBegin
  2
*D23
 70
     1
 10
0.0
 20
0.0
 30
0.0
  3
*D23
  1

  0
LINE
  5
1C335
330
1BFBF
100
AcDbEntity
  8
DIM
 62
     6
370
    -2
100
AcDbLine
 10
507.1434980377766
 20
275.492415989678
 30
0.0
 11
503.3896911897476
 21
275.492415989678
 31
0.0
  0
LINE
  5
1C336
330
1BFBF
100
AcDbEntity
  8
DIM
 62
     6
370
    -2
100
AcDbLine
 10
507.1434980377766
 20
279.7924159896782
 30
0.0
 11
503.3896911897476
 21
279.7924159896782
 31
0.0
  0
LINE
  5
1C337
330
1BFBF
100
AcDbEntity
  8
DIM
 62
     1
370
    -2
100
AcDbLine
 10
504.5896911897476
 20
273.992415989678
 30
0.0
 11
504.5896911897476
 21
272.492415989678
 31
0.0
  0
LINE
  5
1C338
330
1BFBF
100
AcDbEntity
  8
DIM
 62
     1
370
    -2
100
AcDbLine
 10
504.5896911897476
 20
281.2924159896782
 30
0.0
 11
504.5896911897476
 21
287.5352731325353
 31
0.0
  0
SOLID
  5
1C339
330
1BFBF
100
AcDbEntity
  8
DIM
 62
     1
100
AcDbTrace
 10
504.3396911897476
 20
273.992415989678
 30
0.0
 11
504.8396911897476
 21
273.992415989678
 31
0.0
 12
504.5896911897476
 22
275.492415989678
 32
0.0
 13
504.5896911897476
 23
275.492415989678
 33
0.0
  0
SOLID
  5
1C33A
330
1BFBF
100
AcDbEntity
  8
DIM
 62
     1
100
AcDbTrace
 10
504.3396911897476
 20
281.2924159896782
 30
0.0
 11
504.8396911897476
 21
281.2924159896782
 31
0.0
 12
504.5896911897476
 22
279.7924159896782
 32
0.0
 13
504.5896911897476
 23
279.7924159896782
 33
0.0
  0
MTEXT
  5
1C33B
330
1BFBF
100
AcDbEntity
  8
DIM
 62
     4
370
     0
100
AcDbMText
 10
502.7896911897475
 20
285.1638445611068
 30
0.0
 40
2.0
 41
0.0
 46
0.0
 71
     5
 72
     1
  1
\A1;4.3
  7
Romans字体
 11
0.0000000000000001
 21
1.0
 31
0.0
 73
     1
 44
1.0
  0
POINT
  5
1C33C
330
1BFBF
100
AcDbEntity
  8
Defpoints
 62
     0
100
AcDbPoint
 10
507.3434980377767
 20
275.492415989678
 30
0.0
  0
POINT
  5
1C33D
330
1BFBF
100
AcDbEntity
  8
Defpoints
 62
     0
100
AcDbPoint
 10
507.3434980377767
 20
279.7924159896782
 30
0.0
  0
POINT
  5
1C33E
330
1BFBF
100
AcDbEntity
  8
Defpoints
 62
     0
100
AcDbPoint
 10
504.5896911897476
 20
279.7924159896782
 30
0.0
  0
ENDBLK
  5
1BFC1
330
1BFBF
100
AcDbEntity
  8
0
100
AcDbBlockEnd
  0
BLOCK
  5
1BFCC
330
1BFCB
100
AcDbEntity
  8
0
100
AcDbBlockBegin
  2
*D24
 70
     1
 10
0.0
 20
0.0
 30
0.0
  3
*D24
  1

  0
LINE
  5
1C32C
330
1BFCB
100
AcDbEntity
  8
DIM
 62
     6
370
    -2
100
AcDbLine
 10
526.8650732447951
 20
275.542415989678
 30
0.0
 11
526.8650732447951
 21
269.5019354785749
 31
0.0
  0
LINE
  5
1C32D
330
1BFCB
100
AcDbEntity
  8
DIM
 62
     6
370
    -2
100
AcDbLine
 10
534.8108772339493
 20
275.292415989678
 30
0.0
 11
534.8108772339493
 21
269.5019354785749
 31
0.0
  0
LINE
  5
1C32E
330
1BFCB
100
AcDbEntity
  8
DIM
 62
     1
370
    -2
100
AcDbLine
 10
528.365073244795
 20
270.7019354785749
 30
0.0
 11
533.3108772339492
 21
270.7019354785749
 31
0.0
  0
SOLID
  5
1C32F
330
1BFCB
100
AcDbEntity
  8
DIM
 62
     1
100
AcDbTrace
 10
528.365073244795
 20
270.9519354785749
 30
0.0
 11
528.365073244795
 21
270.4519354785749
 31
0.0
 12
526.8650732447951
 22
270.7019354785749
 32
0.0
 13
526.8650732447951
 23
270.7019354785749
 33
0.0
  0
SOLID
  5
1C330
330
1BFCB
100
AcDbEntity
  8
DIM
 62
     1
100
AcDbTrace
 10
533.3108772339492
 20
270.9519354785749
 30
0.0
 11
533.3108772339492
 21
270.4519354785749
 31
0.0
 12
534.8108772339493
 22
270.7019354785749
 32
0.0
 13
534.8108772339493
 23
270.7019354785749
 33
0.0
  0
MTEXT
  5
1C331
330
1BFCB
100
AcDbEntity
  8
DIM
 62
     4
370
     0
100
AcDbMText
 10
530.8379752393721
 20
272.5019354785749
 30
0.0
 40
2.0
 41
0.0
 46
0.0
 71
     5
 72
     1
  1
\A1;7.9
  7
Romans字体
 73
     1
 44
1.0
  0
POINT
  5
1C332
330
1BFCB
100
AcDbEntity
  8
Defpoints
 62
     0
100
AcDbPoint
 10
526.8650732447951
 20
275.742415989678
 30
0.0
  0
POINT
  5
1C333
330
1BFCB
100
AcDbEntity
  8
Defpoints
 62
     0
100
AcDbPoint
 10
534.8108772339493
 20
275.492415989678
 30
0.0
  0
POINT
  5
1C334
330
1BFCB
100
AcDbEntity
  8
Defpoints
 62
     0
100
AcDbPoint
 10
534.8108772339493
 20
270.7019354785749
 30
0.0
  0
ENDBLK
  5
1BFCD
330
1BFCB
100
AcDbEntity
  8
0
100
AcDbBlockEnd
  0
BLOCK
  5
1BFD8
330
1BFD7
100
AcDbEntity
  8
0
100
AcDbBlockBegin
  2
*D25
 70
     1
 10
0.0
 20
0.0
 30
0.0
  3
*D25
  1

  0
LINE
  5
1C322
330
1BFD7
100
AcDbEntity
  8
DIM
 62
     6
370
    -2
100
AcDbLine
 10
506.3434980377766
 20
276.292415989678
 30
0.0
 11
506.3434980377766
 21
268.1180704350472
 31
0.0
  0
LINE
  5
1C323
330
1BFD7
100
AcDbEntity
  8
DIM
 62
     6
370
    -2
100
AcDbLine
 10
510.6434980377758
 20
276.292415989678
 30
0.0
 11
510.6434980377758
 21
268.1180704350472
 31
0.0
  0
LINE
  5
1C324
330
1BFD7
100
AcDbEntity
  8
DIM
 62
     1
370
    -2
100
AcDbLine
 10
504.8434980377766
 20
269.3180704350472
 30
0.0
 11
503.3434980377767
 21
269.3180704350472
 31
0.0
  0
LINE
  5
1C325
330
1BFD7
100
AcDbEntity
  8
DIM
 62
     1
370
    -2
100
AcDbLine
 10
512.1434980377757
 20
269.3180704350472
 30
0.0
 11
513.6434980377758
 21
269.3180704350472
 31
0.0
  0
SOLID
  5
1C326
330
1BFD7
100
AcDbEntity
  8
DIM
 62
     1
100
AcDbTrace
 10
504.8434980377766
 20
269.5680704350472
 30
0.0
 11
504.8434980377766
 21
269.0680704350472
 31
0.0
 12
506.3434980377766
 22
269.3180704350472
 32
0.0
 13
506.3434980377766
 23
269.3180704350472
 33
0.0
  0
SOLID
  5
1C327
330
1BFD7
100
AcDbEntity
  8
DIM
 62
     1
100
AcDbTrace
 10
512.1434980377757
 20
269.5680704350472
 30
0.0
 11
512.1434980377757
 21
269.0680704350472
 31
0.0
 12
510.6434980377758
 22
269.3180704350472
 32
0.0
 13
510.6434980377758
 23
269.3180704350472
 33
0.0
  0
MTEXT
  5
1C328
330
1BFD7
100
AcDbEntity
  8
DIM
 62
     4
370
     0
100
AcDbMText
 10
508.4934980377762
 20
271.1180704350472
 30
0.0
 40
2.0
 41
0.0
 46
0.0
 71
     5
 72
     1
  1
\A1;4.3
  7
Romans字体
 73
     1
 44
1.0
  0
POINT
  5
1C329
330
1BFD7
100
AcDbEntity
  8
Defpoints
 62
     0
100
AcDbPoint
 10
506.3434980377766
 20
276.492415989678
 30
0.0
  0
POINT
  5
1C32A
330
1BFD7
100
AcDbEntity
  8
Defpoints
 62
     0
100
AcDbPoint
 10
510.6434980377758
 20
276.492415989678
 30
0.0
  0
POINT
  5
1C32B
330
1BFD7
100
AcDbEntity
  8
Defpoints
 62
     0
100
AcDbPoint
 10
510.6434980377758
 20
269.3180704350472
 30
0.0
  0
ENDBLK
  5
1BFD9
330
1BFD7
100
AcDbEntity
  8
0
100
AcDbBlockEnd
  0
BLOCK
  5
1C25A
330
1C259
100
AcDbEntity
  8
0
100
AcDbBlockBegin
  2
*D26
 70
     1
 10
0.0
 20
0.0
 30
0.0
  3
*D26
  1

  0
LINE
  5
1C318
330
1C259
100
AcDbEntity
  8
DIM
 62
     6
370
    -2
100
AcDbLine
 10
550.6608772339503
 20
279.7924159896782
 30
0.0
 11
555.2808412197501
 21
279.7924159896782
 31
0.0
  0
LINE
  5
1C319
330
1C259
100
AcDbEntity
  8
DIM
 62
     6
370
    -2
100
AcDbLine
 10
550.6608772339503
 20
277.6424159896781
 30
0.0
 11
555.2808412197501
 21
277.6424159896781
 31
0.0
  0
LINE
  5
1C31A
330
1C259
100
AcDbEntity
  8
DIM
 62
     1
370
    -2
100
AcDbLine
 10
554.0808412197501
 20
281.2924159896782
 30
0.0
 11
554.0808412197501
 21
282.7924159896782
 31
0.0
  0
LINE
  5
1C31B
330
1C259
100
AcDbEntity
  8
DIM
 62
     1
370
    -2
100
AcDbLine
 10
554.0808412197501
 20
276.1424159896781
 30
0.0
 11
554.0808412197501
 21
268.4709874182495
 31
0.0
  0
SOLID
  5
1C31C
330
1C259
100
AcDbEntity
  8
DIM
 62
     1
100
AcDbTrace
 10
553.8308412197501
 20
281.2924159896782
 30
0.0
 11
554.3308412197501
 21
281.2924159896782
 31
0.0
 12
554.0808412197501
 22
279.7924159896782
 32
0.0
 13
554.0808412197501
 23
279.7924159896782
 33
0.0
  0
SOLID
  5
1C31D
330
1C259
100
AcDbEntity
  8
DIM
 62
     1
100
AcDbTrace
 10
553.8308412197501
 20
276.1424159896781
 30
0.0
 11
554.3308412197501
 21
276.1424159896781
 31
0.0
 12
554.0808412197501
 22
277.6424159896781
 32
0.0
 13
554.0808412197501
 23
277.6424159896781
 33
0.0
  0
MTEXT
  5
1C31E
330
1C259
100
AcDbEntity
  8
DIM
 62
     4
370
     0
100
AcDbMText
 10
552.28084121975
 20
271.5567017039638
 30
0.0
 40
2.0
 41
0.0
 46
0.0
 71
     5
 72
     1
  1
\A1;2.15
  7
Romans字体
 11
0.0000000000000001
 21
1.0
 31
0.0
 73
     1
 44
1.0
  0
POINT
  5
1C31F
330
1C259
100
AcDbEntity
  8
Defpoints
 62
     0
100
AcDbPoint
 10
550.4608772339503
 20
279.7924159896782
 30
0.0
  0
POINT
  5
1C320
330
1C259
100
AcDbEntity
  8
Defpoints
 62
     0
100
AcDbPoint
 10
550.4608772339503
 20
277.6424159896781
 30
0.0
  0
POINT
  5
1C321
330
1C259
100
AcDbEntity
  8
Defpoints
 62
     0
100
AcDbPoint
 10
554.0808412197501
 20
277.6424159896781
 30
0.0
  0
ENDBLK
  5
1C25B
330
1C259
100
AcDbEntity
  8
0
100
AcDbBlockEnd
  0
ENDSEC
  0
SECTION
  2
ENTITIES
  0
HATCH
  5
28AE
330
1F
100
AcDbEntity
  8
图层 1
 62
     7
100
AcDbHatch
 10
0.0
 20
0.0
 30
0.0
210
0.0
220
0.0
230
1.0
  2
SOLID
 70
     1
 71
     0
 91
        1
 92
        1
 93
        2
 72
     4
 94
        3
 73
     0
 74
     0
 95
       17
 96
       13
 40
0.0
 40
0.0
 40
0.0
 40
0.0
 40
0.3527780104152769
 40
0.3527780104152769
 40
0.3527780104152769
 40
0.7055560208305538
 40
0.7055560208305538
 40
0.7055560208305538
 40
1.058334031245828
 40
1.058334031245828
 40
1.058334031245828
 40
1.411112041661104
 40
1.411112041661104
 40
1.411112041661104
 40
1.411112041661104
 10
11.07013262565829
 20
29.50312817963231
 10
11.07013262565829
 20
29.50312817963231
 10
10.9431807732774
 20
29.50312817963231
 10
10.9431807732774
 20
29.50312817963231
 10
10.9431807732774
 20
29.50312817963231
 10
10.85843136843155
 20
29.22786486877117
 10
10.85843136843155
 20
29.22786486877117
 10
10.85843136843155
 20
29.22786486877117
 10
10.90080607085448
 20
29.2068497724476
 10
10.90080607085448
 20
29.2068497724476
 10
10.94455881238059
 20
29.31571486159919
 10
11.00346998404173
 20
29.40907701083995
 10
11.07013262565829
 20
29.50312817963231
 72
     1
 10
11.07013262565829
 20
29.50312817963231
 11
11.07013262565829
 21
29.50312817963231
 97
        0
 75
     0
 76
     1
 98
        0
450
        0
451
        0
460
0.0
461
0.0
452
        0
462
0.0
453
        0
470

  0
HATCH
  5
2C65
330
1F
100
AcDbEntity
  8
图层 1
 62
     7
100
AcDbHatch
 10
0.0
 20
0.0
 30
0.0
210
0.0
220
0.0
230
1.0
  2
SOLID
 70
     1
 71
     0
 91
        1
 92
        1
 93
        2
 72
     4
 94
        3
 73
     0
 74
     0
 95
       47
 96
       43
 40
0.0
 40
0.0
 40
0.0
 40
0.0
 40
0.3527780104152769
 40
0.3527780104152769
 40
0.3527780104152769
 40
0.7055560208305538
 40
0.7055560208305538
 40
0.7055560208305538
 40
1.058334031245828
 40
1.058334031245828
 40
1.058334031245828
 40
1.411112041661104
 40
1.411112041661104
 40
1.411112041661104
 40
1.763890052076384
 40
1.763890052076384
 40
1.763890052076384
 40
2.116668062491659
 40
2.116668062491659
 40
2.116668062491659
 40
2.469446072906936
 40
2.469446072906936
 40
2.469446072906936
 40
2.822224083322215
 40
2.822224083322215
 40
2.822224083322215
 40
3.175002093737492
 40
3.175002093737492
 40
3.175002093737492
 40
3.527780104152768
 40
3.527780104152768
 40
3.527780104152768
 40
3.880558114568044
 40
3.880558114568044
 40
3.880558114568044
 40
4.233336124983321
 40
4.233336124983321
 40
4.233336124983321
 40
4.586114135398599
 40
4.586114135398599
 40
4.586114135398599
 40
4.938892145813873
 40
4.938892145813873
 40
4.938892145813873
 40
4.938892145813873
 10
162.8986914070121
 20
257.4895347631509
 10
162.8986914070121
 20
257.4895347631509
 10
162.9200510131114
 20
257.4471600607279
 10
162.9200510131114
 20
257.4471600607279
 10
162.9200510131114
 20
257.4471600607279
 10
162.9200510131114
 20
257.404785358305
 10
162.9200510131114
 20
257.404785358305
 10
162.9200510131114
 20
257.404785358305
 10
162.8986914070121
 20
257.36258291077
 10
162.8986914070121
 20
257.36258291077
 10
162.8986914070121
 20
257.36258291077
 10
162.8986914070121
 20
257.320208208347
 10
162.8986914070121
 20
257.320208208347
 10
162.8986914070121
 20
257.320208208347
 10
162.8563167045891
 20
257.2990208571356
 10
162.8563167045891
 20
257.2990208571356
 10
162.8563167045891
 20
257.2990208571356
 10
162.8139420021662
 20
257.2563016449369
 10
162.8139420021662
 20
257.2563016449369
 10
162.8139420021662
 20
257.2563016449369
 10
162.7295371070961
 20
257.2563016449369
 10
162.7295371070961
 20
257.2563016449369
 10
162.7295371070961
 20
257.2563016449369
 10
162.6658027985738
 20
257.2778335059241
 10
162.6658027985738
 20
257.2778335059241
 10
162.6658027985738
 20
257.2778335059241
 10
162.6237726059267
 20
257.2990208571356
 10
162.6237726059267
 20
257.2990208571356
 10
162.6237726059267
 20
257.2990208571356
 10
162.5813979035038
 20
257.3413955595585
 10
162.5813979035038
 20
257.3413955595585
 10
162.5813979035038
 20
257.3413955595585
 10
162.5813979035038
 20
257.4895347631509
 10
162.5813979035038
 20
257.4895347631509
 10
162.5813979035038
 20
257.4895347631509
 10
162.6447877022503
 20
257.5525800521216
 10
162.6447877022503
 20
257.5525800521216
 10
162.6447877022503
 20
257.5525800521216
 10
162.7081775009967
 20
257.5525800521216
 10
162.7081775009967
 20
257.5525800521216
 10
162.8749202324821
 20
257.5424170137356
 10
162.7918933765152
 20
257.5939212252171
 10
162.8986914070121
 20
257.4895347631509
 72
     1
 10
162.8986914070121
 20
257.4895347631509
 11
162.8986914070121
 21
257.4895347631509
 97
        0
 75
     0
 76
     1
 98
        0
450
        0
451
        0
460
0.0
461
0.0
452
        0
462
0.0
453
        0
470

  0
HATCH
  5
2EE7
330
1F
100
AcDbEntity
  8
图层 1
 62
     7
100
AcDbHatch
 10
0.0
 20
0.0
 30
0.0
210
0.0
220
0.0
230
1.0
  2
SOLID
 70
     1
 71
     0
 91
        1
 92
        1
 93
        2
 72
     4
 94
        3
 73
     0
 74
     0
 95
       56
 96
       52
 40
0.0
 40
0.0
 40
0.0
 40
0.0
 40
0.3527780104152769
 40
0.3527780104152769
 40
0.3527780104152769
 40
0.7055560208305538
 40
0.7055560208305538
 40
0.7055560208305538
 40
1.058334031245828
 40
1.058334031245828
 40
1.058334031245828
 40
1.411112041661104
 40
1.411112041661104
 40
1.411112041661104
 40
1.763890052076384
 40
1.763890052076384
 40
1.763890052076384
 40
2.116668062491659
 40
2.116668062491659
 40
2.116668062491659
 40
2.469446072906936
 40
2.469446072906936
 40
2.469446072906936
 40
2.822224083322215
 40
2.822224083322215
 40
2.822224083322215
 40
3.175002093737492
 40
3.175002093737492
 40
3.175002093737492
 40
3.527780104152768
 40
3.527780104152768
 40
3.527780104152768
 40
3.880558114568044
 40
3.880558114568044
 40
3.880558114568044
 40
4.233336124983321
 40
4.233336124983321
 40
4.233336124983321
 40
4.586114135398599
 40
4.586114135398599
 40
4.586114135398599
 40
4.938892145813873
 40
4.938892145813873
 40
4.938892145813873
 40
5.291670156229153
 40
5.291670156229153
 40
5.291670156229153
 40
5.64444816664443
 40
5.64444816664443
 40
5.64444816664443
 40
5.997226177059705
 40
5.997226177059705
 40
5.997226177059705
 40
5.997226177059705
 10
185.4837187788815
 20
241.4451977396596
 10
185.4837187788815
 20
241.4451977396596
 10
185.4837187788815
 20
241.4028230372367
 10
185.4837187788815
 20
241.4028230372367
 10
185.4837187788815
 20
241.4028230372367
 10
185.5047338752051
 20
241.3604483348137
 10
185.5047338752051
 20
241.3604483348137
 10
185.4520238795082
 20
241.2782827532863
 10
185.4671823096433
 20
241.1897437409066
 10
185.335579575289
 20
241.2119646214456
 10
185.335579575289
 20
241.2119646214456
 10
185.2932048728662
 20
241.2119646214456
 10
185.2932048728662
 20
241.2119646214456
 10
185.2932048728662
 20
241.2119646214456
 10
185.2294705643439
 20
241.2334964824328
 10
185.2294705643439
 20
241.2334964824328
 10
185.2294705643439
 20
241.2334964824328
 10
185.1660807655974
 20
241.2543393238685
 10
185.1660807655974
 20
241.2543393238685
 10
185.1660807655974
 20
241.2543393238685
 10
185.1450656692739
 20
241.2758711848558
 10
185.1450656692739
 20
241.2758711848558
 10
185.1450656692739
 20
241.2758711848558
 10
185.1450656692739
 20
241.2967140262914
 10
185.1450656692739
 20
241.2967140262914
 10
185.1450656692739
 20
241.2967140262914
 10
185.1237060631745
 20
241.3604483348137
 10
185.1237060631745
 20
241.3604483348137
 10
185.1237060631745
 20
241.3604483348137
 10
185.1237060631745
 20
241.4028230372367
 10
185.1237060631745
 20
241.4028230372367
 10
185.1237060631745
 20
241.4028230372367
 10
185.1660807655974
 20
241.4875724420825
 10
185.1660807655974
 20
241.4875724420825
 10
185.1660807655974
 20
241.4875724420825
 10
185.2084554680203
 20
241.5085875384061
 10
185.2084554680203
 20
241.5085875384061
 10
185.2084554680203
 20
241.5085875384061
 10
185.2718452667668
 20
241.5297748896175
 10
185.2718452667668
 20
241.5297748896175
 10
185.2718452667668
 20
241.5297748896175
 10
185.3565946716127
 20
241.5297748896175
 10
185.3565946716127
 20
241.5297748896175
 10
185.3565946716127
 20
241.5297748896175
 10
185.4199844703592
 20
241.5085875384061
 10
185.4199844703592
 20
241.5085875384061
 10
185.4199844703592
 20
241.5085875384061
 10
185.4623591727821
 20
241.4875724420825
 10
185.4623591727821
 20
241.4875724420825
 10
185.4623591727821
 20
241.4875724420825
 10
185.4837187788815
 20
241.4451977396596
 10
185.4837187788815
 20
241.4451977396596
 72
     1
 10
185.4837187788815
 20
241.4451977396596
 11
185.4837187788815
 21
241.4451977396596
 97
        0
 75
     0
 76
     1
 98
        0
450
        0
451
        0
460
0.0
461
0.0
452
        0
462
0.0
453
        0
470

  0
HATCH
  5
2F93
330
1F
100
AcDbEntity
  8
图层 1
 62
     7
100
AcDbHatch
 10
0.0
 20
0.0
 30
0.0
210
0.0
220
0.0
230
1.0
  2
SOLID
 70
     1
 71
     0
 91
        1
 92
        1
 93
        2
 72
     4
 94
        3
 73
     0
 74
     0
 95
       38
 96
       34
 40
0.0
 40
0.0
 40
0.0
 40
0.0
 40
0.3527780104152769
 40
0.3527780104152769
 40
0.3527780104152769
 40
0.7055560208305538
 40
0.7055560208305538
 40
0.7055560208305538
 40
1.058334031245828
 40
1.058334031245828
 40
1.058334031245828
 40
1.411112041661104
 40
1.411112041661104
 40
1.411112041661104
 40
1.763890052076384
 40
1.763890052076384
 40
1.763890052076384
 40
2.116668062491659
 40
2.116668062491659
 40
2.116668062491659
 40
2.469446072906936
 40
2.469446072906936
 40
2.469446072906936
 40
2.822224083322215
 40
2.822224083322215
 40
2.822224083322215
 40
3.175002093737492
 40
3.175002093737492
 40
3.175002093737492
 40
3.527780104152768
 40
3.527780104152768
 40
3.527780104152768
 40
3.880558114568044
 40
3.880558114568044
 40
3.880558114568044
 40
3.880558114568044
 10
185.907121293335
 20
220.1937677098971
 10
185.9005756075949
 20
220.0449394867532
 10
185.9329595265197
 20
220.1136691870245
 10
185.864746590912
 20
219.9817219428946
 10
185.864746590912
 20
219.9817219428946
 10
185.822371888489
 20
219.9605345916831
 10
185.822371888489
 20
219.9605345916831
 10
185.822371888489
 20
219.9605345916831
 10
185.6528730787974
 20
219.9605345916831
 10
185.6528730787974
 20
219.9605345916831
 10
185.6528730787974
 20
219.9605345916831
 10
185.5894832800509
 20
220.002909294106
 10
185.5894832800509
 20
220.002909294106
 10
185.5894832800509
 20
220.002909294106
 10
185.5681236739515
 20
220.0240966453175
 10
185.5681236739515
 20
220.0240966453175
 10
185.5681236739515
 20
220.0240966453175
 10
185.5681236739515
 20
220.045283996529
 10
185.5681236739515
 20
220.045283996529
 10
185.5681236739515
 20
220.045283996529
 10
185.547108577628
 20
220.0876586989519
 10
185.547108577628
 20
220.0876586989519
 10
185.547108577628
 20
220.0876586989519
 10
185.547108577628
 20
220.1513930074742
 10
185.547108577628
 20
220.1513930074742
 10
185.547108577628
 20
220.1513930074742
 10
185.5894832800509
 20
220.23614241232
 10
185.5894832800509
 20
220.23614241232
 10
185.5894832800509
 20
220.23614241232
 10
185.6318579824738
 20
220.2573297635315
 10
185.6318579824738
 20
220.2573297635315
 10
185.7055830744942
 20
220.2566407439799
 10
185.8416644359337
 20
220.3310548555519
 10
185.907121293335
 20
220.1937677098971
 72
     1
 10
185.907121293335
 20
220.1937677098971
 11
185.907121293335
 21
220.1937677098971
 97
        0
 75
     0
 76
     1
 98
        0
450
        0
451
        0
460
0.0
461
0.0
452
        0
462
0.0
453
        0
470

  0
HATCH
  5
2FDE
330
1F
100
AcDbEntity
  8
图层 1
 62
     7
100
AcDbHatch
 10
0.0
 20
0.0
 30
0.0
210
0.0
220
0.0
230
1.0
  2
SOLID
 70
     1
 71
     0
 91
        1
 92
        1
 93
        2
 72
     4
 94
        3
 73
     0
 74
     0
 95
       50
 96
       46
 40
0.0
 40
0.0
 40
0.0
 40
0.0
 40
0.3527780104152769
 40
0.3527780104152769
 40
0.3527780104152769
 40
0.7055560208305538
 40
0.7055560208305538
 40
0.7055560208305538
 40
1.058334031245828
 40
1.058334031245828
 40
1.058334031245828
 40
1.411112041661104
 40
1.411112041661104
 40
1.411112041661104
 40
1.763890052076384
 40
1.763890052076384
 40
1.763890052076384
 40
2.116668062491659
 40
2.116668062491659
 40
2.116668062491659
 40
2.469446072906936
 40
2.469446072906936
 40
2.469446072906936
 40
2.822224083322215
 40
2.822224083322215
 40
2.822224083322215
 40
3.175002093737492
 40
3.175002093737492
 40
3.175002093737492
 40
3.527780104152768
 40
3.527780104152768
 40
3.527780104152768
 40
3.880558114568044
 40
3.880558114568044
 40
3.880558114568044
 40
4.233336124983321
 40
4.233336124983321
 40
4.233336124983321
 40
4.586114135398599
 40
4.586114135398599
 40
4.586114135398599
 40
4.938892145813873
 40
4.938892145813873
 40
4.938892145813873
 40
5.291670156229153
 40
5.291670156229153
 40
5.291670156229153
 40
5.291670156229153
 10
180.9117295442905
 20
208.9327766684477
 10
180.9117295442905
 20
208.9327766684477
 10
180.9117295442905
 20
208.7637946234197
 10
180.9117295442905
 20
208.7637946234197
 10
181.2273004989198
 20
208.6749111012643
 10
181.3833634273555
 20
208.6776671794706
 10
181.6948002646751
 20
208.5097186637701
 10
181.9542161258496
 20
208.4294478860095
 10
182.1388733656765
 20
208.2134402565853
 10
182.3297317814676
 20
208.02292635057
 10
182.3297317814676
 20
208.02292635057
 10
182.435496282637
 20
208.065301052993
 10
182.435496282637
 20
208.065301052993
 10
182.288390608372
 20
208.2733849575739
 10
182.3752070718726
 20
208.2134402565853
 10
182.1605774815516
 20
208.3824223016133
 10
182.1605774815516
 20
208.3824223016133
 10
182.1182027791287
 20
208.4247970040363
 10
182.1182027791287
 20
208.4247970040363
 10
182.1182027791287
 20
208.4247970040363
 10
182.0968431730294
 20
208.467516216235
 10
182.0968431730294
 20
208.467516216235
 10
182.0968431730294
 20
208.467516216235
 10
182.0544684706064
 20
208.4883590576707
 10
182.0544684706064
 20
208.4883590576707
 10
182.0544684706064
 20
208.4883590576707
 10
181.9910786718599
 20
208.5305615052057
 10
181.9910786718599
 20
208.5305615052057
 10
181.9910786718599
 20
208.5305615052057
 10
181.948703969437
 20
208.552093366193
 10
181.948703969437
 20
208.552093366193
 10
181.948703969437
 20
208.552093366193
 10
181.9063292670141
 20
208.5729362076286
 10
181.9063292670141
 20
208.5729362076286
 10
181.9063292670141
 20
208.5729362076286
 10
181.8639545645911
 20
208.6156554198274
 10
181.8639545645911
 20
208.6156554198274
 10
181.8639545645911
 20
208.6156554198274
 10
181.821924371944
 20
208.6368427710388
 10
181.821924371944
 20
208.6368427710388
 10
181.6637943848536
 20
208.6742220817127
 10
181.5452830219797
 20
208.8092699138248
 10
181.3771622513911
 20
208.8061693258427
 10
181.2803550043924
 20
208.8573290275484
 10
181.0126709085988
 20
208.8971199066528
 10
180.9117295442905
 20
208.9327766684477
 72
     1
 10
180.9117295442905
 20
208.9327766684477
 11
180.9117295442905
 21
208.9327766684477
 97
        0
 75
     0
 76
     1
 98
        0
450
        0
451
        0
460
0.0
461
0.0
452
        0
462
0.0
453
        0
470

  0
HATCH
  5
35C8
330
1F
100
AcDbEntity
  8
图层 1
 62
     7
100
AcDbHatch
 10
0.0
 20
0.0
 30
0.0
210
0.0
220
0.0
230
1.0
  2
SOLID
 70
     1
 71
     0
 91
        1
 92
        1
 93
        2
 72
     4
 94
        3
 73
     0
 74
     0
 95
       38
 96
       34
 40
0.0
 40
0.0
 40
0.0
 40
0.0
 40
0.3527780104152769
 40
0.3527780104152769
 40
0.3527780104152769
 40
0.7055560208305538
 40
0.7055560208305538
 40
0.7055560208305538
 40
1.058334031245828
 40
1.058334031245828
 40
1.058334031245828
 40
1.411112041661104
 40
1.411112041661104
 40
1.411112041661104
 40
1.763890052076384
 40
1.763890052076384
 40
1.763890052076384
 40
2.116668062491659
 40
2.116668062491659
 40
2.116668062491659
 40
2.469446072906936
 40
2.469446072906936
 40
2.469446072906936
 40
2.822224083322215
 40
2.822224083322215
 40
2.822224083322215
 40
3.175002093737492
 40
3.175002093737492
 40
3.175002093737492
 40
3.527780104152768
 40
3.527780104152768
 40
3.527780104152768
 40
3.880558114568044
 40
3.880558114568044
 40
3.880558114568044
 40
3.880558114568044
 10
189.145513185819
 20
166.8326485368285
 10
189.207869455238
 20
166.740492171803
 10
189.1317327947871
 20
166.6833035490209
 10
189.103138483396
 20
166.6209472796017
 10
189.103138483396
 20
166.6209472796017
 10
189.0607637809731
 20
166.5997599283903
 10
189.0607637809731
 20
166.5997599283903
 10
189.0607637809731
 20
166.5997599283903
 10
188.9973739822266
 20
166.5785725771788
 10
188.9973739822266
 20
166.5785725771788
 10
188.9973739822266
 20
166.5785725771788
 10
188.9549992798037
 20
166.5997599283903
 10
188.9549992798037
 20
166.5997599283903
 10
188.9549992798037
 20
166.5997599283903
 10
188.8916094810572
 20
166.5997599283903
 10
188.8916094810572
 20
166.5997599283903
 10
188.8916094810572
 20
166.5997599283903
 10
188.8492347786343
 20
166.6209472796017
 10
188.8492347786343
 20
166.6209472796017
 10
188.8492347786343
 20
166.6209472796017
 10
188.8278751725349
 20
166.6633219820247
 10
188.8278751725349
 20
166.6633219820247
 10
188.8278751725349
 20
166.6633219820247
 10
188.8068600762114
 20
166.6845093332361
 10
188.8068600762114
 20
166.6845093332361
 10
188.8068600762114
 20
166.6845093332361
 10
188.8068600762114
 20
166.8326485368285
 10
188.8068600762114
 20
166.8326485368285
 10
188.8068600762114
 20
166.8326485368285
 10
188.8702498749578
 20
166.896038335575
 10
188.8702498749578
 20
166.896038335575
 10
189.0228677056355
 20
166.8819134347673
 10
189.0686875058164
 20
166.9411691162043
 10
189.145513185819
 20
166.8326485368285
 72
     1
 10
189.145513185819
 20
166.8326485368285
 11
189.145513185819
 21
166.8326485368285
 97
        0
 75
     0
 76
     1
 98
        0
450
        0
451
        0
460
0.0
461
0.0
452
        0
462
0.0
453
        0
470

  0
HATCH
  5
35D8
330
1F
100
AcDbEntity
  8
图层 1
 62
     7
100
AcDbHatch
 10
0.0
 20
0.0
 30
0.0
210
0.0
220
0.0
230
1.0
  2
SOLID
 70
     1
 71
     0
 91
        1
 92
        1
 93
        2
 72
     4
 94
        3
 73
     0
 74
     0
 95
       68
 96
       64
 40
0.0
 40
0.0
 40
0.0
 40
0.0
 40
0.3527780104152769
 40
0.3527780104152769
 40
0.3527780104152769
 40
0.7055560208305538
 40
0.7055560208305538
 40
0.7055560208305538
 40
1.058334031245828
 40
1.058334031245828
 40
1.058334031245828
 40
1.411112041661104
 40
1.411112041661104
 40
1.411112041661104
 40
1.763890052076384
 40
1.763890052076384
 40
1.763890052076384
 40
2.116668062491659
 40
2.116668062491659
 40
2.116668062491659
 40
2.469446072906936
 40
2.469446072906936
 40
2.469446072906936
 40
2.822224083322215
 40
2.822224083322215
 40
2.822224083322215
 40
3.175002093737492
 40
3.175002093737492
 40
3.175002093737492
 40
3.527780104152768
 40
3.527780104152768
 40
3.527780104152768
 40
3.880558114568044
 40
3.880558114568044
 40
3.880558114568044
 40
4.233336124983321
 40
4.233336124983321
 40
4.233336124983321
 40
4.586114135398599
 40
4.586114135398599
 40
4.586114135398599
 40
4.938892145813873
 40
4.938892145813873
 40
4.938892145813873
 40
5.291670156229153
 40
5.291670156229153
 40
5.291670156229153
 40
5.64444816664443
 40
5.64444816664443
 40
5.64444816664443
 40
5.997226177059705
 40
5.997226177059705
 40
5.997226177059705
 40
6.350004187474984
 40
6.350004187474984
 40
6.350004187474984
 40
6.702782197890257
 40
6.702782197890257
 40
6.702782197890257
 40
7.055560208305537
 40
7.055560208305537
 40
7.055560208305537
 40
7.408338218720808
 40
7.408338218720808
 40
7.408338218720808
 40
7.408338218720808
 10
174.7732543591544
 20
135.4846705078077
 10
174.7732543591544
 20
135.4846705078077
 10
174.7732543591544
 20
135.3789060066383
 10
174.7732543591544
 20
135.3789060066383
 10
174.7732543591544
 20
135.3789060066383
 10
174.8156290615773
 20
135.3789060066383
 10
174.8156290615773
 20
135.3789060066383
 10
174.8156290615773
 20
135.3789060066383
 10
174.8580037640002
 20
135.3578909103147
 10
174.8580037640002
 20
135.3578909103147
 10
174.8580037640002
 20
135.3578909103147
 10
174.9213935627468
 20
135.3578909103147
 10
174.9213935627468
 20
135.3578909103147
 10
174.9213935627468
 20
135.3578909103147
 10
174.9637682651697
 20
135.3365313042154
 10
174.9637682651697
 20
135.3365313042154
 10
174.9637682651697
 20
135.3365313042154
 10
174.9847833614933
 20
135.3365313042154
 10
174.9847833614933
 20
135.3365313042154
 10
174.9847833614933
 20
135.3365313042154
 10
175.0271580639162
 20
135.3155162078918
 10
175.0271580639162
 20
135.3155162078918
 10
175.0271580639162
 20
135.3155162078918
 10
175.0485176700155
 20
135.2941566017924
 10
175.0485176700155
 20
135.2941566017924
 10
175.0485176700155
 20
135.2941566017924
 10
175.0695327663391
 20
135.2941566017924
 10
175.0695327663391
 20
135.2941566017924
 10
175.0695327663391
 20
135.2941566017924
 10
175.0908923724385
 20
135.2731415054689
 10
175.0908923724385
 20
135.2731415054689
 10
175.0908923724385
 20
135.2731415054689
 10
175.1332670748614
 20
135.2731415054689
 10
175.1332670748614
 20
135.2731415054689
 10
175.1332670748614
 20
135.2731415054689
 10
175.154282171185
 20
135.2517818993695
 10
175.154282171185
 20
135.2517818993695
 10
175.154282171185
 20
135.2517818993695
 10
175.154282171185
 20
135.3578909103147
 10
175.154282171185
 20
135.3578909103147
 10
175.154282171185
 20
135.3578909103147
 10
175.1332670748614
 20
135.3789060066383
 10
175.1332670748614
 20
135.3789060066383
 10
175.1332670748614
 20
135.3789060066383
 10
175.0908923724385
 20
135.3789060066383
 10
175.0908923724385
 20
135.3789060066383
 10
175.0908923724385
 20
135.3789060066383
 10
175.0908923724385
 20
135.3999211029619
 10
175.0908923724385
 20
135.3999211029619
 10
175.0908923724385
 20
135.3999211029619
 10
175.0695327663391
 20
135.3999211029619
 10
175.0695327663391
 20
135.3999211029619
 10
175.0695327663391
 20
135.3999211029619
 10
175.0271580639162
 20
135.4212807090612
 10
175.0271580639162
 20
135.4212807090612
 10
175.0271580639162
 20
135.4212807090612
 10
175.0061429675926
 20
135.4212807090612
 10
175.0061429675926
 20
135.4212807090612
 10
175.0061429675926
 20
135.4212807090612
 10
174.9637682651697
 20
135.4422958053848
 10
174.9637682651697
 20
135.4422958053848
 10
174.8996894468716
 20
135.4498750204523
 10
174.8394002361073
 20
135.4860485469109
 10
174.7732543591544
 20
135.4846705078077
 72
     1
 10
174.7732543591544
 20
135.4846705078077
 11
174.7732543591544
 21
135.4846705078077
 97
        0
 75
     0
 76
     1
 98
        0
450
        0
451
        0
460
0.0
461
0.0
452
        0
462
0.0
453
        0
470

  0
HATCH
  5
3807
330
1F
100
AcDbEntity
  8
图层 1
 62
     7
100
AcDbHatch
 10
0.0
 20
0.0
 30
0.0
210
0.0
220
0.0
230
1.0
  2
SOLID
 70
     1
 71
     0
 91
        1
 92
        1
 93
        2
 72
     4
 94
        3
 73
     0
 74
     0
 95
       29
 96
       25
 40
0.0
 40
0.0
 40
0.0
 40
0.0
 40
0.3527780104152769
 40
0.3527780104152769
 40
0.3527780104152769
 40
0.7055560208305538
 40
0.7055560208305538
 40
0.7055560208305538
 40
1.058334031245828
 40
1.058334031245828
 40
1.058334031245828
 40
1.411112041661104
 40
1.411112041661104
 40
1.411112041661104
 40
1.763890052076384
 40
1.763890052076384
 40
1.763890052076384
 40
2.116668062491659
 40
2.116668062491659
 40
2.116668062491659
 40
2.469446072906936
 40
2.469446072906936
 40
2.469446072906936
 40
2.822224083322215
 40
2.822224083322215
 40
2.822224083322215
 40
2.822224083322215
 10
175.4929352807925
 20
164.0174869039101
 10
175.4929352807925
 20
164.0174869039101
 10
175.5139503771161
 20
163.9751122014871
 10
175.5139503771161
 20
163.9751122014871
 10
175.5139503771161
 20
163.9751122014871
 10
175.5139503771161
 20
163.9327374990642
 10
175.5139503771161
 20
163.9327374990642
 10
175.5139503771161
 20
163.9327374990642
 10
175.4929352807925
 20
163.8903627966413
 10
175.4929352807925
 20
163.8903627966413
 10
175.4929352807925
 20
163.8903627966413
 10
175.471920184469
 20
163.8691754454298
 10
175.471920184469
 20
163.8691754454298
 10
175.471920184469
 20
163.8691754454298
 10
175.4505605783696
 20
163.8269729978948
 10
175.4505605783696
 20
163.8269729978948
 10
175.3571984291289
 20
163.7715069239916
 10
175.272449024283
 20
163.8195660377152
 10
175.1966568736079
 20
163.8691754454298
 10
175.208370205985
 20
163.9930267098286
 10
175.1563492298397
 20
164.0216210212197
 10
175.2600466723544
 20
164.0596893514451
 10
175.3330827448232
 20
164.1094710140476
 10
175.4357466580104
 20
164.0753645462439
 10
175.4929352807925
 20
164.0174869039101
 72
     1
 10
175.4929352807925
 20
164.0174869039101
 11
175.4929352807925
 21
164.0174869039101
 97
        0
 75
     0
 76
     1
 98
        0
450
        0
451
        0
460
0.0
461
0.0
452
        0
462
0.0
453
        0
470

  0
HATCH
  5
3895
330
1F
100
AcDbEntity
  8
图层 1
 62
     7
100
AcDbHatch
 10
0.0
 20
0.0
 30
0.0
210
0.0
220
0.0
230
1.0
  2
SOLID
 70
     1
 71
     0
 91
        1
 92
        1
 93
        2
 72
     4
 94
        3
 73
     0
 74
     0
 95
       11
 96
        7
 40
0.0
 40
0.0
 40
0.0
 40
0.0
 40
0.3527780104152769
 40
0.3527780104152769
 40
0.3527780104152769
 40
0.7055560208305538
 40
0.7055560208305538
 40
0.7055560208305538
 40
0.7055560208305538
 10
174.9213935627468
 20
174.5369206529582
 10
174.9213935627468
 20
174.5369206529582
 10
174.9213935627468
 20
174.3043765542958
 10
174.9213935627468
 20
174.3043765542958
 10
174.9213935627468
 20
174.3043765542958
 10
174.9213935627468
 20
174.5369206529582
 10
174.9213935627468
 20
174.5369206529582
 72
     1
 10
174.9213935627468
 20
174.5369206529582
 11
174.9213935627468
 21
174.5369206529582
 97
        0
 75
     0
 76
     1
 98
        0
450
        0
451
        0
460
0.0
461
0.0
452
        0
462
0.0
453
        0
470

  0
HATCH
  5
3943
330
1F
100
AcDbEntity
  8
图层 1
 62
     7
100
AcDbHatch
 10
0.0
 20
0.0
 30
0.0
210
0.0
220
0.0
230
1.0
  2
SOLID
 70
     1
 71
     0
 91
        1
 92
        1
 93
        2
 72
     4
 94
        3
 73
     0
 74
     0
 95
      131
 96
      127
 40
0.0
 40
0.0
 40
0.0
 40
0.0
 40
0.3527780104152769
 40
0.3527780104152769
 40
0.3527780104152769
 40
0.7055560208305538
 40
0.7055560208305538
 40
0.7055560208305538
 40
1.058334031245828
 40
1.058334031245828
 40
1.058334031245828
 40
1.411112041661104
 40
1.411112041661104
 40
1.411112041661104
 40
1.763890052076384
 40
1.763890052076384
 40
1.763890052076384
 40
2.116668062491659
 40
2.116668062491659
 40
2.116668062491659
 40
2.469446072906936
 40
2.469446072906936
 40
2.469446072906936
 40
2.822224083322215
 40
2.822224083322215
 40
2.822224083322215
 40
3.175002093737492
 40
3.175002093737492
 40
3.175002093737492
 40
3.527780104152768
 40
3.527780104152768
 40
3.527780104152768
 40
3.880558114568044
 40
3.880558114568044
 40
3.880558114568044
 40
4.233336124983321
 40
4.233336124983321
 40
4.233336124983321
 40
4.586114135398599
 40
4.586114135398599
 40
4.586114135398599
 40
4.938892145813873
 40
4.938892145813873
 40
4.938892145813873
 40
5.291670156229153
 40
5.291670156229153
 40
5.291670156229153
 40
5.64444816664443
 40
5.64444816664443
 40
5.64444816664443
 40
5.997226177059705
 40
5.997226177059705
 40
5.997226177059705
 40
6.350004187474984
 40
6.350004187474984
 40
6.350004187474984
 40
6.702782197890257
 40
6.702782197890257
 40
6.702782197890257
 40
7.055560208305537
 40
7.055560208305537
 40
7.055560208305537
 40
7.408338218720808
 40
7.408338218720808
 40
7.408338218720808
 40
7.76111622913609
 40
7.76111622913609
 40
7.76111622913609
 40
8.113894239551369
 40
8.113894239551369
 40
8.113894239551369
 40
8.466672249966642
 40
8.466672249966642
 40
8.466672249966642
 40
8.819450260381922
 40
8.819450260381922
 40
8.819450260381922
 40
9.172228270797198
 40
9.172228270797198
 40
9.172228270797198
 40
9.525006281212476
 40
9.525006281212476
 40
9.525006281212476
 40
9.877784291627751
 40
9.877784291627751
 40
9.877784291627751
 40
10.23056230204303
 40
10.23056230204303
 40
10.23056230204303
 40
10.58334031245831
 40
10.58334031245831
 40
10.58334031245831
 40
10.93611832287358
 40
10.93611832287358
 40
10.93611832287358
 40
11.28889633328886
 40
11.28889633328886
 40
11.28889633328886
 40
11.64167434370414
 40
11.64167434370414
 40
11.64167434370414
 40
11.99445235411941
 40
11.99445235411941
 40
11.99445235411941
 40
12.34723036453469
 40
12.34723036453469
 40
12.34723036453469
 40
12.70000837494997
 40
12.70000837494997
 40
12.70000837494997
 40
13.05278638536524
 40
13.05278638536524
 40
13.05278638536524
 40
13.40556439578052
 40
13.40556439578052
 40
13.40556439578052
 40
13.7583424061958
 40
13.7583424061958
 40
13.7583424061958
 40
14.11112041661107
 40
14.11112041661107
 40
14.11112041661107
 40
14.46389842702635
 40
14.46389842702635
 40
14.46389842702635
 40
14.81667643744163
 40
14.81667643744163
 40
14.81667643744163
 40
14.81667643744163
 10
173.3972823146245
 20
126.8274843518258
 10
173.3972823146245
 20
126.8274843518258
 10
173.3972823146245
 20
126.7217198506564
 10
173.3972823146245
 20
126.7217198506564
 10
173.3972823146245
 20
126.7217198506564
 10
173.4186419207238
 20
126.7217198506564
 10
173.4186419207238
 20
126.7217198506564
 10
173.4186419207238
 20
126.7217198506564
 10
173.4820317194703
 20
126.7007047543328
 10
173.4820317194703
 20
126.7007047543328
 10
173.4820317194703
 20
126.7007047543328
 10
173.5244064218933
 20
126.6793451482334
 10
173.5244064218933
 20
126.6793451482334
 10
173.5244064218933
 20
126.6793451482334
 10
173.5877962206398
 20
126.6793451482334
 10
173.5877962206398
 20
126.6793451482334
 10
173.5877962206398
 20
126.6793451482334
 10
173.6301709230627
 20
126.6583300519099
 10
173.6301709230627
 20
126.6583300519099
 10
173.7955356154449
 20
126.5911506456296
 10
173.759706598762
 20
126.6380039751379
 10
173.9478089363468
 20
126.5525655507404
 10
173.9478089363468
 20
126.5525655507404
 10
173.9688240326703
 20
126.4464565397952
 10
173.9688240326703
 20
126.4464565397952
 10
173.9688240326703
 20
126.4464565397952
 10
174.0325583411926
 20
126.5101908483175
 10
174.0325583411926
 20
126.5101908483175
 10
174.0325583411926
 20
126.5101908483175
 10
174.0749330436156
 20
126.5101908483175
 10
174.0749330436156
 20
126.5101908483175
 10
174.0749330436156
 20
126.5101908483175
 10
174.1593379386856
 20
126.4678161458946
 10
174.1593379386856
 20
126.4678161458946
 10
174.1593379386856
 20
126.4678161458946
 10
174.180697544785
 20
126.4464565397952
 10
174.180697544785
 20
126.4464565397952
 10
174.2464989119621
 20
126.3982251711837
 10
174.3298702777047
 20
126.3716979184474
 10
174.3922265471239
 20
126.3196769423022
 10
174.608234176548
 20
126.2059887162895
 10
174.7749769080334
 20
126.0278771622029
 10
174.9637682651697
 20
125.8749148217494
 10
174.9637682651697
 20
125.8749148217494
 10
175.0061429675926
 20
125.9172895241723
 10
175.0061429675926
 20
125.9172895241723
 10
174.961356696739
 20
125.9631093243532
 10
174.782211613325
 20
126.1246844092016
 10
174.7308796567315
 20
126.1501781326105
 10
174.7308796567315
 20
126.1501781326105
 10
174.6885049543085
 20
126.1925528350335
 10
174.6885049543085
 20
126.1925528350335
 10
174.6885049543085
 20
126.1925528350335
 10
174.667489857985
 20
126.2349275374564
 10
174.667489857985
 20
126.2349275374564
 10
174.667489857985
 20
126.2349275374564
 10
174.625115155562
 20
126.2559426337799
 10
174.625115155562
 20
126.2559426337799
 10
174.625115155562
 20
126.2559426337799
 10
174.5827404531391
 20
126.2983173362029
 10
174.5827404531391
 20
126.2983173362029
 10
174.5827404531391
 20
126.2983173362029
 10
174.5403657507162
 20
126.3196769423022
 10
174.5403657507162
 20
126.3196769423022
 10
174.5403657507162
 20
126.3196769423022
 10
174.4979910482932
 20
126.3620516447252
 10
174.4979910482932
 20
126.3620516447252
 10
174.4735308542117
 20
126.3875453681341
 10
174.3247026310678
 20
126.4695386947736
 10
174.2864620459544
 20
126.4888312422181
 10
174.2864620459544
 20
126.4888312422181
 10
174.2654469496308
 20
126.5101908483175
 10
174.2654469496308
 20
126.5101908483175
 10
174.2654469496308
 20
126.5101908483175
 10
174.2230722472079
 20
126.5312059446411
 10
174.2230722472079
 20
126.5312059446411
 10
174.2230722472079
 20
126.5312059446411
 10
174.2017126411085
 20
126.5525655507404
 10
174.2017126411085
 20
126.5525655507404
 10
174.2017126411085
 20
126.5525655507404
 10
174.1383228423621
 20
126.573580647064
 10
174.1383228423621
 20
126.573580647064
 10
174.1383228423621
 20
126.573580647064
 10
174.1169632362627
 20
126.5945957433876
 10
174.1169632362627
 20
126.5945957433876
 10
174.1169632362627
 20
126.5945957433876
 10
174.0959481399391
 20
126.7007047543328
 10
174.0959481399391
 20
126.7007047543328
 10
174.0959481399391
 20
126.7007047543328
 10
174.0325583411926
 20
126.6369704458105
 10
174.0325583411926
 20
126.6369704458105
 10
174.0325583411926
 20
126.6369704458105
 10
173.9901836387697
 20
126.6369704458105
 10
173.9901836387697
 20
126.6369704458105
 10
173.9901836387697
 20
126.6369704458105
 10
173.9054342339239
 20
126.6793451482334
 10
173.9054342339239
 20
126.6793451482334
 10
173.9054342339239
 20
126.6793451482334
 10
173.8420444351773
 20
126.7007047543328
 10
173.8420444351773
 20
126.7007047543328
 10
173.8420444351773
 20
126.7007047543328
 10
173.7996697327544
 20
126.7217198506564
 10
173.7996697327544
 20
126.7217198506564
 10
173.7996697327544
 20
126.7217198506564
 10
173.7572950303315
 20
126.7217198506564
 10
173.7572950303315
 20
126.7217198506564
 10
173.7572950303315
 20
126.7217198506564
 10
173.6725456254856
 20
126.7640945530793
 10
173.6725456254856
 20
126.7640945530793
 10
173.6725456254856
 20
126.7640945530793
 10
173.6515305291621
 20
126.7640945530793
 10
173.6515305291621
 20
126.7640945530793
 10
173.6515305291621
 20
126.7640945530793
 10
173.5667811243162
 20
126.7851096494029
 10
173.5667811243162
 20
126.7851096494029
 10
173.5667811243162
 20
126.7851096494029
 10
173.5033913255697
 20
126.8064692555022
 10
173.5033913255697
 20
126.8064692555022
 10
173.5033913255697
 20
126.8064692555022
 10
173.4396570170474
 20
126.8064692555022
 10
173.4396570170474
 20
126.8064692555022
 10
173.4396570170474
 20
126.8064692555022
 10
173.4186419207238
 20
126.8274843518258
 10
173.4186419207238
 20
126.8274843518258
 10
173.4186419207238
 20
126.8274843518258
 10
173.3972823146245
 20
126.8274843518258
 10
173.3972823146245
 20
126.8274843518258
 72
     1
 10
173.3972823146245
 20
126.8274843518258
 11
173.3972823146245
 21
126.8274843518258
 97
        0
 75
     0
 76
     1
 98
        0
450
        0
451
        0
460
0.0
461
0.0
452
        0
462
0.0
453
        0
470

  0
HATCH
  5
4842
330
1F
100
AcDbEntity
  8
图层 1
 62
     7
100
AcDbHatch
 10
0.0
 20
0.0
 30
0.0
210
0.0
220
0.0
230
1.0
  2
SOLID
 70
     1
 71
     0
 91
        1
 92
        1
 93
        2
 72
     4
 94
        3
 73
     0
 74
     0
 95
       47
 96
       43
 40
0.0
 40
0.0
 40
0.0
 40
0.0
 40
0.3527780104152769
 40
0.3527780104152769
 40
0.3527780104152769
 40
0.7055560208305538
 40
0.7055560208305538
 40
0.7055560208305538
 40
1.058334031245828
 40
1.058334031245828
 40
1.058334031245828
 40
1.411112041661104
 40
1.411112041661104
 40
1.411112041661104
 40
1.763890052076384
 40
1.763890052076384
 40
1.763890052076384
 40
2.116668062491659
 40
2.116668062491659
 40
2.116668062491659
 40
2.469446072906936
 40
2.469446072906936
 40
2.469446072906936
 40
2.822224083322215
 40
2.822224083322215
 40
2.822224083322215
 40
3.175002093737492
 40
3.175002093737492
 40
3.175002093737492
 40
3.527780104152768
 40
3.527780104152768
 40
3.527780104152768
 40
3.880558114568044
 40
3.880558114568044
 40
3.880558114568044
 40
4.233336124983321
 40
4.233336124983321
 40
4.233336124983321
 40
4.586114135398599
 40
4.586114135398599
 40
4.586114135398599
 40
4.938892145813873
 40
4.938892145813873
 40
4.938892145813873
 40
4.938892145813873
 10
180.1920486226523
 20
255.6479577566324
 10
180.1920486226523
 20
255.6479577566324
 10
180.2130637189759
 20
255.6055830542095
 10
180.2130637189759
 20
255.6055830542095
 10
180.2130637189759
 20
255.6055830542095
 10
180.2130637189759
 20
255.5210059042515
 10
180.2130637189759
 20
255.5210059042515
 10
180.2130637189759
 20
255.5210059042515
 10
180.1920486226523
 20
255.4786312018286
 10
180.1920486226523
 20
255.4786312018286
 10
180.1920486226523
 20
255.4786312018286
 10
180.1496739202294
 20
255.4359119896299
 10
180.1496739202294
 20
255.4359119896299
 10
180.1496739202294
 20
255.4359119896299
 10
180.1283143141301
 20
255.4147246384184
 10
180.1283143141301
 20
255.4147246384184
 10
180.1283143141301
 20
255.4147246384184
 10
180.0225498129606
 20
255.4147246384184
 10
180.0225498129606
 20
255.4147246384184
 10
180.0225498129606
 20
255.4147246384184
 10
179.9591600142141
 20
255.4359119896299
 10
179.9591600142141
 20
255.4359119896299
 10
179.9591600142141
 20
255.4359119896299
 10
179.9167853117912
 20
255.4570993408414
 10
179.9167853117912
 20
255.4570993408414
 10
179.9167853117912
 20
255.4570993408414
 10
179.8957702154676
 20
255.4786312018286
 10
179.8957702154676
 20
255.4786312018286
 10
179.8957702154676
 20
255.4786312018286
 10
179.8744106093683
 20
255.4994740432643
 10
179.8744106093683
 20
255.4994740432643
 10
179.8744106093683
 20
255.4994740432643
 10
179.8744106093683
 20
255.6479577566324
 10
179.8744106093683
 20
255.6479577566324
 10
179.9608825630931
 20
255.7323626517025
 10
180.045631967939
 20
255.7085914771726
 10
180.1496739202294
 20
255.7115198102668
 10
180.1496739202294
 20
255.7115198102668
 10
180.170689016553
 20
255.6688005980681
 10
180.170689016553
 20
255.6688005980681
 10
180.170689016553
 20
255.6688005980681
 10
180.1920486226523
 20
255.6479577566324
 10
180.1920486226523
 20
255.6479577566324
 72
     1
 10
180.1920486226523
 20
255.6479577566324
 11
180.1920486226523
 21
255.6479577566324
 97
        0
 75
     0
 76
     1
 98
        0
450
        0
451
        0
460
0.0
461
0.0
452
        0
462
0.0
453
        0
470

  0
MTEXT
  5
65A0
330
1F
100
AcDbEntity
  8
图框
 62
     3
100
AcDbMText
 10
599.071704550352
 20
228.6676486843801
 30
0.0
 40
1.492756787517073
 41
16.80619599621068
 46
4.343372752842933
 71
     5
 72
     5
  1
CODE-Q2
  7
Romans字体
 73
     1
 44
1.0
1001
ACAD
1000
ACAD_MTEXT_DEFINED_HEIGHT_BEGIN
1070
    46
1040
4.343372752842933
1000
ACAD_MTEXT_DEFINED_HEIGHT_END
  0
MTEXT
  5
65A1
330
1F
100
AcDbEntity
  8
图框
 62
     3
100
AcDbMText
 10
599.071704550352
 20
224.277923420967
 30
0.0
 40
1.492756787517073
 41
16.80619599621068
 46
4.43607777398305
 71
     5
 72
     5
  1
1980020050011
  7
Romans字体
 73
     1
 44
1.0
1001
ACAD
1000
ACAD_MTEXT_DEFINED_HEIGHT_BEGIN
1070
    46
1040
4.43607777398305
1000
ACAD_MTEXT_DEFINED_HEIGHT_END
  0
MTEXT
  5
65A3
330
1F
100
AcDbEntity
  8
图框
 62
     3
100
AcDbMText
 10
565.0448720850595
 20
217.6241058815945
 30
0.0
 40
1.492756787517073
 41
5.414674217195233
 46
3.943047300605248
 71
     5
 72
     5
  1
2:1
  7
Romans字体
 73
     1
 44
1.0
1001
ACAD
1000
ACAD_MTEXT_DEFINED_HEIGHT_BEGIN
1070
    46
1040
3.943047300605248
1000
ACAD_MTEXT_DEFINED_HEIGHT_END
  0
MTEXT
  5
65B2
330
1F
100
AcDbEntity
  8
图框
 62
     3
100
AcDbMText
 10
575.8742205194505
 20
217.6241058815946
 30
0.0
 40
1.492756787517073
 41
16.80619599621068
 46
3.943047300605201
 71
     5
 72
     5
  1
0.3g 
  7
Romans字体
 73
     1
 44
1.0
1001
ACAD
1000
ACAD_MTEXT_DEFINED_HEIGHT_BEGIN
1070
    46
1040
3.943047300605201
1000
ACAD_MTEXT_DEFINED_HEIGHT_END
  0
INSERT
  5
11089
330
1F
100
AcDbEntity
  8
DIM
100
AcDbBlockReference
  2
A4图框-NEW
 10
44.01055124327593
 20
-30.29676506807346
 30
0.0
 41
0.5
 42
0.5
 43
0.5
  0
MTEXT
  5
1A5D3
102
{ACAD_XDICTIONARY
360
1C426
102
}
330
1F
100
AcDbEntity
  8
打标文字
 62
     3
100
AcDbMText
 10
581.8389117647241
 20
255.8896924308673
 30
0.0
 40
1.5
 41
40.58854755587267
 46
49.02347725636656
 71
     1
 72
     5
  1
\A1;技术参数:\P- 材料：聚碳酸酯\P- 颜色：{\Fromans|c134;RAL 3003}（红色）\P{\Fromans|c134;\PTechnical specification:\P- Material: polycarbonate\P- Colour: RAL 3003(red)}
 73
     1
 44
1.0
1001
ACAD
1000
ACAD_MTEXT_DEFINED_HEIGHT_BEGIN
1070
    46
1040
49.02347725636656
1000
ACAD_MTEXT_DEFINED_HEIGHT_END
  0
DIMENSION
  5
1BEC3
330
1F
100
AcDbEntity
  8
DIM
370
     0
100
AcDbDimension
  2
*D20
 10
519.366843392501
 20
254.3654892601664
 30
0.0
 11
519.366843392501
 21
247.6012035458808
 31
0.0
 70
   160
 71
     3
 42
2.199999999999818
 73
     0
 74
     0
 75
     0
  3
01
100
AcDbAlignedDimension
 13
521.0819284626501
 23
256.5654892601662
 33
0.0
 14
521.0819284626501
 24
254.3654892601664
 34
0.0
 50
270.0
100
AcDbRotatedDimension
  0
LWPOLYLINE
  5
1BEC4
330
1F
100
AcDbEntity
  8
0
370
     0
100
AcDbPolyline
 90
        6
 70
     0
 43
0.0
 10
477.8874149137634
 20
236.1586995361924
 10
477.8174665418836
 20
236.0410770009723
 10
477.7791583786637
 20
235.9035175314723
 10
477.7803905582231
 20
235.7718090206524
 10
477.8168767343538
 20
235.6517188041423
 10
477.8838549635828
 20
235.5506485216326
  0
LINE
  5
1BEC5
330
1F
100
AcDbEntity
  8
0
370
     0
100
AcDbLine
 10
477.8869513990938
 20
236.1581460502323
 30
0.0
 11
478.2374562036128
 21
236.6091500626923
 31
0.0
  0
LINE
  5
1BEC6
330
1F
100
AcDbEntity
  8
0
370
     0
100
AcDbLine
 10
477.8871644384532
 20
236.1584193853625
 30
0.0
 11
477.8961809810834
 21
236.1692349034326
 31
0.0
  0
LINE
  5
1BEC7
330
1F
100
AcDbEntity
  8
0
370
     0
100
AcDbLine
 10
478.6426689717134
 20
237.0893991045425
 30
0.0
 11
478.6012119985634
 21
237.0436007371324
 31
0.0
  0
LINE
  5
1BEC8
330
1F
100
AcDbEntity
  8
0
370
     0
100
AcDbLine
 10
479.1083563778828
 20
237.5312493339126
 30
0.0
 11
479.0668994065326
 21
237.4854509682124
 31
0.0
  0
LINE
  5
1BEC9
330
1F
100
AcDbEntity
  8
0
370
     0
100
AcDbLine
 10
478.2330933910633
 20
236.6043346378026
 30
0.0
 11
478.2374562036128
 21
236.6091500626923
 31
0.0
  0
LINE
  5
1BECA
330
1F
100
AcDbEntity
  8
0
370
     0
100
AcDbLine
 10
478.6426689717134
 20
237.0893991045425
 30
0.0
 11
479.1083563796826
 21
237.5312493356225
 31
0.0
  0
LINE
  5
1BECB
330
1F
100
AcDbEntity
  8
0
370
     0
100
AcDbLine
 10
478.6012119985634
 20
237.0436007371324
 30
0.0
 11
479.0668994065326
 21
237.4854509682124
 31
0.0
  0
LINE
  5
1BECC
330
1F
100
AcDbEntity
  8
0
370
     0
100
AcDbLine
 10
478.9056163976536
 20
237.2431090898824
 30
0.0
 11
478.5643411751232
 21
236.8031939306227
 31
0.0
  0
LINE
  5
1BECD
330
1F
100
AcDbEntity
  8
0
370
     0
100
AcDbLine
 10
479.358043275103
 20
237.0585186719224
 30
0.0
 11
478.9117602918438
 21
236.4832450020724
 31
0.0
  0
LINE
  5
1BECE
330
1F
100
AcDbEntity
  8
0
370
     0
100
AcDbLine
 10
477.8961809810834
 20
236.1692349034326
 30
0.0
 11
478.5643411751232
 21
236.8031939306227
 31
0.0
  0
LINE
  5
1BECF
330
1F
100
AcDbEntity
  8
0
370
     0
100
AcDbLine
 10
477.9443575063331
 20
235.5117720517926
 30
0.0
 11
478.6935068148729
 21
236.2225745974626
 31
0.0
  0
LINE
  5
1BED0
330
1F
100
AcDbEntity
  8
0
370
     0
100
AcDbLine
 10
477.9333148866733
 20
235.5038845679826
 30
0.0
 11
477.9443576767933
 21
235.5117719166126
 31
0.0
  0
LINE
  5
1BED1
330
1F
100
AcDbEntity
  8
0
370
     0
100
AcDbLine
 10
497.8599705058029
 20
218.0424182990525
 30
0.0
 11
496.798432996993
 21
218.3518766085424
 31
0.0
  0
LINE
  5
1BED2
330
1F
100
AcDbEntity
  8
0
370
     0
100
AcDbLine
 10
498.3054106351927
 20
218.4650576505125
 30
0.0
 11
497.2438731263836
 21
218.7745159599124
 31
0.0
  0
LINE
  5
1BED3
330
1F
100
AcDbEntity
  8
0
370
     0
100
AcDbLine
 10
493.2859204048035
 20
221.0868061499825
 30
0.0
 11
487.9127059933033
 21
225.3806718348726
 31
0.0
  0
LINE
  5
1BED4
330
1F
100
AcDbEntity
  8
0
370
     0
100
AcDbLine
 10
496.6064939940731
 20
218.4518390863625
 30
0.0
 11
496.4673176606227
 21
218.5630582628825
 31
0.0
  0
LINE
  5
1BED5
330
1F
100
AcDbEntity
  8
0
370
     0
100
AcDbLine
 10
493.3227316018036
 20
221.1130957947423
 30
0.0
 11
487.9495171903935
 21
225.4069614797224
 31
0.0
  0
LINE
  5
1BED6
330
1F
100
AcDbEntity
  8
0
370
     0
100
AcDbLine
 10
493.6718820345729
 20
221.1258676605423
 30
0.0
 11
496.6248293017631
 21
218.7660960287223
 31
0.0
  0
LINE
  5
1BED7
330
1F
100
AcDbEntity
  8
0
370
     0
100
AcDbLine
 10
497.0519341234639
 20
218.8744784377325
 30
0.0
 11
496.9127577900125
 21
218.9856976143426
 31
0.0
  0
LINE
  5
1BED8
330
1F
100
AcDbEntity
  8
0
370
     0
100
AcDbLine
 10
488.4152045983626
 20
225.8488117107124
 30
0.0
 11
493.7884190097737
 21
221.5549460258223
 31
0.0
  0
LINE
  5
1BED9
330
1F
100
AcDbEntity
  8
0
370
     0
100
AcDbLine
 10
477.8838549635828
 20
235.5506485216326
 30
0.0
 11
477.9333726950233
 21
235.5039567758824
 31
0.0
  0
LINE
  5
1BEDA
330
1F
100
AcDbEntity
  8
0
370
     0
100
AcDbLine
 10
499.3631816769428
 20
220.0614224545027
 30
0.0
 11
495.3922242313026
 21
222.5607166990923
 31
0.0
  0
LINE
  5
1BEDB
330
1F
100
AcDbEntity
  8
0
370
     0
100
AcDbLine
 10
494.1173221639626
 20
221.5485070120023
 30
0.0
 11
497.0702694311529
 21
219.1887353801824
 31
0.0
  0
LINE
  5
1BEDC
330
1F
100
AcDbEntity
  8
0
370
     0
100
AcDbLine
 10
488.9255763092839
 20
226.7197024173426
 30
0.0
 11
477.9333143977926
 21
235.5038849582226
 31
0.0
  0
LINE
  5
1BEDD
330
1F
100
AcDbEntity
  8
0
370
     0
100
AcDbLine
 10
488.9366196683829
 20
226.7275893108424
 30
0.0
 11
477.9443575063331
 21
235.5117720517926
 31
0.0
  0
LINE
  5
1BEDE
330
1F
100
AcDbEntity
  8
0
370
     0
100
AcDbLine
 10
499.8086218063325
 20
220.4840618059627
 30
0.0
 11
495.8376643606932
 21
222.9833560505524
 31
0.0
  0
LINE
  5
1BEDF
330
1F
100
AcDbEntity
  8
0
370
     0
100
AcDbLine
 10
489.1427161882638
 20
226.7177130595926
 30
0.0
 11
494.515930599763
 21
222.4238473747025
 31
0.0
  0
LINE
  5
1BEE0
330
1F
100
AcDbEntity
  8
0
370
     0
100
AcDbLine
 10
488.2720832081529
 20
225.8916452362925
 30
0.0
 11
488.9186423727732
 21
226.7250815925124
 31
0.0
  0
LINE
  5
1BEE1
330
1F
100
AcDbEntity
  8
0
370
     0
100
AcDbLine
 10
489.9040224538038
 20
227.6990622610326
 30
0.0
 11
489.1427161882638
 21
226.7177130595926
 31
0.0
  0
LINE
  5
1BEE2
330
1F
100
AcDbEntity
  8
0
370
     0
100
AcDbLine
 10
489.6857689768338
 20
227.4383918564224
 30
0.0
 11
488.9366196683829
 21
226.7275893108424
 31
0.0
  0
LINE
  5
1BEE3
330
1F
100
AcDbEntity
  8
0
370
     0
100
AcDbLine
 10
488.4152045983626
 20
225.8488117107124
 30
0.0
 11
487.9495171903935
 21
225.4069614797224
 31
0.0
  0
LINE
  5
1BEE4
330
1F
100
AcDbEntity
  8
0
370
     0
100
AcDbLine
 10
488.9366196683829
 20
226.7275893108424
 30
0.0
 11
488.9255760215536
 21
226.7197026628625
 31
0.0
  0
LINE
  5
1BEE5
330
1F
100
AcDbEntity
  8
0
370
     0
100
AcDbLine
 10
478.6935068148729
 20
236.2225745974626
 30
0.0
 11
489.6857689768338
 21
227.4383918564224
 31
0.0
  0
LINE
  5
1BEE6
330
1F
100
AcDbEntity
  8
0
370
     0
100
AcDbLine
 10
478.9117602918438
 20
236.4832450020724
 30
0.0
 11
489.9040224538038
 21
227.6990622610326
 31
0.0
  0
LINE
  5
1BEE7
330
1F
100
AcDbEntity
  8
0
370
     0
100
AcDbLine
 10
495.1418117434631
 20
222.0863787877626
 30
0.0
 11
498.4672298295135
 21
218.7549627497226
 31
0.0
  0
LINE
  5
1BEE8
330
1F
100
AcDbEntity
  8
0
370
     0
100
AcDbLine
 10
495.7235198485632
 20
223.9804702459926
 30
0.0
 11
479.358043275103
 21
237.0585186719224
 31
0.0
  0
LINE
  5
1BEE9
330
1F
100
AcDbEntity
  8
0
370
     0
100
AcDbLine
 10
499.0654168857425
 20
221.7605470805827
 30
0.0
 11
496.1298916138938
 21
224.1063963742624
 31
0.0
  0
LINE
  5
1BEEA
330
1F
100
AcDbEntity
  8
0
370
     0
100
AcDbLine
 10
499.222928526883
 20
221.9635848464224
 30
0.0
 11
499.3621048603334
 21
221.8523656698123
 31
0.0
  0
LINE
  5
1BEEB
330
1F
100
AcDbEntity
  8
0
370
     0
100
AcDbLine
 10
496.0828970633228
 20
224.4914436474125
 30
0.0
 11
479.7174204898636
 21
237.5694920733424
 31
0.0
  0
LINE
  5
1BEEC
330
1F
100
AcDbEntity
  8
0
370
     0
100
AcDbLine
 10
499.5028785442026
 20
221.6864493870423
 30
0.0
 11
500.0483228170931
 21
220.7117296606627
 31
0.0
  0
LINE
  5
1BEED
330
1F
100
AcDbEntity
  8
0
370
     0
100
AcDbLine
 10
494.515930599763
 20
222.4238473747025
 30
0.0
 11
495.7235198485632
 21
223.9804702459926
 31
0.0
  0
LINE
  5
1BEEE
330
1F
100
AcDbEntity
  8
0
370
     0
100
AcDbLine
 10
494.6685207421031
 20
222.2007171012126
 30
0.0
 11
495.8761099909033
 21
223.7573399725027
 31
0.0
  0
LINE
  5
1BEEF
330
1F
100
AcDbEntity
  8
0
370
     0
100
AcDbLine
 10
493.3227316018036
 20
221.1130957947423
 30
0.0
 11
493.7884190097737
 21
221.5549460258223
 31
0.0
  0
LINE
  5
1BEF0
330
1F
100
AcDbEntity
  8
0
370
     0
100
AcDbLine
 10
493.6660833497834
 20
221.1202676505724
 30
0.0
 11
494.1173221639626
 21
221.5485070120023
 31
0.0
  0
LINE
  5
1BEF1
330
1F
100
AcDbEntity
  8
0
370
     0
100
AcDbLine
 10
494.1216471183731
 20
221.5525124418425
 30
0.0
 11
494.1317707577535
 21
221.5621178815625
 31
0.0
  0
LINE
  5
1BEF2
330
1F
100
AcDbEntity
  8
0
370
     0
100
AcDbLine
 10
495.8376643606932
 20
222.9833560505524
 30
0.0
 11
495.3922242313026
 21
222.5607166990923
 31
0.0
  0
LINE
  5
1BEF3
330
1F
100
AcDbEntity
  8
0
370
     0
100
AcDbLine
 10
494.1173221639626
 20
221.5485070120023
 30
0.0
 11
494.1216287047335
 21
221.5524873240126
 31
0.0
  0
LINE
  5
1BEF4
330
1F
100
AcDbEntity
  8
0
370
     0
100
AcDbLine
 10
496.4673176606227
 20
218.5630582628825
 30
0.0
 11
496.6248293017631
 21
218.7660960287223
 31
0.0
  0
LINE
  5
1BEF5
330
1F
100
AcDbEntity
  8
0
370
     0
100
AcDbLine
 10
496.9127577900125
 20
218.9856976143426
 30
0.0
 11
497.0702694311529
 21
219.1887353801824
 31
0.0
  0
LINE
  5
1BEF6
330
1F
100
AcDbEntity
  8
0
370
     0
100
AcDbLine
 10
499.0654168857425
 20
221.7605470805827
 30
0.0
 11
499.222928526883
 21
221.9635848464224
 31
0.0
  0
LINE
  5
1BEF7
330
1F
100
AcDbEntity
  8
0
370
     0
100
AcDbLine
 10
499.222928526883
 20
221.9635848464224
 30
0.0
 11
499.0347586405331
 21
221.7850468264025
 31
0.0
  0
LINE
  5
1BEF8
330
1F
100
AcDbEntity
  8
0
370
     0
100
AcDbLine
 10
497.0702694311529
 20
219.1887353801824
 30
0.0
 11
496.6248293017631
 21
218.7660960287223
 31
0.0
  0
LINE
  5
1BEF9
330
1F
100
AcDbEntity
  8
0
370
     0
100
AcDbLine
 10
496.9127577900125
 20
218.9856976143426
 30
0.0
 11
496.4673176606227
 21
218.5630582628825
 31
0.0
  0
LINE
  5
1BEFA
330
1F
100
AcDbEntity
  8
0
370
     0
100
AcDbLine
 10
496.6064939940731
 20
218.4518390863625
 30
0.0
 11
497.0519341234639
 21
218.8744784377325
 31
0.0
  0
LINE
  5
1BEFB
330
1F
100
AcDbEntity
  8
0
370
     0
100
AcDbLine
 10
496.798432996993
 20
218.3518766085424
 30
0.0
 11
497.2438731263836
 21
218.7745159599124
 31
0.0
  0
LINE
  5
1BEFC
330
1F
100
AcDbEntity
  8
0
370
     0
100
AcDbLine
 10
499.8086218063325
 20
220.4840618059627
 30
0.0
 11
499.3631816769428
 21
220.0614224545027
 31
0.0
  0
LINE
  5
1BEFD
330
1F
100
AcDbEntity
  8
0
370
     0
100
AcDbLine
 10
500.0202838995726
 20
220.5010993042926
 30
0.0
 11
499.5748437701831
 21
220.0784599528326
 31
0.0
  0
LINE
  5
1BEFE
330
1F
100
AcDbEntity
  8
0
370
     0
100
AcDbLine
 10
498.3054106351927
 20
218.4650576505125
 30
0.0
 11
497.8599705058029
 21
218.0424182990525
 31
0.0
  0
LINE
  5
1BEFF
330
1F
100
AcDbEntity
  8
0
370
     0
100
AcDbLine
 10
498.4703321328431
 20
218.5031597136424
 30
0.0
 11
498.0248920034536
 21
218.0805203621823
 31
0.0
  0
LINE
  5
1BF00
330
1F
100
AcDbEntity
  8
0
370
     0
100
AcDbLine
 10
522.6608772339501
 20
275.4424159896783
 30
0.0
 11
522.6608772339501
 21
275.742415989678
 31
0.0
  0
LINE
  5
1BF01
330
1F
100
AcDbEntity
  8
0
370
     0
100
AcDbLine
 10
522.6608772339501
 20
279.5424159896782
 30
0.0
 11
522.6608772339501
 21
279.8424159896779
 31
0.0
  0
LINE
  5
1BF02
330
1F
100
AcDbEntity
  8
0
370
     0
100
AcDbLine
 10
526.8608772339509
 20
279.5930586291791
 30
0.0
 11
526.8608772339498
 21
275.691773350178
 31
0.0
  0
LINE
  5
1BF03
330
1F
100
AcDbEntity
  8
0
370
     0
100
AcDbLine
 10
527.1608772339501
 20
279.7924159896782
 30
0.0
 11
527.1608772339501
 21
275.492415989678
 31
0.0
  0
LINE
  5
1BF04
330
1F
100
AcDbEntity
  8
0
370
     0
100
AcDbLine
 10
522.2258815686505
 20
279.793690715778
 30
0.0
 11
521.0819284626501
 21
279.3022096745779
 31
0.0
  0
LINE
  5
1BF05
330
1F
100
AcDbEntity
  8
0
370
     0
100
AcDbLine
 10
521.0819284626501
 20
275.9826223047783
 30
0.0
 11
522.2258815686505
 21
275.4911412635782
 31
0.0
  0
LINE
  5
1BF06
330
1F
100
AcDbEntity
  8
0
370
     0
100
AcDbLine
 10
522.4627278825496
 20
275.4424159896783
 30
0.0
 11
522.6608772339501
 21
275.4424159896783
 31
0.0
  0
LINE
  5
1BF07
330
1F
100
AcDbEntity
  8
0
370
     0
100
AcDbLine
 10
527.1608772339501
 20
275.492415989678
 30
0.0
 11
534.8108772339497
 21
275.492415989678
 31
0.0
  0
LINE
  5
1BF08
102
{ACAD_REACTORS
330
1BF8B
102
}
330
1F
100
AcDbEntity
  8
0
370
     0
100
AcDbLine
 10
526.7278645320581
 20
275.742415989678
 30
0.0
 11
522.6608772339501
 21
275.742415989678
 31
0.0
  0
LINE
  5
1BF09
102
{ACAD_REACTORS
330
1BF8B
102
}
330
1F
100
AcDbEntity
  8
0
370
     0
100
AcDbLine
 10
534.8108772339497
 20
275.492415989678
 30
0.0
 11
534.8108772339497
 21
277.9424159896783
 31
0.0
  0
LINE
  5
1BF0A
330
1F
100
AcDbEntity
  8
0
370
     0
100
AcDbLine
 10
526.8608772339498
 20
276.492415989678
 30
0.0
 11
534.8108772339497
 21
276.492415989678
 31
0.0
  0
LINE
  5
1BF0B
330
1F
100
AcDbEntity
  8
0
370
     0
100
AcDbLine
 10
534.8108772339497
 20
277.6424159896781
 30
0.0
 11
550.4608772339503
 21
277.6424159896781
 31
0.0
  0
LINE
  5
1BF0C
330
1F
100
AcDbEntity
  8
0
370
     0
100
AcDbLine
 10
521.1373697544501
 20
278.9198377411779
 30
0.0
 11
526.3313996724497
 21
278.3050837887779
 31
0.0
  0
LINE
  5
1BF0D
330
1F
100
AcDbEntity
  8
0
370
     0
100
AcDbLine
 10
526.3313996724497
 20
276.9797481904782
 30
0.0
 11
521.1373697544501
 21
276.3649942381783
 31
0.0
  0
LINE
  5
1BF0E
330
1F
100
AcDbEntity
  8
0
370
     0
100
AcDbLine
 10
534.8108772339497
 20
277.9424159896783
 30
0.0
 11
550.4608772339503
 21
277.9424159896783
 31
0.0
  0
LINE
  5
1BF0F
102
{ACAD_REACTORS
330
1BF82
102
}
330
1F
100
AcDbEntity
  8
0
370
     0
100
AcDbLine
 10
526.8608772339498
 20
278.7924159896782
 30
0.0
 11
550.9608772339503
 21
278.7924159896782
 31
0.0
  0
LINE
  5
1BF10
330
1F
100
AcDbEntity
  8
0
370
     0
100
AcDbLine
 10
526.7278645320581
 20
279.5424159896782
 30
0.0
 11
522.6608772339501
 21
279.5424159896782
 31
0.0
  0
LINE
  5
1BF11
330
1F
100
AcDbEntity
  8
0
370
     0
100
AcDbLine
 10
550.4608772339503
 20
279.7924159896782
 30
0.0
 11
527.1608772339501
 21
279.7924159896782
 31
0.0
  0
LINE
  5
1BF12
330
1F
100
AcDbEntity
  8
0
370
     0
100
AcDbLine
 10
522.6608772339501
 20
279.8424159896779
 30
0.0
 11
522.4627278825496
 21
279.8424159896779
 31
0.0
  0
LINE
  5
1BF13
330
1F
100
AcDbEntity
  8
0
370
     0
100
AcDbLine
 10
550.4608769921502
 20
277.6424159896781
 30
0.0
 11
550.4608772339503
 21
279.7924159896782
 31
0.0
  0
LINE
  5
1BF14
330
1F
100
AcDbEntity
  8
0
370
     0
100
AcDbLine
 10
550.9608772339503
 20
278.1424159896781
 30
0.0
 11
550.9608772339503
 21
279.2924159896782
 31
0.0
  0
LINE
  5
1BF15
330
1F
100
AcDbEntity
  8
0
370
     0
100
AcDbLine
 10
520.9608772339503
 20
256.5654892601662
 30
0.0
 11
520.9608772339503
 21
254.3654892601664
 31
0.0
  0
LINE
  5
1BF16
330
1F
100
AcDbEntity
  8
0
370
     0
100
AcDbLine
 10
521.0819284626501
 20
256.5654892601662
 30
0.0
 11
521.0819284626501
 21
254.3654892601664
 31
0.0
  0
LINE
  5
1BF17
330
1F
100
AcDbEntity
  8
0
370
     0
100
AcDbLine
 10
522.2258815686505
 20
254.3654892601664
 30
0.0
 11
522.2258815686505
 21
256.5654892601662
 31
0.0
  0
LINE
  5
1BF18
330
1F
100
AcDbEntity
  8
0
370
     0
100
AcDbLine
 10
522.4627278825496
 20
254.3654892601664
 30
0.0
 11
522.4627278825496
 21
256.5654892601662
 31
0.0
  0
LINE
  5
1BF19
330
1F
100
AcDbEntity
  8
0
370
     0
100
AcDbLine
 10
522.6608772339501
 20
256.5654892601662
 30
0.0
 11
522.6608772339501
 21
254.3654892601664
 31
0.0
  0
LINE
  5
1BF1A
330
1F
100
AcDbEntity
  8
0
370
     0
100
AcDbLine
 10
526.8608772339498
 20
257.3154892601662
 30
0.0
 11
526.8608772339498
 21
256.5654892601662
 31
0.0
  0
LINE
  5
1BF1B
330
1F
100
AcDbEntity
  8
0
370
     0
100
AcDbLine
 10
526.8608772339498
 20
254.3654892601664
 30
0.0
 11
526.8608772339498
 21
253.6154892601664
 31
0.0
  0
LINE
  5
1BF1C
330
1F
100
AcDbEntity
  8
0
370
     0
100
AcDbLine
 10
526.8650732448501
 20
254.3654892601664
 30
0.0
 11
526.8650732448501
 21
256.5654892601662
 31
0.0
  0
LINE
  5
1BF1D
330
1F
100
AcDbEntity
  8
0
370
     0
100
AcDbLine
 10
527.1608772339501
 20
257.6154892601664
 30
0.0
 11
527.1608772339501
 21
253.3154892601662
 31
0.0
  0
LINE
  5
1BF1E
330
1F
100
AcDbEntity
  8
0
370
     0
100
AcDbLine
 10
550.4608772339503
 20
253.3154892601662
 30
0.0
 11
527.1608772339501
 21
253.3154892601662
 31
0.0
  0
LINE
  5
1BF1F
330
1F
100
AcDbEntity
  8
0
370
     0
100
AcDbLine
 10
526.8608772339498
 20
254.3154892601662
 30
0.0
 11
550.9608772339503
 21
254.3154892601662
 31
0.0
  0
LINE
  5
1BF20
330
1F
100
AcDbEntity
  8
0
370
     0
100
AcDbLine
 10
526.8650732448501
 20
254.3654892601664
 30
0.0
 11
520.9608921997502
 21
254.3654892601664
 31
0.0
  0
LINE
  5
1BF21
330
1F
100
AcDbEntity
  8
0
370
     0
100
AcDbLine
 10
520.9608921997502
 20
256.5654892601662
 30
0.0
 11
526.8650732448501
 21
256.5654892601662
 31
0.0
  0
LINE
  5
1BF22
330
1F
100
AcDbEntity
  8
0
370
     0
100
AcDbLine
 10
526.8608772339498
 20
256.6154892601664
 30
0.0
 11
550.9608772339503
 21
256.6154892601664
 31
0.0
  0
LINE
  5
1BF23
330
1F
100
AcDbEntity
  8
0
370
     0
100
AcDbLine
 10
527.1608772339501
 20
257.6154892601664
 30
0.0
 11
550.4608772339503
 21
257.6154892601664
 31
0.0
  0
LINE
  5
1BF24
330
1F
100
AcDbEntity
  8
0
370
     0
100
AcDbLine
 10
550.4608772339503
 20
253.3154892601662
 30
0.0
 11
550.4608772339503
 21
257.6154892601664
 31
0.0
  0
LINE
  5
1BF25
330
1F
100
AcDbEntity
  8
0
370
     0
100
AcDbLine
 10
550.9608772339503
 20
253.8154892601662
 30
0.0
 11
550.9608772339503
 21
257.1154892601664
 31
0.0
  0
LINE
  5
1BF26
330
1F
100
AcDbEntity
  8
0
370
     0
100
AcDbLine
 10
506.3434980377766
 20
276.492415989678
 30
0.0
 11
506.3434980377766
 21
278.7924159896782
 31
0.0
  0
LINE
  5
1BF27
330
1F
100
AcDbEntity
  8
0
370
     0
100
AcDbLine
 10
509.5934980377767
 20
275.4424159896783
 30
0.0
 11
507.3934980377758
 21
275.4424159896783
 31
0.0
  0
LINE
  5
1BF28
330
1F
100
AcDbEntity
  8
0
370
     0
100
AcDbLine
 10
509.6434980377757
 20
275.492415989678
 30
0.0
 11
507.3434980377767
 21
275.492415989678
 31
0.0
  0
LINE
  5
1BF29
330
1F
100
AcDbEntity
  8
0
370
     0
100
AcDbLine
 10
506.8434980377766
 20
278.1424159896781
 30
0.0
 11
506.8434980377766
 21
278.7924159896782
 31
0.0
  0
LINE
  5
1BF2A
330
1F
100
AcDbEntity
  8
0
370
     0
100
AcDbLine
 10
507.3434980377767
 20
279.7924159896782
 30
0.0
 11
507.3434980377767
 21
279.2924159896782
 31
0.0
  0
LINE
  5
1BF2B
330
1F
100
AcDbEntity
  8
0
370
     0
100
AcDbLine
 10
507.3934980377758
 20
275.4424159896783
 30
0.0
 11
507.3934980377758
 21
275.492415989678
 31
0.0
  0
LINE
  5
1BF2C
330
1F
100
AcDbEntity
  8
0
370
     0
100
AcDbLine
 10
507.3934980377758
 20
279.7924159896782
 30
0.0
 11
507.3934980377758
 21
279.8424159896779
 31
0.0
  0
LINE
  5
1BF2D
330
1F
100
AcDbEntity
  8
0
370
     0
100
AcDbLine
 10
506.6434980377758
 20
277.6424159896781
 30
0.0
 11
510.3434980377766
 21
277.6424159896781
 31
0.0
  0
LINE
  5
1BF2E
330
1F
100
AcDbEntity
  8
0
370
     0
100
AcDbLine
 10
506.8434980377766
 20
278.1424159896781
 30
0.0
 11
510.1434980377758
 21
278.1424159896781
 31
0.0
  0
LINE
  5
1BF2F
330
1F
100
AcDbEntity
  8
0
370
     0
100
AcDbLine
 10
509.5934980377767
 20
275.4424159896783
 30
0.0
 11
509.5934980377767
 21
275.492415989678
 31
0.0
  0
LINE
  5
1BF30
330
1F
100
AcDbEntity
  8
0
370
     0
100
AcDbLine
 10
509.5934980377767
 20
279.7924159896782
 30
0.0
 11
509.5934980377767
 21
279.8424159896779
 31
0.0
  0
LINE
  5
1BF31
330
1F
100
AcDbEntity
  8
0
370
     0
100
AcDbLine
 10
509.6434980377757
 20
279.7924159896782
 30
0.0
 11
509.6434980377757
 21
279.2924159896782
 31
0.0
  0
LINE
  5
1BF32
330
1F
100
AcDbEntity
  8
0
370
     0
100
AcDbLine
 10
510.6434980377758
 20
278.7924159896782
 30
0.0
 11
510.1434980377758
 21
278.7924159896782
 31
0.0
  0
LINE
  5
1BF33
330
1F
100
AcDbEntity
  8
0
370
     0
100
AcDbLine
 10
506.3434980377766
 20
278.7924159896782
 30
0.0
 11
506.8434980377766
 21
278.7924159896782
 31
0.0
  0
LINE
  5
1BF34
330
1F
100
AcDbEntity
  8
0
370
     0
100
AcDbLine
 10
510.1434980377758
 20
278.7924159896782
 30
0.0
 11
510.1434980377758
 21
278.1424159896781
 31
0.0
  0
LINE
  5
1BF35
330
1F
100
AcDbEntity
  8
0
370
     0
100
AcDbLine
 10
507.3434980377767
 20
279.2924159896782
 30
0.0
 11
509.6434980377757
 21
279.2924159896782
 31
0.0
  0
LINE
  5
1BF36
330
1F
100
AcDbEntity
  8
0
370
     0
100
AcDbLine
 10
510.6434980377758
 20
278.7924159896782
 30
0.0
 11
510.6434980377758
 21
276.492415989678
 31
0.0
  0
LINE
  5
1BF37
102
{ACAD_REACTORS
330
1BF88
102
}
330
1F
100
AcDbEntity
  8
0
370
     0
100
AcDbLine
 10
507.3434980377767
 20
279.7924159896782
 30
0.0
 11
509.6434980377757
 21
279.7924159896782
 31
0.0
  0
LINE
  5
1BF38
330
1F
100
AcDbEntity
  8
0
370
     0
100
AcDbLine
 10
509.5934980377767
 20
279.8424159896779
 30
0.0
 11
507.3934980377758
 21
279.8424159896779
 31
0.0
  0
ARC
  5
1BF39
330
1F
100
AcDbEntity
  8
0
370
     0
100
AcDbCircle
 10
499.0080651655032
 20
221.4092976822123
 30
0.0
 40
0.56714490846
100
AcDbArc
 50
29.2537811988145
 51
51.37290590572696
  0
ARC
  5
1BF3A
330
1F
100
AcDbEntity
  8
0
370
     0
100
AcDbCircle
 10
496.9553527504329
 20
218.8874331601325
 30
0.0
 40
0.5580722435400001
100
AcDbArc
 50
231.3094468794027
 51
253.6692495994895
  0
ARC
  5
1BF3B
330
1F
100
AcDbEntity
  8
0
370
     0
100
AcDbCircle
 10
497.4007928798235
 20
219.3100725115925
 30
0.0
 40
0.5580722435400001
100
AcDbArc
 50
231.3094468794027
 51
253.6692495994895
  0
ARC
  5
1BF3C
330
1F
100
AcDbEntity
  8
0
370
     0
100
AcDbCircle
 10
478.3012142906234
 20
235.8438748123624
 30
0.0
 40
0.5195297592000001
100
AcDbArc
 50
141.2253591593301
 51
142.713381927296
  0
ARC
  5
1BF3D
330
1F
100
AcDbEntity
  8
0
370
     0
100
AcDbCircle
 10
493.4539276608128
 20
221.2970937117427
 30
0.0
 40
0.2691603549899999
100
AcDbArc
 50
231.3772250053854
 51
235.4779745557824
  0
ARC
  5
1BF3E
330
1F
100
AcDbEntity
  8
0
370
     0
100
AcDbCircle
 10
526.2608772339505
 20
277.7092427146779
 30
0.0
 40
0.6
100
AcDbArc
 50
0.0
 51
83.25000000002214
  0
ARC
  5
1BF3F
330
1F
100
AcDbEntity
  8
0
370
     0
100
AcDbCircle
 10
526.2608772339505
 20
277.5755892646783
 30
0.0
 40
0.6
100
AcDbArc
 50
276.7499999999778
 51
0.0
  0
ARC
  5
1BF40
330
1F
100
AcDbEntity
  8
0
370
     0
100
AcDbCircle
 10
522.4627278825496
 20
279.242415989678
 30
0.0
 40
0.6
100
AcDbArc
 50
90.0
 51
113.2500000000203
  0
ARC
  5
1BF41
330
1F
100
AcDbEntity
  8
0
370
     0
100
AcDbCircle
 10
522.4627278825496
 20
276.0424159896782
 30
0.0
 40
0.6
100
AcDbArc
 50
246.7499999999796
 51
270.0
  0
ARC
  5
1BF42
330
1F
100
AcDbEntity
  8
0
370
     0
100
AcDbCircle
 10
550.4608772339503
 20
279.2924159896782
 30
0.0
 40
0.5
100
AcDbArc
 50
0.0
 51
90.0
  0
ARC
  5
1BF43
330
1F
100
AcDbEntity
  8
0
370
     0
100
AcDbCircle
 10
550.4608772339503
 20
278.1424159896781
 30
0.0
 40
0.5
100
AcDbArc
 50
270.0
 51
0.0
  0
ARC
  5
1BF44
102
{ACAD_REACTORS
330
1BF8B
102
}
330
1F
100
AcDbEntity
  8
0
370
     0
100
AcDbCircle
 10
527.1608772339501
 20
275.7924159896782
 30
0.0
 40
0.3
100
AcDbArc
 50
210.0000000000311
 51
270.0
  0
ARC
  5
1BF45
330
1F
100
AcDbEntity
  8
0
370
     0
100
AcDbCircle
 10
526.7278645320581
 20
275.5424159896782
 30
0.0
 40
0.2
100
AcDbArc
 50
30.00000000001068
 51
90.0
  0
ARC
  5
1BF46
330
1F
100
AcDbEntity
  8
0
370
     0
100
AcDbCircle
 10
527.1608772339501
 20
279.492415989678
 30
0.0
 40
0.3
100
AcDbArc
 50
90.0
 51
149.9999999999688
  0
ARC
  5
1BF47
330
1F
100
AcDbEntity
  8
0
370
     0
100
AcDbCircle
 10
526.7278645320581
 20
279.742415989678
 30
0.0
 40
0.2
100
AcDbArc
 50
270.0
 51
329.9999999999893
  0
ARC
  5
1BF48
102
{ACAD_REACTORS
330
1BF82
102
}
330
1F
100
AcDbEntity
  8
0
370
     0
100
AcDbCircle
 10
521.1608772339501
 20
279.1184514325781
 30
0.0
 40
0.2
100
AcDbArc
 50
113.2500000000203
 51
263.2500000000222
  0
ARC
  5
1BF49
330
1F
100
AcDbEntity
  8
0
370
     0
100
AcDbCircle
 10
521.1608772339501
 20
276.1663805467782
 30
0.0
 40
0.2
100
AcDbArc
 50
96.74999999997783
 51
246.7499999999796
  0
ARC
  5
1BF4A
330
1F
100
AcDbEntity
  8
0
370
     0
100
AcDbCircle
 10
550.4608772339503
 20
257.1154892601664
 30
0.0
 40
0.5
100
AcDbArc
 50
0.0
 51
90.0
  0
ARC
  5
1BF4B
330
1F
100
AcDbEntity
  8
0
370
     0
100
AcDbCircle
 10
550.4608772339503
 20
253.8154892601662
 30
0.0
 40
0.5
100
AcDbArc
 50
270.0
 51
0.0
  0
ARC
  5
1BF4C
330
1F
100
AcDbEntity
  8
0
370
     0
100
AcDbCircle
 10
527.1608772339501
 20
253.6154892601664
 30
0.0
 40
0.3
100
AcDbArc
 50
180.0
 51
270.0
  0
ARC
  5
1BF4D
330
1F
100
AcDbEntity
  8
0
370
     0
100
AcDbCircle
 10
527.1608772339501
 20
257.3154892601662
 30
0.0
 40
0.3
100
AcDbArc
 50
90.0
 51
180.0
  0
ARC
  5
1BF4E
102
{ACAD_REACTORS
330
1BF8E
102
}
330
1F
100
AcDbEntity
  8
0
370
     0
100
AcDbCircle
 10
509.6434980377757
 20
276.492415989678
 30
0.0
 40
1.0
100
AcDbArc
 50
270.0
 51
0.0
  0
ARC
  5
1BF4F
102
{ACAD_REACTORS
330
1BF88
330
1BF8E
102
}
330
1F
100
AcDbEntity
  8
0
370
     0
100
AcDbCircle
 10
507.3434980377767
 20
276.492415989678
 30
0.0
 40
1.0
100
AcDbArc
 50
180.0
 51
270.0
  0
ARC
  5
1BF50
330
1F
100
AcDbEntity
  8
0
370
     0
100
AcDbCircle
 10
507.3434980377767
 20
278.7924159896782
 30
0.0
 40
1.0
100
AcDbArc
 50
90.0
 51
180.0
  0
ARC
  5
1BF51
330
1F
100
AcDbEntity
  8
0
370
     0
100
AcDbCircle
 10
509.6434980377757
 20
278.7924159896782
 30
0.0
 40
1.0
100
AcDbArc
 50
0.0
 51
90.0
  0
ARC
  5
1BF52
330
1F
100
AcDbEntity
  8
0
370
     0
100
AcDbCircle
 10
507.3434980377767
 20
278.7924159896782
 30
0.0
 40
0.5
100
AcDbArc
 50
90.0
 51
180.0
  0
ARC
  5
1BF53
330
1F
100
AcDbEntity
  8
0
370
     0
100
AcDbCircle
 10
509.6434980377757
 20
278.7924159896782
 30
0.0
 40
0.5
100
AcDbArc
 50
0.0
 51
90.0
  0
ARC
  5
1BF54
330
1F
100
AcDbEntity
  8
0
370
     0
100
AcDbCircle
 10
510.3434980377766
 20
277.9424159896783
 30
0.0
 40
0.3
100
AcDbArc
 50
270.0
 51
0.0
  0
ARC
  5
1BF55
330
1F
100
AcDbEntity
  8
0
370
     0
100
AcDbCircle
 10
506.6435061602766
 20
277.942424112178
 30
0.0
 40
0.2999878162
100
AcDbArc
 50
180.0015512413953
 51
269.9984493222026
  0
SPLINE
  5
1BF56
330
1F
100
AcDbEntity
  8
0
370
     0
100
AcDbSpline
210
0.0
220
0.0
230
1.0
 70
     8
 71
     3
 72
    11
 73
     7
 74
     0
 42
0.0000000001
 43
0.0000000001
 40
0.0
 40
0.0
 40
0.0
 40
0.0
 40
0.2937860849
 40
0.5837398267000001
 40
0.8393730891
 40
1.0
 40
1.0
 40
1.0
 40
1.0
 10
493.301388296203
 20
221.0753302364826
 30
0.0
 10
493.3334785069336
 20
221.0532528621727
 30
0.0
 10
493.4077935628026
 20
221.0229096434225
 30
0.0
 10
493.5223352190131
 20
221.0281191731826
 30
0.0
 10
493.6087811802133
 20
221.0693291107325
 30
0.0
 10
493.6506342754936
 20
221.1056093692925
 30
0.0
 10
493.6660833497834
 20
221.1202676505724
 30
0.0
  0
SPLINE
  5
1BF57
330
1F
100
AcDbEntity
  8
0
370
     0
100
AcDbSpline
210
0.0
220
0.0
230
1.0
 70
     8
 71
     3
 72
    12
 73
     8
 74
     0
 42
0.0000000001
 43
0.0000000001
 40
0.0
 40
0.0
 40
0.0
 40
0.0
 40
0.3008753372
 40
0.5922034782
 40
0.8320234163
 40
0.9249218001
 40
1.0
 40
1.0
 40
1.0
 40
1.0
 10
494.6685207421031
 20
222.2007171012126
 30
0.0
 10
494.6172132372729
 20
222.1345800139627
 30
0.0
 10
494.5149736666634
 20
222.0053696987527
 30
0.0
 10
494.3682671753228
 20
221.8263215146323
 30
0.0
 10
494.2556686421538
 20
221.6941251747423
 30
0.0
 10
494.1794763001333
 20
221.6100649454226
 30
0.0
 10
494.1469229411239
 20
221.5764944690524
 30
0.0
 10
494.1317707576635
 20
221.5621178815625
 30
0.0
  0
SPLINE
  5
1BF58
330
1F
100
AcDbEntity
  8
0
370
     0
100
AcDbSpline
210
0.0
220
0.0
230
1.0
 70
     8
 71
     3
 72
    19
 73
    15
 74
     0
 42
0.0000000001
 43
0.0000000001
 40
0.0
 40
0.0
 40
0.0
 40
0.0
 40
0.147768868
 40
0.279142493
 40
0.389556632
 40
0.4779716671
 40
0.516429045
 40
0.5569043546
 40
0.6108959972
 40
0.6822038295999999
 40
0.7601712445000001
 40
0.8397257643000001
 40
0.9197731991999999
 40
1.0
 40
1.0
 40
1.0
 40
1.0
 10
495.8761099909033
 20
223.7573399725027
 30
0.0
 10
495.9020238283335
 20
223.7907437743626
 30
0.0
 10
495.950659138033
 20
223.8540917722323
 30
0.0
 10
496.0174394618531
 20
223.9433293623426
 30
0.0
 10
496.0727509254728
 20
224.0199175821424
 30
0.0
 10
496.1111277514927
 20
224.0759451673027
 30
0.0
 10
496.136412699793
 20
224.1166132180925
 30
0.0
 10
496.1548766860631
 20
224.1498923522224
 30
0.0
 10
496.1733952954035
 20
224.1937230994924
 30
0.0
 10
496.1860654546325
 20
224.2509611415423
 30
0.0
 10
496.1851045519932
 20
224.3170801431126
 30
0.0
 10
496.1672942496733
 20
224.3834290352827
 30
0.0
 10
496.1331302053929
 20
224.4437486044323
 30
0.0
 10
496.1008280349431
 20
224.4771145740726
 30
0.0
 10
496.0828970633228
 20
224.4914436474125
 30
0.0
  0
SPLINE
  5
1BF59
330
1F
100
AcDbEntity
  8
0
370
     0
100
AcDbSpline
210
0.0
220
0.0
230
1.0
 70
     8
 71
     3
 72
    11
 73
     7
 74
     0
 42
0.0000000001
 43
0.0000000001
 40
0.0
 40
0.0
 40
0.0
 40
0.0
 40
0.2466024268
 40
0.494727918
 40
0.7460096644
 40
1.0
 40
1.0
 40
1.0
 40
1.0
 10
498.0249850269136
 20
218.0806201855027
 30
0.0
 10
498.0144420203831
 20
218.0706113526423
 30
0.0
 10
497.9904790471636
 20
218.0532760003923
 30
0.0
 10
497.9488117286235
 20
218.0377017311523
 30
0.0
 10
497.9041194391636
 20
218.0334468831427
 30
0.0
 10
497.8743449368029
 20
218.0382278798827
 30
0.0
 10
497.8599705058029
 20
218.0424182990525
 30
0.0
  0
SPLINE
  5
1BF5A
330
1F
100
AcDbEntity
  8
0
370
     0
100
AcDbSpline
210
0.0
220
0.0
230
1.0
 70
     8
 71
     3
 72
    11
 73
     7
 74
     0
 42
0.0000000001
 43
0.0000000001
 40
0.0
 40
0.0
 40
0.0
 40
0.0
 40
0.2451865384
 40
0.4928622594000001
 40
0.7446394286000002
 40
1.0
 40
1.0
 40
1.0
 40
1.0
 10
499.5748380684133
 20
220.0784645128626
 30
0.0
 10
499.5613433548331
 20
220.0656606399127
 30
0.0
 10
499.5294745214231
 20
220.0444797606426
 30
0.0
 10
499.473649284793
 20
220.0305513823325
 30
0.0
 10
499.4156089201931
 20
220.0355833787223
 30
0.0
 10
499.3795785320533
 20
220.0511023828323
 30
0.0
 10
499.3631816769428
 20
220.0614224545027
 30
0.0
  0
SPLINE
  5
1BF5B
330
1F
100
AcDbEntity
  8
0
370
     0
100
AcDbSpline
210
0.0
220
0.0
230
1.0
 70
     8
 71
     3
 72
    12
 73
     8
 74
     0
 42
0.0000000001
 43
0.0000000001
 40
0.0
 40
0.0
 40
0.0
 40
0.0
 40
0.338637766
 40
0.6290079732000002
 40
0.8538808633
 40
0.9374251558999999
 40
1.0
 40
1.0
 40
1.0
 40
1.0
 10
488.2720832081529
 20
225.8916452362925
 30
0.0
 10
488.231256537673
 20
225.8390182946525
 30
0.0
 10
488.1559588284134
 20
225.7408442533626
 30
0.0
 10
488.055728303683
 20
225.6060813674523
 30
0.0
 10
487.9872893281034
 20
225.5102004606426
 30
0.0
 10
487.9468285345335
 20
225.4494727633626
 30
0.0
 10
487.9316524672328
 20
225.4250487374227
 30
0.0
 10
487.9255537268535
 20
225.4143582167523
 30
0.0
  0
SPLINE
  5
1BF5C
330
1F
100
AcDbEntity
  8
0
370
     0
100
AcDbSpline
210
0.0
220
0.0
230
1.0
 70
     8
 71
     3
 72
    11
 73
     7
 74
     0
 42
0.0000000001
 43
0.0000000001
 40
0.0
 40
0.0
 40
0.0
 40
0.0
 40
0.4127710361
 40
0.7137554524
 40
0.9045248729999999
 40
1.0
 40
1.0
 40
1.0
 40
1.0
 10
487.9255537268535
 20
225.4143582167523
 30
0.0
 10
487.9230409228028
 20
225.4099535065027
 30
0.0
 10
487.9187979183432
 20
225.4023388225926
 30
0.0
 10
487.9141249757839
 20
225.3920411992623
 30
0.0
 10
487.9117155666135
 20
225.3856101107523
 30
0.0
 10
487.9117913634435
 20
225.3813998868124
 30
0.0
 10
487.9127087582836
 20
225.3806689964524
 30
0.0
  0
LINE
  5
1BF5D
330
1F
100
AcDbEntity
  8
0
370
     0
100
AcDbLine
 10
478.2330933910633
 20
236.6043346378026
 30
0.0
 11
478.2369318800837
 21
236.6092790628425
 31
0.0
  0
SPLINE
  5
1BF5E
330
1F
100
AcDbEntity
  8
0
370
     0
100
AcDbSpline
210
0.0
220
0.0
230
1.0
 70
     8
 71
     3
 72
    10
 73
     6
 74
     0
 42
0.0000000001
 43
0.0000000001
 40
0.0
 40
0.0
 40
0.0
 40
0.0
 40
0.5439778634
 40
0.7921421291
 40
1.0
 40
1.0
 40
1.0
 40
1.0
 10
478.2369318800837
 20
236.6092790628425
 30
0.0
 10
478.2952512204737
 20
236.6843481345724
 30
0.0
 10
478.3817061845537
 20
236.7924903843425
 30
0.0
 10
478.4936974748532
 20
236.9266420690926
 30
0.0
 10
478.5459433147332
 20
236.9868316016525
 30
0.0
 10
478.5702475900932
 20
237.0138257935025
 30
0.0
  0
SPLINE
  5
1BF5F
330
1F
100
AcDbEntity
  8
0
370
     0
100
AcDbSpline
210
0.0
220
0.0
230
1.0
 70
     8
 71
     3
 72
     9
 73
     5
 74
     0
 42
0.0000000001
 43
0.0000000001
 40
0.0
 40
0.0
 40
0.0
 40
0.0
 40
0.2604417389
 40
1.0
 40
1.0
 40
1.0
 40
1.0
 10
478.5702475900932
 20
237.0138257935025
 30
0.0
 10
478.573516716793
 20
237.0174567363126
 30
0.0
 10
478.5861051721338
 20
237.0313653831124
 30
0.0
 10
478.5988720958537
 20
237.0451138826527
 30
0.0
 10
478.6084588271831
 20
237.0551427351126
 30
0.0
  0
SPLINE
  5
1BF60
330
1F
100
AcDbEntity
  8
0
370
     0
100
AcDbSpline
210
0.0
220
0.0
230
1.0
 70
     8
 71
     3
 72
     8
 73
     4
 74
     0
 42
0.0000000001
 43
0.0000000001
 40
0.0
 40
0.0
 40
0.0
 40
0.0
 40
1.0
 40
1.0
 40
1.0
 40
1.0
 10
478.6084588271831
 20
237.0551427351126
 30
0.0
 10
478.6196098856833
 20
237.0668080583825
 30
0.0
 10
478.6309621999333
 20
237.0782915681527
 30
0.0
 10
478.6426689717134
 20
237.0893991045425
 30
0.0
  0
SPLINE
  5
1BF61
330
1F
100
AcDbEntity
  8
0
370
     0
100
AcDbSpline
210
0.0
220
0.0
230
1.0
 70
     8
 71
     3
 72
    12
 73
     8
 74
     0
 42
0.0000000001
 43
0.0000000001
 40
0.0
 40
0.0
 40
0.0
 40
0.0
 40
0.2620995128
 40
0.523619809
 40
0.7825484297
 40
0.9037943689
 40
1.0
 40
1.0
 40
1.0
 40
1.0
 10
479.7174204898636
 20
237.5694920733424
 30
0.0
 10
479.6720480930833
 20
237.6057502538226
 30
0.0
 10
479.5660610714238
 20
237.6609879277027
 30
0.0
 10
479.3892301774328
 20
237.6771642672427
 30
0.0
 10
479.2495124484428
 20
237.6347943357125
 30
0.0
 10
479.1603216677838
 20
237.5775623801826
 30
0.0
 10
479.1238216493828
 20
237.5459229834125
 30
0.0
 10
479.1083563796826
 20
237.5312493356225
 30
0.0
  0
SPLINE
  5
1BF62
330
1F
100
AcDbEntity
  8
0
370
     0
100
AcDbSpline
210
0.0
220
0.0
230
1.0
 70
     8
 71
     3
 72
    11
 73
     7
 74
     0
 42
0.0000000001
 43
0.0000000001
 40
0.0
 40
0.0
 40
0.0
 40
0.0
 40
0.2558218745
 40
0.5083221476
 40
0.7559539645000001
 40
1.0
 40
1.0
 40
1.0
 40
1.0
 10
498.4672298295135
 20
218.7549627497226
 30
0.0
 10
498.484015062433
 20
218.7381472417025
 30
0.0
 10
498.5113093404732
 20
218.6979871476726
 30
0.0
 10
498.5264805010635
 20
218.6276559165123
 30
0.0
 10
498.5135579853438
 20
218.5578630615725
 30
0.0
 10
498.4868632041433
 20
218.5188647320926
 30
0.0
 10
498.4704251562133
 20
218.5032595369623
 30
0.0
  0
SPLINE
  5
1BF63
330
1F
100
AcDbEntity
  8
0
370
     0
100
AcDbSpline
210
0.0
220
0.0
230
1.0
 70
     8
 71
     3
 72
    11
 73
     7
 74
     0
 42
0.0000000001
 43
0.0000000001
 40
0.0
 40
0.0
 40
0.0
 40
0.0
 40
0.2553638909
 40
0.5071431001
 40
0.754817996
 40
1.0
 40
1.0
 40
1.0
 40
1.0
 10
500.0483228170931
 20
220.7117296606627
 30
0.0
 10
500.0577913326131
 20
220.6948092357727
 30
0.0
 10
500.0714393684829
 20
220.6579952826125
 30
0.0
 10
500.0734547079736
 20
220.5997250910425
 30
0.0
 10
500.0566225618329
 20
220.5446575871826
 30
0.0
 10
500.0337831381728
 20
220.5139174406224
 30
0.0
 10
500.0202781978031
 20
220.5011038643226
 30
0.0
  0
SPLINE
  5
1BF64
330
1F
100
AcDbEntity
  8
0
370
     0
100
AcDbSpline
210
0.0
220
0.0
230
1.0
 70
     8
 71
     3
 72
     9
 73
     5
 74
     0
 42
0.0000000001
 43
0.0000000001
 40
0.0
 40
0.0
 40
0.0
 40
0.0
 40
0.5044853226
 40
1.0
 40
1.0
 40
1.0
 40
1.0
 10
495.3922242313026
 20
222.5607166990923
 30
0.0
 10
495.3349681505532
 20
222.5967532960623
 30
0.0
 10
495.2073577938733
 20
222.6480956462826
 30
0.0
 10
495.0694899236231
 20
222.6486976848125
 30
0.0
 10
495.0042535811233
 20
222.6360568288626
 30
0.0
  0
SPLINE
  5
1BF65
330
1F
100
AcDbEntity
  8
0
370
     0
100
AcDbSpline
210
0.0
220
0.0
230
1.0
 70
     8
 71
     3
 72
    11
 73
     7
 74
     0
 42
0.0000000001
 43
0.0000000001
 40
0.0
 40
0.0
 40
0.0
 40
0.0
 40
0.2536456877
 40
0.5055909826000002
 40
0.7545508714000002
 40
1.0
 40
1.0
 40
1.0
 40
1.0
 10
495.1418117434631
 20
222.0863787877626
 30
0.0
 10
495.1061485826828
 20
222.1221062729826
 30
0.0
 10
495.044277431173
 20
222.2032547126826
 30
0.0
 10
494.9876148393131
 20
222.3442552170725
 30
0.0
 10
494.9712733524728
 20
222.4937549906224
 30
0.0
 10
494.9885788619829
 20
222.5922378067923
 30
0.0
 10
495.0039220218431
 20
222.6386152286225
 30
0.0
  0
SPLINE
  5
1BF66
330
1F
100
AcDbEntity
  8
0
370
     0
100
AcDbSpline
210
0.0
220
0.0
230
1.0
 70
     8
 71
     3
 72
    11
 73
     7
 74
     0
 42
0.0000000001
 43
0.0000000001
 40
0.0
 40
0.0
 40
0.0
 40
0.0
 40
0.2453124447
 40
0.4935173022
 40
0.7451996916
 40
1.0
 40
1.0
 40
1.0
 40
1.0
 10
495.2763914356336
 20
222.9898374025326
 30
0.0
 10
495.3170961369432
 20
223.0157825207227
 30
0.0
 10
495.4072940810528
 20
223.0560068471225
 30
0.0
 10
495.5546522905631
 20
223.0750050379326
 30
0.0
 10
495.7032570271628
 20
223.0520520338225
 30
0.0
 10
495.7952320672628
 20
223.0100626541523
 30
0.0
 10
495.8376643606932
 20
222.9833560505524
 30
0.0
  0
SPLINE
  5
1BF67
330
1F
100
AcDbEntity
  8
0
370
     0
100
AcDbSpline
210
0.0
220
0.0
230
1.0
 70
     8
 71
     3
 72
    13
 73
     9
 74
     0
 42
0.0000000001
 43
0.0000000001
 40
0.0
 40
0.0
 40
0.0
 40
0.0
 40
0.0624129252
 40
0.1513404298
 40
0.2634124243
 40
0.3943686012
 40
0.6923288540000003
 40
1.0
 40
1.0
 40
1.0
 40
1.0
 10
493.7884190097737
 20
221.5549460258223
 30
0.0
 10
493.8055295605626
 20
221.5711807374725
 30
0.0
 10
493.845161131483
 20
221.6124721309627
 30
0.0
 10
493.9119634008136
 20
221.6862692019124
 30
0.0
 10
493.9942763471833
 20
221.7809549674923
 30
0.0
 10
494.1263230611729
 20
221.9370424406227
 30
0.0
 10
494.3026168245431
 20
222.1524947008927
 30
0.0
 10
494.4446602064535
 20
222.3319774575727
 30
0.0
 10
494.515930599763
 20
222.4238473747025
 30
0.0
  0
SPLINE
  5
1BF68
330
1F
100
AcDbEntity
  8
0
370
     0
100
AcDbSpline
210
0.0
220
0.0
230
1.0
 70
     8
 71
     3
 72
    18
 73
    14
 74
     0
 42
0.0000000001
 43
0.0000000001
 40
0.0
 40
0.0
 40
0.0
 40
0.0
 40
0.2085757242
 40
0.40130111
 40
0.5731576274
 40
0.7200737104
 40
0.8384348712999999
 40
0.8859940940999997
 40
0.9254068357000001
 40
0.9564715108999999
 40
0.9790855245999999
 40
0.9932866567999999
 40
1.0
 40
1.0
 40
1.0
 40
1.0
 10
495.7235198485632
 20
223.9804702459926
 30
0.0
 10
495.7502351254633
 20
224.0149071301323
 30
0.0
 10
495.8013884178133
 20
224.0813564711227
 30
0.0
 10
495.8736234700935
 20
224.1768905943424
 30
0.0
 10
495.9371970728533
 20
224.2628183161025
 30
0.0
 10
495.9905281392138
 20
224.3369735325125
 30
0.0
 10
496.0277047733833
 20
224.3907711504123
 30
0.0
 10
496.0512059704631
 20
224.4266459126226
 30
0.0
 10
496.0642388030535
 20
224.4476475902827
 30
0.0
 10
496.0739671020427
 20
224.4643478227924
 30
0.0
 10
496.0803512267538
 20
224.4773811027723
 30
0.0
 10
496.0836137688728
 20
224.4852237430925
 30
0.0
 10
496.0839926471824
 20
224.4905674951626
 30
0.0
 10
496.0828973710339
 20
224.4914440324325
 30
0.0
  0
SPLINE
  5
1BF69
330
1F
100
AcDbEntity
  8
0
370
     0
100
AcDbSpline
210
0.0
220
0.0
230
1.0
 70
     8
 71
     3
 72
    17
 73
    13
 74
     0
 42
0.0000000001
 43
0.0000000001
 40
0.0
 40
0.0
 40
0.0
 40
0.0
 40
0.0111169621
 40
0.0292469692
 40
0.0552997615
 40
0.089449222
 40
0.1813631498
 40
0.3030667339
 40
0.4514357807
 40
0.6216336729
 40
0.8072737511999999
 40
1.0
 40
1.0
 40
1.0
 40
1.0
 10
478.5643411751232
 20
236.8031939306227
 30
0.0
 10
478.5640815609439
 20
236.8014555746824
 30
0.0
 10
478.5656970273739
 20
236.7967990609925
 30
0.0
 10
478.5704286535335
 20
236.7895740394626
 30
0.0
 10
478.5781552528032
 20
236.7798126859927
 30
0.0
 10
478.5939569523133
 20
236.7617152248124
 30
0.0
 10
478.6213222248732
 20
236.7336213089227
 30
0.0
 10
478.6629316289526
 20
236.6943318361925
 30
0.0
 10
478.714669048213
 20
236.6477501492825
 30
0.0
 10
478.7749569964034
 20
236.5955898406325
 30
0.0
 10
478.8415014237433
 20
236.5399606609023
 30
0.0
 10
478.8879560904131
 20
236.5022667751325
 30
0.0
 10
478.9117602918438
 20
236.4832450020724
 30
0.0
  0
SPLINE
  5
1BF6A
330
1F
100
AcDbEntity
  8
0
370
     0
100
AcDbSpline
210
0.0
220
0.0
230
1.0
 70
     8
 71
     3
 72
    14
 73
    10
 74
     0
 42
0.0000000001
 43
0.0000000001
 40
0.0
 40
0.0
 40
0.0
 40
0.0
 40
0.342546633
 40
0.5011669302000002
 40
0.6441836523
 40
0.767200571
 40
0.8202752159
 40
0.8674398379999999
 40
1.0
 40
1.0
 40
1.0
 40
1.0
 10
479.358043275103
 20
237.0585186719224
 30
0.0
 10
479.3127797678834
 20
237.0946898359923
 30
0.0
 10
479.2434080994433
 20
237.1439229755526
 30
0.0
 10
479.1486898492638
 20
237.1979061120725
 30
0.0
 10
479.0836001945233
 20
237.2285582289126
 30
0.0
 10
479.0327290624334
 20
237.2467316698023
 30
0.0
 10
478.9957552595532
 20
237.2554444787226
 30
0.0
 10
478.9574683515438
 20
237.2610124863124
 30
0.0
 10
478.9218821075536
 20
237.2585422056424
 30
0.0
 10
478.9056163976536
 20
237.2431090898824
 30
0.0
  0
SPLINE
  5
1BF6B
330
1F
100
AcDbEntity
  8
0
370
     0
100
AcDbSpline
210
0.0
220
0.0
230
1.0
 70
     8
 71
     3
 72
    11
 73
     7
 74
     0
 42
0.0000000001
 43
0.0000000001
 40
0.0
 40
0.0
 40
0.0
 40
0.0
 40
0.2466024268
 40
0.494727918
 40
0.7460096644
 40
1.0
 40
1.0
 40
1.0
 40
1.0
 10
498.4704251562133
 20
218.5032595369623
 30
0.0
 10
498.4598821497737
 20
218.4932507041023
 30
0.0
 10
498.4359191765531
 20
218.4759153518523
 30
0.0
 10
498.3942518580131
 20
218.4603410825227
 30
0.0
 10
498.3495595685524
 20
218.4560862346027
 30
0.0
 10
498.3197850661934
 20
218.4608672313427
 30
0.0
 10
498.3054106351927
 20
218.4650576505125
 30
0.0
  0
SPLINE
  5
1BF6C
330
1F
100
AcDbEntity
  8
0
370
     0
100
AcDbSpline
210
0.0
220
0.0
230
1.0
 70
     8
 71
     3
 72
    18
 73
    14
 74
     0
 42
0.0000000001
 43
0.0000000001
 40
0.0
 40
0.0
 40
0.0
 40
0.0
 40
0.0067133432
 40
0.0209144753
 40
0.043528489
 40
0.0745931643
 40
0.1140059058
 40
0.1615651286
 40
0.2799262895
 40
0.4268423725
 40
0.5986988899
 40
0.7914242757
 40
1.0
 40
1.0
 40
1.0
 40
1.0
 10
479.717420797573
 20
237.5694924583624
 30
0.0
 10
479.7185160737233
 20
237.5686159210925
 30
0.0
 10
479.7181371954136
 20
237.5632721690224
 30
0.0
 10
479.7148746532928
 20
237.5554295287026
 30
0.0
 10
479.7084905286737
 20
237.5423962488123
 30
0.0
 10
479.6987622296835
 20
237.5256960162126
 30
0.0
 10
479.6857293970031
 20
237.5046943385525
 30
0.0
 10
479.6622281999233
 20
237.4688195764326
 30
0.0
 10
479.6250515658429
 20
237.4150219584423
 30
0.0
 10
479.5717204993933
 20
237.3408667421224
 30
0.0
 10
479.5081468967236
 20
237.2549390202723
 30
0.0
 10
479.4359118443534
 20
237.1594048970525
 30
0.0
 10
479.3847585520031
 20
237.0929555560626
 30
0.0
 10
479.358043275103
 20
237.0585186719224
 30
0.0
  0
SPLINE
  5
1BF6D
330
1F
100
AcDbEntity
  8
0
370
     0
100
AcDbSpline
210
0.0
220
0.0
230
1.0
 70
     8
 71
     3
 72
    12
 73
     8
 74
     0
 42
0.0000000001
 43
0.0000000001
 40
0.0
 40
0.0
 40
0.0
 40
0.0
 40
0.1088231394
 40
0.2210817366
 40
0.4594236707000002
 40
0.7218397568000002
 40
1.0
 40
1.0
 40
1.0
 40
1.0
 10
478.5643411751232
 20
236.8031939306227
 30
0.0
 10
478.5503093923033
 20
236.7841555746124
 30
0.0
 10
478.5261370076232
 20
236.7420802830126
 30
0.0
 10
478.4962840903333
 20
236.6460707503627
 30
0.0
 10
478.4996563109532
 20
236.5089219641824
 30
0.0
 10
478.5660770303228
 20
236.3497088400124
 30
0.0
 10
478.646326994083
 20
236.2603713130927
 30
0.0
 10
478.6935068148729
 20
236.2225745974626
 30
0.0
  0
SPLINE
  5
1BF6E
330
1F
100
AcDbEntity
  8
0
370
     0
100
AcDbSpline
210
0.0
220
0.0
230
1.0
 70
     8
 71
     3
 72
    13
 73
     9
 74
     0
 42
0.0000000001
 43
0.0000000001
 40
0.0
 40
0.0
 40
0.0
 40
0.0
 40
0.1253664974
 40
0.2507041032
 40
0.3759182712
 40
0.5011202190000002
 40
0.7503870266
 40
1.0
 40
1.0
 40
1.0
 40
1.0
 10
477.9443575063331
 20
235.5117720517926
 30
0.0
 10
477.9209902651635
 20
235.5304796761627
 30
0.0
 10
477.8781072610033
 20
235.5730177324624
 30
0.0
 10
477.8289574411935
 20
235.6488924240723
 30
0.0
 10
477.7966515507731
 20
235.7332897802523
 30
0.0
 10
477.7768330265232
 20
235.8516250660625
 30
0.0
 10
477.7953452700728
 20
236.0031446555224
 30
0.0
 10
477.8517629150536
 20
236.1111895443726
 30
0.0
 10
477.8878686249135
 20
236.1586072881725
 30
0.0
  0
SPLINE
  5
1BF6F
330
1F
100
AcDbEntity
  8
0
370
     0
100
AcDbSpline
210
0.0
220
0.0
230
1.0
 70
     8
 71
     3
 72
    11
 73
     7
 74
     0
 42
0.0000000001
 43
0.0000000001
 40
0.0
 40
0.0
 40
0.0
 40
0.0
 40
0.2451865384
 40
0.4928622594000001
 40
0.7446394286000002
 40
1.0
 40
1.0
 40
1.0
 40
1.0
 10
500.0202781978031
 20
220.5011038643226
 30
0.0
 10
500.0067834842237
 20
220.4882999913722
 30
0.0
 10
499.9749146508136
 20
220.4671191120126
 30
0.0
 10
499.9190894141827
 20
220.4531907337925
 30
0.0
 10
499.8610490495829
 20
220.4582227301823
 30
0.0
 10
499.8250186614431
 20
220.4737417342923
 30
0.0
 10
499.8086218063325
 20
220.4840618059627
 30
0.0
  0
SPLINE
  5
1BF70
330
1F
100
AcDbEntity
  8
0
370
     0
100
AcDbSpline
210
0.0
220
0.0
230
1.0
 70
     8
 71
     3
 72
    11
 73
     7
 74
     0
 42
0.0000000001
 43
0.0000000001
 40
0.0
 40
0.0
 40
0.0
 40
0.0
 40
0.0903943712
 40
0.2812460141
 40
0.5843457982000002
 40
1.0
 40
1.0
 40
1.0
 40
1.0
 10
487.9127087582836
 20
225.3806689964524
 30
0.0
 10
487.913794957123
 20
225.3798036195423
 30
0.0
 10
487.9188646937534
 20
225.3813120694924
 30
0.0
 10
487.9257161880131
 20
225.3861566866924
 30
0.0
 10
487.9368751733535
 20
225.3951004636926
 30
0.0
 10
487.9448846543235
 20
225.4025660696227
 30
0.0
 10
487.9495171903935
 20
225.4069614797224
 30
0.0
  0
SPLINE
  5
1BF71
330
1F
100
AcDbEntity
  8
0
370
     0
100
AcDbSpline
210
0.0
220
0.0
230
1.0
 70
     8
 71
     3
 72
    13
 73
     9
 74
     0
 42
0.0000000001
 43
0.0000000001
 40
0.0
 40
0.0
 40
0.0
 40
0.0
 40
0.0624129252
 40
0.1513404299
 40
0.2634124243
 40
0.3943686012
 40
0.6923288540000003
 40
1.0
 40
1.0
 40
1.0
 40
1.0
 10
488.4152045983626
 20
225.8488117107124
 30
0.0
 10
488.4323151490633
 20
225.8650464223626
 30
0.0
 10
488.4719467199836
 20
225.9063378158523
 30
0.0
 10
488.5387489893125
 20
225.9801348868925
 30
0.0
 10
488.6210619357733
 20
226.0748206523824
 30
0.0
 10
488.7531086497637
 20
226.2309081256023
 30
0.0
 10
488.9294024130438
 20
226.4463603857823
 30
0.0
 10
489.0714457949533
 20
226.6258431424624
 30
0.0
 10
489.1427161882638
 20
226.7177130595926
 30
0.0
  0
SPLINE
  5
1BF72
330
1F
100
AcDbEntity
  8
0
370
     0
100
AcDbSpline
210
0.0
220
0.0
230
1.0
 70
     8
 71
     3
 72
    11
 73
     7
 74
     0
 42
0.0000000001
 43
0.0000000001
 40
0.0
 40
0.0
 40
0.0
 40
0.0
 40
0.0903304697
 40
0.2811419109
 40
0.5842622778000001
 40
1.0
 40
1.0
 40
1.0
 40
1.0
 10
493.2859200971831
 20
221.0868057649625
 30
0.0
 10
493.2870037075335
 20
221.0859385637525
 30
0.0
 10
493.2920758930629
 20
221.0874425169425
 30
0.0
 10
493.2989248222328
 20
221.0922879278526
 30
0.0
 10
493.3100870491033
 20
221.1012316913527
 30
0.0
 10
493.3180978099624
 20
221.1086991932227
 30
0.0
 10
493.3227316018036
 20
221.1130957947423
 30
0.0
  0
SPLINE
  5
1BF73
330
1F
100
AcDbEntity
  8
0
370
     0
100
AcDbSpline
210
0.0
220
0.0
230
1.0
 70
     8
 71
     3
 72
    12
 73
     8
 74
     0
 42
0.0000000001
 43
0.0000000001
 40
0.0
 40
0.0
 40
0.0
 40
0.0
 40
0.3077010701
 40
0.6056201760000001
 40
0.8486449572999998
 40
0.9376059557000001
 40
1.0
 40
1.0
 40
1.0
 40
1.0
 10
489.9040224538038
 20
227.6990622610326
 30
0.0
 10
489.8826393930429
 20
227.6714987815624
 30
0.0
 10
489.8400356581631
 20
227.6176464607627
 30
0.0
 10
489.7790683498341
 20
227.5432144506123
 30
0.0
 10
489.7327885820531
 20
227.4888028708926
 30
0.0
 10
489.7027905171734
 20
227.4556498479125
 30
0.0
 10
489.6909005564229
 20
227.4432607654323
 30
0.0
 10
489.6857689768338
 20
227.4383918564224
 30
0.0
  0
SPLINE
  5
1BF74
330
1F
100
AcDbEntity
  8
0
370
     0
100
AcDbSpline
210
0.0
220
0.0
230
1.0
 70
     8
 71
     3
 72
    12
 73
     8
 74
     0
 42
0.0000000001
 43
0.0000000001
 40
0.0
 40
0.0
 40
0.0
 40
0.0
 40
0.3077010546999999
 40
0.6056201429
 40
0.8486448965000001
 40
0.9376058984
 40
1.0
 40
1.0
 40
1.0
 40
1.0
 10
478.9117602918438
 20
236.4832450020724
 30
0.0
 10
478.8903772338733
 20
236.4556815202625
 30
0.0
 10
478.847773524283
 20
236.4018291791224
 30
0.0
 10
478.7868062164032
 20
236.3273971741925
 30
0.0
 10
478.7405266171033
 20
236.2729854502024
 30
0.0
 10
478.7105285417827
 20
236.2398324290227
 30
0.0
 10
478.6986384769931
 20
236.2274434293424
 30
0.0
 10
478.6935068148729
 20
236.2225745974626
 30
0.0
  0
SPLINE
  5
1BF75
330
1F
100
AcDbEntity
  8
0
370
     0
100
AcDbSpline
210
0.0
220
0.0
230
1.0
 70
     8
 71
     3
 72
    11
 73
     7
 74
     0
 42
0.0000000001
 43
0.0000000001
 40
0.0
 40
0.0
 40
0.0
 40
0.0
 40
0.2556797581
 40
0.5076273131
 40
0.7551938773000001
 40
1.0
 40
1.0
 40
1.0
 40
1.0
 10
493.3227316018036
 20
221.1130957947423
 30
0.0
 10
493.3475471300834
 20
221.0932651055525
 30
0.0
 10
493.4039716990334
 20
221.0619663005525
 30
0.0
 10
493.4984771741836
 20
221.0467910705226
 30
0.0
 10
493.5911309619731
 20
221.0653252767726
 30
0.0
 10
493.6440048397634
 20
221.0993486752625
 30
0.0
 10
493.666072838323
 20
221.1202787329923
 30
0.0
  0
SPLINE
  5
1BF76
330
1F
100
AcDbEntity
  8
0
370
     0
100
AcDbSpline
210
0.0
220
0.0
230
1.0
 70
     8
 71
     3
 72
    13
 73
     9
 74
     0
 42
0.0000000001
 43
0.0000000001
 40
0.0
 40
0.0
 40
0.0
 40
0.0
 40
0.307680338
 40
0.6056331065000001
 40
0.73659141
 40
0.848652253
 40
0.9375966925
 40
1.0
 40
1.0
 40
1.0
 40
1.0
 10
478.2374562036128
 20
236.6091500626923
 30
0.0
 10
478.2730924635733
 20
236.6550863919126
 30
0.0
 10
478.3441145401337
 20
236.7448278648423
 30
0.0
 10
478.4322614852233
 20
236.8525548854825
 30
0.0
 10
478.4982832641134
 20
236.9305958538723
 30
0.0
 10
478.5394403389035
 20
236.9779402110423
 30
0.0
 10
478.5728419281138
 20
237.0148373308627
 30
0.0
 10
478.5926580418935
 20
237.0354846324424
 30
0.0
 10
478.6012119985634
 20
237.0436007371324
 30
0.0
  0
SPLINE
  5
1BF77
330
1F
100
AcDbEntity
  8
0
370
     0
100
AcDbSpline
210
0.0
220
0.0
230
1.0
 70
     8
 71
     3
 72
    11
 73
     7
 74
     0
 42
0.0000000001
 43
0.0000000001
 40
0.0
 40
0.0
 40
0.0
 40
0.0
 40
0.2556797581
 40
0.5076273131
 40
0.7551938773000001
 40
1.0
 40
1.0
 40
1.0
 40
1.0
 10
493.7884190097737
 20
221.5549460258223
 30
0.0
 10
493.8132345380535
 20
221.5351153366325
 30
0.0
 10
493.8696591070026
 20
221.5038165315425
 30
0.0
 10
493.9641645821537
 20
221.4886413016027
 30
0.0
 10
494.0568183699432
 20
221.5071755078527
 30
0.0
 10
494.1096922477335
 20
221.5411989063425
 30
0.0
 10
494.1317602462929
 20
221.5621289640723
 30
0.0
  0
SPLINE
  5
1BF78
330
1F
100
AcDbEntity
  8
0
370
     0
100
AcDbSpline
210
0.0
220
0.0
230
1.0
 70
     8
 71
     3
 72
    15
 73
    11
 74
     0
 42
0.0000000001
 43
0.0000000001
 40
0.0
 40
0.0
 40
0.0
 40
0.0
 40
0.1790669248
 40
0.3511959618
 40
0.5103032671
 40
0.6517562012
 40
0.7718557131
 40
0.8683354905999999
 40
0.9421051577
 40
1.0
 40
1.0
 40
1.0
 40
1.0
 10
494.515930599763
 20
222.4238473747025
 30
0.0
 10
494.5291673370729
 20
222.4132695775026
 30
0.0
 10
494.5545328342931
 20
222.3917650045025
 30
0.0
 10
494.5894445623933
 20
222.3583624268224
 30
0.0
 10
494.6196137400437
 20
222.3252829539126
 30
0.0
 10
494.6439639226035
 20
222.2937322948926
 30
0.0
 10
494.6617834069036
 20
222.2648018477223
 30
0.0
 10
494.6724422386632
 20
222.2393386059127
 30
0.0
 10
494.6759368198635
 20
222.2176481704925
 30
0.0
 10
494.6718688868229
 20
222.2050531388525
 30
0.0
 10
494.6685178349233
 20
222.2007193558027
 30
0.0
  0
SPLINE
  5
1BF79
330
1F
100
AcDbEntity
  8
0
370
     0
100
AcDbSpline
210
0.0
220
0.0
230
1.0
 70
     8
 71
     3
 72
    15
 73
    11
 74
     0
 42
0.0000000001
 43
0.0000000001
 40
0.0
 40
0.0
 40
0.0
 40
0.0
 40
0.1790669245
 40
0.3511959611
 40
0.5103032667000002
 40
0.6517562012
 40
0.7718557136000001
 40
0.8683354911
 40
0.9421051579
 40
1.0
 40
1.0
 40
1.0
 40
1.0
 10
495.7235198485632
 20
223.9804702459926
 30
0.0
 10
495.736756585873
 20
223.9698924487927
 30
0.0
 10
495.7621220830931
 20
223.9483878759727
 30
0.0
 10
495.7970338111934
 20
223.9149852982925
 30
0.0
 10
495.8272029888428
 20
223.8819058252927
 30
0.0
 10
495.8515531714929
 20
223.8503551661827
 30
0.0
 10
495.8693726557928
 20
223.8214247189223
 30
0.0
 10
495.8800314875531
 20
223.7959614771123
 30
0.0
 10
495.8835260687528
 20
223.7742710416926
 30
0.0
 10
495.8794581357132
 20
223.7616760101425
 30
0.0
 10
495.8761070838126
 20
223.7573422270923
 30
0.0
  0
SPLINE
  5
1BF7A
330
1F
100
AcDbEntity
  8
0
370
     0
100
AcDbSpline
210
0.0
220
0.0
230
1.0
 70
     8
 71
     3
 72
    25
 73
    21
 74
     0
 42
0.0000000001
 43
0.0000000001
 40
0.0
 40
0.0
 40
0.0
 40
0.0
 40
0.0345276988
 40
0.0568674216
 40
0.0635526903
 40
0.0675929073
 40
0.0705581131
 40
0.0752526715
 40
0.0827209491
 40
0.0931953972
 40
0.1067439451
 40
0.123374421
 40
0.165746139
 40
0.2199800136
 40
0.2856405447
 40
0.3620633979
 40
0.4485222453000002
 40
0.5442230347
 40
0.7597307437000002
 40
1.0
 40
1.0
 40
1.0
 40
1.0
 10
479.0668994065326
 20
237.4854509682124
 30
0.0
 10
479.0697097363635
 20
237.4881174454624
 30
0.0
 10
479.0743875106635
 20
237.4923783862925
 30
0.0
 10
479.0800773952631
 20
237.4969253420824
 30
0.0
 10
479.0832652587131
 20
237.4985882361722
 30
0.0
 10
479.0849419042631
 20
237.4990346524625
 30
0.0
 10
479.085924095323
 20
237.4978802360526
 30
0.0
 10
479.0856198532936
 20
237.4961020498924
 30
0.0
 10
479.0849337388333
 20
237.4937026985824
 30
0.0
 10
479.0835069355333
 20
237.4904385460024
 30
0.0
 10
479.0814677465831
 20
237.4863682689126
 30
0.0
 10
479.0775151526831
 20
237.4792445068326
 30
0.0
 10
479.070888764173
 20
237.4684031666827
 30
0.0
 10
479.0609398453932
 20
237.4531525968425
 30
0.0
 10
479.0485330879026
 20
237.4349512392125
 30
0.0
 10
479.0337876851834
 20
237.4139714694427
 30
0.0
 10
479.0168418256634
 20
237.3904210503726
 30
0.0
 10
478.9904576930529
 20
237.3544387420327
 30
0.0
 10
478.9533000020837
 20
237.3049595576824
 30
0.0
 10
478.9221406114037
 20
237.2644093531623
 30
0.0
 10
478.9056163976536
 20
237.2431090898824
 30
0.0
  0
SPLINE
  5
1BF7B
330
1F
100
AcDbEntity
  8
0
370
     0
100
AcDbSpline
210
0.0
220
0.0
230
1.0
 70
     8
 71
     3
 72
    15
 73
    11
 74
     0
 42
0.0000000001
 43
0.0000000001
 40
0.0
 40
0.0
 40
0.0
 40
0.0
 40
0.1762621983
 40
0.3454806953
 40
0.5013053902
 40
0.6393361176
 40
0.7569301755
 40
0.8538947528000001
 40
0.9323704108999999
 40
1.0
 40
1.0
 40
1.0
 40
1.0
 10
550.4608772339503
 20
277.9424159896783
 30
0.0
 10
550.4946289815502
 20
277.9424170798782
 30
0.0
 10
550.5608162558496
 20
277.9450830789782
 30
0.0
 10
550.6562001049501
 20
277.9568400223782
 30
0.0
 10
550.7429889668498
 20
277.9757254195782
 30
0.0
 10
550.8179108285498
 20
278.000638516978
 30
0.0
 10
550.8788603366498
 20
278.0303507295784
 30
0.0
 10
550.92414858225
 20
278.0641493445781
 30
0.0
 10
550.9536172430504
 20
278.1012557591783
 30
0.0
 10
550.96084452455
 20
278.1294659097783
 30
0.0
 10
550.9608772339503
 20
278.1424159896781
 30
0.0
  0
SPLINE
  5
1BF7C
330
1F
100
AcDbEntity
  8
0
370
     0
100
AcDbSpline
210
0.0
220
0.0
230
1.0
 70
     8
 71
     3
 72
    24
 73
    20
 74
     0
 42
0.0000000001
 43
0.0000000001
 40
0.0
 40
0.0
 40
0.0
 40
0.0
 40
0.0013308953
 40
0.0029612391
 40
0.0052322052
 40
0.0116878548
 40
0.0206814902
 40
0.032196713
 40
0.0462045543
 40
0.0814131688
 40
0.1256972329
 40
0.1784140439
 40
0.2388290163
 40
0.3061853438
 40
0.3796995371
 40
0.4585547496000001
 40
0.6290804719
 40
0.8116921235999999
 40
1.0
 40
1.0
 40
1.0
 40
1.0
 10
506.6434980377758
 20
277.6424159896781
 30
0.0
 10
506.6433959257762
 20
277.6426319710779
 30
0.0
 10
506.6438635255758
 20
277.6431455749783
 30
0.0
 10
506.644062552476
 20
277.644012275978
 30
0.0
 10
506.6448225317759
 20
277.6457473391782
 30
0.0
 10
506.6459369925765
 20
277.6487002876782
 30
0.0
 10
506.6477596370766
 20
277.6531974098783
 30
0.0
 10
506.6500538957766
 20
277.6589479275779
 30
0.0
 10
506.6541253038763
 20
277.6690631921781
 30
0.0
 10
506.6603912390761
 20
277.6846320415783
 30
0.0
 10
506.6692470804762
 20
277.7066508571782
 30
0.0
 10
506.6797635186762
 20
277.7328778302779
 30
0.0
 10
506.6917973019758
 20
277.7629588223779
 30
0.0
 10
506.7051866512762
 20
277.796518306778
 30
0.0
 10
506.7197895418764
 20
277.8331575063783
 30
0.0
 10
506.741276068176
 20
277.8869893610779
 30
0.0
 10
506.7702548627763
 20
277.9589168070782
 30
0.0
 10
506.8060724691764
 20
278.0492679598781
 30
0.0
 10
506.8306243877764
 20
278.1111610970782
 30
0.0
 10
506.8434980377766
 20
278.1424159896781
 30
0.0
  0
SPLINE
  5
1BF7D
330
1F
100
AcDbEntity
  8
0
370
     0
100
AcDbSpline
210
0.0
220
0.0
230
1.0
 70
     8
 71
     3
 72
    19
 73
    15
 74
     0
 42
0.0000000001
 43
0.0000000001
 40
0.0
 40
0.0
 40
0.0
 40
0.0
 40
0.0052174194
 40
0.0116888993
 40
0.0207010728
 40
0.0462343998
 40
0.0814135453
 40
0.125664727
 40
0.178373848
 40
0.3061681032
 40
0.458548504
 40
0.6290773019
 40
0.8116905174999999
 40
1.0
 40
1.0
 40
1.0
 40
1.0
 10
506.3434980377766
 20
277.9424159896783
 30
0.0
 10
506.3444164967765
 20
277.942599211978
 30
0.0
 10
506.346288373276
 20
277.9436358313781
 30
0.0
 10
506.3497782001764
 20
277.9448825521779
 30
0.0
 10
506.356593195476
 20
277.9476892656783
 30
0.0
 10
506.368233030476
 20
277.9522757352782
 30
0.0
 10
506.385722616376
 20
277.9592909489782
 30
0.0
 10
506.4077488068766
 20
277.9680903970783
 30
0.0
 10
506.4451976550759
 20
277.983100844878
 30
0.0
 10
506.500677438276
 20
278.005294665278
 30
0.0
 10
506.5758300425763
 20
278.0352534137781
 30
0.0
 10
506.659998073376
 20
278.069169903278
 30
0.0
 10
506.7503501131765
 20
278.104988136978
 30
0.0
 10
506.8122429087766
 20
278.1295422421779
 30
0.0
 10
506.8434980377766
 20
278.1424159896781
 30
0.0
  0
SPLINE
  5
1BF7E
330
1F
100
AcDbEntity
  8
0
370
     0
100
AcDbSpline
210
0.0
220
0.0
230
1.0
 70
     8
 71
     3
 72
    24
 73
    20
 74
     0
 42
0.0000000001
 43
0.0000000001
 40
0.0
 40
0.0
 40
0.0
 40
0.0
 40
0.1883079308
 40
0.3709196188
 40
0.5414453638000003
 40
0.6203005756000001
 40
0.6938147604000001
 40
0.7611710642000002
 40
0.8215859997
 40
0.8743027826999998
 40
0.9185868397
 40
0.9537954614
 40
0.9678033105
 40
0.9793185404
 40
0.9883121776999999
 40
0.9947678234999999
 40
0.9970387851999999
 40
0.9986691227999999
 40
1.0
 40
1.0
 40
1.0
 40
1.0
 10
510.1434980377758
 20
278.1424159896781
 30
0.0
 10
510.1563695775762
 20
278.1111602176782
 30
0.0
 10
510.1809223748765
 20
278.0492674500782
 30
0.0
 10
510.2167418320765
 20
277.958916998178
 30
0.0
 10
510.2457198513763
 20
277.886989235278
 30
0.0
 10
510.2672064915765
 20
277.833157423678
 30
0.0
 10
510.2818094942763
 20
277.7965182755782
 30
0.0
 10
510.2951988745759
 20
277.7629588171779
 30
0.0
 10
510.3072325924763
 20
277.7328778164782
 30
0.0
 10
510.3177489599763
 20
277.7066508292781
 30
0.0
 10
510.3266048039763
 20
277.6846320200783
 30
0.0
 10
510.3328707729765
 20
277.6690631833779
 30
0.0
 10
510.3369422032762
 20
277.658947922678
 30
0.0
 10
510.339236463476
 20
277.653197404178
 30
0.0
 10
510.3410591089765
 20
277.6487002766783
 30
0.0
 10
510.3421735498764
 20
277.645747331578
 30
0.0
 10
510.342933538776
 20
277.6440122614779
 30
0.0
 10
510.343132532776
 20
277.6431455766781
 30
0.0
 10
510.3436001828765
 20
277.6426319518781
 30
0.0
 10
510.3434980377766
 20
277.6424159896781
 30
0.0
  0
SPLINE
  5
1BF7F
330
1F
100
AcDbEntity
  8
0
370
     0
100
AcDbSpline
210
0.0
220
0.0
230
1.0
 70
     8
 71
     3
 72
    19
 73
    15
 74
     0
 42
0.0000000001
 43
0.0000000001
 40
0.0
 40
0.0
 40
0.0
 40
0.0
 40
0.1883095353
 40
0.3709227921
 40
0.541451613
 40
0.6938319893000001
 40
0.8216261945999999
 40
0.8743352959999999
 40
0.9185864676999999
 40
0.9537656097999999
 40
0.9792989442999999
 40
0.9883111203
 40
0.994782599
 40
1.0
 40
1.0
 40
1.0
 40
1.0
 10
510.1434980377758
 20
278.1424159896781
 30
0.0
 10
510.174754045976
 20
278.1295443526781
 30
0.0
 10
510.2366464841767
 20
278.104989397278
 30
0.0
 10
510.3269978122766
 20
278.0691692843782
 30
0.0
 10
510.4111661815765
 20
278.0352536341782
 30
0.0
 10
510.4863186560764
 20
278.005294585578
 30
0.0
 10
510.5417984325763
 20
277.9831007959781
 30
0.0
 10
510.5792472924763
 20
277.9680904164782
 30
0.0
 10
510.6012734773763
 20
277.9592909715782
 30
0.0
 10
510.6187630534765
 20
277.9522757354783
 30
0.0
 10
510.6304028853761
 20
277.9476892576779
 30
0.0
 10
510.6372178815758
 20
277.944882538978
 30
0.0
 10
510.6407077087766
 20
277.943635833078
 30
0.0
 10
510.6425795792762
 20
277.9425991973779
 30
0.0
 10
510.6434980377758
 20
277.9424159896783
 30
0.0
  0
DIMENSION
  5
1BF80
102
{ACAD_XDICTIONARY
360
1BF81
102
}
102
{ACAD_REACTORS
330
1BF82
102
}
330
1F
100
AcDbEntity
  8
DIM
370
     0
100
AcDbDimension
  2
*D21
 10
550.9608772339499
 20
283.4067591076671
 30
0.0
 11
535.9608772339499
 21
285.2067591076671
 31
0.0
 70
    32
 71
     5
 42
29.99999999999989
 73
     0
 74
     0
 75
     0
  3
01
100
AcDbAlignedDimension
 13
520.9608772339501
 23
279.1184514325781
 33
0.0
 14
550.9608772339499
 24
278.7924159896782
 34
0.0
100
AcDbRotatedDimension
  0
DIMENSION
  5
1BF86
102
{ACAD_XDICTIONARY
360
1BF87
102
}
102
{ACAD_REACTORS
330
1BF88
102
}
330
1F
100
AcDbEntity
  8
DIM
370
     0
100
AcDbDimension
  2
*D23
 10
504.5896911897476
 20
279.7924159896782
 30
0.0
 11
502.7896911897475
 21
285.1638445611068
 31
0.0
 70
    32
 71
     5
 42
4.300000000000181
 73
     0
 74
     0
 75
     0
  3
01
100
AcDbAlignedDimension
 13
507.3434980377767
 23
275.492415989678
 33
0.0
 14
507.3434980377767
 24
279.7924159896782
 34
0.0
 50
90.0
100
AcDbRotatedDimension
  0
DIMENSION
  5
1BF89
102
{ACAD_XDICTIONARY
360
1BF8A
102
}
102
{ACAD_REACTORS
330
1BF8B
102
}
330
1F
100
AcDbEntity
  8
DIM
370
     0
100
AcDbDimension
  2
*D24
 10
534.8108772339493
 20
270.7019354785749
 30
0.0
 11
530.8379752393721
 21
272.5019354785749
 31
0.0
 70
    32
 71
     5
 42
7.945803989154228
 73
     0
 74
     0
 75
     0
  3
01
100
AcDbAlignedDimension
 13
526.8650732447951
 23
275.742415989678
 33
0.0
 14
534.8108772339493
 24
275.492415989678
 34
0.0
100
AcDbRotatedDimension
  0
DIMENSION
  5
1BF8C
102
{ACAD_XDICTIONARY
360
1BF8D
102
}
102
{ACAD_REACTORS
330
1BF8E
102
}
330
1F
100
AcDbEntity
  8
DIM
370
     0
100
AcDbDimension
  2
*D25
 10
510.6434980377758
 20
269.3180704350472
 30
0.0
 11
508.4934980377762
 21
269.3180704350472
 31
0.0
 70
   160
 71
     5
 42
4.299999999999158
 73
     0
 74
     0
 75
     0
  3
01
100
AcDbAlignedDimension
 13
506.3434980377766
 23
276.492415989678
 33
0.0
 14
510.6434980377758
 24
276.492415989678
 34
0.0
100
AcDbRotatedDimension
  0
DIMENSION
  5
1C258
330
1F
100
AcDbEntity
  8
DIM
370
     0
100
AcDbDimension
  2
*D26
 10
554.0808412197501
 20
277.6424159896781
 30
0.0
 11
552.28084121975
 21
271.5567017039638
 31
0.0
 70
    32
  1
2.15
 71
     5
 42
2.150000000000147
 73
     0
 74
     0
 75
     0
  3
01
100
AcDbAlignedDimension
 13
550.4608772339503
 23
279.7924159896782
 33
0.0
 14
550.4608772339503
 24
277.6424159896781
 34
0.0
 50
90.0
100
AcDbRotatedDimension
  0
ENDSEC
  0
SECTION
  2
OBJECTS
  0
DICTIONARY
  5
C
330
0
100
AcDbDictionary
281
     1
  3
ACAD_COLOR
350
4FFE
  3
ACAD_GROUP
350
D
  3
ACAD_LAYOUT
350
1A
  3
ACAD_MATERIAL
350
4FE5
  3
ACAD_MLEADERSTYLE
350
5022
  3
ACAD_MLINESTYLE
350
17
  3
ACAD_PLOTSETTINGS
350
19
  3
ACAD_PLOTSTYLENAME
350
E
  3
ACAD_RENDER_PLOT_SETTINGS
350
6537
  3
ACAD_SCALELIST
350
5000
  3
ACAD_TABLESTYLE
350
4FE3
  3
ACAD_VISUALSTYLE
350
2A
  3
ACDB_RECOMPOSE_DATA
350
50EC
  3
AcDbVariableDictionary
350
5108
  3
ASE_INDEX_DICTIONARY
350
1AC53
  3
lxx_dict
350
1C256
  0
DICTIONARY
  5
50EE
330
8
100
AcDbDictionary
280
     1
281
     1
  0
DICTIONARY
  5
50B8
330
2
100
AcDbDictionary
280
     1
281
     1
  3
ACAD_LAYERFILTERS
360
1A674
  3
ACAD_LAYERSTATES
360
50B9
  3
ACLYDICTIONARY
360
1A673
  0
DICTIONARY
  5
50D0
330
10
100
AcDbDictionary
280
     1
281
     1
  3
ADSK_XREC_LAYER_RECONCILED
360
50D1
  0
DICTIONARY
  5
50D2
330
3B
100
AcDbDictionary
280
     1
281
     1
  3
ADSK_XREC_LAYER_RECONCILED
360
50D3
  0
DICTIONARY
  5
50AF
330
50AE
100
AcDbDictionary
280
     1
281
     1
  3
ADSK_XREC_LAYER_RECONCILED
360
50D4
  0
DICTIONARY
  5
67C0
330
1F
100
AcDbDictionary
280
     1
281
     1
  3
ACAD_SORTENTS
360
67C1
  0
DICTIONARY
  5
1C3EA
330
10FE8
100
AcDbDictionary
280
     1
281
     1
  0
DICTIONARY
  5
1C428
330
1C355
100
AcDbDictionary
280
     1
281
     1
  3
ACAD_MTEXT_2008_RT
360
1C429
  0
DICTIONARY
  5
1C42A
330
1C399
100
AcDbDictionary
280
     1
281
     1
  3
ACAD_MTEXT_2008_RT
360
1C42B
  0
DICTIONARY
  5
1C42C
330
1C39A
100
AcDbDictionary
280
     1
281
     1
  3
ACAD_MTEXT_2008_RT
360
1C42D
  0
DICTIONARY
  5
1C42E
330
1C3BF
100
AcDbDictionary
280
     1
281
     1
  3
ACAD_MTEXT_2008_RT
360
1C42F
  0
DICTIONARY
  5
1C430
330
1C3C2
100
AcDbDictionary
280
     1
281
     1
  3
ACAD_MTEXT_2008_RT
360
1C431
  0
DICTIONARY
  5
1C432
330
1C3C3
100
AcDbDictionary
280
     1
281
     1
  3
ACAD_MTEXT_2008_RT
360
1C433
  0
DICTIONARY
  5
1C434
330
1C3CD
100
AcDbDictionary
280
     1
281
     1
  3
ACAD_MTEXT_2008_RT
360
1C435
  0
DICTIONARY
  5
1C436
330
1C3CE
100
AcDbDictionary
280
     1
281
     1
  3
ACAD_MTEXT_2008_RT
360
1C437
  0
DICTIONARY
  5
1C438
330
1C3CF
100
AcDbDictionary
280
     1
281
     1
  3
ACAD_MTEXT_2008_RT
360
1C439
  0
DICTIONARY
  5
1C43A
330
1C3DD
100
AcDbDictionary
280
     1
281
     1
  3
ACAD_MTEXT_2008_RT
360
1C43B
  0
DICTIONARY
  5
1C43C
330
1C3DE
100
AcDbDictionary
280
     1
281
     1
  3
ACAD_MTEXT_2008_RT
360
1C43D
  0
DICTIONARY
  5
1C43E
330
1C3DF
100
AcDbDictionary
280
     1
281
     1
  3
ACAD_MTEXT_2008_RT
360
1C43F
  0
DICTIONARY
  5
1C426
330
1A5D3
100
AcDbDictionary
280
     1
281
     1
  3
ACAD_MTEXT_2008_RT
360
1C427
  0
DICTIONARY
  5
1BF81
330
1BF80
100
AcDbDictionary
280
     1
281
     1
  3
ACAD_DIMASSOC
360
1BF82
  0
DICTIONARY
  5
1BF87
330
1BF86
100
AcDbDictionary
280
     1
281
     1
  3
ACAD_DIMASSOC
360
1BF88
  0
DICTIONARY
  5
1BF8A
330
1BF89
100
AcDbDictionary
280
     1
281
     1
  3
ACAD_DIMASSOC
360
1BF8B
  0
DICTIONARY
  5
1BF8D
330
1BF8C
100
AcDbDictionary
280
     1
281
     1
  3
ACAD_DIMASSOC
360
1BF8E
  0
DICTIONARY
  5
4FFE
102
{ACAD_REACTORS
330
C
102
}
330
C
100
AcDbDictionary
281
     1
  0
DICTIONARY
  5
D
102
{ACAD_REACTORS
330
C
102
}
330
C
100
AcDbDictionary
281
     1
  0
DICTIONARY
  5
1A
102
{ACAD_REACTORS
330
C
102
}
330
C
100
AcDbDictionary
281
     1
  3
Layout1
350
1E
  3
Layout2
350
26
  3
Model
350
22
  0
DICTIONARY
  5
4FE5
102
{ACAD_REACTORS
330
C
102
}
330
C
100
AcDbDictionary
281
     1
  3
ByBlock
350
4FEE
  3
ByLayer
350
4FE6
  3
Global
350
4FF6
  0
DICTIONARY
  5
5022
102
{ACAD_REACTORS
330
C
102
}
330
C
100
AcDbDictionary
281
     1
  3
Standard
350
5023
  0
DICTIONARY
  5
17
102
{ACAD_REACTORS
330
C
102
}
330
C
100
AcDbDictionary
281
     1
  3
Standard
350
18
  0
DICTIONARY
  5
19
102
{ACAD_REACTORS
330
C
102
}
330
C
100
AcDbDictionary
281
     1
  0
ACDBDICTIONARYWDFLT
  5
E
102
{ACAD_REACTORS
330
C
102
}
330
C
100
AcDbDictionary
281
     1
  3
Normal
350
F
100
AcDbDictionaryWithDefault
340
F
  0
DICTIONARY
  5
6537
102
{ACAD_REACTORS
330
C
102
}
330
C
100
AcDbDictionary
281
     1
  3
{1DC63513-1B1A-422F-9880-65CFD2B8D533}
350
6538
  0
DICTIONARY
  5
5000
102
{ACAD_REACTORS
330
C
102
}
330
C
100
AcDbDictionary
281
     1
  3
A0
350
5001
  3
A1
350
5002
  3
A2
350
5003
  3
A3
350
5004
  3
A4
350
5005
  3
A5
350
5006
  3
A6
350
5007
  3
A7
350
5008
  3
A8
350
5009
  3
A9
350
500A
  3
B0
350
500B
  3
B1
350
500C
  3
B2
350
500D
  3
B3
350
500E
  3
B4
350
500F
  3
B5
350
5010
  3
B6
350
5011
  3
B7
350
5012
  3
B8
350
5013
  3
B9
350
5014
  3
C0
350
5015
  3
C1
350
5016
  3
C2
350
5017
  3
C3
350
5018
  3
C4
350
5019
  3
C5
350
501A
  3
C6
350
501B
  3
C7
350
501C
  3
C8
350
501D
  3
C9
350
501E
  3
D0
350
501F
  3
D1
350
5020
  3
D2
350
5021
  0
DICTIONARY
  5
4FE3
102
{ACAD_REACTORS
330
C
102
}
330
C
100
AcDbDictionary
281
     1
  3
Standard
350
4FFF
  0
DICTIONARY
  5
2A
102
{ACAD_REACTORS
330
C
102
}
330
C
100
AcDbDictionary
281
     1
  3
2dWireframe
350
2F
  3
3D Hidden
350
31
  3
3dWireframe
350
30
  3
Basic
350
32
  3
Brighten
350
36
  3
ColorChange
350
3A
  3
Conceptual
350
34
  3
Dim
350
35
  3
Facepattern
350
39
  3
Flat
350
2B
  3
FlatWithEdges
350
2C
  3
Gouraud
350
2D
  3
GouraudWithEdges
350
2E
  3
Linepattern
350
38
  3
Realistic
350
33
  3
Thicken
350
37
  0
XRECORD
  5
50EC
102
{ACAD_REACTORS
330
C
102
}
330
C
100
AcDbXrecord
280
     1
 90
        1
330
4FFF
330
1A5D3
330
1C355
330
1C399
330
1C39A
330
1C3BF
330
1C3C2
330
1C3C3
330
1C3CD
330
1C3CE
330
1C3CF
330
1C3DD
330
1C3DE
330
1C3DF
  0
DICTIONARY
  5
5108
102
{ACAD_REACTORS
330
C
102
}
330
C
100
AcDbDictionary
281
     1
  3
CANNOSCALE
350
510B
  3
CMLEADERSTYLE
350
510A
  3
CTABLESTYLE
350
5109
  3
DIMASSOC
350
510E
  3
INDEXCTL
350
510D
  3
LIGHTINGUNITS
350
1C401
  3
MSLTSCALE
350
1C400
  3
SORTENTS
350
510C
  0
DICTIONARY
  5
1AC53
102
{ACAD_REACTORS
330
C
102
}
330
C
100
AcDbDictionary
281
     1
  3
ASEBlockHierarchyIndexRecord
350
1AC54
1001
DCO15
1040
1903428922.171
  0
DICTIONARY
  5
1C256
102
{ACAD_REACTORS
330
C
102
}
330
C
100
AcDbDictionary
281
     1
  3
lxx_dimth
350
1C257
  0
DICTIONARY
  5
1A674
102
{ACAD_REACTORS
330
50B8
102
}
330
50B8
100
AcDbDictionary
281
     1
  0
DICTIONARY
  5
50B9
102
{ACAD_REACTORS
330
50B8
102
}
330
50B8
100
AcDbDictionary
281
     1
  0
DICTIONARY
  5
1A673
102
{ACAD_REACTORS
330
50B8
102
}
330
50B8
100
AcDbDictionary
281
     1
1001
ACAD
1000
<All
  0
XRECORD
  5
50D1
102
{ACAD_REACTORS
330
50D0
102
}
330
50D0
100
AcDbXrecord
280
     1
290
     1
  0
XRECORD
  5
50D3
102
{ACAD_REACTORS
330
50D2
102
}
330
50D2
100
AcDbXrecord
280
     1
290
     1
  0
XRECORD
  5
50D4
102
{ACAD_REACTORS
330
50AF
102
}
330
50AF
100
AcDbXrecord
280
     1
290
     1
  0
SORTENTSTABLE
  5
67C1
102
{ACAD_REACTORS
330
67C0
102
}
330
67C0
100
AcDbSortentsTable
330
1F
331
65A0
  5
65A1
331
3895
  5
3943
331
11089
  5
11089
331
2C65
  5
2EE7
331
4842
  5
4E94
331
35D8
  5
3807
331
3807
  5
3895
331
65A3
  5
65A4
331
35C8
  5
35D8
331
65A1
  5
65A2
331
2FDE
  5
35C8
331
65B2
  5
65B3
331
2F93
  5
2FDE
331
2EE7
  5
2F93
331
28AE
  5
2A38
331
3943
  5
4842
  0
XRECORD
  5
1C429
102
{ACAD_REACTORS
330
1C428
102
}
330
1C428
100
AcDbXrecord
280
     1
 40
1575.0
  1
\pxqc;YP ZHU
  0
XRECORD
  5
1C42B
102
{ACAD_REACTORS
330
1C42A
102
}
330
1C42A
100
AcDbXrecord
280
     1
 40
1262561.0
  1
\pxqc;档案员{\H0.7x;\P\Fromans|c134;Filing Clerk\fFangSong_GB2312|b0|i0|c134|p49; }
  0
XRECORD
  5
1C42D
102
{ACAD_REACTORS
330
1C42C
102
}
330
1C42C
100
AcDbXrecord
280
     1
 40
650528.0
  1
\pxqc;日期{\Fromans|c134;/Date}
  0
XRECORD
  5
1C42F
102
{ACAD_REACTORS
330
1C42E
102
}
330
1C42E
100
AcDbXrecord
280
     1
 40
2318748.0
  1
\pxsm0.7;{\f仿宋_GB2312|b0|i0|c134|p49;标准化}\PStand.
  0
XRECORD
  5
1C431
102
{ACAD_REACTORS
330
1C430
102
}
330
1C430
100
AcDbXrecord
280
     1
 40
118135.0
  1
\pxsm0.7;签名\P{\Fromans|c134;Signature} 
  0
XRECORD
  5
1C433
102
{ACAD_REACTORS
330
1C432
102
}
330
1C432
100
AcDbXrecord
280
     1
 40
108939.0
  1
\pxsm0.7,qc;处数\P{\Fromans|c134;Number }
  0
XRECORD
  5
1C435
102
{ACAD_REACTORS
330
1C434
102
}
330
1C434
100
AcDbXrecord
280
     1
 40
125762.0
  1
\pxsm0.7;标记\P{\Fromans|c134;Mark}
  0
XRECORD
  5
1C437
102
{ACAD_REACTORS
330
1C436
102
}
330
1C436
100
AcDbXrecord
280
     1
 40
111973.0
  1
\pxsm0.7;审核\P{\Fromans|c134;Checked}
  0
XRECORD
  5
1C439
102
{ACAD_REACTORS
330
1C438
102
}
330
1C438
100
AcDbXrecord
280
     1
 40
137968.0
  1
\pxsm0.7;绘图\P{\Fromans|c134;Drawn\Ftxt|c134; }
  0
XRECORD
  5
1C43B
102
{ACAD_REACTORS
330
1C43A
102
}
330
1C43A
100
AcDbXrecord
280
     1
 40
106320.0
  1
\pxsm0.7;批准\P{\Fromans|c134;Approved}
  0
XRECORD
  5
1C43D
102
{ACAD_REACTORS
330
1C43C
102
}
330
1C43C
100
AcDbXrecord
280
     1
 40
127283.0
  1
\pxsm0.7;工艺\P{\Fromans|c134;Process}
  0
XRECORD
  5
1C43F
102
{ACAD_REACTORS
330
1C43E
102
}
330
1C43E
100
AcDbXrecord
280
     1
 40
106220.0
  1
\pxsm0.7;日期\P{\Fromans|c134;Date}
  0
XRECORD
  5
1C427
102
{ACAD_REACTORS
330
1C426
102
}
330
1C426
100
AcDbXrecord
280
     1
 40
20086400.0
  1
\A1;\pxql;技术参数:\P- 材料：聚碳酸酯\P- 颜色：{\Fromans|c134;RAL 3003}（红色）\P{\Fromans|c134;\PTechnical specification:\P- Material: polycarbonate\P- Colour: RAL 3003(red)}
  0
DIMASSOC
  5
1BF82
102
{ACAD_REACTORS
330
1BF81
102
}
330
1BF81
100
AcDbDimAssoc
330
1BF80
 90
        3
 70
     0
 71
     0
  1
AcDbOsnapPointRef
 72
     5
331
1BF48
 73
     2
 91
        0
 40
3.141592653589792
 10
0.0
 20
0.0
 30
0.0
 75
     0
  1
AcDbOsnapPointRef
 72
     1
331
1BF0F
 73
     2
 91
        0
 40
1.0
 10
0.0
 20
0.0
 30
2.000000000000000E+50
 75
     0
  0
DIMASSOC
  5
1BF88
102
{ACAD_REACTORS
330
1BF87
102
}
330
1BF87
100
AcDbDimAssoc
330
1BF86
 90
        3
 70
     0
 71
     0
  1
AcDbOsnapPointRef
 72
     1
331
1BF4F
 73
     2
 91
        0
 40
4.712388980384688
 10
0.0
 20
0.0
 30
2.000000000000000E+50
 75
     0
  1
AcDbOsnapPointRef
 72
     8
331
1BF37
 73
     2
 91
        0
 40
0.0
 10
0.0
 20
0.0
 30
0.0
 75
     1
  1
AcDbOsnapPointRef
 72
     1
331
1BF4F
 73
     2
 91
        0
 40
4.712388980384688
 10
0.0
 20
0.0
 30
2.000000000000000E+50
 75
     0
  0
DIMASSOC
  5
1BF8B
102
{ACAD_REACTORS
330
1BF8A
102
}
330
1BF8A
100
AcDbDimAssoc
330
1BF89
 90
        3
 70
     0
 71
     0
  1
AcDbOsnapPointRef
 72
    11
331
1BF08
 73
     2
 91
        0
 40
0.0
 10
0.0
 20
0.0
 30
0.0
332
1BF44
 74
     2
 92
        0
 75
     0
  1
AcDbOsnapPointRef
 72
    13
331
1BF09
 73
     2
 91
        0
 40
0.0
 10
0.0
 20
0.0
 30
2.000000000000000E+50
 75
     0
  0
DIMASSOC
  5
1BF8E
102
{ACAD_REACTORS
330
1BF8D
102
}
330
1BF8D
100
AcDbDimAssoc
330
1BF8C
 90
        3
 70
     0
 71
     0
  1
AcDbOsnapPointRef
 72
    13
331
1BF4F
 73
     2
 91
        0
 40
3.141592653589792
 10
0.0
 20
0.0
 30
2.000000000000000E+50
 75
     0
  1
AcDbOsnapPointRef
 72
     1
331
1BF4E
 73
     2
 91
        0
 40
6.283185307179585
 10
0.0
 20
0.0
 30
2.000000000000000E+50
 75
     0
  0
LAYOUT
  5
1E
102
{ACAD_REACTORS
330
1A
102
}
330
1A
100
AcDbPlotSettings
  1

  2
none_device
  4

  6

 40
0.0
 41
0.0
 42
0.0
 43
0.0
 44
0.0
 45
0.0
 46
0.0
 47
0.0
 48
0.0
 49
0.0
140
0.0
141
0.0
142
1.0
143
1.0
 70
   688
 72
     0
 73
     0
 74
     5
  7

 75
    16
147
1.0
 76
     0
 77
     2
 78
   300
148
0.0
149
0.0
100
AcDbLayout
  1
Layout1
 70
     1
 71
     1
 10
0.0
 20
0.0
 11
12.0
 21
9.0
 12
0.0
 22
0.0
 32
0.0
 14
1.000000000000000E+20
 24
1.000000000000000E+20
 34
1.000000000000000E+20
 15
-1.000000000000000E+20
 25
-1.000000000000000E+20
 35
-1.000000000000000E+20
146
0.0
 13
0.0
 23
0.0
 33
0.0
 16
1.0
 26
0.0
 36
0.0
 17
0.0
 27
1.0
 37
0.0
 76
     0
330
1B
  0
LAYOUT
  5
26
102
{ACAD_REACTORS
330
1A
102
}
330
1A
100
AcDbPlotSettings
  1

  2
none_device
  4

  6

 40
0.0
 41
0.0
 42
0.0
 43
0.0
 44
0.0
 45
0.0
 46
0.0
 47
0.0
 48
0.0
 49
0.0
140
0.0
141
0.0
142
1.0
143
1.0
 70
   688
 72
     0
 73
     0
 74
     5
  7

 75
    16
147
1.0
 76
     0
 77
     2
 78
   300
148
0.0
149
0.0
100
AcDbLayout
  1
Layout2
 70
     1
 71
     2
 10
0.0
 20
0.0
 11
0.0
 21
0.0
 12
0.0
 22
0.0
 32
0.0
 14
0.0
 24
0.0
 34
0.0
 15
0.0
 25
0.0
 35
0.0
146
0.0
 13
0.0
 23
0.0
 33
0.0
 16
1.0
 26
0.0
 36
0.0
 17
0.0
 27
1.0
 37
0.0
 76
     0
330
23
  0
LAYOUT
  5
22
102
{ACAD_REACTORS
330
1A
102
}
330
1A
100
AcDbPlotSettings
  1

  2
Adobe PDF Converter.pc3
  4
A4
  6

 40
3.174999952316281
 41
3.174999952316281
 42
3.17498779296875
 43
3.175003051757812
 44
297.0318298339844
 45
209.9733276367186
 46
0.0000000000000076
 47
1.630241740247063
 48
246.9897427644609
 49
39.36804549891383
140
544.952097801264
141
244.7492402188181
142
1.0
143
1.025046328645055
 70
  3764
 72
     1
 73
     0
 74
     4
  7
monochrome.ctb
 75
     0
147
0.9755656618192436
 76
     1
 77
     2
 78
   300
148
-246.9897427644609
149
-39.36804549891383
100
AcDbLayout
  1
Model
 70
     1
 71
     0
 10
0.0
 20
0.0
 11
12.0
 21
9.0
 12
0.0
 22
0.0
 32
0.0
 14
1.000000000000000E+20
 24
1.000000000000000E+20
 34
1.000000000000000E+20
 15
-1.000000000000000E+20
 25
-1.000000000000000E+20
 35
-1.000000000000000E+20
146
0.0
 13
0.0
 23
0.0
 33
0.0
 16
1.0
 26
0.0
 36
0.0
 17
0.0
 27
1.0
 37
0.0
 76
     0
330
1F
331
29
1001
ACAD_PSEXT
1000
Adobe PDF Converter.pc3
1000
Adobe PDF Converter
1000
桌面\*.pdf
1000

1070
     0
  0
MATERIAL
  5
4FEE
102
{ACAD_XDICTIONARY
360
4FEF
102
}
102
{ACAD_REACTORS
330
4FE5
102
}
330
4FE5
100
AcDbMaterial
  1
ByBlock
 72
     0
 43
0.0208333333333333
 43
0.0
 43
0.0
 43
0.0
 43
0.0
 43
0.0208333333333333
 43
0.0
 43
0.0
 43
0.0
 43
0.0
 43
1.0
 43
0.0
 43
0.0
 43
0.0
 43
0.0
 43
1.0
 77
     0
 47
0.0208333333333333
 47
0.0
 47
0.0
 47
0.0
 47
0.0
 47
0.0208333333333333
 47
0.0
 47
0.0
 47
0.0
 47
0.0
 47
1.0
 47
0.0
 47
0.0
 47
0.0
 47
0.0
 47
1.0
171
     0
 49
0.0208333333333333
 49
0.0
 49
0.0
 49
0.0
 49
0.0
 49
0.0208333333333333
 49
0.0
 49
0.0
 49
0.0
 49
0.0
 49
1.0
 49
0.0
 49
0.0
 49
0.0
 49
0.0
 49
1.0
175
     0
142
0.0208333333333333
142
0.0
142
0.0
142
0.0
142
0.0
142
0.0208333333333333
142
0.0
142
0.0
142
0.0
142
0.0
142
1.0
142
0.0
142
0.0
142
0.0
142
0.0
142
1.0
179
     0
144
0.0208333333333333
144
0.0
144
0.0
144
0.0
144
0.0
144
0.0208333333333333
144
0.0
144
0.0
144
0.0
144
0.0
144
1.0
144
0.0
144
0.0
144
0.0
144
0.0
144
1.0
147
0.0208333333333333
147
0.0
147
0.0
147
0.0
147
0.0
147
0.0208333333333333
147
0.0
147
0.0
147
0.0
147
0.0
147
1.0
147
0.0
147
0.0
147
0.0
147
0.0
147
1.0
  0
MATERIAL
  5
4FE6
102
{ACAD_XDICTIONARY
360
4FE7
102
}
102
{ACAD_REACTORS
330
4FE5
102
}
330
4FE5
100
AcDbMaterial
  1
ByLayer
 72
     0
 43
0.0208333333333333
 43
0.0
 43
0.0
 43
0.0
 43
0.0
 43
0.0208333333333333
 43
0.0
 43
0.0
 43
0.0
 43
0.0
 43
1.0
 43
0.0
 43
0.0
 43
0.0
 43
0.0
 43
1.0
 77
     0
 47
0.0208333333333333
 47
0.0
 47
0.0
 47
0.0
 47
0.0
 47
0.0208333333333333
 47
0.0
 47
0.0
 47
0.0
 47
0.0
 47
1.0
 47
0.0
 47
0.0
 47
0.0
 47
0.0
 47
1.0
171
     0
 49
0.0208333333333333
 49
0.0
 49
0.0
 49
0.0
 49
0.0
 49
0.0208333333333333
 49
0.0
 49
0.0
 49
0.0
 49
0.0
 49
1.0
 49
0.0
 49
0.0
 49
0.0
 49
0.0
 49
1.0
175
     0
142
0.0208333333333333
142
0.0
142
0.0
142
0.0
142
0.0
142
0.0208333333333333
142
0.0
142
0.0
142
0.0
142
0.0
142
1.0
142
0.0
142
0.0
142
0.0
142
0.0
142
1.0
179
     0
144
0.0208333333333333
144
0.0
144
0.0
144
0.0
144
0.0
144
0.0208333333333333
144
0.0
144
0.0
144
0.0
144
0.0
144
1.0
144
0.0
144
0.0
144
0.0
144
0.0
144
1.0
147
0.0208333333333333
147
0.0
147
0.0
147
0.0
147
0.0
147
0.0208333333333333
147
0.0
147
0.0
147
0.0
147
0.0
147
1.0
147
0.0
147
0.0
147
0.0
147
0.0
147
1.0
  0
MATERIAL
  5
4FF6
102
{ACAD_XDICTIONARY
360
4FF7
102
}
102
{ACAD_REACTORS
330
4FE5
102
}
330
4FE5
100
AcDbMaterial
  1
Global
 72
     0
 43
0.0208333333333333
 43
0.0
 43
0.0
 43
0.0
 43
0.0
 43
0.0208333333333333
 43
0.0
 43
0.0
 43
0.0
 43
0.0
 43
1.0
 43
0.0
 43
0.0
 43
0.0
 43
0.0
 43
1.0
 77
     0
 47
0.0208333333333333
 47
0.0
 47
0.0
 47
0.0
 47
0.0
 47
0.0208333333333333
 47
0.0
 47
0.0
 47
0.0
 47
0.0
 47
1.0
 47
0.0
 47
0.0
 47
0.0
 47
0.0
 47
1.0
171
     0
 49
0.0208333333333333
 49
0.0
 49
0.0
 49
0.0
 49
0.0
 49
0.0208333333333333
 49
0.0
 49
0.0
 49
0.0
 49
0.0
 49
1.0
 49
0.0
 49
0.0
 49
0.0
 49
0.0
 49
1.0
175
     0
142
0.0208333333333333
142
0.0
142
0.0
142
0.0
142
0.0
142
0.0208333333333333
142
0.0
142
0.0
142
0.0
142
0.0
142
1.0
142
0.0
142
0.0
142
0.0
142
0.0
142
1.0
179
     0
144
0.0208333333333333
144
0.0
144
0.0
144
0.0
144
0.0
144
0.0208333333333333
144
0.0
144
0.0
144
0.0
144
0.0
144
1.0
144
0.0
144
0.0
144
0.0
144
0.0
144
1.0
147
0.0208333333333333
147
0.0
147
0.0
147
0.0
147
0.0
147
0.0208333333333333
147
0.0
147
0.0
147
0.0
147
0.0
147
1.0
147
0.0
147
0.0
147
0.0
147
0.0
147
1.0
  0
MLEADERSTYLE
  5
5023
102
{ACAD_REACTORS
330
5022
102
}
330
5022
100
AcDbMLeaderStyle
170
     2
171
     1
172
     0
 90
        2
 40
0.0
 41
0.0
173
     1
 91
-1056964608
340
14
 92
       -2
290
     1
 42
0.09
291
     1
 43
0.36
  3
Standard
 44
0.18
300

342
11
174
     1
178
     6
175
     1
176
     0
 93
-1056964608
 45
0.18
292
     0
297
     0
 46
0.18
 94
-1056964608
 47
1.0
 49
1.0
140
1.0
293
     1
141
0.0
294
     1
177
     0
142
1.0
295
     0
296
     0
143
0.125
1001
ACAD_MLEADERVER
1070
     2
  0
MLINESTYLE
  5
18
102
{ACAD_REACTORS
330
17
102
}
330
17
100
AcDbMlineStyle
  2
STANDARD
 70
     0
  3

 62
   256
 51
90.0
 52
90.0
 71
     2
 49
0.5
 62
   256
  6
BYLAYER
 49
-0.5
 62
   256
  6
BYLAYER
  0
ACDBPLACEHOLDER
  5
F
102
{ACAD_REACTORS
330
E
102
}
330
E
  0
MENTALRAYRENDERSETTINGS
  5
6538
102
{ACAD_REACTORS
330
6537
102
}
330
6537
100
AcDbRenderSettings
 90
        2
  1
中
290
     1
290
     1
290
     1
290
     1
  1

  1
渲染质量好于“低级”。包括纹理过滤并且强制双面处于激活状态。处理中等级反锯齿和 5 反射/折射的光线跟踪深度。
 90
        0
100
AcDbMentalRayRenderSettings
 90
        2
 90
        0
 90
        1
 70
     2
 40
3.0
 40
3.0
 40
0.0500000007450581
 40
0.0500000007450581
 40
0.0500000007450581
 40
0.0500000007450581
 70
     0
290
     0
290
     1
 90
        5
 90
        5
 90
        5
290
     0
 90
      500
290
     0
 40
1.0
 90
    10000
 90
        5
 90
        5
 90
        5
290
     0
 90
      200
290
     0
290
     0
290
     0
 40
0.1
 40
1.0
 40
1500.0
 70
     0
 70
     0
 40
10.0
 70
     0
 70
     0
290
     0
  1

 90
       32
 70
     0
 90
     1048
290
     0
 40
1.0
  0
SCALE
  5
5001
102
{ACAD_REACTORS
330
5000
102
}
330
5000
100
AcDbScale
 70
     0
300
1:1
140
1.0
141
1.0
290
     1
  0
SCALE
  5
5002
102
{ACAD_REACTORS
330
5000
102
}
330
5000
100
AcDbScale
 70
     0
300
1:2
140
1.0
141
2.0
290
     0
  0
SCALE
  5
5003
102
{ACAD_REACTORS
330
5000
102
}
330
5000
100
AcDbScale
 70
     0
300
1:4
140
1.0
141
4.0
290
     0
  0
SCALE
  5
5004
102
{ACAD_REACTORS
330
5000
102
}
330
5000
100
AcDbScale
 70
     0
300
1:5
140
1.0
141
5.0
290
     0
  0
SCALE
  5
5005
102
{ACAD_REACTORS
330
5000
102
}
330
5000
100
AcDbScale
 70
     0
300
1:8
140
1.0
141
8.0
290
     0
  0
SCALE
  5
5006
102
{ACAD_REACTORS
330
5000
102
}
330
5000
100
AcDbScale
 70
     0
300
1:10
140
1.0
141
10.0
290
     0
  0
SCALE
  5
5007
102
{ACAD_REACTORS
330
5000
102
}
330
5000
100
AcDbScale
 70
     0
300
1:16
140
1.0
141
16.0
290
     0
  0
SCALE
  5
5008
102
{ACAD_REACTORS
330
5000
102
}
330
5000
100
AcDbScale
 70
     0
300
1:20
140
1.0
141
20.0
290
     0
  0
SCALE
  5
5009
102
{ACAD_REACTORS
330
5000
102
}
330
5000
100
AcDbScale
 70
     0
300
1:30
140
1.0
141
30.0
290
     0
  0
SCALE
  5
500A
102
{ACAD_REACTORS
330
5000
102
}
330
5000
100
AcDbScale
 70
     0
300
1:40
140
1.0
141
40.0
290
     0
  0
SCALE
  5
500B
102
{ACAD_REACTORS
330
5000
102
}
330
5000
100
AcDbScale
 70
     0
300
1:50
140
1.0
141
50.0
290
     0
  0
SCALE
  5
500C
102
{ACAD_REACTORS
330
5000
102
}
330
5000
100
AcDbScale
 70
     0
300
1:100
140
1.0
141
100.0
290
     0
  0
SCALE
  5
500D
102
{ACAD_REACTORS
330
5000
102
}
330
5000
100
AcDbScale
 70
     0
300
2:1
140
2.0
141
1.0
290
     0
  0
SCALE
  5
500E
102
{ACAD_REACTORS
330
5000
102
}
330
5000
100
AcDbScale
 70
     0
300
4:1
140
4.0
141
1.0
290
     0
  0
SCALE
  5
500F
102
{ACAD_REACTORS
330
5000
102
}
330
5000
100
AcDbScale
 70
     0
300
8:1
140
8.0
141
1.0
290
     0
  0
SCALE
  5
5010
102
{ACAD_REACTORS
330
5000
102
}
330
5000
100
AcDbScale
 70
     0
300
10:1
140
10.0
141
1.0
290
     0
  0
SCALE
  5
5011
102
{ACAD_REACTORS
330
5000
102
}
330
5000
100
AcDbScale
 70
     0
300
100:1
140
100.0
141
1.0
290
     0
  0
SCALE
  5
5012
102
{ACAD_REACTORS
330
5000
102
}
330
5000
100
AcDbScale
 70
     0
300
1/128" = 1'-0"
140
0.0078125
141
12.0
290
     0
  0
SCALE
  5
5013
102
{ACAD_REACTORS
330
5000
102
}
330
5000
100
AcDbScale
 70
     0
300
1/64" = 1'-0"
140
0.015625
141
12.0
290
     0
  0
SCALE
  5
5014
102
{ACAD_REACTORS
330
5000
102
}
330
5000
100
AcDbScale
 70
     0
300
1/32" = 1'-0"
140
0.03125
141
12.0
290
     0
  0
SCALE
  5
5015
102
{ACAD_REACTORS
330
5000
102
}
330
5000
100
AcDbScale
 70
     0
300
1/16" = 1'-0"
140
0.0625
141
12.0
290
     0
  0
SCALE
  5
5016
102
{ACAD_REACTORS
330
5000
102
}
330
5000
100
AcDbScale
 70
     0
300
3/32" = 1'-0"
140
0.09375
141
12.0
290
     0
  0
SCALE
  5
5017
102
{ACAD_REACTORS
330
5000
102
}
330
5000
100
AcDbScale
 70
     0
300
1/8" = 1'-0"
140
0.125
141
12.0
290
     0
  0
SCALE
  5
5018
102
{ACAD_REACTORS
330
5000
102
}
330
5000
100
AcDbScale
 70
     0
300
3/16" = 1'-0"
140
0.1875
141
12.0
290
     0
  0
SCALE
  5
5019
102
{ACAD_REACTORS
330
5000
102
}
330
5000
100
AcDbScale
 70
     0
300
1/4" = 1'-0"
140
0.25
141
12.0
290
     0
  0
SCALE
  5
501A
102
{ACAD_REACTORS
330
5000
102
}
330
5000
100
AcDbScale
 70
     0
300
3/8" = 1'-0"
140
0.375
141
12.0
290
     0
  0
SCALE
  5
501B
102
{ACAD_REACTORS
330
5000
102
}
330
5000
100
AcDbScale
 70
     0
300
1/2" = 1'-0"
140
0.5
141
12.0
290
     0
  0
SCALE
  5
501C
102
{ACAD_REACTORS
330
5000
102
}
330
5000
100
AcDbScale
 70
     0
300
3/4" = 1'-0"
140
0.75
141
12.0
290
     0
  0
SCALE
  5
501D
102
{ACAD_REACTORS
330
5000
102
}
330
5000
100
AcDbScale
 70
     0
300
1" = 1'-0"
140
1.0
141
12.0
290
     0
  0
SCALE
  5
501E
102
{ACAD_REACTORS
330
5000
102
}
330
5000
100
AcDbScale
 70
     0
300
1-1/2" = 1'-0"
140
1.5
141
12.0
290
     0
  0
SCALE
  5
501F
102
{ACAD_REACTORS
330
5000
102
}
330
5000
100
AcDbScale
 70
     0
300
3" = 1'-0"
140
3.0
141
12.0
290
     0
  0
SCALE
  5
5020
102
{ACAD_REACTORS
330
5000
102
}
330
5000
100
AcDbScale
 70
     0
300
6" = 1'-0"
140
6.0
141
12.0
290
     0
  0
SCALE
  5
5021
102
{ACAD_REACTORS
330
5000
102
}
330
5000
100
AcDbScale
 70
     0
300
1'-0" = 1'-0"
140
12.0
141
12.0
290
     0
  0
TABLESTYLE
  5
4FFF
102
{ACAD_XDICTIONARY
360
50D6
102
}
102
{ACAD_REACTORS
330
4FE3
102
}
330
4FE3
100
AcDbTableStyle
  3
Standard
 70
     0
 71
     0
 40
0.06
 41
0.06
280
     0
281
     0
  7
Standard
140
0.18
170
     2
 62
     0
 63
     7
283
     0
 90
      512
 91
        0
  1

274
    -2
284
     1
 64
     0
275
    -2
285
     1
 65
     0
276
    -2
286
     1
 66
     0
277
    -2
287
     1
 67
     0
278
    -2
288
     1
 68
     0
279
    -2
289
     1
 69
     0
  7
Standard
140
0.25
170
     5
 62
     0
 63
     7
283
     0
 90
      512
 91
        0
  1

274
    -2
284
     1
 64
     0
275
    -2
285
     1
 65
     0
276
    -2
286
     1
 66
     0
277
    -2
287
     1
 67
     0
278
    -2
288
     1
 68
     0
279
    -2
289
     1
 69
     0
  7
Standard
140
0.18
170
     5
 62
     0
 63
     7
283
     0
 90
      512
 91
        0
  1

274
    -2
284
     1
 64
     0
275
    -2
285
     1
 65
     0
276
    -2
286
     1
 66
     0
277
    -2
287
     1
 67
     0
278
    -2
288
     1
 68
     0
279
    -2
289
     1
 69
     0
  0
VISUALSTYLE
  5
2F
102
{ACAD_REACTORS
330
2A
102
}
330
2A
100
AcDbVisualStyle
  2
2dWireframe
 70
     4
 71
     0
 72
     2
 73
     0
 90
        0
 40
-0.6
 41
-30.0
 62
     5
 63
     7
 74
     1
 91
        4
 64
     7
 65
   257
 75
     1
175
     1
 42
1.0
 92
        0
 66
   257
 43
1.0
 76
     1
 77
     6
 78
     2
 67
     7
 79
     5
170
     0
171
     0
290
     0
174
     0
 93
        1
 44
0.0
173
     0
291
     0
 45
0.0
1001
ACAD
1000
AcDbSavedByObjectVersion
1070
     0
1000
AcDbSavedByObjectVersion
1070
     0
1000
AcDbSavedByObjectVersion
1070
     0
1000
AcDbSavedByObjectVersion
1070
     0
1000
AcDbSavedByObjectVersion
1070
     0
1000
AcDbSavedByObjectVersion
1070
     0
1000
AcDbSavedByObjectVersion
1070
     0
1000
AcDbSavedByObjectVersion
1070
     0
1000
AcDbSavedByObjectVersion
1070
     0
1000
AcDbSavedByObjectVersion
1070
     0
1000
AcDbSavedByObjectVersion
1070
     0
1000
AcDbSavedByObjectVersion
1070
     0
1000
AcDbSavedByObjectVersion
1070
     0
1000
AcDbSavedByObjectVersion
1070
     0
1000
AcDbSavedByObjectVersion
1070
     0
1000
AcDbSavedByObjectVersion
1070
     0
1000
AcDbSavedByObjectVersion
1070
     0
1000
AcDbSavedByObjectVersion
1070
     0
1000
AcDbSavedByObjectVersion
1070
     0
1000
AcDbSavedByObjectVersion
1070
     0
1000
AcDbSavedByObjectVersion
1070
     0
1000
AcDbSavedByObjectVersion
1070
     0
1000
AcDbSavedByObjectVersion
1070
     0
1000
AcDbSavedByObjectVersion
1070
     0
1000
AcDbSavedByObjectVersion
1070
     0
1000
AcDbSavedByObjectVersion
1070
     0
1000
AcDbSavedByObjectVersion
1070
     0
1000
AcDbSavedByObjectVersion
1070
     0
1000
AcDbSavedByObjectVersion
1070
     0
1000
AcDbSavedByObjectVersion
1070
     0
1000
AcDbSavedByObjectVersion
1070
     0
1000
AcDbSavedByObjectVersion
1070
     0
1000
AcDbSavedByObjectVersion
1070
     0
1000
AcDbSavedByObjectVersion
1070
     0
1000
AcDbSavedByObjectVersion
1070
     0
1000
AcDbSavedByObjectVersion
1070
     0
1000
AcDbSavedByObjectVersion
1070
     0
1000
AcDbSavedByObjectVersion
1070
     0
1000
AcDbSavedByObjectVersion
1070
     0
1000
AcDbSavedByObjectVersion
1070
     0
1000
AcDbSavedByObjectVersion
1070
     0
1000
AcDbSavedByObjectVersion
1070
     0
1000
AcDbSavedByObjectVersion
1070
     0
1000
AcDbSavedByObjectVersion
1070
     0
1000
AcDbSavedByObjectVersion
1070
     0
1000
AcDbSavedByObjectVersion
1070
     0
  0
VISUALSTYLE
  5
31
102
{ACAD_REACTORS
330
2A
102
}
330
2A
100
AcDbVisualStyle
  2
3D Hidden
 70
     6
 71
     1
 72
     2
 73
     2
 90
        0
 40
-0.6
 41
-30.0
 62
     5
 63
     7
 74
     2
 91
        2
 64
     7
 65
   257
 75
     2
175
     1
 42
40.0
 92
        0
 66
   257
 43
1.0
 76
     1
 77
     6
 78
     2
 67
     7
 79
     3
170
     0
171
     0
290
     0
174
     0
 93
        1
 44
0.0
173
     0
291
     0
 45
0.0
1001
ACAD
1000
AcDbSavedByObjectVersion
1070
     0
1000
AcDbSavedByObjectVersion
1070
     0
1000
AcDbSavedByObjectVersion
1070
     0
1000
AcDbSavedByObjectVersion
1070
     0
1000
AcDbSavedByObjectVersion
1070
     0
1000
AcDbSavedByObjectVersion
1070
     0
1000
AcDbSavedByObjectVersion
1070
     0
1000
AcDbSavedByObjectVersion
1070
     0
1000
AcDbSavedByObjectVersion
1070
     0
1000
AcDbSavedByObjectVersion
1070
     0
1000
AcDbSavedByObjectVersion
1070
     0
1000
AcDbSavedByObjectVersion
1070
     0
1000
AcDbSavedByObjectVersion
1070
     0
1000
AcDbSavedByObjectVersion
1070
     0
1000
AcDbSavedByObjectVersion
1070
     0
1000
AcDbSavedByObjectVersion
1070
     0
1000
AcDbSavedByObjectVersion
1070
     0
1000
AcDbSavedByObjectVersion
1070
     0
1000
AcDbSavedByObjectVersion
1070
     0
1000
AcDbSavedByObjectVersion
1070
     0
1000
AcDbSavedByObjectVersion
1070
     0
1000
AcDbSavedByObjectVersion
1070
     0
1000
AcDbSavedByObjectVersion
1070
     0
1000
AcDbSavedByObjectVersion
1070
     0
1000
AcDbSavedByObjectVersion
1070
     0
1000
AcDbSavedByObjectVersion
1070
     0
1000
AcDbSavedByObjectVersion
1070
     0
1000
AcDbSavedByObjectVersion
1070
     0
1000
AcDbSavedByObjectVersion
1070
     0
1000
AcDbSavedByObjectVersion
1070
     0
1000
AcDbSavedByObjectVersion
1070
     0
1000
AcDbSavedByObjectVersion
1070
     0
1000
AcDbSavedByObjectVersion
1070
     0
1000
AcDbSavedByObjectVersion
1070
     0
1000
AcDbSavedByObjectVersion
1070
     0
1000
AcDbSavedByObjectVersion
1070
     0
1000
AcDbSavedByObjectVersion
1070
     0
1000
AcDbSavedByObjectVersion
1070
     0
1000
AcDbSavedByObjectVersion
1070
     0
1000
AcDbSavedByObjectVersion
1070
     0
1000
AcDbSavedByObjectVersion
1070
     0
1000
AcDbSavedByObjectVersion
1070
     0
1000
AcDbSavedByObjectVersion
1070
     0
1000
AcDbSavedByObjectVersion
1070
     0
1000
AcDbSavedByObjectVersion
1070
     0
1000
AcDbSavedByObjectVersion
1070
     0
  0
VISUALSTYLE
  5
30
102
{ACAD_REACTORS
330
2A
102
}
330
2A
100
AcDbVisualStyle
  2
3dWireframe
 70
     5
 71
     0
 72
     2
 73
     0
 90
        0
 40
-0.6
 41
-30.0
 62
     5
 63
     7
 74
     1
 91
        4
 64
     7
 65
   257
 75
     1
175
     1
 42
1.0
 92
        0
 66
   257
 43
1.0
 76
     1
 77
     6
 78
     2
 67
     7
 79
     5
170
     0
171
     0
290
     0
174
     0
 93
        1
 44
0.0
173
     0
291
     0
 45
0.0
1001
ACAD
1000
AcDbSavedByObjectVersion
1070
     0
1000
AcDbSavedByObjectVersion
1070
     0
1000
AcDbSavedByObjectVersion
1070
     0
1000
AcDbSavedByObjectVersion
1070
     0
1000
AcDbSavedByObjectVersion
1070
     0
1000
AcDbSavedByObjectVersion
1070
     0
1000
AcDbSavedByObjectVersion
1070
     0
1000
AcDbSavedByObjectVersion
1070
     0
1000
AcDbSavedByObjectVersion
1070
     0
1000
AcDbSavedByObjectVersion
1070
     0
1000
AcDbSavedByObjectVersion
1070
     0
1000
AcDbSavedByObjectVersion
1070
     0
1000
AcDbSavedByObjectVersion
1070
     0
1000
AcDbSavedByObjectVersion
1070
     0
1000
AcDbSavedByObjectVersion
1070
     0
1000
AcDbSavedByObjectVersion
1070
     0
1000
AcDbSavedByObjectVersion
1070
     0
1000
AcDbSavedByObjectVersion
1070
     0
1000
AcDbSavedByObjectVersion
1070
     0
1000
AcDbSavedByObjectVersion
1070
     0
1000
AcDbSavedByObjectVersion
1070
     0
1000
AcDbSavedByObjectVersion
1070
     0
1000
AcDbSavedByObjectVersion
1070
     0
1000
AcDbSavedByObjectVersion
1070
     0
1000
AcDbSavedByObjectVersion
1070
     0
1000
AcDbSavedByObjectVersion
1070
     0
1000
AcDbSavedByObjectVersion
1070
     0
1000
AcDbSavedByObjectVersion
1070
     0
1000
AcDbSavedByObjectVersion
1070
     0
1000
AcDbSavedByObjectVersion
1070
     0
1000
AcDbSavedByObjectVersion
1070
     0
1000
AcDbSavedByObjectVersion
1070
     0
1000
AcDbSavedByObjectVersion
1070
     0
1000
AcDbSavedByObjectVersion
1070
     0
1000
AcDbSavedByObjectVersion
1070
     0
1000
AcDbSavedByObjectVersion
1070
     0
1000
AcDbSavedByObjectVersion
1070
     0
1000
AcDbSavedByObjectVersion
1070
     0
1000
AcDbSavedByObjectVersion
1070
     0
1000
AcDbSavedByObjectVersion
1070
     0
1000
AcDbSavedByObjectVersion
1070
     0
1000
AcDbSavedByObjectVersion
1070
     0
1000
AcDbSavedByObjectVersion
1070
     0
1000
AcDbSavedByObjectVersion
1070
     0
1000
AcDbSavedByObjectVersion
1070
     0
1000
AcDbSavedByObjectVersion
1070
     0
  0
VISUALSTYLE
  5
32
102
{ACAD_REACTORS
330
2A
102
}
330
2A
100
AcDbVisualStyle
  2
Basic
 70
     7
 71
     1
 72
     0
 73
     1
 90
        0
 40
-0.6
 41
-30.0
 62
     5
 63
     7
 74
     0
 91
        4
 64
     7
 65
   257
 75
     1
175
     1
 42
1.0
 92
        8
 66
     7
 43
1.0
 76
     1
 77
     6
 78
     2
 67
     7
 79
     5
170
     0
171
     0
290
     0
174
     0
 93
        1
 44
0.0
173
     0
291
     1
 45
0.0
1001
ACAD
1000
AcDbSavedByObjectVersion
1070
     0
1000
AcDbSavedByObjectVersion
1070
     0
1000
AcDbSavedByObjectVersion
1070
     0
1000
AcDbSavedByObjectVersion
1070
     0
1000
AcDbSavedByObjectVersion
1070
     0
1000
AcDbSavedByObjectVersion
1070
     0
1000
AcDbSavedByObjectVersion
1070
     0
1000
AcDbSavedByObjectVersion
1070
     0
1000
AcDbSavedByObjectVersion
1070
     0
1000
AcDbSavedByObjectVersion
1070
     0
1000
AcDbSavedByObjectVersion
1070
     0
1000
AcDbSavedByObjectVersion
1070
     0
1000
AcDbSavedByObjectVersion
1070
     0
1000
AcDbSavedByObjectVersion
1070
     0
1000
AcDbSavedByObjectVersion
1070
     0
1000
AcDbSavedByObjectVersion
1070
     0
1000
AcDbSavedByObjectVersion
1070
     0
1000
AcDbSavedByObjectVersion
1070
     0
1000
AcDbSavedByObjectVersion
1070
     0
1000
AcDbSavedByObjectVersion
1070
     0
1000
AcDbSavedByObjectVersion
1070
     0
1000
AcDbSavedByObjectVersion
1070
     0
1000
AcDbSavedByObjectVersion
1070
     0
1000
AcDbSavedByObjectVersion
1070
     0
1000
AcDbSavedByObjectVersion
1070
     0
1000
AcDbSavedByObjectVersion
1070
     0
1000
AcDbSavedByObjectVersion
1070
     0
1000
AcDbSavedByObjectVersion
1070
     0
1000
AcDbSavedByObjectVersion
1070
     0
1000
AcDbSavedByObjectVersion
1070
     0
1000
AcDbSavedByObjectVersion
1070
     0
1000
AcDbSavedByObjectVersion
1070
     0
1000
AcDbSavedByObjectVersion
1070
     0
1000
AcDbSavedByObjectVersion
1070
     0
1000
AcDbSavedByObjectVersion
1070
     0
1000
AcDbSavedByObjectVersion
1070
     0
1000
AcDbSavedByObjectVersion
1070
     0
1000
AcDbSavedByObjectVersion
1070
     0
1000
AcDbSavedByObjectVersion
1070
     0
1000
AcDbSavedByObjectVersion
1070
     0
1000
AcDbSavedByObjectVersion
1070
     0
1000
AcDbSavedByObjectVersion
1070
     0
1000
AcDbSavedByObjectVersion
1070
     0
1000
AcDbSavedByObjectVersion
1070
     0
1000
AcDbSavedByObjectVersion
1070
     0
1000
AcDbSavedByObjectVersion
1070
     0
  0
VISUALSTYLE
  5
36
102
{ACAD_REACTORS
330
2A
102
}
330
2A
100
AcDbVisualStyle
  2
Brighten
 70
    12
 71
     2
 72
     2
 73
     0
 90
        0
 40
-0.6
 41
-30.0
 62
     5
 63
     7
 74
     1
 91
        4
 64
     7
 65
   257
 75
     1
175
     1
 42
1.0
 92
        8
 66
     7
 43
1.0
 76
     1
 77
     6
 78
     2
 67
     7
 79
     5
170
     0
171
     0
290
     0
174
     0
 93
        1
 44
50.0
173
     0
291
     1
 45
0.0
1001
ACAD
1000
AcDbSavedByObjectVersion
1070
     0
1000
AcDbSavedByObjectVersion
1070
     0
1000
AcDbSavedByObjectVersion
1070
     0
1000
AcDbSavedByObjectVersion
1070
     0
1000
AcDbSavedByObjectVersion
1070
     0
1000
AcDbSavedByObjectVersion
1070
     0
1000
AcDbSavedByObjectVersion
1070
     0
1000
AcDbSavedByObjectVersion
1070
     0
1000
AcDbSavedByObjectVersion
1070
     0
1000
AcDbSavedByObjectVersion
1070
     0
1000
AcDbSavedByObjectVersion
1070
     0
1000
AcDbSavedByObjectVersion
1070
     0
1000
AcDbSavedByObjectVersion
1070
     0
1000
AcDbSavedByObjectVersion
1070
     0
1000
AcDbSavedByObjectVersion
1070
     0
1000
AcDbSavedByObjectVersion
1070
     0
1000
AcDbSavedByObjectVersion
1070
     0
1000
AcDbSavedByObjectVersion
1070
     0
1000
AcDbSavedByObjectVersion
1070
     0
1000
AcDbSavedByObjectVersion
1070
     0
1000
AcDbSavedByObjectVersion
1070
     0
1000
AcDbSavedByObjectVersion
1070
     0
1000
AcDbSavedByObjectVersion
1070
     0
1000
AcDbSavedByObjectVersion
1070
     0
1000
AcDbSavedByObjectVersion
1070
     0
1000
AcDbSavedByObjectVersion
1070
     0
1000
AcDbSavedByObjectVersion
1070
     0
1000
AcDbSavedByObjectVersion
1070
     0
1000
AcDbSavedByObjectVersion
1070
     0
1000
AcDbSavedByObjectVersion
1070
     0
1000
AcDbSavedByObjectVersion
1070
     0
1000
AcDbSavedByObjectVersion
1070
     0
1000
AcDbSavedByObjectVersion
1070
     0
1000
AcDbSavedByObjectVersion
1070
     0
1000
AcDbSavedByObjectVersion
1070
     0
1000
AcDbSavedByObjectVersion
1070
     0
1000
AcDbSavedByObjectVersion
1070
     0
1000
AcDbSavedByObjectVersion
1070
     0
1000
AcDbSavedByObjectVersion
1070
     0
1000
AcDbSavedByObjectVersion
1070
     0
1000
AcDbSavedByObjectVersion
1070
     0
1000
AcDbSavedByObjectVersion
1070
     0
1000
AcDbSavedByObjectVersion
1070
     0
1000
AcDbSavedByObjectVersion
1070
     0
1000
AcDbSavedByObjectVersion
1070
     0
1000
AcDbSavedByObjectVersion
1070
     0
  0
VISUALSTYLE
  5
3A
102
{ACAD_REACTORS
330
2A
102
}
330
2A
100
AcDbVisualStyle
  2
ColorChange
 70
    16
 71
     2
 72
     2
 73
     3
 90
        0
 40
-0.6
 41
-30.0
 62
     5
 63
     8
 74
     1
 91
        4
 64
     7
 65
   257
 75
     1
175
     1
 42
1.0
 92
        8
 66
     8
 43
1.0
 76
     1
 77
     6
 78
     2
 67
     7
 79
     5
170
     0
171
     0
290
     0
174
     0
 93
        1
 44
0.0
173
     0
291
     1
 45
0.0
1001
ACAD
1000
AcDbSavedByObjectVersion
1070
     0
1000
AcDbSavedByObjectVersion
1070
     0
1000
AcDbSavedByObjectVersion
1070
     0
1000
AcDbSavedByObjectVersion
1070
     0
1000
AcDbSavedByObjectVersion
1070
     0
1000
AcDbSavedByObjectVersion
1070
     0
1000
AcDbSavedByObjectVersion
1070
     0
1000
AcDbSavedByObjectVersion
1070
     0
1000
AcDbSavedByObjectVersion
1070
     0
1000
AcDbSavedByObjectVersion
1070
     0
1000
AcDbSavedByObjectVersion
1070
     0
1000
AcDbSavedByObjectVersion
1070
     0
1000
AcDbSavedByObjectVersion
1070
     0
1000
AcDbSavedByObjectVersion
1070
     0
1000
AcDbSavedByObjectVersion
1070
     0
1000
AcDbSavedByObjectVersion
1070
     0
1000
AcDbSavedByObjectVersion
1070
     0
1000
AcDbSavedByObjectVersion
1070
     0
1000
AcDbSavedByObjectVersion
1070
     0
1000
AcDbSavedByObjectVersion
1070
     0
1000
AcDbSavedByObjectVersion
1070
     0
1000
AcDbSavedByObjectVersion
1070
     0
1000
AcDbSavedByObjectVersion
1070
     0
1000
AcDbSavedByObjectVersion
1070
     0
1000
AcDbSavedByObjectVersion
1070
     0
1000
AcDbSavedByObjectVersion
1070
     0
1000
AcDbSavedByObjectVersion
1070
     0
1000
AcDbSavedByObjectVersion
1070
     0
1000
AcDbSavedByObjectVersion
1070
     0
1000
AcDbSavedByObjectVersion
1070
     0
1000
AcDbSavedByObjectVersion
1070
     0
1000
AcDbSavedByObjectVersion
1070
     0
1000
AcDbSavedByObjectVersion
1070
     0
1000
AcDbSavedByObjectVersion
1070
     0
1000
AcDbSavedByObjectVersion
1070
     0
1000
AcDbSavedByObjectVersion
1070
     0
1000
AcDbSavedByObjectVersion
1070
     0
1000
AcDbSavedByObjectVersion
1070
     0
1000
AcDbSavedByObjectVersion
1070
     0
1000
AcDbSavedByObjectVersion
1070
     0
1000
AcDbSavedByObjectVersion
1070
     0
1000
AcDbSavedByObjectVersion
1070
     0
1000
AcDbSavedByObjectVersion
1070
     0
1000
AcDbSavedByObjectVersion
1070
     0
1000
AcDbSavedByObjectVersion
1070
     0
1000
AcDbSavedByObjectVersion
1070
     0
  0
VISUALSTYLE
  5
34
102
{ACAD_REACTORS
330
2A
102
}
330
2A
100
AcDbVisualStyle
  2
Conceptual
 70
     9
 71
     3
 72
     2
 73
     0
 90
        0
 40
-0.6
 41
-30.0
 62
     5
 63
     7
 74
     2
 91
        2
 64
     7
 65
   257
 75
     1
175
     1
 42
40.0
 92
        8
 66
     7
 43
1.0
 76
     1
 77
     6
 78
     2
 67
     7
 79
     3
170
     0
171
     0
290
     0
174
     0
 93
        1
 44
0.0
173
     0
291
     0
 45
0.0
1001
ACAD
1000
AcDbSavedByObjectVersion
1070
     0
1000
AcDbSavedByObjectVersion
1070
     0
1000
AcDbSavedByObjectVersion
1070
     0
1000
AcDbSavedByObjectVersion
1070
     0
1000
AcDbSavedByObjectVersion
1070
     0
1000
AcDbSavedByObjectVersion
1070
     0
1000
AcDbSavedByObjectVersion
1070
     0
1000
AcDbSavedByObjectVersion
1070
     0
1000
AcDbSavedByObjectVersion
1070
     0
1000
AcDbSavedByObjectVersion
1070
     0
1000
AcDbSavedByObjectVersion
1070
     0
1000
AcDbSavedByObjectVersion
1070
     0
1000
AcDbSavedByObjectVersion
1070
     0
1000
AcDbSavedByObjectVersion
1070
     0
1000
AcDbSavedByObjectVersion
1070
     0
1000
AcDbSavedByObjectVersion
1070
     0
1000
AcDbSavedByObjectVersion
1070
     0
1000
AcDbSavedByObjectVersion
1070
     0
1000
AcDbSavedByObjectVersion
1070
     0
1000
AcDbSavedByObjectVersion
1070
     0
1000
AcDbSavedByObjectVersion
1070
     0
1000
AcDbSavedByObjectVersion
1070
     0
1000
AcDbSavedByObjectVersion
1070
     0
1000
AcDbSavedByObjectVersion
1070
     0
1000
AcDbSavedByObjectVersion
1070
     0
1000
AcDbSavedByObjectVersion
1070
     0
1000
AcDbSavedByObjectVersion
1070
     0
1000
AcDbSavedByObjectVersion
1070
     0
1000
AcDbSavedByObjectVersion
1070
     0
1000
AcDbSavedByObjectVersion
1070
     0
1000
AcDbSavedByObjectVersion
1070
     0
1000
AcDbSavedByObjectVersion
1070
     0
1000
AcDbSavedByObjectVersion
1070
     0
1000
AcDbSavedByObjectVersion
1070
     0
1000
AcDbSavedByObjectVersion
1070
     0
1000
AcDbSavedByObjectVersion
1070
     0
1000
AcDbSavedByObjectVersion
1070
     0
1000
AcDbSavedByObjectVersion
1070
     0
1000
AcDbSavedByObjectVersion
1070
     0
1000
AcDbSavedByObjectVersion
1070
     0
1000
AcDbSavedByObjectVersion
1070
     0
1000
AcDbSavedByObjectVersion
1070
     0
1000
AcDbSavedByObjectVersion
1070
     0
1000
AcDbSavedByObjectVersion
1070
     0
1000
AcDbSavedByObjectVersion
1070
     0
1000
AcDbSavedByObjectVersion
1070
     0
  0
VISUALSTYLE
  5
35
102
{ACAD_REACTORS
330
2A
102
}
330
2A
100
AcDbVisualStyle
  2
Dim
 70
    11
 71
     2
 72
     2
 73
     0
 90
        0
 40
-0.6
 41
-30.0
 62
     5
 63
     7
 74
     1
 91
        4
 64
     7
 65
   257
 75
     1
175
     1
 42
1.0
 92
        8
 66
     7
 43
1.0
 76
     1
 77
     6
 78
     2
 67
     7
 79
     5
170
     0
171
     0
290
     0
174
     0
 93
        1
 44
-50.0
173
     0
291
     1
 45
0.0
1001
ACAD
1000
AcDbSavedByObjectVersion
1070
     0
1000
AcDbSavedByObjectVersion
1070
     0
1000
AcDbSavedByObjectVersion
1070
     0
1000
AcDbSavedByObjectVersion
1070
     0
1000
AcDbSavedByObjectVersion
1070
     0
1000
AcDbSavedByObjectVersion
1070
     0
1000
AcDbSavedByObjectVersion
1070
     0
1000
AcDbSavedByObjectVersion
1070
     0
1000
AcDbSavedByObjectVersion
1070
     0
1000
AcDbSavedByObjectVersion
1070
     0
1000
AcDbSavedByObjectVersion
1070
     0
1000
AcDbSavedByObjectVersion
1070
     0
1000
AcDbSavedByObjectVersion
1070
     0
1000
AcDbSavedByObjectVersion
1070
     0
1000
AcDbSavedByObjectVersion
1070
     0
1000
AcDbSavedByObjectVersion
1070
     0
1000
AcDbSavedByObjectVersion
1070
     0
1000
AcDbSavedByObjectVersion
1070
     0
1000
AcDbSavedByObjectVersion
1070
     0
1000
AcDbSavedByObjectVersion
1070
     0
1000
AcDbSavedByObjectVersion
1070
     0
1000
AcDbSavedByObjectVersion
1070
     0
1000
AcDbSavedByObjectVersion
1070
     0
1000
AcDbSavedByObjectVersion
1070
     0
1000
AcDbSavedByObjectVersion
1070
     0
1000
AcDbSavedByObjectVersion
1070
     0
1000
AcDbSavedByObjectVersion
1070
     0
1000
AcDbSavedByObjectVersion
1070
     0
1000
AcDbSavedByObjectVersion
1070
     0
1000
AcDbSavedByObjectVersion
1070
     0
1000
AcDbSavedByObjectVersion
1070
     0
1000
AcDbSavedByObjectVersion
1070
     0
1000
AcDbSavedByObjectVersion
1070
     0
1000
AcDbSavedByObjectVersion
1070
     0
1000
AcDbSavedByObjectVersion
1070
     0
1000
AcDbSavedByObjectVersion
1070
     0
1000
AcDbSavedByObjectVersion
1070
     0
1000
AcDbSavedByObjectVersion
1070
     0
1000
AcDbSavedByObjectVersion
1070
     0
1000
AcDbSavedByObjectVersion
1070
     0
1000
AcDbSavedByObjectVersion
1070
     0
1000
AcDbSavedByObjectVersion
1070
     0
1000
AcDbSavedByObjectVersion
1070
     0
1000
AcDbSavedByObjectVersion
1070
     0
1000
AcDbSavedByObjectVersion
1070
     0
1000
AcDbSavedByObjectVersion
1070
     0
  0
VISUALSTYLE
  5
39
102
{ACAD_REACTORS
330
2A
102
}
330
2A
100
AcDbVisualStyle
  2
Facepattern
 70
    15
 71
     2
 72
     2
 73
     0
 90
        0
 40
-0.6
 41
-30.0
 62
     5
 63
     7
 74
     1
 91
        4
 64
     7
 65
   257
 75
     1
175
     1
 42
1.0
 92
        8
 66
     7
 43
1.0
 76
     1
 77
     6
 78
     2
 67
     7
 79
     5
170
     0
171
     0
290
     0
174
     0
 93
        1
 44
0.0
173
     0
291
     1
 45
0.0
1001
ACAD
1000
AcDbSavedByObjectVersion
1070
     0
1000
AcDbSavedByObjectVersion
1070
     0
1000
AcDbSavedByObjectVersion
1070
     0
1000
AcDbSavedByObjectVersion
1070
     0
1000
AcDbSavedByObjectVersion
1070
     0
1000
AcDbSavedByObjectVersion
1070
     0
1000
AcDbSavedByObjectVersion
1070
     0
1000
AcDbSavedByObjectVersion
1070
     0
1000
AcDbSavedByObjectVersion
1070
     0
1000
AcDbSavedByObjectVersion
1070
     0
1000
AcDbSavedByObjectVersion
1070
     0
1000
AcDbSavedByObjectVersion
1070
     0
1000
AcDbSavedByObjectVersion
1070
     0
1000
AcDbSavedByObjectVersion
1070
     0
1000
AcDbSavedByObjectVersion
1070
     0
1000
AcDbSavedByObjectVersion
1070
     0
1000
AcDbSavedByObjectVersion
1070
     0
1000
AcDbSavedByObjectVersion
1070
     0
1000
AcDbSavedByObjectVersion
1070
     0
1000
AcDbSavedByObjectVersion
1070
     0
1000
AcDbSavedByObjectVersion
1070
     0
1000
AcDbSavedByObjectVersion
1070
     0
1000
AcDbSavedByObjectVersion
1070
     0
1000
AcDbSavedByObjectVersion
1070
     0
1000
AcDbSavedByObjectVersion
1070
     0
1000
AcDbSavedByObjectVersion
1070
     0
1000
AcDbSavedByObjectVersion
1070
     0
1000
AcDbSavedByObjectVersion
1070
     0
1000
AcDbSavedByObjectVersion
1070
     0
1000
AcDbSavedByObjectVersion
1070
     0
1000
AcDbSavedByObjectVersion
1070
     0
1000
AcDbSavedByObjectVersion
1070
     0
1000
AcDbSavedByObjectVersion
1070
     0
1000
AcDbSavedByObjectVersion
1070
     0
1000
AcDbSavedByObjectVersion
1070
     0
1000
AcDbSavedByObjectVersion
1070
     0
1000
AcDbSavedByObjectVersion
1070
     0
1000
AcDbSavedByObjectVersion
1070
     0
1000
AcDbSavedByObjectVersion
1070
     0
1000
AcDbSavedByObjectVersion
1070
     0
1000
AcDbSavedByObjectVersion
1070
     0
1000
AcDbSavedByObjectVersion
1070
     0
1000
AcDbSavedByObjectVersion
1070
     0
1000
AcDbSavedByObjectVersion
1070
     0
1000
AcDbSavedByObjectVersion
1070
     0
1000
AcDbSavedByObjectVersion
1070
     0
  0
VISUALSTYLE
  5
2B
102
{ACAD_REACTORS
330
2A
102
}
330
2A
100
AcDbVisualStyle
  2
Flat
 70
     0
 71
     2
 72
     1
 73
     1
 90
        2
 40
-0.6
 41
30.0
 62
     5
 63
     7
 74
     0
 91
        4
 64
     7
 65
   257
 75
     1
175
     1
 42
1.0
 92
        8
 66
     7
 43
1.0
 76
     1
 77
     6
 78
     2
 67
     7
 79
     5
170
     0
171
     0
290
     0
174
     0
 93
       13
 44
0.0
173
     0
291
     1
 45
0.0
1001
ACAD
1000
AcDbSavedByObjectVersion
1070
     0
1000
AcDbSavedByObjectVersion
1070
     0
1000
AcDbSavedByObjectVersion
1070
     0
1000
AcDbSavedByObjectVersion
1070
     0
1000
AcDbSavedByObjectVersion
1070
     0
1000
AcDbSavedByObjectVersion
1070
     0
1000
AcDbSavedByObjectVersion
1070
     0
1000
AcDbSavedByObjectVersion
1070
     0
1000
AcDbSavedByObjectVersion
1070
     0
1000
AcDbSavedByObjectVersion
1070
     0
1000
AcDbSavedByObjectVersion
1070
     0
1000
AcDbSavedByObjectVersion
1070
     0
1000
AcDbSavedByObjectVersion
1070
     0
1000
AcDbSavedByObjectVersion
1070
     0
1000
AcDbSavedByObjectVersion
1070
     0
1000
AcDbSavedByObjectVersion
1070
     0
1000
AcDbSavedByObjectVersion
1070
     0
1000
AcDbSavedByObjectVersion
1070
     0
1000
AcDbSavedByObjectVersion
1070
     0
1000
AcDbSavedByObjectVersion
1070
     0
1000
AcDbSavedByObjectVersion
1070
     0
1000
AcDbSavedByObjectVersion
1070
     0
1000
AcDbSavedByObjectVersion
1070
     0
1000
AcDbSavedByObjectVersion
1070
     0
1000
AcDbSavedByObjectVersion
1070
     0
1000
AcDbSavedByObjectVersion
1070
     0
1000
AcDbSavedByObjectVersion
1070
     0
1000
AcDbSavedByObjectVersion
1070
     0
1000
AcDbSavedByObjectVersion
1070
     0
1000
AcDbSavedByObjectVersion
1070
     0
1000
AcDbSavedByObjectVersion
1070
     0
1000
AcDbSavedByObjectVersion
1070
     0
1000
AcDbSavedByObjectVersion
1070
     0
1000
AcDbSavedByObjectVersion
1070
     0
1000
AcDbSavedByObjectVersion
1070
     0
1000
AcDbSavedByObjectVersion
1070
     0
1000
AcDbSavedByObjectVersion
1070
     0
1000
AcDbSavedByObjectVersion
1070
     0
1000
AcDbSavedByObjectVersion
1070
     0
1000
AcDbSavedByObjectVersion
1070
     0
1000
AcDbSavedByObjectVersion
1070
     0
1000
AcDbSavedByObjectVersion
1070
     0
1000
AcDbSavedByObjectVersion
1070
     0
1000
AcDbSavedByObjectVersion
1070
     0
1000
AcDbSavedByObjectVersion
1070
     0
1000
AcDbSavedByObjectVersion
1070
     0
  0
VISUALSTYLE
  5
2C
102
{ACAD_REACTORS
330
2A
102
}
330
2A
100
AcDbVisualStyle
  2
FlatWithEdges
 70
     1
 71
     2
 72
     1
 73
     1
 90
        2
 40
-0.6
 41
30.0
 62
     5
 63
     7
 74
     1
 91
        4
 64
     7
 65
   257
 75
     1
175
     1
 42
1.0
 92
        0
 66
   257
 43
1.0
 76
     1
 77
     6
 78
     2
 67
     7
 79
     5
170
     0
171
     0
290
     0
174
     0
 93
       13
 44
0.0
173
     0
291
     1
 45
0.0
1001
ACAD
1000
AcDbSavedByObjectVersion
1070
     0
1000
AcDbSavedByObjectVersion
1070
     0
1000
AcDbSavedByObjectVersion
1070
     0
1000
AcDbSavedByObjectVersion
1070
     0
1000
AcDbSavedByObjectVersion
1070
     0
1000
AcDbSavedByObjectVersion
1070
     0
1000
AcDbSavedByObjectVersion
1070
     0
1000
AcDbSavedByObjectVersion
1070
     0
1000
AcDbSavedByObjectVersion
1070
     0
1000
AcDbSavedByObjectVersion
1070
     0
1000
AcDbSavedByObjectVersion
1070
     0
1000
AcDbSavedByObjectVersion
1070
     0
1000
AcDbSavedByObjectVersion
1070
     0
1000
AcDbSavedByObjectVersion
1070
     0
1000
AcDbSavedByObjectVersion
1070
     0
1000
AcDbSavedByObjectVersion
1070
     0
1000
AcDbSavedByObjectVersion
1070
     0
1000
AcDbSavedByObjectVersion
1070
     0
1000
AcDbSavedByObjectVersion
1070
     0
1000
AcDbSavedByObjectVersion
1070
     0
1000
AcDbSavedByObjectVersion
1070
     0
1000
AcDbSavedByObjectVersion
1070
     0
1000
AcDbSavedByObjectVersion
1070
     0
1000
AcDbSavedByObjectVersion
1070
     0
1000
AcDbSavedByObjectVersion
1070
     0
1000
AcDbSavedByObjectVersion
1070
     0
1000
AcDbSavedByObjectVersion
1070
     0
1000
AcDbSavedByObjectVersion
1070
     0
1000
AcDbSavedByObjectVersion
1070
     0
1000
AcDbSavedByObjectVersion
1070
     0
1000
AcDbSavedByObjectVersion
1070
     0
1000
AcDbSavedByObjectVersion
1070
     0
1000
AcDbSavedByObjectVersion
1070
     0
1000
AcDbSavedByObjectVersion
1070
     0
1000
AcDbSavedByObjectVersion
1070
     0
1000
AcDbSavedByObjectVersion
1070
     0
1000
AcDbSavedByObjectVersion
1070
     0
1000
AcDbSavedByObjectVersion
1070
     0
1000
AcDbSavedByObjectVersion
1070
     0
1000
AcDbSavedByObjectVersion
1070
     0
1000
AcDbSavedByObjectVersion
1070
     0
1000
AcDbSavedByObjectVersion
1070
     0
1000
AcDbSavedByObjectVersion
1070
     0
1000
AcDbSavedByObjectVersion
1070
     0
1000
AcDbSavedByObjectVersion
1070
     0
1000
AcDbSavedByObjectVersion
1070
     0
  0
VISUALSTYLE
  5
2D
102
{ACAD_REACTORS
330
2A
102
}
330
2A
100
AcDbVisualStyle
  2
Gouraud
 70
     2
 71
     2
 72
     2
 73
     1
 90
        2
 40
-0.6
 41
30.0
 62
     5
 63
     7
 74
     0
 91
        4
 64
     7
 65
   257
 75
     1
175
     1
 42
1.0
 92
        0
 66
     7
 43
1.0
 76
     1
 77
     6
 78
     2
 67
     7
 79
     5
170
     0
171
     0
290
     0
174
     0
 93
       13
 44
0.0
173
     0
291
     1
 45
0.0
1001
ACAD
1000
AcDbSavedByObjectVersion
1070
     0
1000
AcDbSavedByObjectVersion
1070
     0
1000
AcDbSavedByObjectVersion
1070
     0
1000
AcDbSavedByObjectVersion
1070
     0
1000
AcDbSavedByObjectVersion
1070
     0
1000
AcDbSavedByObjectVersion
1070
     0
1000
AcDbSavedByObjectVersion
1070
     0
1000
AcDbSavedByObjectVersion
1070
     0
1000
AcDbSavedByObjectVersion
1070
     0
1000
AcDbSavedByObjectVersion
1070
     0
1000
AcDbSavedByObjectVersion
1070
     0
1000
AcDbSavedByObjectVersion
1070
     0
1000
AcDbSavedByObjectVersion
1070
     0
1000
AcDbSavedByObjectVersion
1070
     0
1000
AcDbSavedByObjectVersion
1070
     0
1000
AcDbSavedByObjectVersion
1070
     0
1000
AcDbSavedByObjectVersion
1070
     0
1000
AcDbSavedByObjectVersion
1070
     0
1000
AcDbSavedByObjectVersion
1070
     0
1000
AcDbSavedByObjectVersion
1070
     0
1000
AcDbSavedByObjectVersion
1070
     0
1000
AcDbSavedByObjectVersion
1070
     0
1000
AcDbSavedByObjectVersion
1070
     0
1000
AcDbSavedByObjectVersion
1070
     0
1000
AcDbSavedByObjectVersion
1070
     0
1000
AcDbSavedByObjectVersion
1070
     0
1000
AcDbSavedByObjectVersion
1070
     0
1000
AcDbSavedByObjectVersion
1070
     0
1000
AcDbSavedByObjectVersion
1070
     0
1000
AcDbSavedByObjectVersion
1070
     0
1000
AcDbSavedByObjectVersion
1070
     0
1000
AcDbSavedByObjectVersion
1070
     0
1000
AcDbSavedByObjectVersion
1070
     0
1000
AcDbSavedByObjectVersion
1070
     0
1000
AcDbSavedByObjectVersion
1070
     0
1000
AcDbSavedByObjectVersion
1070
     0
1000
AcDbSavedByObjectVersion
1070
     0
1000
AcDbSavedByObjectVersion
1070
     0
1000
AcDbSavedByObjectVersion
1070
     0
1000
AcDbSavedByObjectVersion
1070
     0
1000
AcDbSavedByObjectVersion
1070
     0
1000
AcDbSavedByObjectVersion
1070
     0
1000
AcDbSavedByObjectVersion
1070
     0
1000
AcDbSavedByObjectVersion
1070
     0
1000
AcDbSavedByObjectVersion
1070
     0
1000
AcDbSavedByObjectVersion
1070
     0
  0
VISUALSTYLE
  5
2E
102
{ACAD_REACTORS
330
2A
102
}
330
2A
100
AcDbVisualStyle
  2
GouraudWithEdges
 70
     3
 71
     2
 72
     2
 73
     1
 90
        2
 40
-0.6
 41
30.0
 62
     5
 63
     7
 74
     1
 91
        4
 64
     7
 65
   257
 75
     1
175
     1
 42
1.0
 92
        0
 66
   257
 43
1.0
 76
     1
 77
     6
 78
     2
 67
     7
 79
     5
170
     0
171
     0
290
     0
174
     0
 93
       13
 44
0.0
173
     0
291
     1
 45
0.0
1001
ACAD
1000
AcDbSavedByObjectVersion
1070
     0
1000
AcDbSavedByObjectVersion
1070
     0
1000
AcDbSavedByObjectVersion
1070
     0
1000
AcDbSavedByObjectVersion
1070
     0
1000
AcDbSavedByObjectVersion
1070
     0
1000
AcDbSavedByObjectVersion
1070
     0
1000
AcDbSavedByObjectVersion
1070
     0
1000
AcDbSavedByObjectVersion
1070
     0
1000
AcDbSavedByObjectVersion
1070
     0
1000
AcDbSavedByObjectVersion
1070
     0
1000
AcDbSavedByObjectVersion
1070
     0
1000
AcDbSavedByObjectVersion
1070
     0
1000
AcDbSavedByObjectVersion
1070
     0
1000
AcDbSavedByObjectVersion
1070
     0
1000
AcDbSavedByObjectVersion
1070
     0
1000
AcDbSavedByObjectVersion
1070
     0
1000
AcDbSavedByObjectVersion
1070
     0
1000
AcDbSavedByObjectVersion
1070
     0
1000
AcDbSavedByObjectVersion
1070
     0
1000
AcDbSavedByObjectVersion
1070
     0
1000
AcDbSavedByObjectVersion
1070
     0
1000
AcDbSavedByObjectVersion
1070
     0
1000
AcDbSavedByObjectVersion
1070
     0
1000
AcDbSavedByObjectVersion
1070
     0
1000
AcDbSavedByObjectVersion
1070
     0
1000
AcDbSavedByObjectVersion
1070
     0
1000
AcDbSavedByObjectVersion
1070
     0
1000
AcDbSavedByObjectVersion
1070
     0
1000
AcDbSavedByObjectVersion
1070
     0
1000
AcDbSavedByObjectVersion
1070
     0
1000
AcDbSavedByObjectVersion
1070
     0
1000
AcDbSavedByObjectVersion
1070
     0
1000
AcDbSavedByObjectVersion
1070
     0
1000
AcDbSavedByObjectVersion
1070
     0
1000
AcDbSavedByObjectVersion
1070
     0
1000
AcDbSavedByObjectVersion
1070
     0
1000
AcDbSavedByObjectVersion
1070
     0
1000
AcDbSavedByObjectVersion
1070
     0
1000
AcDbSavedByObjectVersion
1070
     0
1000
AcDbSavedByObjectVersion
1070
     0
1000
AcDbSavedByObjectVersion
1070
     0
1000
AcDbSavedByObjectVersion
1070
     0
1000
AcDbSavedByObjectVersion
1070
     0
1000
AcDbSavedByObjectVersion
1070
     0
1000
AcDbSavedByObjectVersion
1070
     0
1000
AcDbSavedByObjectVersion
1070
     0
  0
VISUALSTYLE
  5
38
102
{ACAD_REACTORS
330
2A
102
}
330
2A
100
AcDbVisualStyle
  2
Linepattern
 70
    14
 71
     2
 72
     2
 73
     0
 90
        0
 40
-0.6
 41
-30.0
 62
     5
 63
     7
 74
     1
 91
        4
 64
     7
 65
   257
 75
     7
175
     7
 42
1.0
 92
        8
 66
     7
 43
1.0
 76
     1
 77
     6
 78
     2
 67
     7
 79
     5
170
     0
171
     0
290
     0
174
     0
 93
        1
 44
0.0
173
     0
291
     1
 45
0.0
1001
ACAD
1000
AcDbSavedByObjectVersion
1070
     0
1000
AcDbSavedByObjectVersion
1070
     0
1000
AcDbSavedByObjectVersion
1070
     0
1000
AcDbSavedByObjectVersion
1070
     0
1000
AcDbSavedByObjectVersion
1070
     0
1000
AcDbSavedByObjectVersion
1070
     0
1000
AcDbSavedByObjectVersion
1070
     0
1000
AcDbSavedByObjectVersion
1070
     0
1000
AcDbSavedByObjectVersion
1070
     0
1000
AcDbSavedByObjectVersion
1070
     0
1000
AcDbSavedByObjectVersion
1070
     0
1000
AcDbSavedByObjectVersion
1070
     0
1000
AcDbSavedByObjectVersion
1070
     0
1000
AcDbSavedByObjectVersion
1070
     0
1000
AcDbSavedByObjectVersion
1070
     0
1000
AcDbSavedByObjectVersion
1070
     0
1000
AcDbSavedByObjectVersion
1070
     0
1000
AcDbSavedByObjectVersion
1070
     0
1000
AcDbSavedByObjectVersion
1070
     0
1000
AcDbSavedByObjectVersion
1070
     0
1000
AcDbSavedByObjectVersion
1070
     0
1000
AcDbSavedByObjectVersion
1070
     0
1000
AcDbSavedByObjectVersion
1070
     0
1000
AcDbSavedByObjectVersion
1070
     0
1000
AcDbSavedByObjectVersion
1070
     0
1000
AcDbSavedByObjectVersion
1070
     0
1000
AcDbSavedByObjectVersion
1070
     0
1000
AcDbSavedByObjectVersion
1070
     0
1000
AcDbSavedByObjectVersion
1070
     0
1000
AcDbSavedByObjectVersion
1070
     0
1000
AcDbSavedByObjectVersion
1070
     0
1000
AcDbSavedByObjectVersion
1070
     0
1000
AcDbSavedByObjectVersion
1070
     0
1000
AcDbSavedByObjectVersion
1070
     0
1000
AcDbSavedByObjectVersion
1070
     0
1000
AcDbSavedByObjectVersion
1070
     0
1000
AcDbSavedByObjectVersion
1070
     0
1000
AcDbSavedByObjectVersion
1070
     0
1000
AcDbSavedByObjectVersion
1070
     0
1000
AcDbSavedByObjectVersion
1070
     0
1000
AcDbSavedByObjectVersion
1070
     0
1000
AcDbSavedByObjectVersion
1070
     0
1000
AcDbSavedByObjectVersion
1070
     0
1000
AcDbSavedByObjectVersion
1070
     0
1000
AcDbSavedByObjectVersion
1070
     0
1000
AcDbSavedByObjectVersion
1070
     0
  0
VISUALSTYLE
  5
33
102
{ACAD_REACTORS
330
2A
102
}
330
2A
100
AcDbVisualStyle
  2
Realistic
 70
     8
 71
     2
 72
     2
 73
     0
 90
        0
 40
-0.6
 41
-30.0
 62
     5
 63
     7
 74
     1
 91
        0
 64
     7
 65
   257
 75
     1
175
     1
 42
1.0
 92
        8
 66
     8
 43
1.0
 76
     1
 77
     6
 78
     2
 67
     7
 79
     5
170
     0
171
     0
290
     0
174
     0
 93
       13
 44
0.0
173
     0
291
     0
 45
0.0
1001
ACAD
1000
AcDbSavedByObjectVersion
1070
     0
1000
AcDbSavedByObjectVersion
1070
     0
1000
AcDbSavedByObjectVersion
1070
     0
1000
AcDbSavedByObjectVersion
1070
     0
1000
AcDbSavedByObjectVersion
1070
     0
1000
AcDbSavedByObjectVersion
1070
     0
1000
AcDbSavedByObjectVersion
1070
     0
1000
AcDbSavedByObjectVersion
1070
     0
1000
AcDbSavedByObjectVersion
1070
     0
1000
AcDbSavedByObjectVersion
1070
     0
1000
AcDbSavedByObjectVersion
1070
     0
1000
AcDbSavedByObjectVersion
1070
     0
1000
AcDbSavedByObjectVersion
1070
     0
1000
AcDbSavedByObjectVersion
1070
     0
1000
AcDbSavedByObjectVersion
1070
     0
1000
AcDbSavedByObjectVersion
1070
     0
1000
AcDbSavedByObjectVersion
1070
     0
1000
AcDbSavedByObjectVersion
1070
     0
1000
AcDbSavedByObjectVersion
1070
     0
1000
AcDbSavedByObjectVersion
1070
     0
1000
AcDbSavedByObjectVersion
1070
     0
1000
AcDbSavedByObjectVersion
1070
     0
1000
AcDbSavedByObjectVersion
1070
     0
1000
AcDbSavedByObjectVersion
1070
     0
1000
AcDbSavedByObjectVersion
1070
     0
1000
AcDbSavedByObjectVersion
1070
     0
1000
AcDbSavedByObjectVersion
1070
     0
1000
AcDbSavedByObjectVersion
1070
     0
1000
AcDbSavedByObjectVersion
1070
     0
1000
AcDbSavedByObjectVersion
1070
     0
1000
AcDbSavedByObjectVersion
1070
     0
1000
AcDbSavedByObjectVersion
1070
     0
1000
AcDbSavedByObjectVersion
1070
     0
1000
AcDbSavedByObjectVersion
1070
     0
1000
AcDbSavedByObjectVersion
1070
     0
1000
AcDbSavedByObjectVersion
1070
     0
1000
AcDbSavedByObjectVersion
1070
     0
1000
AcDbSavedByObjectVersion
1070
     0
1000
AcDbSavedByObjectVersion
1070
     0
1000
AcDbSavedByObjectVersion
1070
     0
1000
AcDbSavedByObjectVersion
1070
     0
1000
AcDbSavedByObjectVersion
1070
     0
1000
AcDbSavedByObjectVersion
1070
     0
1000
AcDbSavedByObjectVersion
1070
     0
1000
AcDbSavedByObjectVersion
1070
     0
1000
AcDbSavedByObjectVersion
1070
     0
  0
VISUALSTYLE
  5
37
102
{ACAD_REACTORS
330
2A
102
}
330
2A
100
AcDbVisualStyle
  2
Thicken
 70
    13
 71
     2
 72
     2
 73
     0
 90
        0
 40
-0.6
 41
-30.0
 62
     5
 63
     7
 74
     1
 91
        4
 64
     7
 65
   257
 75
     1
175
     1
 42
1.0
 92
       12
 66
     7
 43
1.0
 76
     1
 77
     6
 78
     2
 67
     7
 79
     5
170
     0
171
     0
290
     0
174
     0
 93
        1
 44
0.0
173
     0
291
     1
 45
0.0
1001
ACAD
1000
AcDbSavedByObjectVersion
1070
     0
1000
AcDbSavedByObjectVersion
1070
     0
1000
AcDbSavedByObjectVersion
1070
     0
1000
AcDbSavedByObjectVersion
1070
     0
1000
AcDbSavedByObjectVersion
1070
     0
1000
AcDbSavedByObjectVersion
1070
     0
1000
AcDbSavedByObjectVersion
1070
     0
1000
AcDbSavedByObjectVersion
1070
     0
1000
AcDbSavedByObjectVersion
1070
     0
1000
AcDbSavedByObjectVersion
1070
     0
1000
AcDbSavedByObjectVersion
1070
     0
1000
AcDbSavedByObjectVersion
1070
     0
1000
AcDbSavedByObjectVersion
1070
     0
1000
AcDbSavedByObjectVersion
1070
     0
1000
AcDbSavedByObjectVersion
1070
     0
1000
AcDbSavedByObjectVersion
1070
     0
1000
AcDbSavedByObjectVersion
1070
     0
1000
AcDbSavedByObjectVersion
1070
     0
1000
AcDbSavedByObjectVersion
1070
     0
1000
AcDbSavedByObjectVersion
1070
     0
1000
AcDbSavedByObjectVersion
1070
     0
1000
AcDbSavedByObjectVersion
1070
     0
1000
AcDbSavedByObjectVersion
1070
     0
1000
AcDbSavedByObjectVersion
1070
     0
1000
AcDbSavedByObjectVersion
1070
     0
1000
AcDbSavedByObjectVersion
1070
     0
1000
AcDbSavedByObjectVersion
1070
     0
1000
AcDbSavedByObjectVersion
1070
     0
1000
AcDbSavedByObjectVersion
1070
     0
1000
AcDbSavedByObjectVersion
1070
     0
1000
AcDbSavedByObjectVersion
1070
     0
1000
AcDbSavedByObjectVersion
1070
     0
1000
AcDbSavedByObjectVersion
1070
     0
1000
AcDbSavedByObjectVersion
1070
     0
1000
AcDbSavedByObjectVersion
1070
     0
1000
AcDbSavedByObjectVersion
1070
     0
1000
AcDbSavedByObjectVersion
1070
     0
1000
AcDbSavedByObjectVersion
1070
     0
1000
AcDbSavedByObjectVersion
1070
     0
1000
AcDbSavedByObjectVersion
1070
     0
1000
AcDbSavedByObjectVersion
1070
     0
1000
AcDbSavedByObjectVersion
1070
     0
1000
AcDbSavedByObjectVersion
1070
     0
1000
AcDbSavedByObjectVersion
1070
     0
1000
AcDbSavedByObjectVersion
1070
     0
1000
AcDbSavedByObjectVersion
1070
     0
  0
DICTIONARYVAR
  5
510B
102
{ACAD_REACTORS
330
5108
102
}
330
5108
100
DictionaryVariables
280
     0
  1
1:1
  0
DICTIONARYVAR
  5
510A
102
{ACAD_REACTORS
330
5108
102
}
330
5108
100
DictionaryVariables
280
     0
  1
STANDARD
  0
DICTIONARYVAR
  5
5109
102
{ACAD_REACTORS
330
5108
102
}
330
5108
100
DictionaryVariables
280
     0
  1
STANDARD
  0
DICTIONARYVAR
  5
510E
102
{ACAD_REACTORS
330
5108
102
}
330
5108
100
DictionaryVariables
280
     0
  1
1
  0
DICTIONARYVAR
  5
510D
102
{ACAD_REACTORS
330
5108
102
}
330
5108
100
DictionaryVariables
280
     0
  1
0
  0
DICTIONARYVAR
  5
1C401
102
{ACAD_REACTORS
330
5108
102
}
330
5108
100
DictionaryVariables
280
     0
  1
0
  0
DICTIONARYVAR
  5
1C400
102
{ACAD_REACTORS
330
5108
102
}
330
5108
100
DictionaryVariables
280
     0
  1
0
  0
DICTIONARYVAR
  5
510C
102
{ACAD_REACTORS
330
5108
102
}
330
5108
100
DictionaryVariables
280
     0
  1
127
  0
XRECORD
  5
1AC54
102
{ACAD_REACTORS
330
1AC53
102
}
330
1AC53
100
AcDbXrecord
280
     1
330
11089
  0
VLO-VL
  5
1C257
102
{ACAD_REACTORS
330
1C256
102
}
330
1C256
100
vlo_VL
 90
   -64512
 91
       12
 92
        1
 40
2.5
300
(&VLO-R . 0)
  0
DICTIONARY
  5
4FEF
330
4FEE
100
AcDbDictionary
280
     1
281
     1
  3
ACAD_XREC_ROUNDTRIP
360
7C2C
  3
BUMPTILE
360
4FF1
  3
DIFFUSETILE
360
4FF0
  3
OPACITYTILE
360
4FF4
  3
REFLECTIONTILE
360
4FF3
  3
REFRACTIONTILE
360
4FF5
  3
SPECULARTILE
360
4FF2
  0
DICTIONARY
  5
4FE7
330
4FE6
100
AcDbDictionary
280
     1
281
     1
  3
ACAD_XREC_ROUNDTRIP
360
7C2B
  3
BUMPTILE
360
4FE9
  3
DIFFUSETILE
360
4FE8
  3
OPACITYTILE
360
4FEC
  3
REFLECTIONTILE
360
4FEB
  3
REFRACTIONTILE
360
4FED
  3
SPECULARTILE
360
4FEA
  0
DICTIONARY
  5
4FF7
330
4FF6
100
AcDbDictionary
280
     1
281
     1
  3
ACAD_XREC_ROUNDTRIP
360
7C2D
  3
BUMPTILE
360
4FF9
  3
DIFFUSETILE
360
4FF8
  3
OPACITYTILE
360
4FFC
  3
REFLECTIONTILE
360
4FFB
  3
REFRACTIONTILE
360
4FFD
  3
SPECULARTILE
360
4FFA
  0
DICTIONARY
  5
50D6
330
4FFF
100
AcDbDictionary
280
     1
281
     1
  3
ACAD_ROUNDTRIP_2008_TABLESTYLE_CELLSTYLEMAP
360
1C425
  0
XRECORD
  5
7C2C
102
{ACAD_REACTORS
330
4FEF
102
}
330
4FEF
100
AcDbXrecord
280
     1
102
MATERIAL
148
0.0
149
0.0
149
0.0
 93
        0
 94
      127
282
     0
 72
     0
 77
     0
171
     0
175
     0
179
     0
273
     0
  0
XRECORD
  5
4FF1
102
{ACAD_REACTORS
330
4FEF
102
}
330
4FEF
100
AcDbXrecord
280
     1
270
     1
271
     1
  0
XRECORD
  5
4FF0
102
{ACAD_REACTORS
330
4FEF
102
}
330
4FEF
100
AcDbXrecord
280
     1
270
     1
271
     1
  0
XRECORD
  5
4FF4
102
{ACAD_REACTORS
330
4FEF
102
}
330
4FEF
100
AcDbXrecord
280
     1
270
     1
271
     1
  0
XRECORD
  5
4FF3
102
{ACAD_REACTORS
330
4FEF
102
}
330
4FEF
100
AcDbXrecord
280
     1
270
     1
271
     1
  0
XRECORD
  5
4FF5
102
{ACAD_REACTORS
330
4FEF
102
}
330
4FEF
100
AcDbXrecord
280
     1
270
     1
271
     1
  0
XRECORD
  5
4FF2
102
{ACAD_REACTORS
330
4FEF
102
}
330
4FEF
100
AcDbXrecord
280
     1
270
     1
271
     1
  0
XRECORD
  5
7C2B
102
{ACAD_REACTORS
330
4FE7
102
}
330
4FE7
100
AcDbXrecord
280
     1
102
MATERIAL
148
0.0
149
0.0
149
0.0
 93
        0
 94
      127
282
     0
 72
     0
 77
     0
171
     0
175
     0
179
     0
273
     0
  0
XRECORD
  5
4FE9
102
{ACAD_REACTORS
330
4FE7
102
}
330
4FE7
100
AcDbXrecord
280
     1
270
     1
271
     1
  0
XRECORD
  5
4FE8
102
{ACAD_REACTORS
330
4FE7
102
}
330
4FE7
100
AcDbXrecord
280
     1
270
     1
271
     1
  0
XRECORD
  5
4FEC
102
{ACAD_REACTORS
330
4FE7
102
}
330
4FE7
100
AcDbXrecord
280
     1
270
     1
271
     1
  0
XRECORD
  5
4FEB
102
{ACAD_REACTORS
330
4FE7
102
}
330
4FE7
100
AcDbXrecord
280
     1
270
     1
271
     1
  0
XRECORD
  5
4FED
102
{ACAD_REACTORS
330
4FE7
102
}
330
4FE7
100
AcDbXrecord
280
     1
270
     1
271
     1
  0
XRECORD
  5
4FEA
102
{ACAD_REACTORS
330
4FE7
102
}
330
4FE7
100
AcDbXrecord
280
     1
270
     1
271
     1
  0
XRECORD
  5
7C2D
102
{ACAD_REACTORS
330
4FF7
102
}
330
4FF7
100
AcDbXrecord
280
     1
102
MATERIAL
148
0.0
149
0.0
149
0.0
 93
        0
 94
      127
282
     0
 72
     0
 77
     0
171
     0
175
     0
179
     0
273
     0
  0
XRECORD
  5
4FF9
102
{ACAD_REACTORS
330
4FF7
102
}
330
4FF7
100
AcDbXrecord
280
     1
270
     1
271
     1
  0
XRECORD
  5
4FF8
102
{ACAD_REACTORS
330
4FF7
102
}
330
4FF7
100
AcDbXrecord
280
     1
270
     1
271
     1
  0
XRECORD
  5
4FFC
102
{ACAD_REACTORS
330
4FF7
102
}
330
4FF7
100
AcDbXrecord
280
     1
270
     1
271
     1
  0
XRECORD
  5
4FFB
102
{ACAD_REACTORS
330
4FF7
102
}
330
4FF7
100
AcDbXrecord
280
     1
270
     1
271
     1
  0
XRECORD
  5
4FFD
102
{ACAD_REACTORS
330
4FF7
102
}
330
4FF7
100
AcDbXrecord
280
     1
270
     1
271
     1
  0
XRECORD
  5
4FFA
102
{ACAD_REACTORS
330
4FF7
102
}
330
4FF7
100
AcDbXrecord
280
     1
270
     1
271
     1
  0
CELLSTYLEMAP
  5
1C425
102
{ACAD_REACTORS
330
50D6
102
}
330
50D6
100
AcDbCellStyleMap
 90
        3
300
CELLSTYLE
  1
TABLEFORMAT_BEGIN
 90
        5
170
     1
 91
        0
 92
    32768
 62
   257
 93
        1
300
CONTENTFORMAT
  1
CONTENTFORMAT_BEGIN
 90
        0
 91
        0
 92
      512
 93
        0
300

 40
0.0
140
1.0
 94
        5
 62
     0
340
11
144
0.25
309
CONTENTFORMAT_END
171
     1
301
MARGIN
  1
CELLMARGIN_BEGIN
 40
0.06
 40
0.06
 40
0.06
 40
0.06
 40
0.18
 40
0.18
309
CELLMARGIN_END
 94
        6
 95
        1
302
GRIDFORMAT
  1
GRIDFORMAT_BEGIN
 90
        0
 91
        1
 62
     0
 92
       -2
340
0
 93
        0
 40
0.045
309
GRIDFORMAT_END
 95
        2
302
GRIDFORMAT
  1
GRIDFORMAT_BEGIN
 90
        0
 91
        1
 62
     0
 92
       -2
340
0
 93
        0
 40
0.045
309
GRIDFORMAT_END
 95
        4
302
GRIDFORMAT
  1
GRIDFORMAT_BEGIN
 90
        0
 91
        1
 62
     0
 92
       -2
340
0
 93
        0
 40
0.045
309
GRIDFORMAT_END
 95
        8
302
GRIDFORMAT
  1
GRIDFORMAT_BEGIN
 90
        0
 91
        1
 62
     0
 92
       -2
340
0
 93
        0
 40
0.045
309
GRIDFORMAT_END
 95
       16
302
GRIDFORMAT
  1
GRIDFORMAT_BEGIN
 90
        0
 91
        1
 62
     0
 92
       -2
340
0
 93
        0
 40
0.045
309
GRIDFORMAT_END
 95
       32
302
GRIDFORMAT
  1
GRIDFORMAT_BEGIN
 90
        0
 91
        1
 62
     0
 92
       -2
340
0
 93
        0
 40
0.045
309
GRIDFORMAT_END
309
TABLEFORMAT_END
  1
CELLSTYLE_BEGIN
 90
        1
 91
        1
300
_TITLE
309
CELLSTYLE_END
300
CELLSTYLE
  1
TABLEFORMAT_BEGIN
 90
        5
170
     1
 91
        0
 92
        0
 62
   257
 93
        1
300
CONTENTFORMAT
  1
CONTENTFORMAT_BEGIN
 90
        0
 91
        0
 92
      512
 93
        0
300

 40
0.0
140
1.0
 94
        5
 62
     0
340
11
144
0.18
309
CONTENTFORMAT_END
171
     1
301
MARGIN
  1
CELLMARGIN_BEGIN
 40
0.06
 40
0.06
 40
0.06
 40
0.06
 40
0.18
 40
0.18
309
CELLMARGIN_END
 94
        6
 95
        1
302
GRIDFORMAT
  1
GRIDFORMAT_BEGIN
 90
        0
 91
        1
 62
     0
 92
       -2
340
0
 93
        0
 40
0.045
309
GRIDFORMAT_END
 95
        2
302
GRIDFORMAT
  1
GRIDFORMAT_BEGIN
 90
        0
 91
        1
 62
     0
 92
       -2
340
0
 93
        0
 40
0.045
309
GRIDFORMAT_END
 95
        4
302
GRIDFORMAT
  1
GRIDFORMAT_BEGIN
 90
        0
 91
        1
 62
     0
 92
       -2
340
0
 93
        0
 40
0.045
309
GRIDFORMAT_END
 95
        8
302
GRIDFORMAT
  1
GRIDFORMAT_BEGIN
 90
        0
 91
        1
 62
     0
 92
       -2
340
0
 93
        0
 40
0.045
309
GRIDFORMAT_END
 95
       16
302
GRIDFORMAT
  1
GRIDFORMAT_BEGIN
 90
        0
 91
        1
 62
     0
 92
       -2
340
0
 93
        0
 40
0.045
309
GRIDFORMAT_END
 95
       32
302
GRIDFORMAT
  1
GRIDFORMAT_BEGIN
 90
        0
 91
        1
 62
     0
 92
       -2
340
0
 93
        0
 40
0.045
309
GRIDFORMAT_END
309
TABLEFORMAT_END
  1
CELLSTYLE_BEGIN
 90
        2
 91
        1
300
_HEADER
309
CELLSTYLE_END
300
CELLSTYLE
  1
TABLEFORMAT_BEGIN
 90
        5
170
     1
 91
        0
 92
        0
 62
   257
 93
        1
300
CONTENTFORMAT
  1
CONTENTFORMAT_BEGIN
 90
        0
 91
        0
 92
      512
 93
        0
300

 40
0.0
140
1.0
 94
        2
 62
     0
340
11
144
0.18
309
CONTENTFORMAT_END
171
     1
301
MARGIN
  1
CELLMARGIN_BEGIN
 40
0.06
 40
0.06
 40
0.06
 40
0.06
 40
0.18
 40
0.18
309
CELLMARGIN_END
 94
        6
 95
        1
302
GRIDFORMAT
  1
GRIDFORMAT_BEGIN
 90
        0
 91
        1
 62
     0
 92
       -2
340
0
 93
        0
 40
0.045
309
GRIDFORMAT_END
 95
        2
302
GRIDFORMAT
  1
GRIDFORMAT_BEGIN
 90
        0
 91
        1
 62
     0
 92
       -2
340
0
 93
        0
 40
0.045
309
GRIDFORMAT_END
 95
        4
302
GRIDFORMAT
  1
GRIDFORMAT_BEGIN
 90
        0
 91
        1
 62
     0
 92
       -2
340
0
 93
        0
 40
0.045
309
GRIDFORMAT_END
 95
        8
302
GRIDFORMAT
  1
GRIDFORMAT_BEGIN
 90
        0
 91
        1
 62
     0
 92
       -2
340
0
 93
        0
 40
0.045
309
GRIDFORMAT_END
 95
       16
302
GRIDFORMAT
  1
GRIDFORMAT_BEGIN
 90
        0
 91
        1
 62
     0
 92
       -2
340
0
 93
        0
 40
0.045
309
GRIDFORMAT_END
 95
       32
302
GRIDFORMAT
  1
GRIDFORMAT_BEGIN
 90
        0
 91
        1
 62
     0
 92
       -2
340
0
 93
        0
 40
0.045
309
GRIDFORMAT_END
309
TABLEFORMAT_END
  1
CELLSTYLE_BEGIN
 90
        3
 91
        2
300
_DATA
309
CELLSTYLE_END
  0
ENDSEC
  0
EOF
