  0
SECTION
  2
HEADER
  9
$ACADVER
  1
AC1021
  9
$ACADMAINTVER
 70
    25
  9
$DWGCODEPAGE
  3
ANSI_936
  9
$LASTSAVEDBY
  1
yp.zhu
  9
$INSBASE
 10
0.0
 20
0.0
 30
0.0
  9
$EXTMIN
 10
301.5592381200518
 20
239.8474590505218
 30
-0.0015258207003583
  9
$EXTMAX
 10
598.5820609821494
 20
449.8970590954286
 30
0.0000000349246037
  9
$LIMMIN
 10
0.0
 20
0.0
  9
$LIMMAX
 10
12.0
 20
9.0
  9
$ORTHOMODE
 70
     0
  9
$REGENMODE
 70
     1
  9
$FILLMODE
 70
     1
  9
$QTEXTMODE
 70
     0
  9
$MIRRTEXT
 70
     1
  9
$LTSCALE
 40
1.0
  9
$ATTMODE
 70
     1
  9
$TEXTSIZE
 40
0.2
  9
$TRACEWID
 40
0.05
  9
$TEXTSTYLE
  7
Standard
  9
$CLAYER
  8
DIM
  9
$CELTYPE
  6
ByLayer
  9
$CECOLOR
 62
   256
  9
$CELTSCALE
 40
1.0
  9
$DISPSILH
 70
     0
  9
$DIMSCALE
 40
1.0
  9
$DIMASZ
 40
3.0
  9
$DIMEXO
 40
0.2
  9
$DIMDLI
 40
0.2
  9
$DIMRND
 40
0.0
  9
$DIMDLE
 40
0.0
  9
$DIMEXE
 40
1.199999999999999
  9
$DIMTP
 40
0.0
  9
$DIMTM
 40
0.0
  9
$DIMTXT
 40
3.5
  9
$DIMCEN
 40
0.0
  9
$DIMTSZ
 40
0.0
  9
$DIMTOL
 70
     0
  9
$DIMLIM
 70
     0
  9
$DIMTIH
 70
     0
  9
$DIMTOH
 70
     0
  9
$DIMSE1
 70
     0
  9
$DIMSE2
 70
     0
  9
$DIMTAD
 70
     1
  9
$DIMZIN
 70
     8
  9
$DIMBLK
  1

  9
$DIMASO
 70
     1
  9
$DIMSHO
 70
     1
  9
$DIMPOST
  1

  9
$DIMAPOST
  1

  9
$DIMALT
 70
     0
  9
$DIMALTD
 70
     2
  9
$DIMALTF
 40
25.4
  9
$DIMLFAC
 40
1.0
  9
$DIMTOFL
 70
     0
  9
$DIMTVP
 40
0.0
  9
$DIMTIX
 70
     0
  9
$DIMSOXD
 70
     0
  9
$DIMSAH
 70
     0
  9
$DIMBLK1
  1

  9
$DIMBLK2
  1

  9
$DIMSTYLE
  2
01
  9
$DIMCLRD
 70
     1
  9
$DIMCLRE
 70
     6
  9
$DIMCLRT
 70
     4
  9
$DIMTFAC
 40
1.0
  9
$DIMGAP
 40
0.8
  9
$DIMJUST
 70
     0
  9
$DIMSD1
 70
     0
  9
$DIMSD2
 70
     0
  9
$DIMTOLJ
 70
     1
  9
$DIMTZIN
 70
     0
  9
$DIMALTZ
 70
     0
  9
$DIMALTTZ
 70
     0
  9
$DIMUPT
 70
     0
  9
$DIMDEC
 70
     1
  9
$DIMTDEC
 70
     1
  9
$DIMALTU
 70
     2
  9
$DIMALTTD
 70
     2
  9
$DIMTXSTY
  7
Romans字体
  9
$DIMAUNIT
 70
     0
  9
$DIMADEC
 70
     2
  9
$DIMALTRND
 40
0.0
  9
$DIMAZIN
 70
     2
  9
$DIMDSEP
 70
    46
  9
$DIMATFIT
 70
     3
  9
$DIMFRAC
 70
     0
  9
$DIMLDRBLK
  1

  9
$DIMLUNIT
 70
     2
  9
$DIMLWD
 70
    -2
  9
$DIMLWE
 70
    -2
  9
$DIMTMOVE
 70
     0
  9
$DIMFXL
 40
1.0
  9
$DIMFXLON
 70
     0
  9
$DIMJOGANG
 40
0.7853981633974483
  9
$DIMTFILL
 70
     0
  9
$DIMTFILLCLR
 70
     0
  9
$DIMARCSYM
 70
     0
  9
$DIMLTYPE
  6

  9
$DIMLTEX1
  6

  9
$DIMLTEX2
  6

  9
$LUNITS
 70
     2
  9
$LUPREC
 70
     4
  9
$SKETCHINC
 40
0.1
  9
$FILLETRAD
 40
0.5
  9
$AUNITS
 70
     0
  9
$AUPREC
 70
     0
  9
$MENU
  1
.
  9
$ELEVATION
 40
0.0
  9
$PELEVATION
 40
0.0
  9
$THICKNESS
 40
0.0
  9
$LIMCHECK
 70
     0
  9
$CHAMFERA
 40
0.5
  9
$CHAMFERB
 40
0.5
  9
$CHAMFERC
 40
1.0
  9
$CHAMFERD
 40
0.0
  9
$SKPOLY
 70
     0
  9
$TDCREATE
 40
2456524.383632987
  9
$TDUCREATE
 40
2456524.050299653
  9
$TDUPDATE
 40
2460299.606444722
  9
$TDUUPDATE
 40
2460299.273111389
  9
$TDINDWG
 40
0.9035593866
  9
$TDUSRTIMER
 40
0.9035310301
  9
$USRTIMER
 70
     1
  9
$ANGBASE
 50
0.0
  9
$ANGDIR
 70
     0
  9
$PDMODE
 70
     0
  9
$PDSIZE
 40
0.0
  9
$PLINEWID
 40
0.0
  9
$SPLFRAME
 70
     0
  9
$SPLINETYPE
 70
     6
  9
$SPLINESEGS
 70
     8
  9
$HANDSEED
  5
13D8F
  9
$SURFTAB1
 70
     6
  9
$SURFTAB2
 70
     6
  9
$SURFTYPE
 70
     6
  9
$SURFU
 70
     6
  9
$SURFV
 70
     6
  9
$UCSBASE
  2

  9
$UCSNAME
  2

  9
$UCSORG
 10
0.0
 20
0.0
 30
0.0
  9
$UCSXDIR
 10
1.0
 20
0.0
 30
0.0
  9
$UCSYDIR
 10
0.0
 20
1.0
 30
0.0
  9
$UCSORTHOREF
  2

  9
$UCSORTHOVIEW
 70
     0
  9
$UCSORGTOP
 10
0.0
 20
0.0
 30
0.0
  9
$UCSORGBOTTOM
 10
0.0
 20
0.0
 30
0.0
  9
$UCSORGLEFT
 10
0.0
 20
0.0
 30
0.0
  9
$UCSORGRIGHT
 10
0.0
 20
0.0
 30
0.0
  9
$UCSORGFRONT
 10
0.0
 20
0.0
 30
0.0
  9
$UCSORGBACK
 10
0.0
 20
0.0
 30
0.0
  9
$PUCSBASE
  2

  9
$PUCSNAME
  2

  9
$PUCSORG
 10
0.0
 20
0.0
 30
0.0
  9
$PUCSXDIR
 10
1.0
 20
0.0
 30
0.0
  9
$PUCSYDIR
 10
0.0
 20
1.0
 30
0.0
  9
$PUCSORTHOREF
  2

  9
$PUCSORTHOVIEW
 70
     0
  9
$PUCSORGTOP
 10
0.0
 20
0.0
 30
0.0
  9
$PUCSORGBOTTOM
 10
0.0
 20
0.0
 30
0.0
  9
$PUCSORGLEFT
 10
0.0
 20
0.0
 30
0.0
  9
$PUCSORGRIGHT
 10
0.0
 20
0.0
 30
0.0
  9
$PUCSORGFRONT
 10
0.0
 20
0.0
 30
0.0
  9
$PUCSORGBACK
 10
0.0
 20
0.0
 30
0.0
  9
$USERI1
 70
     0
  9
$USERI2
 70
     0
  9
$USERI3
 70
     0
  9
$USERI4
 70
     0
  9
$USERI5
 70
     0
  9
$USERR1
 40
0.0
  9
$USERR2
 40
0.0
  9
$USERR3
 40
0.0
  9
$USERR4
 40
0.0
  9
$USERR5
 40
2.5
  9
$WORLDVIEW
 70
     1
  9
$SHADEDGE
 70
     3
  9
$SHADEDIF
 70
    70
  9
$TILEMODE
 70
     1
  9
$MAXACTVP
 70
    64
  9
$PINSBASE
 10
0.0
 20
0.0
 30
0.0
  9
$PLIMCHECK
 70
     0
  9
$PEXTMIN
 10
1.000000000000000E+20
 20
1.000000000000000E+20
 30
1.000000000000000E+20
  9
$PEXTMAX
 10
-1.000000000000000E+20
 20
-1.000000000000000E+20
 30
-1.000000000000000E+20
  9
$PLIMMIN
 10
0.0
 20
0.0
  9
$PLIMMAX
 10
12.0
 20
9.0
  9
$UNITMODE
 70
     0
  9
$VISRETAIN
 70
     1
  9
$PLINEGEN
 70
     0
  9
$PSLTSCALE
 70
     1
  9
$TREEDEPTH
 70
  3020
  9
$CMLSTYLE
  2
Standard
  9
$CMLJUST
 70
     0
  9
$CMLSCALE
 40
1.0
  9
$PROXYGRAPHICS
 70
     1
  9
$MEASUREMENT
 70
     0
  9
$CELWEIGHT
370
    -1
  9
$ENDCAPS
280
     0
  9
$JOINSTYLE
280
     0
  9
$LWDISPLAY
290
     0
  9
$INSUNITS
 70
     4
  9
$HYPERLINKBASE
  1

  9
$STYLESHEET
  1
monochrome.ctb
  9
$XEDIT
290
     1
  9
$CEPSNTYPE
380
     0
  9
$PSTYLEMODE
290
     1
  9
$FINGERPRINTGUID
  2
{4A02065B-8BB3-4A96-9036-502DC906C165}
  9
$VERSIONGUID
  2
{81629BD1-D3DC-45ED-88CE-7A122F62F05F}
  9
$EXTNAMES
290
     1
  9
$PSVPSCALE
 40
0.0
  9
$OLESTARTUP
290
     0
  9
$SORTENTS
280
   127
  9
$INDEXCTL
280
     0
  9
$HIDETEXT
280
     0
  9
$XCLIPFRAME
290
     0
  9
$HALOGAP
280
     0
  9
$OBSCOLOR
 70
   257
  9
$OBSLTYPE
280
     0
  9
$INTERSECTIONDISPLAY
280
     0
  9
$INTERSECTIONCOLOR
 70
   257
  9
$DIMASSOC
280
     1
  9
$PROJECTNAME
  1

  9
$CAMERADISPLAY
290
     0
  9
$LENSLENGTH
 40
50.0
  9
$CAMERAHEIGHT
 40
0.0
  9
$STEPSPERSEC
 40
2.0
  9
$STEPSIZE
 40
6.0
  9
$3DDWFPREC
 40
2.0
  9
$PSOLWIDTH
 40
0.25
  9
$PSOLHEIGHT
 40
4.0
  9
$LOFTANG1
 40
1.570796326794896
  9
$LOFTANG2
 40
1.570796326794896
  9
$LOFTMAG1
 40
0.0
  9
$LOFTMAG2
 40
0.0
  9
$LOFTPARAM
 70
     7
  9
$LOFTNORMALS
280
     1
  9
$LATITUDE
 40
37.795
  9
$LONGITUDE
 40
-122.394
  9
$NORTHDIRECTION
 40
0.0
  9
$TIMEZONE
 70
 -8000
  9
$LIGHTGLYPHDISPLAY
280
     1
  9
$TILEMODELIGHTSYNCH
280
     1
  9
$CMATERIAL
347
4FE6
  9
$SOLIDHIST
280
     1
  9
$SHOWHIST
280
     1
  9
$DWFFRAME
280
     2
  9
$DGNFRAME
280
     0
  9
$REALWORLDSCALE
290
     1
  9
$INTERFERECOLOR
 62
     1
  9
$INTERFEREOBJVS
345
33
  9
$INTERFEREVPVS
346
30
  9
$CSHADOW
280
     0
  9
$SHADOWPLANELOCATION
 40
0.0
  0
ENDSEC
  0
SECTION
  2
CLASSES
  0
CLASS
  1
ACDBDICTIONARYWDFLT
  2
AcDbDictionaryWithDefault
  3
ObjectDBX Classes
 90
        0
 91
        1
280
     0
281
     0
  0
CLASS
  1
VISUALSTYLE
  2
AcDbVisualStyle
  3
ObjectDBX Classes
 90
     4095
 91
       16
280
     0
281
     0
  0
CLASS
  1
MATERIAL
  2
AcDbMaterial
  3
ObjectDBX Classes
 90
     1153
 91
        3
280
     0
281
     0
  0
CLASS
  1
TABLESTYLE
  2
AcDbTableStyle
  3
ObjectDBX Classes
 90
     4095
 91
        1
280
     0
281
     0
  0
CLASS
  1
SCALE
  2
AcDbScale
  3
ObjectDBX Classes
 90
     1153
 91
       33
280
     0
281
     0
  0
CLASS
  1
MLEADERSTYLE
  2
AcDbMLeaderStyle
  3
ACDB_MLEADERSTYLE_CLASS
 90
     4095
 91
        1
280
     0
281
     0
  0
CLASS
  1
CELLSTYLEMAP
  2
AcDbCellStyleMap
  3
ObjectDBX Classes
 90
     1152
 91
        3
280
     0
281
     0
  0
CLASS
  1
DICTIONARYVAR
  2
AcDbDictionaryVar
  3
ObjectDBX Classes
 90
        0
 91
        8
280
     0
281
     0
  0
CLASS
  1
SORTENTSTABLE
  2
AcDbSortentsTable
  3
ObjectDBX Classes
 90
        0
 91
        1
280
     0
281
     0
  0
CLASS
  1
ACAD_EVALUATION_GRAPH
  2
AcDbEvalGraph
  3
ObjectDBX Classes
 90
     1153
 91
        1
280
     0
281
     0
  0
CLASS
  1
ACAECUSTOBJ
  2
AcAeEditorObj
  3
AcAeEditorObj
 90
     1024
 91
        1
280
     0
281
     0
  0
CLASS
  1
ACDB_DYNAMICBLOCKPURGEPREVENTER_VERSION
  2
AcDbDynamicBlockPurgePreventer
  3
ObjectDBX Classes
 90
     1153
 91
        1
280
     0
281
     0
  0
CLASS
  1
MENTALRAYRENDERSETTINGS
  2
AcDbMentalRayRenderSettings
  3
SCENEOE
 90
     1024
 91
        1
280
     0
281
     0
  0
CLASS
  1
ACDB_BLOCKREPRESENTATION_DATA
  2
AcDbBlockRepresentationData
  3
ObjectDBX Classes
 90
     1153
 91
        0
280
     0
281
     0
  0
CLASS
  1
DIMASSOC
  2
AcDbDimAssoc
  3
"AcDbDimAssoc|Product Desc:     AcDim ARX App For Dimension|Company:          Autodesk, Inc.|WEB Address:      www.autodesk.com"
 90
        0
 91
        0
280
     0
281
     0
  0
CLASS
  1
VLO-VL
  2
vlo_VL
  3
VL|AutoLISP based application
 90
      129
 91
        1
280
     0
281
     0
  0
ENDSEC
  0
SECTION
  2
TABLES
  0
TABLE
  2
VPORT
  5
8
102
{ACAD_XDICTIONARY
360
50EE
102
}
330
0
100
AcDbSymbolTable
 70
     1
  0
VPORT
  5
29
330
8
100
AcDbSymbolTableRecord
100
AcDbViewportTableRecord
  2
*Active
 70
     0
 10
0.0
 20
0.0
 11
1.0
 21
1.0
 12
345.105152679192
 22
196.3700283043774
 13
0.0
 23
0.0
 14
0.5
 24
0.5
 15
0.5
 25
0.5
 16
0.0
 26
0.0
 36
1.0
 17
104.9654968719086
 27
148.5022307685978
 37
0.0
 40
211.5735391020645
 41
2.203389830508474
 42
50.0
 43
0.0
 44
0.0
 50
0.0
 51
0.0
 71
     0
 72
   100
 73
     1
 74
     3
 75
     0
 76
     0
 77
     0
 78
     0
281
     0
 65
     1
110
0.0
120
0.0
130
0.0
111
1.0
121
0.0
131
0.0
112
0.0
122
1.0
132
0.0
 79
     0
146
0.0
348
2F
 60
     3
 61
     5
292
     1
282
     1
141
0.0
142
0.0
 63
   250
421
  3355443
  0
ENDTAB
  0
TABLE
  2
LTYPE
  5
5
330
0
100
AcDbSymbolTable
 70
     1
  0
LTYPE
  5
14
330
5
100
AcDbSymbolTableRecord
100
AcDbLinetypeTableRecord
  2
ByBlock
 70
     0
  3

 72
    65
 73
     0
 40
0.0
  0
LTYPE
  5
15
330
5
100
AcDbSymbolTableRecord
100
AcDbLinetypeTableRecord
  2
ByLayer
 70
     0
  3

 72
    65
 73
     0
 40
0.0
  0
LTYPE
  5
16
330
5
100
AcDbSymbolTableRecord
100
AcDbLinetypeTableRecord
  2
Continuous
 70
     0
  3
Solid line
 72
    65
 73
     0
 40
0.0
  0
ENDTAB
  0
TABLE
  2
LAYER
  5
2
102
{ACAD_XDICTIONARY
360
50B8
102
}
330
0
100
AcDbSymbolTable
 70
     7
  0
LAYER
  5
10
102
{ACAD_XDICTIONARY
360
50D0
102
}
330
2
100
AcDbSymbolTableRecord
100
AcDbLayerTableRecord
  2
0
 70
     0
 62
     7
  6
Continuous
370
    30
390
F
347
4FF6
  0
LAYER
  5
3B
102
{ACAD_XDICTIONARY
360
50D2
102
}
330
2
100
AcDbSymbolTableRecord
100
AcDbLayerTableRecord
  2
图层 1
 70
     0
 62
     7
  6
Continuous
370
    -3
390
F
347
4FF6
  0
LAYER
  5
50AE
102
{ACAD_XDICTIONARY
360
50AF
102
}
330
2
100
AcDbSymbolTableRecord
100
AcDbLayerTableRecord
  2
图框
 70
     0
 62
     7
  6
Continuous
370
    20
390
F
347
4FF6
  0
LAYER
  5
5141
330
2
100
AcDbSymbolTableRecord
100
AcDbLayerTableRecord
  2
Defpoints
 70
     0
 62
     7
  6
Continuous
290
     0
370
    -3
390
F
347
4FF6
  0
LAYER
  5
5144
330
2
100
AcDbSymbolTableRecord
100
AcDbLayerTableRecord
  2
DIM
 70
     0
 62
     3
  6
Continuous
370
    15
390
F
347
4FF6
1001
AcAecLayerStandard
1000

1000

  0
LAYER
  5
52F3
330
2
100
AcDbSymbolTableRecord
100
AcDbLayerTableRecord
  2
打标文字
 70
     0
 62
     3
  6
Continuous
370
    20
390
F
347
4FF6
  0
LAYER
  5
136CF
330
2
100
AcDbSymbolTableRecord
100
AcDbLayerTableRecord
  2
02___PRT_ALL_AXES
 70
     0
 62
     7
  6
Continuous
370
    -3
390
F
347
4FF6
  0
ENDTAB
  0
TABLE
  2
STYLE
  5
3
330
0
100
AcDbSymbolTable
 70
     5
  0
STYLE
  5
11
330
3
100
AcDbSymbolTableRecord
100
AcDbTextStyleTableRecord
  2
Standard
 70
     0
 40
0.0
 41
0.75
 50
0.0
 71
     0
 42
0.2
  3

  4

1001
ACAD
1000
仿宋_GB2312
1071
    34353
  0
STYLE
  5
FD48
330
3
100
AcDbSymbolTableRecord
100
AcDbTextStyleTableRecord
  2
Romans字体
 70
     0
 40
0.0
 41
0.75
 50
0.0
 71
     0
 42
0.2
  3
romans.shx
  4

  0
STYLE
  5
11080
330
3
100
AcDbSymbolTableRecord
100
AcDbTextStyleTableRecord
  2
工程字
 70
     0
 40
0.0
 41
1.0
 50
0.0
 71
     0
 42
3.5
  3
gbenor.shx
  4
gbcbig.shx
  0
STYLE
  5
11081
330
3
100
AcDbSymbolTableRecord
100
AcDbTextStyleTableRecord
  2
Chinese
 70
     0
 40
0.0
 41
1.0
 50
0.0
 71
     0
 42
2.5
  3
PMingLiU.ttf
  4

1001
ACAD
1000
PMingLiU
1071
    34834
  0
ENDTAB
  0
TABLE
  2
VIEW
  5
6
330
0
100
AcDbSymbolTable
 70
     0
  0
ENDTAB
  0
TABLE
  2
UCS
  5
7
330
0
100
AcDbSymbolTable
 70
     0
  0
ENDTAB
  0
TABLE
  2
APPID
  5
9
330
0
100
AcDbSymbolTable
 70
    17
  0
APPID
  5
12
330
9
100
AcDbSymbolTableRecord
100
AcDbRegAppTableRecord
  2
ACAD
 70
     0
  0
APPID
  5
5024
330
9
100
AcDbSymbolTableRecord
100
AcDbRegAppTableRecord
  2
ACAD_MLEADERVER
 70
     0
  0
APPID
  5
50B5
330
9
100
AcDbSymbolTableRecord
100
AcDbRegAppTableRecord
  2
AcDbDynamicBlockGUID
 70
     0
  0
APPID
  5
50B6
330
9
100
AcDbSymbolTableRecord
100
AcDbRegAppTableRecord
  2
AcDbBlockRepETag
 70
     0
  0
APPID
  5
50B7
330
9
100
AcDbSymbolTableRecord
100
AcDbRegAppTableRecord
  2
ACAD_PSEXT
 70
     0
  0
APPID
  5
50CF
330
9
100
AcDbSymbolTableRecord
100
AcDbRegAppTableRecord
  2
AcadAnnoPO
 70
     0
  0
APPID
  5
5146
330
9
100
AcDbSymbolTableRecord
100
AcDbRegAppTableRecord
  2
AcAecLayerStandard
 70
     0
  0
APPID
  5
5147
330
9
100
AcDbSymbolTableRecord
100
AcDbRegAppTableRecord
  2
ACAD_DSTYLE_DIMJAG
 70
     0
  0
APPID
  5
5148
330
9
100
AcDbSymbolTableRecord
100
AcDbRegAppTableRecord
  2
ACAD_DSTYLE_DIMTALN
 70
     0
  0
APPID
  5
52AD
330
9
100
AcDbSymbolTableRecord
100
AcDbRegAppTableRecord
  2
ACAUTHENVIRON
 70
     0
  0
APPID
  5
52B0
330
9
100
AcDbSymbolTableRecord
100
AcDbRegAppTableRecord
  2
AcDbDynamicBlockTrueName
 70
     0
  0
APPID
  5
67C6
330
9
100
AcDbSymbolTableRecord
100
AcDbRegAppTableRecord
  2
ACAD_EXEMPT_FROM_CAD_STANDARDS
 70
     0
  0
APPID
  5
6838
330
9
100
AcDbSymbolTableRecord
100
AcDbRegAppTableRecord
  2
ACAD_NAV_VCDISPLAY
 70
     0
  0
APPID
  5
70A9
330
9
100
AcDbSymbolTableRecord
100
AcDbRegAppTableRecord
  2
DCO15
 70
     0
  0
APPID
  5
8725
330
9
100
AcDbSymbolTableRecord
100
AcDbRegAppTableRecord
  2
AcDbBlockRepBTag
 70
     0
  0
APPID
  5
FE64
330
9
100
AcDbSymbolTableRecord
100
AcDbRegAppTableRecord
  2
ACAD_DSTYLE_DIMRADIAL_EXTENSION
 70
     0
  0
APPID
  5
FF93
330
9
100
AcDbSymbolTableRecord
100
AcDbRegAppTableRecord
  2
ACAD_DSTYLE_DIMBREAK
 70
     0
  0
ENDTAB
  0
TABLE
  2
DIMSTYLE
  5
A
330
0
100
AcDbSymbolTable
 70
     3
100
AcDbDimStyleTable
 71
     2
340
5145
340
27
  0
DIMSTYLE
105
27
330
A
100
AcDbSymbolTableRecord
100
AcDbDimStyleTableRecord
  2
Standard
 70
     0
340
11
  0
DIMSTYLE
105
5145
102
{ACAD_REACTORS
330
13A6D
330
13A6E
330
13A6F
330
13A70
330
13A71
102
}
330
A
100
AcDbSymbolTableRecord
100
AcDbDimStyleTableRecord
  2
01
 70
     0
 41
3.0
 42
0.2
 43
0.2
 44
1.199999999999999
 73
     0
 74
     0
 77
     1
 78
     8
 79
     2
140
3.5
141
0.0
147
0.8
176
     1
177
     6
178
     4
179
     2
271
     1
272
     1
340
FD48
1001
ACAD_DSTYLE_DIMJAG
1070
   388
1040
1.5
1001
ACAD_DSTYLE_DIMTALN
1070
   392
1070
     0
  0
ENDTAB
  0
TABLE
  2
BLOCK_RECORD
  5
1
330
0
100
AcDbSymbolTable
 70
     9
  0
BLOCK_RECORD
  5
1F
102
{ACAD_XDICTIONARY
360
67C0
102
}
330
1
100
AcDbSymbolTableRecord
100
AcDbBlockTableRecord
  2
*Model_Space
340
22
 70
     0
280
     1
281
     0
  0
BLOCK_RECORD
  5
1B
330
1
100
AcDbSymbolTableRecord
100
AcDbBlockTableRecord
  2
*Paper_Space
340
1E
 70
     0
280
     1
281
     0
  0
BLOCK_RECORD
  5
23
330
1
100
AcDbSymbolTableRecord
100
AcDbBlockTableRecord
  2
*Paper_Space0
340
26
 70
     0
280
     1
281
     0
  0
BLOCK_RECORD
  5
10FE8
102
{ACAD_XDICTIONARY
360
13D4B
102
}
330
1
100
AcDbSymbolTableRecord
100
AcDbBlockTableRecord
  2
A4图框-NEW
340
0
310
2800000020000000200000000100080000000000000400000000000000000000000000000000000000000000000080000080000000808000800000008000800080800000C0C0C000C0DCC000F0CAA6000020400000206000002080000020A0000020C0000020E00000400000004020000040400000406000004080000040A0
310
000040C0000040E00000600000006020000060400000606000006080000060A0000060C0000060E00000800000008020000080400000806000008080000080A0000080C0000080E00000A0000000A0200000A0400000A0600000A0800000A0A00000A0C00000A0E00000C0000000C0200000C0400000C0600000C0800000C0
310
A00000C0C00000C0E00000E0000000E0200000E0400000E0600000E0800000E0A00000E0C00000E0E00040000000400020004000400040006000400080004000A0004000C0004000E00040200000402020004020400040206000402080004020A0004020C0004020E000404000004040200040404000404060004040800040
310
40A0004040C0004040E00040600000406020004060400040606000406080004060A0004060C0004060E00040800000408020004080400040806000408080004080A0004080C0004080E00040A0000040A0200040A0400040A0600040A0800040A0A00040A0C00040A0E00040C0000040C0200040C0400040C0600040C08000
310
40C0A00040C0C00040C0E00040E0000040E0200040E0400040E0600040E0800040E0A00040E0C00040E0E00080000000800020008000400080006000800080008000A0008000C0008000E00080200000802020008020400080206000802080008020A0008020C0008020E00080400000804020008040400080406000804080
310
008040A0008040C0008040E00080600000806020008060400080606000806080008060A0008060C0008060E00080800000808020008080400080806000808080008080A0008080C0008080E00080A0000080A0200080A0400080A0600080A0800080A0A00080A0C00080A0E00080C0000080C0200080C0400080C0600080C0
310
800080C0A00080C0C00080C0E00080E0000080E0200080E0400080E0600080E0800080E0A00080E0C00080E0E000C0000000C0002000C0004000C0006000C0008000C000A000C000C000C000E000C0200000C0202000C0204000C0206000C0208000C020A000C020C000C020E000C0400000C0402000C0404000C0406000C0
310
408000C040A000C040C000C040E000C0600000C0602000C0604000C0606000C0608000C060A000C060C000C060E000C0800000C0802000C0804000C0806000C0808000C080A000C080C000C080E000C0A00000C0A02000C0A04000C0A06000C0A08000C0A0A000C0A0C000C0A0E000C0C00000C0C02000C0C04000C0C06000
310
C0C08000C0C0A000F0FBFF00A4A0A000808080000000FF0000FF000000FFFF00FF000000FF00FF00FFFF0000FFFFFF0000000000000000000000000000000000000000000000000000000000000000000000000000000000000000000000000000000000000000000000000000000000000000000000000000000000000000
310
000000000000000000000000000000000000000000000000000000000000000000000000000000000000000000000000000000000000000000000000000000000000000000000000000000000000000000000000000000000000000000000000000000000000000000000000000000000000F9F9F9F9F9F9F9F9F9F9F9F9F9
310
F9F9F9F9F9F9F9F9F9F9F9F9F9F9FF00000000F9FF000000000000000000FFFFFFFFFFFFFFFFFFFFFFFFF9FAFAFAFF00000000F9FF000000000000000000FFFFFFFFFFFFFFFFFFFFFFFFFFFFFFFFFF00000000F9FD000000000000000000FFFFFFFFFFFFFFFFFFFFFFFFFFFFFFFFFF00000000F9FF000000000000000000FF
310
FFFFFFFFFFFFFFFFFFFFFFFFFFFFFFFF00000000F9FD000000000000000000FFFFFFFFFFFFFFFFFFFFFFFFFFFFFFFFFF00000000F9FF00000000000000000000000000000000000000000000000000FF00000000F9FD00000000000000000000000000000000000000000000000000FF00000000F9FF000000000000000000
310
00000000000000000000000000000000FF00000000F9FD00000000000000000000000000000000000000000000000000FF00000000F9FF00000000000000000000000000000000000000000000000000FF00000000F9FD00000000000000000000000000000000000000000000000000FF00000000F9FD0000000000000000
310
0000000000000000000000000000000000FF00000000F9FF00000000000000000000000000000000000000000000000000FF00000000F9FD00000000000000000000000000000000000000000000000000FF00000000F9FF00000000000000000000000000000000000000000000000000FF00000000F9FD00000000000000
310
000000000000000000000000000000000000FF00000000F9FF00000000000000000000000000000000000000000000000000FF00000000F9FFFFFFFFFFFFFFFFFFFFFFFFFFFFFFFFFFFFFFFFFFFFFFFFFFFFFF00000000F9FFFFFFF9F9F9F9F9F9F9F9F9F9F9F9F9F9F9F9F9F9F9F9F9F9F9F9000000000000000000000000
310
00000000000000000000000000000000000000000000000000000000000000000000000000000000000000000000000000000000000000000000000000000000000000000000000000000000000000000000000000000000000000000000000000000000000000000000000000000000000000000000000000000000000000
310
0000000000000000000000000000000000000000000000000000000000000000000000000000000000000000000000000000000000000000
102
{BLKREFS
331
11089
102
}
 70
     4
280
     1
281
     0
1001
AcDbDynamicBlockGUID
1000
{57208EF4-2221-4CA2-88D8-F4B21971C854}
1001
AcDbBlockRepETag
1070
     1
1071
      148
  0
BLOCK_RECORD
  5
13A72
330
1
100
AcDbSymbolTableRecord
100
AcDbBlockTableRecord
  2
*D2
340
0
 70
     0
280
     1
281
     0
  0
BLOCK_RECORD
  5
13A7E
330
1
100
AcDbSymbolTableRecord
100
AcDbBlockTableRecord
  2
*D3
340
0
 70
     0
280
     1
281
     0
  0
BLOCK_RECORD
  5
13A8A
330
1
100
AcDbSymbolTableRecord
100
AcDbBlockTableRecord
  2
*D4
340
0
 70
     0
280
     1
281
     0
  0
BLOCK_RECORD
  5
13A96
330
1
100
AcDbSymbolTableRecord
100
AcDbBlockTableRecord
  2
*D5
340
0
 70
     0
280
     1
281
     0
  0
BLOCK_RECORD
  5
13AA2
330
1
100
AcDbSymbolTableRecord
100
AcDbBlockTableRecord
  2
*D6
340
0
 70
     0
280
     1
281
     0
  0
ENDTAB
  0
ENDSEC
  0
SECTION
  2
BLOCKS
  0
BLOCK
  5
20
330
1F
100
AcDbEntity
  8
0
100
AcDbBlockBegin
  2
*Model_Space
 70
     0
 10
0.0
 20
0.0
 30
0.0
  3
*Model_Space
  1

  0
ENDBLK
  5
21
330
1F
100
AcDbEntity
  8
0
100
AcDbBlockEnd
  0
BLOCK
  5
1C
330
1B
100
AcDbEntity
 67
     1
  8
0
100
AcDbBlockBegin
  2
*Paper_Space
 70
     0
 10
0.0
 20
0.0
 30
0.0
  3
*Paper_Space
  1

  0
ENDBLK
  5
1D
330
1B
100
AcDbEntity
 67
     1
  8
0
100
AcDbBlockEnd
  0
BLOCK
  5
24
330
23
100
AcDbEntity
 67
     1
  8
0
100
AcDbBlockBegin
  2
*Paper_Space0
 70
     0
 10
0.0
 20
0.0
 30
0.0
  3
*Paper_Space0
  1

  0
ENDBLK
  5
25
330
23
100
AcDbEntity
 67
     1
  8
0
100
AcDbBlockEnd
  0
BLOCK
  5
10FEA
330
10FE8
100
AcDbEntity
  8
0
100
AcDbBlockBegin
  2
A4图框-NEW
 70
     0
 10
0.0
 20
0.0
 30
0.0
  3
A4图框-NEW
  1

  0
MTEXT
  5
13CB7
102
{ACAD_XDICTIONARY
360
13D77
102
}
330
10FE8
100
AcDbEntity
  8
图框
 62
     3
100
AcDbMText
 10
967.6594956750133
 20
499.7664151964293
 30
0.0
 40
2.985513575034151
 41
15.50176341157864
 46
6.292658374511018
 71
     5
 72
     5
  1
BQ LUO
  7
Romans字体
 73
     1
 44
1.0
1001
AcDbBlockRepETag
1070
     1
1071
        0
1005
13CB7
1001
ACAD
1000
ACAD_MTEXT_DEFINED_HEIGHT_BEGIN
1070
    46
1040
6.292658374511018
1000
ACAD_MTEXT_DEFINED_HEIGHT_END
  0
MTEXT
  5
13CB8
330
10FE8
100
AcDbEntity
  8
图框
 62
     3
100
AcDbMText
 10
983.041569333247
 20
499.7664151964293
 30
0.0
 40
2.487927979195124
 41
15.26238390489051
 46
6.292658374511042
 71
     5
 72
     5
  1
{\W0.7;18.10.2010}
  7
Romans字体
 73
     1
 44
1.0
1001
AcDbBlockRepETag
1070
     1
1071
        1
1005
13CB8
1001
ACAD
1000
ACAD_MTEXT_DEFINED_HEIGHT_BEGIN
1070
    46
1040
6.292658374511042
1000
ACAD_MTEXT_DEFINED_HEIGHT_END
  0
MTEXT
  5
13CB9
330
10FE8
100
AcDbEntity
  8
图框
 62
     3
100
AcDbMText
 10
1012.477254728976
 20
487.1810984474071
 30
0.0
 40
2.985513575034151
 41
17.64876416884615
 46
6.292658374511455
 71
     5
 72
     5
  1
YY LIN
  7
Romans字体
 73
     1
 44
1.0
1001
AcDbBlockRepETag
1070
     1
1071
        2
1005
13CB9
1001
ACAD
1000
ACAD_MTEXT_DEFINED_HEIGHT_BEGIN
1070
    46
1040
6.292658374511455
1000
ACAD_MTEXT_DEFINED_HEIGHT_END
  0
MTEXT
  5
13CBA
330
10FE8
100
AcDbEntity
  8
图框
 62
     3
100
AcDbMText
 10
1028.977802139886
 20
487.1810984474071
 30
0.0
 40
2.487927979195124
 41
15.35233065297276
 46
6.292658374511495
 71
     5
 72
     5
  1
{\W0.7;18.10.2010}
  7
Romans字体
 73
     1
 44
1.0
1001
AcDbBlockRepETag
1070
     1
1071
        3
1005
13CBA
1001
ACAD
1000
ACAD_MTEXT_DEFINED_HEIGHT_BEGIN
1070
    46
1040
6.292658374511495
1000
ACAD_MTEXT_DEFINED_HEIGHT_END
  0
MTEXT
  5
13CBB
330
10FE8
100
AcDbEntity
  8
图框
 62
     3
100
AcDbMText
 10
1063.722665487208
 20
525.4145966538831
 30
0.0
 40
2.985513575034151
 41
32.4973914334545
 46
11.82914190181707
 71
     5
 72
     5
  1
-
  7
Romans字体
 73
     1
 44
1.0
1001
AcDbBlockRepETag
1070
     1
1071
        4
1005
13CBB
1001
ACAD
1000
ACAD_MTEXT_DEFINED_HEIGHT_BEGIN
1070
    46
1040
11.82914190181707
1000
ACAD_MTEXT_DEFINED_HEIGHT_END
  0
MTEXT
  5
13CBC
330
10FE8
100
AcDbEntity
  8
图框
 62
     3
100
AcDbMText
 10
1063.727338552349
 20
513.5854547520641
 30
0.0
 40
2.985513575034151
 41
32.48804530317308
 46
11.82914190182139
 71
     5
 72
     5
  1
-
  7
Romans字体
 73
     1
 44
1.0
1001
AcDbBlockRepETag
1070
     1
1071
        5
1005
13CBC
1001
ACAD
1000
ACAD_MTEXT_DEFINED_HEIGHT_BEGIN
1070
    46
1040
11.82914190182139
1000
ACAD_MTEXT_DEFINED_HEIGHT_END
  0
MTEXT
  5
13CBD
330
10FE8
100
AcDbEntity
  8
图框
 62
     3
100
AcDbMText
 10
1110.122306614152
 20
526.8006839312707
 30
0.0
 40
2.985513575034151
 41
33.61239199242139
 46
9.05696734704178
 71
     5
 72
     5
  1
-
  7
Romans字体
 73
     1
 44
1.0
1001
AcDbBlockRepETag
1070
     1
1071
        6
1005
13CBD
1001
ACAD
1000
ACAD_MTEXT_DEFINED_HEIGHT_BEGIN
1070
    46
1040
9.05696734704178
1000
ACAD_MTEXT_DEFINED_HEIGHT_END
  0
MTEXT
  5
13CBE
330
10FE8
100
AcDbEntity
  8
图框
 62
     3
100
AcDbMText
 10
1110.122306614152
 20
500.2775205517162
 30
0.0
 40
2.985513575034151
 41
33.61239199242139
 46
8.871557304763419
 71
     5
 72
     5
  1
-
  7
Romans字体
 73
     1
 44
1.0
1001
AcDbBlockRepETag
1070
     1
1071
        7
1005
13CBE
1001
ACAD
1000
ACAD_MTEXT_DEFINED_HEIGHT_BEGIN
1070
    46
1040
8.871557304763419
1000
ACAD_MTEXT_DEFINED_HEIGHT_END
  0
MTEXT
  5
13CBF
330
10FE8
100
AcDbEntity
  8
图框
 62
     3
100
AcDbMText
 10
967.6594956750133
 20
493.4737568219182
 30
0.0
 40
2.985513575034151
 41
15.50176341157864
 46
6.292658374510335
 71
     5
 72
     5
  1
P RAO
  7
Romans字体
 73
     1
 44
1.0
1001
AcDbBlockRepETag
1070
     1
1071
        8
1005
13CBF
1001
ACAD
1000
ACAD_MTEXT_DEFINED_HEIGHT_BEGIN
1070
    46
1040
6.292658374510335
1000
ACAD_MTEXT_DEFINED_HEIGHT_END
  0
MTEXT
  5
13CC0
330
10FE8
100
AcDbEntity
  8
图框
 62
     3
100
AcDbMText
 10
983.041569333247
 20
493.2441970450405
 30
0.0
 40
2.487927979195124
 41
15.26238390489051
 46
6.751777928266487
 71
     5
 72
     5
  1
{\W0.7;18.10.2010}
  7
Romans字体
 73
     1
 44
1.0
1001
AcDbBlockRepETag
1070
     1
1071
        9
1005
13CC0
1001
ACAD
1000
ACAD_MTEXT_DEFINED_HEIGHT_BEGIN
1070
    46
1040
6.751777928266487
1000
ACAD_MTEXT_DEFINED_HEIGHT_END
  0
MTEXT
  5
13CC1
330
10FE8
100
AcDbEntity
  8
图框
 62
     3
100
AcDbMText
 10
1012.477254728976
 20
499.7664151964291
 30
0.0
 40
2.985513575034151
 41
17.64876416884615
 46
6.292658374511397
 71
     5
 72
     5
  1
-
  7
Romans字体
 73
     1
 44
1.0
1001
AcDbBlockRepETag
1070
     1
1071
       10
1005
13CC1
1001
ACAD
1000
ACAD_MTEXT_DEFINED_HEIGHT_BEGIN
1070
    46
1040
6.292658374511397
1000
ACAD_MTEXT_DEFINED_HEIGHT_END
  0
MTEXT
  5
13CC2
330
10FE8
100
AcDbEntity
  8
图框
 62
     3
100
AcDbMText
 10
1028.977802139886
 20
499.7664151964289
 30
0.0
 40
2.487927979195124
 41
15.35233065297265
 46
6.292658374511382
 71
     5
 72
     5
  1
-
  7
Romans字体
 73
     1
 44
1.0
1001
AcDbBlockRepETag
1070
     1
1071
       11
1005
13CC2
1001
ACAD
1000
ACAD_MTEXT_DEFINED_HEIGHT_BEGIN
1070
    46
1040
6.292658374511382
1000
ACAD_MTEXT_DEFINED_HEIGHT_END
  0
MTEXT
  5
13CC3
330
10FE8
100
AcDbEntity
  8
图框
 62
     3
100
AcDbMText
 10
967.6594956750133
 20
487.1810984474071
 30
0.0
 40
2.985513575034151
 41
15.50176341157863
 46
6.292658374511478
 71
     5
 72
     5
  1
-
  7
Romans字体
 73
     1
 44
1.0
1001
AcDbBlockRepETag
1070
     1
1071
       12
1005
13CC3
1001
ACAD
1000
ACAD_MTEXT_DEFINED_HEIGHT_BEGIN
1070
    46
1040
6.292658374511478
1000
ACAD_MTEXT_DEFINED_HEIGHT_END
  0
MTEXT
  5
13CC4
330
10FE8
100
AcDbEntity
  8
图框
 62
     3
100
AcDbMText
 10
983.041569333247
 20
487.1810984474071
 30
0.0
 40
2.487927979195124
 41
15.26238390489062
 46
6.292658374511495
 71
     5
 72
     5
  1
-
  7
Romans字体
 73
     1
 44
1.0
1001
AcDbBlockRepETag
1070
     1
1071
       13
1005
13CC4
1001
ACAD
1000
ACAD_MTEXT_DEFINED_HEIGHT_BEGIN
1070
    46
1040
6.292658374511495
1000
ACAD_MTEXT_DEFINED_HEIGHT_END
  0
MTEXT
  5
13CC5
330
10FE8
100
AcDbEntity
  8
图框
 62
     3
100
AcDbMText
 10
1074.556686986741
 20
495.8417418993361
 30
0.0
 40
2.985513575034151
 41
10.82934843438978
 46
7.886094601210427
 71
     5
 72
     5
  1
-
  7
Romans字体
 73
     1
 44
1.0
1001
AcDbBlockRepETag
1070
     1
1071
       14
1005
13CC5
1001
ACAD
1000
ACAD_MTEXT_DEFINED_HEIGHT_BEGIN
1070
    46
1040
7.886094601210427
1000
ACAD_MTEXT_DEFINED_HEIGHT_END
  0
LINE
  5
13CC6
330
10FE8
100
AcDbEntity
  8
图框
370
    -3
100
AcDbLine
 10
1036.653967466372
 20
499.7847891999413
 30
0.0
 11
1079.971361203936
 21
499.7847891999413
 31
0.0
1001
AcDbBlockRepETag
1070
     1
1071
       15
1005
13CC6
  0
MTEXT
  5
13CC7
330
10FE8
100
AcDbEntity
  8
图框
 62
     1
370
    20
100
AcDbMText
 10
1108.26336443907
 20
491.5162596080882
 30
0.0
 40
2.699054613030988
 41
82.30831305643079
 46
0.0
 71
     5
 72
     5
  1
{\fSimHei|b0|i0|c134|p2;厦门唯恩电气有限公司}
 73
     1
 44
1.0
1001
AcDbBlockRepETag
1070
     1
1071
       16
1005
13CC7
  0
MTEXT
  5
13CC8
330
10FE8
100
AcDbEntity
  8
图框
 62
     3
370
    20
100
AcDbMText
 10
1108.435451459908
 20
487.298967726064
 30
0.0
 40
1.652482416141417
 41
68.08558693693567
 46
0.0
 71
     5
 72
     5
  1
{\fArial Narrow|b0|i0|c0|p34;XIAMEN WAIN ELECTRICAL CO.LTD}
  7
工程字
 73
     1
 44
1.0
1001
AcDbBlockRepETag
1070
     1
1071
       17
1005
13CC8
  0
MTEXT
  5
13CC9
330
10FE8
100
AcDbEntity
  8
图框
 62
     1
370
    20
100
AcDbMText
 10
1085.711816899387
 20
491.0944802995856
 30
0.0
 40
2.005930044038334
 41
5.047240019334847
 46
0.0
 71
     1
 72
     5
  1
{\fArial|b0|i0|c0|p34;A}
  7
Chinese
 73
     1
 44
1.0
1001
AcDbBlockRepETag
1070
     1
1071
       18
1005
13CC9
  0
MTEXT
  5
13CCA
330
10FE8
100
AcDbEntity
  8
图框
 62
     1
370
    20
100
AcDbMText
 10
1088.213485935716
 20
491.0944802995856
 30
0.0
 40
2.005930044038334
 41
5.047240019334847
 46
0.0
 71
     1
 72
     5
  1
{\fArial|b0|i0|c0|p34;I}
  7
Chinese
 73
     1
 44
1.0
1001
AcDbBlockRepETag
1070
     1
1071
       19
1005
13CCA
  0
MTEXT
  5
13CCB
330
10FE8
100
AcDbEntity
  8
图框
 62
     1
370
    20
100
AcDbMText
 10
1089.142375222864
 20
491.0822866326808
 30
0.0
 40
2.005930044038334
 41
5.047240019334847
 46
0.0
 71
     1
 72
     5
  1
{\fArial|b0|i0|c0|p34;N}
  7
Chinese
 73
     1
 44
1.0
1001
AcDbBlockRepETag
1070
     1
1071
       20
1005
13CCB
  0
MTEXT
  5
13CCC
330
10FE8
100
AcDbEntity
  8
图框
100
AcDbMText
 10
1069.142012769545
 20
487.9667319294409
 30
0.0
 40
2.252848170144607
 41
21.65869686878327
 46
7.863925338579296
 71
     5
 72
     5
  1
{\W0.5;\C1;All Dimensions in mm\POriginal Size DIN A 4}
  7
Romans字体
 73
     1
 44
1.0
1001
AcDbBlockRepETag
1070
     1
1071
       21
1005
13CCC
1001
ACAD
1000
ACAD_MTEXT_DEFINED_HEIGHT_BEGIN
1070
    46
1040
7.863925338579296
1000
ACAD_MTEXT_DEFINED_HEIGHT_END
  0
MTEXT
  5
13CCD
330
10FE8
100
AcDbEntity
  8
图框
  6
ByBlock
 62
     6
370
    18
100
AcDbMText
 10
1127.40434942308
 20
508.7896535755975
 30
0.0
 40
2.651776162684904
 41
2.557913877927211
 46
0.0
 71
     1
 72
     5
  1
A
  7
Romans字体
 11
0.0000000000000001
 21
1.0
 31
0.0
 73
     1
 44
1.0
1001
AcDbBlockRepETag
1070
     1
1071
       22
1005
13CCD
  0
MTEXT
  5
13CCE
330
10FE8
100
AcDbEntity
  8
图框
 62
     6
100
AcDbMText
 10
1127.40434942308
 20
556.3746573232886
 30
0.0
 40
2.651776162684904
 41
2.557913877927211
 46
0.0
 71
     1
 72
     5
  1
B
  7
Romans字体
 11
0.0000000000000001
 21
1.0
 31
0.0
 73
     1
 44
1.0
1001
AcDbBlockRepETag
1070
     1
1071
       23
1005
13CCE
  0
MTEXT
  5
13CCF
330
10FE8
100
AcDbEntity
  8
图框
 62
     6
100
AcDbMText
 10
1127.40434942308
 20
607.5539372630998
 30
0.0
 40
2.651776162684904
 41
2.557913877927211
 46
0.0
 71
     1
 72
     5
  1
C
  7
Romans字体
 11
0.0000000000000001
 21
1.0
 31
0.0
 73
     1
 44
1.0
1001
AcDbBlockRepETag
1070
     1
1071
       24
1005
13CCF
  0
MTEXT
  5
13CD0
330
10FE8
100
AcDbEntity
  8
图框
 62
     6
100
AcDbMText
 10
1127.40434942308
 20
658.7332172029115
 30
0.0
 40
2.651776162684904
 41
2.557913877927211
 46
0.0
 71
     1
 72
     5
  1
D
  7
Romans字体
 11
0.0000000000000001
 21
1.0
 31
0.0
 73
     1
 44
1.0
1001
AcDbBlockRepETag
1070
     1
1071
       25
1005
13CD0
  0
LINE
  5
13CD1
330
10FE8
100
AcDbEntity
  8
图框
 62
     6
100
AcDbLine
 10
1130.411601781241
 20
634.0726090796082
 30
0.0
 11
1126.928502610363
 21
634.0726090796082
 31
0.0
1001
AcDbBlockRepETag
1070
     1
1071
       26
1005
13CD1
  0
LINE
  5
13CD2
330
10FE8
100
AcDbEntity
  8
图框
 62
     6
100
AcDbLine
 10
1130.411601781241
 20
582.89332913979
 30
0.0
 11
1126.928502610363
 21
582.89332913979
 31
0.0
1001
AcDbBlockRepETag
1070
     1
1071
       27
1005
13CD2
  0
MTEXT
  5
13CD3
330
10FE8
100
AcDbEntity
  8
图框
 62
     6
100
AcDbMText
 10
1105.329704038389
 20
483.6164543011163
 30
0.0
 40
2.651776162684904
 41
2.557913877927211
 46
0.0
 71
     1
 72
     5
  1
6
  7
Romans字体
 73
     1
 44
1.0
1001
AcDbBlockRepETag
1070
     1
1071
       28
1005
13CD3
  0
LINE
  5
13CD4
330
10FE8
100
AcDbEntity
  8
图框
 62
     6
100
AcDbLine
 10
1081.088565155284
 20
484.0347692601515
 30
0.0
 11
1081.088565155284
 21
480.5347692601475
 31
0.0
1001
AcDbBlockRepETag
1070
     1
1071
       29
1005
13CD4
  0
MTEXT
  5
13CD5
330
10FE8
100
AcDbEntity
  8
图框
 62
     6
100
AcDbMText
 10
1055.900596365941
 20
483.520053108993
 30
0.0
 40
2.651776162684904
 41
2.557913877927211
 46
0.0
 71
     1
 72
     5
  1
5
  7
Romans字体
 73
     1
 44
1.0
1001
AcDbBlockRepETag
1070
     1
1071
       30
1005
13CD5
  0
LINE
  5
13CD6
330
10FE8
100
AcDbEntity
  8
图框
 62
     6
100
AcDbLine
 10
1031.553386436349
 20
484.0347692601515
 30
0.0
 11
1031.553386436349
 21
480.5347692601475
 31
0.0
1001
AcDbBlockRepETag
1070
     1
1071
       31
1005
13CD6
  0
MTEXT
  5
13CD7
330
10FE8
100
AcDbEntity
  8
图框
 62
     6
100
AcDbMText
 10
1006.383180575197
 20
483.5687958215896
 30
0.0
 40
2.651776162684904
 41
2.557913877927211
 46
0.0
 71
     1
 72
     5
  1
4
  7
Romans字体
 73
     1
 44
1.0
1001
AcDbBlockRepETag
1070
     1
1071
       32
1005
13CD7
  0
LINE
  5
13CD8
330
10FE8
100
AcDbEntity
  8
图框
 62
     6
100
AcDbLine
 10
982.0182077173887
 20
484.0347692601515
 30
0.0
 11
982.0182077173887
 21
480.5347692601475
 31
0.0
1001
AcDbBlockRepETag
1070
     1
1071
       33
1005
13CD8
  0
MTEXT
  5
13CD9
330
10FE8
100
AcDbEntity
  8
图框
 62
     6
100
AcDbMText
 10
956.8302389280352
 20
483.5989680297948
 30
0.0
 40
2.651776162684904
 41
2.557913877927211
 46
0.0
 71
     1
 72
     5
  1
3
  7
Romans字体
 73
     1
 44
1.0
1001
AcDbBlockRepETag
1070
     1
1071
       34
1005
13CD9
  0
LINE
  5
13CDA
330
10FE8
100
AcDbEntity
  8
图框
 62
     6
100
AcDbLine
 10
932.4830289984245
 20
484.0347692601515
 30
0.0
 11
932.4830289984245
 21
480.5347692601475
 31
0.0
1001
AcDbBlockRepETag
1070
     1
1071
       35
1005
13CDA
  0
MTEXT
  5
13CDB
330
10FE8
100
AcDbEntity
  8
图框
 62
     6
100
AcDbMText
 10
906.0252349826365
 20
483.6475250013156
 30
0.0
 40
2.651776162684904
 41
2.557913877927211
 46
0.0
 71
     1
 72
     5
  1
2
  7
Romans字体
 73
     1
 44
1.0
1001
AcDbBlockRepETag
1070
     1
1071
       36
1005
13CDB
  0
LINE
  5
13CDC
330
10FE8
100
AcDbEntity
  8
图框
 62
     6
100
AcDbLine
 10
882.9478502794648
 20
484.0347692601515
 30
0.0
 11
882.9478502794648
 21
480.5347692601475
 31
0.0
1001
AcDbBlockRepETag
1070
     1
1071
       37
1005
13CDC
  0
MTEXT
  5
13CDD
330
10FE8
100
AcDbEntity
  8
图框
 62
     6
100
AcDbMText
 10
857.7598814901191
 20
483.651829494754
 30
0.0
 40
2.651776162684904
 41
2.557913877927211
 46
0.0
 71
     1
 72
     5
  1
1
  7
Romans字体
 73
     1
 44
1.0
1001
AcDbBlockRepETag
1070
     1
1071
       38
1005
13CDD
  0
LINE
  5
13CDE
330
10FE8
100
AcDbEntity
  8
图框
370
    50
100
AcDbLine
 10
836.8548209370597
 20
484.0347692601515
 30
0.0
 11
1126.928502610363
 21
484.0347692601515
 31
0.0
1001
AcDbBlockRepETag
1070
     1
1071
       39
1005
13CDE
  0
LINE
  5
13CDF
330
10FE8
100
AcDbEntity
  8
图框
370
    50
100
AcDbLine
 10
836.9128518455362
 20
484.0178684310246
 30
0.0
 11
836.9128518455394
 21
675.0207195125422
 31
0.0
1001
AcDbBlockRepETag
1070
     1
1071
       40
1005
13CDF
  0
MTEXT
  5
13CE0
330
10FE8
100
AcDbEntity
  8
图框
 62
     6
100
AcDbMText
 10
833.8475685789031
 20
658.7332172029115
 30
0.0
 40
2.651776162684904
 41
2.557913877927211
 46
0.0
 71
     1
 72
     5
  1
D
  7
Romans字体
 11
0.0000000000000001
 21
1.0
 31
0.0
 73
     1
 44
1.0
1001
AcDbBlockRepETag
1070
     1
1071
       41
1005
13CE0
  0
LINE
  5
13CE1
330
10FE8
100
AcDbEntity
  8
图框
 62
     6
100
AcDbLine
 10
836.9128518455386
 20
634.0726090796082
 30
0.0
 11
833.4128518455365
 21
634.0726090796082
 31
0.0
1001
AcDbBlockRepETag
1070
     1
1071
       42
1005
13CE1
  0
MTEXT
  5
13CE2
330
10FE8
100
AcDbEntity
  8
图框
 62
     6
100
AcDbMText
 10
833.9039177480142
 20
607.5539372630998
 30
0.0
 40
2.651776162684904
 41
2.557913877927211
 46
0.0
 71
     1
 72
     5
  1
C
  7
Romans字体
 11
0.0000000000000001
 21
1.0
 31
0.0
 73
     1
 44
1.0
1001
AcDbBlockRepETag
1070
     1
1071
       43
1005
13CE2
  0
LINE
  5
13CE3
330
10FE8
100
AcDbEntity
  8
图框
 62
     6
100
AcDbLine
 10
836.9128518455378
 20
582.89332913979
 30
0.0
 11
833.4128518455365
 21
582.89332913979
 31
0.0
1001
AcDbBlockRepETag
1070
     1
1071
       44
1005
13CE3
  0
MTEXT
  5
13CE4
330
10FE8
100
AcDbEntity
  8
图框
 62
     6
100
AcDbMText
 10
833.9039177480142
 20
556.3746573232886
 30
0.0
 40
2.651776162684904
 41
2.557913877927211
 46
0.0
 71
     1
 72
     5
  1
B
  7
Romans字体
 11
0.0000000000000001
 21
1.0
 31
0.0
 73
     1
 44
1.0
1001
AcDbBlockRepETag
1070
     1
1071
       45
1005
13CE4
  0
LINE
  5
13CE5
330
10FE8
100
AcDbEntity
  8
图框
 62
     6
100
AcDbLine
 10
836.9128518455367
 20
531.714049199969
 30
0.0
 11
833.4128518455365
 21
531.714049199969
 31
0.0
1001
AcDbBlockRepETag
1070
     1
1071
       46
1005
13CE5
  0
MTEXT
  5
13CE6
330
10FE8
100
AcDbEntity
  8
图框
 62
     6
100
AcDbMText
 10
833.9039177480142
 20
508.7896535755975
 30
0.0
 40
2.651776162684904
 41
2.557913877927211
 46
0.0
 71
     1
 72
     5
  1
A
  7
Romans字体
 11
0.0000000000000001
 21
1.0
 31
0.0
 73
     1
 44
1.0
1001
AcDbBlockRepETag
1070
     1
1071
       47
1005
13CE6
  0
LINE
  5
13CE7
330
10FE8
100
AcDbEntity
  8
图框
370
    -3
100
AcDbLine
 10
836.9128518455394
 20
675.0207195125422
 30
0.0
 11
836.9128518455394
 21
684.5021384922564
 31
0.0
1001
AcDbBlockRepETag
1070
     1
1071
       48
1005
13CE7
  0
LINE
  5
13CE8
330
10FE8
100
AcDbEntity
  8
图框
370
    -3
100
AcDbLine
 10
842.6237321475781
 20
675.5347692601515
 30
0.0
 11
842.6237321475781
 21
685.0161882398658
 31
0.0
1001
AcDbBlockRepETag
1070
     1
1071
       49
1005
13CE8
  0
LINE
  5
13CE9
330
10FE8
100
AcDbEntity
  8
图框
370
    -3
100
AcDbLine
 10
848.3346124496179
 20
675.5347692601515
 30
0.0
 11
848.3346124496179
 21
685.0161882398658
 31
0.0
1001
AcDbBlockRepETag
1070
     1
1071
       50
1005
13CE9
  0
LINE
  5
13CEA
330
10FE8
100
AcDbEntity
  8
图框
370
    -3
100
AcDbLine
 10
854.0454927516588
 20
675.5347692601515
 30
0.0
 11
854.0454927516588
 21
685.0161882398658
 31
0.0
1001
AcDbBlockRepETag
1070
     1
1071
       51
1005
13CEA
  0
LINE
  5
13CEB
330
10FE8
100
AcDbEntity
  8
图框
370
    -3
100
AcDbLine
 10
861.5351874539182
 20
675.5347692601515
 30
0.0
 11
861.5351874539182
 21
686.7901958362482
 31
0.0
1001
AcDbBlockRepETag
1070
     1
1071
       52
1005
13CEB
  0
MTEXT
  5
13CEC
330
10FE8
100
AcDbEntity
  8
图框
 62
     6
100
AcDbMText
 10
1105.329704038389
 20
678.859919059449
 30
0.0
 40
2.651776162684904
 41
2.557913877927211
 46
0.0
 71
     1
 72
     5
  1
6
  7
Romans字体
 73
     1
 44
1.0
1001
AcDbBlockRepETag
1070
     1
1071
       53
1005
13CEC
  0
LINE
  5
13CED
330
10FE8
100
AcDbEntity
  8
图框
 62
     6
100
AcDbLine
 10
1081.088565155284
 20
679.0347692601516
 30
0.0
 11
1081.088565155284
 21
675.5347692601515
 31
0.0
1001
AcDbBlockRepETag
1070
     1
1071
       54
1005
13CED
  0
MTEXT
  5
13CEE
330
10FE8
100
AcDbEntity
  8
图框
 62
     6
100
AcDbMText
 10
1055.900596365941
 20
678.859919059449
 30
0.0
 40
2.651776162684904
 41
2.557913877927211
 46
0.0
 71
     1
 72
     5
  1
5
  7
Romans字体
 73
     1
 44
1.0
1001
AcDbBlockRepETag
1070
     1
1071
       55
1005
13CEE
  0
LINE
  5
13CEF
330
10FE8
100
AcDbEntity
  8
图框
 62
     6
100
AcDbLine
 10
1031.553386436349
 20
679.0347692601516
 30
0.0
 11
1031.553386436349
 21
675.5347692601515
 31
0.0
1001
AcDbBlockRepETag
1070
     1
1071
       56
1005
13CEF
  0
MTEXT
  5
13CF0
330
10FE8
100
AcDbEntity
  8
图框
 62
     6
100
AcDbMText
 10
1006.36541764698
 20
678.7312083656147
 30
0.0
 40
2.651776162684904
 41
2.557913877927211
 46
0.0
 71
     1
 72
     5
  1
4
  7
Romans字体
 73
     1
 44
1.0
1001
AcDbBlockRepETag
1070
     1
1071
       57
1005
13CF0
  0
LINE
  5
13CF1
330
10FE8
100
AcDbEntity
  8
图框
 62
     6
100
AcDbLine
 10
982.0182077173887
 20
679.0347692601516
 30
0.0
 11
982.0182077173887
 21
675.5347692601515
 31
0.0
1001
AcDbBlockRepETag
1070
     1
1071
       58
1005
13CF1
  0
MTEXT
  5
13CF2
330
10FE8
100
AcDbEntity
  8
图框
 62
     6
100
AcDbMText
 10
956.8302389280352
 20
678.859919059449
 30
0.0
 40
2.651776162684904
 41
2.557913877927211
 46
0.0
 71
     1
 72
     5
  1
3
  7
Romans字体
 73
     1
 44
1.0
1001
AcDbBlockRepETag
1070
     1
1071
       59
1005
13CF2
  0
LINE
  5
13CF3
330
10FE8
100
AcDbEntity
  8
图框
 62
     6
100
AcDbLine
 10
932.4830289984245
 20
679.0347692601516
 30
0.0
 11
932.4830289984245
 21
675.5347692601515
 31
0.0
1001
AcDbBlockRepETag
1070
     1
1071
       60
1005
13CF3
  0
MTEXT
  5
13CF4
330
10FE8
100
AcDbEntity
  8
图框
 62
     6
100
AcDbMText
 10
907.295060209082
 20
678.859919059449
 30
0.0
 40
2.651776162684904
 41
2.557913877927211
 46
0.0
 71
     1
 72
     5
  1
2
  7
Romans字体
 73
     1
 44
1.0
1001
AcDbBlockRepETag
1070
     1
1071
       61
1005
13CF4
  0
LINE
  5
13CF5
330
10FE8
100
AcDbEntity
  8
图框
 62
     6
100
AcDbLine
 10
882.9478502794648
 20
678.7962435131815
 30
0.0
 11
882.9478502794648
 21
675.5347692601515
 31
0.0
1001
AcDbBlockRepETag
1070
     1
1071
       62
1005
13CF5
  0
MTEXT
  5
13CF6
330
10FE8
100
AcDbEntity
  8
图框
 62
     6
100
AcDbMText
 10
862.6286629643733
 20
678.859919059449
 30
0.0
 40
2.651776162684904
 41
2.557913877927211
 46
0.0
 71
     1
 72
     5
  1
1
  7
Romans字体
 73
     1
 44
1.0
1001
AcDbBlockRepETag
1070
     1
1071
       63
1005
13CF6
  0
LINE
  5
13CF7
330
10FE8
100
AcDbEntity
  8
图框
370
    -3
100
AcDbLine
 10
836.9128518455394
 20
675.0207195125422
 30
0.0
 11
836.9128518455394
 21
686.7901958362482
 31
0.0
1001
AcDbBlockRepETag
1070
     1
1071
       64
1005
13CF7
  0
LINE
  5
13CF8
330
10FE8
100
AcDbEntity
  8
图框
370
    50
100
AcDbLine
 10
836.9128518455394
 20
675.5347692601515
 30
0.0
 11
1126.928502610363
 21
675.5347692601515
 31
0.0
1001
AcDbBlockRepETag
1070
     1
1071
       65
1005
13CF8
  0
LINE
  5
13CF9
330
10FE8
100
AcDbEntity
  8
图框
370
    -3
100
AcDbLine
 10
842.6237321475781
 20
675.5347692601515
 30
0.0
 11
842.6237321475781
 21
686.7901958362482
 31
0.0
1001
AcDbBlockRepETag
1070
     1
1071
       66
1005
13CF9
  0
LINE
  5
13CFA
330
10FE8
100
AcDbEntity
  8
图框
370
    -3
100
AcDbLine
 10
848.3346124496179
 20
675.5347692601515
 30
0.0
 11
848.3346124496179
 21
686.7901958362482
 31
0.0
1001
AcDbBlockRepETag
1070
     1
1071
       67
1005
13CFA
  0
MTEXT
  5
13CFB
102
{ACAD_XDICTIONARY
360
13D79
102
}
330
10FE8
100
AcDbEntity
  8
图框
100
AcDbMText
 10
857.7903401027889
 20
686.7901958362482
 30
0.0
 40
1.958998408821398
 41
11.25542657609672
 46
7.489694702258906
 71
     4
 72
     5
  1
\pi2.8203;档案员{\H0.7x;\P\pi1.4159;\Fromans|c134;Filing Clerk\fFangSong_GB2312|b0|i0|c134|p49; }
 11
-0.0000000000000002
 21
-1.0
 31
0.0
 73
     1
 44
1.0
1001
AcDbBlockRepETag
1070
     1
1071
       68
1005
13CFB
1001
ACAD
1000
ACAD_MTEXT_DEFINED_HEIGHT_BEGIN
1070
    46
1040
7.489694702258906
1000
ACAD_MTEXT_DEFINED_HEIGHT_END
  0
MTEXT
  5
13CFC
102
{ACAD_XDICTIONARY
360
13D7B
102
}
330
10FE8
100
AcDbEntity
  8
图框
100
AcDbMText
 10
845.479172298598
 20
686.7901958362482
 30
0.0
 40
1.958998408821398
 41
11.25542657609672
 46
5.710880302039671
 71
     4
 72
     5
  1
\pi0.7115;日期{\Fromans|c134;/Date}
 11
-0.0000000000000002
 21
-1.0
 31
0.0
 73
     1
 44
1.0
1001
AcDbBlockRepETag
1070
     1
1071
       69
1005
13CFC
1001
ACAD
1000
ACAD_MTEXT_DEFINED_HEIGHT_BEGIN
1070
    46
1040
5.710880302039671
1000
ACAD_MTEXT_DEFINED_HEIGHT_END
  0
LINE
  5
13CFD
330
10FE8
100
AcDbEntity
  8
图框
370
    -3
100
AcDbLine
 10
854.0454927516588
 20
675.5347692601515
 30
0.0
 11
854.0454927516588
 21
686.7901958362482
 31
0.0
1001
AcDbBlockRepETag
1070
     1
1071
       70
1005
13CFD
  0
LINE
  5
13CFE
330
10FE8
100
AcDbEntity
  8
图框
370
    -3
100
AcDbLine
 10
1036.653967466372
 20
531.3291676047914
 30
0.0
 11
1036.653967466372
 21
484.0126019753161
 31
0.0
1001
AcDbBlockRepETag
1070
     1
1071
       71
1005
13CFE
  0
LINE
  5
13CFF
330
10FE8
100
AcDbEntity
  8
图框
370
    -3
100
AcDbLine
 10
1047.483315900763
 20
507.6708838011533
 30
0.0
 11
1047.483315900763
 21
491.8986945987308
 31
0.0
1001
AcDbBlockRepETag
1070
     1
1071
       72
1005
13CFF
  0
LINE
  5
13D00
330
10FE8
100
AcDbEntity
  8
图框
370
    -3
100
AcDbLine
 10
1058.312664335153
 20
507.6708838011533
 30
0.0
 11
1058.312664335153
 21
484.0347692601515
 31
0.0
1001
AcDbBlockRepETag
1070
     1
1071
       73
1005
13D00
  0
LINE
  5
13D01
330
10FE8
100
AcDbEntity
  8
图框
370
    25
100
AcDbLine
 10
1048.474135214456
 20
488.1095628329926
 30
0.0
 11
1054.946420288459
 21
488.1095628329926
 31
0.0
1001
AcDbBlockRepETag
1070
     1
1071
       74
1005
13D01
  0
LINE
  5
13D02
330
10FE8
100
AcDbEntity
  8
图框
370
    25
100
AcDbLine
 10
1054.232527365989
 20
487.0761716842634
 30
0.0
 11
1049.156490914508
 21
486.4576273751
 31
0.0
1001
AcDbBlockRepETag
1070
     1
1071
       75
1005
13D02
  0
LINE
  5
13D03
330
10FE8
100
AcDbEntity
  8
图框
370
    25
100
AcDbLine
 10
1054.232527365989
 20
489.1429539817209
 30
0.0
 11
1049.156490914508
 21
489.7614982908846
 31
0.0
1001
AcDbBlockRepETag
1070
     1
1071
       76
1005
13D03
  0
LINE
  5
13D04
330
10FE8
100
AcDbEntity
  8
图框
370
    25
100
AcDbLine
 10
1049.156490914508
 20
489.7614982908846
 30
0.0
 11
1049.156490914508
 21
486.4576273751
 31
0.0
1001
AcDbBlockRepETag
1070
     1
1071
       77
1005
13D04
  0
LINE
  5
13D05
330
10FE8
100
AcDbEntity
  8
图框
370
    25
100
AcDbLine
 10
1054.232527365989
 20
489.1429539817209
 30
0.0
 11
1054.232527365989
 21
487.0761716842634
 31
0.0
1001
AcDbBlockRepETag
1070
     1
1071
       78
1005
13D05
  0
CIRCLE
  5
13D06
330
10FE8
100
AcDbEntity
  8
图框
370
    25
100
AcDbCircle
 10
1042.502700458579
 20
488.1095628329926
 30
0.0
 40
1.651935457891863
1001
AcDbBlockRepETag
1070
     1
1071
       79
1005
13D06
  0
CIRCLE
  5
13D07
330
10FE8
100
AcDbEntity
  8
图框
370
    25
100
AcDbCircle
 10
1042.502700458579
 20
488.1095628329926
 30
0.0
 40
1.033391148728775
1001
AcDbBlockRepETag
1070
     1
1071
       80
1005
13D07
  0
LINE
  5
13D08
330
10FE8
100
AcDbEntity
  8
图框
370
    25
100
AcDbLine
 10
1040.136872078216
 20
488.1095628329926
 30
0.0
 11
1044.868528838943
 21
488.1095628329926
 31
0.0
1001
AcDbBlockRepETag
1070
     1
1071
       81
1005
13D08
  0
LINE
  5
13D09
330
10FE8
100
AcDbEntity
  8
图框
370
    25
100
AcDbLine
 10
1042.502700458579
 20
490.475391213355
 30
0.0
 11
1042.502700458579
 21
485.743734452629
 31
0.0
1001
AcDbBlockRepETag
1070
     1
1071
       82
1005
13D09
  0
LINE
  5
13D0A
330
10FE8
100
AcDbEntity
  8
图框
370
    -3
100
AcDbLine
 10
1069.142012769546
 20
507.6708838011533
 30
0.0
 11
1069.142012769546
 21
491.8986945987308
 31
0.0
1001
AcDbBlockRepETag
1070
     1
1071
       83
1005
13D0A
  0
MTEXT
  5
13D0B
330
10FE8
100
AcDbEntity
  8
图框
100
AcDbMText
 10
1086.643735910939
 20
526.8006839312707
 30
0.0
 40
2.154898249703542
 41
13.34474941400573
 46
9.056967347041775
 71
     5
 72
     5
  1
图号{\Ftxt|c134;\P\Fromans|c134;\W0.65;Drawing No.}
 73
     1
 44
1.0
1001
AcDbBlockRepETag
1070
     1
1071
       84
1005
13D0B
1001
ACAD
1000
ACAD_MTEXT_DEFINED_HEIGHT_BEGIN
1070
    46
1040
9.056967347041775
1000
ACAD_MTEXT_DEFINED_HEIGHT_END
  0
LINE
  5
13D0C
330
10FE8
100
AcDbEntity
  8
图框
370
    -3
100
AcDbLine
 10
1093.316110617942
 20
531.3291676047914
 30
0.0
 11
1093.316110617942
 21
495.8417418993347
 31
0.0
1001
AcDbBlockRepETag
1070
     1
1071
       85
1005
13D0C
  0
LINE
  5
13D0D
330
10FE8
100
AcDbEntity
  8
图框
370
    -3
100
AcDbLine
 10
1047.473969770481
 20
531.3291676047914
 30
0.0
 11
1047.473969770481
 21
507.6708838011533
 31
0.0
1001
AcDbBlockRepETag
1070
     1
1071
       86
1005
13D0D
  0
MTEXT
  5
13D0E
330
10FE8
100
AcDbEntity
  8
图框
100
AcDbMText
 10
1063.72733855235
 20
503.7278365005473
 30
0.0
 40
2.252848170144607
 41
10.82934843439208
 46
7.886094601212128
 71
     5
 72
     5
  1
重量\P{\Fromans|c134;Weight}
 73
     1
 44
1.0
1001
AcDbBlockRepETag
1070
     1
1071
       87
1005
13D0E
1001
ACAD
1000
ACAD_MTEXT_DEFINED_HEIGHT_BEGIN
1070
    46
1040
7.886094601212128
1000
ACAD_MTEXT_DEFINED_HEIGHT_END
  0
LINE
  5
13D0F
330
10FE8
100
AcDbEntity
  8
图框
370
    -3
100
AcDbLine
 10
1036.653967466372
 20
519.5000257029746
 30
0.0
 11
1079.971361203936
 21
519.5000257029746
 31
0.0
1001
AcDbBlockRepETag
1070
     1
1071
       88
1005
13D0F
  0
MTEXT
  5
13D10
330
10FE8
100
AcDbEntity
  8
图框
100
AcDbMText
 10
1074.556686986741
 20
503.7278365005473
 30
0.0
 40
2.252848170144607
 41
10.82934843438984
 46
7.886094601212141
 71
     5
 72
     5
  1
数量\P{\Fromans|c134;Qty.}
 73
     1
 44
1.0
1001
AcDbBlockRepETag
1070
     1
1071
       89
1005
13D10
1001
ACAD
1000
ACAD_MTEXT_DEFINED_HEIGHT_BEGIN
1070
    46
1040
7.886094601212141
1000
ACAD_MTEXT_DEFINED_HEIGHT_END
  0
LINE
  5
13D11
330
10FE8
100
AcDbEntity
  8
图框
370
    -3
100
AcDbLine
 10
1079.971361203936
 20
495.8417418993347
 30
0.0
 11
1126.928502610363
 21
495.8417418993342
 31
0.0
1001
AcDbBlockRepETag
1070
     1
1071
       90
1005
13D11
  0
LINE
  5
13D12
330
10FE8
100
AcDbEntity
  8
图框
370
    -3
100
AcDbLine
 10
1079.971361203936
 20
504.7132992040975
 30
0.0
 11
1126.928502610363
 21
504.7132992040975
 31
0.0
1001
AcDbBlockRepETag
1070
     1
1071
       91
1005
13D12
  0
MTEXT
  5
13D13
330
10FE8
100
AcDbEntity
  8
图框
100
AcDbMText
 10
1052.893317052817
 20
503.7278365005473
 30
0.0
 40
2.252848170144607
 41
10.83869456467139
 46
7.886094601212101
 71
     5
 72
     5
  1
版本\P{\Fromans|c134;REV.}
 73
     1
 44
1.0
1001
AcDbBlockRepETag
1070
     1
1071
       92
1005
13D13
1001
ACAD
1000
ACAD_MTEXT_DEFINED_HEIGHT_BEGIN
1070
    46
1040
7.886094601212101
1000
ACAD_MTEXT_DEFINED_HEIGHT_END
  0
MTEXT
  5
13D14
330
10FE8
100
AcDbEntity
  8
图框
100
AcDbMText
 10
1042.068641683568
 20
503.7278365005473
 30
0.0
 40
2.252848170144607
 41
10.8293484343908
 46
7.886094601212136
 71
     5
 72
     5
  1
比例\P{\Fromans|c134;Scale}
 73
     1
 44
1.0
1001
AcDbBlockRepETag
1070
     1
1071
       93
1005
13D14
1001
ACAD
1000
ACAD_MTEXT_DEFINED_HEIGHT_BEGIN
1070
    46
1040
7.886094601212136
1000
ACAD_MTEXT_DEFINED_HEIGHT_END
  0
LINE
  5
13D15
330
10FE8
100
AcDbEntity
  8
图框
370
    -3
100
AcDbLine
 10
1036.653967466372
 20
507.6708838011533
 30
0.0
 11
1079.971361203936
 21
507.6708838011533
 31
0.0
1001
AcDbBlockRepETag
1070
     1
1071
       94
1005
13D15
  0
LINE
  5
13D16
330
10FE8
100
AcDbEntity
  8
图框
370
    -3
100
AcDbLine
 10
1036.653967466372
 20
491.8986945987308
 30
0.0
 11
1079.971361203936
 21
491.8986945987308
 31
0.0
1001
AcDbBlockRepETag
1070
     1
1071
       95
1005
13D16
  0
LINE
  5
13D17
330
10FE8
100
AcDbEntity
  8
图框
370
    -3
100
AcDbLine
 10
1079.971361203936
 20
531.3291676047914
 30
0.0
 11
1079.971361203936
 21
484.0125999975168
 31
0.0
1001
AcDbBlockRepETag
1070
     1
1071
       96
1005
13D17
  0
MTEXT
  5
13D18
330
10FE8
100
AcDbEntity
  8
图框
100
AcDbMText
 10
1042.063968618426
 20
525.4145966538832
 30
0.0
 40
2.252848170144607
 41
10.82000230410933
 46
11.82914190181708
 71
     5
 72
     5
  1
表面处理\P{\Fromans|c134;Finish}
 73
     1
 44
1.0
1001
AcDbBlockRepETag
1070
     1
1071
       97
1005
13D18
1001
ACAD
1000
ACAD_MTEXT_DEFINED_HEIGHT_BEGIN
1070
    46
1040
11.82914190181708
1000
ACAD_MTEXT_DEFINED_HEIGHT_END
  0
MTEXT
  5
13D19
330
10FE8
100
AcDbEntity
  8
图框
100
AcDbMText
 10
1042.063968618426
 20
513.5854547520639
 30
0.0
 40
2.252848170144607
 41
10.82000230410933
 46
11.8291419018212
 71
     5
 72
     5
  1
材料\P{\Fromans|c134;Material}
 73
     1
 44
1.0
1001
AcDbBlockRepETag
1070
     1
1071
       98
1005
13D19
1001
ACAD
1000
ACAD_MTEXT_DEFINED_HEIGHT_BEGIN
1070
    46
1040
11.8291419018212
1000
ACAD_MTEXT_DEFINED_HEIGHT_END
  0
LINE
  5
13D1A
330
10FE8
100
AcDbEntity
  8
图框
370
    -3
100
AcDbLine
 10
1079.971361203936
 20
522.27220025775
 30
0.0
 11
1126.928502610363
 21
522.27220025775
 31
0.0
1001
AcDbBlockRepETag
1070
     1
1071
       99
1005
13D1A
  0
LINE
  5
13D1B
330
10FE8
100
AcDbEntity
  8
图框
370
    -3
100
AcDbLine
 10
1079.971361203936
 20
513.5854547520641
 30
0.0
 11
1126.928502610363
 21
513.5854547520639
 31
0.0
1001
AcDbBlockRepETag
1070
     1
1071
      100
1005
13D1B
  0
MTEXT
  5
13D1C
330
10FE8
100
AcDbEntity
  8
图框
100
AcDbMText
 10
1086.643735910939
 20
517.9288275049072
 30
0.0
 40
1.958998408821398
 41
13.34474941400573
 46
8.686745505685811
 71
     5
 72
     5
  1
产品代号\P{\Fromans|c134;Part Code}
 73
     1
 44
1.0
1001
AcDbBlockRepETag
1070
     1
1071
      101
1005
13D1C
1001
ACAD
1000
ACAD_MTEXT_DEFINED_HEIGHT_BEGIN
1070
    46
1040
8.686745505685811
1000
ACAD_MTEXT_DEFINED_HEIGHT_END
  0
LINE
  5
13D1D
330
10FE8
100
AcDbEntity
  8
图框
370
    -3
100
AcDbLine
 10
946.9285026103634
 20
525.7982263931411
 30
0.0
 11
1036.653967466372
 21
525.7982263931411
 31
0.0
1001
AcDbBlockRepETag
1070
     1
1071
      102
1005
13D1D
  0
LINE
  5
13D1E
330
10FE8
100
AcDbEntity
  8
图框
370
    -3
100
AcDbLine
 10
946.9285026103634
 20
520.2672851814959
 30
0.0
 11
1036.653967466372
 21
520.2672851814959
 31
0.0
1001
AcDbBlockRepETag
1070
     1
1071
      103
1005
13D1E
  0
LINE
  5
13D1F
330
10FE8
100
AcDbEntity
  8
图框
370
    35
100
AcDbLine
 10
946.9285026103634
 20
531.3291676047914
 30
0.0
 11
1126.928502610363
 21
531.3291676047914
 31
0.0
1001
AcDbBlockRepETag
1070
     1
1071
      104
1005
13D1F
  0
LINE
  5
13D20
330
10FE8
100
AcDbEntity
  8
图框
370
    -3
100
AcDbLine
 10
990.6727612856927
 20
509.2054027581959
 30
0.0
 11
990.6727612856927
 21
484.0347692601515
 31
0.0
1001
AcDbBlockRepETag
1070
     1
1071
      105
1005
13D20
  0
MTEXT
  5
13D21
102
{ACAD_XDICTIONARY
360
13D7D
102
}
330
10FE8
100
AcDbEntity
  8
图框
100
AcDbMText
 10
997.1628169651232
 20
499.816589978722
 30
0.0
 40
2.252848170144607
 41
12.98011135886052
 46
6.19230880992475
 71
     5
 72
     5
  1
{\f仿宋_GB2312|b0|i0|c134|p49;标准化}\PStand.
  7
Romans字体
 73
     1
 44
1.0
1001
AcDbBlockRepETag
1070
     1
1071
      106
1005
13D21
1001
ACAD
1000
ACAD_MTEXT_DEFINED_HEIGHT_BEGIN
1070
    46
1040
6.19230880992475
1000
ACAD_MTEXT_DEFINED_HEIGHT_END
  0
LINE
  5
13D22
330
10FE8
100
AcDbEntity
  8
图框
370
    -3
100
AcDbLine
 10
975.4103773808022
 20
509.2054027581959
 30
0.0
 11
975.4103773808022
 21
484.0347692601515
 31
0.0
1001
AcDbBlockRepETag
1070
     1
1071
      107
1005
13D22
  0
MTEXT
  5
13D23
330
10FE8
100
AcDbEntity
  8
图框
100
AcDbMText
 10
984.5089229802068
 20
511.9708733640202
 30
0.0
 40
2.448748011026752
 41
38.287899328693
 46
5.530941211648832
 71
     5
 72
     5
  1
  变更描述{\Fromans|c134;/Description}
 73
     1
 44
1.0
1001
AcDbBlockRepETag
1070
     1
1071
      108
1005
13D23
1001
ACAD
1000
ACAD_MTEXT_DEFINED_HEIGHT_BEGIN
1070
    46
1040
5.530941211648832
1000
ACAD_MTEXT_DEFINED_HEIGHT_END
  0
MTEXT
  5
13D24
102
{ACAD_XDICTIONARY
360
13D7F
102
}
330
10FE8
100
AcDbEntity
  8
图框
100
AcDbMText
 10
1012.466086049227
 20
511.9708733640202
 30
0.0
 40
1.958998408821398
 41
17.6264268093469
 46
5.530941211648825
 71
     5
 72
     5
  1
签名\P{\Fromans|c134;Signature} 
 73
     1
 44
1.0
1001
AcDbBlockRepETag
1070
     1
1071
      109
1005
13D24
1001
ACAD
1000
ACAD_MTEXT_DEFINED_HEIGHT_BEGIN
1070
    46
1040
5.530941211648825
1000
ACAD_MTEXT_DEFINED_HEIGHT_END
  0
MTEXT
  5
13D25
102
{ACAD_XDICTIONARY
360
13D81
102
}
330
10FE8
100
AcDbEntity
  8
图框
100
AcDbMText
 10
960.7558556394856
 20
511.9708733640202
 30
0.0
 40
1.958998408821398
 41
9.218235352749283
 46
5.530941211648841
 71
     5
 72
     5
  1
处数\P{\Fromans|c134;Number }
 73
     1
 44
1.0
1001
AcDbBlockRepETag
1070
     1
1071
      110
1005
13D25
1001
ACAD
1000
ACAD_MTEXT_DEFINED_HEIGHT_BEGIN
1070
    46
1040
5.530941211648841
1000
ACAD_MTEXT_DEFINED_HEIGHT_END
  0
LINE
  5
13D26
330
10FE8
100
AcDbEntity
  8
图框
370
    -3
100
AcDbLine
 10
946.9285026103634
 20
514.7363439698449
 30
0.0
 11
1036.653967466372
 21
514.7363439698449
 31
0.0
1001
AcDbBlockRepETag
1070
     1
1071
      111
1005
13D26
  0
LINE
  5
13D27
330
10FE8
100
AcDbEntity
  8
图框
370
    -3
100
AcDbLine
 10
946.9285026103634
 20
509.2054027581959
 30
0.0
 11
1036.653967466372
 21
509.2054027581959
 31
0.0
1001
AcDbBlockRepETag
1070
     1
1071
      112
1005
13D27
  0
LINE
  5
13D28
330
10FE8
100
AcDbEntity
  8
图框
370
    -3
100
AcDbLine
 10
946.9285026103634
 20
502.9127443836848
 30
0.0
 11
1036.653967466372
 21
502.9127443836848
 31
0.0
1001
AcDbBlockRepETag
1070
     1
1071
      113
1005
13D28
  0
LINE
  5
13D29
330
10FE8
100
AcDbEntity
  8
图框
370
    -3
100
AcDbLine
 10
946.9285026103634
 20
496.620086009173
 30
0.0
 11
1036.653967466372
 21
496.620086009173
 31
0.0
1001
AcDbBlockRepETag
1070
     1
1071
      114
1005
13D29
  0
LINE
  5
13D2A
330
10FE8
100
AcDbEntity
  8
图框
370
    35
380
     1
100
AcDbLine
 10
946.9285026103634
 20
531.3291676047914
 30
0.0
 11
946.9285026103634
 21
484.0347692601515
 31
0.0
1001
AcDbBlockRepETag
1070
     1
1071
      115
1005
13D2A
  0
LINE
  5
13D2B
330
10FE8
100
AcDbEntity
  8
图框
370
    -3
100
AcDbLine
 10
1021.301636813399
 20
531.3291676047914
 30
0.0
 11
1021.301636813399
 21
484.0347692601515
 31
0.0
1001
AcDbBlockRepETag
1070
     1
1071
      116
1005
13D2B
  0
LINE
  5
13D2C
330
10FE8
100
AcDbEntity
  8
图框
370
    -3
100
AcDbLine
 10
1003.652872644553
 20
531.3291676047914
 30
0.0
 11
1003.652872644553
 21
484.0347692601515
 31
0.0
1001
AcDbBlockRepETag
1070
     1
1071
      117
1005
13D2C
  0
LINE
  5
13D2D
330
10FE8
100
AcDbEntity
  8
图框
370
    -3
100
AcDbLine
 10
965.3649733158603
 20
531.3291676047914
 30
0.0
 11
965.3649733158603
 21
509.2054027581959
 31
0.0
1001
AcDbBlockRepETag
1070
     1
1071
      118
1005
13D2D
  0
LINE
  5
13D2E
330
10FE8
100
AcDbEntity
  8
图框
370
    -3
100
AcDbLine
 10
956.1467379631109
 20
531.3291676047914
 30
0.0
 11
956.1467379631109
 21
509.2054027581959
 31
0.0
1001
AcDbBlockRepETag
1070
     1
1071
      119
1005
13D2E
  0
MTEXT
  5
13D2F
102
{ACAD_XDICTIONARY
360
13D83
102
}
330
10FE8
100
AcDbEntity
  8
图框
100
AcDbMText
 10
951.537620286737
 20
511.9708733640202
 30
0.0
 40
1.958998408821398
 41
9.218235352747692
 46
5.530941211648832
 71
     5
 72
     5
  1
标记\P{\Fromans|c134;Mark}
 73
     1
 44
1.0
1001
AcDbBlockRepETag
1070
     1
1071
      120
1005
13D2F
1001
ACAD
1000
ACAD_MTEXT_DEFINED_HEIGHT_BEGIN
1070
    46
1040
5.530941211648832
1000
ACAD_MTEXT_DEFINED_HEIGHT_END
  0
MTEXT
  5
13D30
102
{ACAD_XDICTIONARY
360
13D85
102
}
330
10FE8
100
AcDbEntity
  8
图框
100
AcDbMText
 10
953.4185582897936
 20
493.4737568219182
 30
0.0
 40
2.252848170144607
 41
12.98011135886041
 46
6.292658374510382
 71
     5
 72
     5
  1
审核\P{\Fromans|c134;Checked}
 73
     1
 44
1.0
1001
AcDbBlockRepETag
1070
     1
1071
      121
1005
13D30
1001
ACAD
1000
ACAD_MTEXT_DEFINED_HEIGHT_BEGIN
1070
    46
1040
6.292658374510382
1000
ACAD_MTEXT_DEFINED_HEIGHT_END
  0
MTEXT
  5
13D31
102
{ACAD_XDICTIONARY
360
13D87
102
}
330
10FE8
100
AcDbEntity
  8
图框
100
AcDbMText
 10
953.4185582897936
 20
499.8775635376777
 30
0.0
 40
2.252848170144607
 41
12.98011135886041
 46
6.070361692014189
 71
     5
 72
     5
  1
绘图\P{\Fromans|c134;Drawn\Ftxt|c134; }
 73
     1
 44
1.0
1001
AcDbBlockRepETag
1070
     1
1071
      122
1005
13D31
1001
ACAD
1000
ACAD_MTEXT_DEFINED_HEIGHT_BEGIN
1070
    46
1040
6.070361692014189
1000
ACAD_MTEXT_DEFINED_HEIGHT_END
  0
ARC
  5
13D32
330
10FE8
100
AcDbEntity
  8
图框
 62
     4
370
    35
100
AcDbCircle
 10
1086.900627017421
 20
490.0179944151195
 30
0.0
 40
4.063310408393665
100
AcDbArc
 50
18.95237904564806
 51
161.0476209543519
1001
AcDbBlockRepETag
1070
     1
1071
      123
1005
13D32
  0
ARC
  5
13D33
330
10FE8
100
AcDbEntity
  8
图框
 62
     4
370
    35
100
AcDbCircle
 10
1086.900627017421
 20
490.0179944151195
 30
0.0
 40
4.063310408393665
100
AcDbArc
 50
198.952379045648
 51
341.0476209543519
1001
AcDbBlockRepETag
1070
     1
1071
      124
1005
13D33
  0
LINE
  5
13D34
330
10FE8
100
AcDbEntity
  8
图框
 62
     4
370
    35
100
AcDbLine
 10
1083.057593369548
 20
488.6983035966752
 30
0.0
 11
1090.74366066529
 21
488.6983035966752
 31
0.0
1001
AcDbBlockRepETag
1070
     1
1071
      125
1005
13D34
  0
LINE
  5
13D35
330
10FE8
100
AcDbEntity
  8
图框
 62
     4
370
    35
100
AcDbLine
 10
1083.057593369548
 20
491.3376852335652
 30
0.0
 11
1090.74366066529
 21
491.3376852335652
 31
0.0
1001
AcDbBlockRepETag
1070
     1
1071
      126
1005
13D35
  0
MTEXT
  5
13D36
330
10FE8
100
AcDbEntity
  8
图框
 62
     1
370
    20
100
AcDbMText
 10
1083.034582879669
 20
491.0506288081688
 30
0.0
 40
2.005930044038334
 41
5.047240019334847
 46
0.0
 71
     1
 72
     5
  1
{\fArial|b0|i0|c0|p34;W}
  7
Chinese
 73
     1
 44
1.0
1001
AcDbBlockRepETag
1070
     1
1071
      127
1005
13D36
  0
LINE
  5
13D37
330
10FE8
100
AcDbEntity
  8
图框
370
    -3
100
AcDbLine
 10
946.9285026103634
 20
490.327427634663
 30
0.0
 11
1036.653967466372
 21
490.327427634663
 31
0.0
1001
AcDbBlockRepETag
1070
     1
1071
      128
1005
13D37
  0
LINE
  5
13D38
330
10FE8
100
AcDbEntity
  8
图框
370
    -3
100
AcDbLine
 10
959.9086139692238
 20
509.2054027581959
 30
0.0
 11
959.9086139692238
 21
484.0347692601515
 31
0.0
1001
AcDbBlockRepETag
1070
     1
1071
      129
1005
13D38
  0
MTEXT
  5
13D39
330
10FE8
100
AcDbEntity
  8
图框
100
AcDbMText
 10
967.6594956750129
 20
506.0590735709403
 30
0.0
 40
2.252848170144607
 41
15.50176341157869
 46
6.292658374511246
 71
     5
 72
     5
  1
姓名{\Fromans|c134;/Name\Ftxt|c134; }
 73
     1
 44
1.0
1001
AcDbBlockRepETag
1070
     1
1071
      130
1005
13D39
1001
ACAD
1000
ACAD_MTEXT_DEFINED_HEIGHT_BEGIN
1070
    46
1040
6.292658374511246
1000
ACAD_MTEXT_DEFINED_HEIGHT_END
  0
MTEXT
  5
13D3A
330
10FE8
100
AcDbEntity
  8
图框
100
AcDbMText
 10
983.0415693332477
 20
506.0590735709403
 30
0.0
 40
2.252848170144607
 41
15.26238390489042
 46
6.2926583745112
 71
     5
 72
     5
  1
日期{\Fromans|c134;/Date}
 73
     1
 44
1.0
1001
AcDbBlockRepETag
1070
     1
1071
      131
1005
13D3A
1001
ACAD
1000
ACAD_MTEXT_DEFINED_HEIGHT_BEGIN
1070
    46
1040
6.2926583745112
1000
ACAD_MTEXT_DEFINED_HEIGHT_END
  0
LINE
  5
13D3B
330
10FE8
100
AcDbEntity
  8
图框
370
    -3
100
AcDbLine
 10
946.9285026103634
 20
509.2054027581959
 30
0.0
 11
959.9086139692238
 21
502.9127443836848
 31
0.0
1001
AcDbBlockRepETag
1070
     1
1071
      132
1005
13D3B
  0
MTEXT
  5
13D3C
330
10FE8
100
AcDbEntity
  8
图框
100
AcDbMText
 10
1012.931405110086
 20
506.0185715840725
 30
0.0
 40
2.252848170144607
 41
16.93492221063566
 46
0.0
 71
     5
 72
     5
  1
姓名{\Fromans|c134;/Name}
 73
     1
 44
1.0
1001
AcDbBlockRepETag
1070
     1
1071
      133
1005
13D3C
  0
MTEXT
  5
13D3D
330
10FE8
100
AcDbEntity
  8
图框
100
AcDbMText
 10
1028.977802139886
 20
506.0590735709403
 30
0.0
 40
2.252848170144607
 41
15.35233065297283
 46
6.292658374511256
 71
     5
 72
     5
  1
日期{\Fromans|c134;/Date}
 73
     1
 44
1.0
1001
AcDbBlockRepETag
1070
     1
1071
      134
1005
13D3D
1001
ACAD
1000
ACAD_MTEXT_DEFINED_HEIGHT_BEGIN
1070
    46
1040
6.292658374511256
1000
ACAD_MTEXT_DEFINED_HEIGHT_END
  0
LINE
  5
13D3E
330
10FE8
100
AcDbEntity
  8
图框
370
    -3
100
AcDbLine
 10
1003.652872644553
 20
502.9127443836848
 30
0.0
 11
990.6727612856927
 21
509.2054027581959
 31
0.0
1001
AcDbBlockRepETag
1070
     1
1071
      135
1005
13D3E
  0
MTEXT
  5
13D3F
102
{ACAD_XDICTIONARY
360
13D89
102
}
330
10FE8
100
AcDbEntity
  8
图框
100
AcDbMText
 10
997.1628169651232
 20
487.1810984474071
 30
0.0
 40
2.252848170144607
 41
12.98011135886052
 46
6.292658374511517
 71
     5
 72
     5
  1
批准\P{\Fromans|c134;Approved}
 73
     1
 44
1.0
1001
AcDbBlockRepETag
1070
     1
1071
      136
1005
13D3F
1001
ACAD
1000
ACAD_MTEXT_DEFINED_HEIGHT_BEGIN
1070
    46
1040
6.292658374511517
1000
ACAD_MTEXT_DEFINED_HEIGHT_END
  0
MTEXT
  5
13D40
102
{ACAD_XDICTIONARY
360
13D8B
102
}
330
10FE8
100
AcDbEntity
  8
图框
100
AcDbMText
 10
953.4185582897936
 20
487.1810984474071
 30
0.0
 40
2.252848170144607
 41
12.98011135886041
 46
6.292658374511495
 71
     5
 72
     5
  1
工艺\P{\Fromans|c134;Process}
 73
     1
 44
1.0
1001
AcDbBlockRepETag
1070
     1
1071
      137
1005
13D40
1001
ACAD
1000
ACAD_MTEXT_DEFINED_HEIGHT_BEGIN
1070
    46
1040
6.292658374511495
1000
ACAD_MTEXT_DEFINED_HEIGHT_END
  0
MTEXT
  5
13D41
102
{ACAD_XDICTIONARY
360
13D8D
102
}
330
10FE8
100
AcDbEntity
  8
图框
100
AcDbMText
 10
1028.977802139886
 20
511.8287965307664
 30
0.0
 40
1.958998408821398
 41
15.3523306529728
 46
5.246787545140668
 71
     5
 72
     5
  1
日期\P{\Fromans|c134;Date}
 73
     1
 44
1.0
1001
AcDbBlockRepETag
1070
     1
1071
      138
1005
13D41
1001
ACAD
1000
ACAD_MTEXT_DEFINED_HEIGHT_BEGIN
1070
    46
1040
5.246787545140668
1000
ACAD_MTEXT_DEFINED_HEIGHT_END
  0
MTEXT
  5
13D42
330
10FE8
100
AcDbEntity
  8
图框
100
AcDbMText
 10
1086.643735910939
 20
509.1493769780809
 30
0.0
 40
2.154898249703542
 41
13.34474941400573
 46
8.87215554796615
 71
     5
 72
     5
  1
产品料号\P{\Fromans|c134;Part No.}
 73
     1
 44
1.0
1001
AcDbBlockRepETag
1070
     1
1071
      139
1005
13D42
1001
ACAD
1000
ACAD_MTEXT_DEFINED_HEIGHT_BEGIN
1070
    46
1040
8.87215554796615
1000
ACAD_MTEXT_DEFINED_HEIGHT_END
  0
MTEXT
  5
13D43
330
10FE8
100
AcDbEntity
  8
图框
100
AcDbMText
 10
1086.643735910939
 20
500.2775205517163
 30
0.0
 40
1.958998408821398
 41
13.34474941400573
 46
8.871557304763321
 71
     5
 72
     5
  1
产品名称\P{\Fromans|c134;Part Name}
 73
     1
 44
1.0
1001
AcDbBlockRepETag
1070
     1
1071
      140
1005
13D43
1001
ACAD
1000
ACAD_MTEXT_DEFINED_HEIGHT_BEGIN
1070
    46
1040
8.871557304763321
1000
ACAD_MTEXT_DEFINED_HEIGHT_END
  0
LINE
  5
13D44
330
10FE8
100
AcDbEntity
  8
图框
 62
     1
370
    18
100
AcDbLine
 10
833.4128518455365
 20
690.5347692601515
 30
0.0
 11
833.4128518455365
 21
480.5347692601515
 31
0.0
1001
AcDbBlockRepETag
1070
     1
1071
      141
1005
13D44
  0
LINE
  5
13D45
330
10FE8
100
AcDbEntity
  8
图框
 62
     1
370
    18
100
AcDbLine
 10
833.4128518455365
 20
480.5347692601515
 30
0.0
 11
1130.411601781236
 21
480.5347692601515
 31
0.0
1001
AcDbBlockRepETag
1070
     1
1071
      142
1005
13D45
  0
LINE
  5
13D46
330
10FE8
100
AcDbEntity
  8
图框
 62
     1
370
    18
100
AcDbLine
 10
833.4128518455365
 20
690.5347692601515
 30
0.0
 11
1130.411601781236
 21
690.5347692601515
 31
0.0
1001
AcDbBlockRepETag
1070
     1
1071
      143
1005
13D46
  0
LINE
  5
13D47
330
10FE8
100
AcDbEntity
  8
图框
 62
     1
370
    18
100
AcDbLine
 10
1130.411601781236
 20
480.5347692601515
 30
0.0
 11
1130.411601781236
 21
690.5347692601515
 31
0.0
1001
AcDbBlockRepETag
1070
     1
1071
      144
1005
13D47
  0
LINE
  5
13D48
330
10FE8
100
AcDbEntity
  8
图框
370
    18
100
AcDbLine
 10
836.9128518455394
 20
686.7901958362482
 30
0.0
 11
861.5351874539182
 21
686.7901958362482
 31
0.0
1001
AcDbBlockRepETag
1070
     1
1071
      145
1005
13D48
  0
LINE
  5
13D49
330
10FE8
100
AcDbEntity
  8
图框
370
    50
100
AcDbLine
 10
1126.928502610363
 20
484.3410054693078
 30
0.0
 11
1126.928502610363
 21
675.5347692601515
 31
0.0
1001
AcDbBlockRepETag
1070
     1
1071
      146
1005
13D49
  0
MTEXT
  5
13D4A
330
10FE8
100
AcDbEntity
  8
图框
 62
     3
100
AcDbMText
 10
1052.897990117958
 20
495.8417418993364
 30
0.0
 40
2.985513575034151
 41
10.82934843439114
 46
7.886094601211307
 71
     5
 72
     5
  1
V1.0
  7
Romans字体
 73
     1
 44
1.0
1001
AcDbBlockRepETag
1070
     1
1071
      147
1005
13D4A
1001
ACAD
1000
ACAD_MTEXT_DEFINED_HEIGHT_BEGIN
1070
    46
1040
7.886094601211307
1000
ACAD_MTEXT_DEFINED_HEIGHT_END
  0
ENDBLK
  5
1107F
330
10FE8
100
AcDbEntity
  8
0
100
AcDbBlockEnd
  0
BLOCK
  5
13A73
330
13A72
100
AcDbEntity
  8
0
100
AcDbBlockBegin
  2
*D2
 70
     1
 10
0.0
 20
0.0
 30
0.0
  3
*D2
  1

  0
LINE
  5
13C08
330
13A72
100
AcDbEntity
  8
DIM
 62
     6
370
    -2
100
AcDbLine
 10
460.5296806142272
 20
378.6861299517656
 30
0.0
 11
460.5296806142272
 21
354.2695003032688
 31
0.0
  0
LINE
  5
13C09
330
13A72
100
AcDbEntity
  8
DIM
 62
     6
370
    -2
100
AcDbLine
 10
406.6296806142267
 20
381.9577337851762
 30
0.0
 11
406.6296806142267
 21
354.2695003032688
 31
0.0
  0
LINE
  5
13C0A
330
13A72
100
AcDbEntity
  8
DIM
 62
     1
370
    -2
100
AcDbLine
 10
457.5296806142273
 20
355.4695003032688
 30
0.0
 11
409.6296806142268
 21
355.4695003032688
 31
0.0
  0
SOLID
  5
13C0B
330
13A72
100
AcDbEntity
  8
DIM
 62
     1
100
AcDbTrace
 10
457.5296806142273
 20
355.9695003032688
 30
0.0
 11
457.5296806142273
 21
354.9695003032689
 31
0.0
 12
460.5296806142272
 22
355.4695003032688
 32
0.0
 13
460.5296806142272
 23
355.4695003032688
 33
0.0
  0
SOLID
  5
13C0C
330
13A72
100
AcDbEntity
  8
DIM
 62
     1
100
AcDbTrace
 10
409.6296806142268
 20
355.9695003032688
 30
0.0
 11
409.6296806142268
 21
354.9695003032689
 31
0.0
 12
406.6296806142267
 22
355.4695003032688
 32
0.0
 13
406.6296806142267
 23
355.4695003032688
 33
0.0
  0
MTEXT
  5
13C0D
330
13A72
100
AcDbEntity
  8
DIM
 62
     4
100
AcDbMText
 10
433.5796806142272
 20
358.0195003032689
 30
0.0
 40
3.5
 41
0.0
 46
0.0
 71
     5
 72
     1
  1
\A1;53.9
  7
Romans字体
 73
     1
 44
1.0
  0
POINT
  5
13C0E
330
13A72
100
AcDbEntity
  8
Defpoints
 62
     0
100
AcDbPoint
 10
460.5296806142272
 20
378.8861299517656
 30
0.0
  0
POINT
  5
13C0F
330
13A72
100
AcDbEntity
  8
Defpoints
 62
     0
100
AcDbPoint
 10
406.6296806142267
 20
382.157733785176
 30
0.0
  0
POINT
  5
13C10
330
13A72
100
AcDbEntity
  8
Defpoints
 62
     0
100
AcDbPoint
 10
406.6296806142267
 20
355.4695003032688
 30
0.0
  0
ENDBLK
  5
13A74
330
13A72
100
AcDbEntity
  8
0
100
AcDbBlockEnd
  0
BLOCK
  5
13A7F
330
13A7E
100
AcDbEntity
  8
0
100
AcDbBlockBegin
  2
*D3
 70
     1
 10
0.0
 20
0.0
 30
0.0
  3
*D3
  1

  0
LINE
  5
13BFF
330
13A7E
100
AcDbEntity
  8
DIM
 62
     6
370
    -2
100
AcDbLine
 10
405.5939601495054
 20
329.3499749469213
 30
0.0
 11
392.3546331894722
 21
329.3499749469213
 31
0.0
  0
LINE
  5
13C00
330
13A7E
100
AcDbEntity
  8
DIM
 62
     6
370
    -2
100
AcDbLine
 10
405.5939601495054
 20
308.7499749469214
 30
0.0
 11
392.3546331894722
 21
308.7499749469214
 31
0.0
  0
LINE
  5
13C01
330
13A7E
100
AcDbEntity
  8
DIM
 62
     1
370
    -2
100
AcDbLine
 10
393.5546331894721
 20
326.3499749469214
 30
0.0
 11
393.5546331894721
 21
311.7499749469214
 31
0.0
  0
SOLID
  5
13C02
330
13A7E
100
AcDbEntity
  8
DIM
 62
     1
100
AcDbTrace
 10
393.0546331894722
 20
326.3499749469214
 30
0.0
 11
394.0546331894722
 21
326.3499749469214
 31
0.0
 12
393.5546331894721
 22
329.3499749469213
 32
0.0
 13
393.5546331894721
 23
329.3499749469213
 33
0.0
  0
SOLID
  5
13C03
330
13A7E
100
AcDbEntity
  8
DIM
 62
     1
100
AcDbTrace
 10
393.0546331894722
 20
311.7499749469214
 30
0.0
 11
394.0546331894722
 21
311.7499749469214
 31
0.0
 12
393.5546331894721
 22
308.7499749469214
 32
0.0
 13
393.5546331894721
 23
308.7499749469214
 33
0.0
  0
MTEXT
  5
13C04
330
13A7E
100
AcDbEntity
  8
DIM
 62
     4
100
AcDbMText
 10
391.0046331894721
 20
319.0499749469215
 30
0.0
 40
3.5
 41
0.0
 46
0.0
 71
     5
 72
     1
  1
\A1;20.6
  7
Romans字体
 11
0.0000000000000001
 21
1.0
 31
0.0
 73
     1
 44
1.0
  0
POINT
  5
13C05
330
13A7E
100
AcDbEntity
  8
Defpoints
 62
     0
100
AcDbPoint
 10
405.7939601495053
 20
329.3499749469213
 30
0.0
  0
POINT
  5
13C06
330
13A7E
100
AcDbEntity
  8
Defpoints
 62
     0
100
AcDbPoint
 10
405.7939601495053
 20
308.7499749469214
 30
0.0
  0
POINT
  5
13C07
330
13A7E
100
AcDbEntity
  8
Defpoints
 62
     0
100
AcDbPoint
 10
393.5546331894721
 20
308.7499749469214
 30
0.0
  0
ENDBLK
  5
13A80
330
13A7E
100
AcDbEntity
  8
0
100
AcDbBlockEnd
  0
BLOCK
  5
13A8B
330
13A8A
100
AcDbEntity
  8
0
100
AcDbBlockBegin
  2
*D4
 70
     1
 10
0.0
 20
0.0
 30
0.0
  3
*D4
  1

  0
LINE
  5
13BF6
330
13A8A
100
AcDbEntity
  8
DIM
 62
     6
370
    -2
100
AcDbLine
 10
419.4375906347262
 20
331.5499749469214
 30
0.0
 11
384.7949376212741
 21
331.5499749469214
 31
0.0
  0
LINE
  5
13BF7
330
13A8A
100
AcDbEntity
  8
DIM
 62
     6
370
    -2
100
AcDbLine
 10
419.4375906347262
 20
306.5499749469213
 30
0.0
 11
384.7949376212741
 21
306.5499749469213
 31
0.0
  0
LINE
  5
13BF8
330
13A8A
100
AcDbEntity
  8
DIM
 62
     1
370
    -2
100
AcDbLine
 10
385.9949376212741
 20
328.5499749469214
 30
0.0
 11
385.9949376212741
 21
309.5499749469214
 31
0.0
  0
SOLID
  5
13BF9
330
13A8A
100
AcDbEntity
  8
DIM
 62
     1
100
AcDbTrace
 10
385.4949376212741
 20
328.5499749469214
 30
0.0
 11
386.4949376212741
 21
328.5499749469214
 31
0.0
 12
385.9949376212741
 22
331.5499749469214
 32
0.0
 13
385.9949376212741
 23
331.5499749469214
 33
0.0
  0
SOLID
  5
13BFA
330
13A8A
100
AcDbEntity
  8
DIM
 62
     1
100
AcDbTrace
 10
385.4949376212741
 20
309.5499749469214
 30
0.0
 11
386.4949376212741
 21
309.5499749469214
 31
0.0
 12
385.9949376212741
 22
306.5499749469213
 32
0.0
 13
385.9949376212741
 23
306.5499749469213
 33
0.0
  0
MTEXT
  5
13BFB
330
13A8A
100
AcDbEntity
  8
DIM
 62
     4
100
AcDbMText
 10
383.4449376212741
 20
319.0499749469215
 30
0.0
 40
3.5
 41
0.0
 46
0.0
 71
     5
 72
     1
  1
\A1;25
  7
Romans字体
 11
0.0000000000000001
 21
1.0
 31
0.0
 73
     1
 44
1.0
  0
POINT
  5
13BFC
330
13A8A
100
AcDbEntity
  8
Defpoints
 62
     0
100
AcDbPoint
 10
419.637590634726
 20
331.5499749469214
 30
0.0
  0
POINT
  5
13BFD
330
13A8A
100
AcDbEntity
  8
Defpoints
 62
     0
100
AcDbPoint
 10
419.637590634726
 20
306.5499749469213
 30
0.0
  0
POINT
  5
13BFE
330
13A8A
100
AcDbEntity
  8
Defpoints
 62
     0
100
AcDbPoint
 10
385.9949376212741
 20
306.5499749469213
 30
0.0
  0
ENDBLK
  5
13A8C
330
13A8A
100
AcDbEntity
  8
0
100
AcDbBlockEnd
  0
BLOCK
  5
13A97
330
13A96
100
AcDbEntity
  8
0
100
AcDbBlockBegin
  2
*D5
 70
     1
 10
0.0
 20
0.0
 30
0.0
  3
*D5
  1

  0
LINE
  5
13BED
330
13A96
100
AcDbEntity
  8
DIM
 62
     6
370
    -2
100
AcDbLine
 10
402.1296806142268
 20
379.4577337851762
 30
0.0
 11
402.1296806142268
 21
348.4961288671311
 31
0.0
  0
LINE
  5
13BEE
330
13A96
100
AcDbEntity
  8
DIM
 62
     6
370
    -2
100
AcDbLine
 10
460.5296806142272
 20
381.7926998036512
 30
0.0
 11
460.5296806142272
 21
348.4961288671311
 31
0.0
  0
LINE
  5
13BEF
330
13A96
100
AcDbEntity
  8
DIM
 62
     1
370
    -2
100
AcDbLine
 10
405.1296806142268
 20
349.6961288671311
 30
0.0
 11
457.5296806142273
 21
349.6961288671311
 31
0.0
  0
SOLID
  5
13BF0
330
13A96
100
AcDbEntity
  8
DIM
 62
     1
100
AcDbTrace
 10
405.1296806142268
 20
350.1961288671311
 30
0.0
 11
405.1296806142268
 21
349.1961288671311
 31
0.0
 12
402.1296806142268
 22
349.6961288671311
 32
0.0
 13
402.1296806142268
 23
349.6961288671311
 33
0.0
  0
SOLID
  5
13BF1
330
13A96
100
AcDbEntity
  8
DIM
 62
     1
100
AcDbTrace
 10
457.5296806142273
 20
350.1961288671311
 30
0.0
 11
457.5296806142273
 21
349.1961288671311
 31
0.0
 12
460.5296806142272
 22
349.6961288671311
 32
0.0
 13
460.5296806142272
 23
349.6961288671311
 33
0.0
  0
MTEXT
  5
13BF2
330
13A96
100
AcDbEntity
  8
DIM
 62
     4
100
AcDbMText
 10
431.3296806142272
 20
352.2461288671311
 30
0.0
 40
3.5
 41
0.0
 46
0.0
 71
     5
 72
     1
  1
\A1;58.4
  7
Romans字体
 73
     1
 44
1.0
  0
POINT
  5
13BF3
330
13A96
100
AcDbEntity
  8
Defpoints
 62
     0
100
AcDbPoint
 10
402.1296806142268
 20
379.657733785176
 30
0.0
  0
POINT
  5
13BF4
330
13A96
100
AcDbEntity
  8
Defpoints
 62
     0
100
AcDbPoint
 10
460.5296806142272
 20
381.9926998036511
 30
0.0
  0
POINT
  5
13BF5
330
13A96
100
AcDbEntity
  8
Defpoints
 62
     0
100
AcDbPoint
 10
460.5296806142272
 20
349.6961288671311
 30
0.0
  0
ENDBLK
  5
13A98
330
13A96
100
AcDbEntity
  8
0
100
AcDbBlockEnd
  0
BLOCK
  5
13AA3
330
13AA2
100
AcDbEntity
  8
0
100
AcDbBlockBegin
  2
*D6
 70
     1
 10
0.0
 20
0.0
 30
0.0
  3
*D6
  1

  0
LINE
  5
13BE4
330
13AA2
100
AcDbEntity
  8
DIM
 62
     6
370
    -2
100
AcDbLine
 10
404.9154237311483
 20
418.3577337851758
 30
0.0
 11
391.3795242027573
 21
418.3577337851758
 31
0.0
  0
LINE
  5
13BE5
330
13AA2
100
AcDbEntity
  8
DIM
 62
     6
370
    -2
100
AcDbLine
 10
404.9154237311483
 20
379.657733785176
 30
0.0
 11
391.3795242027572
 21
379.657733785176
 31
0.0
  0
LINE
  5
13BE6
330
13AA2
100
AcDbEntity
  8
DIM
 62
     1
370
    -2
100
AcDbLine
 10
392.5795242027573
 20
415.357733785176
 30
0.0
 11
392.5795242027573
 21
382.6577337851762
 31
0.0
  0
SOLID
  5
13BE7
330
13AA2
100
AcDbEntity
  8
DIM
 62
     1
100
AcDbTrace
 10
392.0795242027572
 20
415.357733785176
 30
0.0
 11
393.0795242027572
 21
415.357733785176
 31
0.0
 12
392.5795242027573
 22
418.3577337851758
 32
0.0
 13
392.5795242027573
 23
418.3577337851758
 33
0.0
  0
SOLID
  5
13BE8
330
13AA2
100
AcDbEntity
  8
DIM
 62
     1
100
AcDbTrace
 10
392.0795242027572
 20
382.6577337851762
 30
0.0
 11
393.0795242027572
 21
382.6577337851762
 31
0.0
 12
392.5795242027573
 22
379.657733785176
 32
0.0
 13
392.5795242027573
 23
379.657733785176
 33
0.0
  0
MTEXT
  5
13BE9
330
13AA2
100
AcDbEntity
  8
DIM
 62
     4
100
AcDbMText
 10
390.0295242027571
 20
399.0077337851762
 30
0.0
 40
3.5
 41
0.0
 46
0.0
 71
     5
 72
     1
  1
\A1;38.7
  7
Romans字体
 11
0.0000000000000001
 21
1.0
 31
0.0
 73
     1
 44
1.0
  0
POINT
  5
13BEA
330
13AA2
100
AcDbEntity
  8
Defpoints
 62
     0
100
AcDbPoint
 10
405.1154237311483
 20
418.3577337851758
 30
0.0
  0
POINT
  5
13BEB
330
13AA2
100
AcDbEntity
  8
Defpoints
 62
     0
100
AcDbPoint
 10
405.1154237311483
 20
379.657733785176
 30
0.0
  0
POINT
  5
13BEC
330
13AA2
100
AcDbEntity
  8
Defpoints
 62
     0
100
AcDbPoint
 10
392.5795242027573
 20
379.657733785176
 30
0.0
  0
ENDBLK
  5
13AA4
330
13AA2
100
AcDbEntity
  8
0
100
AcDbBlockEnd
  0
ENDSEC
  0
SECTION
  2
ENTITIES
  0
HATCH
  5
28AE
330
1F
100
AcDbEntity
  8
图层 1
 62
     7
100
AcDbHatch
 10
0.0
 20
0.0
 30
0.0
210
0.0
220
0.0
230
1.0
  2
SOLID
 70
     1
 71
     0
 91
        1
 92
        1
 93
        2
 72
     4
 94
        3
 73
     0
 74
     0
 95
       17
 96
       13
 40
0.0
 40
0.0
 40
0.0
 40
0.0
 40
0.3527780104152769
 40
0.3527780104152769
 40
0.3527780104152769
 40
0.7055560208305538
 40
0.7055560208305538
 40
0.7055560208305538
 40
1.058334031245828
 40
1.058334031245828
 40
1.058334031245828
 40
1.411112041661104
 40
1.411112041661104
 40
1.411112041661104
 40
1.411112041661104
 10
11.07013262565829
 20
29.50312817963231
 10
11.07013262565829
 20
29.50312817963231
 10
10.9431807732774
 20
29.50312817963231
 10
10.9431807732774
 20
29.50312817963231
 10
10.9431807732774
 20
29.50312817963231
 10
10.85843136843155
 20
29.22786486877117
 10
10.85843136843155
 20
29.22786486877117
 10
10.85843136843155
 20
29.22786486877117
 10
10.90080607085448
 20
29.2068497724476
 10
10.90080607085448
 20
29.2068497724476
 10
10.94455881238059
 20
29.31571486159919
 10
11.00346998404173
 20
29.40907701083995
 10
11.07013262565829
 20
29.50312817963231
 72
     1
 10
11.07013262565829
 20
29.50312817963231
 11
11.07013262565829
 21
29.50312817963231
 97
        0
 75
     0
 76
     1
 98
        0
450
        0
451
        0
460
0.0
461
0.0
452
        0
462
0.0
453
        0
470

  0
HATCH
  5
2C65
330
1F
100
AcDbEntity
  8
图层 1
 62
     7
100
AcDbHatch
 10
0.0
 20
0.0
 30
0.0
210
0.0
220
0.0
230
1.0
  2
SOLID
 70
     1
 71
     0
 91
        1
 92
        1
 93
        2
 72
     4
 94
        3
 73
     0
 74
     0
 95
       47
 96
       43
 40
0.0
 40
0.0
 40
0.0
 40
0.0
 40
0.3527780104152769
 40
0.3527780104152769
 40
0.3527780104152769
 40
0.7055560208305538
 40
0.7055560208305538
 40
0.7055560208305538
 40
1.058334031245828
 40
1.058334031245828
 40
1.058334031245828
 40
1.411112041661104
 40
1.411112041661104
 40
1.411112041661104
 40
1.763890052076384
 40
1.763890052076384
 40
1.763890052076384
 40
2.116668062491659
 40
2.116668062491659
 40
2.116668062491659
 40
2.469446072906936
 40
2.469446072906936
 40
2.469446072906936
 40
2.822224083322215
 40
2.822224083322215
 40
2.822224083322215
 40
3.175002093737492
 40
3.175002093737492
 40
3.175002093737492
 40
3.527780104152768
 40
3.527780104152768
 40
3.527780104152768
 40
3.880558114568044
 40
3.880558114568044
 40
3.880558114568044
 40
4.233336124983321
 40
4.233336124983321
 40
4.233336124983321
 40
4.586114135398599
 40
4.586114135398599
 40
4.586114135398599
 40
4.938892145813873
 40
4.938892145813873
 40
4.938892145813873
 40
4.938892145813873
 10
162.8986914070121
 20
257.4895347631509
 10
162.8986914070121
 20
257.4895347631509
 10
162.9200510131114
 20
257.4471600607279
 10
162.9200510131114
 20
257.4471600607279
 10
162.9200510131114
 20
257.4471600607279
 10
162.9200510131114
 20
257.404785358305
 10
162.9200510131114
 20
257.404785358305
 10
162.9200510131114
 20
257.404785358305
 10
162.8986914070121
 20
257.36258291077
 10
162.8986914070121
 20
257.36258291077
 10
162.8986914070121
 20
257.36258291077
 10
162.8986914070121
 20
257.320208208347
 10
162.8986914070121
 20
257.320208208347
 10
162.8986914070121
 20
257.320208208347
 10
162.8563167045891
 20
257.2990208571356
 10
162.8563167045891
 20
257.2990208571356
 10
162.8563167045891
 20
257.2990208571356
 10
162.8139420021662
 20
257.2563016449369
 10
162.8139420021662
 20
257.2563016449369
 10
162.8139420021662
 20
257.2563016449369
 10
162.7295371070961
 20
257.2563016449369
 10
162.7295371070961
 20
257.2563016449369
 10
162.7295371070961
 20
257.2563016449369
 10
162.6658027985738
 20
257.2778335059241
 10
162.6658027985738
 20
257.2778335059241
 10
162.6658027985738
 20
257.2778335059241
 10
162.6237726059267
 20
257.2990208571356
 10
162.6237726059267
 20
257.2990208571356
 10
162.6237726059267
 20
257.2990208571356
 10
162.5813979035038
 20
257.3413955595585
 10
162.5813979035038
 20
257.3413955595585
 10
162.5813979035038
 20
257.3413955595585
 10
162.5813979035038
 20
257.4895347631509
 10
162.5813979035038
 20
257.4895347631509
 10
162.5813979035038
 20
257.4895347631509
 10
162.6447877022503
 20
257.5525800521216
 10
162.6447877022503
 20
257.5525800521216
 10
162.6447877022503
 20
257.5525800521216
 10
162.7081775009967
 20
257.5525800521216
 10
162.7081775009967
 20
257.5525800521216
 10
162.8749202324821
 20
257.5424170137356
 10
162.7918933765152
 20
257.5939212252171
 10
162.8986914070121
 20
257.4895347631509
 72
     1
 10
162.8986914070121
 20
257.4895347631509
 11
162.8986914070121
 21
257.4895347631509
 97
        0
 75
     0
 76
     1
 98
        0
450
        0
451
        0
460
0.0
461
0.0
452
        0
462
0.0
453
        0
470

  0
HATCH
  5
2EE7
330
1F
100
AcDbEntity
  8
图层 1
 62
     7
100
AcDbHatch
 10
0.0
 20
0.0
 30
0.0
210
0.0
220
0.0
230
1.0
  2
SOLID
 70
     1
 71
     0
 91
        1
 92
        1
 93
        2
 72
     4
 94
        3
 73
     0
 74
     0
 95
       56
 96
       52
 40
0.0
 40
0.0
 40
0.0
 40
0.0
 40
0.3527780104152769
 40
0.3527780104152769
 40
0.3527780104152769
 40
0.7055560208305538
 40
0.7055560208305538
 40
0.7055560208305538
 40
1.058334031245828
 40
1.058334031245828
 40
1.058334031245828
 40
1.411112041661104
 40
1.411112041661104
 40
1.411112041661104
 40
1.763890052076384
 40
1.763890052076384
 40
1.763890052076384
 40
2.116668062491659
 40
2.116668062491659
 40
2.116668062491659
 40
2.469446072906936
 40
2.469446072906936
 40
2.469446072906936
 40
2.822224083322215
 40
2.822224083322215
 40
2.822224083322215
 40
3.175002093737492
 40
3.175002093737492
 40
3.175002093737492
 40
3.527780104152768
 40
3.527780104152768
 40
3.527780104152768
 40
3.880558114568044
 40
3.880558114568044
 40
3.880558114568044
 40
4.233336124983321
 40
4.233336124983321
 40
4.233336124983321
 40
4.586114135398599
 40
4.586114135398599
 40
4.586114135398599
 40
4.938892145813873
 40
4.938892145813873
 40
4.938892145813873
 40
5.291670156229153
 40
5.291670156229153
 40
5.291670156229153
 40
5.64444816664443
 40
5.64444816664443
 40
5.64444816664443
 40
5.997226177059705
 40
5.997226177059705
 40
5.997226177059705
 40
5.997226177059705
 10
185.4837187788815
 20
241.4451977396596
 10
185.4837187788815
 20
241.4451977396596
 10
185.4837187788815
 20
241.4028230372367
 10
185.4837187788815
 20
241.4028230372367
 10
185.4837187788815
 20
241.4028230372367
 10
185.5047338752051
 20
241.3604483348137
 10
185.5047338752051
 20
241.3604483348137
 10
185.4520238795082
 20
241.2782827532863
 10
185.4671823096433
 20
241.1897437409066
 10
185.335579575289
 20
241.2119646214456
 10
185.335579575289
 20
241.2119646214456
 10
185.2932048728662
 20
241.2119646214456
 10
185.2932048728662
 20
241.2119646214456
 10
185.2932048728662
 20
241.2119646214456
 10
185.2294705643439
 20
241.2334964824328
 10
185.2294705643439
 20
241.2334964824328
 10
185.2294705643439
 20
241.2334964824328
 10
185.1660807655974
 20
241.2543393238685
 10
185.1660807655974
 20
241.2543393238685
 10
185.1660807655974
 20
241.2543393238685
 10
185.1450656692739
 20
241.2758711848558
 10
185.1450656692739
 20
241.2758711848558
 10
185.1450656692739
 20
241.2758711848558
 10
185.1450656692739
 20
241.2967140262914
 10
185.1450656692739
 20
241.2967140262914
 10
185.1450656692739
 20
241.2967140262914
 10
185.1237060631745
 20
241.3604483348137
 10
185.1237060631745
 20
241.3604483348137
 10
185.1237060631745
 20
241.3604483348137
 10
185.1237060631745
 20
241.4028230372367
 10
185.1237060631745
 20
241.4028230372367
 10
185.1237060631745
 20
241.4028230372367
 10
185.1660807655974
 20
241.4875724420825
 10
185.1660807655974
 20
241.4875724420825
 10
185.1660807655974
 20
241.4875724420825
 10
185.2084554680203
 20
241.5085875384061
 10
185.2084554680203
 20
241.5085875384061
 10
185.2084554680203
 20
241.5085875384061
 10
185.2718452667668
 20
241.5297748896175
 10
185.2718452667668
 20
241.5297748896175
 10
185.2718452667668
 20
241.5297748896175
 10
185.3565946716127
 20
241.5297748896175
 10
185.3565946716127
 20
241.5297748896175
 10
185.3565946716127
 20
241.5297748896175
 10
185.4199844703592
 20
241.5085875384061
 10
185.4199844703592
 20
241.5085875384061
 10
185.4199844703592
 20
241.5085875384061
 10
185.4623591727821
 20
241.4875724420825
 10
185.4623591727821
 20
241.4875724420825
 10
185.4623591727821
 20
241.4875724420825
 10
185.4837187788815
 20
241.4451977396596
 10
185.4837187788815
 20
241.4451977396596
 72
     1
 10
185.4837187788815
 20
241.4451977396596
 11
185.4837187788815
 21
241.4451977396596
 97
        0
 75
     0
 76
     1
 98
        0
450
        0
451
        0
460
0.0
461
0.0
452
        0
462
0.0
453
        0
470

  0
HATCH
  5
2F93
330
1F
100
AcDbEntity
  8
图层 1
 62
     7
100
AcDbHatch
 10
0.0
 20
0.0
 30
0.0
210
0.0
220
0.0
230
1.0
  2
SOLID
 70
     1
 71
     0
 91
        1
 92
        1
 93
        2
 72
     4
 94
        3
 73
     0
 74
     0
 95
       38
 96
       34
 40
0.0
 40
0.0
 40
0.0
 40
0.0
 40
0.3527780104152769
 40
0.3527780104152769
 40
0.3527780104152769
 40
0.7055560208305538
 40
0.7055560208305538
 40
0.7055560208305538
 40
1.058334031245828
 40
1.058334031245828
 40
1.058334031245828
 40
1.411112041661104
 40
1.411112041661104
 40
1.411112041661104
 40
1.763890052076384
 40
1.763890052076384
 40
1.763890052076384
 40
2.116668062491659
 40
2.116668062491659
 40
2.116668062491659
 40
2.469446072906936
 40
2.469446072906936
 40
2.469446072906936
 40
2.822224083322215
 40
2.822224083322215
 40
2.822224083322215
 40
3.175002093737492
 40
3.175002093737492
 40
3.175002093737492
 40
3.527780104152768
 40
3.527780104152768
 40
3.527780104152768
 40
3.880558114568044
 40
3.880558114568044
 40
3.880558114568044
 40
3.880558114568044
 10
185.907121293335
 20
220.1937677098971
 10
185.9005756075949
 20
220.0449394867532
 10
185.9329595265197
 20
220.1136691870245
 10
185.864746590912
 20
219.9817219428946
 10
185.864746590912
 20
219.9817219428946
 10
185.822371888489
 20
219.9605345916831
 10
185.822371888489
 20
219.9605345916831
 10
185.822371888489
 20
219.9605345916831
 10
185.6528730787974
 20
219.9605345916831
 10
185.6528730787974
 20
219.9605345916831
 10
185.6528730787974
 20
219.9605345916831
 10
185.5894832800509
 20
220.002909294106
 10
185.5894832800509
 20
220.002909294106
 10
185.5894832800509
 20
220.002909294106
 10
185.5681236739515
 20
220.0240966453175
 10
185.5681236739515
 20
220.0240966453175
 10
185.5681236739515
 20
220.0240966453175
 10
185.5681236739515
 20
220.045283996529
 10
185.5681236739515
 20
220.045283996529
 10
185.5681236739515
 20
220.045283996529
 10
185.547108577628
 20
220.0876586989519
 10
185.547108577628
 20
220.0876586989519
 10
185.547108577628
 20
220.0876586989519
 10
185.547108577628
 20
220.1513930074742
 10
185.547108577628
 20
220.1513930074742
 10
185.547108577628
 20
220.1513930074742
 10
185.5894832800509
 20
220.23614241232
 10
185.5894832800509
 20
220.23614241232
 10
185.5894832800509
 20
220.23614241232
 10
185.6318579824738
 20
220.2573297635315
 10
185.6318579824738
 20
220.2573297635315
 10
185.7055830744942
 20
220.2566407439799
 10
185.8416644359337
 20
220.3310548555519
 10
185.907121293335
 20
220.1937677098971
 72
     1
 10
185.907121293335
 20
220.1937677098971
 11
185.907121293335
 21
220.1937677098971
 97
        0
 75
     0
 76
     1
 98
        0
450
        0
451
        0
460
0.0
461
0.0
452
        0
462
0.0
453
        0
470

  0
HATCH
  5
2FDE
330
1F
100
AcDbEntity
  8
图层 1
 62
     7
100
AcDbHatch
 10
0.0
 20
0.0
 30
0.0
210
0.0
220
0.0
230
1.0
  2
SOLID
 70
     1
 71
     0
 91
        1
 92
        1
 93
        2
 72
     4
 94
        3
 73
     0
 74
     0
 95
       50
 96
       46
 40
0.0
 40
0.0
 40
0.0
 40
0.0
 40
0.3527780104152769
 40
0.3527780104152769
 40
0.3527780104152769
 40
0.7055560208305538
 40
0.7055560208305538
 40
0.7055560208305538
 40
1.058334031245828
 40
1.058334031245828
 40
1.058334031245828
 40
1.411112041661104
 40
1.411112041661104
 40
1.411112041661104
 40
1.763890052076384
 40
1.763890052076384
 40
1.763890052076384
 40
2.116668062491659
 40
2.116668062491659
 40
2.116668062491659
 40
2.469446072906936
 40
2.469446072906936
 40
2.469446072906936
 40
2.822224083322215
 40
2.822224083322215
 40
2.822224083322215
 40
3.175002093737492
 40
3.175002093737492
 40
3.175002093737492
 40
3.527780104152768
 40
3.527780104152768
 40
3.527780104152768
 40
3.880558114568044
 40
3.880558114568044
 40
3.880558114568044
 40
4.233336124983321
 40
4.233336124983321
 40
4.233336124983321
 40
4.586114135398599
 40
4.586114135398599
 40
4.586114135398599
 40
4.938892145813873
 40
4.938892145813873
 40
4.938892145813873
 40
5.291670156229153
 40
5.291670156229153
 40
5.291670156229153
 40
5.291670156229153
 10
180.9117295442905
 20
208.9327766684477
 10
180.9117295442905
 20
208.9327766684477
 10
180.9117295442905
 20
208.7637946234197
 10
180.9117295442905
 20
208.7637946234197
 10
181.2273004989198
 20
208.6749111012643
 10
181.3833634273555
 20
208.6776671794706
 10
181.6948002646751
 20
208.5097186637701
 10
181.9542161258496
 20
208.4294478860095
 10
182.1388733656765
 20
208.2134402565853
 10
182.3297317814676
 20
208.02292635057
 10
182.3297317814676
 20
208.02292635057
 10
182.435496282637
 20
208.065301052993
 10
182.435496282637
 20
208.065301052993
 10
182.288390608372
 20
208.2733849575739
 10
182.3752070718726
 20
208.2134402565853
 10
182.1605774815516
 20
208.3824223016133
 10
182.1605774815516
 20
208.3824223016133
 10
182.1182027791287
 20
208.4247970040363
 10
182.1182027791287
 20
208.4247970040363
 10
182.1182027791287
 20
208.4247970040363
 10
182.0968431730294
 20
208.467516216235
 10
182.0968431730294
 20
208.467516216235
 10
182.0968431730294
 20
208.467516216235
 10
182.0544684706064
 20
208.4883590576707
 10
182.0544684706064
 20
208.4883590576707
 10
182.0544684706064
 20
208.4883590576707
 10
181.9910786718599
 20
208.5305615052057
 10
181.9910786718599
 20
208.5305615052057
 10
181.9910786718599
 20
208.5305615052057
 10
181.948703969437
 20
208.552093366193
 10
181.948703969437
 20
208.552093366193
 10
181.948703969437
 20
208.552093366193
 10
181.9063292670141
 20
208.5729362076286
 10
181.9063292670141
 20
208.5729362076286
 10
181.9063292670141
 20
208.5729362076286
 10
181.8639545645911
 20
208.6156554198274
 10
181.8639545645911
 20
208.6156554198274
 10
181.8639545645911
 20
208.6156554198274
 10
181.821924371944
 20
208.6368427710388
 10
181.821924371944
 20
208.6368427710388
 10
181.6637943848536
 20
208.6742220817127
 10
181.5452830219797
 20
208.8092699138248
 10
181.3771622513911
 20
208.8061693258427
 10
181.2803550043924
 20
208.8573290275484
 10
181.0126709085988
 20
208.8971199066528
 10
180.9117295442905
 20
208.9327766684477
 72
     1
 10
180.9117295442905
 20
208.9327766684477
 11
180.9117295442905
 21
208.9327766684477
 97
        0
 75
     0
 76
     1
 98
        0
450
        0
451
        0
460
0.0
461
0.0
452
        0
462
0.0
453
        0
470

  0
HATCH
  5
35C8
330
1F
100
AcDbEntity
  8
图层 1
 62
     7
100
AcDbHatch
 10
0.0
 20
0.0
 30
0.0
210
0.0
220
0.0
230
1.0
  2
SOLID
 70
     1
 71
     0
 91
        1
 92
        1
 93
        2
 72
     4
 94
        3
 73
     0
 74
     0
 95
       38
 96
       34
 40
0.0
 40
0.0
 40
0.0
 40
0.0
 40
0.3527780104152769
 40
0.3527780104152769
 40
0.3527780104152769
 40
0.7055560208305538
 40
0.7055560208305538
 40
0.7055560208305538
 40
1.058334031245828
 40
1.058334031245828
 40
1.058334031245828
 40
1.411112041661104
 40
1.411112041661104
 40
1.411112041661104
 40
1.763890052076384
 40
1.763890052076384
 40
1.763890052076384
 40
2.116668062491659
 40
2.116668062491659
 40
2.116668062491659
 40
2.469446072906936
 40
2.469446072906936
 40
2.469446072906936
 40
2.822224083322215
 40
2.822224083322215
 40
2.822224083322215
 40
3.175002093737492
 40
3.175002093737492
 40
3.175002093737492
 40
3.527780104152768
 40
3.527780104152768
 40
3.527780104152768
 40
3.880558114568044
 40
3.880558114568044
 40
3.880558114568044
 40
3.880558114568044
 10
189.145513185819
 20
166.8326485368285
 10
189.207869455238
 20
166.740492171803
 10
189.1317327947871
 20
166.6833035490209
 10
189.103138483396
 20
166.6209472796017
 10
189.103138483396
 20
166.6209472796017
 10
189.0607637809731
 20
166.5997599283903
 10
189.0607637809731
 20
166.5997599283903
 10
189.0607637809731
 20
166.5997599283903
 10
188.9973739822266
 20
166.5785725771788
 10
188.9973739822266
 20
166.5785725771788
 10
188.9973739822266
 20
166.5785725771788
 10
188.9549992798037
 20
166.5997599283903
 10
188.9549992798037
 20
166.5997599283903
 10
188.9549992798037
 20
166.5997599283903
 10
188.8916094810572
 20
166.5997599283903
 10
188.8916094810572
 20
166.5997599283903
 10
188.8916094810572
 20
166.5997599283903
 10
188.8492347786343
 20
166.6209472796017
 10
188.8492347786343
 20
166.6209472796017
 10
188.8492347786343
 20
166.6209472796017
 10
188.8278751725349
 20
166.6633219820247
 10
188.8278751725349
 20
166.6633219820247
 10
188.8278751725349
 20
166.6633219820247
 10
188.8068600762114
 20
166.6845093332361
 10
188.8068600762114
 20
166.6845093332361
 10
188.8068600762114
 20
166.6845093332361
 10
188.8068600762114
 20
166.8326485368285
 10
188.8068600762114
 20
166.8326485368285
 10
188.8068600762114
 20
166.8326485368285
 10
188.8702498749578
 20
166.896038335575
 10
188.8702498749578
 20
166.896038335575
 10
189.0228677056355
 20
166.8819134347673
 10
189.0686875058164
 20
166.9411691162043
 10
189.145513185819
 20
166.8326485368285
 72
     1
 10
189.145513185819
 20
166.8326485368285
 11
189.145513185819
 21
166.8326485368285
 97
        0
 75
     0
 76
     1
 98
        0
450
        0
451
        0
460
0.0
461
0.0
452
        0
462
0.0
453
        0
470

  0
HATCH
  5
35D8
330
1F
100
AcDbEntity
  8
图层 1
 62
     7
100
AcDbHatch
 10
0.0
 20
0.0
 30
0.0
210
0.0
220
0.0
230
1.0
  2
SOLID
 70
     1
 71
     0
 91
        1
 92
        1
 93
        2
 72
     4
 94
        3
 73
     0
 74
     0
 95
       68
 96
       64
 40
0.0
 40
0.0
 40
0.0
 40
0.0
 40
0.3527780104152769
 40
0.3527780104152769
 40
0.3527780104152769
 40
0.7055560208305538
 40
0.7055560208305538
 40
0.7055560208305538
 40
1.058334031245828
 40
1.058334031245828
 40
1.058334031245828
 40
1.411112041661104
 40
1.411112041661104
 40
1.411112041661104
 40
1.763890052076384
 40
1.763890052076384
 40
1.763890052076384
 40
2.116668062491659
 40
2.116668062491659
 40
2.116668062491659
 40
2.469446072906936
 40
2.469446072906936
 40
2.469446072906936
 40
2.822224083322215
 40
2.822224083322215
 40
2.822224083322215
 40
3.175002093737492
 40
3.175002093737492
 40
3.175002093737492
 40
3.527780104152768
 40
3.527780104152768
 40
3.527780104152768
 40
3.880558114568044
 40
3.880558114568044
 40
3.880558114568044
 40
4.233336124983321
 40
4.233336124983321
 40
4.233336124983321
 40
4.586114135398599
 40
4.586114135398599
 40
4.586114135398599
 40
4.938892145813873
 40
4.938892145813873
 40
4.938892145813873
 40
5.291670156229153
 40
5.291670156229153
 40
5.291670156229153
 40
5.64444816664443
 40
5.64444816664443
 40
5.64444816664443
 40
5.997226177059705
 40
5.997226177059705
 40
5.997226177059705
 40
6.350004187474984
 40
6.350004187474984
 40
6.350004187474984
 40
6.702782197890257
 40
6.702782197890257
 40
6.702782197890257
 40
7.055560208305537
 40
7.055560208305537
 40
7.055560208305537
 40
7.408338218720808
 40
7.408338218720808
 40
7.408338218720808
 40
7.408338218720808
 10
174.7732543591544
 20
135.4846705078077
 10
174.7732543591544
 20
135.4846705078077
 10
174.7732543591544
 20
135.3789060066383
 10
174.7732543591544
 20
135.3789060066383
 10
174.7732543591544
 20
135.3789060066383
 10
174.8156290615773
 20
135.3789060066383
 10
174.8156290615773
 20
135.3789060066383
 10
174.8156290615773
 20
135.3789060066383
 10
174.8580037640002
 20
135.3578909103147
 10
174.8580037640002
 20
135.3578909103147
 10
174.8580037640002
 20
135.3578909103147
 10
174.9213935627468
 20
135.3578909103147
 10
174.9213935627468
 20
135.3578909103147
 10
174.9213935627468
 20
135.3578909103147
 10
174.9637682651697
 20
135.3365313042154
 10
174.9637682651697
 20
135.3365313042154
 10
174.9637682651697
 20
135.3365313042154
 10
174.9847833614933
 20
135.3365313042154
 10
174.9847833614933
 20
135.3365313042154
 10
174.9847833614933
 20
135.3365313042154
 10
175.0271580639162
 20
135.3155162078918
 10
175.0271580639162
 20
135.3155162078918
 10
175.0271580639162
 20
135.3155162078918
 10
175.0485176700155
 20
135.2941566017924
 10
175.0485176700155
 20
135.2941566017924
 10
175.0485176700155
 20
135.2941566017924
 10
175.0695327663391
 20
135.2941566017924
 10
175.0695327663391
 20
135.2941566017924
 10
175.0695327663391
 20
135.2941566017924
 10
175.0908923724385
 20
135.2731415054689
 10
175.0908923724385
 20
135.2731415054689
 10
175.0908923724385
 20
135.2731415054689
 10
175.1332670748614
 20
135.2731415054689
 10
175.1332670748614
 20
135.2731415054689
 10
175.1332670748614
 20
135.2731415054689
 10
175.154282171185
 20
135.2517818993695
 10
175.154282171185
 20
135.2517818993695
 10
175.154282171185
 20
135.2517818993695
 10
175.154282171185
 20
135.3578909103147
 10
175.154282171185
 20
135.3578909103147
 10
175.154282171185
 20
135.3578909103147
 10
175.1332670748614
 20
135.3789060066383
 10
175.1332670748614
 20
135.3789060066383
 10
175.1332670748614
 20
135.3789060066383
 10
175.0908923724385
 20
135.3789060066383
 10
175.0908923724385
 20
135.3789060066383
 10
175.0908923724385
 20
135.3789060066383
 10
175.0908923724385
 20
135.3999211029619
 10
175.0908923724385
 20
135.3999211029619
 10
175.0908923724385
 20
135.3999211029619
 10
175.0695327663391
 20
135.3999211029619
 10
175.0695327663391
 20
135.3999211029619
 10
175.0695327663391
 20
135.3999211029619
 10
175.0271580639162
 20
135.4212807090612
 10
175.0271580639162
 20
135.4212807090612
 10
175.0271580639162
 20
135.4212807090612
 10
175.0061429675926
 20
135.4212807090612
 10
175.0061429675926
 20
135.4212807090612
 10
175.0061429675926
 20
135.4212807090612
 10
174.9637682651697
 20
135.4422958053848
 10
174.9637682651697
 20
135.4422958053848
 10
174.8996894468716
 20
135.4498750204523
 10
174.8394002361073
 20
135.4860485469109
 10
174.7732543591544
 20
135.4846705078077
 72
     1
 10
174.7732543591544
 20
135.4846705078077
 11
174.7732543591544
 21
135.4846705078077
 97
        0
 75
     0
 76
     1
 98
        0
450
        0
451
        0
460
0.0
461
0.0
452
        0
462
0.0
453
        0
470

  0
HATCH
  5
3807
330
1F
100
AcDbEntity
  8
图层 1
 62
     7
100
AcDbHatch
 10
0.0
 20
0.0
 30
0.0
210
0.0
220
0.0
230
1.0
  2
SOLID
 70
     1
 71
     0
 91
        1
 92
        1
 93
        2
 72
     4
 94
        3
 73
     0
 74
     0
 95
       29
 96
       25
 40
0.0
 40
0.0
 40
0.0
 40
0.0
 40
0.3527780104152769
 40
0.3527780104152769
 40
0.3527780104152769
 40
0.7055560208305538
 40
0.7055560208305538
 40
0.7055560208305538
 40
1.058334031245828
 40
1.058334031245828
 40
1.058334031245828
 40
1.411112041661104
 40
1.411112041661104
 40
1.411112041661104
 40
1.763890052076384
 40
1.763890052076384
 40
1.763890052076384
 40
2.116668062491659
 40
2.116668062491659
 40
2.116668062491659
 40
2.469446072906936
 40
2.469446072906936
 40
2.469446072906936
 40
2.822224083322215
 40
2.822224083322215
 40
2.822224083322215
 40
2.822224083322215
 10
175.4929352807925
 20
164.0174869039101
 10
175.4929352807925
 20
164.0174869039101
 10
175.5139503771161
 20
163.9751122014871
 10
175.5139503771161
 20
163.9751122014871
 10
175.5139503771161
 20
163.9751122014871
 10
175.5139503771161
 20
163.9327374990642
 10
175.5139503771161
 20
163.9327374990642
 10
175.5139503771161
 20
163.9327374990642
 10
175.4929352807925
 20
163.8903627966413
 10
175.4929352807925
 20
163.8903627966413
 10
175.4929352807925
 20
163.8903627966413
 10
175.471920184469
 20
163.8691754454298
 10
175.471920184469
 20
163.8691754454298
 10
175.471920184469
 20
163.8691754454298
 10
175.4505605783696
 20
163.8269729978948
 10
175.4505605783696
 20
163.8269729978948
 10
175.3571984291289
 20
163.7715069239916
 10
175.272449024283
 20
163.8195660377152
 10
175.1966568736079
 20
163.8691754454298
 10
175.208370205985
 20
163.9930267098286
 10
175.1563492298397
 20
164.0216210212197
 10
175.2600466723544
 20
164.0596893514451
 10
175.3330827448232
 20
164.1094710140476
 10
175.4357466580104
 20
164.0753645462439
 10
175.4929352807925
 20
164.0174869039101
 72
     1
 10
175.4929352807925
 20
164.0174869039101
 11
175.4929352807925
 21
164.0174869039101
 97
        0
 75
     0
 76
     1
 98
        0
450
        0
451
        0
460
0.0
461
0.0
452
        0
462
0.0
453
        0
470

  0
HATCH
  5
3895
330
1F
100
AcDbEntity
  8
图层 1
 62
     7
100
AcDbHatch
 10
0.0
 20
0.0
 30
0.0
210
0.0
220
0.0
230
1.0
  2
SOLID
 70
     1
 71
     0
 91
        1
 92
        1
 93
        2
 72
     4
 94
        3
 73
     0
 74
     0
 95
       11
 96
        7
 40
0.0
 40
0.0
 40
0.0
 40
0.0
 40
0.3527780104152769
 40
0.3527780104152769
 40
0.3527780104152769
 40
0.7055560208305538
 40
0.7055560208305538
 40
0.7055560208305538
 40
0.7055560208305538
 10
174.9213935627468
 20
174.5369206529582
 10
174.9213935627468
 20
174.5369206529582
 10
174.9213935627468
 20
174.3043765542958
 10
174.9213935627468
 20
174.3043765542958
 10
174.9213935627468
 20
174.3043765542958
 10
174.9213935627468
 20
174.5369206529582
 10
174.9213935627468
 20
174.5369206529582
 72
     1
 10
174.9213935627468
 20
174.5369206529582
 11
174.9213935627468
 21
174.5369206529582
 97
        0
 75
     0
 76
     1
 98
        0
450
        0
451
        0
460
0.0
461
0.0
452
        0
462
0.0
453
        0
470

  0
HATCH
  5
3943
330
1F
100
AcDbEntity
  8
图层 1
 62
     7
100
AcDbHatch
 10
0.0
 20
0.0
 30
0.0
210
0.0
220
0.0
230
1.0
  2
SOLID
 70
     1
 71
     0
 91
        1
 92
        1
 93
        2
 72
     4
 94
        3
 73
     0
 74
     0
 95
      131
 96
      127
 40
0.0
 40
0.0
 40
0.0
 40
0.0
 40
0.3527780104152769
 40
0.3527780104152769
 40
0.3527780104152769
 40
0.7055560208305538
 40
0.7055560208305538
 40
0.7055560208305538
 40
1.058334031245828
 40
1.058334031245828
 40
1.058334031245828
 40
1.411112041661104
 40
1.411112041661104
 40
1.411112041661104
 40
1.763890052076384
 40
1.763890052076384
 40
1.763890052076384
 40
2.116668062491659
 40
2.116668062491659
 40
2.116668062491659
 40
2.469446072906936
 40
2.469446072906936
 40
2.469446072906936
 40
2.822224083322215
 40
2.822224083322215
 40
2.822224083322215
 40
3.175002093737492
 40
3.175002093737492
 40
3.175002093737492
 40
3.527780104152768
 40
3.527780104152768
 40
3.527780104152768
 40
3.880558114568044
 40
3.880558114568044
 40
3.880558114568044
 40
4.233336124983321
 40
4.233336124983321
 40
4.233336124983321
 40
4.586114135398599
 40
4.586114135398599
 40
4.586114135398599
 40
4.938892145813873
 40
4.938892145813873
 40
4.938892145813873
 40
5.291670156229153
 40
5.291670156229153
 40
5.291670156229153
 40
5.64444816664443
 40
5.64444816664443
 40
5.64444816664443
 40
5.997226177059705
 40
5.997226177059705
 40
5.997226177059705
 40
6.350004187474984
 40
6.350004187474984
 40
6.350004187474984
 40
6.702782197890257
 40
6.702782197890257
 40
6.702782197890257
 40
7.055560208305537
 40
7.055560208305537
 40
7.055560208305537
 40
7.408338218720808
 40
7.408338218720808
 40
7.408338218720808
 40
7.76111622913609
 40
7.76111622913609
 40
7.76111622913609
 40
8.113894239551369
 40
8.113894239551369
 40
8.113894239551369
 40
8.466672249966642
 40
8.466672249966642
 40
8.466672249966642
 40
8.819450260381922
 40
8.819450260381922
 40
8.819450260381922
 40
9.172228270797198
 40
9.172228270797198
 40
9.172228270797198
 40
9.525006281212476
 40
9.525006281212476
 40
9.525006281212476
 40
9.877784291627751
 40
9.877784291627751
 40
9.877784291627751
 40
10.23056230204303
 40
10.23056230204303
 40
10.23056230204303
 40
10.58334031245831
 40
10.58334031245831
 40
10.58334031245831
 40
10.93611832287358
 40
10.93611832287358
 40
10.93611832287358
 40
11.28889633328886
 40
11.28889633328886
 40
11.28889633328886
 40
11.64167434370414
 40
11.64167434370414
 40
11.64167434370414
 40
11.99445235411941
 40
11.99445235411941
 40
11.99445235411941
 40
12.34723036453469
 40
12.34723036453469
 40
12.34723036453469
 40
12.70000837494997
 40
12.70000837494997
 40
12.70000837494997
 40
13.05278638536524
 40
13.05278638536524
 40
13.05278638536524
 40
13.40556439578052
 40
13.40556439578052
 40
13.40556439578052
 40
13.7583424061958
 40
13.7583424061958
 40
13.7583424061958
 40
14.11112041661107
 40
14.11112041661107
 40
14.11112041661107
 40
14.46389842702635
 40
14.46389842702635
 40
14.46389842702635
 40
14.81667643744163
 40
14.81667643744163
 40
14.81667643744163
 40
14.81667643744163
 10
173.3972823146245
 20
126.8274843518258
 10
173.3972823146245
 20
126.8274843518258
 10
173.3972823146245
 20
126.7217198506564
 10
173.3972823146245
 20
126.7217198506564
 10
173.3972823146245
 20
126.7217198506564
 10
173.4186419207238
 20
126.7217198506564
 10
173.4186419207238
 20
126.7217198506564
 10
173.4186419207238
 20
126.7217198506564
 10
173.4820317194703
 20
126.7007047543328
 10
173.4820317194703
 20
126.7007047543328
 10
173.4820317194703
 20
126.7007047543328
 10
173.5244064218933
 20
126.6793451482334
 10
173.5244064218933
 20
126.6793451482334
 10
173.5244064218933
 20
126.6793451482334
 10
173.5877962206398
 20
126.6793451482334
 10
173.5877962206398
 20
126.6793451482334
 10
173.5877962206398
 20
126.6793451482334
 10
173.6301709230627
 20
126.6583300519099
 10
173.6301709230627
 20
126.6583300519099
 10
173.7955356154449
 20
126.5911506456296
 10
173.759706598762
 20
126.6380039751379
 10
173.9478089363468
 20
126.5525655507404
 10
173.9478089363468
 20
126.5525655507404
 10
173.9688240326703
 20
126.4464565397952
 10
173.9688240326703
 20
126.4464565397952
 10
173.9688240326703
 20
126.4464565397952
 10
174.0325583411926
 20
126.5101908483175
 10
174.0325583411926
 20
126.5101908483175
 10
174.0325583411926
 20
126.5101908483175
 10
174.0749330436156
 20
126.5101908483175
 10
174.0749330436156
 20
126.5101908483175
 10
174.0749330436156
 20
126.5101908483175
 10
174.1593379386856
 20
126.4678161458946
 10
174.1593379386856
 20
126.4678161458946
 10
174.1593379386856
 20
126.4678161458946
 10
174.180697544785
 20
126.4464565397952
 10
174.180697544785
 20
126.4464565397952
 10
174.2464989119621
 20
126.3982251711837
 10
174.3298702777047
 20
126.3716979184474
 10
174.3922265471239
 20
126.3196769423022
 10
174.608234176548
 20
126.2059887162895
 10
174.7749769080334
 20
126.0278771622029
 10
174.9637682651697
 20
125.8749148217494
 10
174.9637682651697
 20
125.8749148217494
 10
175.0061429675926
 20
125.9172895241723
 10
175.0061429675926
 20
125.9172895241723
 10
174.961356696739
 20
125.9631093243532
 10
174.782211613325
 20
126.1246844092016
 10
174.7308796567315
 20
126.1501781326105
 10
174.7308796567315
 20
126.1501781326105
 10
174.6885049543085
 20
126.1925528350335
 10
174.6885049543085
 20
126.1925528350335
 10
174.6885049543085
 20
126.1925528350335
 10
174.667489857985
 20
126.2349275374564
 10
174.667489857985
 20
126.2349275374564
 10
174.667489857985
 20
126.2349275374564
 10
174.625115155562
 20
126.2559426337799
 10
174.625115155562
 20
126.2559426337799
 10
174.625115155562
 20
126.2559426337799
 10
174.5827404531391
 20
126.2983173362029
 10
174.5827404531391
 20
126.2983173362029
 10
174.5827404531391
 20
126.2983173362029
 10
174.5403657507162
 20
126.3196769423022
 10
174.5403657507162
 20
126.3196769423022
 10
174.5403657507162
 20
126.3196769423022
 10
174.4979910482932
 20
126.3620516447252
 10
174.4979910482932
 20
126.3620516447252
 10
174.4735308542117
 20
126.3875453681341
 10
174.3247026310678
 20
126.4695386947736
 10
174.2864620459544
 20
126.4888312422181
 10
174.2864620459544
 20
126.4888312422181
 10
174.2654469496308
 20
126.5101908483175
 10
174.2654469496308
 20
126.5101908483175
 10
174.2654469496308
 20
126.5101908483175
 10
174.2230722472079
 20
126.5312059446411
 10
174.2230722472079
 20
126.5312059446411
 10
174.2230722472079
 20
126.5312059446411
 10
174.2017126411085
 20
126.5525655507404
 10
174.2017126411085
 20
126.5525655507404
 10
174.2017126411085
 20
126.5525655507404
 10
174.1383228423621
 20
126.573580647064
 10
174.1383228423621
 20
126.573580647064
 10
174.1383228423621
 20
126.573580647064
 10
174.1169632362627
 20
126.5945957433876
 10
174.1169632362627
 20
126.5945957433876
 10
174.1169632362627
 20
126.5945957433876
 10
174.0959481399391
 20
126.7007047543328
 10
174.0959481399391
 20
126.7007047543328
 10
174.0959481399391
 20
126.7007047543328
 10
174.0325583411926
 20
126.6369704458105
 10
174.0325583411926
 20
126.6369704458105
 10
174.0325583411926
 20
126.6369704458105
 10
173.9901836387697
 20
126.6369704458105
 10
173.9901836387697
 20
126.6369704458105
 10
173.9901836387697
 20
126.6369704458105
 10
173.9054342339239
 20
126.6793451482334
 10
173.9054342339239
 20
126.6793451482334
 10
173.9054342339239
 20
126.6793451482334
 10
173.8420444351773
 20
126.7007047543328
 10
173.8420444351773
 20
126.7007047543328
 10
173.8420444351773
 20
126.7007047543328
 10
173.7996697327544
 20
126.7217198506564
 10
173.7996697327544
 20
126.7217198506564
 10
173.7996697327544
 20
126.7217198506564
 10
173.7572950303315
 20
126.7217198506564
 10
173.7572950303315
 20
126.7217198506564
 10
173.7572950303315
 20
126.7217198506564
 10
173.6725456254856
 20
126.7640945530793
 10
173.6725456254856
 20
126.7640945530793
 10
173.6725456254856
 20
126.7640945530793
 10
173.6515305291621
 20
126.7640945530793
 10
173.6515305291621
 20
126.7640945530793
 10
173.6515305291621
 20
126.7640945530793
 10
173.5667811243162
 20
126.7851096494029
 10
173.5667811243162
 20
126.7851096494029
 10
173.5667811243162
 20
126.7851096494029
 10
173.5033913255697
 20
126.8064692555022
 10
173.5033913255697
 20
126.8064692555022
 10
173.5033913255697
 20
126.8064692555022
 10
173.4396570170474
 20
126.8064692555022
 10
173.4396570170474
 20
126.8064692555022
 10
173.4396570170474
 20
126.8064692555022
 10
173.4186419207238
 20
126.8274843518258
 10
173.4186419207238
 20
126.8274843518258
 10
173.4186419207238
 20
126.8274843518258
 10
173.3972823146245
 20
126.8274843518258
 10
173.3972823146245
 20
126.8274843518258
 72
     1
 10
173.3972823146245
 20
126.8274843518258
 11
173.3972823146245
 21
126.8274843518258
 97
        0
 75
     0
 76
     1
 98
        0
450
        0
451
        0
460
0.0
461
0.0
452
        0
462
0.0
453
        0
470

  0
HATCH
  5
4842
330
1F
100
AcDbEntity
  8
图层 1
 62
     7
100
AcDbHatch
 10
0.0
 20
0.0
 30
0.0
210
0.0
220
0.0
230
1.0
  2
SOLID
 70
     1
 71
     0
 91
        1
 92
        1
 93
        2
 72
     4
 94
        3
 73
     0
 74
     0
 95
       47
 96
       43
 40
0.0
 40
0.0
 40
0.0
 40
0.0
 40
0.3527780104152769
 40
0.3527780104152769
 40
0.3527780104152769
 40
0.7055560208305538
 40
0.7055560208305538
 40
0.7055560208305538
 40
1.058334031245828
 40
1.058334031245828
 40
1.058334031245828
 40
1.411112041661104
 40
1.411112041661104
 40
1.411112041661104
 40
1.763890052076384
 40
1.763890052076384
 40
1.763890052076384
 40
2.116668062491659
 40
2.116668062491659
 40
2.116668062491659
 40
2.469446072906936
 40
2.469446072906936
 40
2.469446072906936
 40
2.822224083322215
 40
2.822224083322215
 40
2.822224083322215
 40
3.175002093737492
 40
3.175002093737492
 40
3.175002093737492
 40
3.527780104152768
 40
3.527780104152768
 40
3.527780104152768
 40
3.880558114568044
 40
3.880558114568044
 40
3.880558114568044
 40
4.233336124983321
 40
4.233336124983321
 40
4.233336124983321
 40
4.586114135398599
 40
4.586114135398599
 40
4.586114135398599
 40
4.938892145813873
 40
4.938892145813873
 40
4.938892145813873
 40
4.938892145813873
 10
180.1920486226523
 20
255.6479577566324
 10
180.1920486226523
 20
255.6479577566324
 10
180.2130637189759
 20
255.6055830542095
 10
180.2130637189759
 20
255.6055830542095
 10
180.2130637189759
 20
255.6055830542095
 10
180.2130637189759
 20
255.5210059042515
 10
180.2130637189759
 20
255.5210059042515
 10
180.2130637189759
 20
255.5210059042515
 10
180.1920486226523
 20
255.4786312018286
 10
180.1920486226523
 20
255.4786312018286
 10
180.1920486226523
 20
255.4786312018286
 10
180.1496739202294
 20
255.4359119896299
 10
180.1496739202294
 20
255.4359119896299
 10
180.1496739202294
 20
255.4359119896299
 10
180.1283143141301
 20
255.4147246384184
 10
180.1283143141301
 20
255.4147246384184
 10
180.1283143141301
 20
255.4147246384184
 10
180.0225498129606
 20
255.4147246384184
 10
180.0225498129606
 20
255.4147246384184
 10
180.0225498129606
 20
255.4147246384184
 10
179.9591600142141
 20
255.4359119896299
 10
179.9591600142141
 20
255.4359119896299
 10
179.9591600142141
 20
255.4359119896299
 10
179.9167853117912
 20
255.4570993408414
 10
179.9167853117912
 20
255.4570993408414
 10
179.9167853117912
 20
255.4570993408414
 10
179.8957702154676
 20
255.4786312018286
 10
179.8957702154676
 20
255.4786312018286
 10
179.8957702154676
 20
255.4786312018286
 10
179.8744106093683
 20
255.4994740432643
 10
179.8744106093683
 20
255.4994740432643
 10
179.8744106093683
 20
255.4994740432643
 10
179.8744106093683
 20
255.6479577566324
 10
179.8744106093683
 20
255.6479577566324
 10
179.9608825630931
 20
255.7323626517025
 10
180.045631967939
 20
255.7085914771726
 10
180.1496739202294
 20
255.7115198102668
 10
180.1496739202294
 20
255.7115198102668
 10
180.170689016553
 20
255.6688005980681
 10
180.170689016553
 20
255.6688005980681
 10
180.170689016553
 20
255.6688005980681
 10
180.1920486226523
 20
255.6479577566324
 10
180.1920486226523
 20
255.6479577566324
 72
     1
 10
180.1920486226523
 20
255.6479577566324
 11
180.1920486226523
 21
255.6479577566324
 97
        0
 75
     0
 76
     1
 98
        0
450
        0
451
        0
460
0.0
461
0.0
452
        0
462
0.0
453
        0
470

  0
MTEXT
  5
65A0
330
1F
100
AcDbEntity
  8
图框
 62
     3
100
AcDbMText
 10
578.2838505275732
 20
277.2525364199257
 30
0.0
 40
2.985513575034147
 41
33.61239199242136
 46
8.686745505685866
 71
     5
 72
     5
  1
HM-CP3
  7
Romans字体
 73
     1
 44
1.0
1001
ACAD
1000
ACAD_MTEXT_DEFINED_HEIGHT_BEGIN
1070
    46
1040
8.686745505685866
1000
ACAD_MTEXT_DEFINED_HEIGHT_END
  0
MTEXT
  5
65A1
330
1F
100
AcDbEntity
  8
图框
 62
     3
100
AcDbMText
 10
578.2838505275732
 20
268.4730858930997
 30
0.0
 40
2.985513575034147
 41
33.61239199242136
 46
8.8721555479661
 71
     5
 72
     5
  1
1980020030028
  7
Romans字体
 73
     1
 44
1.0
1001
ACAD
1000
ACAD_MTEXT_DEFINED_HEIGHT_BEGIN
1070
    46
1040
8.8721555479661
1000
ACAD_MTEXT_DEFINED_HEIGHT_END
  0
MTEXT
  5
65A3
330
1F
100
AcDbEntity
  8
图框
 62
     3
100
AcDbMText
 10
510.2301855969883
 20
255.1654508143547
 30
0.0
 40
2.985513575034147
 41
10.82934843439047
 46
7.886094601210496
 71
     5
 72
     5
  1
1:1 
  7
Romans字体
 73
     1
 44
1.0
1001
ACAD
1000
ACAD_MTEXT_DEFINED_HEIGHT_BEGIN
1070
    46
1040
7.886094601210496
1000
ACAD_MTEXT_DEFINED_HEIGHT_END
  0
MTEXT
  5
65A4
330
1F
100
AcDbEntity
  8
图框
 62
     3
100
AcDbMText
 10
521.0595340313791
 20
255.1654508143547
 30
0.0
 40
2.985513575034147
 41
10.82934843439126
 46
7.886094601210452
 71
     5
 72
     5
  1
V1.0 
  7
Romans字体
 73
     1
 44
1.0
1001
ACAD
1000
ACAD_MTEXT_DEFINED_HEIGHT_BEGIN
1070
    46
1040
7.886094601210452
1000
ACAD_MTEXT_DEFINED_HEIGHT_END
  0
MTEXT
  5
65B2
330
1F
100
AcDbEntity
  8
图框
 62
     3
100
AcDbMText
 10
531.8888824657713
 20
255.1654508143547
 30
0.0
 40
2.985513575034147
 41
10.82934843439217
 46
7.886094601210402
 71
     5
 72
     5
  1
13.2g
  7
Romans字体
 73
     1
 44
1.0
1001
ACAD
1000
ACAD_MTEXT_DEFINED_HEIGHT_BEGIN
1070
    46
1040
7.886094601210402
1000
ACAD_MTEXT_DEFINED_HEIGHT_END
  0
MTEXT
  5
7228
102
{ACAD_XDICTIONARY
360
13D75
102
}
330
1F
100
AcDbEntity
  8
打标文字
 62
     3
100
AcDbMText
 10
515.8149271335523
 20
374.3457593752038
 30
0.0
 40
3.0
 41
79.27511939023176
 46
83.69288285539374
 71
     1
 72
     5
  3
\A1;\P{\f仿宋_GB2312|b0|i0|c134|p49;技术参数}:\P- {\f仿宋_GB2312|b0|i0|c134|p49;材料}: {\f仿宋_GB2312|b0|i0|c134|p49;聚碳酸酯}\P- {\f仿宋_GB2312|b0|i0|c134|p49;颜色}: RAL 7032{\f仿宋_GB2312|b0|i0|c134|p49;（浅灰色）}\P- {\f仿宋_GB2312|b0|i0|c134|p49;温度范围}: -40{\f仿宋_GB2312|b0|i0|
  3
c134|p49;℃} - +125{\f仿宋_GB2312|b0|i0|c134|p49;℃}\P- {\f仿宋_GB2312|b0|i0|c134|p49;依据}UL 94{\f仿宋_GB2312|b0|i0|c134|p49;的阻燃等级}: V0\P{\f仿宋_GB2312|b0|i0|c134|p49;适用有卡爪单个模块状，用于锁止}\P\PTechnical specification:\P- Material: polycarbonate\P- Colour: RAL 7032(li
  1
ght grey) \P- Temperature range: -40{\f仿宋_GB2312|b0|i0|c134|p49;℃} - +125{\f仿宋_GB2312|b0|i0|c134|p49;℃}\P- Flammability acc.to UL 94: V0\PApplicable to with claw module, for rail
  7
Romans字体
 73
     1
 44
1.0
1001
ACAD
1000
ACAD_MTEXT_DEFINED_HEIGHT_BEGIN
1070
    46
1040
83.69288285539374
1000
ACAD_MTEXT_DEFINED_HEIGHT_END
  0
INSERT
  5
11089
330
1F
100
AcDbEntity
  8
DIM
100
AcDbBlockReference
  2
A4图框-NEW
 10
-531.8384560865787
 20
-240.6762910849813
 30
0.0
  0
LINE
  5
138A4
330
1F
100
AcDbEntity
  8
0
100
AcDbLine
 10
318.2471694057718
 20
295.4605045589837
 30
0.0
 11
320.2055215980314
 21
299.8580099027087
 31
0.0
  0
LINE
  5
138A5
330
1F
100
AcDbEntity
  8
0
100
AcDbLine
 10
318.3422758041967
 20
295.5919754193238
 30
0.0
 11
320.3006279965417
 21
299.9894807629638
 31
0.0
  0
LINE
  5
138A6
330
1F
100
AcDbEntity
  8
0
100
AcDbLine
 10
319.3688434254168
 20
296.5264427050287
 30
0.0
 11
321.3271956176765
 21
300.9239480487537
 31
0.0
  0
LINE
  5
138A7
330
1F
100
AcDbEntity
  8
0
100
AcDbLine
 10
320.300647573487
 20
299.9894985835537
 30
0.0
 11
321.3271956176765
 21
300.9239480487537
 31
0.0
  0
LINE
  5
138A8
330
1F
100
AcDbEntity
  8
0
100
AcDbLine
 10
318.342295381142
 20
295.5919932398287
 30
0.0
 11
319.3688434254168
 21
296.5264427050287
 31
0.0
  0
LINE
  5
138A9
330
1F
100
AcDbEntity
  8
0
100
AcDbLine
 10
321.9041228602161
 20
295.3728563745487
 30
0.0
 11
321.4591878589214
 21
294.3737490365036
 31
0.0
  0
LINE
  5
138AA
330
1F
100
AcDbEntity
  8
0
100
AcDbLine
 10
321.9666704627968
 20
295.3862093144837
 30
0.0
 11
321.4462108410068
 21
294.2175104579638
 31
0.0
  0
LINE
  5
138AB
330
1F
100
AcDbEntity
  8
0
100
AcDbLine
 10
324.5233300764572
 20
297.6268454041237
 30
0.0
 11
326.4816822688014
 21
302.0243507478487
 31
0.0
  0
LINE
  5
138AC
330
1F
100
AcDbEntity
  8
0
100
AcDbLine
 10
320.2559677465312
 20
287.1862129982389
 30
0.0
 11
322.2143199388762
 21
291.5837183419638
 31
0.0
  0
LINE
  5
138AD
330
1F
100
AcDbEntity
  8
0
100
AcDbLine
 10
323.8615223198609
 20
294.4317555580288
 30
0.0
 11
324.1132710548161
 21
294.9970606197538
 31
0.0
  0
LINE
  5
138AE
330
1F
100
AcDbEntity
  8
0
100
AcDbLine
 10
321.6561645060362
 20
288.4607960430637
 30
0.0
 11
323.6145166983812
 21
292.8583013867887
 31
0.0
  0
LINE
  5
138AF
330
1F
100
AcDbEntity
  8
0
100
AcDbLine
 10
325.5467570004608
 20
296.9979166072638
 30
0.0
 11
327.5051091928059
 21
301.3954219509887
 31
0.0
  0
LINE
  5
138B0
330
1F
100
AcDbEntity
  8
0
100
AcDbLine
 10
326.5726810776711
 20
298.0643499561686
 30
0.0
 11
328.5310332700161
 21
302.4618552998088
 31
0.0
  0
LINE
  5
138B1
330
1F
100
AcDbEntity
  8
0
100
AcDbLine
 10
322.6855484850408
 20
287.8282064441037
 30
0.0
 11
324.6439006773859
 21
292.2257117878288
 31
0.0
  0
LINE
  5
138B2
330
1F
100
AcDbEntity
  8
0
100
AcDbLine
 10
323.7547292886917
 20
289.4154350549787
 30
0.0
 11
325.7130814810367
 21
293.8129403986187
 31
0.0
  0
LINE
  5
138B3
330
1F
100
AcDbEntity
  8
0
100
AcDbLine
 10
322.2143199388762
 20
291.5837183419638
 30
0.0
 11
323.6145166983812
 21
292.8583013867887
 31
0.0
  0
LINE
  5
138B4
330
1F
100
AcDbEntity
  8
0
100
AcDbLine
 10
344.8738458483064
 20
254.1318236888287
 30
0.0
 11
346.1854304891218
 21
254.4118266021136
 31
0.0
  0
LINE
  5
138B5
330
1F
100
AcDbEntity
  8
0
100
AcDbLine
 10
344.3252057617162
 20
256.3841167014187
 30
0.0
 11
343.8231335350007
 21
256.4020723747787
 31
0.0
  0
LINE
  5
138B6
330
1F
100
AcDbEntity
  8
0
100
AcDbLine
 10
325.8480753322962
 20
265.1147159342536
 30
0.0
 11
325.5291429738059
 21
266.3735104954687
 31
0.0
  0
LINE
  5
138B7
330
1F
100
AcDbEntity
  8
0
100
AcDbLine
 10
323.557514458486
 20
274.1553337737987
 30
0.0
 11
323.1797818743968
 21
275.6462070256587
 31
0.0
  0
LINE
  5
138B8
330
1F
100
AcDbEntity
  8
0
100
AcDbLine
 10
321.5410178758062
 20
282.1142468886137
 30
0.0
 11
320.2559677465312
 21
287.1862129982389
 31
0.0
  0
LINE
  5
138B9
330
1F
100
AcDbEntity
  8
0
100
AcDbLine
 10
325.3509533632065
 20
289.2446434345937
 30
0.0
 11
327.3093055554661
 21
293.6421487782336
 31
0.0
  0
LINE
  5
138BA
330
1F
100
AcDbEntity
  8
0
100
AcDbLine
 10
325.8194323671966
 20
287.3956030139887
 30
0.0
 11
327.7777845595416
 21
291.7931083576287
 31
0.0
  0
LINE
  5
138BB
330
1F
100
AcDbEntity
  8
0
100
AcDbLine
 10
332.025907857376
 20
300.6483733457038
 30
0.0
 11
332.5867951357319
 21
301.9078530315688
 31
0.0
  0
LINE
  5
138BC
330
1F
100
AcDbEntity
  8
0
100
AcDbLine
 10
320.2559677465312
 20
287.1862129982389
 30
0.0
 11
321.6561645060362
 21
288.4607960430637
 31
0.0
  0
LINE
  5
138BD
330
1F
100
AcDbEntity
  8
0
100
AcDbLine
 10
341.5519266647058
 20
257.7335207281538
 30
0.0
 11
345.2407584667914
 21
258.5210289217837
 31
0.0
  0
LINE
  5
138BE
330
1F
100
AcDbEntity
  8
0
100
AcDbLine
 10
321.2418713214262
 20
295.2314759752738
 30
0.0
 11
321.4591878589214
 21
294.3737490365036
 31
0.0
  0
LINE
  5
138BF
330
1F
100
AcDbEntity
  8
0
100
AcDbLine
 10
328.0924771296765
 20
268.1928105588137
 30
0.0
 11
328.3097936868913
 21
267.3350835424388
 31
0.0
  0
LINE
  5
138C0
330
1F
100
AcDbEntity
  8
0
100
AcDbLine
 10
326.3311458292416
 20
287.0811386155587
 30
0.0
 11
328.289498021502
 21
291.4786439591988
 31
0.0
  0
LINE
  5
138C1
330
1F
100
AcDbEntity
  8
0
100
AcDbLine
 10
333.1306042814055
 20
299.4643645225088
 30
0.0
 11
333.8293367384009
 21
301.0333773514387
 31
0.0
  0
LINE
  5
138C2
330
1F
100
AcDbEntity
  8
0
100
AcDbLine
 10
334.3902240167559
 20
302.2928570373038
 30
0.0
 11
335.0889564737505
 21
303.8618698662337
 31
0.0
  0
LINE
  5
138C3
330
1F
100
AcDbEntity
  8
0
100
AcDbLine
 10
326.634178461221
 20
284.1798805432937
 30
0.0
 11
326.8335819477567
 21
284.6276436683286
 31
0.0
  0
LINE
  5
138C4
330
1F
100
AcDbEntity
  8
0
100
AcDbLine
 10
323.1797818743968
 20
275.6462070256587
 30
0.0
 11
325.1381340667418
 21
280.0437123692987
 31
0.0
  0
LINE
  5
138C5
330
1F
100
AcDbEntity
  8
0
100
AcDbLine
 10
334.1540312054118
 20
298.8354357256488
 30
0.0
 11
334.8527636623217
 21
300.4044485545787
 31
0.0
  0
LINE
  5
138C6
330
1F
100
AcDbEntity
  8
0
100
AcDbLine
 10
335.4136509407614
 20
301.6639282404438
 30
0.0
 11
336.1123833976713
 21
303.2329410693737
 31
0.0
  0
LINE
  5
138C7
330
1F
100
AcDbEntity
  8
0
100
AcDbLine
 10
327.1026574652966
 20
282.3308401226887
 30
0.0
 11
328.2703382176566
 21
284.9528824541737
 31
0.0
  0
LINE
  5
138C8
330
1F
100
AcDbEntity
  8
0
100
AcDbLine
 10
324.0298795401618
 20
282.5222643675886
 30
0.0
 11
323.410239802041
 21
281.5376338628537
 31
0.0
  0
LINE
  5
138C9
330
1F
100
AcDbEntity
  8
0
100
AcDbLine
 10
343.541670000756
 20
259.4294217529237
 30
0.0
 11
342.4760074801312
 21
259.2019193858637
 31
0.0
  0
LINE
  5
138CA
330
1F
100
AcDbEntity
  8
0
100
AcDbLine
 10
343.8717864379911
 20
255.3585042822337
 30
0.0
 11
344.8738458483064
 21
254.1318236888287
 31
0.0
  0
LINE
  5
138CB
330
1F
100
AcDbEntity
  8
0
100
AcDbLine
 10
329.1295340874109
 20
267.5100853631887
 30
0.0
 11
328.9258475639268
 21
268.3140159808837
 31
0.0
  0
LINE
  5
138CC
330
1F
100
AcDbEntity
  8
0
100
AcDbLine
 10
327.479673247021
 20
274.0219233662886
 30
0.0
 11
327.275986723536
 21
274.8258539838988
 31
0.0
  0
LINE
  5
138CD
330
1F
100
AcDbEntity
  8
0
100
AcDbLine
 10
323.915159085736
 20
288.0907091753136
 30
0.0
 11
323.7114725622511
 21
288.8946397930087
 31
0.0
  0
LINE
  5
138CE
330
1F
100
AcDbEntity
  8
0
100
AcDbLine
 10
322.2652982453461
 20
294.6025471784139
 30
0.0
 11
322.0616117218621
 21
295.4064777960237
 31
0.0
  0
LINE
  5
138CF
330
1F
100
AcDbEntity
  8
0
100
AcDbLine
 10
325.3509533632065
 20
289.2446434345937
 30
0.0
 11
325.8194323671966
 21
287.3956030139887
 31
0.0
  0
LINE
  5
138D0
330
1F
100
AcDbEntity
  8
0
100
AcDbLine
 10
326.634178461221
 20
284.1798805432937
 30
0.0
 11
327.1026574652966
 21
282.3308401226887
 31
0.0
  0
LINE
  5
138D1
330
1F
100
AcDbEntity
  8
0
100
AcDbLine
 10
330.0508293220214
 20
272.5903159024537
 30
0.0
 11
330.2650393111359
 21
271.7448502039087
 31
0.0
  0
LINE
  5
138D2
330
1F
100
AcDbEntity
  8
0
100
AcDbLine
 10
327.0594007388569
 20
281.8100448607187
 30
0.0
 11
328.4788302260864
 21
284.9973922539287
 31
0.0
  0
LINE
  5
138D3
330
1F
100
AcDbEntity
  8
0
100
AcDbLine
 10
336.0545141509762
 20
295.6612579103738
 30
0.0
 11
336.6154014294167
 21
296.9207375962387
 31
0.0
  0
LINE
  5
138D4
330
1F
100
AcDbEntity
  8
0
100
AcDbLine
 10
326.0494433301616
 20
281.3721132470837
 30
0.0
 11
325.2594901408561
 21
282.7847670987987
 31
0.0
  0
LINE
  5
138D5
330
1F
100
AcDbEntity
  8
0
100
AcDbLine
 10
327.3093055554661
 20
293.6421487782336
 30
0.0
 11
327.7777845595416
 21
291.7931083576287
 31
0.0
  0
LINE
  5
138D6
330
1F
100
AcDbEntity
  8
0
100
AcDbLine
 10
333.2989392331507
 20
288.5686540923587
 30
0.0
 11
333.8496834364311
 21
289.8053573709187
 31
0.0
  0
LINE
  5
138D7
330
1F
100
AcDbEntity
  8
0
100
AcDbLine
 10
325.5291429738059
 20
266.3735104954687
 30
0.0
 11
327.4874951661518
 21
270.7710158391088
 31
0.0
  0
LINE
  5
138D8
330
1F
100
AcDbEntity
  8
0
100
AcDbLine
 10
329.0758973215367
 20
273.8511317459037
 30
0.0
 11
329.3276460564062
 21
274.4164368076287
 31
0.0
  0
LINE
  5
138D9
330
1F
100
AcDbEntity
  8
0
100
AcDbLine
 10
326.0463761228417
 20
274.5633512526887
 30
0.0
 11
325.4267363847208
 21
273.5787207480387
 31
0.0
  0
LINE
  5
138DA
330
1F
100
AcDbEntity
  8
0
100
AcDbLine
 10
375.8402543629023
 20
271.1921479270287
 30
0.0
 11
374.0845918358015
 21
270.8173412946238
 31
0.0
  0
LINE
  5
138DB
330
1F
100
AcDbEntity
  8
0
100
AcDbLine
 10
342.0736287395708
 20
264.2005049126137
 30
0.0
 11
342.3195508597615
 21
264.2530054588387
 31
0.0
  0
LINE
  5
138DC
330
1F
100
AcDbEntity
  8
0
100
AcDbLine
 10
375.3769559428217
 20
272.2424030627337
 30
0.0
 11
372.6233209356256
 21
271.6545448337087
 31
0.0
  0
LINE
  5
138DD
330
1F
100
AcDbEntity
  8
0
100
AcDbLine
 10
342.0140210744918
 20
265.4589013853386
 30
0.0
 11
341.7680989543011
 21
265.4064008391137
 31
0.0
  0
LINE
  5
138DE
330
1F
100
AcDbEntity
  8
0
100
AcDbLine
 10
325.4267363847208
 20
273.5787207480387
 30
0.0
 11
323.557514458486
 21
274.1553337737987
 31
0.0
  0
LINE
  5
138DF
330
1F
100
AcDbEntity
  8
0
100
AcDbLine
 10
326.776367601156
 20
297.2604193384737
 30
0.0
 11
326.5726810776711
 21
298.0643499561686
 31
0.0
  0
LINE
  5
138E0
330
1F
100
AcDbEntity
  8
0
100
AcDbLine
 10
329.6290265607255
 20
272.7204321387038
 30
0.0
 11
327.6706743683805
 21
268.3229267949787
 31
0.0
  0
LINE
  5
138E1
330
1F
100
AcDbEntity
  8
0
100
AcDbLine
 10
330.0508293220214
 20
272.5903159024537
 30
0.0
 11
328.0924771296765
 21
268.1928105588137
 31
0.0
  0
LINE
  5
138E2
330
1F
100
AcDbEntity
  8
0
100
AcDbLine
 10
328.9691042902812
 20
268.8348112428537
 30
0.0
 11
330.9274564826261
 21
273.2323165864937
 31
0.0
  0
LINE
  5
138E3
330
1F
100
AcDbEntity
  8
0
100
AcDbLine
 10
328.3097936868913
 20
267.3350835424388
 30
0.0
 11
328.9580380578315
 21
268.7907247167487
 31
0.0
  0
LINE
  5
138E4
330
1F
100
AcDbEntity
  8
0
100
AcDbLine
 10
369.2123425170163
 20
274.3723122545637
 30
0.0
 11
325.8480753322962
 21
265.1147159342536
 31
0.0
  0
LINE
  5
138E5
330
1F
100
AcDbEntity
  8
0
100
AcDbLine
 10
338.0115893857716
 20
275.0839432615538
 30
0.0
 11
338.3222537668067
 21
274.2948675303937
 31
0.0
  0
LINE
  5
138E6
330
1F
100
AcDbEntity
  8
0
100
AcDbLine
 10
340.2279642619266
 20
262.9590697429588
 30
0.0
 11
341.5519266647058
 21
257.7335207281538
 31
0.0
  0
LINE
  5
138E7
330
1F
100
AcDbEntity
  8
0
100
AcDbLine
 10
332.1021830509914
 20
296.7025690279236
 30
0.0
 11
333.9149931101017
 21
289.5475865308037
 31
0.0
  0
LINE
  5
138E8
330
1F
100
AcDbEntity
  8
0
100
AcDbLine
 10
338.5590458460007
 20
271.2179684480887
 30
0.0
 11
337.5202445761521
 21
275.3180145981888
 31
0.0
  0
LINE
  5
138E9
330
1F
100
AcDbEntity
  8
0
100
AcDbLine
 10
336.5018119586417
 20
279.3376676864937
 30
0.0
 11
334.933425727612
 21
285.5279334424986
 31
0.0
  0
LINE
  5
138EA
330
1F
100
AcDbEntity
  8
0
100
AcDbLine
 10
330.5653283647968
 20
268.6640196224687
 30
0.0
 11
332.5236805571418
 21
273.0615249661938
 31
0.0
  0
LINE
  5
138EB
330
1F
100
AcDbEntity
  8
0
100
AcDbLine
 10
335.8857580816908
 20
278.3587352480487
 30
0.0
 11
336.4365022849712
 21
279.5954385266937
 31
0.0
  0
LINE
  5
138EC
330
1F
100
AcDbEntity
  8
0
100
AcDbLine
 10
338.4314481989364
 20
281.9528927548187
 30
0.0
 11
339.0493748615069
 21
283.3404551205287
 31
0.0
  0
LINE
  5
138ED
330
1F
100
AcDbEntity
  8
0
100
AcDbLine
 10
339.9144721892068
 20
285.2830424325737
 30
0.0
 11
340.3898003912815
 21
286.3503980984587
 31
0.0
  0
LINE
  5
138EE
330
1F
100
AcDbEntity
  8
0
100
AcDbLine
 10
339.3058914921963
 20
282.5838778177887
 30
0.0
 11
339.705167181956
 21
283.4804565771287
 31
0.0
  0
LINE
  5
138EF
330
1F
100
AcDbEntity
  8
0
100
AcDbLine
 10
340.5702645095713
 20
285.4230438891737
 30
0.0
 11
340.9695401993309
 21
286.3196226485987
 31
0.0
  0
LINE
  5
138F0
330
1F
100
AcDbEntity
  8
0
100
AcDbLine
 10
328.3097936868913
 20
267.3350835424388
 30
0.0
 11
329.1295340874109
 21
267.5100853631887
 31
0.0
  0
LINE
  5
138F1
330
1F
100
AcDbEntity
  8
0
100
AcDbLine
 10
330.5653283647968
 20
268.6640196224687
 30
0.0
 11
337.9429919690516
 21
270.2390360096436
 31
0.0
  0
LINE
  5
138F2
330
1F
100
AcDbEntity
  8
0
100
AcDbLine
 10
346.8689768692371
 20
272.8648972455238
 30
0.0
 11
363.4277329586863
 21
276.3999340256938
 31
0.0
  0
LINE
  5
138F3
330
1F
100
AcDbEntity
  8
0
100
AcDbLine
 10
338.0115893857716
 20
275.0839432615538
 30
0.0
 11
338.8874414368162
 21
271.6270416055587
 31
0.0
  0
LINE
  5
138F4
330
1F
100
AcDbEntity
  8
0
100
AcDbLine
 10
338.3222537668067
 20
274.2948675303937
 30
0.0
 11
338.9911969651909
 21
271.6546147074487
 31
0.0
  0
LINE
  5
138F5
330
1F
100
AcDbEntity
  8
0
100
AcDbLine
 10
342.4760074801312
 20
259.2019193858637
 30
0.0
 11
341.4575748626218
 21
263.2215724741687
 31
0.0
  0
LINE
  5
138F6
330
1F
100
AcDbEntity
  8
0
100
AcDbLine
 10
343.6579155883361
 20
256.2026314307837
 30
0.0
 11
343.8717864379911
 21
255.3585042822337
 31
0.0
  0
LINE
  5
138F7
330
1F
100
AcDbEntity
  8
0
100
AcDbLine
 10
339.9619171190312
 20
271.8618483564138
 30
0.0
 11
339.2929739206461
 21
274.5021011793586
 31
0.0
  0
LINE
  5
138F8
330
1F
100
AcDbEntity
  8
0
100
AcDbLine
 10
332.8607454451764
 20
300.8265981811538
 30
0.0
 11
332.5867951357319
 21
301.9078530315688
 31
0.0
  0
LINE
  5
138F9
330
1F
100
AcDbEntity
  8
0
100
AcDbLine
 10
341.2672171536057
 20
268.4064627999438
 30
0.0
 11
342.0140210744918
 21
265.4589013853386
 31
0.0
  0
LINE
  5
138FA
330
1F
100
AcDbEntity
  8
0
100
AcDbLine
 10
342.3195508597615
 20
264.2530054588387
 30
0.0
 11
343.541670000756
 21
259.4294217529237
 31
0.0
  0
LINE
  5
138FB
330
1F
100
AcDbEntity
  8
0
100
AcDbLine
 10
344.5730326817562
 20
256.6832781173687
 30
0.0
 11
344.1655700525213
 21
258.2914929246237
 31
0.0
  0
LINE
  5
138FC
330
1F
100
AcDbEntity
  8
0
100
AcDbLine
 10
340.6908703178411
 20
272.0120456112937
 30
0.0
 11
339.8150182667965
 21
275.4689472672887
 31
0.0
  0
LINE
  5
138FD
330
1F
100
AcDbEntity
  8
0
100
AcDbLine
 10
338.4314481989364
 20
281.9528927548187
 30
0.0
 11
334.1540312054118
 21
298.8354357256488
 31
0.0
  0
LINE
  5
138FE
330
1F
100
AcDbEntity
  8
0
100
AcDbLine
 10
342.0020633418959
 20
283.8643987152637
 30
0.0
 11
342.2872602630565
 21
284.5048121148287
 31
0.0
  0
LINE
  5
138FF
330
1F
100
AcDbEntity
  8
0
100
AcDbLine
 10
327.4874951661518
 20
270.7710158391088
 30
0.0
 11
329.6290265607255
 21
272.7204321387038
 31
0.0
  0
LINE
  5
13900
330
1F
100
AcDbEntity
  8
0
100
AcDbLine
 10
338.8874414368162
 20
271.6270416055587
 30
0.0
 11
338.9911969651909
 21
271.6546147074487
 31
0.0
  0
LINE
  5
13901
330
1F
100
AcDbEntity
  8
0
100
AcDbLine
 10
346.9830556377516
 20
273.1210626053838
 30
0.0
 11
363.3720142516874
 21
276.6198502664287
 31
0.0
  0
LINE
  5
13902
330
1F
100
AcDbEntity
  8
0
100
AcDbLine
 10
338.8874414368162
 20
271.6270416055587
 30
0.0
 11
340.6908703178411
 21
272.0120456112937
 31
0.0
  0
LINE
  5
13903
330
1F
100
AcDbEntity
  8
0
100
AcDbLine
 10
338.9911969651909
 20
271.6546147074487
 30
0.0
 11
339.9619171190312
 21
271.8618483564138
 31
0.0
  0
LINE
  5
13904
330
1F
100
AcDbEntity
  8
0
100
AcDbLine
 10
363.2090650328806
 20
277.2629947605337
 30
0.0
 11
357.312783544871
 21
276.0042304056836
 31
0.0
  0
LINE
  5
13905
330
1F
100
AcDbEntity
  8
0
100
AcDbLine
 10
352.8861853823861
 20
275.0592205733787
 30
0.0
 11
346.8201064189458
 21
273.7642070994886
 31
0.0
  0
LINE
  5
13906
330
1F
100
AcDbEntity
  8
0
100
AcDbLine
 10
362.9589462535065
 20
278.2501889121887
 30
0.0
 11
357.2041626618009
 21
277.0216321565387
 31
0.0
  0
LINE
  5
13907
330
1F
100
AcDbEntity
  8
0
100
AcDbLine
 10
352.6360666030118
 20
276.0464147250337
 30
0.0
 11
346.711485535791
 21
274.7816088503437
 31
0.0
  0
LINE
  5
13908
330
1F
100
AcDbEntity
  8
0
100
AcDbLine
 10
346.7304986638916
 20
274.8243030769588
 30
0.0
 11
352.6267801519022
 21
276.0830674318087
 31
0.0
  0
LINE
  5
13909
330
1F
100
AcDbEntity
  8
0
100
AcDbLine
 10
357.2231757899014
 20
277.0643263831537
 30
0.0
 11
362.9496598023121
 21
278.2868416189637
 31
0.0
  0
LINE
  5
1390A
330
1F
100
AcDbEntity
  8
0
100
AcDbLine
 10
340.6908703178411
 20
272.0120456112937
 30
0.0
 11
339.9619171190312
 21
271.8618483564138
 31
0.0
  0
LINE
  5
1390B
330
1F
100
AcDbEntity
  8
0
100
AcDbLine
 10
323.410239802041
 20
281.5376338628537
 30
0.0
 11
321.5410178758062
 21
282.1142468886137
 31
0.0
  0
LINE
  5
1390C
330
1F
100
AcDbEntity
  8
0
100
AcDbLine
 10
321.6561645060362
 20
288.4607960430637
 30
0.0
 11
322.6855484850408
 21
287.8282064441037
 31
0.0
  0
LINE
  5
1390D
330
1F
100
AcDbEntity
  8
0
100
AcDbLine
 10
342.6607758344569
 20
268.7039658953036
 30
0.0
 11
345.2407584667914
 21
258.5210289217837
 31
0.0
  0
LINE
  5
1390E
330
1F
100
AcDbEntity
  8
0
100
AcDbLine
 10
334.8527636623217
 20
300.4044485545787
 30
0.0
 11
336.0545141509762
 21
295.6612579103738
 31
0.0
  0
LINE
  5
1390F
330
1F
100
AcDbEntity
  8
0
100
AcDbLine
 10
346.4119828181516
 20
255.2228650684737
 30
0.0
 11
345.4546561577459
 21
259.0013389714787
 31
0.0
  0
LINE
  5
13910
330
1F
100
AcDbEntity
  8
0
100
AcDbLine
 10
335.4136509407614
 20
301.6639282404438
 30
0.0
 11
336.6154014294167
 21
296.9207375962387
 31
0.0
  0
LINE
  5
13911
330
1F
100
AcDbEntity
  8
0
100
AcDbLine
 10
346.9728700965912
 20
256.4823447542537
 30
0.0
 11
346.0155434361019
 21
260.2608186572587
 31
0.0
  0
LINE
  5
13912
330
1F
100
AcDbEntity
  8
0
100
AcDbLine
 10
339.9144721892068
 20
285.2830424325737
 30
0.0
 11
340.5320211919312
 21
282.8456374308037
 31
0.0
  0
LINE
  5
13913
330
1F
100
AcDbEntity
  8
0
100
AcDbLine
 10
344.1323539554165
 20
269.0181249272387
 30
0.0
 11
346.229441126971
 21
260.7411287069537
 31
0.0
  0
LINE
  5
13914
330
1F
100
AcDbEntity
  8
0
100
AcDbLine
 10
336.1123833976713
 20
303.2329410693737
 30
0.0
 11
340.3898003912815
 21
286.3503980984587
 31
0.0
  0
LINE
  5
13915
330
1F
100
AcDbEntity
  8
0
100
AcDbLine
 10
337.9429919690516
 20
270.2390360096436
 30
0.0
 11
338.4937361723311
 21
271.4757392882887
 31
0.0
  0
LINE
  5
13916
330
1F
100
AcDbEntity
  8
0
100
AcDbLine
 10
339.8150182667965
 20
275.4689472672887
 30
0.0
 11
339.2929739206461
 21
274.5021011793586
 31
0.0
  0
LINE
  5
13917
330
1F
100
AcDbEntity
  8
0
100
AcDbLine
 10
327.6706743683805
 20
268.3229267949787
 30
0.0
 11
325.5291429738059
 21
266.3735104954687
 31
0.0
  0
LINE
  5
13918
330
1F
100
AcDbEntity
  8
0
100
AcDbLine
 10
339.2929739206461
 20
274.5021011793586
 30
0.0
 11
338.3222537668067
 21
274.2948675303937
 31
0.0
  0
LINE
  5
13919
330
1F
100
AcDbEntity
  8
0
100
AcDbLine
 10
332.5236805571418
 20
273.0615249661938
 30
0.0
 11
337.8062278991216
 21
274.1892666301737
 31
0.0
  0
LINE
  5
1391A
330
1F
100
AcDbEntity
  8
0
100
AcDbLine
 10
339.8150182667965
 20
275.4689472672887
 30
0.0
 11
338.0115893857716
 21
275.0839432615538
 31
0.0
  0
LINE
  5
1391B
330
1F
100
AcDbEntity
  8
0
100
AcDbLine
 10
336.4968176521458
 20
275.9469433950489
 30
0.0
 11
329.1191540501865
 21
274.3719270083837
 31
0.0
  0
LINE
  5
1391C
330
1F
100
AcDbEntity
  8
0
100
AcDbLine
 10
323.6145166983812
 20
292.8583013867887
 30
0.0
 11
324.6439006773859
 21
292.2257117878288
 31
0.0
  0
LINE
  5
1391D
330
1F
100
AcDbEntity
  8
0
100
AcDbLine
 10
339.705167181956
 20
283.4804565771287
 30
0.0
 11
340.3282791623411
 21
282.8021416775637
 31
0.0
  0
LINE
  5
1391E
330
1F
100
AcDbEntity
  8
0
100
AcDbLine
 10
345.5708410042413
 20
279.2836203092487
 30
0.0
 11
345.2720888403415
 21
279.8740797936988
 31
0.0
  0
LINE
  5
1391F
330
1F
100
AcDbEntity
  8
0
100
AcDbLine
 10
342.0020633418959
 20
283.8643987152637
 30
0.0
 11
342.1715019928857
 21
283.1956410723887
 31
0.0
  0
LINE
  5
13920
330
1F
100
AcDbEntity
  8
0
100
AcDbLine
 10
342.2872602630565
 20
284.5048121148287
 30
0.0
 11
342.595995681631
 21
283.2862638699887
 31
0.0
  0
LINE
  5
13921
330
1F
100
AcDbEntity
  8
0
100
AcDbLine
 10
345.0357981577013
 20
280.1002728044387
 30
0.0
 11
346.8689768692371
 21
272.8648972455238
 31
0.0
  0
LINE
  5
13922
330
1F
100
AcDbEntity
  8
0
100
AcDbLine
 10
346.8201064189458
 20
273.7642070994886
 30
0.0
 11
346.711485535791
 21
274.7816088503437
 31
0.0
  0
LINE
  5
13923
330
1F
100
AcDbEntity
  8
0
100
AcDbLine
 10
327.275986723536
 20
274.8258539838988
 30
0.0
 11
326.0463761228417
 21
274.5633512526887
 31
0.0
  0
LINE
  5
13924
330
1F
100
AcDbEntity
  8
0
100
AcDbLine
 10
345.5708410042413
 20
279.2836203092487
 30
0.0
 11
351.4954220714614
 21
280.5484261839387
 31
0.0
  0
LINE
  5
13925
330
1F
100
AcDbEntity
  8
0
100
AcDbLine
 10
356.0635181301665
 20
281.5236436154437
 30
0.0
 11
361.8183017218714
 21
282.7522003710937
 31
0.0
  0
LINE
  5
13926
330
1F
100
AcDbEntity
  8
0
100
AcDbLine
 10
345.2720888403415
 20
279.8740797936988
 30
0.0
 11
351.3381678037819
 21
281.1690932675887
 31
0.0
  0
LINE
  5
13927
330
1F
100
AcDbEntity
  8
0
100
AcDbLine
 10
355.7647659662667
 20
282.1141030998937
 30
0.0
 11
361.6610474542763
 21
283.3728674547437
 31
0.0
  0
LINE
  5
13928
330
1F
100
AcDbEntity
  8
0
100
AcDbLine
 10
361.5945542471515
 20
283.6353095846087
 30
0.0
 11
345.0357981577013
 21
280.1002728044387
 31
0.0
  0
LINE
  5
13929
330
1F
100
AcDbEntity
  8
0
100
AcDbLine
 10
323.1797818743968
 20
275.6462070256587
 30
0.0
 11
335.8857580816908
 21
278.3587352480487
 31
0.0
  0
LINE
  5
1392A
330
1F
100
AcDbEntity
  8
0
100
AcDbLine
 10
342.0020633418959
 20
283.8643987152637
 30
0.0
 11
340.5702645095713
 21
285.4230438891737
 31
0.0
  0
LINE
  5
1392B
330
1F
100
AcDbEntity
  8
0
100
AcDbLine
 10
342.2872602630565
 20
284.5048121148287
 30
0.0
 11
340.9695401993309
 21
286.3196226485987
 31
0.0
  0
LINE
  5
1392C
330
1F
100
AcDbEntity
  8
0
100
AcDbLine
 10
345.2055956332166
 20
280.1365219235636
 30
0.0
 11
345.2720888403415
 21
279.8740797936988
 31
0.0
  0
LINE
  5
1392D
330
1F
100
AcDbEntity
  8
0
100
AcDbLine
 10
346.8201064189458
 20
273.7642070994886
 30
0.0
 11
346.9830556377516
 21
273.1210626053838
 31
0.0
  0
LINE
  5
1392E
330
1F
100
AcDbEntity
  8
0
100
AcDbLine
 10
345.7530418057264
 20
279.3297833076636
 30
0.0
 11
346.8846685728664
 21
274.8633640756437
 31
0.0
  0
LINE
  5
1392F
330
1F
100
AcDbEntity
  8
0
100
AcDbLine
 10
340.3361060780268
 20
264.2610578978838
 30
0.0
 11
341.3247887382055
 21
266.4811576830537
 31
0.0
  0
LINE
  5
13930
330
1F
100
AcDbEntity
  8
0
100
AcDbLine
 10
341.7680989543011
 20
265.4064008391137
 30
0.0
 11
341.9333222153369
 21
265.7774118226988
 31
0.0
  0
LINE
  5
13931
330
1F
100
AcDbEntity
  8
0
100
AcDbLine
 10
341.8563818356912
 20
264.1170987241538
 30
0.0
 11
341.4575748626218
 21
263.2215724741687
 31
0.0
  0
LINE
  5
13932
330
1F
100
AcDbEntity
  8
0
100
AcDbLine
 10
346.711485535791
 20
274.7816088503437
 30
0.0
 11
346.7304986638916
 21
274.8243030769588
 31
0.0
  0
LINE
  5
13933
330
1F
100
AcDbEntity
  8
0
100
AcDbLine
 10
346.8689768692371
 20
272.8648972455238
 30
0.0
 11
346.9830556377516
 21
273.1210626053838
 31
0.0
  0
LINE
  5
13934
330
1F
100
AcDbEntity
  8
0
100
AcDbLine
 10
338.4314481989364
 20
281.9528927548187
 30
0.0
 11
365.8107775745362
 21
287.7979535694837
 31
0.0
  0
LINE
  5
13935
330
1F
100
AcDbEntity
  8
0
100
AcDbLine
 10
366.1933766275012
 20
288.3239375399187
 30
0.0
 11
339.3058914921963
 21
282.5838778177887
 31
0.0
  0
LINE
  5
13936
330
1F
100
AcDbEntity
  8
0
100
AcDbLine
 10
324.5233300764572
 20
297.6268454041237
 30
0.0
 11
325.5467570004608
 21
296.9979166072638
 31
0.0
  0
LINE
  5
13937
330
1F
100
AcDbEntity
  8
0
100
AcDbLine
 10
343.1919749444456
 20
260.8096336480937
 30
0.0
 11
342.4760074801312
 21
259.2019193858637
 31
0.0
  0
LINE
  5
13938
330
1F
100
AcDbEntity
  8
0
100
AcDbLine
 10
325.1381340667418
 20
280.0437123692987
 30
0.0
 11
335.7489940117617
 21
282.3089658685787
 31
0.0
  0
LINE
  5
13939
330
1F
100
AcDbEntity
  8
0
100
AcDbLine
 10
370.875483773471
 20
290.0092697129688
 30
0.0
 11
368.0063923718214
 21
289.3967633401738
 31
0.0
  0
LINE
  5
1393A
330
1F
100
AcDbEntity
  8
0
100
AcDbLine
 10
339.0493748615069
 20
283.3404551205287
 30
0.0
 11
339.705167181956
 21
283.4804565771287
 31
0.0
  0
LINE
  5
1393B
330
1F
100
AcDbEntity
  8
0
100
AcDbLine
 10
366.5926523172617
 20
289.2205162993437
 30
0.0
 11
367.2484446376271
 21
289.3605177560287
 31
0.0
  0
LINE
  5
1393C
330
1F
100
AcDbEntity
  8
0
100
AcDbLine
 10
367.3767832521303
 20
289.6487037858287
 30
0.0
 11
370.245874653781
 21
290.2612101586237
 31
0.0
  0
LINE
  5
1393D
330
1F
100
AcDbEntity
  8
0
100
AcDbLine
 10
342.2872602630565
 20
284.5048121148287
 30
0.0
 11
367.0886579670711
 21
289.7995246287588
 31
0.0
  0
LINE
  5
1393E
330
1F
100
AcDbEntity
  8
0
100
AcDbLine
 10
370.8542947523862
 20
291.6274254109837
 30
0.0
 11
367.9852033507365
 21
291.0149190381887
 31
0.0
  0
LINE
  5
1393F
330
1F
100
AcDbEntity
  8
0
100
AcDbLine
 10
368.1135419653271
 20
291.3031050679887
 30
0.0
 11
367.4577496449616
 21
291.1631036113886
 31
0.0
  0
LINE
  5
13940
330
1F
100
AcDbEntity
  8
0
100
AcDbLine
 10
339.9144721892068
 20
285.2830424325737
 30
0.0
 11
340.5702645095713
 21
285.4230438891737
 31
0.0
  0
LINE
  5
13941
330
1F
100
AcDbEntity
  8
0
100
AcDbLine
 10
368.995075032001
 20
291.6168631253437
 30
0.0
 11
371.8641664336507
 21
292.2293694981387
 31
0.0
  0
LINE
  5
13942
330
1F
100
AcDbEntity
  8
0
100
AcDbLine
 10
318.5186744441403
 20
294.8957473865188
 30
0.0
 11
321.1432237622263
 21
294.0861309860537
 31
0.0
  0
LINE
  5
13943
330
1F
100
AcDbEntity
  8
0
100
AcDbLine
 10
351.3381678037819
 20
281.1690932675887
 30
0.0
 11
352.8861853823861
 21
275.0592205733787
 31
0.0
  0
LINE
  5
13944
330
1F
100
AcDbEntity
  8
0
100
AcDbLine
 10
346.1854304891218
 20
254.4118266021136
 30
0.0
 11
346.4119828181516
 21
255.2228650684737
 31
0.0
  0
LINE
  5
13945
330
1F
100
AcDbEntity
  8
0
100
AcDbLine
 10
346.7463177674759
 20
255.6713062879788
 30
0.0
 11
346.9728700965912
 21
256.4823447542537
 31
0.0
  0
LINE
  5
13946
330
1F
100
AcDbEntity
  8
0
100
AcDbLine
 10
344.2274542119954
 20
257.5662701690088
 30
0.0
 11
343.6665669336413
 21
256.3067904832288
 31
0.0
  0
LINE
  5
13947
330
1F
100
AcDbEntity
  8
0
100
AcDbLine
 10
344.3465131906912
 20
257.5773282055887
 30
0.0
 11
343.8231335350007
 21
256.4020723747787
 31
0.0
  0
LINE
  5
13948
330
1F
100
AcDbEntity
  8
0
100
AcDbLine
 10
345.2407584667914
 20
258.5210289217837
 30
0.0
 11
345.4546561577459
 21
259.0013389714787
 31
0.0
  0
LINE
  5
13949
330
1F
100
AcDbEntity
  8
0
100
AcDbLine
 10
346.0155434361019
 20
260.2608186572587
 30
0.0
 11
346.229441126971
 21
260.7411287069537
 31
0.0
  0
LINE
  5
1394A
330
1F
100
AcDbEntity
  8
0
100
AcDbLine
 10
344.3252057617162
 20
256.3841167014187
 30
0.0
 11
344.5314758440515
 21
256.8472988567137
 31
0.0
  0
LINE
  5
1394B
330
1F
100
AcDbEntity
  8
0
100
AcDbLine
 10
325.2594901408561
 20
282.7847670987987
 30
0.0
 11
324.0298795401618
 21
282.5222643675886
 31
0.0
  0
LINE
  5
1394C
330
1F
100
AcDbEntity
  8
0
100
AcDbLine
 10
340.9695401993309
 20
286.3196226485987
 30
0.0
 11
367.8570253346367
 21
292.0596823707287
 31
0.0
  0
LINE
  5
1394D
330
1F
100
AcDbEntity
  8
0
100
AcDbLine
 10
340.3898003912815
 20
286.3503980984587
 30
0.0
 11
367.7691297668813
 21
292.1954589131238
 31
0.0
  0
LINE
  5
1394E
330
1F
100
AcDbEntity
  8
0
100
AcDbLine
 10
333.9099988036912
 20
286.1568622393587
 30
0.0
 11
326.9422053996965
 21
284.6693467625588
 31
0.0
  0
LINE
  5
1394F
330
1F
100
AcDbEntity
  8
0
100
AcDbLine
 10
326.4816822688014
 20
302.0243507478487
 30
0.0
 11
327.5051091928059
 21
301.3954219509887
 31
0.0
  0
LINE
  5
13950
330
1F
100
AcDbEntity
  8
0
100
AcDbLine
 10
356.0635181301665
 20
281.5236436154437
 30
0.0
 11
355.7647659662667
 21
282.1141030998937
 31
0.0
  0
LINE
  5
13951
330
1F
100
AcDbEntity
  8
0
100
AcDbLine
 10
357.312783544871
 20
276.0042304056836
 30
0.0
 11
355.7647659662667
 21
282.1141030998937
 31
0.0
  0
LINE
  5
13952
330
1F
100
AcDbEntity
  8
0
100
AcDbLine
 10
357.312783544871
 20
276.0042304056836
 30
0.0
 11
357.2041626618009
 21
277.0216321565387
 31
0.0
  0
LINE
  5
13953
330
1F
100
AcDbEntity
  8
0
100
AcDbLine
 10
346.9728700965912
 20
256.4823447542537
 30
0.0
 11
346.4119828181516
 21
255.2228650684737
 31
0.0
  0
LINE
  5
13954
330
1F
100
AcDbEntity
  8
0
100
AcDbLine
 10
346.7463177674759
 20
255.6713062879788
 30
0.0
 11
346.1854304891218
 21
254.4118266021136
 31
0.0
  0
LINE
  5
13955
330
1F
100
AcDbEntity
  8
0
100
AcDbLine
 10
357.2041626618009
 20
277.0216321565387
 30
0.0
 11
357.2231757899014
 21
277.0643263831537
 31
0.0
  0
LINE
  5
13956
330
1F
100
AcDbEntity
  8
0
100
AcDbLine
 10
326.3311458292416
 20
287.0811386155587
 30
0.0
 11
333.2989392331507
 21
288.5686540923587
 31
0.0
  0
LINE
  5
13957
330
1F
100
AcDbEntity
  8
0
100
AcDbLine
 10
356.2457189317362
 20
281.5698066138587
 30
0.0
 11
357.3773456988762
 21
277.1033873818388
 31
0.0
  0
LINE
  5
13958
330
1F
100
AcDbEntity
  8
0
100
AcDbLine
 10
322.6855484850408
 20
287.8282064441037
 30
0.0
 11
323.915159085736
 21
288.0907091753136
 31
0.0
  0
LINE
  5
13959
330
1F
100
AcDbEntity
  8
0
100
AcDbLine
 10
328.289498021502
 20
291.4786439591988
 30
0.0
 11
333.1621751633062
 21
292.5188847128887
 31
0.0
  0
LINE
  5
1395A
330
1F
100
AcDbEntity
  8
0
100
AcDbLine
 10
367.8570253346367
 20
292.0596823707287
 30
0.0
 11
367.4577496449616
 21
291.1631036113886
 31
0.0
  0
LINE
  5
1395B
330
1F
100
AcDbEntity
  8
0
100
AcDbLine
 10
366.5926523172617
 20
289.2205162993437
 30
0.0
 11
366.1933766275012
 21
288.3239375399187
 31
0.0
  0
LINE
  5
1395C
330
1F
100
AcDbEntity
  8
0
100
AcDbLine
 10
368.4938045269015
 20
292.1569896007987
 30
0.0
 11
368.2704002719817
 21
291.6553324377537
 31
0.0
  0
LINE
  5
1395D
330
1F
100
AcDbEntity
  8
0
100
AcDbLine
 10
367.0915863309707
 20
289.0082903862637
 30
0.0
 11
366.7255836153869
 21
288.1864265234787
 31
0.0
  0
LINE
  5
1395E
330
1F
100
AcDbEntity
  8
0
100
AcDbLine
 10
367.2484446376271
 20
289.3605177560287
 30
0.0
 11
367.3767832521303
 21
289.6487037858287
 31
0.0
  0
LINE
  5
1395F
330
1F
100
AcDbEntity
  8
0
100
AcDbLine
 10
367.9852033507365
 20
291.0149190381887
 30
0.0
 11
368.1135419653271
 21
291.3031050679887
 31
0.0
  0
LINE
  5
13960
330
1F
100
AcDbEntity
  8
0
100
AcDbLine
 10
324.6439006773859
 20
292.2257117878288
 30
0.0
 11
325.0443039059161
 21
292.3111916470837
 31
0.0
  0
LINE
  5
13961
330
1F
100
AcDbEntity
  8
0
100
AcDbLine
 10
363.4277329586863
 20
276.3999340256938
 30
0.0
 11
361.5945542471515
 21
283.6353095846087
 31
0.0
  0
LINE
  5
13962
330
1F
100
AcDbEntity
  8
0
100
AcDbLine
 10
367.4577496449616
 20
291.1631036113886
 30
0.0
 11
366.9527407435559
 21
289.2973895755687
 31
0.0
  0
LINE
  5
13963
330
1F
100
AcDbEntity
  8
0
100
AcDbLine
 10
370.245874653781
 20
290.2612101586237
 30
0.0
 11
370.8542947523862
 21
291.6274254109837
 31
0.0
  0
LINE
  5
13964
330
1F
100
AcDbEntity
  8
0
100
AcDbLine
 10
371.8641664336507
 20
292.2293694981387
 30
0.0
 11
370.875483773471
 21
290.0092697129688
 31
0.0
  0
LINE
  5
13965
330
1F
100
AcDbEntity
  8
0
100
AcDbLine
 10
336.6154014294167
 20
296.9207375962387
 30
0.0
 11
335.7805638415316
 21
296.7425127607888
 31
0.0
  0
LINE
  5
13966
330
1F
100
AcDbEntity
  8
0
100
AcDbLine
 10
323.9047790463015
 20
294.9525508199986
 30
0.0
 11
332.1021830509914
 21
296.7025690279236
 31
0.0
  0
LINE
  5
13967
330
1F
100
AcDbEntity
  8
0
100
AcDbLine
 10
322.0616117218621
 20
295.4064777960237
 30
0.0
 11
321.2418713214262
 21
295.2314759752738
 31
0.0
  0
LINE
  5
13968
330
1F
100
AcDbEntity
  8
0
100
AcDbLine
 10
370.6353919624859
 20
275.7001157656937
 30
0.0
 11
372.6233209356256
 21
271.6545448337087
 31
0.0
  0
LINE
  5
13969
330
1F
100
AcDbEntity
  8
0
100
AcDbLine
 10
368.2664240989713
 20
291.6212799777087
 30
0.0
 11
368.2704002719817
 21
291.6553324377537
 31
0.0
  0
LINE
  5
1396A
330
1F
100
AcDbEntity
  8
0
100
AcDbLine
 10
368.4938045269015
 20
292.1569896007987
 30
0.0
 11
368.4977806999119
 21
292.1910420608437
 31
0.0
  0
LINE
  5
1396B
330
1F
100
AcDbEntity
  8
0
100
AcDbLine
 10
325.5467570004608
 20
296.9979166072638
 30
0.0
 11
326.776367601156
 21
297.2604193384737
 31
0.0
  0
LINE
  5
1396C
330
1F
100
AcDbEntity
  8
0
100
AcDbLine
 10
319.3688434254168
 20
296.5264427050287
 30
0.0
 11
324.5233300764572
 21
297.6268454041237
 31
0.0
  0
LINE
  5
1396D
330
1F
100
AcDbEntity
  8
0
100
AcDbLine
 10
326.5726810776711
 20
298.0643499561686
 30
0.0
 11
333.1306042814055
 21
299.4643645225088
 31
0.0
  0
LINE
  5
1396E
330
1F
100
AcDbEntity
  8
0
100
AcDbLine
 10
333.8293367384009
 20
301.0333773514387
 30
0.0
 11
332.025907857376
 21
300.6483733457038
 31
0.0
  0
LINE
  5
1396F
330
1F
100
AcDbEntity
  8
0
100
AcDbLine
 10
365.8107775745362
 20
287.7979535694837
 30
0.0
 11
369.2123425170163
 21
274.3723122545637
 31
0.0
  0
LINE
  5
13970
330
1F
100
AcDbEntity
  8
0
100
AcDbLine
 10
366.7255836153869
 20
288.1864265234787
 30
0.0
 11
370.127148557866
 21
274.7607852084737
 31
0.0
  0
LINE
  5
13971
330
1F
100
AcDbEntity
  8
0
100
AcDbLine
 10
367.0915863309707
 20
289.0082903862637
 30
0.0
 11
370.4931512734507
 21
275.5826490712587
 31
0.0
  0
LINE
  5
13972
330
1F
100
AcDbEntity
  8
0
100
AcDbLine
 10
368.0063923718214
 20
289.3967633401738
 30
0.0
 11
371.4079573143014
 21
275.9711220252537
 31
0.0
  0
LINE
  5
13973
330
1F
100
AcDbEntity
  8
0
100
AcDbLine
 10
370.127148557866
 20
274.7607852084737
 30
0.0
 11
370.4931512734507
 21
275.5826490712587
 31
0.0
  0
LINE
  5
13974
330
1F
100
AcDbEntity
  8
0
100
AcDbLine
 10
334.3902240167559
 20
302.2928570373038
 30
0.0
 11
332.5867951357319
 21
301.9078530315688
 31
0.0
  0
LINE
  5
13975
330
1F
100
AcDbEntity
  8
0
100
AcDbLine
 10
327.5051091928059
 20
301.3954219509887
 30
0.0
 11
328.1140044298514
 21
301.5254116099987
 31
0.0
  0
LINE
  5
13976
330
1F
100
AcDbEntity
  8
0
100
AcDbLine
 10
321.3271956176765
 20
300.9239480487537
 30
0.0
 11
326.4816822688014
 21
302.0243507478487
 31
0.0
  0
LINE
  5
13977
330
1F
100
AcDbEntity
  8
0
100
AcDbLine
 10
328.5310332700161
 20
302.4618552998088
 30
0.0
 11
335.0889564737505
 21
303.8618698662337
 31
0.0
  0
LINE
  5
13978
330
1F
100
AcDbEntity
  8
0
100
AcDbLine
 10
368.2823697881263
 20
289.8420324207937
 30
0.0
 11
367.9852033507365
 21
291.0149190381887
 31
0.0
  0
LINE
  5
13979
330
1F
100
AcDbEntity
  8
0
100
AcDbLine
 10
368.2853545935574
 20
291.5963092056436
 30
0.0
 11
368.2704002719817
 21
291.6553324377537
 31
0.0
  0
LINE
  5
1397A
330
1F
100
AcDbEntity
  8
0
100
AcDbLine
 10
368.6439367007657
 20
291.5644327187386
 30
0.0
 11
368.4938045269015
 21
292.1569896007987
 31
0.0
  0
LINE
  5
1397B
330
1F
100
AcDbEntity
  8
0
100
AcDbLine
 10
368.6564428629669
 20
291.5655066412936
 30
0.0
 11
368.5058119871306
 21
292.1600318506738
 31
0.0
  0
LINE
  5
1397C
330
1F
100
AcDbEntity
  8
0
100
AcDbLine
 10
375.8401523343415
 20
271.1921436671687
 30
0.0
 11
375.8848346214513
 21
271.2386219390838
 31
0.0
  0
LINE
  5
1397D
330
1F
100
AcDbEntity
  8
0
100
AcDbLine
 10
375.3769559428217
 20
272.2424030627337
 30
0.0
 11
370.875483773471
 21
290.0092697129688
 31
0.0
  0
LINE
  5
1397E
330
1F
100
AcDbEntity
  8
0
100
AcDbLine
 10
376.3656386030858
 20
274.4625028479037
 30
0.0
 11
371.8641664336507
 21
292.2293694981387
 31
0.0
  0
LINE
  5
1397F
330
1F
100
AcDbEntity
  8
0
100
AcDbLine
 10
376.5502941043566
 20
272.7329198714587
 30
0.0
 11
375.8848346214513
 21
271.2386219390838
 31
0.0
  0
LINE
  5
13980
330
1F
100
AcDbEntity
  8
0
100
AcDbLine
 10
402.3797084959275
 20
417.513639882576
 30
0.0
 11
403.8417306142268
 21
418.3577337851758
 31
0.0
  0
LINE
  5
13981
330
1F
100
AcDbEntity
  8
0
100
AcDbLine
 10
402.1296806142268
 20
379.657733785176
 30
0.0
 11
402.1296806142268
 21
381.223533785176
 31
0.0
  0
LINE
  5
13982
330
1F
100
AcDbEntity
  8
0
100
AcDbLine
 10
402.1296806142268
 20
390.9032537851762
 30
0.0
 11
402.1296806142268
 21
392.7577337851762
 31
0.0
  0
LINE
  5
13983
330
1F
100
AcDbEntity
  8
0
100
AcDbLine
 10
402.1296806142268
 20
400.803253785176
 30
0.0
 11
402.1296806142268
 21
407.112213785176
 31
0.0
  0
LINE
  5
13984
330
1F
100
AcDbEntity
  8
0
100
AcDbLine
 10
402.1296806142268
 20
407.112213785176
 30
0.0
 11
404.1238599202277
 21
408.2635544791759
 31
0.0
  0
LINE
  5
13985
330
1F
100
AcDbEntity
  8
0
100
AcDbLine
 10
419.5296806142272
 20
360.057733785176
 30
0.0
 11
421.1296806142268
 21
360.057733785176
 31
0.0
  0
LINE
  5
13986
330
1F
100
AcDbEntity
  8
0
100
AcDbLine
 10
419.5551508759278
 20
362.8537905853761
 30
0.0
 11
418.9793671064276
 21
363.0014636292762
 31
0.0
  0
LINE
  5
13987
330
1F
100
AcDbEntity
  8
0
100
AcDbLine
 10
405.6296806142269
 20
416.3577337851759
 30
0.0
 11
405.6296806142269
 21
415.2908171633758
 31
0.0
  0
LINE
  5
13988
330
1F
100
AcDbEntity
  8
0
100
AcDbLine
 10
405.6296806142269
 20
382.7246505034761
 30
0.0
 11
405.6296806142269
 21
381.657733785176
 31
0.0
  0
LINE
  5
13989
330
1F
100
AcDbEntity
  8
0
100
AcDbLine
 10
406.6296806142267
 20
381.657733785176
 30
0.0
 11
406.6296806142267
 21
382.6577337851762
 31
0.0
  0
LINE
  5
1398A
330
1F
100
AcDbEntity
  8
0
100
AcDbLine
 10
406.6296806142267
 20
389.7577337851762
 30
0.0
 11
406.6296806142267
 21
390.7577337851762
 31
0.0
  0
LINE
  5
1398B
330
1F
100
AcDbEntity
  8
0
100
AcDbLine
 10
406.6296806142267
 20
407.2577337851758
 30
0.0
 11
406.6296806142267
 21
408.257733785176
 31
0.0
  0
LINE
  5
1398C
330
1F
100
AcDbEntity
  8
0
100
AcDbLine
 10
406.6296806142267
 20
415.357733785176
 30
0.0
 11
406.6296806142267
 21
416.3577337851759
 31
0.0
  0
LINE
  5
1398D
330
1F
100
AcDbEntity
  8
0
100
AcDbLine
 10
405.1296806142268
 20
400.6577337851759
 30
0.0
 11
404.1238599202277
 21
399.6519130910762
 31
0.0
  0
LINE
  5
1398E
330
1F
100
AcDbEntity
  8
0
100
AcDbLine
 10
408.6296806142268
 20
408.257733785176
 30
0.0
 11
408.6296806142268
 21
405.9577337851761
 31
0.0
  0
LINE
  5
1398F
330
1F
100
AcDbEntity
  8
0
100
AcDbLine
 10
408.6296806142268
 20
401.9577337851761
 30
0.0
 11
408.6296806142268
 21
399.6577337851761
 31
0.0
  0
LINE
  5
13990
330
1F
100
AcDbEntity
  8
0
100
AcDbLine
 10
417.1296806142268
 20
365.6577337851762
 30
0.0
 11
421.6296806142268
 21
365.6577337851762
 31
0.0
  0
LINE
  5
13991
330
1F
100
AcDbEntity
  8
0
100
AcDbLine
 10
418.7296806142271
 20
361.7577337851762
 30
0.0
 11
419.5296806142272
 21
360.057733785176
 31
0.0
  0
LINE
  5
13992
330
1F
100
AcDbEntity
  8
0
100
AcDbLine
 10
405.1296806142268
 20
390.7577337851762
 30
0.0
 11
404.1238599202277
 21
389.751913091076
 31
0.0
  0
LINE
  5
13993
330
1F
100
AcDbEntity
  8
0
100
AcDbLine
 10
419.9296806142267
 20
367.157733785176
 30
0.0
 11
418.6296806142268
 21
367.157733785176
 31
0.0
  0
LINE
  5
13994
330
1F
100
AcDbEntity
  8
0
100
AcDbLine
 10
407.1296792379277
 20
398.7917089214761
 30
0.0
 11
406.6296806142267
 21
400.6577337851759
 31
0.0
  0
LINE
  5
13995
330
1F
100
AcDbEntity
  8
0
100
AcDbLine
 10
412.6296806142268
 20
417.3577337851757
 30
0.0
 11
412.6296806142268
 21
418.3577337851758
 31
0.0
  0
LINE
  5
13996
330
1F
100
AcDbEntity
  8
0
100
AcDbLine
 10
417.1296806142268
 20
372.1577337851762
 30
0.0
 11
417.1296806142268
 21
365.6577337851762
 31
0.0
  0
LINE
  5
13997
330
1F
100
AcDbEntity
  8
0
100
AcDbLine
 10
460.5296806142272
 20
372.557733785176
 30
0.0
 11
458.4296806142271
 21
372.557733785176
 31
0.0
  0
LINE
  5
13998
330
1F
100
AcDbEntity
  8
0
100
AcDbLine
 10
419.6296806142268
 20
373.157733785176
 30
0.0
 11
419.9296806142267
 21
373.157733785176
 31
0.0
  0
LINE
  5
13999
330
1F
100
AcDbEntity
  8
0
100
AcDbLine
 10
460.5296806142272
 20
374.2577337851762
 30
0.0
 11
457.1705256846268
 21
374.2577337851762
 31
0.0
  0
LINE
  5
1399A
330
1F
100
AcDbEntity
  8
0
100
AcDbLine
 10
419.9296806142267
 20
374.6577337851761
 30
0.0
 11
419.6296806142268
 21
374.6577337851761
 31
0.0
  0
LINE
  5
1399B
330
1F
100
AcDbEntity
  8
0
100
AcDbLine
 10
418.6296806142268
 20
415.357733785176
 30
0.0
 11
418.6296806142268
 21
406.4577337851761
 31
0.0
  0
LINE
  5
1399C
330
1F
100
AcDbEntity
  8
0
100
AcDbLine
 10
418.6296806142268
 20
367.157733785176
 30
0.0
 11
418.6296806142268
 21
372.1577337851762
 31
0.0
  0
LINE
  5
1399D
330
1F
100
AcDbEntity
  8
0
100
AcDbLine
 10
418.6296806142268
 20
383.657733785176
 30
0.0
 11
418.6296806142268
 21
388.7577337851762
 31
0.0
  0
LINE
  5
1399E
330
1F
100
AcDbEntity
  8
0
100
AcDbLine
 10
418.6296806142268
 20
393.7577337851762
 30
0.0
 11
418.6296806142268
 21
401.4577337851758
 31
0.0
  0
LINE
  5
1399F
330
1F
100
AcDbEntity
  8
0
100
AcDbLine
 10
418.7296806142271
 20
362.807733785176
 30
0.0
 11
418.7296806142271
 21
361.7577337851762
 31
0.0
  0
LINE
  5
139A0
330
1F
100
AcDbEntity
  8
0
100
AcDbLine
 10
419.1296806142267
 20
388.3577337851761
 30
0.0
 11
419.1296806142267
 21
384.057733785176
 31
0.0
  0
LINE
  5
139A1
330
1F
100
AcDbEntity
  8
0
100
AcDbLine
 10
419.6375906347269
 20
387.8498237646762
 30
0.0
 11
419.6375906347269
 21
384.5656438056762
 31
0.0
  0
LINE
  5
139A2
330
1F
100
AcDbEntity
  8
0
100
AcDbLine
 10
419.9296806142267
 20
378.6577337851761
 30
0.0
 11
419.9296806142267
 21
374.6577337851761
 31
0.0
  0
LINE
  5
139A3
330
1F
100
AcDbEntity
  8
0
100
AcDbLine
 10
419.9296806142267
 20
373.157733785176
 30
0.0
 11
419.9296806142267
 21
367.157733785176
 31
0.0
  0
LINE
  5
139A4
330
1F
100
AcDbEntity
  8
0
100
AcDbLine
 10
419.9296806142267
 20
363.1443853514761
 30
0.0
 11
419.9296806142267
 21
365.6577337851762
 31
0.0
  0
LINE
  5
139A5
330
1F
100
AcDbEntity
  8
0
100
AcDbLine
 10
420.8217705937273
 20
384.5656438056762
 30
0.0
 11
420.8217705937273
 21
387.8498237646762
 31
0.0
  0
LINE
  5
139A6
330
1F
100
AcDbEntity
  8
0
100
AcDbLine
 10
404.1238599202277
 20
389.751913091076
 30
0.0
 11
402.1296806142268
 21
390.9032537851762
 31
0.0
  0
LINE
  5
139A7
330
1F
100
AcDbEntity
  8
0
100
AcDbLine
 10
421.3296806142276
 20
384.057733785176
 30
0.0
 11
420.8217705937273
 21
384.5656438056762
 31
0.0
  0
LINE
  5
139A8
330
1F
100
AcDbEntity
  8
0
100
AcDbLine
 10
421.3296806142276
 20
384.057733785176
 30
0.0
 11
421.3296806142276
 21
388.3577337851761
 31
0.0
  0
LINE
  5
139A9
330
1F
100
AcDbEntity
  8
0
100
AcDbLine
 10
421.6296806142268
 20
360.9577337851762
 30
0.0
 11
421.6296806142268
 21
379.657733785176
 31
0.0
  0
LINE
  5
139AA
330
1F
100
AcDbEntity
  8
0
100
AcDbLine
 10
421.6296806142268
 20
396.357733785176
 30
0.0
 11
421.6296806142268
 21
417.3577337851757
 31
0.0
  0
LINE
  5
139AB
330
1F
100
AcDbEntity
  8
0
100
AcDbLine
 10
421.6296806142268
 20
378.6577337851761
 30
0.0
 11
419.9296806142267
 21
378.6577337851761
 31
0.0
  0
LINE
  5
139AC
330
1F
100
AcDbEntity
  8
0
100
AcDbLine
 10
457.0296806142272
 20
379.657733785176
 30
0.0
 11
402.1296806142268
 21
379.657733785176
 31
0.0
  0
LINE
  5
139AD
330
1F
100
AcDbEntity
  8
0
100
AcDbLine
 10
419.1296806142267
 20
388.3577337851761
 30
0.0
 11
419.6375906347269
 21
387.8498237646762
 31
0.0
  0
LINE
  5
139AE
330
1F
100
AcDbEntity
  8
0
100
AcDbLine
 10
421.3296806142276
 20
388.3577337851761
 30
0.0
 11
420.8217705937273
 21
387.8498237646762
 31
0.0
  0
LINE
  5
139AF
330
1F
100
AcDbEntity
  8
0
100
AcDbLine
 10
419.1296806142267
 20
384.057733785176
 30
0.0
 11
419.6375906347269
 21
384.5656438056762
 31
0.0
  0
LINE
  5
139B0
330
1F
100
AcDbEntity
  8
0
100
AcDbLine
 10
405.1796802297273
 20
382.9844579026762
 30
0.0
 11
402.1296806142268
 21
381.223533785176
 31
0.0
  0
LINE
  5
139B1
330
1F
100
AcDbEntity
  8
0
100
AcDbLine
 10
405.6296806142269
 20
381.657733785176
 30
0.0
 11
406.6296806142267
 21
381.657733785176
 31
0.0
  0
LINE
  5
139B2
330
1F
100
AcDbEntity
  8
0
100
AcDbLine
 10
408.6296806142268
 20
382.6577337851762
 30
0.0
 11
417.6296806142268
 21
382.6577337851762
 31
0.0
  0
LINE
  5
139B3
330
1F
100
AcDbEntity
  8
0
100
AcDbLine
 10
428.7296806142272
 20
383.5077337851762
 30
0.0
 11
448.9296806142268
 21
383.5077337851762
 31
0.0
  0
LINE
  5
139B4
330
1F
100
AcDbEntity
  8
0
100
AcDbLine
 10
404.1238599202277
 20
408.2635544791759
 30
0.0
 11
405.1296806142268
 21
407.2577337851758
 31
0.0
  0
LINE
  5
139B5
330
1F
100
AcDbEntity
  8
0
100
AcDbLine
 10
428.7296806142272
 20
392.5077337851762
 30
0.0
 11
428.7296806142272
 21
383.5077337851762
 31
0.0
  0
LINE
  5
139B6
330
1F
100
AcDbEntity
  8
0
100
AcDbLine
 10
419.1296806142267
 20
384.057733785176
 30
0.0
 11
421.3296806142276
 21
384.057733785176
 31
0.0
  0
LINE
  5
139B7
330
1F
100
AcDbEntity
  8
0
100
AcDbLine
 10
448.9296806142268
 20
384.307733785176
 30
0.0
 11
441.5296806142273
 21
384.307733785176
 31
0.0
  0
LINE
  5
139B8
330
1F
100
AcDbEntity
  8
0
100
AcDbLine
 10
436.1296806142268
 20
384.307733785176
 30
0.0
 11
428.7296806142272
 21
384.307733785176
 31
0.0
  0
LINE
  5
139B9
330
1F
100
AcDbEntity
  8
0
100
AcDbLine
 10
419.6375906347269
 20
384.5656438056762
 30
0.0
 11
420.8217705937273
 21
384.5656438056762
 31
0.0
  0
LINE
  5
139BA
330
1F
100
AcDbEntity
  8
0
100
AcDbLine
 10
448.9296806142268
 20
385.307733785176
 30
0.0
 11
441.5296806142273
 21
385.307733785176
 31
0.0
  0
LINE
  5
139BB
330
1F
100
AcDbEntity
  8
0
100
AcDbLine
 10
436.1296806142268
 20
385.307733785176
 30
0.0
 11
428.7296806142272
 21
385.307733785176
 31
0.0
  0
LINE
  5
139BC
330
1F
100
AcDbEntity
  8
0
100
AcDbLine
 10
404.1238599202277
 20
399.6519130910762
 30
0.0
 11
402.1296806142268
 21
400.803253785176
 31
0.0
  0
LINE
  5
139BD
330
1F
100
AcDbEntity
  8
0
100
AcDbLine
 10
420.8217705937273
 20
387.8498237646762
 30
0.0
 11
419.6375906347269
 21
387.8498237646762
 31
0.0
  0
LINE
  5
139BE
330
1F
100
AcDbEntity
  8
0
100
AcDbLine
 10
421.3296806142276
 20
388.3577337851761
 30
0.0
 11
419.1296806142267
 21
388.3577337851761
 31
0.0
  0
LINE
  5
139BF
330
1F
100
AcDbEntity
  8
0
100
AcDbLine
 10
417.6296806142268
 20
389.7577337851762
 30
0.0
 11
408.6296806170271
 21
389.7577337851762
 31
0.0
  0
LINE
  5
139C0
330
1F
100
AcDbEntity
  8
0
100
AcDbLine
 10
406.6296806142267
 20
390.7577337851762
 30
0.0
 11
405.1296806142268
 21
390.7577337851762
 31
0.0
  0
LINE
  5
139C1
330
1F
100
AcDbEntity
  8
0
100
AcDbLine
 10
428.7296806142272
 20
390.9077337851762
 30
0.0
 11
436.1296806142268
 21
390.9077337851762
 31
0.0
  0
LINE
  5
139C2
330
1F
100
AcDbEntity
  8
0
100
AcDbLine
 10
441.5296806142273
 20
390.9077337851762
 30
0.0
 11
448.9296806142268
 21
390.9077337851762
 31
0.0
  0
LINE
  5
139C3
330
1F
100
AcDbEntity
  8
0
100
AcDbLine
 10
428.7296806142272
 20
391.907733785176
 30
0.0
 11
436.1296806142268
 21
391.907733785176
 31
0.0
  0
LINE
  5
139C4
330
1F
100
AcDbEntity
  8
0
100
AcDbLine
 10
441.5296806142273
 20
391.907733785176
 30
0.0
 11
448.9296806142268
 21
391.907733785176
 31
0.0
  0
LINE
  5
139C5
330
1F
100
AcDbEntity
  8
0
100
AcDbLine
 10
436.1296806142268
 20
391.907733785176
 30
0.0
 11
436.1296806142268
 21
384.307733785176
 31
0.0
  0
LINE
  5
139C6
330
1F
100
AcDbEntity
  8
0
100
AcDbLine
 10
421.1296806142268
 20
360.057733785176
 30
0.0
 11
421.6296806142268
 21
360.9577337851762
 31
0.0
  0
LINE
  5
139C7
330
1F
100
AcDbEntity
  8
0
100
AcDbLine
 10
448.9296806142268
 20
392.5077337851762
 30
0.0
 11
428.7296806142272
 21
392.5077337851762
 31
0.0
  0
LINE
  5
139C8
330
1F
100
AcDbEntity
  8
0
100
AcDbLine
 10
402.1296806142268
 20
392.7577337851762
 30
0.0
 11
417.6296806142268
 21
392.7577337851762
 31
0.0
  0
LINE
  5
139C9
330
1F
100
AcDbEntity
  8
0
100
AcDbLine
 10
410.1296806142268
 20
418.3577337851758
 30
0.0
 11
411.1296806142267
 21
417.3577337851757
 31
0.0
  0
LINE
  5
139CA
330
1F
100
AcDbEntity
  8
0
100
AcDbLine
 10
421.6296806142268
 20
396.357733785176
 30
0.0
 11
460.5296806142272
 21
396.357733785176
 31
0.0
  0
LINE
  5
139CB
330
1F
100
AcDbEntity
  8
0
100
AcDbLine
 10
458.4296806142271
 20
372.557733785176
 30
0.0
 11
457.2816347000268
 21
373.7318177789761
 31
0.0
  0
LINE
  5
139CC
330
1F
100
AcDbEntity
  8
0
100
AcDbLine
 10
441.5296806142273
 20
384.307733785176
 30
0.0
 11
441.5296806142273
 21
391.907733785176
 31
0.0
  0
LINE
  5
139CD
330
1F
100
AcDbEntity
  8
0
100
AcDbLine
 10
406.6296806142267
 20
400.6577337851759
 30
0.0
 11
405.1296806142268
 21
400.6577337851759
 31
0.0
  0
LINE
  5
139CE
330
1F
100
AcDbEntity
  8
0
100
AcDbLine
 10
402.3796806142268
 20
416.6475937851758
 30
0.0
 11
405.1796803714275
 21
415.0310096824759
 31
0.0
  0
LINE
  5
139CF
330
1F
100
AcDbEntity
  8
0
100
AcDbLine
 10
417.6296806142268
 20
402.4577337851761
 30
0.0
 11
409.1296806142268
 21
402.4577337851761
 31
0.0
  0
LINE
  5
139D0
330
1F
100
AcDbEntity
  8
0
100
AcDbLine
 10
448.9296806142268
 20
383.5077337851762
 30
0.0
 11
448.9296806142268
 21
392.5077337851762
 31
0.0
  0
LINE
  5
139D1
330
1F
100
AcDbEntity
  8
0
100
AcDbLine
 10
409.1296806142268
 20
405.4577337851758
 30
0.0
 11
417.6296806142268
 21
405.4577337851758
 31
0.0
  0
LINE
  5
139D2
330
1F
100
AcDbEntity
  8
0
100
AcDbLine
 10
405.1296806142268
 20
407.2577337851758
 30
0.0
 11
406.6296806142267
 21
407.2577337851758
 31
0.0
  0
LINE
  5
139D3
330
1F
100
AcDbEntity
  8
0
100
AcDbLine
 10
455.0296806142275
 20
396.357733785176
 30
0.0
 11
455.0296806142275
 21
379.657733785176
 31
0.0
  0
LINE
  5
139D4
330
1F
100
AcDbEntity
  8
0
100
AcDbLine
 10
457.2816347000268
 20
373.7318177789761
 30
0.0
 11
456.0296806142273
 21
379.657733785176
 31
0.0
  0
LINE
  5
139D5
330
1F
100
AcDbEntity
  8
0
100
AcDbLine
 10
456.0296806142273
 20
396.357733785176
 30
0.0
 11
456.0296806142273
 21
379.657733785176
 31
0.0
  0
LINE
  5
139D6
330
1F
100
AcDbEntity
  8
0
100
AcDbLine
 10
457.0296806142272
 20
396.357733785176
 30
0.0
 11
457.0296806142272
 21
379.657733785176
 31
0.0
  0
LINE
  5
139D7
330
1F
100
AcDbEntity
  8
0
100
AcDbLine
 10
460.5296806142272
 20
372.557733785176
 30
0.0
 11
460.5296806142272
 21
396.357733785176
 31
0.0
  0
LINE
  5
139D8
330
1F
100
AcDbEntity
  8
0
100
AcDbLine
 10
408.6296806142268
 20
415.357733785176
 30
0.0
 11
418.6296806142268
 21
415.357733785176
 31
0.0
  0
LINE
  5
139D9
330
1F
100
AcDbEntity
  8
0
100
AcDbLine
 10
406.6296806142267
 20
416.3577337851759
 30
0.0
 11
405.6296806142269
 21
416.3577337851759
 31
0.0
  0
LINE
  5
139DA
330
1F
100
AcDbEntity
  8
0
100
AcDbLine
 10
411.1296806142267
 20
417.3577337851757
 30
0.0
 11
412.6296806142268
 21
417.3577337851757
 31
0.0
  0
LINE
  5
139DB
330
1F
100
AcDbEntity
  8
0
100
AcDbLine
 10
403.8417306142268
 20
418.3577337851758
 30
0.0
 11
410.1296806142268
 21
418.3577337851758
 31
0.0
  0
LINE
  5
139DC
330
1F
100
AcDbEntity
  8
0
100
AcDbLine
 10
412.6296806142268
 20
418.3577337851758
 30
0.0
 11
420.6296806142268
 21
418.3577337851758
 31
0.0
  0
ARC
  5
139DD
330
1F
100
AcDbEntity
  8
0
100
AcDbCircle
 10
343.1252911965608
 20
265.6787364762337
 30
0.0
 40
1.971211091369998
100
AcDbArc
 50
139.3681253156055
 51
155.9705037940977
  0
ARC
  5
139DE
330
1F
100
AcDbEntity
  8
0
100
AcDbCircle
 10
419.6296806142268
 20
372.1577337851762
 30
0.0
 40
2.5
100
AcDbArc
 50
90.0
 51
180.0
  0
CIRCLE
  5
139DF
330
1F
100
AcDbEntity
  8
02___PRT_ALL_AXES
100
AcDbCircle
 10
405.6296806142269
 20
403.9577337851762
 30
0.0
 40
1.35
  0
ARC
  5
139E0
330
1F
100
AcDbEntity
  8
0
100
AcDbCircle
 10
417.6296806142268
 20
393.7577337851762
 30
0.0
 40
1.0
100
AcDbArc
 50
270.0
 51
0.0
  0
ARC
  5
139E1
330
1F
100
AcDbEntity
  8
0
100
AcDbCircle
 10
417.6296806142268
 20
401.4577337851758
 30
0.0
 40
1.0
100
AcDbArc
 50
0.0
 51
90.0
  0
ARC
  5
139E2
330
1F
100
AcDbEntity
  8
0
100
AcDbCircle
 10
407.6296806142268
 20
399.6577337851761
 30
0.0
 40
1.0
100
AcDbArc
 50
239.9999162352925
 51
0.0
  0
ARC
  5
139E3
330
1F
100
AcDbEntity
  8
0
100
AcDbCircle
 10
407.6296806142268
 20
408.257733785176
 30
0.0
 40
1.0
100
AcDbArc
 50
0.0
 51
180.0
  0
ARC
  5
139E4
330
1F
100
AcDbEntity
  8
0
100
AcDbCircle
 10
417.6296806142268
 20
406.4577337851761
 30
0.0
 40
1.0
100
AcDbArc
 50
270.0
 51
0.0
  0
ARC
  5
139E5
330
1F
100
AcDbEntity
  8
0
100
AcDbCircle
 10
407.6296806142268
 20
415.357733785176
 30
0.0
 40
1.0
100
AcDbArc
 50
180.0
 51
0.0
  0
ARC
  5
139E6
330
1F
100
AcDbEntity
  8
0
100
AcDbCircle
 10
420.6296806142268
 20
417.3577337851757
 30
0.0
 40
1.0
100
AcDbArc
 50
0.0
 51
90.0
  0
ARC
  5
139E7
330
1F
100
AcDbEntity
  8
0
100
AcDbCircle
 10
407.6296806142268
 20
382.6577337851762
 30
0.0
 40
1.0
100
AcDbArc
 50
0.0
 51
180.0
  0
ARC
  5
139E8
330
1F
100
AcDbEntity
  8
0
100
AcDbCircle
 10
417.6296806142268
 20
383.657733785176
 30
0.0
 40
1.0
100
AcDbArc
 50
270.0
 51
0.0
  0
ARC
  5
139E9
330
1F
100
AcDbEntity
  8
0
100
AcDbCircle
 10
417.6296806142268
 20
388.7577337851762
 30
0.0
 40
1.0
100
AcDbArc
 50
0.0
 51
90.0
  0
ARC
  5
139EA
330
1F
100
AcDbEntity
  8
0
100
AcDbCircle
 10
407.6296806142268
 20
389.7577337851762
 30
0.0
 40
1.0
100
AcDbArc
 50
180.0
 51
0.0
  0
ARC
  5
139EB
330
1F
100
AcDbEntity
  8
0
100
AcDbCircle
 10
419.6296806142268
 20
372.1577337851762
 30
0.0
 40
1.0
100
AcDbArc
 50
90.0
 51
180.0
  0
ARC
  5
139EC
330
1F
100
AcDbEntity
  8
0
100
AcDbCircle
 10
418.9296806142268
 20
378.6577337851761
 30
0.0
 40
1.0
100
AcDbArc
 50
0.0
 51
90.0
  0
ARC
  5
139ED
330
1F
100
AcDbEntity
  8
0
100
AcDbCircle
 10
402.6296806142267
 20
417.0806037851758
 30
0.0
 40
0.5
100
AcDbArc
 50
119.9958926317972
 51
239.9984793242877
  0
ARC
  5
139EE
330
1F
100
AcDbEntity
  8
0
100
AcDbCircle
 10
409.1296806142268
 20
405.9577337851761
 30
0.0
 40
0.5
100
AcDbArc
 50
180.0
 51
270.0
  0
ARC
  5
139EF
330
1F
100
AcDbEntity
  8
0
100
AcDbCircle
 10
409.1296806142268
 20
401.9577337851761
 30
0.0
 40
0.5
100
AcDbArc
 50
90.0
 51
180.0
  0
ARC
  5
139F0
330
1F
100
AcDbEntity
  8
0
100
AcDbCircle
 10
405.3296806142276
 20
415.2908171633758
 30
0.0
 40
0.3
100
AcDbArc
 50
239.9999464519094
 51
0.0
  0
ARC
  5
139F1
330
1F
100
AcDbEntity
  8
0
100
AcDbCircle
 10
405.3296806142276
 20
382.7246505034761
 30
0.0
 40
0.3
100
AcDbArc
 50
0.0
 51
120.0000847949075
  0
ARC
  5
139F2
330
1F
100
AcDbEntity
  8
0
100
AcDbCircle
 10
419.6296806142268
 20
363.1443853514761
 30
0.0
 40
0.3
100
AcDbArc
 50
255.6152273227862
 51
0.0
  0
ARC
  5
139F3
330
1F
100
AcDbEntity
  8
0
100
AcDbCircle
 10
418.9296806142268
 20
362.807733785176
 30
0.0
 40
0.2
100
AcDbArc
 50
75.61522732270557
 51
180.0
  0
SPLINE
  5
139F4
330
1F
100
AcDbEntity
  8
02___PRT_ALL_AXES
100
AcDbSpline
210
0.0
220
0.0
230
1.0
 70
     8
 71
     3
 72
    15
 73
    11
 74
     0
 42
0.0000000001
 43
0.0000000001
 40
0.0
 40
0.0
 40
0.0
 40
0.0
 40
0.1257485524
 40
0.2523973243
 40
0.3792826763
 40
0.5056969845000002
 40
0.6310545658
 40
0.7550813382000002
 40
0.8778991911
 40
1.0
 40
1.0
 40
1.0
 40
1.0
 10
323.492607406101
 20
286.3480426501137
 30
0.0
 10
323.595108918426
 20
286.3699251280587
 30
0.0
 10
323.8079841742161
 20
286.3854739131987
 30
0.0
 10
324.1215728608264
 20
286.3230553586387
 30
0.0
 10
324.4083998445818
 20
286.1800744014587
 30
0.0
 10
324.646563446972
 20
285.9672326793587
 30
0.0
 10
324.8180267442409
 20
285.7004432132736
 30
0.0
 10
324.9094133882214
 20
285.3996925258887
 30
0.0
 10
324.913461875151
 20
285.0881901591787
 30
0.0
 10
324.8570842714413
 20
284.8885026177736
 30
0.0
 10
324.8156627866316
 20
284.7955425557937
 30
0.0
  0
SPLINE
  5
139F5
330
1F
100
AcDbEntity
  8
0
100
AcDbSpline
210
0.0
220
0.0
230
1.0
 70
     8
 71
     3
 72
    11
 73
     7
 74
     0
 42
0.0000000001
 43
0.0000000001
 40
0.0
 40
0.0
 40
0.0
 40
0.0
 40
0.2475753243
 40
0.4982992724000001
 40
0.7500117507999999
 40
1.0
 40
1.0
 40
1.0
 40
1.0
 10
334.933425727612
 20
285.5279334424986
 30
0.0
 10
334.9067273393854
 20
285.6333093476338
 30
0.0
 10
334.8093091334009
 20
285.8365967811587
 30
0.0
 10
334.5598599682158
 20
286.0632141473437
 30
0.0
 10
334.2440105153561
 20
286.1834765906337
 30
0.0
 10
334.0173448435859
 20
286.1797789485988
 30
0.0
 10
333.9099988036912
 20
286.1568622393587
 30
0.0
  0
SPLINE
  5
139F6
330
1F
100
AcDbEntity
  8
0
100
AcDbSpline
210
0.0
220
0.0
230
1.0
 70
     8
 71
     3
 72
     9
 73
     5
 74
     0
 42
0.0000000001
 43
0.0000000001
 40
0.0
 40
0.0
 40
0.0
 40
0.0
 40
0.5019632654999999
 40
1.0
 40
1.0
 40
1.0
 40
1.0
 10
323.7114725622511
 20
288.8946397930087
 30
0.0
 10
323.6897026879711
 20
288.9805633394288
 30
0.0
 10
323.6741425960468
 20
289.1601325114187
 30
0.0
 10
323.7188658704114
 20
289.3348964838087
 30
0.0
 10
323.7546443148718
 20
289.4152348305087
 30
0.0
  0
SPLINE
  5
139F7
330
1F
100
AcDbEntity
  8
0
100
AcDbSpline
210
0.0
220
0.0
230
1.0
 70
     8
 71
     3
 72
    11
 73
     7
 74
     0
 42
0.0000000001
 43
0.0000000001
 40
0.0
 40
0.0
 40
0.0
 40
0.0
 40
0.2543888757
 40
0.5061373321
 40
0.7542522141
 40
1.0
 40
1.0
 40
1.0
 40
1.0
 10
321.1432237622263
 20
294.0861309860537
 30
0.0
 10
321.1723184696017
 20
294.0771559014187
 30
0.0
 10
321.2338563772415
 20
294.0693320918037
 30
0.0
 10
321.3236740728604
 20
294.0900106090087
 30
0.0
 10
321.399488335616
 20
294.1407234723787
 30
0.0
 10
321.4342071183115
 20
294.1905796890889
 30
0.0
 10
321.4461814259909
 20
294.2174452682337
 30
0.0
  0
SPLINE
  5
139F8
330
1F
100
AcDbEntity
  8
0
100
AcDbSpline
210
0.0
220
0.0
230
1.0
 70
     8
 71
     3
 72
    11
 73
     7
 74
     0
 42
0.0000000001
 43
0.0000000001
 40
0.0
 40
0.0
 40
0.0
 40
0.0
 40
0.2544884116
 40
0.5066518074000001
 40
0.7548792301000003
 40
1.0
 40
1.0
 40
1.0
 40
1.0
 10
318.5186647685065
 20
294.8957503712088
 30
0.0
 10
318.461707057561
 20
294.9133205305537
 30
0.0
 10
318.3542178976419
 20
294.9722191812237
 30
0.0
 10
318.2429676458211
 20
295.1159630664437
 30
0.0
 10
318.2001825627064
 20
295.2906700663087
 30
0.0
 10
318.2238786378817
 20
295.4083058338187
 30
0.0
 10
318.2472686518563
 20
295.4607372258287
 30
0.0
  0
SPLINE
  5
139F9
330
1F
100
AcDbEntity
  8
0
100
AcDbSpline
210
0.0
220
0.0
230
1.0
 70
     8
 71
     3
 72
     9
 73
     5
 74
     0
 42
0.0000000001
 43
0.0000000001
 40
0.0
 40
0.0
 40
0.0
 40
0.0
 40
0.5019632654999999
 40
1.0
 40
1.0
 40
1.0
 40
1.0
 10
328.9258475639268
 20
268.3140159808837
 30
0.0
 10
328.9040776896469
 20
268.3999395273037
 30
0.0
 10
328.8885175977208
 20
268.5795086992937
 30
0.0
 10
328.9332408720016
 20
268.7542726716837
 30
0.0
 10
328.9690193164612
 20
268.8346110183837
 30
0.0
  0
SPLINE
  5
139FA
330
1F
100
AcDbEntity
  8
0
100
AcDbSpline
210
0.0
220
0.0
230
1.0
 70
     8
 71
     3
 72
    11
 73
     7
 74
     0
 42
0.0000000001
 43
0.0000000001
 40
0.0
 40
0.0
 40
0.0
 40
0.0
 40
0.2475753243
 40
0.4982992724000001
 40
0.7500117507999999
 40
1.0
 40
1.0
 40
1.0
 40
1.0
 10
337.5202445761521
 20
275.3180145981888
 30
0.0
 10
337.4935461878409
 20
275.4233905033237
 30
0.0
 10
337.3961279818565
 20
275.6266779368487
 30
0.0
 10
337.146678816756
 20
275.8532953030337
 30
0.0
 10
336.8308293638116
 20
275.9735577464088
 30
0.0
 10
336.6041636920404
 20
275.9698601042888
 30
0.0
 10
336.4968176521458
 20
275.9469433950489
 30
0.0
  0
SPLINE
  5
139FB
330
1F
100
AcDbEntity
  8
0
100
AcDbSpline
210
0.0
220
0.0
230
1.0
 70
     8
 71
     3
 72
     9
 73
     5
 74
     0
 42
0.0000000001
 43
0.0000000001
 40
0.0
 40
0.0
 40
0.0
 40
0.0
 40
0.4963899031000001
 40
1.0
 40
1.0
 40
1.0
 40
1.0
 10
326.6557648521217
 20
284.4401778331388
 30
0.0
 10
326.6811663814912
 20
284.4972038990436
 30
0.0
 10
326.7613974974608
 20
284.6011363086787
 30
0.0
 10
326.8802654759708
 20
284.6561235525988
 30
0.0
 10
326.9422053996965
 20
284.6693467625588
 30
0.0
  0
SPLINE
  5
139FC
330
1F
100
AcDbEntity
  8
0
100
AcDbSpline
210
0.0
220
0.0
230
1.0
 70
     8
 71
     3
 72
     9
 73
     5
 74
     0
 42
0.0000000001
 43
0.0000000001
 40
0.0
 40
0.0
 40
0.0
 40
0.0
 40
0.4980243566000002
 40
1.0
 40
1.0
 40
1.0
 40
1.0
 10
340.3362305890865
 20
264.2613274247238
 30
0.0
 10
340.2467256172209
 20
264.0603633124337
 30
0.0
 10
340.134598585472
 20
263.6232558054187
 30
0.0
 10
340.1735042135912
 20
263.1740181821537
 30
0.0
 10
340.2279642619266
 20
262.9590697429588
 30
0.0
  0
SPLINE
  5
139FD
330
1F
100
AcDbEntity
  8
0
100
AcDbSpline
210
0.0
220
0.0
230
1.0
 70
     8
 71
     3
 72
     9
 73
     5
 74
     0
 42
0.0000000001
 43
0.0000000001
 40
0.0
 40
0.0
 40
0.0
 40
0.0
 40
0.4963899031000001
 40
1.0
 40
1.0
 40
1.0
 40
1.0
 10
341.5007476445059
 20
263.7421670537737
 30
0.0
 10
341.5515507032466
 20
263.8562191856688
 30
0.0
 10
341.7120129350156
 20
264.0640840048537
 30
0.0
 10
341.9497488920366
 20
264.1740584926937
 30
0.0
 10
342.0736287395708
 20
264.2005049126137
 30
0.0
  0
SPLINE
  5
139FE
330
1F
100
AcDbEntity
  8
0
100
AcDbSpline
210
0.0
220
0.0
230
1.0
 70
     8
 71
     3
 72
    11
 73
     7
 74
     0
 42
0.0000000001
 43
0.0000000001
 40
0.0
 40
0.0
 40
0.0
 40
0.0
 40
0.2468241837
 40
0.4982101553
 40
0.7507751865000003
 40
1.0
 40
1.0
 40
1.0
 40
1.0
 10
329.6290265607255
 20
272.7204321387038
 30
0.0
 10
329.6607943486121
 20
272.7493500633337
 30
0.0
 10
329.7424690675212
 20
272.7907084929337
 30
0.0
 10
329.8784541305563
 20
272.7834967051637
 30
0.0
 10
329.9950427414166
 20
272.7125444583888
 30
0.0
 10
330.0401759542916
 20
272.6323636941237
 30
0.0
 10
330.0508293220214
 20
272.5903159024537
 30
0.0
  0
SPLINE
  5
139FF
330
1F
100
AcDbEntity
  8
0
100
AcDbSpline
210
0.0
220
0.0
230
1.0
 70
     8
 71
     3
 72
     9
 73
     5
 74
     0
 42
0.0000000001
 43
0.0000000001
 40
0.0
 40
0.0
 40
0.0
 40
0.0
 40
0.7476677805000001
 40
1.0
 40
1.0
 40
1.0
 40
1.0
 10
343.6665334773012
 20
256.3066973082687
 30
0.0
 10
343.6558411554312
 20
256.2826747536188
 30
0.0
 10
343.6498877795709
 20
256.2459757696136
 30
0.0
 10
343.6557360473214
 20
256.2112338642838
 30
0.0
 10
343.6579155883361
 20
256.2026314307837
 30
0.0
  0
SPLINE
  5
13A00
330
1F
100
AcDbEntity
  8
0
100
AcDbSpline
210
0.0
220
0.0
230
1.0
 70
     8
 71
     3
 72
    11
 73
     7
 74
     0
 42
0.0000000001
 43
0.0000000001
 40
0.0
 40
0.0
 40
0.0
 40
0.0
 40
0.2499882492
 40
0.5017007276
 40
0.7524246757000001
 40
1.0
 40
1.0
 40
1.0
 40
1.0
 10
335.0889564737505
 20
303.8618698662337
 30
0.0
 10
335.1963025136462
 20
303.8847865754737
 30
0.0
 10
335.4229681854164
 20
303.8884842175087
 30
0.0
 10
335.7388176382761
 20
303.7682217742187
 30
0.0
 10
335.9882668034603
 20
303.5416044080337
 30
0.0
 10
336.0856850094466
 20
303.3383169745087
 30
0.0
 10
336.1123833976713
 20
303.2329410693737
 30
0.0
  0
SPLINE
  5
13A01
330
1F
100
AcDbEntity
  8
0
100
AcDbSpline
210
0.0
220
0.0
230
1.0
 70
     8
 71
     3
 72
     9
 73
     5
 74
     0
 42
0.0000000001
 43
0.0000000001
 40
0.0
 40
0.0
 40
0.0
 40
0.0
 40
0.237133372
 40
1.0
 40
1.0
 40
1.0
 40
1.0
 10
368.4978948884015
 20
292.1910710399787
 30
0.0
 10
368.4973363837467
 20
292.1932017437336
 30
0.0
 10
368.4942630790362
 20
292.2020057985937
 30
0.0
 10
368.4882846270709
 20
292.2096029864787
 30
0.0
 10
368.4830604744562
 20
292.2143906099487
 30
0.0
  0
SPLINE
  5
13A02
330
1F
100
AcDbEntity
  8
0
100
AcDbSpline
210
0.0
220
0.0
230
1.0
 70
     8
 71
     3
 72
    13
 73
     9
 74
     0
 42
0.0000000001
 43
0.0000000001
 40
0.0
 40
0.0
 40
0.0
 40
0.0
 40
0.0563566635
 40
0.1338827766
 40
0.2338908187
 40
0.3552023201
 40
0.6523651787000003
 40
1.0
 40
1.0
 40
1.0
 40
1.0
 10
368.4830604744562
 20
292.2143906099487
 30
0.0
 10
368.4730027452456
 20
292.2236079173837
 30
0.0
 10
368.4432167890569
 20
292.2385424041237
 30
0.0
 10
368.3880134068818
 20
292.2513627244537
 30
0.0
 10
368.3157719081561
 20
292.2581391712087
 30
0.0
 10
368.1901832326918
 20
292.2585463739087
 30
0.0
 10
368.0051925761668
 20
292.2405171549787
 30
0.0
 10
367.8514284559166
 20
292.2130284027538
 30
0.0
 10
367.7691297668813
 20
292.1954589131238
 30
0.0
  0
SPLINE
  5
13A03
330
1F
100
AcDbEntity
  8
02___PRT_ALL_AXES
100
AcDbSpline
210
0.0
220
0.0
230
1.0
 70
     8
 71
     3
 72
    11
 73
     7
 74
     0
 42
0.0000000001
 43
0.0000000001
 40
0.0
 40
0.0
 40
0.0
 40
0.0
 40
0.2477648484
 40
0.4965038047000001
 40
0.7472141538
 40
1.0
 40
1.0
 40
1.0
 40
1.0
 10
322.7195056390061
 20
285.7299300767337
 30
0.0
 10
322.7539626149015
 20
285.8072600572787
 30
0.0
 10
322.8421204865359
 20
285.9544521359688
 30
0.0
 10
323.0230565837306
 20
286.1378750769737
 30
0.0
 10
323.2433444517761
 20
286.2747044698287
 30
0.0
 10
323.4081358726913
 20
286.3300092920237
 30
0.0
 10
323.492607406101
 20
286.3480426501137
 30
0.0
  0
SPLINE
  5
13A04
330
1F
100
AcDbEntity
  8
0
100
AcDbSpline
210
0.0
220
0.0
230
1.0
 70
     8
 71
     3
 72
     8
 73
     4
 74
     0
 42
0.0000000001
 43
0.0000000001
 40
0.0
 40
0.0
 40
0.0
 40
0.0
 40
1.0
 40
1.0
 40
1.0
 40
1.0
 10
320.2056208442014
 20
299.8582425694687
 30
0.0
 10
320.2276267276963
 20
299.9075712745638
 30
0.0
 10
320.2607037942968
 20
299.9531382403136
 30
0.0
 10
320.300647573487
 20
299.9894985835537
 30
0.0
  0
SPLINE
  5
13A05
330
1F
100
AcDbEntity
  8
0
100
AcDbSpline
210
0.0
220
0.0
230
1.0
 70
     8
 71
     3
 72
    15
 73
    11
 74
     0
 42
0.0000000001
 43
0.0000000001
 40
0.0
 40
0.0
 40
0.0
 40
0.0
 40
0.1221830806
 40
0.2452529931
 40
0.3697535341
 40
0.4956797556000003
 40
0.6224988196
 40
0.7493538632
 40
0.8753785912000001
 40
1.0
 40
1.0
 40
1.0
 40
1.0
 10
323.8616072936817
 20
294.4319557823288
 30
0.0
 10
323.8271661776813
 20
294.3546203262537
 30
0.0
 10
323.732017956792
 20
294.2095898968437
 30
0.0
 10
323.5273251019868
 20
294.0486197045637
 30
0.0
 10
323.2803483646118
 20
293.9580916893587
 30
0.0
 10
323.0151607889772
 20
293.9465376282238
 30
0.0
 10
322.7569946438667
 20
294.0145415903288
 30
0.0
 10
322.5302154605466
 20
294.1556281835337
 30
0.0
 10
322.3564223918162
 20
294.3562421355187
 30
0.0
 10
322.2865054149512
 20
294.5188445719187
 30
0.0
 10
322.2652982453461
 20
294.6025471784139
 30
0.0
  0
SPLINE
  5
13A06
330
1F
100
AcDbEntity
  8
0
100
AcDbSpline
210
0.0
220
0.0
230
1.0
 70
     8
 71
     3
 72
     9
 73
     5
 74
     0
 42
0.0000000001
 43
0.0000000001
 40
0.0
 40
0.0
 40
0.0
 40
0.0
 40
0.4980374135
 40
1.0
 40
1.0
 40
1.0
 40
1.0
 10
333.8718203283022
 20
289.0269919511987
 30
0.0
 10
333.907604854851
 20
289.1073276956237
 30
0.0
 10
333.9523209039613
 20
289.2820952346987
 30
0.0
 10
333.9367629494469
 20
289.4616631225087
 30
0.0
 10
333.9149931101017
 20
289.5475865308037
 30
0.0
  0
SPLINE
  5
13A07
330
1F
100
AcDbEntity
  8
0
100
AcDbSpline
210
0.0
220
0.0
230
1.0
 70
     8
 71
     3
 72
    15
 73
    11
 74
     0
 42
0.0000000001
 43
0.0000000001
 40
0.0
 40
0.0
 40
0.0
 40
0.0
 40
0.1221830806
 40
0.2452529931
 40
0.3697535341
 40
0.4956797556000003
 40
0.6224988196
 40
0.7493538632
 40
0.8753785912000001
 40
1.0
 40
1.0
 40
1.0
 40
1.0
 10
325.7129965072169
 20
293.8127401741487
 30
0.0
 10
325.7474376232163
 20
293.8900756302238
 30
0.0
 10
325.8425858439365
 20
294.0351060597187
 30
0.0
 10
326.0472786987417
 20
294.1960762519986
 30
0.0
 10
326.2942554362013
 20
294.2866042672887
 30
0.0
 10
326.5594430118359
 20
294.2981583284236
 30
0.0
 10
326.8176091569463
 20
294.2301543663187
 30
0.0
 10
327.0443883402655
 20
294.0890677731136
 30
0.0
 10
327.2181814089961
 20
293.8884538211287
 30
0.0
 10
327.2880983859465
 20
293.7258513847287
 30
0.0
 10
327.3093055554661
 20
293.6421487782336
 30
0.0
  0
SPLINE
  5
13A08
330
1F
100
AcDbEntity
  8
0
100
AcDbSpline
210
0.0
220
0.0
230
1.0
 70
     8
 71
     3
 72
    11
 73
     7
 74
     0
 42
0.0000000001
 43
0.0000000001
 40
0.0
 40
0.0
 40
0.0
 40
0.0
 40
0.2458110034
 40
0.4939563357
 40
0.7455234540000001
 40
1.0
 40
1.0
 40
1.0
 40
1.0
 10
327.0595286368258
 20
281.8103583918888
 30
0.0
 10
327.019622293336
 20
281.7207202207738
 30
0.0
 10
326.9041101103218
 20
281.5541768862786
 30
0.0
 10
326.6511374695462
 20
281.3852623054237
 30
0.0
 10
326.3517255072562
 20
281.3159789642037
 30
0.0
 10
326.1465088925667
 20
281.3421707271837
 30
0.0
 10
326.0494433301616
 20
281.3721132470837
 30
0.0
  0
SPLINE
  5
13A09
330
1F
100
AcDbEntity
  8
0
100
AcDbSpline
210
0.0
220
0.0
230
1.0
 70
     8
 71
     3
 72
     9
 73
     5
 74
     0
 42
0.0000000001
 43
0.0000000001
 40
0.0
 40
0.0
 40
0.0
 40
0.0
 40
0.4980374135
 40
1.0
 40
1.0
 40
1.0
 40
1.0
 10
336.4586391767567
 20
278.8170731068887
 30
0.0
 10
336.4944237033065
 20
278.8974088513988
 30
0.0
 10
336.539139752416
 20
279.0721763904738
 30
0.0
 10
336.5235817979016
 20
279.2517442781987
 30
0.0
 10
336.5018119586417
 20
279.3376676864937
 30
0.0
  0
SPLINE
  5
13A0A
330
1F
100
AcDbEntity
  8
0
100
AcDbSpline
210
0.0
220
0.0
230
1.0
 70
     8
 71
     3
 72
    15
 73
    11
 74
     0
 42
0.0000000001
 43
0.0000000001
 40
0.0
 40
0.0
 40
0.0
 40
0.0
 40
0.1221830806
 40
0.2452529931
 40
0.3697535341
 40
0.4956797556000003
 40
0.6224988196
 40
0.7493538632
 40
0.8753785912000001
 40
1.0
 40
1.0
 40
1.0
 40
1.0
 10
329.075982295271
 20
273.8513319702037
 30
0.0
 10
329.0415411792716
 20
273.7739965141287
 30
0.0
 10
328.9463929584659
 20
273.6289660847187
 30
0.0
 10
328.7417001036616
 20
273.4679958924388
 30
0.0
 10
328.4947233662866
 20
273.3774678772336
 30
0.0
 10
328.2295357905657
 20
273.3659138160987
 30
0.0
 10
327.9713696455416
 20
273.4339177782887
 30
0.0
 10
327.7445904622215
 20
273.5750043714087
 30
0.0
 10
327.5707973934919
 20
273.7756183233936
 30
0.0
 10
327.5008804165415
 20
273.9382207597937
 30
0.0
 10
327.479673247021
 20
274.0219233662886
 30
0.0
  0
SPLINE
  5
13A0B
330
1F
100
AcDbEntity
  8
0
100
AcDbSpline
210
0.0
220
0.0
230
1.0
 70
     8
 71
     3
 72
     9
 73
     5
 74
     0
 42
0.0000000001
 43
0.0000000001
 40
0.0
 40
0.0
 40
0.0
 40
0.0
 40
0.4980374135
 40
1.0
 40
1.0
 40
1.0
 40
1.0
 10
338.5158730641166
 20
270.6973738685686
 30
0.0
 10
338.5516575906664
 20
270.7777096129937
 30
0.0
 10
338.5963736397767
 20
270.9524771520687
 30
0.0
 10
338.5808156852614
 20
271.1320450397937
 30
0.0
 10
338.5590458460007
 20
271.2179684480887
 30
0.0
  0
SPLINE
  5
13A0C
330
1F
100
AcDbEntity
  8
0
100
AcDbSpline
210
0.0
220
0.0
230
1.0
 70
     8
 71
     3
 72
    15
 73
    11
 74
     0
 42
0.0000000001
 43
0.0000000001
 40
0.0
 40
0.0
 40
0.0
 40
0.0
 40
0.1221830806
 40
0.2452529931
 40
0.3697535341
 40
0.4956797556000003
 40
0.6224988196
 40
0.7493538632
 40
0.8753785912000001
 40
1.0
 40
1.0
 40
1.0
 40
1.0
 10
330.9273715088062
 20
273.2321163621087
 30
0.0
 10
330.9618126248912
 20
273.3094518180987
 30
0.0
 10
331.0569608456122
 20
273.4544822476788
 30
0.0
 10
331.2616537004166
 20
273.6154524398738
 30
0.0
 10
331.5086304377916
 20
273.7059804551637
 30
0.0
 10
331.7738180135117
 20
273.7175345162987
 30
0.0
 10
332.0319841585367
 20
273.6495305541938
 30
0.0
 10
332.2587633419413
 20
273.5084439609887
 30
0.0
 10
332.4325564106708
 20
273.3078300090037
 30
0.0
 10
332.5024733876204
 20
273.1452275726037
 30
0.0
 10
332.5236805571418
 20
273.0615249661938
 30
0.0
  0
SPLINE
  5
13A0D
330
1F
100
AcDbEntity
  8
0
100
AcDbSpline
210
0.0
220
0.0
230
1.0
 70
     8
 71
     3
 72
    13
 73
     9
 74
     0
 42
0.0000000001
 43
0.0000000001
 40
0.0
 40
0.0
 40
0.0
 40
0.0
 40
0.0560634104
 40
0.1369715254
 40
0.2423926866
 40
0.3695908331
 40
0.6713486446
 40
1.0
 40
1.0
 40
1.0
 40
1.0
 10
370.127148557866
 20
274.7607852084737
 30
0.0
 10
370.1194780812817
 20
274.7435610535287
 30
0.0
 10
370.088105853221
 20
274.7079516454237
 30
0.0
 10
370.0225638040007
 20
274.6596893424237
 30
0.0
 10
369.930331991082
 20
274.6078899590737
 30
0.0
 10
369.7668694157961
 20
274.5330579683037
 30
0.0
 10
369.5258961345813
 20
274.4486616862437
 30
0.0
 10
369.3204367975464
 20
274.3953887015837
 30
0.0
 10
369.2123425170163
 20
274.3723122545637
 30
0.0
  0
SPLINE
  5
13A0E
330
1F
100
AcDbEntity
  8
0
100
AcDbSpline
210
0.0
220
0.0
230
1.0
 70
     8
 71
     3
 72
    11
 73
     7
 74
     0
 42
0.0000000001
 43
0.0000000001
 40
0.0
 40
0.0
 40
0.0
 40
0.0
 40
0.2475753243
 40
0.4982992724000001
 40
0.7500117507999999
 40
1.0
 40
1.0
 40
1.0
 40
1.0
 10
327.7777845595416
 20
291.7931083576287
 30
0.0
 10
327.7911337536967
 20
291.7404204051038
 30
0.0
 10
327.8398428566467
 20
291.6387766882987
 30
0.0
 10
327.964567439282
 20
291.5254680052487
 30
0.0
 10
328.1224921657109
 20
291.4653367835187
 30
0.0
 10
328.2358250015965
 20
291.4671856045787
 30
0.0
 10
328.289498021502
 20
291.4786439591988
 30
0.0
  0
SPLINE
  5
13A0F
330
1F
100
AcDbEntity
  8
0
100
AcDbSpline
210
0.0
220
0.0
230
1.0
 70
     8
 71
     3
 72
     9
 73
     5
 74
     0
 42
0.0000000001
 43
0.0000000001
 40
0.0
 40
0.0
 40
0.0
 40
0.0
 40
0.5018258767
 40
1.0
 40
1.0
 40
1.0
 40
1.0
 10
344.5730326817562
 20
256.6832781173687
 30
0.0
 10
344.5795721517421
 20
256.6574674741588
 30
0.0
 10
344.5842235577808
 20
256.6035063078237
 30
0.0
 10
344.5707500801114
 20
256.5510026449037
 30
0.0
 10
344.5599792624414
 20
256.5268642319387
 30
0.0
  0
SPLINE
  5
13A10
330
1F
100
AcDbEntity
  8
0
100
AcDbSpline
210
0.0
220
0.0
230
1.0
 70
     8
 71
     3
 72
     9
 73
     5
 74
     0
 42
0.0000000001
 43
0.0000000001
 40
0.0
 40
0.0
 40
0.0
 40
0.0
 40
0.5033665168
 40
1.0
 40
1.0
 40
1.0
 40
1.0
 10
344.3268162715909
 20
257.6538783732687
 30
0.0
 10
344.3050922185163
 20
257.6471082833237
 30
0.0
 10
344.2642292529805
 20
257.6244206691437
 30
0.0
 10
344.2365497739316
 20
257.5866872575787
 30
0.0
 10
344.2274207556562
 20
257.5661769940487
 30
0.0
  0
SPLINE
  5
13A11
330
1F
100
AcDbEntity
  8
0
100
AcDbSpline
210
0.0
220
0.0
230
1.0
 70
     8
 71
     3
 72
    11
 73
     7
 74
     0
 42
0.0000000001
 43
0.0000000001
 40
0.0
 40
0.0
 40
0.0
 40
0.0
 40
0.2499882492
 40
0.5017007276
 40
0.7524246757000001
 40
1.0
 40
1.0
 40
1.0
 40
1.0
 10
333.8293367384009
 20
301.0333773514387
 30
0.0
 10
333.9366827782111
 20
301.0562940607637
 30
0.0
 10
334.1633484500668
 20
301.0599917027988
 30
0.0
 10
334.4791979029257
 20
300.9397292594237
 30
0.0
 10
334.7286470681107
 20
300.7131118933238
 30
0.0
 10
334.8260652740961
 20
300.5098244597137
 30
0.0
 10
334.8527636623217
 20
300.4044485545787
 30
0.0
  0
SPLINE
  5
13A12
330
1F
100
AcDbEntity
  8
0
100
AcDbSpline
210
0.0
220
0.0
230
1.0
 70
     8
 71
     3
 72
    10
 73
     6
 74
     0
 42
0.0000000001
 43
0.0000000001
 40
0.0
 40
0.0
 40
0.0
 40
0.0
 40
0.5823051438000002
 40
0.8174912465999998
 40
1.0
 40
1.0
 40
1.0
 40
1.0
 10
368.995075032001
 20
291.6168631253437
 30
0.0
 10
368.8757107864318
 20
291.5913807161788
 30
0.0
 10
368.7060687875606
 20
291.5628053905937
 30
0.0
 10
368.4966564120501
 20
291.5519735721637
 30
0.0
 10
368.4087781253908
 20
291.5567859585138
 30
0.0
 10
368.371078576041
 20
291.5632796276087
 30
0.0
  0
SPLINE
  5
13A13
330
1F
100
AcDbEntity
  8
0
100
AcDbSpline
210
0.0
220
0.0
230
1.0
 70
     8
 71
     3
 72
    11
 73
     7
 74
     0
 42
0.0000000001
 43
0.0000000001
 40
0.0
 40
0.0
 40
0.0
 40
0.0
 40
0.3391467097
 40
0.6114221505000002
 40
0.8247734898999999
 40
1.0
 40
1.0
 40
1.0
 40
1.0
 10
368.371078576041
 20
291.5632796276087
 30
0.0
 10
368.3571353802969
 20
291.5656813141687
 30
0.0
 10
368.332145754977
 20
291.5711826658937
 30
0.0
 10
368.2998990408811
 20
291.5836584105037
 30
0.0
 10
368.2768660193411
 20
291.5996199053237
 30
0.0
 10
368.2681634320411
 20
291.6141797861837
 30
0.0
 10
368.2663099104817
 20
291.6212509985738
 30
0.0
  0
SPLINE
  5
13A14
330
1F
100
AcDbEntity
  8
0
100
AcDbSpline
210
0.0
220
0.0
230
1.0
 70
     8
 71
     3
 72
    10
 73
     6
 74
     0
 42
0.0000000001
 43
0.0000000001
 40
0.0
 40
0.0
 40
0.0
 40
0.0
 40
0.5350123637000001
 40
0.7827379672000001
 40
1.0
 40
1.0
 40
1.0
 40
1.0
 10
371.4079573143014
 20
275.9711220252537
 30
0.0
 10
371.278831965126
 20
275.9435557723237
 30
0.0
 10
371.0917039633711
 20
275.8936935495138
 30
0.0
 10
370.8591497352114
 20
275.8108537816736
 30
0.0
 10
370.7536757311515
 20
275.7652583125337
 30
0.0
 10
370.7055859404114
 20
275.7415466288937
 30
0.0
  0
SPLINE
  5
13A15
330
1F
100
AcDbEntity
  8
0
100
AcDbSpline
210
0.0
220
0.0
230
1.0
 70
     8
 71
     3
 72
     9
 73
     5
 74
     0
 42
0.0000000001
 43
0.0000000001
 40
0.0
 40
0.0
 40
0.0
 40
0.0
 40
0.2840209687
 40
1.0
 40
1.0
 40
1.0
 40
1.0
 10
370.7055859404114
 20
275.7415466288937
 30
0.0
 10
370.691482775857
 20
275.7345927667387
 30
0.0
 10
370.6422585302367
 20
275.7093123721436
 30
0.0
 10
370.5943838138062
 20
275.6809325464738
 30
0.0
 10
370.5626491227955
 20
275.6571804780587
 30
0.0
  0
SPLINE
  5
13A16
330
1F
100
AcDbEntity
  8
0
100
AcDbSpline
210
0.0
220
0.0
230
1.0
 70
     8
 71
     3
 72
     9
 73
     5
 74
     0
 42
0.0000000001
 43
0.0000000001
 40
0.0
 40
0.0
 40
0.0
 40
0.0
 40
0.5769951357
 40
1.0
 40
1.0
 40
1.0
 40
1.0
 10
370.5626491227955
 20
275.6571804780587
 30
0.0
 10
370.5468481647573
 20
275.6453541319187
 30
0.0
 10
370.5205984680712
 20
275.6233931736437
 30
0.0
 10
370.4990375819321
 20
275.5958668535437
 30
0.0
 10
370.4931512734507
 20
275.5826490712587
 30
0.0
  0
SPLINE
  5
13A17
330
1F
100
AcDbEntity
  8
0
100
AcDbSpline
210
0.0
220
0.0
230
1.0
 70
     8
 71
     3
 72
    15
 73
    11
 74
     0
 42
0.0000000001
 43
0.0000000001
 40
0.0
 40
0.0
 40
0.0
 40
0.0
 40
0.0253484609
 40
0.0572735563
 40
0.1407224195
 40
0.2485758574
 40
0.3773476664
 40
0.5224342967000001
 40
0.6784485220000001
 40
1.0
 40
1.0
 40
1.0
 40
1.0
 10
376.5502941043566
 20
272.7329198714587
 30
0.0
 10
376.556319425236
 20
272.7464498079137
 30
0.0
 10
376.5663848513665
 20
272.7785643062087
 30
0.0
 10
376.5812573459067
 20
272.8595154242837
 30
0.0
 10
376.5882982100671
 20
272.9901812435037
 30
0.0
 10
376.5830399422763
 20
273.1771726330038
 30
0.0
 10
376.5638569462668
 20
273.3995003407386
 30
0.0
 10
376.5314242826014
 20
273.6486275698688
 30
0.0
 10
376.4713009046715
 20
274.0074884351737
 30
0.0
 10
376.4117825569953
 20
274.2803772131937
 30
0.0
 10
376.3656386030858
 20
274.4625028479037
 30
0.0
  0
SPLINE
  5
13A18
330
1F
100
AcDbEntity
  8
02___PRT_ALL_AXES
100
AcDbSpline
210
0.0
220
0.0
230
1.0
 70
     8
 71
     3
 72
    11
 73
     7
 74
     0
 42
0.0000000001
 43
0.0000000001
 40
0.0
 40
0.0
 40
0.0
 40
0.0
 40
0.2477648484
 40
0.4965038047000001
 40
0.7472141538
 40
1.0
 40
1.0
 40
1.0
 40
1.0
 10
324.8156627866316
 20
284.7955425557937
 30
0.0
 10
324.7812058107362
 20
284.7182125752487
 30
0.0
 10
324.6930479391009
 20
284.5710204965587
 30
0.0
 10
324.5121118419062
 20
284.3875975554687
 30
0.0
 10
324.2918239738616
 20
284.2507681626137
 30
0.0
 10
324.127032553031
 20
284.1954633405038
 30
0.0
 10
324.0425610195367
 20
284.1774299824138
 30
0.0
  0
SPLINE
  5
13A19
330
1F
100
AcDbEntity
  8
0
100
AcDbSpline
210
0.0
220
0.0
230
1.0
 70
     8
 71
     3
 72
     9
 73
     5
 74
     0
 42
0.0000000001
 43
0.0000000001
 40
0.0
 40
0.0
 40
0.0
 40
0.0
 40
0.5052530353
 40
1.0
 40
1.0
 40
1.0
 40
1.0
 10
343.8231335350007
 20
256.4020723747787
 30
0.0
 10
343.7908529052262
 20
256.4032268310937
 30
0.0
 10
343.7246538381365
 20
256.3870167829287
 30
0.0
 10
343.6793951752912
 20
256.3355938235237
 30
0.0
 10
343.6665334773012
 20
256.3066973082687
 30
0.0
  0
SPLINE
  5
13A1A
330
1F
100
AcDbEntity
  8
0
100
AcDbSpline
210
0.0
220
0.0
230
1.0
 70
     8
 71
     3
 72
     8
 73
     4
 74
     0
 42
0.0000000001
 43
0.0000000001
 40
0.0
 40
0.0
 40
0.0
 40
0.0
 40
1.0
 40
1.0
 40
1.0
 40
1.0
 10
318.2472686518563
 20
295.4607372258287
 30
0.0
 10
318.2692745353512
 20
295.5100659309238
 30
0.0
 10
318.3023516019517
 20
295.5556328966737
 30
0.0
 10
318.342295381142
 20
295.5919932398287
 30
0.0
  0
SPLINE
  5
13A1B
330
1F
100
AcDbEntity
  8
0
100
AcDbSpline
210
0.0
220
0.0
230
1.0
 70
     8
 71
     3
 72
     9
 73
     5
 74
     0
 42
0.0000000001
 43
0.0000000001
 40
0.0
 40
0.0
 40
0.0
 40
0.0
 40
0.5019826827000001
 40
1.0
 40
1.0
 40
1.0
 40
1.0
 10
327.1026574652966
 20
282.3308401226887
 30
0.0
 10
327.1244232554114
 20
282.2449326960937
 30
0.0
 10
327.1399906167068
 20
282.0654056019937
 30
0.0
 10
327.0952873085868
 20
281.8906800063388
 30
0.0
 10
327.0595286368258
 20
281.8103583918888
 30
0.0
  0
SPLINE
  5
13A1C
330
1F
100
AcDbEntity
  8
0
100
AcDbSpline
210
0.0
220
0.0
230
1.0
 70
     8
 71
     3
 72
     9
 73
     5
 74
     0
 42
0.0000000001
 43
0.0000000001
 40
0.0
 40
0.0
 40
0.0
 40
0.0
 40
0.4948601554
 40
1.0
 40
1.0
 40
1.0
 40
1.0
 10
344.5599792624414
 20
256.5268642319387
 30
0.0
 10
344.5406633483603
 20
256.4835754565037
 30
0.0
 10
344.4727278946408
 20
256.4066369547636
 30
0.0
 10
344.3735623115259
 20
256.3823873198937
 30
0.0
 10
344.3252057617162
 20
256.3841167014187
 30
0.0
  0
SPLINE
  5
13A1D
330
1F
100
AcDbEntity
  8
0
100
AcDbSpline
210
0.0
220
0.0
230
1.0
 70
     8
 71
     3
 72
    11
 73
     7
 74
     0
 42
0.0000000001
 43
0.0000000001
 40
0.0
 40
0.0
 40
0.0
 40
0.0
 40
0.2475753243
 40
0.4982992724000001
 40
0.7500117507999999
 40
1.0
 40
1.0
 40
1.0
 40
1.0
 10
334.1540312054118
 20
298.8354357256488
 30
0.0
 10
334.1273328171015
 20
298.9408116307837
 30
0.0
 10
334.0299146111162
 20
299.1440990643937
 30
0.0
 10
333.7804654459312
 20
299.3707164304937
 30
0.0
 10
333.4646159930713
 20
299.4909788738688
 30
0.0
 10
333.2379503213011
 20
299.4872812318337
 30
0.0
 10
333.1306042814055
 20
299.4643645225088
 30
0.0
  0
SPLINE
  5
13A1E
330
1F
100
AcDbEntity
  8
0
100
AcDbSpline
210
0.0
220
0.0
230
1.0
 70
     8
 71
     3
 72
    15
 73
    11
 74
     0
 42
0.0000000001
 43
0.0000000001
 40
0.0
 40
0.0
 40
0.0
 40
0.0
 40
0.1221830806
 40
0.2452529931
 40
0.3697535341
 40
0.4956797556000003
 40
0.6224988196
 40
0.7493538632
 40
0.8753785912000001
 40
1.0
 40
1.0
 40
1.0
 40
1.0
 10
323.7546443148718
 20
289.4152348305087
 30
0.0
 10
323.7890854308713
 20
289.4925702865838
 30
0.0
 10
323.8842336515915
 20
289.6376007160787
 30
0.0
 10
324.0889265064804
 20
289.7985709083587
 30
0.0
 10
324.3359032438562
 20
289.8890989235637
 30
0.0
 10
324.6010908194909
 20
289.9006529847837
 30
0.0
 10
324.8592569646013
 20
289.8326490225937
 30
0.0
 10
325.0860361479205
 20
289.6915624294737
 30
0.0
 10
325.2598292167363
 20
289.4909484774037
 30
0.0
 10
325.3297461936014
 20
289.3283460410037
 30
0.0
 10
325.3509533632065
 20
289.2446434345937
 30
0.0
  0
SPLINE
  5
13A1F
330
1F
100
AcDbEntity
  8
0
100
AcDbSpline
210
0.0
220
0.0
230
1.0
 70
     8
 71
     3
 72
    13
 73
     9
 74
     0
 42
0.0000000001
 43
0.0000000001
 40
0.0
 40
0.0
 40
0.0
 40
0.0
 40
0.3286513554
 40
0.6304091668999999
 40
0.7576073134
 40
0.8630284745999999
 40
0.9439365895999999
 40
1.0
 40
1.0
 40
1.0
 40
1.0
 10
365.8107775745362
 20
287.7979535694837
 30
0.0
 10
365.9188718550656
 20
287.8210300165037
 30
0.0
 10
366.1243311921004
 20
287.8743030011637
 30
0.0
 10
366.3653044733162
 20
287.9586992832238
 30
0.0
 10
366.5287670486018
 20
288.0335312739938
 30
0.0
 10
366.6209988615207
 20
288.0853306573436
 30
0.0
 10
366.686540910741
 20
288.1335929604288
 30
0.0
 10
366.7179131388008
 20
288.1692023684487
 30
0.0
 10
366.7255836153869
 20
288.1864265234787
 30
0.0
  0
SPLINE
  5
13A20
330
1F
100
AcDbEntity
  8
0
100
AcDbSpline
210
0.0
220
0.0
230
1.0
 70
     8
 71
     3
 72
    11
 73
     7
 74
     0
 42
0.0000000001
 43
0.0000000001
 40
0.0
 40
0.0
 40
0.0
 40
0.0
 40
0.2492248135
 40
0.5017898447000002
 40
0.7531758163
 40
1.0
 40
1.0
 40
1.0
 40
1.0
 10
328.0924771296765
 20
268.1928105588137
 30
0.0
 10
328.0818237619466
 20
268.2348583503987
 30
0.0
 10
328.0366905490715
 20
268.3150391146638
 30
0.0
 10
327.9201019382114
 20
268.3859913614387
 30
0.0
 10
327.7841168752617
 20
268.3932031492088
 30
0.0
 10
327.702442156267
 20
268.3518447196087
 30
0.0
 10
327.6706743683805
 20
268.3229267949787
 30
0.0
  0
SPLINE
  5
13A21
330
1F
100
AcDbEntity
  8
02___PRT_ALL_AXES
100
AcDbSpline
210
0.0
220
0.0
230
1.0
 70
     8
 71
     3
 72
    15
 73
    11
 74
     0
 42
0.0000000001
 43
0.0000000001
 40
0.0
 40
0.0
 40
0.0
 40
0.0
 40
0.1257485524
 40
0.2523973243
 40
0.3792826763
 40
0.5056969845000002
 40
0.6310545658
 40
0.7550813382000002
 40
0.8778991911
 40
1.0
 40
1.0
 40
1.0
 40
1.0
 10
324.0425610195367
 20
284.1774299824138
 30
0.0
 10
323.9400595072963
 20
284.1555475043837
 30
0.0
 10
323.7271842514216
 20
284.1399987193288
 30
0.0
 10
323.4135955648113
 20
284.2024172738886
 30
0.0
 10
323.1267685811413
 20
284.3453982310687
 30
0.0
 10
322.8886049787521
 20
284.5582399531687
 30
0.0
 10
322.7171416813968
 20
284.8250294192538
 30
0.0
 10
322.6257550374163
 20
285.1257801065537
 30
0.0
 10
322.6217065504858
 20
285.4372824732637
 30
0.0
 10
322.6780841541974
 20
285.6369700146688
 30
0.0
 10
322.7195056390061
 20
285.7299300767337
 30
0.0
  0
SPLINE
  5
13A22
330
1F
100
AcDbEntity
  8
0
100
AcDbSpline
210
0.0
220
0.0
230
1.0
 70
     8
 71
     3
 72
     9
 73
     5
 74
     0
 42
0.0000000001
 43
0.0000000001
 40
0.0
 40
0.0
 40
0.0
 40
0.0
 40
0.5036100969000003
 40
1.0
 40
1.0
 40
1.0
 40
1.0
 10
337.9429919690516
 20
270.2390360096436
 30
0.0
 10
338.0668718165858
 20
270.2654824295637
 30
0.0
 10
338.3046077736068
 20
270.3754569174037
 30
0.0
 10
338.4650700053768
 20
270.5833217366737
 30
0.0
 10
338.5158730641166
 20
270.6973738685686
 30
0.0
  0
SPLINE
  5
13A23
330
1F
100
AcDbEntity
  8
0
100
AcDbSpline
210
0.0
220
0.0
230
1.0
 70
     8
 71
     3
 72
    11
 73
     7
 74
     0
 42
0.0000000001
 43
0.0000000001
 40
0.0
 40
0.0
 40
0.0
 40
0.0
 40
0.2499882492
 40
0.5017007276
 40
0.7524246757000001
 40
1.0
 40
1.0
 40
1.0
 40
1.0
 10
334.3902240167559
 20
302.2928570373038
 30
0.0
 10
334.4975700566516
 20
302.3157737465437
 30
0.0
 10
334.7242357284209
 20
302.3194713885787
 30
0.0
 10
335.0400851813671
 20
302.1992089452887
 30
0.0
 10
335.2895343464658
 20
301.9725915791037
 30
0.0
 10
335.386952552452
 20
301.7693041455787
 30
0.0
 10
335.4136509407614
 20
301.6639282404438
 30
0.0
  0
SPLINE
  5
13A24
330
1F
100
AcDbEntity
  8
0
100
AcDbSpline
210
0.0
220
0.0
230
1.0
 70
     8
 71
     3
 72
    15
 73
    11
 74
     0
 42
0.0000000001
 43
0.0000000001
 40
0.0
 40
0.0
 40
0.0
 40
0.0
 40
0.1221830806
 40
0.2452529931
 40
0.3697535341
 40
0.4956797556000003
 40
0.6224988196
 40
0.7493538632
 40
0.8753785912000001
 40
1.0
 40
1.0
 40
1.0
 40
1.0
 10
328.9690193164612
 20
268.8346110183837
 30
0.0
 10
329.0034604325462
 20
268.9119464744587
 30
0.0
 10
329.0986086532671
 20
269.0569769039537
 30
0.0
 10
329.3033015080715
 20
269.2179470962337
 30
0.0
 10
329.5502782454465
 20
269.3084751115237
 30
0.0
 10
329.8154658211666
 20
269.3200291726587
 30
0.0
 10
330.0736319662761
 20
269.2520252104687
 30
0.0
 10
330.3004111495962
 20
269.1109386173486
 30
0.0
 10
330.4742042183258
 20
268.9103246652788
 30
0.0
 10
330.5441211952762
 20
268.7477222289637
 30
0.0
 10
330.5653283647968
 20
268.6640196224687
 30
0.0
  0
SPLINE
  5
13A25
330
1F
100
AcDbEntity
  8
0
100
AcDbSpline
210
0.0
220
0.0
230
1.0
 70
     8
 71
     3
 72
     9
 73
     5
 74
     0
 42
0.0000000001
 43
0.0000000001
 40
0.0
 40
0.0
 40
0.0
 40
0.0
 40
0.5019632654999999
 40
1.0
 40
1.0
 40
1.0
 40
1.0
 10
329.1191540501865
 20
274.3719270083837
 30
0.0
 10
329.1409239230212
 20
274.2860034614537
 30
0.0
 10
329.1564840137559
 20
274.1064342896337
 30
0.0
 10
329.1117607397315
 20
273.9316703169887
 30
0.0
 10
329.075982295271
 20
273.8513319702037
 30
0.0
  0
SPLINE
  5
13A26
330
1F
100
AcDbEntity
  8
0
100
AcDbSpline
210
0.0
220
0.0
230
1.0
 70
     8
 71
     3
 72
    13
 73
     9
 74
     0
 42
0.0000000001
 43
0.0000000001
 40
0.0
 40
0.0
 40
0.0
 40
0.0
 40
0.0560634104
 40
0.1369715254
 40
0.2423926866
 40
0.3695908331
 40
0.6713486446
 40
1.0
 40
1.0
 40
1.0
 40
1.0
 10
367.0915863309707
 20
289.0082903862637
 30
0.0
 10
367.0992568075558
 20
289.0255145412087
 30
0.0
 10
367.1306290356166
 20
289.0611239493138
 30
0.0
 10
367.1961710847514
 20
289.1093862523137
 30
0.0
 10
367.2884028976711
 20
289.1611856356638
 30
0.0
 10
367.4518654730416
 20
289.2360176264337
 30
0.0
 10
367.6928387542563
 20
289.3204139084939
 30
0.0
 10
367.8982980912066
 20
289.3736868932387
 30
0.0
 10
368.0063923718214
 20
289.3967633401738
 30
0.0
  0
SPLINE
  5
13A27
330
1F
100
AcDbEntity
  8
0
100
AcDbSpline
210
0.0
220
0.0
230
1.0
 70
     8
 71
     3
 72
    17
 73
    13
 74
     0
 42
0.0000000001
 43
0.0000000001
 40
0.0
 40
0.0
 40
0.0
 40
0.0
 40
0.1968035832
 40
0.3809952182
 40
0.5471793315
 40
0.6911484179000002
 40
0.8093588356999998
 40
0.8993288994
 40
0.9335356983999998
 40
0.9608774314999999
 40
0.982314447
 40
1.0
 40
1.0
 40
1.0
 40
1.0
 10
375.3769559428217
 20
272.2424030627337
 30
0.0
 10
375.3959177877864
 20
272.1675625309937
 30
0.0
 10
375.4346974956321
 20
272.0231913043787
 30
0.0
 10
375.4969688097068
 20
271.8177197203736
 30
0.0
 10
375.5601986215213
 20
271.6343391768587
 30
0.0
 10
375.6224592815266
 20
271.4781314096287
 30
0.0
 10
375.6819618006708
 20
271.3533921991737
 30
0.0
 10
375.7312096945666
 20
271.2715799319887
 30
0.0
 10
375.7694218822304
 20
271.2258544344386
 30
0.0
 10
375.7939692637716
 20
271.2042213876337
 30
0.0
 10
375.8173650243413
 20
271.1918080483236
 30
0.0
 10
375.8333668316006
 20
271.1906971437136
 30
0.0
 10
375.8401527679267
 20
271.1921416360937
 30
0.0
  0
SPLINE
  5
13A28
330
1F
100
AcDbEntity
  8
0
100
AcDbSpline
210
0.0
220
0.0
230
1.0
 70
     8
 71
     3
 72
     9
 73
     5
 74
     0
 42
0.0000000001
 43
0.0000000001
 40
0.0
 40
0.0
 40
0.0
 40
0.0
 40
0.5036100969000003
 40
1.0
 40
1.0
 40
1.0
 40
1.0
 10
335.8857580816908
 20
278.3587352480487
 30
0.0
 10
336.0096379292269
 20
278.3851816679688
 30
0.0
 10
336.247373886246
 20
278.4951561558087
 30
0.0
 10
336.4078361180169
 20
278.7030209749937
 30
0.0
 10
336.4586391767567
 20
278.8170731068887
 30
0.0
  0
SPLINE
  5
13A29
330
1F
100
AcDbEntity
  8
0
100
AcDbSpline
210
0.0
220
0.0
230
1.0
 70
     8
 71
     3
 72
    11
 73
     7
 74
     0
 42
0.0000000001
 43
0.0000000001
 40
0.0
 40
0.0
 40
0.0
 40
0.0
 40
0.2499882492
 40
0.5017007276
 40
0.7524246757000001
 40
1.0
 40
1.0
 40
1.0
 40
1.0
 10
326.3311458292416
 20
287.0811386155587
 30
0.0
 10
326.2774728092515
 20
287.0696802609387
 30
0.0
 10
326.1641399733659
 20
287.0678314398787
 30
0.0
 10
326.0062152469369
 20
287.1279626615238
 30
0.0
 10
325.8814906643871
 20
287.2412713446586
 30
0.0
 10
325.8327815613517
 20
287.3429150613787
 30
0.0
 10
325.8194323671966
 20
287.3956030139887
 30
0.0
  0
SPLINE
  5
13A2A
330
1F
100
AcDbEntity
  8
0
100
AcDbSpline
210
0.0
220
0.0
230
1.0
 70
     8
 71
     3
 72
     9
 73
     5
 74
     0
 42
0.0000000001
 43
0.0000000001
 40
0.0
 40
0.0
 40
0.0
 40
0.0
 40
0.5019625865
 40
1.0
 40
1.0
 40
1.0
 40
1.0
 10
326.634178461221
 20
284.1798805432937
 30
0.0
 10
326.6232935415916
 20
284.2228422474837
 30
0.0
 10
326.6155145642912
 20
284.3126261913038
 30
0.0
 10
326.6378725888468
 20
284.4000099608837
 30
0.0
 10
326.6557648521217
 20
284.4401778331388
 30
0.0
  0
SPLINE
  5
13A2B
330
1F
100
AcDbEntity
  8
0
100
AcDbSpline
210
0.0
220
0.0
230
1.0
 70
     8
 71
     3
 72
    11
 73
     7
 74
     0
 42
0.0000000001
 43
0.0000000001
 40
0.0
 40
0.0
 40
0.0
 40
0.0
 40
0.252852863
 40
0.5034601422999999
 40
0.7522448428000002
 40
1.0
 40
1.0
 40
1.0
 40
1.0
 10
341.7680989543011
 20
265.4064008391137
 30
0.0
 10
341.6115887127022
 20
265.3729883376937
 30
0.0
 10
341.3063296180059
 20
265.2706155736788
 30
0.0
 10
340.8983827236258
 20
265.0170060940336
 30
0.0
 10
340.5631980653412
 20
264.6773327012637
 30
0.0
 10
340.4000290271012
 20
264.4045730587286
 30
0.0
 10
340.3362305890865
 20
264.2613274247238
 30
0.0
  0
SPLINE
  5
13A2C
330
1F
100
AcDbEntity
  8
0
100
AcDbSpline
210
0.0
220
0.0
230
1.0
 70
     8
 71
     3
 72
     9
 73
     5
 74
     0
 42
0.0000000001
 43
0.0000000001
 40
0.0
 40
0.0
 40
0.0
 40
0.0
 40
0.5036100969000003
 40
1.0
 40
1.0
 40
1.0
 40
1.0
 10
333.2989392331507
 20
288.5686540923587
 30
0.0
 10
333.4228190806868
 20
288.5951005122787
 30
0.0
 10
333.6605550377914
 20
288.7050750000337
 30
0.0
 10
333.8210172695623
 20
288.9129398193038
 30
0.0
 10
333.8718203283022
 20
289.0269919511987
 30
0.0
  0
SPLINE
  5
13A2D
330
1F
100
AcDbEntity
  8
0
100
AcDbSpline
210
0.0
220
0.0
230
1.0
 70
     8
 71
     3
 72
     9
 73
     5
 74
     0
 42
0.0000000001
 43
0.0000000001
 40
0.0
 40
0.0
 40
0.0
 40
0.0
 40
0.5019632654999999
 40
1.0
 40
1.0
 40
1.0
 40
1.0
 10
323.9047790485962
 20
294.9525508204237
 30
0.0
 10
323.9265489213455
 20
294.8666272734936
 30
0.0
 10
323.942109012081
 20
294.6870581017588
 30
0.0
 10
323.8973857381412
 20
294.5122941291136
 30
0.0
 10
323.8616072936817
 20
294.4319557823288
 30
0.0
  0
SPLINE
  5
13A2E
330
1F
100
AcDbEntity
  8
0
100
AcDbSpline
210
0.0
220
0.0
230
1.0
 70
     8
 71
     3
 72
     9
 73
     5
 74
     0
 42
0.0000000001
 43
0.0000000001
 40
0.0
 40
0.0
 40
0.0
 40
0.0
 40
0.5019625865
 40
1.0
 40
1.0
 40
1.0
 40
1.0
 10
341.4575748626218
 20
263.2215724741687
 30
0.0
 10
341.435805023361
 20
263.3074958824637
 30
0.0
 10
341.4202470688457
 20
263.4870637701886
 30
0.0
 10
341.4649631179569
 20
263.6618313092637
 30
0.0
 10
341.5007476445059
 20
263.7421670537737
 30
0.0
  0
SPLINE
  5
13A2F
330
1F
100
AcDbEntity
  8
0
100
AcDbSpline
210
0.0
220
0.0
230
1.0
 70
     8
 71
     3
 72
     9
 73
     5
 74
     0
 42
0.0000000001
 43
0.0000000001
 40
0.0
 40
0.0
 40
0.0
 40
0.0
 40
0.4984438962000002
 40
1.0
 40
1.0
 40
1.0
 40
1.0
 10
321.4461814259909
 20
294.2174452682337
 30
0.0
 10
321.4569395338664
 20
294.2415821793338
 30
0.0
 10
321.4703349850211
 20
294.2940585368537
 30
0.0
 10
321.4657186577166
 20
294.3479726179488
 30
0.0
 10
321.4591878589214
 20
294.3737490365036
 30
0.0
  0
ELLIPSE
  5
13A30
330
1F
100
AcDbEntity
  8
0
100
AcDbEllipse
 10
372.4544594578406
 20
271.9468949024137
 30
0.0
 11
1.703493429279999
 21
-1.08588205364
 31
0.0
210
0.0
220
0.0
230
1.0
 40
0.1945652991000001
 41
-1.227168482199999
 42
-0.1950097938
  0
ELLIPSE
  5
13A31
330
1F
100
AcDbEntity
  8
0
100
AcDbEllipse
 10
372.7849325243067
 20
272.0174457600637
 30
0.0
 11
-0.6011347439299998
 21
1.347851741519998
 31
0.0
210
0.0
220
0.0
230
1.0
 40
0.2034912388
 41
-4.531433245099997
 42
-4.216910823
  0
LINE
  5
13A32
330
1F
100
AcDbEntity
  8
0
100
AcDbLine
 10
402.1296806142268
 20
308.7499749469214
 30
0.0
 11
402.1296806142268
 21
329.3499749469213
 31
0.0
  0
LINE
  5
13A33
330
1F
100
AcDbEntity
  8
0
100
AcDbLine
 10
402.3796806142268
 20
308.7499749469214
 30
0.0
 11
402.3796806142268
 21
329.3499749469213
 31
0.0
  0
LINE
  5
13A34
330
1F
100
AcDbEntity
  8
0
100
AcDbLine
 10
403.8417306142268
 20
308.7499749469214
 30
0.0
 11
403.8417306142268
 21
329.3499749469213
 31
0.0
  0
LINE
  5
13A35
330
1F
100
AcDbEntity
  8
0
100
AcDbLine
 10
410.1296806142268
 20
308.7499749469214
 30
0.0
 11
410.1296806142268
 21
329.3499749469213
 31
0.0
  0
LINE
  5
13A36
330
1F
100
AcDbEntity
  8
0
100
AcDbLine
 10
411.1296806142267
 20
308.7499749469214
 30
0.0
 11
411.1296806142267
 21
329.3499749469213
 31
0.0
  0
LINE
  5
13A37
330
1F
100
AcDbEntity
  8
0
100
AcDbLine
 10
412.6296806142268
 20
308.7499749469214
 30
0.0
 11
412.6296806142268
 21
329.3499749469213
 31
0.0
  0
LINE
  5
13A38
330
1F
100
AcDbEntity
  8
0
100
AcDbLine
 10
418.4296806142261
 20
316.0999749469214
 30
0.0
 11
418.4296806142261
 21
321.9999749469214
 31
0.0
  0
LINE
  5
13A39
330
1F
100
AcDbEntity
  8
0
100
AcDbLine
 10
418.6296806142268
 20
316.0999749469214
 30
0.0
 11
418.6296806142268
 21
321.9999749469214
 31
0.0
  0
LINE
  5
13A3A
330
1F
100
AcDbEntity
  8
0
100
AcDbLine
 10
419.1296806142267
 20
329.3499749469213
 30
0.0
 11
419.637590634726
 21
331.5499749469214
 31
0.0
  0
LINE
  5
13A3B
330
1F
100
AcDbEntity
  8
0
100
AcDbLine
 10
419.1296806142267
 20
308.7499749469214
 30
0.0
 11
419.637590634726
 21
306.5499749469213
 31
0.0
  0
LINE
  5
13A3C
330
1F
100
AcDbEntity
  8
0
100
AcDbLine
 10
420.6296806142268
 20
308.7499749469214
 30
0.0
 11
420.6296806142268
 21
316.0999749469214
 31
0.0
  0
LINE
  5
13A3D
330
1F
100
AcDbEntity
  8
0
100
AcDbLine
 10
420.6296806142268
 20
321.9999749469214
 30
0.0
 11
420.6296806142268
 21
329.3499749469213
 31
0.0
  0
LINE
  5
13A3E
330
1F
100
AcDbEntity
  8
0
100
AcDbLine
 10
420.8217705937263
 20
306.5499749469213
 30
0.0
 11
419.637590634726
 21
306.5499749469213
 31
0.0
  0
LINE
  5
13A3F
330
1F
100
AcDbEntity
  8
0
100
AcDbLine
 10
421.6296806142268
 20
308.7499749469214
 30
0.0
 11
421.6296806142268
 21
329.3499749469213
 31
0.0
  0
LINE
  5
13A40
330
1F
100
AcDbEntity
  8
0
100
AcDbLine
 10
422.3296806142267
 20
311.0499749469214
 30
0.0
 11
422.3296806142267
 21
315.2499749469214
 31
0.0
  0
LINE
  5
13A41
330
1F
100
AcDbEntity
  8
0
100
AcDbLine
 10
422.3296806142267
 20
324.3499749469214
 30
0.0
 11
422.3296806142267
 21
328.5499749469214
 31
0.0
  0
LINE
  5
13A42
330
1F
100
AcDbEntity
  8
0
100
AcDbLine
 10
402.1296806142268
 20
308.7499749469214
 30
0.0
 11
455.0296806142265
 21
308.7499749469214
 31
0.0
  0
LINE
  5
13A43
330
1F
100
AcDbEntity
  8
0
100
AcDbLine
 10
423.5296806142264
 20
312.2499749469214
 30
0.0
 11
423.5296806142264
 21
327.3499749469213
 31
0.0
  0
LINE
  5
13A44
330
1F
100
AcDbEntity
  8
0
100
AcDbLine
 10
421.3296806142266
 20
308.7499749469214
 30
0.0
 11
420.8217705937263
 21
306.5499749469213
 31
0.0
  0
LINE
  5
13A45
330
1F
100
AcDbEntity
  8
0
100
AcDbLine
 10
455.3296806142267
 20
311.0499749469214
 30
0.0
 11
422.3296806142267
 21
311.0499749469214
 31
0.0
  0
LINE
  5
13A46
330
1F
100
AcDbEntity
  8
0
100
AcDbLine
 10
428.7296806142263
 20
311.1499749469214
 30
0.0
 11
436.1296806142268
 21
311.1499749469214
 31
0.0
  0
LINE
  5
13A47
330
1F
100
AcDbEntity
  8
0
100
AcDbLine
 10
441.5296806142263
 20
311.1499749469214
 30
0.0
 11
448.929680614226
 21
311.1499749469214
 31
0.0
  0
LINE
  5
13A48
330
1F
100
AcDbEntity
  8
0
100
AcDbLine
 10
454.1296806142268
 20
312.2499749469214
 30
0.0
 11
423.5296806142264
 21
312.2499749469214
 31
0.0
  0
LINE
  5
13A49
330
1F
100
AcDbEntity
  8
0
100
AcDbLine
 10
421.3296806142266
 20
329.3499749469213
 30
0.0
 11
420.8217705937263
 21
331.5499749469214
 31
0.0
  0
LINE
  5
13A4A
330
1F
100
AcDbEntity
  8
0
100
AcDbLine
 10
460.5296806142264
 20
314.5999749469214
 30
0.0
 11
457.0296806142263
 21
314.5999749469214
 31
0.0
  0
LINE
  5
13A4B
330
1F
100
AcDbEntity
  8
0
100
AcDbLine
 10
428.7296806142263
 20
311.1499749469214
 30
0.0
 11
428.7296806142263
 21
312.2499749469214
 31
0.0
  0
LINE
  5
13A4C
330
1F
100
AcDbEntity
  8
0
100
AcDbLine
 10
421.6296806142268
 20
315.2499749469214
 30
0.0
 11
423.5296806142264
 21
315.2499749469214
 31
0.0
  0
LINE
  5
13A4D
330
1F
100
AcDbEntity
  8
0
100
AcDbLine
 10
454.1296806142268
 20
315.2499749469214
 30
0.0
 11
456.0296806142265
 21
315.2499749469214
 31
0.0
  0
LINE
  5
13A4E
330
1F
100
AcDbEntity
  8
0
100
AcDbLine
 10
418.4296806142261
 20
316.0999749469214
 30
0.0
 11
421.6296806142268
 21
316.0999749469214
 31
0.0
  0
LINE
  5
13A4F
330
1F
100
AcDbEntity
  8
0
100
AcDbLine
 10
456.0296806142265
 20
316.5999749469214
 30
0.0
 11
459.5296806142265
 21
316.5999749469214
 31
0.0
  0
LINE
  5
13A50
330
1F
100
AcDbEntity
  8
0
100
AcDbLine
 10
423.5296806142264
 20
312.2499749469214
 30
0.0
 11
422.3296806142267
 21
311.0499749469214
 31
0.0
  0
LINE
  5
13A51
330
1F
100
AcDbEntity
  8
0
100
AcDbLine
 10
423.5296806142264
 20
327.3499749469213
 30
0.0
 11
422.3296806142267
 21
328.5499749469214
 31
0.0
  0
LINE
  5
13A52
330
1F
100
AcDbEntity
  8
0
100
AcDbLine
 10
436.1296806142268
 20
311.1499749469214
 30
0.0
 11
436.1296806142268
 21
312.2499749469214
 31
0.0
  0
LINE
  5
13A53
330
1F
100
AcDbEntity
  8
0
100
AcDbLine
 10
418.4296806142261
 20
321.9999749469214
 30
0.0
 11
421.6296806142268
 21
321.9999749469214
 31
0.0
  0
LINE
  5
13A54
330
1F
100
AcDbEntity
  8
0
100
AcDbLine
 10
459.5296806142265
 20
322.9999749469214
 30
0.0
 11
456.0296806142265
 21
322.9999749469214
 31
0.0
  0
LINE
  5
13A55
330
1F
100
AcDbEntity
  8
0
100
AcDbLine
 10
456.0296806142265
 20
324.3499749469214
 30
0.0
 11
454.1296806142268
 21
324.3499749469214
 31
0.0
  0
LINE
  5
13A56
330
1F
100
AcDbEntity
  8
0
100
AcDbLine
 10
421.6296806142268
 20
324.3499749469214
 30
0.0
 11
423.5296806142264
 21
324.3499749469214
 31
0.0
  0
LINE
  5
13A57
330
1F
100
AcDbEntity
  8
0
100
AcDbLine
 10
457.0296806142263
 20
324.9999749469214
 30
0.0
 11
460.5296806142264
 21
324.9999749469214
 31
0.0
  0
LINE
  5
13A58
330
1F
100
AcDbEntity
  8
0
100
AcDbLine
 10
423.5296806142264
 20
327.3499749469213
 30
0.0
 11
454.1296806142268
 21
327.3499749469213
 31
0.0
  0
LINE
  5
13A59
330
1F
100
AcDbEntity
  8
0
100
AcDbLine
 10
441.5296806142263
 20
311.1499749469214
 30
0.0
 11
441.5296806142263
 21
312.2499749469214
 31
0.0
  0
LINE
  5
13A5A
330
1F
100
AcDbEntity
  8
0
100
AcDbLine
 10
454.1296806142268
 20
327.3499749469213
 30
0.0
 11
455.3296806142267
 21
328.5499749469214
 31
0.0
  0
LINE
  5
13A5B
330
1F
100
AcDbEntity
  8
0
100
AcDbLine
 10
422.3296806142267
 20
328.5499749469214
 30
0.0
 11
455.3296806142267
 21
328.5499749469214
 31
0.0
  0
LINE
  5
13A5C
330
1F
100
AcDbEntity
  8
0
100
AcDbLine
 10
402.1296806142268
 20
329.3499749469213
 30
0.0
 11
455.0296806142265
 21
329.3499749469213
 31
0.0
  0
LINE
  5
13A5D
330
1F
100
AcDbEntity
  8
0
100
AcDbLine
 10
454.1296806142268
 20
312.2499749469214
 30
0.0
 11
455.3296806142267
 21
311.0499749469214
 31
0.0
  0
LINE
  5
13A5E
330
1F
100
AcDbEntity
  8
0
100
AcDbLine
 10
420.8217705937263
 20
331.5499749469214
 30
0.0
 11
419.637590634726
 21
331.5499749469214
 31
0.0
  0
LINE
  5
13A5F
330
1F
100
AcDbEntity
  8
0
100
AcDbLine
 10
448.929680614226
 20
311.1499749469214
 30
0.0
 11
448.929680614226
 21
312.2499749469214
 31
0.0
  0
LINE
  5
13A60
330
1F
100
AcDbEntity
  8
0
100
AcDbLine
 10
454.1296806142268
 20
327.3499749469213
 30
0.0
 11
454.1296806142268
 21
312.2499749469214
 31
0.0
  0
LINE
  5
13A61
330
1F
100
AcDbEntity
  8
0
100
AcDbLine
 10
455.3296806142267
 20
328.5499749469214
 30
0.0
 11
455.3296806142267
 21
324.3499749469214
 31
0.0
  0
LINE
  5
13A62
330
1F
100
AcDbEntity
  8
0
100
AcDbLine
 10
455.3296806142267
 20
315.2499749469214
 30
0.0
 11
455.3296806142267
 21
311.0499749469214
 31
0.0
  0
LINE
  5
13A63
330
1F
100
AcDbEntity
  8
0
100
AcDbLine
 10
456.0296806142265
 20
328.3499749469214
 30
0.0
 11
456.0296806142265
 21
325.9999749469214
 31
0.0
  0
LINE
  5
13A64
330
1F
100
AcDbEntity
  8
0
100
AcDbLine
 10
456.0296806142265
 20
313.5999749469214
 30
0.0
 11
456.0296806142265
 21
309.7499749469214
 31
0.0
  0
LINE
  5
13A65
330
1F
100
AcDbEntity
  8
0
100
AcDbLine
 10
456.0296806142265
 20
315.2499749469214
 30
0.0
 11
456.0296806142265
 21
324.3499749469214
 31
0.0
  0
LINE
  5
13A66
330
1F
100
AcDbEntity
  8
0
100
AcDbLine
 10
457.1705256846268
 20
322.9999749469214
 30
0.0
 11
457.1705256846268
 21
316.5999749469214
 31
0.0
  0
LINE
  5
13A67
330
1F
100
AcDbEntity
  8
0
100
AcDbLine
 10
459.5296806142265
 20
316.5999749469214
 30
0.0
 11
459.5296806142265
 21
322.9999749469214
 31
0.0
  0
LINE
  5
13A68
330
1F
100
AcDbEntity
  8
0
100
AcDbLine
 10
460.5296806142264
 20
324.9999749469214
 30
0.0
 11
460.5296806142264
 21
314.5999749469214
 31
0.0
  0
ARC
  5
13A69
330
1F
100
AcDbEntity
  8
0
100
AcDbCircle
 10
457.0296806142263
 20
325.9999749469214
 30
0.0
 40
1.0
100
AcDbArc
 50
180.0
 51
270.0
  0
ARC
  5
13A6A
330
1F
100
AcDbEntity
  8
0
100
AcDbCircle
 10
457.0296806142263
 20
313.5999749469214
 30
0.0
 40
1.0
100
AcDbArc
 50
90.0
 51
180.0
  0
ARC
  5
13A6B
330
1F
100
AcDbEntity
  8
0
100
AcDbCircle
 10
455.0296806142265
 20
328.3499749469214
 30
0.0
 40
1.0
100
AcDbArc
 50
0.0
 51
90.0
  0
ARC
  5
13A6C
330
1F
100
AcDbEntity
  8
0
100
AcDbCircle
 10
455.0296806142265
 20
309.7499749469214
 30
0.0
 40
1.0
100
AcDbArc
 50
270.0
 51
0.0
  0
DIMENSION
  5
13A6D
330
1F
100
AcDbEntity
  8
DIM
100
AcDbDimension
  2
*D2
 10
406.6296806142267
 20
355.4695003032688
 30
0.0
 11
433.5796806142272
 21
358.0195003032689
 31
0.0
 70
    32
 71
     5
 42
53.90000000000053
 73
     0
 74
     0
 75
     0
  3
01
100
AcDbAlignedDimension
 13
460.5296806142272
 23
378.8861299517656
 33
0.0
 14
406.6296806142267
 24
382.157733785176
 34
0.0
100
AcDbRotatedDimension
1001
ACAD
1000
DSTYLE
1002
{
1070
    49
1040
0.3
1070
    50
1040
1.570796326794894
1002
}
  0
DIMENSION
  5
13A6E
330
1F
100
AcDbEntity
  8
DIM
100
AcDbDimension
  2
*D3
 10
393.5546331894721
 20
308.7499749469214
 30
0.0
 11
391.0046331894721
 21
319.0499749469215
 31
0.0
 70
    32
 71
     5
 42
20.59999999999996
 73
     0
 74
     0
 75
     0
  3
01
100
AcDbAlignedDimension
 13
405.7939601495053
 23
329.3499749469213
 33
0.0
 14
405.7939601495053
 24
308.7499749469214
 34
0.0
 50
90.0
100
AcDbRotatedDimension
1001
ACAD
1000
DSTYLE
1002
{
1070
    49
1040
0.3
1070
    50
1040
1.570796326794894
1002
}
  0
DIMENSION
  5
13A6F
330
1F
100
AcDbEntity
  8
DIM
100
AcDbDimension
  2
*D4
 10
385.9949376212741
 20
306.5499749469213
 30
0.0
 11
383.4449376212741
 21
319.0499749469215
 31
0.0
 70
    32
 71
     5
 42
25.00000000000006
 73
     0
 74
     0
 75
     0
  3
01
100
AcDbAlignedDimension
 13
419.637590634726
 23
331.5499749469214
 33
0.0
 14
419.637590634726
 24
306.5499749469213
 34
0.0
 50
90.0
100
AcDbRotatedDimension
1001
ACAD
1000
DSTYLE
1002
{
1070
    49
1040
0.3
1070
    50
1040
1.570796326794894
1002
}
  0
DIMENSION
  5
13A70
330
1F
100
AcDbEntity
  8
DIM
100
AcDbDimension
  2
*D5
 10
460.5296806142272
 20
349.6961288671311
 30
0.0
 11
431.3296806142272
 21
352.2461288671311
 31
0.0
 70
    32
 71
     5
 42
58.40000000000054
 73
     0
 74
     0
 75
     0
  3
01
100
AcDbAlignedDimension
 13
402.1296806142268
 23
379.657733785176
 33
0.0
 14
460.5296806142272
 24
381.9926998036511
 34
0.0
100
AcDbRotatedDimension
1001
ACAD
1000
DSTYLE
1002
{
1070
    49
1040
0.3
1070
    50
1040
1.570796326794894
1002
}
  0
DIMENSION
  5
13A71
330
1F
100
AcDbEntity
  8
DIM
100
AcDbDimension
  2
*D6
 10
392.5795242027573
 20
379.657733785176
 30
0.0
 11
390.0295242027571
 21
399.0077337851762
 31
0.0
 70
    32
 71
     5
 42
38.69999999999993
 73
     0
 74
     0
 75
     0
  3
01
100
AcDbAlignedDimension
 13
405.1154237311483
 23
418.3577337851758
 33
0.0
 14
405.1154237311483
 24
379.657733785176
 34
0.0
 50
90.0
100
AcDbRotatedDimension
1001
ACAD
1000
DSTYLE
1002
{
1070
    49
1040
0.3
1070
    50
1040
1.570796326794894
1002
}
  0
ENDSEC
  0
SECTION
  2
OBJECTS
  0
DICTIONARY
  5
C
330
0
100
AcDbDictionary
281
     1
  3
ACAD_COLOR
350
4FFE
  3
ACAD_GROUP
350
D
  3
ACAD_LAYOUT
350
1A
  3
ACAD_MATERIAL
350
4FE5
  3
ACAD_MLEADERSTYLE
350
5022
  3
ACAD_MLINESTYLE
350
17
  3
ACAD_PLOTSETTINGS
350
19
  3
ACAD_PLOTSTYLENAME
350
E
  3
ACAD_RENDER_PLOT_SETTINGS
350
6537
  3
ACAD_SCALELIST
350
5000
  3
ACAD_TABLESTYLE
350
4FE3
  3
ACAD_VISUALSTYLE
350
2A
  3
ACDB_RECOMPOSE_DATA
350
50EC
  3
AcDbVariableDictionary
350
5108
  3
ASE_INDEX_DICTIONARY
350
11ACE
  3
lxx_dict
350
13CB0
  0
DICTIONARY
  5
50EE
330
8
100
AcDbDictionary
280
     1
281
     1
  0
DICTIONARY
  5
50B8
330
2
100
AcDbDictionary
280
     1
281
     1
  3
ACAD_LAYERFILTERS
360
134CB
  3
ACAD_LAYERSTATES
360
50B9
  3
ACLYDICTIONARY
360
134CA
  0
DICTIONARY
  5
50D0
330
10
100
AcDbDictionary
280
     1
281
     1
  3
ADSK_XREC_LAYER_RECONCILED
360
50D1
  0
DICTIONARY
  5
50D2
330
3B
100
AcDbDictionary
280
     1
281
     1
  3
ADSK_XREC_LAYER_RECONCILED
360
50D3
  0
DICTIONARY
  5
50AF
330
50AE
100
AcDbDictionary
280
     1
281
     1
  3
ADSK_XREC_LAYER_RECONCILED
360
50D4
  0
DICTIONARY
  5
67C0
330
1F
100
AcDbDictionary
280
     1
281
     1
  3
ACAD_SORTENTS
360
67C1
  0
DICTIONARY
  5
13D4B
330
10FE8
100
AcDbDictionary
280
     1
281
     1
  0
DICTIONARY
  5
13D77
330
13CB7
100
AcDbDictionary
280
     1
281
     1
  3
ACAD_MTEXT_2008_RT
360
13D78
  0
DICTIONARY
  5
13D79
330
13CFB
100
AcDbDictionary
280
     1
281
     1
  3
ACAD_MTEXT_2008_RT
360
13D7A
  0
DICTIONARY
  5
13D7B
330
13CFC
100
AcDbDictionary
280
     1
281
     1
  3
ACAD_MTEXT_2008_RT
360
13D7C
  0
DICTIONARY
  5
13D7D
330
13D21
100
AcDbDictionary
280
     1
281
     1
  3
ACAD_MTEXT_2008_RT
360
13D7E
  0
DICTIONARY
  5
13D7F
330
13D24
100
AcDbDictionary
280
     1
281
     1
  3
ACAD_MTEXT_2008_RT
360
13D80
  0
DICTIONARY
  5
13D81
330
13D25
100
AcDbDictionary
280
     1
281
     1
  3
ACAD_MTEXT_2008_RT
360
13D82
  0
DICTIONARY
  5
13D83
330
13D2F
100
AcDbDictionary
280
     1
281
     1
  3
ACAD_MTEXT_2008_RT
360
13D84
  0
DICTIONARY
  5
13D85
330
13D30
100
AcDbDictionary
280
     1
281
     1
  3
ACAD_MTEXT_2008_RT
360
13D86
  0
DICTIONARY
  5
13D87
330
13D31
100
AcDbDictionary
280
     1
281
     1
  3
ACAD_MTEXT_2008_RT
360
13D88
  0
DICTIONARY
  5
13D89
330
13D3F
100
AcDbDictionary
280
     1
281
     1
  3
ACAD_MTEXT_2008_RT
360
13D8A
  0
DICTIONARY
  5
13D8B
330
13D40
100
AcDbDictionary
280
     1
281
     1
  3
ACAD_MTEXT_2008_RT
360
13D8C
  0
DICTIONARY
  5
13D8D
330
13D41
100
AcDbDictionary
280
     1
281
     1
  3
ACAD_MTEXT_2008_RT
360
13D8E
  0
DICTIONARY
  5
13D75
330
7228
100
AcDbDictionary
280
     1
281
     1
  3
ACAD_MTEXT_2008_RT
360
13D76
  0
DICTIONARY
  5
4FFE
102
{ACAD_REACTORS
330
C
102
}
330
C
100
AcDbDictionary
281
     1
  0
DICTIONARY
  5
D
102
{ACAD_REACTORS
330
C
102
}
330
C
100
AcDbDictionary
281
     1
  0
DICTIONARY
  5
1A
102
{ACAD_REACTORS
330
C
102
}
330
C
100
AcDbDictionary
281
     1
  3
Layout1
350
1E
  3
Layout2
350
26
  3
Model
350
22
  0
DICTIONARY
  5
4FE5
102
{ACAD_REACTORS
330
C
102
}
330
C
100
AcDbDictionary
281
     1
  3
ByBlock
350
4FEE
  3
ByLayer
350
4FE6
  3
Global
350
4FF6
  0
DICTIONARY
  5
5022
102
{ACAD_REACTORS
330
C
102
}
330
C
100
AcDbDictionary
281
     1
  3
Standard
350
5023
  0
DICTIONARY
  5
17
102
{ACAD_REACTORS
330
C
102
}
330
C
100
AcDbDictionary
281
     1
  3
Standard
350
18
  0
DICTIONARY
  5
19
102
{ACAD_REACTORS
330
C
102
}
330
C
100
AcDbDictionary
281
     1
  0
ACDBDICTIONARYWDFLT
  5
E
102
{ACAD_REACTORS
330
C
102
}
330
C
100
AcDbDictionary
281
     1
  3
Normal
350
F
100
AcDbDictionaryWithDefault
340
F
  0
DICTIONARY
  5
6537
102
{ACAD_REACTORS
330
C
102
}
330
C
100
AcDbDictionary
281
     1
  3
{1DC63513-1B1A-422F-9880-65CFD2B8D533}
350
6538
  0
DICTIONARY
  5
5000
102
{ACAD_REACTORS
330
C
102
}
330
C
100
AcDbDictionary
281
     1
  3
A0
350
5001
  3
A1
350
5002
  3
A2
350
5003
  3
A3
350
5004
  3
A4
350
5005
  3
A5
350
5006
  3
A6
350
5007
  3
A7
350
5008
  3
A8
350
5009
  3
A9
350
500A
  3
B0
350
500B
  3
B1
350
500C
  3
B2
350
500D
  3
B3
350
500E
  3
B4
350
500F
  3
B5
350
5010
  3
B6
350
5011
  3
B7
350
5012
  3
B8
350
5013
  3
B9
350
5014
  3
C0
350
5015
  3
C1
350
5016
  3
C2
350
5017
  3
C3
350
5018
  3
C4
350
5019
  3
C5
350
501A
  3
C6
350
501B
  3
C7
350
501C
  3
C8
350
501D
  3
C9
350
501E
  3
D0
350
501F
  3
D1
350
5020
  3
D2
350
5021
  0
DICTIONARY
  5
4FE3
102
{ACAD_REACTORS
330
C
102
}
330
C
100
AcDbDictionary
281
     1
  3
Standard
350
4FFF
  0
DICTIONARY
  5
2A
102
{ACAD_REACTORS
330
C
102
}
330
C
100
AcDbDictionary
281
     1
  3
2dWireframe
350
2F
  3
3D Hidden
350
31
  3
3dWireframe
350
30
  3
Basic
350
32
  3
Brighten
350
36
  3
ColorChange
350
3A
  3
Conceptual
350
34
  3
Dim
350
35
  3
Facepattern
350
39
  3
Flat
350
2B
  3
FlatWithEdges
350
2C
  3
Gouraud
350
2D
  3
GouraudWithEdges
350
2E
  3
Linepattern
350
38
  3
Realistic
350
33
  3
Thicken
350
37
  0
XRECORD
  5
50EC
102
{ACAD_REACTORS
330
C
102
}
330
C
100
AcDbXrecord
280
     1
 90
        1
330
4FFF
330
7228
330
13CB7
330
13CFB
330
13CFC
330
13D21
330
13D24
330
13D25
330
13D2F
330
13D30
330
13D31
330
13D3F
330
13D40
330
13D41
  0
DICTIONARY
  5
5108
102
{ACAD_REACTORS
330
C
102
}
330
C
100
AcDbDictionary
281
     1
  3
CANNOSCALE
350
510B
  3
CMLEADERSTYLE
350
510A
  3
CTABLESTYLE
350
5109
  3
DIMASSOC
350
510E
  3
INDEXCTL
350
510D
  3
LIGHTINGUNITS
350
13D58
  3
MSLTSCALE
350
13D57
  3
SORTENTS
350
510C
  0
DICTIONARY
  5
11ACE
102
{ACAD_REACTORS
330
C
102
}
330
C
100
AcDbDictionary
281
     1
  3
ASEBlockHierarchyIndexRecord
350
11ACF
1001
DCO15
1040
1901610418.781
  0
DICTIONARY
  5
13CB0
102
{ACAD_REACTORS
330
C
102
}
330
C
100
AcDbDictionary
281
     1
  3
lxx_dimth
350
13CB1
  0
DICTIONARY
  5
134CB
102
{ACAD_REACTORS
330
50B8
102
}
330
50B8
100
AcDbDictionary
281
     1
  0
DICTIONARY
  5
50B9
102
{ACAD_REACTORS
330
50B8
102
}
330
50B8
100
AcDbDictionary
281
     1
  0
DICTIONARY
  5
134CA
102
{ACAD_REACTORS
330
50B8
102
}
330
50B8
100
AcDbDictionary
281
     1
1001
ACAD
1000
<All
  0
XRECORD
  5
50D1
102
{ACAD_REACTORS
330
50D0
102
}
330
50D0
100
AcDbXrecord
280
     1
290
     1
  0
XRECORD
  5
50D3
102
{ACAD_REACTORS
330
50D2
102
}
330
50D2
100
AcDbXrecord
280
     1
290
     1
  0
XRECORD
  5
50D4
102
{ACAD_REACTORS
330
50AF
102
}
330
50AF
100
AcDbXrecord
280
     1
290
     1
  0
SORTENTSTABLE
  5
67C1
102
{ACAD_REACTORS
330
67C0
102
}
330
67C0
100
AcDbSortentsTable
330
1F
331
35C8
  5
35D8
331
65A3
  5
65A4
331
2F93
  5
2FDE
331
65A1
  5
65A2
331
7228
  5
99F4
331
28AE
  5
2A38
331
2EE7
  5
2F93
331
2FDE
  5
35C8
331
65B2
  5
65B3
331
2C65
  5
2EE7
331
3943
  5
4842
331
65A4
  5
65A5
331
65A0
  5
65A1
331
3895
  5
3943
331
35D8
  5
3807
331
4842
  5
4E94
331
3807
  5
3895
  0
XRECORD
  5
13D78
102
{ACAD_REACTORS
330
13D77
102
}
330
13D77
100
AcDbXrecord
280
     1
 40
1527.0
  1
\pxqc;BQ LUO
  0
XRECORD
  5
13D7A
102
{ACAD_REACTORS
330
13D79
102
}
330
13D79
100
AcDbXrecord
280
     1
 40
1262561.0
  1
\pxqc;档案员{\H0.7x;\P\Fromans|c134;Filing Clerk\fFangSong_GB2312|b0|i0|c134|p49; }
  0
XRECORD
  5
13D7C
102
{ACAD_REACTORS
330
13D7B
102
}
330
13D7B
100
AcDbXrecord
280
     1
 40
650528.0
  1
\pxqc;日期{\Fromans|c134;/Date}
  0
XRECORD
  5
13D7E
102
{ACAD_REACTORS
330
13D7D
102
}
330
13D7D
100
AcDbXrecord
280
     1
 40
2318748.0
  1
\pxsm0.7;{\f仿宋_GB2312|b0|i0|c134|p49;标准化}\PStand.
  0
XRECORD
  5
13D80
102
{ACAD_REACTORS
330
13D7F
102
}
330
13D7F
100
AcDbXrecord
280
     1
 40
118135.0
  1
\pxsm0.7;签名\P{\Fromans|c134;Signature} 
  0
XRECORD
  5
13D82
102
{ACAD_REACTORS
330
13D81
102
}
330
13D81
100
AcDbXrecord
280
     1
 40
108939.0
  1
\pxsm0.7,qc;处数\P{\Fromans|c134;Number }
  0
XRECORD
  5
13D84
102
{ACAD_REACTORS
330
13D83
102
}
330
13D83
100
AcDbXrecord
280
     1
 40
125762.0
  1
\pxsm0.7;标记\P{\Fromans|c134;Mark}
  0
XRECORD
  5
13D86
102
{ACAD_REACTORS
330
13D85
102
}
330
13D85
100
AcDbXrecord
280
     1
 40
111973.0
  1
\pxsm0.7;审核\P{\Fromans|c134;Checked}
  0
XRECORD
  5
13D88
102
{ACAD_REACTORS
330
13D87
102
}
330
13D87
100
AcDbXrecord
280
     1
 40
137968.0
  1
\pxsm0.7;绘图\P{\Fromans|c134;Drawn\Ftxt|c134; }
  0
XRECORD
  5
13D8A
102
{ACAD_REACTORS
330
13D89
102
}
330
13D89
100
AcDbXrecord
280
     1
 40
106320.0
  1
\pxsm0.7;批准\P{\Fromans|c134;Approved}
  0
XRECORD
  5
13D8C
102
{ACAD_REACTORS
330
13D8B
102
}
330
13D8B
100
AcDbXrecord
280
     1
 40
127283.0
  1
\pxsm0.7;工艺\P{\Fromans|c134;Process}
  0
XRECORD
  5
13D8E
102
{ACAD_REACTORS
330
13D8D
102
}
330
13D8D
100
AcDbXrecord
280
     1
 40
106220.0
  1
\pxsm0.7;日期\P{\Fromans|c134;Date}
  0
XRECORD
  5
13D76
102
{ACAD_REACTORS
330
13D75
102
}
330
13D75
100
AcDbXrecord
280
     1
 40
532121999.0
  1
\A1;\pxql;\P{\f仿宋_GB2312|b0|i0|c134|p49;技术参数}:\P- {\f仿宋_GB2312|b0|i0|c134|p49;材料}: {\f仿宋_GB2312|b0|i0|c134|p49;聚碳酸酯}\P- {\f仿宋_GB2312|b0|i0|c134|p49;颜色}: RAL 7032{\f仿宋_GB2312|b0|i0|c134|p49;（浅灰色）}\P- {\f仿宋_GB2312|b0|i0|c134|p49;温度范围}: -40{\f仿宋_GB2312|
  1
b0|i0|c134|p49;℃} - +125{\f仿宋_GB2312|b0|i0|c134|p49;℃}\P- {\f仿宋_GB2312|b0|i0|c134|p49;依据}UL 94{\f仿宋_GB2312|b0|i0|c134|p49;的阻燃等级}: V0\P{\f仿宋_GB2312|b0|i0|c134|p49;适用有卡爪单个模块状，用于锁止}\P\pq*;\P\pql;Technical specification:\P- Material: polycarbonate\P- Col
  1
our: RAL 7032(light grey) \P- Temperature range: -40{\f仿宋_GB2312|b0|i0|c134|p49;℃} - +125{\f仿宋_GB2312|b0|i0|c134|p49;℃}\P- Flammability acc.to UL 94: V0\PApplicable to with claw module, for rail
  0
LAYOUT
  5
1E
102
{ACAD_REACTORS
330
1A
102
}
330
1A
100
AcDbPlotSettings
  1

  2
none_device
  4

  6

 40
0.0
 41
0.0
 42
0.0
 43
0.0
 44
0.0
 45
0.0
 46
0.0
 47
0.0
 48
0.0
 49
0.0
140
0.0
141
0.0
142
1.0
143
1.0
 70
   688
 72
     0
 73
     0
 74
     5
  7

 75
    16
147
1.0
 76
     0
 77
     2
 78
   300
148
0.0
149
0.0
100
AcDbLayout
  1
Layout1
 70
     1
 71
     1
 10
0.0
 20
0.0
 11
12.0
 21
9.0
 12
0.0
 22
0.0
 32
0.0
 14
1.000000000000000E+20
 24
1.000000000000000E+20
 34
1.000000000000000E+20
 15
-1.000000000000000E+20
 25
-1.000000000000000E+20
 35
-1.000000000000000E+20
146
0.0
 13
0.0
 23
0.0
 33
0.0
 16
1.0
 26
0.0
 36
0.0
 17
0.0
 27
1.0
 37
0.0
 76
     0
330
1B
  0
LAYOUT
  5
26
102
{ACAD_REACTORS
330
1A
102
}
330
1A
100
AcDbPlotSettings
  1

  2
none_device
  4

  6

 40
0.0
 41
0.0
 42
0.0
 43
0.0
 44
0.0
 45
0.0
 46
0.0
 47
0.0
 48
0.0
 49
0.0
140
0.0
141
0.0
142
1.0
143
1.0
 70
   688
 72
     0
 73
     0
 74
     5
  7

 75
    16
147
1.0
 76
     0
 77
     2
 78
   300
148
0.0
149
0.0
100
AcDbLayout
  1
Layout2
 70
     1
 71
     2
 10
0.0
 20
0.0
 11
0.0
 21
0.0
 12
0.0
 22
0.0
 32
0.0
 14
0.0
 24
0.0
 34
0.0
 15
0.0
 25
0.0
 35
0.0
146
0.0
 13
0.0
 23
0.0
 33
0.0
 16
1.0
 26
0.0
 36
0.0
 17
0.0
 27
1.0
 37
0.0
 76
     0
330
23
  0
LAYOUT
  5
22
102
{ACAD_REACTORS
330
1A
102
}
330
1A
100
AcDbPlotSettings
  1

  2
Adobe PDF Converter.pc3
  4
A4
  6

 40
3.174999952316281
 41
3.174999952316281
 42
3.17498779296875
 43
3.175003051757812
 44
297.0318298339844
 45
209.9733276367186
 46
0.0000000000000076
 47
1.630241740247063
 48
246.9897427644609
 49
39.36804549891383
140
544.952097801264
141
244.7492402188181
142
1.0
143
1.025046328645055
 70
  3764
 72
     1
 73
     0
 74
     4
  7
monochrome.ctb
 75
     0
147
0.9755656618192436
 76
     1
 77
     2
 78
   300
148
-246.9897427644609
149
-39.36804549891383
100
AcDbLayout
  1
Model
 70
     1
 71
     0
 10
0.0
 20
0.0
 11
12.0
 21
9.0
 12
0.0
 22
0.0
 32
0.0
 14
1.000000000000000E+20
 24
1.000000000000000E+20
 34
1.000000000000000E+20
 15
-1.000000000000000E+20
 25
-1.000000000000000E+20
 35
-1.000000000000000E+20
146
0.0
 13
0.0
 23
0.0
 33
0.0
 16
1.0
 26
0.0
 36
0.0
 17
0.0
 27
1.0
 37
0.0
 76
     0
330
1F
331
29
1001
ACAD_PSEXT
1000
Adobe PDF Converter.pc3
1000
Adobe PDF Converter
1000
桌面\*.pdf
1000

1070
     0
  0
MATERIAL
  5
4FEE
102
{ACAD_XDICTIONARY
360
4FEF
102
}
102
{ACAD_REACTORS
330
4FE5
102
}
330
4FE5
100
AcDbMaterial
  1
ByBlock
 72
     0
 43
0.0208333333333333
 43
0.0
 43
0.0
 43
0.0
 43
0.0
 43
0.0208333333333333
 43
0.0
 43
0.0
 43
0.0
 43
0.0
 43
1.0
 43
0.0
 43
0.0
 43
0.0
 43
0.0
 43
1.0
 77
     0
 47
0.0208333333333333
 47
0.0
 47
0.0
 47
0.0
 47
0.0
 47
0.0208333333333333
 47
0.0
 47
0.0
 47
0.0
 47
0.0
 47
1.0
 47
0.0
 47
0.0
 47
0.0
 47
0.0
 47
1.0
171
     0
 49
0.0208333333333333
 49
0.0
 49
0.0
 49
0.0
 49
0.0
 49
0.0208333333333333
 49
0.0
 49
0.0
 49
0.0
 49
0.0
 49
1.0
 49
0.0
 49
0.0
 49
0.0
 49
0.0
 49
1.0
175
     0
142
0.0208333333333333
142
0.0
142
0.0
142
0.0
142
0.0
142
0.0208333333333333
142
0.0
142
0.0
142
0.0
142
0.0
142
1.0
142
0.0
142
0.0
142
0.0
142
0.0
142
1.0
179
     0
144
0.0208333333333333
144
0.0
144
0.0
144
0.0
144
0.0
144
0.0208333333333333
144
0.0
144
0.0
144
0.0
144
0.0
144
1.0
144
0.0
144
0.0
144
0.0
144
0.0
144
1.0
147
0.0208333333333333
147
0.0
147
0.0
147
0.0
147
0.0
147
0.0208333333333333
147
0.0
147
0.0
147
0.0
147
0.0
147
1.0
147
0.0
147
0.0
147
0.0
147
0.0
147
1.0
  0
MATERIAL
  5
4FE6
102
{ACAD_XDICTIONARY
360
4FE7
102
}
102
{ACAD_REACTORS
330
4FE5
102
}
330
4FE5
100
AcDbMaterial
  1
ByLayer
 72
     0
 43
0.0208333333333333
 43
0.0
 43
0.0
 43
0.0
 43
0.0
 43
0.0208333333333333
 43
0.0
 43
0.0
 43
0.0
 43
0.0
 43
1.0
 43
0.0
 43
0.0
 43
0.0
 43
0.0
 43
1.0
 77
     0
 47
0.0208333333333333
 47
0.0
 47
0.0
 47
0.0
 47
0.0
 47
0.0208333333333333
 47
0.0
 47
0.0
 47
0.0
 47
0.0
 47
1.0
 47
0.0
 47
0.0
 47
0.0
 47
0.0
 47
1.0
171
     0
 49
0.0208333333333333
 49
0.0
 49
0.0
 49
0.0
 49
0.0
 49
0.0208333333333333
 49
0.0
 49
0.0
 49
0.0
 49
0.0
 49
1.0
 49
0.0
 49
0.0
 49
0.0
 49
0.0
 49
1.0
175
     0
142
0.0208333333333333
142
0.0
142
0.0
142
0.0
142
0.0
142
0.0208333333333333
142
0.0
142
0.0
142
0.0
142
0.0
142
1.0
142
0.0
142
0.0
142
0.0
142
0.0
142
1.0
179
     0
144
0.0208333333333333
144
0.0
144
0.0
144
0.0
144
0.0
144
0.0208333333333333
144
0.0
144
0.0
144
0.0
144
0.0
144
1.0
144
0.0
144
0.0
144
0.0
144
0.0
144
1.0
147
0.0208333333333333
147
0.0
147
0.0
147
0.0
147
0.0
147
0.0208333333333333
147
0.0
147
0.0
147
0.0
147
0.0
147
1.0
147
0.0
147
0.0
147
0.0
147
0.0
147
1.0
  0
MATERIAL
  5
4FF6
102
{ACAD_XDICTIONARY
360
4FF7
102
}
102
{ACAD_REACTORS
330
4FE5
102
}
330
4FE5
100
AcDbMaterial
  1
Global
 72
     0
 43
0.0208333333333333
 43
0.0
 43
0.0
 43
0.0
 43
0.0
 43
0.0208333333333333
 43
0.0
 43
0.0
 43
0.0
 43
0.0
 43
1.0
 43
0.0
 43
0.0
 43
0.0
 43
0.0
 43
1.0
 77
     0
 47
0.0208333333333333
 47
0.0
 47
0.0
 47
0.0
 47
0.0
 47
0.0208333333333333
 47
0.0
 47
0.0
 47
0.0
 47
0.0
 47
1.0
 47
0.0
 47
0.0
 47
0.0
 47
0.0
 47
1.0
171
     0
 49
0.0208333333333333
 49
0.0
 49
0.0
 49
0.0
 49
0.0
 49
0.0208333333333333
 49
0.0
 49
0.0
 49
0.0
 49
0.0
 49
1.0
 49
0.0
 49
0.0
 49
0.0
 49
0.0
 49
1.0
175
     0
142
0.0208333333333333
142
0.0
142
0.0
142
0.0
142
0.0
142
0.0208333333333333
142
0.0
142
0.0
142
0.0
142
0.0
142
1.0
142
0.0
142
0.0
142
0.0
142
0.0
142
1.0
179
     0
144
0.0208333333333333
144
0.0
144
0.0
144
0.0
144
0.0
144
0.0208333333333333
144
0.0
144
0.0
144
0.0
144
0.0
144
1.0
144
0.0
144
0.0
144
0.0
144
0.0
144
1.0
147
0.0208333333333333
147
0.0
147
0.0
147
0.0
147
0.0
147
0.0208333333333333
147
0.0
147
0.0
147
0.0
147
0.0
147
1.0
147
0.0
147
0.0
147
0.0
147
0.0
147
1.0
  0
MLEADERSTYLE
  5
5023
102
{ACAD_REACTORS
330
5022
102
}
330
5022
100
AcDbMLeaderStyle
170
     2
171
     1
172
     0
 90
        2
 40
0.0
 41
0.0
173
     1
 91
-1056964608
340
14
 92
       -2
290
     1
 42
0.09
291
     1
 43
0.36
  3
Standard
 44
0.18
300

342
11
174
     1
178
     6
175
     1
176
     0
 93
-1056964608
 45
0.18
292
     0
297
     0
 46
0.18
 94
-1056964608
 47
1.0
 49
1.0
140
1.0
293
     1
141
0.0
294
     1
177
     0
142
1.0
295
     0
296
     0
143
0.125
1001
ACAD_MLEADERVER
1070
     2
  0
MLINESTYLE
  5
18
102
{ACAD_REACTORS
330
17
102
}
330
17
100
AcDbMlineStyle
  2
STANDARD
 70
     0
  3

 62
   256
 51
90.0
 52
90.0
 71
     2
 49
0.5
 62
   256
  6
BYLAYER
 49
-0.5
 62
   256
  6
BYLAYER
  0
ACDBPLACEHOLDER
  5
F
102
{ACAD_REACTORS
330
E
102
}
330
E
  0
MENTALRAYRENDERSETTINGS
  5
6538
102
{ACAD_REACTORS
330
6537
102
}
330
6537
100
AcDbRenderSettings
 90
        2
  1
中
290
     1
290
     1
290
     1
290
     1
  1

  1
渲染质量好于“低级”。包括纹理过滤并且强制双面处于激活状态。处理中等级反锯齿和 5 反射/折射的光线跟踪深度。
 90
        0
100
AcDbMentalRayRenderSettings
 90
        2
 90
        0
 90
        1
 70
     2
 40
3.0
 40
3.0
 40
0.0500000007450581
 40
0.0500000007450581
 40
0.0500000007450581
 40
0.0500000007450581
 70
     0
290
     0
290
     1
 90
        5
 90
        5
 90
        5
290
     0
 90
      500
290
     0
 40
1.0
 90
    10000
 90
        5
 90
        5
 90
        5
290
     0
 90
      200
290
     0
290
     0
290
     0
 40
0.1
 40
1.0
 40
1500.0
 70
     0
 70
     0
 40
10.0
 70
     0
 70
     0
290
     0
  1

 90
       32
 70
     0
 90
     1048
290
     0
 40
1.0
  0
SCALE
  5
5001
102
{ACAD_REACTORS
330
5000
102
}
330
5000
100
AcDbScale
 70
     0
300
1:1
140
1.0
141
1.0
290
     1
  0
SCALE
  5
5002
102
{ACAD_REACTORS
330
5000
102
}
330
5000
100
AcDbScale
 70
     0
300
1:2
140
1.0
141
2.0
290
     0
  0
SCALE
  5
5003
102
{ACAD_REACTORS
330
5000
102
}
330
5000
100
AcDbScale
 70
     0
300
1:4
140
1.0
141
4.0
290
     0
  0
SCALE
  5
5004
102
{ACAD_REACTORS
330
5000
102
}
330
5000
100
AcDbScale
 70
     0
300
1:5
140
1.0
141
5.0
290
     0
  0
SCALE
  5
5005
102
{ACAD_REACTORS
330
5000
102
}
330
5000
100
AcDbScale
 70
     0
300
1:8
140
1.0
141
8.0
290
     0
  0
SCALE
  5
5006
102
{ACAD_REACTORS
330
5000
102
}
330
5000
100
AcDbScale
 70
     0
300
1:10
140
1.0
141
10.0
290
     0
  0
SCALE
  5
5007
102
{ACAD_REACTORS
330
5000
102
}
330
5000
100
AcDbScale
 70
     0
300
1:16
140
1.0
141
16.0
290
     0
  0
SCALE
  5
5008
102
{ACAD_REACTORS
330
5000
102
}
330
5000
100
AcDbScale
 70
     0
300
1:20
140
1.0
141
20.0
290
     0
  0
SCALE
  5
5009
102
{ACAD_REACTORS
330
5000
102
}
330
5000
100
AcDbScale
 70
     0
300
1:30
140
1.0
141
30.0
290
     0
  0
SCALE
  5
500A
102
{ACAD_REACTORS
330
5000
102
}
330
5000
100
AcDbScale
 70
     0
300
1:40
140
1.0
141
40.0
290
     0
  0
SCALE
  5
500B
102
{ACAD_REACTORS
330
5000
102
}
330
5000
100
AcDbScale
 70
     0
300
1:50
140
1.0
141
50.0
290
     0
  0
SCALE
  5
500C
102
{ACAD_REACTORS
330
5000
102
}
330
5000
100
AcDbScale
 70
     0
300
1:100
140
1.0
141
100.0
290
     0
  0
SCALE
  5
500D
102
{ACAD_REACTORS
330
5000
102
}
330
5000
100
AcDbScale
 70
     0
300
2:1
140
2.0
141
1.0
290
     0
  0
SCALE
  5
500E
102
{ACAD_REACTORS
330
5000
102
}
330
5000
100
AcDbScale
 70
     0
300
4:1
140
4.0
141
1.0
290
     0
  0
SCALE
  5
500F
102
{ACAD_REACTORS
330
5000
102
}
330
5000
100
AcDbScale
 70
     0
300
8:1
140
8.0
141
1.0
290
     0
  0
SCALE
  5
5010
102
{ACAD_REACTORS
330
5000
102
}
330
5000
100
AcDbScale
 70
     0
300
10:1
140
10.0
141
1.0
290
     0
  0
SCALE
  5
5011
102
{ACAD_REACTORS
330
5000
102
}
330
5000
100
AcDbScale
 70
     0
300
100:1
140
100.0
141
1.0
290
     0
  0
SCALE
  5
5012
102
{ACAD_REACTORS
330
5000
102
}
330
5000
100
AcDbScale
 70
     0
300
1/128" = 1'-0"
140
0.0078125
141
12.0
290
     0
  0
SCALE
  5
5013
102
{ACAD_REACTORS
330
5000
102
}
330
5000
100
AcDbScale
 70
     0
300
1/64" = 1'-0"
140
0.015625
141
12.0
290
     0
  0
SCALE
  5
5014
102
{ACAD_REACTORS
330
5000
102
}
330
5000
100
AcDbScale
 70
     0
300
1/32" = 1'-0"
140
0.03125
141
12.0
290
     0
  0
SCALE
  5
5015
102
{ACAD_REACTORS
330
5000
102
}
330
5000
100
AcDbScale
 70
     0
300
1/16" = 1'-0"
140
0.0625
141
12.0
290
     0
  0
SCALE
  5
5016
102
{ACAD_REACTORS
330
5000
102
}
330
5000
100
AcDbScale
 70
     0
300
3/32" = 1'-0"
140
0.09375
141
12.0
290
     0
  0
SCALE
  5
5017
102
{ACAD_REACTORS
330
5000
102
}
330
5000
100
AcDbScale
 70
     0
300
1/8" = 1'-0"
140
0.125
141
12.0
290
     0
  0
SCALE
  5
5018
102
{ACAD_REACTORS
330
5000
102
}
330
5000
100
AcDbScale
 70
     0
300
3/16" = 1'-0"
140
0.1875
141
12.0
290
     0
  0
SCALE
  5
5019
102
{ACAD_REACTORS
330
5000
102
}
330
5000
100
AcDbScale
 70
     0
300
1/4" = 1'-0"
140
0.25
141
12.0
290
     0
  0
SCALE
  5
501A
102
{ACAD_REACTORS
330
5000
102
}
330
5000
100
AcDbScale
 70
     0
300
3/8" = 1'-0"
140
0.375
141
12.0
290
     0
  0
SCALE
  5
501B
102
{ACAD_REACTORS
330
5000
102
}
330
5000
100
AcDbScale
 70
     0
300
1/2" = 1'-0"
140
0.5
141
12.0
290
     0
  0
SCALE
  5
501C
102
{ACAD_REACTORS
330
5000
102
}
330
5000
100
AcDbScale
 70
     0
300
3/4" = 1'-0"
140
0.75
141
12.0
290
     0
  0
SCALE
  5
501D
102
{ACAD_REACTORS
330
5000
102
}
330
5000
100
AcDbScale
 70
     0
300
1" = 1'-0"
140
1.0
141
12.0
290
     0
  0
SCALE
  5
501E
102
{ACAD_REACTORS
330
5000
102
}
330
5000
100
AcDbScale
 70
     0
300
1-1/2" = 1'-0"
140
1.5
141
12.0
290
     0
  0
SCALE
  5
501F
102
{ACAD_REACTORS
330
5000
102
}
330
5000
100
AcDbScale
 70
     0
300
3" = 1'-0"
140
3.0
141
12.0
290
     0
  0
SCALE
  5
5020
102
{ACAD_REACTORS
330
5000
102
}
330
5000
100
AcDbScale
 70
     0
300
6" = 1'-0"
140
6.0
141
12.0
290
     0
  0
SCALE
  5
5021
102
{ACAD_REACTORS
330
5000
102
}
330
5000
100
AcDbScale
 70
     0
300
1'-0" = 1'-0"
140
12.0
141
12.0
290
     0
  0
TABLESTYLE
  5
4FFF
102
{ACAD_XDICTIONARY
360
50D6
102
}
102
{ACAD_REACTORS
330
4FE3
102
}
330
4FE3
100
AcDbTableStyle
  3
Standard
 70
     0
 71
     0
 40
0.06
 41
0.06
280
     0
281
     0
  7
Standard
140
0.18
170
     2
 62
     0
 63
     7
283
     0
 90
      512
 91
        0
  1

274
    -2
284
     1
 64
     0
275
    -2
285
     1
 65
     0
276
    -2
286
     1
 66
     0
277
    -2
287
     1
 67
     0
278
    -2
288
     1
 68
     0
279
    -2
289
     1
 69
     0
  7
Standard
140
0.25
170
     5
 62
     0
 63
     7
283
     0
 90
      512
 91
        0
  1

274
    -2
284
     1
 64
     0
275
    -2
285
     1
 65
     0
276
    -2
286
     1
 66
     0
277
    -2
287
     1
 67
     0
278
    -2
288
     1
 68
     0
279
    -2
289
     1
 69
     0
  7
Standard
140
0.18
170
     5
 62
     0
 63
     7
283
     0
 90
      512
 91
        0
  1

274
    -2
284
     1
 64
     0
275
    -2
285
     1
 65
     0
276
    -2
286
     1
 66
     0
277
    -2
287
     1
 67
     0
278
    -2
288
     1
 68
     0
279
    -2
289
     1
 69
     0
  0
VISUALSTYLE
  5
2F
102
{ACAD_REACTORS
330
2A
102
}
330
2A
100
AcDbVisualStyle
  2
2dWireframe
 70
     4
 71
     0
 72
     2
 73
     0
 90
        0
 40
-0.6
 41
-30.0
 62
     5
 63
     7
 74
     1
 91
        4
 64
     7
 65
   257
 75
     1
175
     1
 42
1.0
 92
        0
 66
   257
 43
1.0
 76
     1
 77
     6
 78
     2
 67
     7
 79
     5
170
     0
171
     0
290
     0
174
     0
 93
        1
 44
0.0
173
     0
291
     0
 45
0.0
1001
ACAD
1000
AcDbSavedByObjectVersion
1070
     0
1000
AcDbSavedByObjectVersion
1070
     0
1000
AcDbSavedByObjectVersion
1070
     0
1000
AcDbSavedByObjectVersion
1070
     0
1000
AcDbSavedByObjectVersion
1070
     0
1000
AcDbSavedByObjectVersion
1070
     0
1000
AcDbSavedByObjectVersion
1070
     0
1000
AcDbSavedByObjectVersion
1070
     0
1000
AcDbSavedByObjectVersion
1070
     0
1000
AcDbSavedByObjectVersion
1070
     0
1000
AcDbSavedByObjectVersion
1070
     0
1000
AcDbSavedByObjectVersion
1070
     0
1000
AcDbSavedByObjectVersion
1070
     0
1000
AcDbSavedByObjectVersion
1070
     0
1000
AcDbSavedByObjectVersion
1070
     0
1000
AcDbSavedByObjectVersion
1070
     0
1000
AcDbSavedByObjectVersion
1070
     0
1000
AcDbSavedByObjectVersion
1070
     0
1000
AcDbSavedByObjectVersion
1070
     0
1000
AcDbSavedByObjectVersion
1070
     0
1000
AcDbSavedByObjectVersion
1070
     0
1000
AcDbSavedByObjectVersion
1070
     0
1000
AcDbSavedByObjectVersion
1070
     0
1000
AcDbSavedByObjectVersion
1070
     0
1000
AcDbSavedByObjectVersion
1070
     0
1000
AcDbSavedByObjectVersion
1070
     0
1000
AcDbSavedByObjectVersion
1070
     0
1000
AcDbSavedByObjectVersion
1070
     0
1000
AcDbSavedByObjectVersion
1070
     0
1000
AcDbSavedByObjectVersion
1070
     0
1000
AcDbSavedByObjectVersion
1070
     0
1000
AcDbSavedByObjectVersion
1070
     0
1000
AcDbSavedByObjectVersion
1070
     0
1000
AcDbSavedByObjectVersion
1070
     0
1000
AcDbSavedByObjectVersion
1070
     0
1000
AcDbSavedByObjectVersion
1070
     0
1000
AcDbSavedByObjectVersion
1070
     0
1000
AcDbSavedByObjectVersion
1070
     0
1000
AcDbSavedByObjectVersion
1070
     0
1000
AcDbSavedByObjectVersion
1070
     0
1000
AcDbSavedByObjectVersion
1070
     0
1000
AcDbSavedByObjectVersion
1070
     0
1000
AcDbSavedByObjectVersion
1070
     0
  0
VISUALSTYLE
  5
31
102
{ACAD_REACTORS
330
2A
102
}
330
2A
100
AcDbVisualStyle
  2
3D Hidden
 70
     6
 71
     1
 72
     2
 73
     2
 90
        0
 40
-0.6
 41
-30.0
 62
     5
 63
     7
 74
     2
 91
        2
 64
     7
 65
   257
 75
     2
175
     1
 42
40.0
 92
        0
 66
   257
 43
1.0
 76
     1
 77
     6
 78
     2
 67
     7
 79
     3
170
     0
171
     0
290
     0
174
     0
 93
        1
 44
0.0
173
     0
291
     0
 45
0.0
1001
ACAD
1000
AcDbSavedByObjectVersion
1070
     0
1000
AcDbSavedByObjectVersion
1070
     0
1000
AcDbSavedByObjectVersion
1070
     0
1000
AcDbSavedByObjectVersion
1070
     0
1000
AcDbSavedByObjectVersion
1070
     0
1000
AcDbSavedByObjectVersion
1070
     0
1000
AcDbSavedByObjectVersion
1070
     0
1000
AcDbSavedByObjectVersion
1070
     0
1000
AcDbSavedByObjectVersion
1070
     0
1000
AcDbSavedByObjectVersion
1070
     0
1000
AcDbSavedByObjectVersion
1070
     0
1000
AcDbSavedByObjectVersion
1070
     0
1000
AcDbSavedByObjectVersion
1070
     0
1000
AcDbSavedByObjectVersion
1070
     0
1000
AcDbSavedByObjectVersion
1070
     0
1000
AcDbSavedByObjectVersion
1070
     0
1000
AcDbSavedByObjectVersion
1070
     0
1000
AcDbSavedByObjectVersion
1070
     0
1000
AcDbSavedByObjectVersion
1070
     0
1000
AcDbSavedByObjectVersion
1070
     0
1000
AcDbSavedByObjectVersion
1070
     0
1000
AcDbSavedByObjectVersion
1070
     0
1000
AcDbSavedByObjectVersion
1070
     0
1000
AcDbSavedByObjectVersion
1070
     0
1000
AcDbSavedByObjectVersion
1070
     0
1000
AcDbSavedByObjectVersion
1070
     0
1000
AcDbSavedByObjectVersion
1070
     0
1000
AcDbSavedByObjectVersion
1070
     0
1000
AcDbSavedByObjectVersion
1070
     0
1000
AcDbSavedByObjectVersion
1070
     0
1000
AcDbSavedByObjectVersion
1070
     0
1000
AcDbSavedByObjectVersion
1070
     0
1000
AcDbSavedByObjectVersion
1070
     0
1000
AcDbSavedByObjectVersion
1070
     0
1000
AcDbSavedByObjectVersion
1070
     0
1000
AcDbSavedByObjectVersion
1070
     0
1000
AcDbSavedByObjectVersion
1070
     0
1000
AcDbSavedByObjectVersion
1070
     0
1000
AcDbSavedByObjectVersion
1070
     0
1000
AcDbSavedByObjectVersion
1070
     0
1000
AcDbSavedByObjectVersion
1070
     0
1000
AcDbSavedByObjectVersion
1070
     0
1000
AcDbSavedByObjectVersion
1070
     0
  0
VISUALSTYLE
  5
30
102
{ACAD_REACTORS
330
2A
102
}
330
2A
100
AcDbVisualStyle
  2
3dWireframe
 70
     5
 71
     0
 72
     2
 73
     0
 90
        0
 40
-0.6
 41
-30.0
 62
     5
 63
     7
 74
     1
 91
        4
 64
     7
 65
   257
 75
     1
175
     1
 42
1.0
 92
        0
 66
   257
 43
1.0
 76
     1
 77
     6
 78
     2
 67
     7
 79
     5
170
     0
171
     0
290
     0
174
     0
 93
        1
 44
0.0
173
     0
291
     0
 45
0.0
1001
ACAD
1000
AcDbSavedByObjectVersion
1070
     0
1000
AcDbSavedByObjectVersion
1070
     0
1000
AcDbSavedByObjectVersion
1070
     0
1000
AcDbSavedByObjectVersion
1070
     0
1000
AcDbSavedByObjectVersion
1070
     0
1000
AcDbSavedByObjectVersion
1070
     0
1000
AcDbSavedByObjectVersion
1070
     0
1000
AcDbSavedByObjectVersion
1070
     0
1000
AcDbSavedByObjectVersion
1070
     0
1000
AcDbSavedByObjectVersion
1070
     0
1000
AcDbSavedByObjectVersion
1070
     0
1000
AcDbSavedByObjectVersion
1070
     0
1000
AcDbSavedByObjectVersion
1070
     0
1000
AcDbSavedByObjectVersion
1070
     0
1000
AcDbSavedByObjectVersion
1070
     0
1000
AcDbSavedByObjectVersion
1070
     0
1000
AcDbSavedByObjectVersion
1070
     0
1000
AcDbSavedByObjectVersion
1070
     0
1000
AcDbSavedByObjectVersion
1070
     0
1000
AcDbSavedByObjectVersion
1070
     0
1000
AcDbSavedByObjectVersion
1070
     0
1000
AcDbSavedByObjectVersion
1070
     0
1000
AcDbSavedByObjectVersion
1070
     0
1000
AcDbSavedByObjectVersion
1070
     0
1000
AcDbSavedByObjectVersion
1070
     0
1000
AcDbSavedByObjectVersion
1070
     0
1000
AcDbSavedByObjectVersion
1070
     0
1000
AcDbSavedByObjectVersion
1070
     0
1000
AcDbSavedByObjectVersion
1070
     0
1000
AcDbSavedByObjectVersion
1070
     0
1000
AcDbSavedByObjectVersion
1070
     0
1000
AcDbSavedByObjectVersion
1070
     0
1000
AcDbSavedByObjectVersion
1070
     0
1000
AcDbSavedByObjectVersion
1070
     0
1000
AcDbSavedByObjectVersion
1070
     0
1000
AcDbSavedByObjectVersion
1070
     0
1000
AcDbSavedByObjectVersion
1070
     0
1000
AcDbSavedByObjectVersion
1070
     0
1000
AcDbSavedByObjectVersion
1070
     0
1000
AcDbSavedByObjectVersion
1070
     0
1000
AcDbSavedByObjectVersion
1070
     0
1000
AcDbSavedByObjectVersion
1070
     0
1000
AcDbSavedByObjectVersion
1070
     0
  0
VISUALSTYLE
  5
32
102
{ACAD_REACTORS
330
2A
102
}
330
2A
100
AcDbVisualStyle
  2
Basic
 70
     7
 71
     1
 72
     0
 73
     1
 90
        0
 40
-0.6
 41
-30.0
 62
     5
 63
     7
 74
     0
 91
        4
 64
     7
 65
   257
 75
     1
175
     1
 42
1.0
 92
        8
 66
     7
 43
1.0
 76
     1
 77
     6
 78
     2
 67
     7
 79
     5
170
     0
171
     0
290
     0
174
     0
 93
        1
 44
0.0
173
     0
291
     1
 45
0.0
1001
ACAD
1000
AcDbSavedByObjectVersion
1070
     0
1000
AcDbSavedByObjectVersion
1070
     0
1000
AcDbSavedByObjectVersion
1070
     0
1000
AcDbSavedByObjectVersion
1070
     0
1000
AcDbSavedByObjectVersion
1070
     0
1000
AcDbSavedByObjectVersion
1070
     0
1000
AcDbSavedByObjectVersion
1070
     0
1000
AcDbSavedByObjectVersion
1070
     0
1000
AcDbSavedByObjectVersion
1070
     0
1000
AcDbSavedByObjectVersion
1070
     0
1000
AcDbSavedByObjectVersion
1070
     0
1000
AcDbSavedByObjectVersion
1070
     0
1000
AcDbSavedByObjectVersion
1070
     0
1000
AcDbSavedByObjectVersion
1070
     0
1000
AcDbSavedByObjectVersion
1070
     0
1000
AcDbSavedByObjectVersion
1070
     0
1000
AcDbSavedByObjectVersion
1070
     0
1000
AcDbSavedByObjectVersion
1070
     0
1000
AcDbSavedByObjectVersion
1070
     0
1000
AcDbSavedByObjectVersion
1070
     0
1000
AcDbSavedByObjectVersion
1070
     0
1000
AcDbSavedByObjectVersion
1070
     0
1000
AcDbSavedByObjectVersion
1070
     0
1000
AcDbSavedByObjectVersion
1070
     0
1000
AcDbSavedByObjectVersion
1070
     0
1000
AcDbSavedByObjectVersion
1070
     0
1000
AcDbSavedByObjectVersion
1070
     0
1000
AcDbSavedByObjectVersion
1070
     0
1000
AcDbSavedByObjectVersion
1070
     0
1000
AcDbSavedByObjectVersion
1070
     0
1000
AcDbSavedByObjectVersion
1070
     0
1000
AcDbSavedByObjectVersion
1070
     0
1000
AcDbSavedByObjectVersion
1070
     0
1000
AcDbSavedByObjectVersion
1070
     0
1000
AcDbSavedByObjectVersion
1070
     0
1000
AcDbSavedByObjectVersion
1070
     0
1000
AcDbSavedByObjectVersion
1070
     0
1000
AcDbSavedByObjectVersion
1070
     0
1000
AcDbSavedByObjectVersion
1070
     0
1000
AcDbSavedByObjectVersion
1070
     0
1000
AcDbSavedByObjectVersion
1070
     0
1000
AcDbSavedByObjectVersion
1070
     0
1000
AcDbSavedByObjectVersion
1070
     0
  0
VISUALSTYLE
  5
36
102
{ACAD_REACTORS
330
2A
102
}
330
2A
100
AcDbVisualStyle
  2
Brighten
 70
    12
 71
     2
 72
     2
 73
     0
 90
        0
 40
-0.6
 41
-30.0
 62
     5
 63
     7
 74
     1
 91
        4
 64
     7
 65
   257
 75
     1
175
     1
 42
1.0
 92
        8
 66
     7
 43
1.0
 76
     1
 77
     6
 78
     2
 67
     7
 79
     5
170
     0
171
     0
290
     0
174
     0
 93
        1
 44
50.0
173
     0
291
     1
 45
0.0
1001
ACAD
1000
AcDbSavedByObjectVersion
1070
     0
1000
AcDbSavedByObjectVersion
1070
     0
1000
AcDbSavedByObjectVersion
1070
     0
1000
AcDbSavedByObjectVersion
1070
     0
1000
AcDbSavedByObjectVersion
1070
     0
1000
AcDbSavedByObjectVersion
1070
     0
1000
AcDbSavedByObjectVersion
1070
     0
1000
AcDbSavedByObjectVersion
1070
     0
1000
AcDbSavedByObjectVersion
1070
     0
1000
AcDbSavedByObjectVersion
1070
     0
1000
AcDbSavedByObjectVersion
1070
     0
1000
AcDbSavedByObjectVersion
1070
     0
1000
AcDbSavedByObjectVersion
1070
     0
1000
AcDbSavedByObjectVersion
1070
     0
1000
AcDbSavedByObjectVersion
1070
     0
1000
AcDbSavedByObjectVersion
1070
     0
1000
AcDbSavedByObjectVersion
1070
     0
1000
AcDbSavedByObjectVersion
1070
     0
1000
AcDbSavedByObjectVersion
1070
     0
1000
AcDbSavedByObjectVersion
1070
     0
1000
AcDbSavedByObjectVersion
1070
     0
1000
AcDbSavedByObjectVersion
1070
     0
1000
AcDbSavedByObjectVersion
1070
     0
1000
AcDbSavedByObjectVersion
1070
     0
1000
AcDbSavedByObjectVersion
1070
     0
1000
AcDbSavedByObjectVersion
1070
     0
1000
AcDbSavedByObjectVersion
1070
     0
1000
AcDbSavedByObjectVersion
1070
     0
1000
AcDbSavedByObjectVersion
1070
     0
1000
AcDbSavedByObjectVersion
1070
     0
1000
AcDbSavedByObjectVersion
1070
     0
1000
AcDbSavedByObjectVersion
1070
     0
1000
AcDbSavedByObjectVersion
1070
     0
1000
AcDbSavedByObjectVersion
1070
     0
1000
AcDbSavedByObjectVersion
1070
     0
1000
AcDbSavedByObjectVersion
1070
     0
1000
AcDbSavedByObjectVersion
1070
     0
1000
AcDbSavedByObjectVersion
1070
     0
1000
AcDbSavedByObjectVersion
1070
     0
1000
AcDbSavedByObjectVersion
1070
     0
1000
AcDbSavedByObjectVersion
1070
     0
1000
AcDbSavedByObjectVersion
1070
     0
1000
AcDbSavedByObjectVersion
1070
     0
  0
VISUALSTYLE
  5
3A
102
{ACAD_REACTORS
330
2A
102
}
330
2A
100
AcDbVisualStyle
  2
ColorChange
 70
    16
 71
     2
 72
     2
 73
     3
 90
        0
 40
-0.6
 41
-30.0
 62
     5
 63
     8
 74
     1
 91
        4
 64
     7
 65
   257
 75
     1
175
     1
 42
1.0
 92
        8
 66
     8
 43
1.0
 76
     1
 77
     6
 78
     2
 67
     7
 79
     5
170
     0
171
     0
290
     0
174
     0
 93
        1
 44
0.0
173
     0
291
     1
 45
0.0
1001
ACAD
1000
AcDbSavedByObjectVersion
1070
     0
1000
AcDbSavedByObjectVersion
1070
     0
1000
AcDbSavedByObjectVersion
1070
     0
1000
AcDbSavedByObjectVersion
1070
     0
1000
AcDbSavedByObjectVersion
1070
     0
1000
AcDbSavedByObjectVersion
1070
     0
1000
AcDbSavedByObjectVersion
1070
     0
1000
AcDbSavedByObjectVersion
1070
     0
1000
AcDbSavedByObjectVersion
1070
     0
1000
AcDbSavedByObjectVersion
1070
     0
1000
AcDbSavedByObjectVersion
1070
     0
1000
AcDbSavedByObjectVersion
1070
     0
1000
AcDbSavedByObjectVersion
1070
     0
1000
AcDbSavedByObjectVersion
1070
     0
1000
AcDbSavedByObjectVersion
1070
     0
1000
AcDbSavedByObjectVersion
1070
     0
1000
AcDbSavedByObjectVersion
1070
     0
1000
AcDbSavedByObjectVersion
1070
     0
1000
AcDbSavedByObjectVersion
1070
     0
1000
AcDbSavedByObjectVersion
1070
     0
1000
AcDbSavedByObjectVersion
1070
     0
1000
AcDbSavedByObjectVersion
1070
     0
1000
AcDbSavedByObjectVersion
1070
     0
1000
AcDbSavedByObjectVersion
1070
     0
1000
AcDbSavedByObjectVersion
1070
     0
1000
AcDbSavedByObjectVersion
1070
     0
1000
AcDbSavedByObjectVersion
1070
     0
1000
AcDbSavedByObjectVersion
1070
     0
1000
AcDbSavedByObjectVersion
1070
     0
1000
AcDbSavedByObjectVersion
1070
     0
1000
AcDbSavedByObjectVersion
1070
     0
1000
AcDbSavedByObjectVersion
1070
     0
1000
AcDbSavedByObjectVersion
1070
     0
1000
AcDbSavedByObjectVersion
1070
     0
1000
AcDbSavedByObjectVersion
1070
     0
1000
AcDbSavedByObjectVersion
1070
     0
1000
AcDbSavedByObjectVersion
1070
     0
1000
AcDbSavedByObjectVersion
1070
     0
1000
AcDbSavedByObjectVersion
1070
     0
1000
AcDbSavedByObjectVersion
1070
     0
1000
AcDbSavedByObjectVersion
1070
     0
1000
AcDbSavedByObjectVersion
1070
     0
1000
AcDbSavedByObjectVersion
1070
     0
  0
VISUALSTYLE
  5
34
102
{ACAD_REACTORS
330
2A
102
}
330
2A
100
AcDbVisualStyle
  2
Conceptual
 70
     9
 71
     3
 72
     2
 73
     0
 90
        0
 40
-0.6
 41
-30.0
 62
     5
 63
     7
 74
     2
 91
        2
 64
     7
 65
   257
 75
     1
175
     1
 42
40.0
 92
        8
 66
     7
 43
1.0
 76
     1
 77
     6
 78
     2
 67
     7
 79
     3
170
     0
171
     0
290
     0
174
     0
 93
        1
 44
0.0
173
     0
291
     0
 45
0.0
1001
ACAD
1000
AcDbSavedByObjectVersion
1070
     0
1000
AcDbSavedByObjectVersion
1070
     0
1000
AcDbSavedByObjectVersion
1070
     0
1000
AcDbSavedByObjectVersion
1070
     0
1000
AcDbSavedByObjectVersion
1070
     0
1000
AcDbSavedByObjectVersion
1070
     0
1000
AcDbSavedByObjectVersion
1070
     0
1000
AcDbSavedByObjectVersion
1070
     0
1000
AcDbSavedByObjectVersion
1070
     0
1000
AcDbSavedByObjectVersion
1070
     0
1000
AcDbSavedByObjectVersion
1070
     0
1000
AcDbSavedByObjectVersion
1070
     0
1000
AcDbSavedByObjectVersion
1070
     0
1000
AcDbSavedByObjectVersion
1070
     0
1000
AcDbSavedByObjectVersion
1070
     0
1000
AcDbSavedByObjectVersion
1070
     0
1000
AcDbSavedByObjectVersion
1070
     0
1000
AcDbSavedByObjectVersion
1070
     0
1000
AcDbSavedByObjectVersion
1070
     0
1000
AcDbSavedByObjectVersion
1070
     0
1000
AcDbSavedByObjectVersion
1070
     0
1000
AcDbSavedByObjectVersion
1070
     0
1000
AcDbSavedByObjectVersion
1070
     0
1000
AcDbSavedByObjectVersion
1070
     0
1000
AcDbSavedByObjectVersion
1070
     0
1000
AcDbSavedByObjectVersion
1070
     0
1000
AcDbSavedByObjectVersion
1070
     0
1000
AcDbSavedByObjectVersion
1070
     0
1000
AcDbSavedByObjectVersion
1070
     0
1000
AcDbSavedByObjectVersion
1070
     0
1000
AcDbSavedByObjectVersion
1070
     0
1000
AcDbSavedByObjectVersion
1070
     0
1000
AcDbSavedByObjectVersion
1070
     0
1000
AcDbSavedByObjectVersion
1070
     0
1000
AcDbSavedByObjectVersion
1070
     0
1000
AcDbSavedByObjectVersion
1070
     0
1000
AcDbSavedByObjectVersion
1070
     0
1000
AcDbSavedByObjectVersion
1070
     0
1000
AcDbSavedByObjectVersion
1070
     0
1000
AcDbSavedByObjectVersion
1070
     0
1000
AcDbSavedByObjectVersion
1070
     0
1000
AcDbSavedByObjectVersion
1070
     0
1000
AcDbSavedByObjectVersion
1070
     0
  0
VISUALSTYLE
  5
35
102
{ACAD_REACTORS
330
2A
102
}
330
2A
100
AcDbVisualStyle
  2
Dim
 70
    11
 71
     2
 72
     2
 73
     0
 90
        0
 40
-0.6
 41
-30.0
 62
     5
 63
     7
 74
     1
 91
        4
 64
     7
 65
   257
 75
     1
175
     1
 42
1.0
 92
        8
 66
     7
 43
1.0
 76
     1
 77
     6
 78
     2
 67
     7
 79
     5
170
     0
171
     0
290
     0
174
     0
 93
        1
 44
-50.0
173
     0
291
     1
 45
0.0
1001
ACAD
1000
AcDbSavedByObjectVersion
1070
     0
1000
AcDbSavedByObjectVersion
1070
     0
1000
AcDbSavedByObjectVersion
1070
     0
1000
AcDbSavedByObjectVersion
1070
     0
1000
AcDbSavedByObjectVersion
1070
     0
1000
AcDbSavedByObjectVersion
1070
     0
1000
AcDbSavedByObjectVersion
1070
     0
1000
AcDbSavedByObjectVersion
1070
     0
1000
AcDbSavedByObjectVersion
1070
     0
1000
AcDbSavedByObjectVersion
1070
     0
1000
AcDbSavedByObjectVersion
1070
     0
1000
AcDbSavedByObjectVersion
1070
     0
1000
AcDbSavedByObjectVersion
1070
     0
1000
AcDbSavedByObjectVersion
1070
     0
1000
AcDbSavedByObjectVersion
1070
     0
1000
AcDbSavedByObjectVersion
1070
     0
1000
AcDbSavedByObjectVersion
1070
     0
1000
AcDbSavedByObjectVersion
1070
     0
1000
AcDbSavedByObjectVersion
1070
     0
1000
AcDbSavedByObjectVersion
1070
     0
1000
AcDbSavedByObjectVersion
1070
     0
1000
AcDbSavedByObjectVersion
1070
     0
1000
AcDbSavedByObjectVersion
1070
     0
1000
AcDbSavedByObjectVersion
1070
     0
1000
AcDbSavedByObjectVersion
1070
     0
1000
AcDbSavedByObjectVersion
1070
     0
1000
AcDbSavedByObjectVersion
1070
     0
1000
AcDbSavedByObjectVersion
1070
     0
1000
AcDbSavedByObjectVersion
1070
     0
1000
AcDbSavedByObjectVersion
1070
     0
1000
AcDbSavedByObjectVersion
1070
     0
1000
AcDbSavedByObjectVersion
1070
     0
1000
AcDbSavedByObjectVersion
1070
     0
1000
AcDbSavedByObjectVersion
1070
     0
1000
AcDbSavedByObjectVersion
1070
     0
1000
AcDbSavedByObjectVersion
1070
     0
1000
AcDbSavedByObjectVersion
1070
     0
1000
AcDbSavedByObjectVersion
1070
     0
1000
AcDbSavedByObjectVersion
1070
     0
1000
AcDbSavedByObjectVersion
1070
     0
1000
AcDbSavedByObjectVersion
1070
     0
1000
AcDbSavedByObjectVersion
1070
     0
1000
AcDbSavedByObjectVersion
1070
     0
  0
VISUALSTYLE
  5
39
102
{ACAD_REACTORS
330
2A
102
}
330
2A
100
AcDbVisualStyle
  2
Facepattern
 70
    15
 71
     2
 72
     2
 73
     0
 90
        0
 40
-0.6
 41
-30.0
 62
     5
 63
     7
 74
     1
 91
        4
 64
     7
 65
   257
 75
     1
175
     1
 42
1.0
 92
        8
 66
     7
 43
1.0
 76
     1
 77
     6
 78
     2
 67
     7
 79
     5
170
     0
171
     0
290
     0
174
     0
 93
        1
 44
0.0
173
     0
291
     1
 45
0.0
1001
ACAD
1000
AcDbSavedByObjectVersion
1070
     0
1000
AcDbSavedByObjectVersion
1070
     0
1000
AcDbSavedByObjectVersion
1070
     0
1000
AcDbSavedByObjectVersion
1070
     0
1000
AcDbSavedByObjectVersion
1070
     0
1000
AcDbSavedByObjectVersion
1070
     0
1000
AcDbSavedByObjectVersion
1070
     0
1000
AcDbSavedByObjectVersion
1070
     0
1000
AcDbSavedByObjectVersion
1070
     0
1000
AcDbSavedByObjectVersion
1070
     0
1000
AcDbSavedByObjectVersion
1070
     0
1000
AcDbSavedByObjectVersion
1070
     0
1000
AcDbSavedByObjectVersion
1070
     0
1000
AcDbSavedByObjectVersion
1070
     0
1000
AcDbSavedByObjectVersion
1070
     0
1000
AcDbSavedByObjectVersion
1070
     0
1000
AcDbSavedByObjectVersion
1070
     0
1000
AcDbSavedByObjectVersion
1070
     0
1000
AcDbSavedByObjectVersion
1070
     0
1000
AcDbSavedByObjectVersion
1070
     0
1000
AcDbSavedByObjectVersion
1070
     0
1000
AcDbSavedByObjectVersion
1070
     0
1000
AcDbSavedByObjectVersion
1070
     0
1000
AcDbSavedByObjectVersion
1070
     0
1000
AcDbSavedByObjectVersion
1070
     0
1000
AcDbSavedByObjectVersion
1070
     0
1000
AcDbSavedByObjectVersion
1070
     0
1000
AcDbSavedByObjectVersion
1070
     0
1000
AcDbSavedByObjectVersion
1070
     0
1000
AcDbSavedByObjectVersion
1070
     0
1000
AcDbSavedByObjectVersion
1070
     0
1000
AcDbSavedByObjectVersion
1070
     0
1000
AcDbSavedByObjectVersion
1070
     0
1000
AcDbSavedByObjectVersion
1070
     0
1000
AcDbSavedByObjectVersion
1070
     0
1000
AcDbSavedByObjectVersion
1070
     0
1000
AcDbSavedByObjectVersion
1070
     0
1000
AcDbSavedByObjectVersion
1070
     0
1000
AcDbSavedByObjectVersion
1070
     0
1000
AcDbSavedByObjectVersion
1070
     0
1000
AcDbSavedByObjectVersion
1070
     0
1000
AcDbSavedByObjectVersion
1070
     0
1000
AcDbSavedByObjectVersion
1070
     0
  0
VISUALSTYLE
  5
2B
102
{ACAD_REACTORS
330
2A
102
}
330
2A
100
AcDbVisualStyle
  2
Flat
 70
     0
 71
     2
 72
     1
 73
     1
 90
        2
 40
-0.6
 41
30.0
 62
     5
 63
     7
 74
     0
 91
        4
 64
     7
 65
   257
 75
     1
175
     1
 42
1.0
 92
        8
 66
     7
 43
1.0
 76
     1
 77
     6
 78
     2
 67
     7
 79
     5
170
     0
171
     0
290
     0
174
     0
 93
       13
 44
0.0
173
     0
291
     1
 45
0.0
1001
ACAD
1000
AcDbSavedByObjectVersion
1070
     0
1000
AcDbSavedByObjectVersion
1070
     0
1000
AcDbSavedByObjectVersion
1070
     0
1000
AcDbSavedByObjectVersion
1070
     0
1000
AcDbSavedByObjectVersion
1070
     0
1000
AcDbSavedByObjectVersion
1070
     0
1000
AcDbSavedByObjectVersion
1070
     0
1000
AcDbSavedByObjectVersion
1070
     0
1000
AcDbSavedByObjectVersion
1070
     0
1000
AcDbSavedByObjectVersion
1070
     0
1000
AcDbSavedByObjectVersion
1070
     0
1000
AcDbSavedByObjectVersion
1070
     0
1000
AcDbSavedByObjectVersion
1070
     0
1000
AcDbSavedByObjectVersion
1070
     0
1000
AcDbSavedByObjectVersion
1070
     0
1000
AcDbSavedByObjectVersion
1070
     0
1000
AcDbSavedByObjectVersion
1070
     0
1000
AcDbSavedByObjectVersion
1070
     0
1000
AcDbSavedByObjectVersion
1070
     0
1000
AcDbSavedByObjectVersion
1070
     0
1000
AcDbSavedByObjectVersion
1070
     0
1000
AcDbSavedByObjectVersion
1070
     0
1000
AcDbSavedByObjectVersion
1070
     0
1000
AcDbSavedByObjectVersion
1070
     0
1000
AcDbSavedByObjectVersion
1070
     0
1000
AcDbSavedByObjectVersion
1070
     0
1000
AcDbSavedByObjectVersion
1070
     0
1000
AcDbSavedByObjectVersion
1070
     0
1000
AcDbSavedByObjectVersion
1070
     0
1000
AcDbSavedByObjectVersion
1070
     0
1000
AcDbSavedByObjectVersion
1070
     0
1000
AcDbSavedByObjectVersion
1070
     0
1000
AcDbSavedByObjectVersion
1070
     0
1000
AcDbSavedByObjectVersion
1070
     0
1000
AcDbSavedByObjectVersion
1070
     0
1000
AcDbSavedByObjectVersion
1070
     0
1000
AcDbSavedByObjectVersion
1070
     0
1000
AcDbSavedByObjectVersion
1070
     0
1000
AcDbSavedByObjectVersion
1070
     0
1000
AcDbSavedByObjectVersion
1070
     0
1000
AcDbSavedByObjectVersion
1070
     0
1000
AcDbSavedByObjectVersion
1070
     0
1000
AcDbSavedByObjectVersion
1070
     0
  0
VISUALSTYLE
  5
2C
102
{ACAD_REACTORS
330
2A
102
}
330
2A
100
AcDbVisualStyle
  2
FlatWithEdges
 70
     1
 71
     2
 72
     1
 73
     1
 90
        2
 40
-0.6
 41
30.0
 62
     5
 63
     7
 74
     1
 91
        4
 64
     7
 65
   257
 75
     1
175
     1
 42
1.0
 92
        0
 66
   257
 43
1.0
 76
     1
 77
     6
 78
     2
 67
     7
 79
     5
170
     0
171
     0
290
     0
174
     0
 93
       13
 44
0.0
173
     0
291
     1
 45
0.0
1001
ACAD
1000
AcDbSavedByObjectVersion
1070
     0
1000
AcDbSavedByObjectVersion
1070
     0
1000
AcDbSavedByObjectVersion
1070
     0
1000
AcDbSavedByObjectVersion
1070
     0
1000
AcDbSavedByObjectVersion
1070
     0
1000
AcDbSavedByObjectVersion
1070
     0
1000
AcDbSavedByObjectVersion
1070
     0
1000
AcDbSavedByObjectVersion
1070
     0
1000
AcDbSavedByObjectVersion
1070
     0
1000
AcDbSavedByObjectVersion
1070
     0
1000
AcDbSavedByObjectVersion
1070
     0
1000
AcDbSavedByObjectVersion
1070
     0
1000
AcDbSavedByObjectVersion
1070
     0
1000
AcDbSavedByObjectVersion
1070
     0
1000
AcDbSavedByObjectVersion
1070
     0
1000
AcDbSavedByObjectVersion
1070
     0
1000
AcDbSavedByObjectVersion
1070
     0
1000
AcDbSavedByObjectVersion
1070
     0
1000
AcDbSavedByObjectVersion
1070
     0
1000
AcDbSavedByObjectVersion
1070
     0
1000
AcDbSavedByObjectVersion
1070
     0
1000
AcDbSavedByObjectVersion
1070
     0
1000
AcDbSavedByObjectVersion
1070
     0
1000
AcDbSavedByObjectVersion
1070
     0
1000
AcDbSavedByObjectVersion
1070
     0
1000
AcDbSavedByObjectVersion
1070
     0
1000
AcDbSavedByObjectVersion
1070
     0
1000
AcDbSavedByObjectVersion
1070
     0
1000
AcDbSavedByObjectVersion
1070
     0
1000
AcDbSavedByObjectVersion
1070
     0
1000
AcDbSavedByObjectVersion
1070
     0
1000
AcDbSavedByObjectVersion
1070
     0
1000
AcDbSavedByObjectVersion
1070
     0
1000
AcDbSavedByObjectVersion
1070
     0
1000
AcDbSavedByObjectVersion
1070
     0
1000
AcDbSavedByObjectVersion
1070
     0
1000
AcDbSavedByObjectVersion
1070
     0
1000
AcDbSavedByObjectVersion
1070
     0
1000
AcDbSavedByObjectVersion
1070
     0
1000
AcDbSavedByObjectVersion
1070
     0
1000
AcDbSavedByObjectVersion
1070
     0
1000
AcDbSavedByObjectVersion
1070
     0
1000
AcDbSavedByObjectVersion
1070
     0
  0
VISUALSTYLE
  5
2D
102
{ACAD_REACTORS
330
2A
102
}
330
2A
100
AcDbVisualStyle
  2
Gouraud
 70
     2
 71
     2
 72
     2
 73
     1
 90
        2
 40
-0.6
 41
30.0
 62
     5
 63
     7
 74
     0
 91
        4
 64
     7
 65
   257
 75
     1
175
     1
 42
1.0
 92
        0
 66
     7
 43
1.0
 76
     1
 77
     6
 78
     2
 67
     7
 79
     5
170
     0
171
     0
290
     0
174
     0
 93
       13
 44
0.0
173
     0
291
     1
 45
0.0
1001
ACAD
1000
AcDbSavedByObjectVersion
1070
     0
1000
AcDbSavedByObjectVersion
1070
     0
1000
AcDbSavedByObjectVersion
1070
     0
1000
AcDbSavedByObjectVersion
1070
     0
1000
AcDbSavedByObjectVersion
1070
     0
1000
AcDbSavedByObjectVersion
1070
     0
1000
AcDbSavedByObjectVersion
1070
     0
1000
AcDbSavedByObjectVersion
1070
     0
1000
AcDbSavedByObjectVersion
1070
     0
1000
AcDbSavedByObjectVersion
1070
     0
1000
AcDbSavedByObjectVersion
1070
     0
1000
AcDbSavedByObjectVersion
1070
     0
1000
AcDbSavedByObjectVersion
1070
     0
1000
AcDbSavedByObjectVersion
1070
     0
1000
AcDbSavedByObjectVersion
1070
     0
1000
AcDbSavedByObjectVersion
1070
     0
1000
AcDbSavedByObjectVersion
1070
     0
1000
AcDbSavedByObjectVersion
1070
     0
1000
AcDbSavedByObjectVersion
1070
     0
1000
AcDbSavedByObjectVersion
1070
     0
1000
AcDbSavedByObjectVersion
1070
     0
1000
AcDbSavedByObjectVersion
1070
     0
1000
AcDbSavedByObjectVersion
1070
     0
1000
AcDbSavedByObjectVersion
1070
     0
1000
AcDbSavedByObjectVersion
1070
     0
1000
AcDbSavedByObjectVersion
1070
     0
1000
AcDbSavedByObjectVersion
1070
     0
1000
AcDbSavedByObjectVersion
1070
     0
1000
AcDbSavedByObjectVersion
1070
     0
1000
AcDbSavedByObjectVersion
1070
     0
1000
AcDbSavedByObjectVersion
1070
     0
1000
AcDbSavedByObjectVersion
1070
     0
1000
AcDbSavedByObjectVersion
1070
     0
1000
AcDbSavedByObjectVersion
1070
     0
1000
AcDbSavedByObjectVersion
1070
     0
1000
AcDbSavedByObjectVersion
1070
     0
1000
AcDbSavedByObjectVersion
1070
     0
1000
AcDbSavedByObjectVersion
1070
     0
1000
AcDbSavedByObjectVersion
1070
     0
1000
AcDbSavedByObjectVersion
1070
     0
1000
AcDbSavedByObjectVersion
1070
     0
1000
AcDbSavedByObjectVersion
1070
     0
1000
AcDbSavedByObjectVersion
1070
     0
  0
VISUALSTYLE
  5
2E
102
{ACAD_REACTORS
330
2A
102
}
330
2A
100
AcDbVisualStyle
  2
GouraudWithEdges
 70
     3
 71
     2
 72
     2
 73
     1
 90
        2
 40
-0.6
 41
30.0
 62
     5
 63
     7
 74
     1
 91
        4
 64
     7
 65
   257
 75
     1
175
     1
 42
1.0
 92
        0
 66
   257
 43
1.0
 76
     1
 77
     6
 78
     2
 67
     7
 79
     5
170
     0
171
     0
290
     0
174
     0
 93
       13
 44
0.0
173
     0
291
     1
 45
0.0
1001
ACAD
1000
AcDbSavedByObjectVersion
1070
     0
1000
AcDbSavedByObjectVersion
1070
     0
1000
AcDbSavedByObjectVersion
1070
     0
1000
AcDbSavedByObjectVersion
1070
     0
1000
AcDbSavedByObjectVersion
1070
     0
1000
AcDbSavedByObjectVersion
1070
     0
1000
AcDbSavedByObjectVersion
1070
     0
1000
AcDbSavedByObjectVersion
1070
     0
1000
AcDbSavedByObjectVersion
1070
     0
1000
AcDbSavedByObjectVersion
1070
     0
1000
AcDbSavedByObjectVersion
1070
     0
1000
AcDbSavedByObjectVersion
1070
     0
1000
AcDbSavedByObjectVersion
1070
     0
1000
AcDbSavedByObjectVersion
1070
     0
1000
AcDbSavedByObjectVersion
1070
     0
1000
AcDbSavedByObjectVersion
1070
     0
1000
AcDbSavedByObjectVersion
1070
     0
1000
AcDbSavedByObjectVersion
1070
     0
1000
AcDbSavedByObjectVersion
1070
     0
1000
AcDbSavedByObjectVersion
1070
     0
1000
AcDbSavedByObjectVersion
1070
     0
1000
AcDbSavedByObjectVersion
1070
     0
1000
AcDbSavedByObjectVersion
1070
     0
1000
AcDbSavedByObjectVersion
1070
     0
1000
AcDbSavedByObjectVersion
1070
     0
1000
AcDbSavedByObjectVersion
1070
     0
1000
AcDbSavedByObjectVersion
1070
     0
1000
AcDbSavedByObjectVersion
1070
     0
1000
AcDbSavedByObjectVersion
1070
     0
1000
AcDbSavedByObjectVersion
1070
     0
1000
AcDbSavedByObjectVersion
1070
     0
1000
AcDbSavedByObjectVersion
1070
     0
1000
AcDbSavedByObjectVersion
1070
     0
1000
AcDbSavedByObjectVersion
1070
     0
1000
AcDbSavedByObjectVersion
1070
     0
1000
AcDbSavedByObjectVersion
1070
     0
1000
AcDbSavedByObjectVersion
1070
     0
1000
AcDbSavedByObjectVersion
1070
     0
1000
AcDbSavedByObjectVersion
1070
     0
1000
AcDbSavedByObjectVersion
1070
     0
1000
AcDbSavedByObjectVersion
1070
     0
1000
AcDbSavedByObjectVersion
1070
     0
1000
AcDbSavedByObjectVersion
1070
     0
  0
VISUALSTYLE
  5
38
102
{ACAD_REACTORS
330
2A
102
}
330
2A
100
AcDbVisualStyle
  2
Linepattern
 70
    14
 71
     2
 72
     2
 73
     0
 90
        0
 40
-0.6
 41
-30.0
 62
     5
 63
     7
 74
     1
 91
        4
 64
     7
 65
   257
 75
     7
175
     7
 42
1.0
 92
        8
 66
     7
 43
1.0
 76
     1
 77
     6
 78
     2
 67
     7
 79
     5
170
     0
171
     0
290
     0
174
     0
 93
        1
 44
0.0
173
     0
291
     1
 45
0.0
1001
ACAD
1000
AcDbSavedByObjectVersion
1070
     0
1000
AcDbSavedByObjectVersion
1070
     0
1000
AcDbSavedByObjectVersion
1070
     0
1000
AcDbSavedByObjectVersion
1070
     0
1000
AcDbSavedByObjectVersion
1070
     0
1000
AcDbSavedByObjectVersion
1070
     0
1000
AcDbSavedByObjectVersion
1070
     0
1000
AcDbSavedByObjectVersion
1070
     0
1000
AcDbSavedByObjectVersion
1070
     0
1000
AcDbSavedByObjectVersion
1070
     0
1000
AcDbSavedByObjectVersion
1070
     0
1000
AcDbSavedByObjectVersion
1070
     0
1000
AcDbSavedByObjectVersion
1070
     0
1000
AcDbSavedByObjectVersion
1070
     0
1000
AcDbSavedByObjectVersion
1070
     0
1000
AcDbSavedByObjectVersion
1070
     0
1000
AcDbSavedByObjectVersion
1070
     0
1000
AcDbSavedByObjectVersion
1070
     0
1000
AcDbSavedByObjectVersion
1070
     0
1000
AcDbSavedByObjectVersion
1070
     0
1000
AcDbSavedByObjectVersion
1070
     0
1000
AcDbSavedByObjectVersion
1070
     0
1000
AcDbSavedByObjectVersion
1070
     0
1000
AcDbSavedByObjectVersion
1070
     0
1000
AcDbSavedByObjectVersion
1070
     0
1000
AcDbSavedByObjectVersion
1070
     0
1000
AcDbSavedByObjectVersion
1070
     0
1000
AcDbSavedByObjectVersion
1070
     0
1000
AcDbSavedByObjectVersion
1070
     0
1000
AcDbSavedByObjectVersion
1070
     0
1000
AcDbSavedByObjectVersion
1070
     0
1000
AcDbSavedByObjectVersion
1070
     0
1000
AcDbSavedByObjectVersion
1070
     0
1000
AcDbSavedByObjectVersion
1070
     0
1000
AcDbSavedByObjectVersion
1070
     0
1000
AcDbSavedByObjectVersion
1070
     0
1000
AcDbSavedByObjectVersion
1070
     0
1000
AcDbSavedByObjectVersion
1070
     0
1000
AcDbSavedByObjectVersion
1070
     0
1000
AcDbSavedByObjectVersion
1070
     0
1000
AcDbSavedByObjectVersion
1070
     0
1000
AcDbSavedByObjectVersion
1070
     0
1000
AcDbSavedByObjectVersion
1070
     0
  0
VISUALSTYLE
  5
33
102
{ACAD_REACTORS
330
2A
102
}
330
2A
100
AcDbVisualStyle
  2
Realistic
 70
     8
 71
     2
 72
     2
 73
     0
 90
        0
 40
-0.6
 41
-30.0
 62
     5
 63
     7
 74
     1
 91
        0
 64
     7
 65
   257
 75
     1
175
     1
 42
1.0
 92
        8
 66
     8
 43
1.0
 76
     1
 77
     6
 78
     2
 67
     7
 79
     5
170
     0
171
     0
290
     0
174
     0
 93
       13
 44
0.0
173
     0
291
     0
 45
0.0
1001
ACAD
1000
AcDbSavedByObjectVersion
1070
     0
1000
AcDbSavedByObjectVersion
1070
     0
1000
AcDbSavedByObjectVersion
1070
     0
1000
AcDbSavedByObjectVersion
1070
     0
1000
AcDbSavedByObjectVersion
1070
     0
1000
AcDbSavedByObjectVersion
1070
     0
1000
AcDbSavedByObjectVersion
1070
     0
1000
AcDbSavedByObjectVersion
1070
     0
1000
AcDbSavedByObjectVersion
1070
     0
1000
AcDbSavedByObjectVersion
1070
     0
1000
AcDbSavedByObjectVersion
1070
     0
1000
AcDbSavedByObjectVersion
1070
     0
1000
AcDbSavedByObjectVersion
1070
     0
1000
AcDbSavedByObjectVersion
1070
     0
1000
AcDbSavedByObjectVersion
1070
     0
1000
AcDbSavedByObjectVersion
1070
     0
1000
AcDbSavedByObjectVersion
1070
     0
1000
AcDbSavedByObjectVersion
1070
     0
1000
AcDbSavedByObjectVersion
1070
     0
1000
AcDbSavedByObjectVersion
1070
     0
1000
AcDbSavedByObjectVersion
1070
     0
1000
AcDbSavedByObjectVersion
1070
     0
1000
AcDbSavedByObjectVersion
1070
     0
1000
AcDbSavedByObjectVersion
1070
     0
1000
AcDbSavedByObjectVersion
1070
     0
1000
AcDbSavedByObjectVersion
1070
     0
1000
AcDbSavedByObjectVersion
1070
     0
1000
AcDbSavedByObjectVersion
1070
     0
1000
AcDbSavedByObjectVersion
1070
     0
1000
AcDbSavedByObjectVersion
1070
     0
1000
AcDbSavedByObjectVersion
1070
     0
1000
AcDbSavedByObjectVersion
1070
     0
1000
AcDbSavedByObjectVersion
1070
     0
1000
AcDbSavedByObjectVersion
1070
     0
1000
AcDbSavedByObjectVersion
1070
     0
1000
AcDbSavedByObjectVersion
1070
     0
1000
AcDbSavedByObjectVersion
1070
     0
1000
AcDbSavedByObjectVersion
1070
     0
1000
AcDbSavedByObjectVersion
1070
     0
1000
AcDbSavedByObjectVersion
1070
     0
1000
AcDbSavedByObjectVersion
1070
     0
1000
AcDbSavedByObjectVersion
1070
     0
1000
AcDbSavedByObjectVersion
1070
     0
  0
VISUALSTYLE
  5
37
102
{ACAD_REACTORS
330
2A
102
}
330
2A
100
AcDbVisualStyle
  2
Thicken
 70
    13
 71
     2
 72
     2
 73
     0
 90
        0
 40
-0.6
 41
-30.0
 62
     5
 63
     7
 74
     1
 91
        4
 64
     7
 65
   257
 75
     1
175
     1
 42
1.0
 92
       12
 66
     7
 43
1.0
 76
     1
 77
     6
 78
     2
 67
     7
 79
     5
170
     0
171
     0
290
     0
174
     0
 93
        1
 44
0.0
173
     0
291
     1
 45
0.0
1001
ACAD
1000
AcDbSavedByObjectVersion
1070
     0
1000
AcDbSavedByObjectVersion
1070
     0
1000
AcDbSavedByObjectVersion
1070
     0
1000
AcDbSavedByObjectVersion
1070
     0
1000
AcDbSavedByObjectVersion
1070
     0
1000
AcDbSavedByObjectVersion
1070
     0
1000
AcDbSavedByObjectVersion
1070
     0
1000
AcDbSavedByObjectVersion
1070
     0
1000
AcDbSavedByObjectVersion
1070
     0
1000
AcDbSavedByObjectVersion
1070
     0
1000
AcDbSavedByObjectVersion
1070
     0
1000
AcDbSavedByObjectVersion
1070
     0
1000
AcDbSavedByObjectVersion
1070
     0
1000
AcDbSavedByObjectVersion
1070
     0
1000
AcDbSavedByObjectVersion
1070
     0
1000
AcDbSavedByObjectVersion
1070
     0
1000
AcDbSavedByObjectVersion
1070
     0
1000
AcDbSavedByObjectVersion
1070
     0
1000
AcDbSavedByObjectVersion
1070
     0
1000
AcDbSavedByObjectVersion
1070
     0
1000
AcDbSavedByObjectVersion
1070
     0
1000
AcDbSavedByObjectVersion
1070
     0
1000
AcDbSavedByObjectVersion
1070
     0
1000
AcDbSavedByObjectVersion
1070
     0
1000
AcDbSavedByObjectVersion
1070
     0
1000
AcDbSavedByObjectVersion
1070
     0
1000
AcDbSavedByObjectVersion
1070
     0
1000
AcDbSavedByObjectVersion
1070
     0
1000
AcDbSavedByObjectVersion
1070
     0
1000
AcDbSavedByObjectVersion
1070
     0
1000
AcDbSavedByObjectVersion
1070
     0
1000
AcDbSavedByObjectVersion
1070
     0
1000
AcDbSavedByObjectVersion
1070
     0
1000
AcDbSavedByObjectVersion
1070
     0
1000
AcDbSavedByObjectVersion
1070
     0
1000
AcDbSavedByObjectVersion
1070
     0
1000
AcDbSavedByObjectVersion
1070
     0
1000
AcDbSavedByObjectVersion
1070
     0
1000
AcDbSavedByObjectVersion
1070
     0
1000
AcDbSavedByObjectVersion
1070
     0
1000
AcDbSavedByObjectVersion
1070
     0
1000
AcDbSavedByObjectVersion
1070
     0
1000
AcDbSavedByObjectVersion
1070
     0
  0
DICTIONARYVAR
  5
510B
102
{ACAD_REACTORS
330
5108
102
}
330
5108
100
DictionaryVariables
280
     0
  1
1:1
  0
DICTIONARYVAR
  5
510A
102
{ACAD_REACTORS
330
5108
102
}
330
5108
100
DictionaryVariables
280
     0
  1
STANDARD
  0
DICTIONARYVAR
  5
5109
102
{ACAD_REACTORS
330
5108
102
}
330
5108
100
DictionaryVariables
280
     0
  1
STANDARD
  0
DICTIONARYVAR
  5
510E
102
{ACAD_REACTORS
330
5108
102
}
330
5108
100
DictionaryVariables
280
     0
  1
1
  0
DICTIONARYVAR
  5
510D
102
{ACAD_REACTORS
330
5108
102
}
330
5108
100
DictionaryVariables
280
     0
  1
0
  0
DICTIONARYVAR
  5
13D58
102
{ACAD_REACTORS
330
5108
102
}
330
5108
100
DictionaryVariables
280
     0
  1
0
  0
DICTIONARYVAR
  5
13D57
102
{ACAD_REACTORS
330
5108
102
}
330
5108
100
DictionaryVariables
280
     0
  1
0
  0
DICTIONARYVAR
  5
510C
102
{ACAD_REACTORS
330
5108
102
}
330
5108
100
DictionaryVariables
280
     0
  1
127
  0
XRECORD
  5
11ACF
102
{ACAD_REACTORS
330
11ACE
102
}
330
11ACE
100
AcDbXrecord
280
     1
330
11089
  0
VLO-VL
  5
13CB1
102
{ACAD_REACTORS
330
13CB0
102
}
330
13CB0
100
vlo_VL
 90
   -64512
 91
       12
 92
        1
 40
2.5
300
(&VLO-R . 0)
  0
DICTIONARY
  5
4FEF
330
4FEE
100
AcDbDictionary
280
     1
281
     1
  3
ACAD_XREC_ROUNDTRIP
360
7C2C
  3
BUMPTILE
360
4FF1
  3
DIFFUSETILE
360
4FF0
  3
OPACITYTILE
360
4FF4
  3
REFLECTIONTILE
360
4FF3
  3
REFRACTIONTILE
360
4FF5
  3
SPECULARTILE
360
4FF2
  0
DICTIONARY
  5
4FE7
330
4FE6
100
AcDbDictionary
280
     1
281
     1
  3
ACAD_XREC_ROUNDTRIP
360
7C2B
  3
BUMPTILE
360
4FE9
  3
DIFFUSETILE
360
4FE8
  3
OPACITYTILE
360
4FEC
  3
REFLECTIONTILE
360
4FEB
  3
REFRACTIONTILE
360
4FED
  3
SPECULARTILE
360
4FEA
  0
DICTIONARY
  5
4FF7
330
4FF6
100
AcDbDictionary
280
     1
281
     1
  3
ACAD_XREC_ROUNDTRIP
360
7C2D
  3
BUMPTILE
360
4FF9
  3
DIFFUSETILE
360
4FF8
  3
OPACITYTILE
360
4FFC
  3
REFLECTIONTILE
360
4FFB
  3
REFRACTIONTILE
360
4FFD
  3
SPECULARTILE
360
4FFA
  0
DICTIONARY
  5
50D6
330
4FFF
100
AcDbDictionary
280
     1
281
     1
  3
ACAD_ROUNDTRIP_2008_TABLESTYLE_CELLSTYLEMAP
360
13D74
  0
XRECORD
  5
7C2C
102
{ACAD_REACTORS
330
4FEF
102
}
330
4FEF
100
AcDbXrecord
280
     1
102
MATERIAL
148
0.0
149
0.0
149
0.0
 93
        0
 94
      127
282
     0
 72
     0
 77
     0
171
     0
175
     0
179
     0
273
     0
  0
XRECORD
  5
4FF1
102
{ACAD_REACTORS
330
4FEF
102
}
330
4FEF
100
AcDbXrecord
280
     1
270
     1
271
     1
  0
XRECORD
  5
4FF0
102
{ACAD_REACTORS
330
4FEF
102
}
330
4FEF
100
AcDbXrecord
280
     1
270
     1
271
     1
  0
XRECORD
  5
4FF4
102
{ACAD_REACTORS
330
4FEF
102
}
330
4FEF
100
AcDbXrecord
280
     1
270
     1
271
     1
  0
XRECORD
  5
4FF3
102
{ACAD_REACTORS
330
4FEF
102
}
330
4FEF
100
AcDbXrecord
280
     1
270
     1
271
     1
  0
XRECORD
  5
4FF5
102
{ACAD_REACTORS
330
4FEF
102
}
330
4FEF
100
AcDbXrecord
280
     1
270
     1
271
     1
  0
XRECORD
  5
4FF2
102
{ACAD_REACTORS
330
4FEF
102
}
330
4FEF
100
AcDbXrecord
280
     1
270
     1
271
     1
  0
XRECORD
  5
7C2B
102
{ACAD_REACTORS
330
4FE7
102
}
330
4FE7
100
AcDbXrecord
280
     1
102
MATERIAL
148
0.0
149
0.0
149
0.0
 93
        0
 94
      127
282
     0
 72
     0
 77
     0
171
     0
175
     0
179
     0
273
     0
  0
XRECORD
  5
4FE9
102
{ACAD_REACTORS
330
4FE7
102
}
330
4FE7
100
AcDbXrecord
280
     1
270
     1
271
     1
  0
XRECORD
  5
4FE8
102
{ACAD_REACTORS
330
4FE7
102
}
330
4FE7
100
AcDbXrecord
280
     1
270
     1
271
     1
  0
XRECORD
  5
4FEC
102
{ACAD_REACTORS
330
4FE7
102
}
330
4FE7
100
AcDbXrecord
280
     1
270
     1
271
     1
  0
XRECORD
  5
4FEB
102
{ACAD_REACTORS
330
4FE7
102
}
330
4FE7
100
AcDbXrecord
280
     1
270
     1
271
     1
  0
XRECORD
  5
4FED
102
{ACAD_REACTORS
330
4FE7
102
}
330
4FE7
100
AcDbXrecord
280
     1
270
     1
271
     1
  0
XRECORD
  5
4FEA
102
{ACAD_REACTORS
330
4FE7
102
}
330
4FE7
100
AcDbXrecord
280
     1
270
     1
271
     1
  0
XRECORD
  5
7C2D
102
{ACAD_REACTORS
330
4FF7
102
}
330
4FF7
100
AcDbXrecord
280
     1
102
MATERIAL
148
0.0
149
0.0
149
0.0
 93
        0
 94
      127
282
     0
 72
     0
 77
     0
171
     0
175
     0
179
     0
273
     0
  0
XRECORD
  5
4FF9
102
{ACAD_REACTORS
330
4FF7
102
}
330
4FF7
100
AcDbXrecord
280
     1
270
     1
271
     1
  0
XRECORD
  5
4FF8
102
{ACAD_REACTORS
330
4FF7
102
}
330
4FF7
100
AcDbXrecord
280
     1
270
     1
271
     1
  0
XRECORD
  5
4FFC
102
{ACAD_REACTORS
330
4FF7
102
}
330
4FF7
100
AcDbXrecord
280
     1
270
     1
271
     1
  0
XRECORD
  5
4FFB
102
{ACAD_REACTORS
330
4FF7
102
}
330
4FF7
100
AcDbXrecord
280
     1
270
     1
271
     1
  0
XRECORD
  5
4FFD
102
{ACAD_REACTORS
330
4FF7
102
}
330
4FF7
100
AcDbXrecord
280
     1
270
     1
271
     1
  0
XRECORD
  5
4FFA
102
{ACAD_REACTORS
330
4FF7
102
}
330
4FF7
100
AcDbXrecord
280
     1
270
     1
271
     1
  0
CELLSTYLEMAP
  5
13D74
102
{ACAD_REACTORS
330
50D6
102
}
330
50D6
100
AcDbCellStyleMap
 90
        3
300
CELLSTYLE
  1
TABLEFORMAT_BEGIN
 90
        5
170
     1
 91
        0
 92
    32768
 62
   257
 93
        1
300
CONTENTFORMAT
  1
CONTENTFORMAT_BEGIN
 90
        0
 91
        0
 92
      512
 93
        0
300

 40
0.0
140
1.0
 94
        5
 62
     0
340
11
144
0.25
309
CONTENTFORMAT_END
171
     1
301
MARGIN
  1
CELLMARGIN_BEGIN
 40
0.06
 40
0.06
 40
0.06
 40
0.06
 40
0.18
 40
0.18
309
CELLMARGIN_END
 94
        6
 95
        1
302
GRIDFORMAT
  1
GRIDFORMAT_BEGIN
 90
        0
 91
        1
 62
     0
 92
       -2
340
0
 93
        0
 40
0.045
309
GRIDFORMAT_END
 95
        2
302
GRIDFORMAT
  1
GRIDFORMAT_BEGIN
 90
        0
 91
        1
 62
     0
 92
       -2
340
0
 93
        0
 40
0.045
309
GRIDFORMAT_END
 95
        4
302
GRIDFORMAT
  1
GRIDFORMAT_BEGIN
 90
        0
 91
        1
 62
     0
 92
       -2
340
0
 93
        0
 40
0.045
309
GRIDFORMAT_END
 95
        8
302
GRIDFORMAT
  1
GRIDFORMAT_BEGIN
 90
        0
 91
        1
 62
     0
 92
       -2
340
0
 93
        0
 40
0.045
309
GRIDFORMAT_END
 95
       16
302
GRIDFORMAT
  1
GRIDFORMAT_BEGIN
 90
        0
 91
        1
 62
     0
 92
       -2
340
0
 93
        0
 40
0.045
309
GRIDFORMAT_END
 95
       32
302
GRIDFORMAT
  1
GRIDFORMAT_BEGIN
 90
        0
 91
        1
 62
     0
 92
       -2
340
0
 93
        0
 40
0.045
309
GRIDFORMAT_END
309
TABLEFORMAT_END
  1
CELLSTYLE_BEGIN
 90
        1
 91
        1
300
_TITLE
309
CELLSTYLE_END
300
CELLSTYLE
  1
TABLEFORMAT_BEGIN
 90
        5
170
     1
 91
        0
 92
        0
 62
   257
 93
        1
300
CONTENTFORMAT
  1
CONTENTFORMAT_BEGIN
 90
        0
 91
        0
 92
      512
 93
        0
300

 40
0.0
140
1.0
 94
        5
 62
     0
340
11
144
0.18
309
CONTENTFORMAT_END
171
     1
301
MARGIN
  1
CELLMARGIN_BEGIN
 40
0.06
 40
0.06
 40
0.06
 40
0.06
 40
0.18
 40
0.18
309
CELLMARGIN_END
 94
        6
 95
        1
302
GRIDFORMAT
  1
GRIDFORMAT_BEGIN
 90
        0
 91
        1
 62
     0
 92
       -2
340
0
 93
        0
 40
0.045
309
GRIDFORMAT_END
 95
        2
302
GRIDFORMAT
  1
GRIDFORMAT_BEGIN
 90
        0
 91
        1
 62
     0
 92
       -2
340
0
 93
        0
 40
0.045
309
GRIDFORMAT_END
 95
        4
302
GRIDFORMAT
  1
GRIDFORMAT_BEGIN
 90
        0
 91
        1
 62
     0
 92
       -2
340
0
 93
        0
 40
0.045
309
GRIDFORMAT_END
 95
        8
302
GRIDFORMAT
  1
GRIDFORMAT_BEGIN
 90
        0
 91
        1
 62
     0
 92
       -2
340
0
 93
        0
 40
0.045
309
GRIDFORMAT_END
 95
       16
302
GRIDFORMAT
  1
GRIDFORMAT_BEGIN
 90
        0
 91
        1
 62
     0
 92
       -2
340
0
 93
        0
 40
0.045
309
GRIDFORMAT_END
 95
       32
302
GRIDFORMAT
  1
GRIDFORMAT_BEGIN
 90
        0
 91
        1
 62
     0
 92
       -2
340
0
 93
        0
 40
0.045
309
GRIDFORMAT_END
309
TABLEFORMAT_END
  1
CELLSTYLE_BEGIN
 90
        2
 91
        1
300
_HEADER
309
CELLSTYLE_END
300
CELLSTYLE
  1
TABLEFORMAT_BEGIN
 90
        5
170
     1
 91
        0
 92
        0
 62
   257
 93
        1
300
CONTENTFORMAT
  1
CONTENTFORMAT_BEGIN
 90
        0
 91
        0
 92
      512
 93
        0
300

 40
0.0
140
1.0
 94
        2
 62
     0
340
11
144
0.18
309
CONTENTFORMAT_END
171
     1
301
MARGIN
  1
CELLMARGIN_BEGIN
 40
0.06
 40
0.06
 40
0.06
 40
0.06
 40
0.18
 40
0.18
309
CELLMARGIN_END
 94
        6
 95
        1
302
GRIDFORMAT
  1
GRIDFORMAT_BEGIN
 90
        0
 91
        1
 62
     0
 92
       -2
340
0
 93
        0
 40
0.045
309
GRIDFORMAT_END
 95
        2
302
GRIDFORMAT
  1
GRIDFORMAT_BEGIN
 90
        0
 91
        1
 62
     0
 92
       -2
340
0
 93
        0
 40
0.045
309
GRIDFORMAT_END
 95
        4
302
GRIDFORMAT
  1
GRIDFORMAT_BEGIN
 90
        0
 91
        1
 62
     0
 92
       -2
340
0
 93
        0
 40
0.045
309
GRIDFORMAT_END
 95
        8
302
GRIDFORMAT
  1
GRIDFORMAT_BEGIN
 90
        0
 91
        1
 62
     0
 92
       -2
340
0
 93
        0
 40
0.045
309
GRIDFORMAT_END
 95
       16
302
GRIDFORMAT
  1
GRIDFORMAT_BEGIN
 90
        0
 91
        1
 62
     0
 92
       -2
340
0
 93
        0
 40
0.045
309
GRIDFORMAT_END
 95
       32
302
GRIDFORMAT
  1
GRIDFORMAT_BEGIN
 90
        0
 91
        1
 62
     0
 92
       -2
340
0
 93
        0
 40
0.045
309
GRIDFORMAT_END
309
TABLEFORMAT_END
  1
CELLSTYLE_BEGIN
 90
        3
 91
        2
300
_DATA
309
CELLSTYLE_END
  0
ENDSEC
  0
EOF
