  0
SECTION
  2
HEADER
  9
$ACADVER
  1
AC1021
  9
$ACADMAINTVER
 70
    25
  9
$DWGCODEPAGE
  3
ANSI_936
  9
$LASTSAVEDBY
  1
dn.ye
  9
$INSBASE
 10
0.0
 20
0.0
 30
0.0
  9
$EXTMIN
 10
3442.237939217954
 20
664.9430378544816
 30
-0.0000000000000053
  9
$EXTMAX
 10
3680.05772736239
 20
833.0441140543594
 30
0.0000000000000099
  9
$LIMMIN
 10
0.0
 20
0.0
  9
$LIMMAX
 10
12.0
 20
9.0
  9
$ORTHOMODE
 70
     0
  9
$REGENMODE
 70
     1
  9
$FILLMODE
 70
     1
  9
$QTEXTMODE
 70
     0
  9
$MIRRTEXT
 70
     1
  9
$LTSCALE
 40
1.0
  9
$ATTMODE
 70
     1
  9
$TEXTSIZE
 40
0.2
  9
$TRACEWID
 40
0.05
  9
$TEXTSTYLE
  7
Standard
  9
$CLAYER
  8
DIM
  9
$CELTYPE
  6
ByLayer
  9
$CECOLOR
 62
   256
  9
$CELTSCALE
 40
1.0
  9
$DISPSILH
 70
     0
  9
$DIMSCALE
 40
0.65
  9
$DIMASZ
 40
2.5
  9
$DIMEXO
 40
1.0
  9
$DIMDLI
 40
0.1
  9
$DIMRND
 40
0.0
  9
$DIMDLE
 40
0.0
  9
$DIMEXE
 40
1.0
  9
$DIMTP
 40
0.01
  9
$DIMTM
 40
0.000000001
  9
$DIMTXT
 40
4.0
  9
$DIMCEN
 40
0.0
  9
$DIMTSZ
 40
0.0
  9
$DIMTOL
 70
     0
  9
$DIMLIM
 70
     0
  9
$DIMTIH
 70
     0
  9
$DIMTOH
 70
     0
  9
$DIMSE1
 70
     0
  9
$DIMSE2
 70
     0
  9
$DIMTAD
 70
     1
  9
$DIMZIN
 70
     8
  9
$DIMBLK
  1

  9
$DIMASO
 70
     1
  9
$DIMSHO
 70
     1
  9
$DIMPOST
  1

  9
$DIMAPOST
  1

  9
$DIMALT
 70
     0
  9
$DIMALTD
 70
     2
  9
$DIMALTF
 40
25.4
  9
$DIMLFAC
 40
1.0
  9
$DIMTOFL
 70
     0
  9
$DIMTVP
 40
0.0
  9
$DIMTIX
 70
     0
  9
$DIMSOXD
 70
     0
  9
$DIMSAH
 70
     0
  9
$DIMBLK1
  1

  9
$DIMBLK2
  1

  9
$DIMSTYLE
  2
02
  9
$DIMCLRD
 70
     1
  9
$DIMCLRE
 70
     6
  9
$DIMCLRT
 70
     4
  9
$DIMTFAC
 40
0.7
  9
$DIMGAP
 40
1.5
  9
$DIMJUST
 70
     0
  9
$DIMSD1
 70
     0
  9
$DIMSD2
 70
     0
  9
$DIMTOLJ
 70
     1
  9
$DIMTZIN
 70
     8
  9
$DIMALTZ
 70
     0
  9
$DIMALTTZ
 70
     0
  9
$DIMUPT
 70
     0
  9
$DIMDEC
 70
     1
  9
$DIMTDEC
 70
     1
  9
$DIMALTU
 70
     2
  9
$DIMALTTD
 70
     2
  9
$DIMTXSTY
  7
Romans字体
  9
$DIMAUNIT
 70
     0
  9
$DIMADEC
 70
     2
  9
$DIMALTRND
 40
0.0
  9
$DIMAZIN
 70
     2
  9
$DIMDSEP
 70
    46
  9
$DIMATFIT
 70
     3
  9
$DIMFRAC
 70
     0
  9
$DIMLDRBLK
  1

  9
$DIMLUNIT
 70
     2
  9
$DIMLWD
 70
     5
  9
$DIMLWE
 70
     5
  9
$DIMTMOVE
 70
     0
  9
$DIMFXL
 40
1.0
  9
$DIMFXLON
 70
     0
  9
$DIMJOGANG
 40
0.7853981633974483
  9
$DIMTFILL
 70
     0
  9
$DIMTFILLCLR
 70
     0
  9
$DIMARCSYM
 70
     0
  9
$DIMLTYPE
  6

  9
$DIMLTEX1
  6

  9
$DIMLTEX2
  6

  9
$LUNITS
 70
     2
  9
$LUPREC
 70
     4
  9
$SKETCHINC
 40
0.1
  9
$FILLETRAD
 40
0.5
  9
$AUNITS
 70
     0
  9
$AUPREC
 70
     0
  9
$MENU
  1
.
  9
$ELEVATION
 40
0.0
  9
$PELEVATION
 40
0.0
  9
$THICKNESS
 40
0.0
  9
$LIMCHECK
 70
     0
  9
$CHAMFERA
 40
0.5
  9
$CHAMFERB
 40
0.5
  9
$CHAMFERC
 40
1.0
  9
$CHAMFERD
 40
0.0
  9
$SKPOLY
 70
     0
  9
$TDCREATE
 40
2456524.383632987
  9
$TDUCREATE
 40
2456524.050299653
  9
$TDUPDATE
 40
2459251.441349630
  9
$TDUUPDATE
 40
2459251.108016296
  9
$TDINDWG
 40
1.4190206597
  9
$TDUSRTIMER
 40
1.4189994792
  9
$USRTIMER
 70
     1
  9
$ANGBASE
 50
0.0
  9
$ANGDIR
 70
     0
  9
$PDMODE
 70
     0
  9
$PDSIZE
 40
0.0
  9
$PLINEWID
 40
0.0
  9
$SPLFRAME
 70
     0
  9
$SPLINETYPE
 70
     6
  9
$SPLINESEGS
 70
     8
  9
$HANDSEED
  5
48606
  9
$SURFTAB1
 70
     6
  9
$SURFTAB2
 70
     6
  9
$SURFTYPE
 70
     6
  9
$SURFU
 70
     6
  9
$SURFV
 70
     6
  9
$UCSBASE
  2

  9
$UCSNAME
  2

  9
$UCSORG
 10
0.0
 20
0.0
 30
0.0
  9
$UCSXDIR
 10
1.0
 20
0.0
 30
0.0
  9
$UCSYDIR
 10
0.0
 20
1.0
 30
0.0
  9
$UCSORTHOREF
  2

  9
$UCSORTHOVIEW
 70
     0
  9
$UCSORGTOP
 10
0.0
 20
0.0
 30
0.0
  9
$UCSORGBOTTOM
 10
0.0
 20
0.0
 30
0.0
  9
$UCSORGLEFT
 10
0.0
 20
0.0
 30
0.0
  9
$UCSORGRIGHT
 10
0.0
 20
0.0
 30
0.0
  9
$UCSORGFRONT
 10
0.0
 20
0.0
 30
0.0
  9
$UCSORGBACK
 10
0.0
 20
0.0
 30
0.0
  9
$PUCSBASE
  2

  9
$PUCSNAME
  2

  9
$PUCSORG
 10
0.0
 20
0.0
 30
0.0
  9
$PUCSXDIR
 10
1.0
 20
0.0
 30
0.0
  9
$PUCSYDIR
 10
0.0
 20
1.0
 30
0.0
  9
$PUCSORTHOREF
  2

  9
$PUCSORTHOVIEW
 70
     0
  9
$PUCSORGTOP
 10
0.0
 20
0.0
 30
0.0
  9
$PUCSORGBOTTOM
 10
0.0
 20
0.0
 30
0.0
  9
$PUCSORGLEFT
 10
0.0
 20
0.0
 30
0.0
  9
$PUCSORGRIGHT
 10
0.0
 20
0.0
 30
0.0
  9
$PUCSORGFRONT
 10
0.0
 20
0.0
 30
0.0
  9
$PUCSORGBACK
 10
0.0
 20
0.0
 30
0.0
  9
$USERI1
 70
     0
  9
$USERI2
 70
     0
  9
$USERI3
 70
     0
  9
$USERI4
 70
     0
  9
$USERI5
 70
     0
  9
$USERR1
 40
0.0
  9
$USERR2
 40
0.0
  9
$USERR3
 40
0.0
  9
$USERR4
 40
0.0
  9
$USERR5
 40
0.0
  9
$WORLDVIEW
 70
     1
  9
$SHADEDGE
 70
     3
  9
$SHADEDIF
 70
    70
  9
$TILEMODE
 70
     1
  9
$MAXACTVP
 70
    64
  9
$PINSBASE
 10
0.0
 20
0.0
 30
0.0
  9
$PLIMCHECK
 70
     0
  9
$PEXTMIN
 10
1.000000000000000E+20
 20
1.000000000000000E+20
 30
1.000000000000000E+20
  9
$PEXTMAX
 10
-1.000000000000000E+20
 20
-1.000000000000000E+20
 30
-1.000000000000000E+20
  9
$PLIMMIN
 10
0.0
 20
0.0
  9
$PLIMMAX
 10
12.0
 20
9.0
  9
$UNITMODE
 70
     0
  9
$VISRETAIN
 70
     1
  9
$PLINEGEN
 70
     0
  9
$PSLTSCALE
 70
     1
  9
$TREEDEPTH
 70
  3020
  9
$CMLSTYLE
  2
Standard
  9
$CMLJUST
 70
     0
  9
$CMLSCALE
 40
1.0
  9
$PROXYGRAPHICS
 70
     1
  9
$MEASUREMENT
 70
     0
  9
$CELWEIGHT
370
    -1
  9
$ENDCAPS
280
     0
  9
$JOINSTYLE
280
     0
  9
$LWDISPLAY
290
     1
  9
$INSUNITS
 70
     4
  9
$HYPERLINKBASE
  1

  9
$STYLESHEET
  1
monochrome.ctb
  9
$XEDIT
290
     1
  9
$CEPSNTYPE
380
     0
  9
$PSTYLEMODE
290
     1
  9
$FINGERPRINTGUID
  2
{4A02065B-8BB3-4A96-9036-502DC906C165}
  9
$VERSIONGUID
  2
{2493A830-C35B-43BB-A6F6-B9E154CD3E20}
  9
$EXTNAMES
290
     1
  9
$PSVPSCALE
 40
0.0
  9
$OLESTARTUP
290
     0
  9
$SORTENTS
280
   127
  9
$INDEXCTL
280
     0
  9
$HIDETEXT
280
     0
  9
$XCLIPFRAME
290
     0
  9
$HALOGAP
280
     0
  9
$OBSCOLOR
 70
   257
  9
$OBSLTYPE
280
     0
  9
$INTERSECTIONDISPLAY
280
     0
  9
$INTERSECTIONCOLOR
 70
   257
  9
$DIMASSOC
280
     1
  9
$PROJECTNAME
  1

  9
$CAMERADISPLAY
290
     0
  9
$LENSLENGTH
 40
50.0
  9
$CAMERAHEIGHT
 40
0.0
  9
$STEPSPERSEC
 40
2.0
  9
$STEPSIZE
 40
6.0
  9
$3DDWFPREC
 40
2.0
  9
$PSOLWIDTH
 40
0.25
  9
$PSOLHEIGHT
 40
4.0
  9
$LOFTANG1
 40
1.570796326794896
  9
$LOFTANG2
 40
1.570796326794896
  9
$LOFTMAG1
 40
0.0
  9
$LOFTMAG2
 40
0.0
  9
$LOFTPARAM
 70
     7
  9
$LOFTNORMALS
280
     1
  9
$LATITUDE
 40
37.795
  9
$LONGITUDE
 40
-122.394
  9
$NORTHDIRECTION
 40
0.0
  9
$TIMEZONE
 70
 -8000
  9
$LIGHTGLYPHDISPLAY
280
     1
  9
$TILEMODELIGHTSYNCH
280
     1
  9
$CMATERIAL
347
4FE6
  9
$SOLIDHIST
280
     1
  9
$SHOWHIST
280
     1
  9
$DWFFRAME
280
     2
  9
$DGNFRAME
280
     0
  9
$REALWORLDSCALE
290
     1
  9
$INTERFERECOLOR
 62
     1
  9
$INTERFEREOBJVS
345
33
  9
$INTERFEREVPVS
346
30
  9
$CSHADOW
280
     0
  9
$SHADOWPLANELOCATION
 40
0.0
  0
ENDSEC
  0
SECTION
  2
CLASSES
  0
CLASS
  1
ACDBDICTIONARYWDFLT
  2
AcDbDictionaryWithDefault
  3
ObjectDBX Classes
 90
        0
 91
        1
280
     0
281
     0
  0
CLASS
  1
VISUALSTYLE
  2
AcDbVisualStyle
  3
ObjectDBX Classes
 90
     4095
 91
       17
280
     0
281
     0
  0
CLASS
  1
MATERIAL
  2
AcDbMaterial
  3
ObjectDBX Classes
 90
     1153
 91
        3
280
     0
281
     0
  0
CLASS
  1
TABLESTYLE
  2
AcDbTableStyle
  3
ObjectDBX Classes
 90
     4095
 91
        1
280
     0
281
     0
  0
CLASS
  1
SCALE
  2
AcDbScale
  3
ObjectDBX Classes
 90
     1153
 91
       33
280
     0
281
     0
  0
CLASS
  1
MLEADERSTYLE
  2
AcDbMLeaderStyle
  3
ACDB_MLEADERSTYLE_CLASS
 90
     4095
 91
        1
280
     0
281
     0
  0
CLASS
  1
CELLSTYLEMAP
  2
AcDbCellStyleMap
  3
ObjectDBX Classes
 90
     1152
 91
        3
280
     0
281
     0
  0
CLASS
  1
DICTIONARYVAR
  2
AcDbDictionaryVar
  3
ObjectDBX Classes
 90
        0
 91
        8
280
     0
281
     0
  0
CLASS
  1
SORTENTSTABLE
  2
AcDbSortentsTable
  3
ObjectDBX Classes
 90
        0
 91
        1
280
     0
281
     0
  0
CLASS
  1
ACAD_EVALUATION_GRAPH
  2
AcDbEvalGraph
  3
ObjectDBX Classes
 90
     1153
 91
        0
280
     0
281
     0
  0
CLASS
  1
ACAECUSTOBJ
  2
AcAeEditorObj
  3
AcAeEditorObj
 90
     1024
 91
        0
280
     0
281
     0
  0
CLASS
  1
ACDB_DYNAMICBLOCKPURGEPREVENTER_VERSION
  2
AcDbDynamicBlockPurgePreventer
  3
ObjectDBX Classes
 90
     1153
 91
        0
280
     0
281
     0
  0
CLASS
  1
MENTALRAYRENDERSETTINGS
  2
AcDbMentalRayRenderSettings
  3
SCENEOE
 90
     1024
 91
        1
280
     0
281
     0
  0
CLASS
  1
ACDB_BLOCKREPRESENTATION_DATA
  2
AcDbBlockRepresentationData
  3
ObjectDBX Classes
 90
     1153
 91
        0
280
     0
281
     0
  0
CLASS
  1
DIMASSOC
  2
AcDbDimAssoc
  3
"AcDbDimAssoc|Product Desc:     AcDim ARX App For Dimension|Company:          Autodesk, Inc.|WEB Address:      www.autodesk.com"
 90
        0
 91
        3
280
     0
281
     0
  0
CLASS
  1
MULTILEADER
  2
AcDbMLeader
  3
ACDB_MLEADER_CLASS
 90
     1025
 91
        0
280
     0
281
     1
  0
ENDSEC
  0
SECTION
  2
TABLES
  0
TABLE
  2
VPORT
  5
8
102
{ACAD_XDICTIONARY
360
50EE
102
}
330
0
100
AcDbSymbolTable
 70
     1
  0
VPORT
  5
29
330
8
100
AcDbSymbolTableRecord
100
AcDbViewportTableRecord
  2
*Active
 70
     0
 10
0.0
 20
0.0
 11
1.0
 21
1.0
 12
3576.663445002965
 22
610.1331356685352
 13
0.0
 23
0.0
 14
0.5
 24
0.5
 15
0.5
 25
0.5
 16
0.0
 26
0.0
 36
1.0
 17
104.9654968719086
 27
148.5022307685978
 37
0.0
 40
342.5086667340166
 41
2.131639722863741
 42
50.0
 43
0.0
 44
0.0
 50
0.0
 51
0.0
 71
     0
 72
 20000
 73
     1
 74
     3
 75
     0
 76
     0
 77
     0
 78
     0
281
     0
 65
     1
110
0.0
120
0.0
130
0.0
111
1.0
121
0.0
131
0.0
112
0.0
122
1.0
132
0.0
 79
     0
146
0.0
348
2F
 60
     3
 61
     5
292
     1
282
     1
141
0.0
142
0.0
 63
   250
421
  3355443
  0
ENDTAB
  0
TABLE
  2
LTYPE
  5
5
330
0
100
AcDbSymbolTable
 70
     8
  0
LTYPE
  5
14
330
5
100
AcDbSymbolTableRecord
100
AcDbLinetypeTableRecord
  2
ByBlock
 70
     0
  3

 72
    65
 73
     0
 40
0.0
  0
LTYPE
  5
15
330
5
100
AcDbSymbolTableRecord
100
AcDbLinetypeTableRecord
  2
ByLayer
 70
     0
  3

 72
    65
 73
     0
 40
0.0
  0
LTYPE
  5
16
330
5
100
AcDbSymbolTableRecord
100
AcDbLinetypeTableRecord
  2
Continuous
 70
     0
  3
Solid line
 72
    65
 73
     0
 40
0.0
  0
LTYPE
  5
67BA
330
5
100
AcDbSymbolTableRecord
100
AcDbLinetypeTableRecord
  2
CENTER
 70
     0
  3
Center ____ _ ____ _ ____ _ ____ _ ____ _ ____
 72
    65
 73
     4
 40
2.0
 49
1.25
 74
     0
 49
-0.25
 74
     0
 49
0.25
 74
     0
 49
-0.25
 74
     0
  0
LTYPE
  5
45715
330
5
100
AcDbSymbolTableRecord
100
AcDbLinetypeTableRecord
  2
CENTERX2
 70
     0
  3
Center (2x) ________  __  ________  __  _____
 72
    65
 73
     4
 40
4.0
 49
2.5
 74
     0
 49
-0.5
 74
     0
 49
0.5
 74
     0
 49
-0.5
 74
     0
  0
LTYPE
  5
45716
330
5
100
AcDbSymbolTableRecord
100
AcDbLinetypeTableRecord
  2
DASHEDX2
 70
     0
  3
Dashed (2x) ____  ____  ____  ____  ____  ___
 72
    65
 73
     2
 40
1.5
 49
1.0
 74
     0
 49
-0.5
 74
     0
  0
LTYPE
  5
45717
330
5
100
AcDbSymbolTableRecord
100
AcDbLinetypeTableRecord
  2
PHANTOMX2
 70
     0
  3
Phantom (2x) ____________    ____    ____   _
 72
    65
 73
     6
 40
5.0
 49
2.5
 74
     0
 49
-0.5
 74
     0
 49
0.5
 74
     0
 49
-0.5
 74
     0
 49
0.5
 74
     0
 49
-0.5
 74
     0
  0
LTYPE
  5
45718
330
5
100
AcDbSymbolTableRecord
100
AcDbLinetypeTableRecord
  2
HIDDENX2
 70
     0
  3
Hidden (2x) ____ ____ ____ ____ ____ ____ ____
 72
    65
 73
     2
 40
0.75
 49
0.5
 74
     0
 49
-0.25
 74
     0
  0
LTYPE
  5
45719
330
5
100
AcDbSymbolTableRecord
100
AcDbLinetypeTableRecord
  2
ACAD_ISO03W100
 70
     0
  3
ISO dash space __    __    __    __    __    __
 72
    65
 73
     2
 40
30.0
 49
12.0
 74
     0
 49
-18.0
 74
     0
  0
LTYPE
  5
4571A
330
5
100
AcDbSymbolTableRecord
100
AcDbLinetypeTableRecord
  2
ACAD_ISO02W100
 70
     0
  3
ISO dash __ __ __ __ __ __ __ __ __ __ __ __ __
 72
    65
 73
     2
 40
15.0
 49
12.0
 74
     0
 49
-3.0
 74
     0
  0
ENDTAB
  0
TABLE
  2
LAYER
  5
2
102
{ACAD_XDICTIONARY
360
50B8
102
}
330
0
100
AcDbSymbolTable
 70
    12
  0
LAYER
  5
10
102
{ACAD_XDICTIONARY
360
50D0
102
}
330
2
100
AcDbSymbolTableRecord
100
AcDbLayerTableRecord
  2
0
 70
     0
 62
     7
  6
Continuous
370
    30
390
F
347
4FF6
  0
LAYER
  5
3B
102
{ACAD_XDICTIONARY
360
50D2
102
}
330
2
100
AcDbSymbolTableRecord
100
AcDbLayerTableRecord
  2
图层 1
 70
     0
 62
     7
  6
Continuous
370
    -3
390
F
347
4FF6
  0
LAYER
  5
50AE
102
{ACAD_XDICTIONARY
360
50AF
102
}
330
2
100
AcDbSymbolTableRecord
100
AcDbLayerTableRecord
  2
图框
 70
     0
 62
     7
  6
Continuous
370
    20
390
F
347
4FF6
  0
LAYER
  5
5141
330
2
100
AcDbSymbolTableRecord
100
AcDbLayerTableRecord
  2
Defpoints
 70
     0
 62
     7
  6
Continuous
290
     0
370
    -3
390
F
347
4FF6
  0
LAYER
  5
5144
330
2
100
AcDbSymbolTableRecord
100
AcDbLayerTableRecord
  2
DIM
 70
     0
 62
     3
  6
Continuous
370
    15
390
F
347
4FF6
1001
AcAecLayerStandard
1000

1000

  0
LAYER
  5
52F3
330
2
100
AcDbSymbolTableRecord
100
AcDbLayerTableRecord
  2
打标文字
 70
     0
 62
     3
  6
Continuous
370
    20
390
F
347
4FF6
  0
LAYER
  5
67B7
330
2
100
AcDbSymbolTableRecord
100
AcDbLayerTableRecord
  2
CEN
 70
     0
 62
     1
  6
CENTER
370
    15
390
F
347
4FF6
1001
AcAecLayerStandard
1000

1000

  0
LAYER
  5
337FF
330
2
100
AcDbSymbolTableRecord
100
AcDbLayerTableRecord
  2
1
 70
     0
 62
     7
  6
Continuous
370
    -3
390
F
347
4FF6
  0
LAYER
  5
37EBA
330
2
100
AcDbSymbolTableRecord
100
AcDbLayerTableRecord
  2
02___PRT_ALL_AXES
 70
     0
 62
     7
  6
Continuous
370
    -3
390
F
347
4FF6
  0
LAYER
  5
4590F
330
2
100
AcDbSymbolTableRecord
100
AcDbLayerTableRecord
  2
模刻
 70
     0
 62
     1
  6
Continuous
370
    20
390
F
347
4FF6
1001
AcAecLayerStandard
1000

1000

  0
LAYER
  5
47E6E
102
{ACAD_XDICTIONARY
360
47E6F
102
}
330
2
100
AcDbSymbolTableRecord
100
AcDbLayerTableRecord
  2
Hat
 70
     0
 62
     6
  6
Continuous
370
     0
390
F
347
4FF6
  0
LAYER
  5
47E70
102
{ACAD_XDICTIONARY
360
47E71
102
}
330
2
100
AcDbSymbolTableRecord
100
AcDbLayerTableRecord
  2
标注
 70
     0
 62
     4
  6
Continuous
370
    -3
390
F
347
4FF6
  0
ENDTAB
  0
TABLE
  2
STYLE
  5
3
330
0
100
AcDbSymbolTable
 70
     9
  0
STYLE
  5
11
330
3
100
AcDbSymbolTableRecord
100
AcDbTextStyleTableRecord
  2
Standard
 70
     0
 40
0.0
 41
0.75
 50
0.0
 71
     0
 42
0.2
  3
仿宋_GB2312.ttf
  4

1001
ACAD
1000
FangSong_GB2312
1071
    34353
  0
STYLE
  5
FD48
330
3
100
AcDbSymbolTableRecord
100
AcDbTextStyleTableRecord
  2
Romans字体
 70
     0
 40
0.0
 41
0.75
 50
0.0
 71
     0
 42
0.2
  3
romans.shx
  4

  0
STYLE
  5
11080
330
3
100
AcDbSymbolTableRecord
100
AcDbTextStyleTableRecord
  2
工程字
 70
     0
 40
0.0
 41
1.0
 50
0.0
 71
     0
 42
3.5
  3
gbenor.shx
  4
gbcbig.shx
  0
STYLE
  5
11081
330
3
100
AcDbSymbolTableRecord
100
AcDbTextStyleTableRecord
  2
Chinese
 70
     0
 40
0.0
 41
1.0
 50
0.0
 71
     0
 42
2.5
  3
PMingLiU.ttf
  4

1001
ACAD
1000
PMingLiU
1071
    34834
  0
STYLE
  5
33802
330
3
100
AcDbSymbolTableRecord
100
AcDbTextStyleTableRecord
  2
打标数字
 70
     0
 40
2.2
 41
0.95
 50
0.0
 71
     0
 42
0.9
  3
romans.shx
  4

  0
STYLE
  5
4550C
330
3
100
AcDbSymbolTableRecord
100
AcDbTextStyleTableRecord
  2
txt字体
 70
     0
 40
0.0
 41
0.7
 50
0.0
 71
     0
 42
0.2
  3
txt.shx
  4

  0
STYLE
  5
45714
330
3
100
AcDbSymbolTableRecord
100
AcDbTextStyleTableRecord
  2

 70
     1
 40
0.0
 41
1.0
 50
0.0
 71
     0
 42
0.2
  3
ltypeshp.shx
  4

  0
STYLE
  5
45910
330
3
100
AcDbSymbolTableRecord
100
AcDbTextStyleTableRecord
  2
打标文字小
 70
     0
 40
1.3
 41
0.75
 50
0.0
 71
     0
 42
2.0
  3
romand.shx
  4

  0
ENDTAB
  0
TABLE
  2
VIEW
  5
6
330
0
100
AcDbSymbolTable
 70
     0
  0
ENDTAB
  0
TABLE
  2
UCS
  5
7
330
0
100
AcDbSymbolTable
 70
     0
  0
ENDTAB
  0
TABLE
  2
APPID
  5
9
330
0
100
AcDbSymbolTable
 70
    18
  0
APPID
  5
12
330
9
100
AcDbSymbolTableRecord
100
AcDbRegAppTableRecord
  2
ACAD
 70
     0
  0
APPID
  5
5024
330
9
100
AcDbSymbolTableRecord
100
AcDbRegAppTableRecord
  2
ACAD_MLEADERVER
 70
     0
  0
APPID
  5
50B5
330
9
100
AcDbSymbolTableRecord
100
AcDbRegAppTableRecord
  2
AcDbDynamicBlockGUID
 70
     0
  0
APPID
  5
50B6
330
9
100
AcDbSymbolTableRecord
100
AcDbRegAppTableRecord
  2
AcDbBlockRepETag
 70
     0
  0
APPID
  5
50B7
330
9
100
AcDbSymbolTableRecord
100
AcDbRegAppTableRecord
  2
ACAD_PSEXT
 70
     0
  0
APPID
  5
50CF
330
9
100
AcDbSymbolTableRecord
100
AcDbRegAppTableRecord
  2
AcadAnnoPO
 70
     0
  0
APPID
  5
5146
330
9
100
AcDbSymbolTableRecord
100
AcDbRegAppTableRecord
  2
AcAecLayerStandard
 70
     0
  0
APPID
  5
5147
330
9
100
AcDbSymbolTableRecord
100
AcDbRegAppTableRecord
  2
ACAD_DSTYLE_DIMJAG
 70
     0
  0
APPID
  5
5148
330
9
100
AcDbSymbolTableRecord
100
AcDbRegAppTableRecord
  2
ACAD_DSTYLE_DIMTALN
 70
     0
  0
APPID
  5
52AD
330
9
100
AcDbSymbolTableRecord
100
AcDbRegAppTableRecord
  2
ACAUTHENVIRON
 70
     0
  0
APPID
  5
52B0
330
9
100
AcDbSymbolTableRecord
100
AcDbRegAppTableRecord
  2
AcDbDynamicBlockTrueName
 70
     0
  0
APPID
  5
67C6
330
9
100
AcDbSymbolTableRecord
100
AcDbRegAppTableRecord
  2
ACAD_EXEMPT_FROM_CAD_STANDARDS
 70
     0
  0
APPID
  5
6838
330
9
100
AcDbSymbolTableRecord
100
AcDbRegAppTableRecord
  2
ACAD_NAV_VCDISPLAY
 70
     0
  0
APPID
  5
70A9
330
9
100
AcDbSymbolTableRecord
100
AcDbRegAppTableRecord
  2
DCO15
 70
     0
  0
APPID
  5
8725
330
9
100
AcDbSymbolTableRecord
100
AcDbRegAppTableRecord
  2
AcDbBlockRepBTag
 70
     0
  0
APPID
  5
FE64
330
9
100
AcDbSymbolTableRecord
100
AcDbRegAppTableRecord
  2
ACAD_DSTYLE_DIMRADIAL_EXTENSION
 70
     0
  0
APPID
  5
FF93
330
9
100
AcDbSymbolTableRecord
100
AcDbRegAppTableRecord
  2
ACAD_DSTYLE_DIMBREAK
 70
     0
  0
APPID
  5
2FC4C
330
9
100
AcDbSymbolTableRecord
100
AcDbRegAppTableRecord
  2
ACAD_DSTYLE_DIMINSPECT
 70
     0
  0
ENDTAB
  0
TABLE
  2
DIMSTYLE
  5
A
330
0
100
AcDbSymbolTable
 70
     5
100
AcDbDimStyleTable
 71
     3
340
47E72
340
5145
340
27
  0
DIMSTYLE
105
27
330
A
100
AcDbSymbolTableRecord
100
AcDbDimStyleTableRecord
  2
Standard
 70
     0
340
11
  0
DIMSTYLE
105
5145
330
A
100
AcDbSymbolTableRecord
100
AcDbDimStyleTableRecord
  2
01
 70
     0
 41
2.0
 42
0.2
 43
0.2
 44
1.199999999999999
 73
     0
 74
     0
 77
     1
 78
     8
 79
     2
140
4.0
141
0.0
147
2.0
176
     1
177
     6
178
     4
179
     2
271
     1
272
     1
340
FD48
1001
ACAD_DSTYLE_DIMJAG
1070
   388
1040
1.5
1001
ACAD_DSTYLE_DIMTALN
1070
   392
1070
     0
  0
DIMSTYLE
105
47E72
102
{ACAD_REACTORS
330
48136
330
4813C
330
48145
102
}
330
A
100
AcDbSymbolTableRecord
100
AcDbDimStyleTableRecord
  2
02
 70
     0
 40
0.65
 41
2.5
 42
1.0
 43
0.1
 44
1.0
 47
0.01
 48
0.000000001
 73
     0
 74
     0
 77
     1
 78
     8
 79
     2
140
4.0
141
0.0
146
0.7
147
1.5
176
     1
177
     6
178
     4
179
     2
271
     1
272
     1
284
     8
340
FD48
371
     5
372
     5
1001
ACAD_DSTYLE_DIMJAG
1070
   388
1040
1.5
1001
ACAD_DSTYLE_DIMTALN
1070
   392
1070
     0
  0
DIMSTYLE
105
47E73
330
A
100
AcDbSymbolTableRecord
100
AcDbDimStyleTableRecord
  2
lin01-1-1
 70
     0
 41
1.5
 42
0.5
 44
0.8
 47
0.01
 48
0.01
 73
     0
 74
     0
 77
     1
 78
     8
 79
     2
140
1.5
147
0.3
176
     1
177
     6
178
     4
179
     1
271
     1
272
     1
284
     8
340
11
1001
ACAD_DSTYLE_DIMBREAK
1070
   391
1040
3.75
1001
ACAD_DSTYLE_DIMJAG
1070
   388
1040
1.5
1001
ACAD_DSTYLE_DIMTALN
1070
   392
1070
     0
  0
ENDTAB
  0
TABLE
  2
BLOCK_RECORD
  5
1
330
0
100
AcDbSymbolTable
 70
     7
  0
BLOCK_RECORD
  5
1F
102
{ACAD_XDICTIONARY
360
67C0
102
}
330
1
100
AcDbSymbolTableRecord
100
AcDbBlockTableRecord
  2
*Model_Space
340
22
 70
     0
280
     1
281
     0
  0
BLOCK_RECORD
  5
1B
330
1
100
AcDbSymbolTableRecord
100
AcDbBlockTableRecord
  2
*Paper_Space
340
1E
 70
     0
280
     1
281
     0
  0
BLOCK_RECORD
  5
23
330
1
100
AcDbSymbolTableRecord
100
AcDbBlockTableRecord
  2
*Paper_Space0
340
26
 70
     0
280
     1
281
     0
  0
BLOCK_RECORD
  5
10FE8
102
{ACAD_XDICTIONARY
360
3F2C7
102
}
330
1
100
AcDbSymbolTableRecord
100
AcDbBlockTableRecord
  2
A4图框-NEW
340
0
310
2800000020000000200000000100080000000000000400000000000000000000000000000000000000000000000080000080000000808000800000008000800080800000C0C0C000C0DCC000F0CAA6000020400000206000002080000020A0000020C0000020E00000400000004020000040400000406000004080000040A0
310
000040C0000040E00000600000006020000060400000606000006080000060A0000060C0000060E00000800000008020000080400000806000008080000080A0000080C0000080E00000A0000000A0200000A0400000A0600000A0800000A0A00000A0C00000A0E00000C0000000C0200000C0400000C0600000C0800000C0
310
A00000C0C00000C0E00000E0000000E0200000E0400000E0600000E0800000E0A00000E0C00000E0E00040000000400020004000400040006000400080004000A0004000C0004000E00040200000402020004020400040206000402080004020A0004020C0004020E000404000004040200040404000404060004040800040
310
40A0004040C0004040E00040600000406020004060400040606000406080004060A0004060C0004060E00040800000408020004080400040806000408080004080A0004080C0004080E00040A0000040A0200040A0400040A0600040A0800040A0A00040A0C00040A0E00040C0000040C0200040C0400040C0600040C08000
310
40C0A00040C0C00040C0E00040E0000040E0200040E0400040E0600040E0800040E0A00040E0C00040E0E00080000000800020008000400080006000800080008000A0008000C0008000E00080200000802020008020400080206000802080008020A0008020C0008020E00080400000804020008040400080406000804080
310
008040A0008040C0008040E00080600000806020008060400080606000806080008060A0008060C0008060E00080800000808020008080400080806000808080008080A0008080C0008080E00080A0000080A0200080A0400080A0600080A0800080A0A00080A0C00080A0E00080C0000080C0200080C0400080C0600080C0
310
800080C0A00080C0C00080C0E00080E0000080E0200080E0400080E0600080E0800080E0A00080E0C00080E0E000C0000000C0002000C0004000C0006000C0008000C000A000C000C000C000E000C0200000C0202000C0204000C0206000C0208000C020A000C020C000C020E000C0400000C0402000C0404000C0406000C0
310
408000C040A000C040C000C040E000C0600000C0602000C0604000C0606000C0608000C060A000C060C000C060E000C0800000C0802000C0804000C0806000C0808000C080A000C080C000C080E000C0A00000C0A02000C0A04000C0A06000C0A08000C0A0A000C0A0C000C0A0E000C0C00000C0C02000C0C04000C0C06000
310
C0C08000C0C0A000F0FBFF00A4A0A000808080000000FF0000FF000000FFFF00FF000000FF00FF00FFFF0000FFFFFF0000000000000000000000000000000000000000000000000000000000000000000000000000000000000000000000000000000000000000000000000000000000000000000000000000000000000000
310
000000000000000000000000000000000000000000000000000000000000000000000000000000000000000000000000000000000000000000000000000000000000000000000000000000000000000000000000000000000000000000000000000000000000000000000000000000000000F9F9F9F9F9F9F9F9F9F9F9F9F9
310
F9F9F9F9F9F9F9F9F9F9F9F9F9F9FF00000000F9FF000000000000000000FFFFFFFFFFFFFFFFFFFFFFFFF9FAFAFAFF00000000F9FF000000000000000000FFFFFFFFFFFFFFFFFFFFFFFFFFFFFFFFFF00000000F9FD000000000000000000FFFFFFFFFFFFFFFFFFFFFFFFFFFFFFFFFF00000000F9FF000000000000000000FF
310
FFFFFFFFFFFFFFFFFFFFFFFFFFFFFFFF00000000F9FD000000000000000000FFFFFFFFFFFFFFFFFFFFFFFFFFFFFFFFFF00000000F9FF00000000000000000000000000000000000000000000000000FF00000000F9FD00000000000000000000000000000000000000000000000000FF00000000F9FF000000000000000000
310
00000000000000000000000000000000FF00000000F9FD00000000000000000000000000000000000000000000000000FF00000000F9FF00000000000000000000000000000000000000000000000000FF00000000F9FD00000000000000000000000000000000000000000000000000FF00000000F9FD0000000000000000
310
0000000000000000000000000000000000FF00000000F9FF00000000000000000000000000000000000000000000000000FF00000000F9FD00000000000000000000000000000000000000000000000000FF00000000F9FF00000000000000000000000000000000000000000000000000FF00000000F9FD00000000000000
310
000000000000000000000000000000000000FF00000000F9FF00000000000000000000000000000000000000000000000000FF00000000F9FFFFFFFFFFFFFFFFFFFFFFFFFFFFFFFFFFFFFFFFFFFFFFFFFFFFFF00000000F9FFFFFFF9F9F9F9F9F9F9F9F9F9F9F9F9F9F9F9F9F9F9F9F9F9F9F9000000000000000000000000
310
00000000000000000000000000000000000000000000000000000000000000000000000000000000000000000000000000000000000000000000000000000000000000000000000000000000000000000000000000000000000000000000000000000000000000000000000000000000000000000000000000000000000000
310
0000000000000000000000000000000000000000000000000000000000000000000000000000000000000000000000000000000000000000
102
{BLKREFS
331
4608F
102
}
 70
     4
280
     1
281
     0
1001
AcDbDynamicBlockGUID
1000
{40D32313-55E4-4BF8-87C4-95990D79E390}
1001
AcDbBlockRepETag
1070
     1
1071
      149
  0
BLOCK_RECORD
  5
3379C
330
1
100
AcDbSymbolTableRecord
100
AcDbBlockTableRecord
  2
PE-ZEICHEN
340
0
 70
     0
280
     1
281
     0
  0
BLOCK_RECORD
  5
4814F
330
1
100
AcDbSymbolTableRecord
100
AcDbBlockTableRecord
  2
*D3
340
0
 70
     0
280
     1
281
     0
  0
BLOCK_RECORD
  5
48168
330
1
100
AcDbSymbolTableRecord
100
AcDbBlockTableRecord
  2
*D4
340
0
 70
     0
280
     1
281
     0
  0
BLOCK_RECORD
  5
48189
330
1
100
AcDbSymbolTableRecord
100
AcDbBlockTableRecord
  2
*D5
340
0
 70
     0
280
     1
281
     0
  0
ENDTAB
  0
ENDSEC
  0
SECTION
  2
BLOCKS
  0
BLOCK
  5
20
330
1F
100
AcDbEntity
  8
0
100
AcDbBlockBegin
  2
*Model_Space
 70
     0
 10
0.0
 20
0.0
 30
0.0
  3
*Model_Space
  1

  0
ENDBLK
  5
21
330
1F
100
AcDbEntity
  8
0
100
AcDbBlockEnd
  0
BLOCK
  5
1C
330
1B
100
AcDbEntity
 67
     1
  8
0
100
AcDbBlockBegin
  2
*Paper_Space
 70
     0
 10
0.0
 20
0.0
 30
0.0
  3
*Paper_Space
  1

  0
ENDBLK
  5
1D
330
1B
100
AcDbEntity
 67
     1
  8
0
100
AcDbBlockEnd
  0
BLOCK
  5
24
330
23
100
AcDbEntity
 67
     1
  8
0
100
AcDbBlockBegin
  2
*Paper_Space0
 70
     0
 10
0.0
 20
0.0
 30
0.0
  3
*Paper_Space0
  1

  0
ENDBLK
  5
25
330
23
100
AcDbEntity
 67
     1
  8
0
100
AcDbBlockEnd
  0
BLOCK
  5
10FEA
330
10FE8
100
AcDbEntity
  8
0
100
AcDbBlockBegin
  2
A4图框-NEW
 70
     0
 10
0.0
 20
0.0
 30
0.0
  3
A4图框-NEW
  1

  0
LINE
  5
3F241
330
10FE8
100
AcDbEntity
  8
图框
370
    -3
100
AcDbLine
 10
1036.653967466372
 20
499.7847891999413
 30
0.0
 11
1079.971361203936
 21
499.7847891999413
 31
0.0
1001
AcDbBlockRepETag
1070
     1
1071
       15
1005
3F241
  0
MTEXT
  5
3F242
330
10FE8
100
AcDbEntity
  8
图框
 62
     1
370
    20
100
AcDbMText
 10
1108.26336443907
 20
491.5162596080882
 30
0.0
 40
2.699054613030988
 41
82.30831305643079
 46
0.0
 71
     5
 72
     5
  1
{\fSimHei|b0|i0|c134|p2;厦门唯恩电气有限公司}
 73
     1
 44
1.0
1001
AcDbBlockRepETag
1070
     1
1071
       16
1005
3F242
  0
MTEXT
  5
3F243
330
10FE8
100
AcDbEntity
  8
图框
 62
     3
370
    20
100
AcDbMText
 10
1108.435451459908
 20
487.298967726064
 30
0.0
 40
1.652482416141417
 41
68.08558693693567
 46
0.0
 71
     5
 72
     5
  1
{\fArial Narrow|b0|i0|c0|p34;XIAMEN WAIN ELECTRICAL CO.LTD}
  7
工程字
 73
     1
 44
1.0
1001
AcDbBlockRepETag
1070
     1
1071
       17
1005
3F243
  0
MTEXT
  5
3F244
330
10FE8
100
AcDbEntity
  8
图框
 62
     1
370
    20
100
AcDbMText
 10
1085.711816899387
 20
491.0944802995856
 30
0.0
 40
2.005930044038334
 41
5.047240019334847
 46
0.0
 71
     1
 72
     5
  1
{\fArial|b0|i0|c0|p34;A}
  7
Chinese
 73
     1
 44
1.0
1001
AcDbBlockRepETag
1070
     1
1071
       18
1005
3F244
  0
MTEXT
  5
3F245
330
10FE8
100
AcDbEntity
  8
图框
 62
     1
370
    20
100
AcDbMText
 10
1088.213485935716
 20
491.0944802995856
 30
0.0
 40
2.005930044038334
 41
5.047240019334847
 46
0.0
 71
     1
 72
     5
  1
{\fArial|b0|i0|c0|p34;I}
  7
Chinese
 73
     1
 44
1.0
1001
AcDbBlockRepETag
1070
     1
1071
       19
1005
3F245
  0
MTEXT
  5
3F246
330
10FE8
100
AcDbEntity
  8
图框
 62
     1
370
    20
100
AcDbMText
 10
1089.142375222864
 20
491.0822866326808
 30
0.0
 40
2.005930044038334
 41
5.047240019334847
 46
0.0
 71
     1
 72
     5
  1
{\fArial|b0|i0|c0|p34;N}
  7
Chinese
 73
     1
 44
1.0
1001
AcDbBlockRepETag
1070
     1
1071
       20
1005
3F246
  0
MTEXT
  5
3F247
330
10FE8
100
AcDbEntity
  8
图框
100
AcDbMText
 10
1069.142012769545
 20
487.9667319294409
 30
0.0
 40
2.252848170144607
 41
21.65869686878327
 46
7.863925338579296
 71
     5
 72
     5
  1
{\W0.5;\C1;All Dimensions in mm\POriginal Size DIN A 4}
  7
Romans字体
 73
     1
 44
1.0
1001
AcDbBlockRepETag
1070
     1
1071
       21
1005
3F247
1001
ACAD
1000
ACAD_MTEXT_DEFINED_HEIGHT_BEGIN
1070
    46
1040
7.863925338579296
1000
ACAD_MTEXT_DEFINED_HEIGHT_END
  0
MTEXT
  5
3F248
330
10FE8
100
AcDbEntity
  8
图框
  6
ByBlock
 62
     6
370
    18
100
AcDbMText
 10
1127.40434942308
 20
508.7896535755975
 30
0.0
 40
2.651776162684904
 41
2.557913877927211
 46
0.0
 71
     1
 72
     5
  1
A
  7
Romans字体
 11
0.0000000000000001
 21
1.0
 31
0.0
 73
     1
 44
1.0
1001
AcDbBlockRepETag
1070
     1
1071
       22
1005
3F248
  0
MTEXT
  5
3F249
330
10FE8
100
AcDbEntity
  8
图框
 62
     6
100
AcDbMText
 10
1127.40434942308
 20
556.3746573232886
 30
0.0
 40
2.651776162684904
 41
2.557913877927211
 46
0.0
 71
     1
 72
     5
  1
B
  7
Romans字体
 11
0.0000000000000001
 21
1.0
 31
0.0
 73
     1
 44
1.0
1001
AcDbBlockRepETag
1070
     1
1071
       23
1005
3F249
  0
MTEXT
  5
3F24A
330
10FE8
100
AcDbEntity
  8
图框
 62
     6
100
AcDbMText
 10
1127.40434942308
 20
607.5539372630998
 30
0.0
 40
2.651776162684904
 41
2.557913877927211
 46
0.0
 71
     1
 72
     5
  1
C
  7
Romans字体
 11
0.0000000000000001
 21
1.0
 31
0.0
 73
     1
 44
1.0
1001
AcDbBlockRepETag
1070
     1
1071
       24
1005
3F24A
  0
MTEXT
  5
3F24B
330
10FE8
100
AcDbEntity
  8
图框
 62
     6
100
AcDbMText
 10
1127.40434942308
 20
658.7332172029115
 30
0.0
 40
2.651776162684904
 41
2.557913877927211
 46
0.0
 71
     1
 72
     5
  1
D
  7
Romans字体
 11
0.0000000000000001
 21
1.0
 31
0.0
 73
     1
 44
1.0
1001
AcDbBlockRepETag
1070
     1
1071
       25
1005
3F24B
  0
LINE
  5
3F24C
330
10FE8
100
AcDbEntity
  8
图框
 62
     6
100
AcDbLine
 10
1130.411601781241
 20
634.0726090796082
 30
0.0
 11
1126.928502610363
 21
634.0726090796082
 31
0.0
1001
AcDbBlockRepETag
1070
     1
1071
       26
1005
3F24C
  0
LINE
  5
3F24D
330
10FE8
100
AcDbEntity
  8
图框
 62
     6
100
AcDbLine
 10
1130.411601781241
 20
582.89332913979
 30
0.0
 11
1126.928502610363
 21
582.89332913979
 31
0.0
1001
AcDbBlockRepETag
1070
     1
1071
       27
1005
3F24D
  0
MTEXT
  5
3F24E
330
10FE8
100
AcDbEntity
  8
图框
 62
     6
100
AcDbMText
 10
1105.329704038389
 20
483.6164543011163
 30
0.0
 40
2.651776162684904
 41
2.557913877927211
 46
0.0
 71
     1
 72
     5
  1
6
  7
Romans字体
 73
     1
 44
1.0
1001
AcDbBlockRepETag
1070
     1
1071
       28
1005
3F24E
  0
LINE
  5
3F24F
330
10FE8
100
AcDbEntity
  8
图框
 62
     6
100
AcDbLine
 10
1081.088565155284
 20
484.0347692601515
 30
0.0
 11
1081.088565155284
 21
480.5347692601475
 31
0.0
1001
AcDbBlockRepETag
1070
     1
1071
       29
1005
3F24F
  0
MTEXT
  5
3F250
330
10FE8
100
AcDbEntity
  8
图框
 62
     6
100
AcDbMText
 10
1055.900596365941
 20
483.520053108993
 30
0.0
 40
2.651776162684904
 41
2.557913877927211
 46
0.0
 71
     1
 72
     5
  1
5
  7
Romans字体
 73
     1
 44
1.0
1001
AcDbBlockRepETag
1070
     1
1071
       30
1005
3F250
  0
LINE
  5
3F251
330
10FE8
100
AcDbEntity
  8
图框
 62
     6
100
AcDbLine
 10
1031.553386436349
 20
484.0347692601515
 30
0.0
 11
1031.553386436349
 21
480.5347692601475
 31
0.0
1001
AcDbBlockRepETag
1070
     1
1071
       31
1005
3F251
  0
MTEXT
  5
3F252
330
10FE8
100
AcDbEntity
  8
图框
 62
     6
100
AcDbMText
 10
1006.383180575197
 20
483.5687958215896
 30
0.0
 40
2.651776162684904
 41
2.557913877927211
 46
0.0
 71
     1
 72
     5
  1
4
  7
Romans字体
 73
     1
 44
1.0
1001
AcDbBlockRepETag
1070
     1
1071
       32
1005
3F252
  0
LINE
  5
3F253
330
10FE8
100
AcDbEntity
  8
图框
 62
     6
100
AcDbLine
 10
982.0182077173887
 20
484.0347692601515
 30
0.0
 11
982.0182077173887
 21
480.5347692601475
 31
0.0
1001
AcDbBlockRepETag
1070
     1
1071
       33
1005
3F253
  0
MTEXT
  5
3F254
330
10FE8
100
AcDbEntity
  8
图框
 62
     6
100
AcDbMText
 10
956.8302389280352
 20
483.5989680297948
 30
0.0
 40
2.651776162684904
 41
2.557913877927211
 46
0.0
 71
     1
 72
     5
  1
3
  7
Romans字体
 73
     1
 44
1.0
1001
AcDbBlockRepETag
1070
     1
1071
       34
1005
3F254
  0
LINE
  5
3F255
330
10FE8
100
AcDbEntity
  8
图框
 62
     6
100
AcDbLine
 10
932.4830289984245
 20
484.0347692601515
 30
0.0
 11
932.4830289984245
 21
480.5347692601475
 31
0.0
1001
AcDbBlockRepETag
1070
     1
1071
       35
1005
3F255
  0
MTEXT
  5
3F256
330
10FE8
100
AcDbEntity
  8
图框
 62
     6
100
AcDbMText
 10
906.0252349826365
 20
483.6475250013156
 30
0.0
 40
2.651776162684904
 41
2.557913877927211
 46
0.0
 71
     1
 72
     5
  1
2
  7
Romans字体
 73
     1
 44
1.0
1001
AcDbBlockRepETag
1070
     1
1071
       36
1005
3F256
  0
LINE
  5
3F257
330
10FE8
100
AcDbEntity
  8
图框
 62
     6
100
AcDbLine
 10
882.9478502794648
 20
484.0347692601515
 30
0.0
 11
882.9478502794648
 21
480.5347692601475
 31
0.0
1001
AcDbBlockRepETag
1070
     1
1071
       37
1005
3F257
  0
MTEXT
  5
3F258
330
10FE8
100
AcDbEntity
  8
图框
 62
     6
100
AcDbMText
 10
857.7598814901191
 20
483.651829494754
 30
0.0
 40
2.651776162684904
 41
2.557913877927211
 46
0.0
 71
     1
 72
     5
  1
1
  7
Romans字体
 73
     1
 44
1.0
1001
AcDbBlockRepETag
1070
     1
1071
       38
1005
3F258
  0
LINE
  5
3F259
330
10FE8
100
AcDbEntity
  8
图框
370
    30
100
AcDbLine
 10
836.8548209370597
 20
484.0347692601515
 30
0.0
 11
1126.928502610363
 21
484.0347692601515
 31
0.0
1001
AcDbBlockRepETag
1070
     1
1071
       39
1005
3F259
  0
LINE
  5
3F25A
330
10FE8
100
AcDbEntity
  8
图框
370
    30
100
AcDbLine
 10
836.9128518455362
 20
484.0178684310246
 30
0.0
 11
836.9128518455394
 21
675.0207195125422
 31
0.0
1001
AcDbBlockRepETag
1070
     1
1071
       40
1005
3F25A
  0
MTEXT
  5
3F25B
330
10FE8
100
AcDbEntity
  8
图框
 62
     6
100
AcDbMText
 10
833.8475685789031
 20
658.7332172029115
 30
0.0
 40
2.651776162684904
 41
2.557913877927211
 46
0.0
 71
     1
 72
     5
  1
D
  7
Romans字体
 11
0.0000000000000001
 21
1.0
 31
0.0
 73
     1
 44
1.0
1001
AcDbBlockRepETag
1070
     1
1071
       41
1005
3F25B
  0
LINE
  5
3F25C
330
10FE8
100
AcDbEntity
  8
图框
 62
     6
100
AcDbLine
 10
836.9128518455386
 20
634.0726090796082
 30
0.0
 11
833.4128518455365
 21
634.0726090796082
 31
0.0
1001
AcDbBlockRepETag
1070
     1
1071
       42
1005
3F25C
  0
MTEXT
  5
3F25D
330
10FE8
100
AcDbEntity
  8
图框
 62
     6
100
AcDbMText
 10
833.9039177480142
 20
607.5539372630998
 30
0.0
 40
2.651776162684904
 41
2.557913877927211
 46
0.0
 71
     1
 72
     5
  1
C
  7
Romans字体
 11
0.0000000000000001
 21
1.0
 31
0.0
 73
     1
 44
1.0
1001
AcDbBlockRepETag
1070
     1
1071
       43
1005
3F25D
  0
LINE
  5
3F25E
330
10FE8
100
AcDbEntity
  8
图框
 62
     6
100
AcDbLine
 10
836.9128518455378
 20
582.89332913979
 30
0.0
 11
833.4128518455365
 21
582.89332913979
 31
0.0
1001
AcDbBlockRepETag
1070
     1
1071
       44
1005
3F25E
  0
MTEXT
  5
3F25F
330
10FE8
100
AcDbEntity
  8
图框
 62
     6
100
AcDbMText
 10
833.9039177480142
 20
556.3746573232886
 30
0.0
 40
2.651776162684904
 41
2.557913877927211
 46
0.0
 71
     1
 72
     5
  1
B
  7
Romans字体
 11
0.0000000000000001
 21
1.0
 31
0.0
 73
     1
 44
1.0
1001
AcDbBlockRepETag
1070
     1
1071
       45
1005
3F25F
  0
LINE
  5
3F260
330
10FE8
100
AcDbEntity
  8
图框
 62
     6
100
AcDbLine
 10
836.9128518455367
 20
531.714049199969
 30
0.0
 11
833.4128518455365
 21
531.714049199969
 31
0.0
1001
AcDbBlockRepETag
1070
     1
1071
       46
1005
3F260
  0
MTEXT
  5
3F261
330
10FE8
100
AcDbEntity
  8
图框
 62
     6
100
AcDbMText
 10
833.9039177480142
 20
508.7896535755975
 30
0.0
 40
2.651776162684904
 41
2.557913877927211
 46
0.0
 71
     1
 72
     5
  1
A
  7
Romans字体
 11
0.0000000000000001
 21
1.0
 31
0.0
 73
     1
 44
1.0
1001
AcDbBlockRepETag
1070
     1
1071
       47
1005
3F261
  0
LINE
  5
3F262
330
10FE8
100
AcDbEntity
  8
图框
370
    -3
100
AcDbLine
 10
836.9128518455394
 20
675.0207195125422
 30
0.0
 11
836.9128518455394
 21
684.5021384922564
 31
0.0
1001
AcDbBlockRepETag
1070
     1
1071
       48
1005
3F262
  0
LINE
  5
3F263
330
10FE8
100
AcDbEntity
  8
图框
370
    -3
100
AcDbLine
 10
842.6237321475781
 20
675.5347692601515
 30
0.0
 11
842.6237321475781
 21
685.0161882398658
 31
0.0
1001
AcDbBlockRepETag
1070
     1
1071
       49
1005
3F263
  0
LINE
  5
3F264
330
10FE8
100
AcDbEntity
  8
图框
370
    -3
100
AcDbLine
 10
848.3346124496179
 20
675.5347692601515
 30
0.0
 11
848.3346124496179
 21
685.0161882398658
 31
0.0
1001
AcDbBlockRepETag
1070
     1
1071
       50
1005
3F264
  0
LINE
  5
3F265
330
10FE8
100
AcDbEntity
  8
图框
370
    -3
100
AcDbLine
 10
854.0454927516588
 20
675.5347692601515
 30
0.0
 11
854.0454927516588
 21
685.0161882398658
 31
0.0
1001
AcDbBlockRepETag
1070
     1
1071
       51
1005
3F265
  0
LINE
  5
3F266
330
10FE8
100
AcDbEntity
  8
图框
370
    -3
100
AcDbLine
 10
861.5351874539182
 20
675.5347692601515
 30
0.0
 11
861.5351874539182
 21
686.7901958362482
 31
0.0
1001
AcDbBlockRepETag
1070
     1
1071
       52
1005
3F266
  0
MTEXT
  5
3F267
330
10FE8
100
AcDbEntity
  8
图框
 62
     6
100
AcDbMText
 10
1105.329704038389
 20
678.859919059449
 30
0.0
 40
2.651776162684904
 41
2.557913877927211
 46
0.0
 71
     1
 72
     5
  1
6
  7
Romans字体
 73
     1
 44
1.0
1001
AcDbBlockRepETag
1070
     1
1071
       53
1005
3F267
  0
LINE
  5
3F268
330
10FE8
100
AcDbEntity
  8
图框
 62
     6
100
AcDbLine
 10
1081.088565155284
 20
679.0347692601516
 30
0.0
 11
1081.088565155284
 21
675.5347692601515
 31
0.0
1001
AcDbBlockRepETag
1070
     1
1071
       54
1005
3F268
  0
MTEXT
  5
3F269
330
10FE8
100
AcDbEntity
  8
图框
 62
     6
100
AcDbMText
 10
1055.900596365941
 20
678.859919059449
 30
0.0
 40
2.651776162684904
 41
2.557913877927211
 46
0.0
 71
     1
 72
     5
  1
5
  7
Romans字体
 73
     1
 44
1.0
1001
AcDbBlockRepETag
1070
     1
1071
       55
1005
3F269
  0
LINE
  5
3F26A
330
10FE8
100
AcDbEntity
  8
图框
 62
     6
100
AcDbLine
 10
1031.553386436349
 20
679.0347692601516
 30
0.0
 11
1031.553386436349
 21
675.5347692601515
 31
0.0
1001
AcDbBlockRepETag
1070
     1
1071
       56
1005
3F26A
  0
MTEXT
  5
3F26B
330
10FE8
100
AcDbEntity
  8
图框
 62
     6
100
AcDbMText
 10
1006.36541764698
 20
678.7312083656147
 30
0.0
 40
2.651776162684904
 41
2.557913877927211
 46
0.0
 71
     1
 72
     5
  1
4
  7
Romans字体
 73
     1
 44
1.0
1001
AcDbBlockRepETag
1070
     1
1071
       57
1005
3F26B
  0
LINE
  5
3F26C
330
10FE8
100
AcDbEntity
  8
图框
 62
     6
100
AcDbLine
 10
982.0182077173887
 20
679.0347692601516
 30
0.0
 11
982.0182077173887
 21
675.5347692601515
 31
0.0
1001
AcDbBlockRepETag
1070
     1
1071
       58
1005
3F26C
  0
MTEXT
  5
3F26D
330
10FE8
100
AcDbEntity
  8
图框
 62
     6
100
AcDbMText
 10
956.8302389280352
 20
678.859919059449
 30
0.0
 40
2.651776162684904
 41
2.557913877927211
 46
0.0
 71
     1
 72
     5
  1
3
  7
Romans字体
 73
     1
 44
1.0
1001
AcDbBlockRepETag
1070
     1
1071
       59
1005
3F26D
  0
LINE
  5
3F26E
330
10FE8
100
AcDbEntity
  8
图框
 62
     6
100
AcDbLine
 10
932.4830289984245
 20
679.0347692601516
 30
0.0
 11
932.4830289984245
 21
675.5347692601515
 31
0.0
1001
AcDbBlockRepETag
1070
     1
1071
       60
1005
3F26E
  0
MTEXT
  5
3F26F
330
10FE8
100
AcDbEntity
  8
图框
 62
     6
100
AcDbMText
 10
907.295060209082
 20
678.859919059449
 30
0.0
 40
2.651776162684904
 41
2.557913877927211
 46
0.0
 71
     1
 72
     5
  1
2
  7
Romans字体
 73
     1
 44
1.0
1001
AcDbBlockRepETag
1070
     1
1071
       61
1005
3F26F
  0
LINE
  5
3F270
330
10FE8
100
AcDbEntity
  8
图框
 62
     6
100
AcDbLine
 10
882.9478502794648
 20
678.7962435131815
 30
0.0
 11
882.9478502794648
 21
675.5347692601515
 31
0.0
1001
AcDbBlockRepETag
1070
     1
1071
       62
1005
3F270
  0
MTEXT
  5
3F271
330
10FE8
100
AcDbEntity
  8
图框
 62
     6
100
AcDbMText
 10
862.6286629643733
 20
678.859919059449
 30
0.0
 40
2.651776162684904
 41
2.557913877927211
 46
0.0
 71
     1
 72
     5
  1
1
  7
Romans字体
 73
     1
 44
1.0
1001
AcDbBlockRepETag
1070
     1
1071
       63
1005
3F271
  0
LINE
  5
3F272
330
10FE8
100
AcDbEntity
  8
图框
370
    -3
100
AcDbLine
 10
836.9128518455394
 20
675.0207195125422
 30
0.0
 11
836.9128518455394
 21
686.7901958362482
 31
0.0
1001
AcDbBlockRepETag
1070
     1
1071
       64
1005
3F272
  0
LINE
  5
3F273
330
10FE8
100
AcDbEntity
  8
图框
370
    30
100
AcDbLine
 10
836.9128518455394
 20
675.5347692601515
 30
0.0
 11
1126.928502610363
 21
675.5347692601515
 31
0.0
1001
AcDbBlockRepETag
1070
     1
1071
       65
1005
3F273
  0
LINE
  5
3F274
330
10FE8
100
AcDbEntity
  8
图框
370
    -3
100
AcDbLine
 10
842.6237321475781
 20
675.5347692601515
 30
0.0
 11
842.6237321475781
 21
686.7901958362482
 31
0.0
1001
AcDbBlockRepETag
1070
     1
1071
       66
1005
3F274
  0
LINE
  5
3F275
330
10FE8
100
AcDbEntity
  8
图框
370
    -3
100
AcDbLine
 10
848.3346124496179
 20
675.5347692601515
 30
0.0
 11
848.3346124496179
 21
686.7901958362482
 31
0.0
1001
AcDbBlockRepETag
1070
     1
1071
       67
1005
3F275
  0
MTEXT
  5
3F276
102
{ACAD_XDICTIONARY
360
485EE
102
}
330
10FE8
100
AcDbEntity
  8
图框
100
AcDbMText
 10
857.7903401027889
 20
686.7901958362482
 30
0.0
 40
1.958998408821398
 41
11.25542657609672
 46
7.489694702258906
 71
     4
 72
     5
  1
\pi2.8203;档案员{\H0.7x;\P\pi1.4159;\Fromans|c134;Filing Clerk\fFangSong_GB2312|b0|i0|c134|p49; }
 11
-0.0000000000000002
 21
-1.0
 31
0.0
 73
     1
 44
1.0
1001
AcDbBlockRepETag
1070
     1
1071
       68
1005
3F276
1001
ACAD
1000
ACAD_MTEXT_DEFINED_HEIGHT_BEGIN
1070
    46
1040
7.489694702258906
1000
ACAD_MTEXT_DEFINED_HEIGHT_END
  0
MTEXT
  5
3F277
102
{ACAD_XDICTIONARY
360
485F0
102
}
330
10FE8
100
AcDbEntity
  8
图框
100
AcDbMText
 10
845.479172298598
 20
686.7901958362482
 30
0.0
 40
1.958998408821398
 41
11.25542657609672
 46
5.710880302039671
 71
     4
 72
     5
  1
\pi0.7115;日期{\Fromans|c134;/Date}
 11
-0.0000000000000002
 21
-1.0
 31
0.0
 73
     1
 44
1.0
1001
AcDbBlockRepETag
1070
     1
1071
       69
1005
3F277
1001
ACAD
1000
ACAD_MTEXT_DEFINED_HEIGHT_BEGIN
1070
    46
1040
5.710880302039671
1000
ACAD_MTEXT_DEFINED_HEIGHT_END
  0
LINE
  5
3F278
330
10FE8
100
AcDbEntity
  8
图框
370
    -3
100
AcDbLine
 10
854.0454927516588
 20
675.5347692601515
 30
0.0
 11
854.0454927516588
 21
686.7901958362482
 31
0.0
1001
AcDbBlockRepETag
1070
     1
1071
       70
1005
3F278
  0
LINE
  5
3F279
330
10FE8
100
AcDbEntity
  8
图框
370
    -3
100
AcDbLine
 10
1036.653967466372
 20
531.3291676047914
 30
0.0
 11
1036.653967466372
 21
484.0126019753161
 31
0.0
1001
AcDbBlockRepETag
1070
     1
1071
       71
1005
3F279
  0
LINE
  5
3F27A
330
10FE8
100
AcDbEntity
  8
图框
370
    -3
100
AcDbLine
 10
1047.483315900763
 20
507.6708838011533
 30
0.0
 11
1047.483315900763
 21
491.8986945987308
 31
0.0
1001
AcDbBlockRepETag
1070
     1
1071
       72
1005
3F27A
  0
LINE
  5
3F27B
330
10FE8
100
AcDbEntity
  8
图框
370
    -3
100
AcDbLine
 10
1058.312664335153
 20
507.6708838011533
 30
0.0
 11
1058.312664335153
 21
484.0347692601515
 31
0.0
1001
AcDbBlockRepETag
1070
     1
1071
       73
1005
3F27B
  0
LINE
  5
3F27C
330
10FE8
100
AcDbEntity
  8
图框
370
    25
100
AcDbLine
 10
1048.474135214456
 20
488.1095628329926
 30
0.0
 11
1054.946420288459
 21
488.1095628329926
 31
0.0
1001
AcDbBlockRepETag
1070
     1
1071
       74
1005
3F27C
  0
LINE
  5
3F27D
330
10FE8
100
AcDbEntity
  8
图框
370
    25
100
AcDbLine
 10
1054.232527365989
 20
487.0761716842634
 30
0.0
 11
1049.156490914508
 21
486.4576273751
 31
0.0
1001
AcDbBlockRepETag
1070
     1
1071
       75
1005
3F27D
  0
LINE
  5
3F27E
330
10FE8
100
AcDbEntity
  8
图框
370
    25
100
AcDbLine
 10
1054.232527365989
 20
489.1429539817209
 30
0.0
 11
1049.156490914508
 21
489.7614982908846
 31
0.0
1001
AcDbBlockRepETag
1070
     1
1071
       76
1005
3F27E
  0
LINE
  5
3F27F
330
10FE8
100
AcDbEntity
  8
图框
370
    25
100
AcDbLine
 10
1049.156490914508
 20
489.7614982908846
 30
0.0
 11
1049.156490914508
 21
486.4576273751
 31
0.0
1001
AcDbBlockRepETag
1070
     1
1071
       77
1005
3F27F
  0
LINE
  5
3F280
330
10FE8
100
AcDbEntity
  8
图框
370
    25
100
AcDbLine
 10
1054.232527365989
 20
489.1429539817209
 30
0.0
 11
1054.232527365989
 21
487.0761716842634
 31
0.0
1001
AcDbBlockRepETag
1070
     1
1071
       78
1005
3F280
  0
CIRCLE
  5
3F281
330
10FE8
100
AcDbEntity
  8
图框
370
    25
100
AcDbCircle
 10
1042.502700458579
 20
488.1095628329926
 30
0.0
 40
1.651935457891863
1001
AcDbBlockRepETag
1070
     1
1071
       79
1005
3F281
  0
CIRCLE
  5
3F282
330
10FE8
100
AcDbEntity
  8
图框
370
    25
100
AcDbCircle
 10
1042.502700458579
 20
488.1095628329926
 30
0.0
 40
1.033391148728775
1001
AcDbBlockRepETag
1070
     1
1071
       80
1005
3F282
  0
LINE
  5
3F283
330
10FE8
100
AcDbEntity
  8
图框
370
    25
100
AcDbLine
 10
1040.136872078216
 20
488.1095628329926
 30
0.0
 11
1044.868528838943
 21
488.1095628329926
 31
0.0
1001
AcDbBlockRepETag
1070
     1
1071
       81
1005
3F283
  0
LINE
  5
3F284
330
10FE8
100
AcDbEntity
  8
图框
370
    25
100
AcDbLine
 10
1042.502700458579
 20
490.475391213355
 30
0.0
 11
1042.502700458579
 21
485.743734452629
 31
0.0
1001
AcDbBlockRepETag
1070
     1
1071
       82
1005
3F284
  0
LINE
  5
3F285
330
10FE8
100
AcDbEntity
  8
图框
370
    -3
100
AcDbLine
 10
1069.142012769546
 20
507.6708838011533
 30
0.0
 11
1069.142012769546
 21
491.8986945987308
 31
0.0
1001
AcDbBlockRepETag
1070
     1
1071
       83
1005
3F285
  0
MTEXT
  5
3F286
330
10FE8
100
AcDbEntity
  8
图框
100
AcDbMText
 10
1086.643735910939
 20
526.8006839312707
 30
0.0
 40
2.154898249703542
 41
13.34474941400573
 46
9.056967347041775
 71
     5
 72
     5
  1
图号{\Ftxt|c134;\P\Fromans|c134;\W0.65;Drawing No.}
 73
     1
 44
1.0
1001
AcDbBlockRepETag
1070
     1
1071
       84
1005
3F286
1001
ACAD
1000
ACAD_MTEXT_DEFINED_HEIGHT_BEGIN
1070
    46
1040
9.056967347041775
1000
ACAD_MTEXT_DEFINED_HEIGHT_END
  0
LINE
  5
3F287
330
10FE8
100
AcDbEntity
  8
图框
370
    -3
100
AcDbLine
 10
1093.316110617942
 20
531.3291676047914
 30
0.0
 11
1093.316110617942
 21
495.8417418993347
 31
0.0
1001
AcDbBlockRepETag
1070
     1
1071
       85
1005
3F287
  0
LINE
  5
3F288
330
10FE8
100
AcDbEntity
  8
图框
370
    -3
100
AcDbLine
 10
1047.473969770481
 20
531.3291676047914
 30
0.0
 11
1047.473969770481
 21
507.6708838011533
 31
0.0
1001
AcDbBlockRepETag
1070
     1
1071
       86
1005
3F288
  0
MTEXT
  5
3F289
330
10FE8
100
AcDbEntity
  8
图框
100
AcDbMText
 10
1063.72733855235
 20
503.7278365005473
 30
0.0
 40
2.252848170144607
 41
10.82934843439208
 46
7.886094601212128
 71
     5
 72
     5
  1
重量\P{\Fromans|c134;Weight}
 73
     1
 44
1.0
1001
AcDbBlockRepETag
1070
     1
1071
       87
1005
3F289
1001
ACAD
1000
ACAD_MTEXT_DEFINED_HEIGHT_BEGIN
1070
    46
1040
7.886094601212128
1000
ACAD_MTEXT_DEFINED_HEIGHT_END
  0
LINE
  5
3F28A
330
10FE8
100
AcDbEntity
  8
图框
370
    -3
100
AcDbLine
 10
1036.653967466372
 20
519.5000257029746
 30
0.0
 11
1079.971361203936
 21
519.5000257029746
 31
0.0
1001
AcDbBlockRepETag
1070
     1
1071
       88
1005
3F28A
  0
MTEXT
  5
3F28B
330
10FE8
100
AcDbEntity
  8
图框
100
AcDbMText
 10
1074.556686986741
 20
503.7278365005473
 30
0.0
 40
2.252848170144607
 41
10.82934843438984
 46
7.886094601212141
 71
     5
 72
     5
  1
数量\P{\Fromans|c134;Qty.}
 73
     1
 44
1.0
1001
AcDbBlockRepETag
1070
     1
1071
       89
1005
3F28B
1001
ACAD
1000
ACAD_MTEXT_DEFINED_HEIGHT_BEGIN
1070
    46
1040
7.886094601212141
1000
ACAD_MTEXT_DEFINED_HEIGHT_END
  0
LINE
  5
3F28C
330
10FE8
100
AcDbEntity
  8
图框
370
    -3
100
AcDbLine
 10
1079.971361203936
 20
495.8417418993347
 30
0.0
 11
1126.928502610363
 21
495.8417418993342
 31
0.0
1001
AcDbBlockRepETag
1070
     1
1071
       90
1005
3F28C
  0
LINE
  5
3F28D
330
10FE8
100
AcDbEntity
  8
图框
370
    -3
100
AcDbLine
 10
1079.971361203936
 20
504.7132992040975
 30
0.0
 11
1126.928502610363
 21
504.7132992040975
 31
0.0
1001
AcDbBlockRepETag
1070
     1
1071
       91
1005
3F28D
  0
MTEXT
  5
3F28E
330
10FE8
100
AcDbEntity
  8
图框
100
AcDbMText
 10
1052.893317052817
 20
503.7278365005473
 30
0.0
 40
2.252848170144607
 41
10.83869456467139
 46
7.886094601212101
 71
     5
 72
     5
  1
版本\P{\Fromans|c134;REV.}
 73
     1
 44
1.0
1001
AcDbBlockRepETag
1070
     1
1071
       92
1005
3F28E
1001
ACAD
1000
ACAD_MTEXT_DEFINED_HEIGHT_BEGIN
1070
    46
1040
7.886094601212101
1000
ACAD_MTEXT_DEFINED_HEIGHT_END
  0
MTEXT
  5
3F28F
330
10FE8
100
AcDbEntity
  8
图框
100
AcDbMText
 10
1042.068641683568
 20
503.7278365005473
 30
0.0
 40
2.252848170144607
 41
10.8293484343908
 46
7.886094601212136
 71
     5
 72
     5
  1
比例\P{\Fromans|c134;Scale}
 73
     1
 44
1.0
1001
AcDbBlockRepETag
1070
     1
1071
       93
1005
3F28F
1001
ACAD
1000
ACAD_MTEXT_DEFINED_HEIGHT_BEGIN
1070
    46
1040
7.886094601212136
1000
ACAD_MTEXT_DEFINED_HEIGHT_END
  0
LINE
  5
3F290
330
10FE8
100
AcDbEntity
  8
图框
370
    -3
100
AcDbLine
 10
1036.653967466372
 20
507.6708838011533
 30
0.0
 11
1079.971361203936
 21
507.6708838011533
 31
0.0
1001
AcDbBlockRepETag
1070
     1
1071
       94
1005
3F290
  0
LINE
  5
3F291
330
10FE8
100
AcDbEntity
  8
图框
370
    -3
100
AcDbLine
 10
1036.653967466372
 20
491.8986945987308
 30
0.0
 11
1079.971361203936
 21
491.8986945987308
 31
0.0
1001
AcDbBlockRepETag
1070
     1
1071
       95
1005
3F291
  0
LINE
  5
3F292
330
10FE8
100
AcDbEntity
  8
图框
370
    -3
100
AcDbLine
 10
1079.971361203936
 20
531.3291676047914
 30
0.0
 11
1079.971361203936
 21
484.0125999975168
 31
0.0
1001
AcDbBlockRepETag
1070
     1
1071
       96
1005
3F292
  0
MTEXT
  5
3F293
330
10FE8
100
AcDbEntity
  8
图框
100
AcDbMText
 10
1042.063968618426
 20
525.4145966538832
 30
0.0
 40
2.252848170144607
 41
10.82000230410933
 46
11.82914190181708
 71
     5
 72
     5
  1
表面处理\P{\Fromans|c134;Finish}
 73
     1
 44
1.0
1001
AcDbBlockRepETag
1070
     1
1071
       97
1005
3F293
1001
ACAD
1000
ACAD_MTEXT_DEFINED_HEIGHT_BEGIN
1070
    46
1040
11.82914190181708
1000
ACAD_MTEXT_DEFINED_HEIGHT_END
  0
MTEXT
  5
3F294
330
10FE8
100
AcDbEntity
  8
图框
100
AcDbMText
 10
1042.063968618426
 20
513.5854547520639
 30
0.0
 40
2.252848170144607
 41
10.82000230410933
 46
11.8291419018212
 71
     5
 72
     5
  1
材料\P{\Fromans|c134;Material}
 73
     1
 44
1.0
1001
AcDbBlockRepETag
1070
     1
1071
       98
1005
3F294
1001
ACAD
1000
ACAD_MTEXT_DEFINED_HEIGHT_BEGIN
1070
    46
1040
11.8291419018212
1000
ACAD_MTEXT_DEFINED_HEIGHT_END
  0
LINE
  5
3F295
330
10FE8
100
AcDbEntity
  8
图框
370
    -3
100
AcDbLine
 10
1079.971361203936
 20
522.27220025775
 30
0.0
 11
1126.928502610363
 21
522.27220025775
 31
0.0
1001
AcDbBlockRepETag
1070
     1
1071
       99
1005
3F295
  0
LINE
  5
3F296
330
10FE8
100
AcDbEntity
  8
图框
370
    -3
100
AcDbLine
 10
1079.971361203936
 20
513.5854547520641
 30
0.0
 11
1126.928502610363
 21
513.5854547520639
 31
0.0
1001
AcDbBlockRepETag
1070
     1
1071
      100
1005
3F296
  0
MTEXT
  5
3F297
330
10FE8
100
AcDbEntity
  8
图框
100
AcDbMText
 10
1086.643735910939
 20
517.9288275049072
 30
0.0
 40
1.958998408821398
 41
13.34474941400573
 46
8.686745505685811
 71
     5
 72
     5
  1
产品代号\P{\Fromans|c134;Part Code}
 73
     1
 44
1.0
1001
AcDbBlockRepETag
1070
     1
1071
      101
1005
3F297
1001
ACAD
1000
ACAD_MTEXT_DEFINED_HEIGHT_BEGIN
1070
    46
1040
8.686745505685811
1000
ACAD_MTEXT_DEFINED_HEIGHT_END
  0
LINE
  5
3F298
330
10FE8
100
AcDbEntity
  8
图框
370
    -3
100
AcDbLine
 10
946.9285026103634
 20
525.7982263931411
 30
0.0
 11
1036.653967466372
 21
525.7982263931411
 31
0.0
1001
AcDbBlockRepETag
1070
     1
1071
      102
1005
3F298
  0
LINE
  5
3F299
330
10FE8
100
AcDbEntity
  8
图框
370
    -3
100
AcDbLine
 10
946.9285026103634
 20
520.2672851814959
 30
0.0
 11
1036.653967466372
 21
520.2672851814959
 31
0.0
1001
AcDbBlockRepETag
1070
     1
1071
      103
1005
3F299
  0
LINE
  5
3F29A
330
10FE8
100
AcDbEntity
  8
图框
370
    30
100
AcDbLine
 10
946.9285026103634
 20
531.3291676047914
 30
0.0
 11
1126.928502610363
 21
531.3291676047914
 31
0.0
1001
AcDbBlockRepETag
1070
     1
1071
      104
1005
3F29A
  0
LINE
  5
3F29B
330
10FE8
100
AcDbEntity
  8
图框
370
    -3
100
AcDbLine
 10
990.6727612856927
 20
509.2054027581959
 30
0.0
 11
990.6727612856927
 21
484.0347692601515
 31
0.0
1001
AcDbBlockRepETag
1070
     1
1071
      105
1005
3F29B
  0
MTEXT
  5
3F29C
102
{ACAD_XDICTIONARY
360
485F2
102
}
330
10FE8
100
AcDbEntity
  8
图框
100
AcDbMText
 10
997.1628169651232
 20
499.816589978722
 30
0.0
 40
2.252848170144607
 41
12.98011135886052
 46
6.19230880992475
 71
     5
 72
     5
  1
{\fFangSong_GB2312|b0|i0|c134|p49;标准化}\PStand.
  7
Romans字体
 73
     1
 44
1.0
1001
AcDbBlockRepETag
1070
     1
1071
      106
1005
3F29C
1001
ACAD
1000
ACAD_MTEXT_DEFINED_HEIGHT_BEGIN
1070
    46
1040
6.19230880992475
1000
ACAD_MTEXT_DEFINED_HEIGHT_END
  0
LINE
  5
3F29D
330
10FE8
100
AcDbEntity
  8
图框
370
    -3
100
AcDbLine
 10
975.4103773808022
 20
509.2054027581959
 30
0.0
 11
975.4103773808022
 21
484.0347692601515
 31
0.0
1001
AcDbBlockRepETag
1070
     1
1071
      107
1005
3F29D
  0
MTEXT
  5
3F29E
330
10FE8
100
AcDbEntity
  8
图框
100
AcDbMText
 10
984.5089229802068
 20
511.9708733640202
 30
0.0
 40
2.448748011026752
 41
38.287899328693
 46
5.530941211648832
 71
     5
 72
     5
  1
  变更描述{\Fromans|c134;/Description}
 73
     1
 44
1.0
1001
AcDbBlockRepETag
1070
     1
1071
      108
1005
3F29E
1001
ACAD
1000
ACAD_MTEXT_DEFINED_HEIGHT_BEGIN
1070
    46
1040
5.530941211648832
1000
ACAD_MTEXT_DEFINED_HEIGHT_END
  0
MTEXT
  5
3F29F
102
{ACAD_XDICTIONARY
360
485F4
102
}
330
10FE8
100
AcDbEntity
  8
图框
100
AcDbMText
 10
1012.466086049227
 20
511.9708733640202
 30
0.0
 40
1.958998408821398
 41
17.6264268093469
 46
5.530941211648825
 71
     5
 72
     5
  1
签名\P{\Fromans|c134;Signature} 
 73
     1
 44
1.0
1001
AcDbBlockRepETag
1070
     1
1071
      109
1005
3F29F
1001
ACAD
1000
ACAD_MTEXT_DEFINED_HEIGHT_BEGIN
1070
    46
1040
5.530941211648825
1000
ACAD_MTEXT_DEFINED_HEIGHT_END
  0
MTEXT
  5
3F2A0
102
{ACAD_XDICTIONARY
360
485F6
102
}
330
10FE8
100
AcDbEntity
  8
图框
100
AcDbMText
 10
960.7558556394856
 20
511.9708733640202
 30
0.0
 40
1.958998408821398
 41
9.218235352749283
 46
5.530941211648841
 71
     5
 72
     5
  1
处数\P{\Fromans|c134;Number }
 73
     1
 44
1.0
1001
AcDbBlockRepETag
1070
     1
1071
      110
1005
3F2A0
1001
ACAD
1000
ACAD_MTEXT_DEFINED_HEIGHT_BEGIN
1070
    46
1040
5.530941211648841
1000
ACAD_MTEXT_DEFINED_HEIGHT_END
  0
LINE
  5
3F2A1
330
10FE8
100
AcDbEntity
  8
图框
370
    -3
100
AcDbLine
 10
946.9285026103634
 20
514.7363439698449
 30
0.0
 11
1036.653967466372
 21
514.7363439698449
 31
0.0
1001
AcDbBlockRepETag
1070
     1
1071
      111
1005
3F2A1
  0
LINE
  5
3F2A2
330
10FE8
100
AcDbEntity
  8
图框
370
    -3
100
AcDbLine
 10
946.9285026103634
 20
509.2054027581959
 30
0.0
 11
1036.653967466372
 21
509.2054027581959
 31
0.0
1001
AcDbBlockRepETag
1070
     1
1071
      112
1005
3F2A2
  0
LINE
  5
3F2A3
330
10FE8
100
AcDbEntity
  8
图框
370
    -3
100
AcDbLine
 10
946.9285026103634
 20
502.9127443836848
 30
0.0
 11
1036.653967466372
 21
502.9127443836848
 31
0.0
1001
AcDbBlockRepETag
1070
     1
1071
      113
1005
3F2A3
  0
LINE
  5
3F2A4
330
10FE8
100
AcDbEntity
  8
图框
370
    -3
100
AcDbLine
 10
946.9285026103634
 20
496.620086009173
 30
0.0
 11
1036.653967466372
 21
496.620086009173
 31
0.0
1001
AcDbBlockRepETag
1070
     1
1071
      114
1005
3F2A4
  0
LINE
  5
3F2A5
330
10FE8
100
AcDbEntity
  8
图框
370
    30
380
     1
100
AcDbLine
 10
946.9285026103634
 20
531.3291676047914
 30
0.0
 11
946.9285026103634
 21
484.0347692601515
 31
0.0
1001
AcDbBlockRepETag
1070
     1
1071
      115
1005
3F2A5
  0
LINE
  5
3F2A6
330
10FE8
100
AcDbEntity
  8
图框
370
    -3
100
AcDbLine
 10
1021.301636813399
 20
531.3291676047914
 30
0.0
 11
1021.301636813399
 21
484.0347692601515
 31
0.0
1001
AcDbBlockRepETag
1070
     1
1071
      116
1005
3F2A6
  0
LINE
  5
3F2A7
330
10FE8
100
AcDbEntity
  8
图框
370
    -3
100
AcDbLine
 10
1003.652872644553
 20
531.3291676047914
 30
0.0
 11
1003.652872644553
 21
484.0347692601515
 31
0.0
1001
AcDbBlockRepETag
1070
     1
1071
      117
1005
3F2A7
  0
LINE
  5
3F2A8
330
10FE8
100
AcDbEntity
  8
图框
370
    -3
100
AcDbLine
 10
965.3649733158603
 20
531.3291676047914
 30
0.0
 11
965.3649733158603
 21
509.2054027581959
 31
0.0
1001
AcDbBlockRepETag
1070
     1
1071
      118
1005
3F2A8
  0
LINE
  5
3F2A9
330
10FE8
100
AcDbEntity
  8
图框
370
    -3
100
AcDbLine
 10
956.1467379631109
 20
531.3291676047914
 30
0.0
 11
956.1467379631109
 21
509.2054027581959
 31
0.0
1001
AcDbBlockRepETag
1070
     1
1071
      119
1005
3F2A9
  0
MTEXT
  5
3F2AA
102
{ACAD_XDICTIONARY
360
485F8
102
}
330
10FE8
100
AcDbEntity
  8
图框
100
AcDbMText
 10
951.537620286737
 20
511.9708733640202
 30
0.0
 40
1.958998408821398
 41
9.218235352747692
 46
5.530941211648832
 71
     5
 72
     5
  1
标记\P{\Fromans|c134;Mark}
 73
     1
 44
1.0
1001
AcDbBlockRepETag
1070
     1
1071
      120
1005
3F2AA
1001
ACAD
1000
ACAD_MTEXT_DEFINED_HEIGHT_BEGIN
1070
    46
1040
5.530941211648832
1000
ACAD_MTEXT_DEFINED_HEIGHT_END
  0
MTEXT
  5
3F2AB
102
{ACAD_XDICTIONARY
360
485FA
102
}
330
10FE8
100
AcDbEntity
  8
图框
100
AcDbMText
 10
953.4185582897936
 20
493.4737568219182
 30
0.0
 40
2.252848170144607
 41
12.98011135886041
 46
6.292658374510382
 71
     5
 72
     5
  1
审核\P{\Fromans|c134;Checked}
 73
     1
 44
1.0
1001
AcDbBlockRepETag
1070
     1
1071
      121
1005
3F2AB
1001
ACAD
1000
ACAD_MTEXT_DEFINED_HEIGHT_BEGIN
1070
    46
1040
6.292658374510382
1000
ACAD_MTEXT_DEFINED_HEIGHT_END
  0
MTEXT
  5
3F2AC
102
{ACAD_XDICTIONARY
360
485FC
102
}
330
10FE8
100
AcDbEntity
  8
图框
100
AcDbMText
 10
953.4185582897936
 20
499.8775635376777
 30
0.0
 40
2.252848170144607
 41
12.98011135886041
 46
6.070361692014189
 71
     5
 72
     5
  1
绘图\P{\Fromans|c134;Drawn\Ftxt|c134; }
 73
     1
 44
1.0
1001
AcDbBlockRepETag
1070
     1
1071
      122
1005
3F2AC
1001
ACAD
1000
ACAD_MTEXT_DEFINED_HEIGHT_BEGIN
1070
    46
1040
6.070361692014189
1000
ACAD_MTEXT_DEFINED_HEIGHT_END
  0
ARC
  5
3F2AD
330
10FE8
100
AcDbEntity
  8
图框
 62
     4
370
    35
100
AcDbCircle
 10
1086.900627017421
 20
490.0179944151195
 30
0.0
 40
4.063310408393665
100
AcDbArc
 50
18.95237904564806
 51
161.0476209543519
1001
AcDbBlockRepETag
1070
     1
1071
      123
1005
3F2AD
  0
ARC
  5
3F2AE
330
10FE8
100
AcDbEntity
  8
图框
 62
     4
370
    35
100
AcDbCircle
 10
1086.900627017421
 20
490.0179944151195
 30
0.0
 40
4.063310408393665
100
AcDbArc
 50
198.952379045648
 51
341.0476209543519
1001
AcDbBlockRepETag
1070
     1
1071
      124
1005
3F2AE
  0
LINE
  5
3F2AF
330
10FE8
100
AcDbEntity
  8
图框
 62
     4
370
    35
100
AcDbLine
 10
1083.057593369548
 20
488.6983035966752
 30
0.0
 11
1090.74366066529
 21
488.6983035966752
 31
0.0
1001
AcDbBlockRepETag
1070
     1
1071
      125
1005
3F2AF
  0
LINE
  5
3F2B0
330
10FE8
100
AcDbEntity
  8
图框
 62
     4
370
    35
100
AcDbLine
 10
1083.057593369548
 20
491.3376852335652
 30
0.0
 11
1090.74366066529
 21
491.3376852335652
 31
0.0
1001
AcDbBlockRepETag
1070
     1
1071
      126
1005
3F2B0
  0
MTEXT
  5
3F2B1
330
10FE8
100
AcDbEntity
  8
图框
 62
     1
370
    20
100
AcDbMText
 10
1083.034582879669
 20
491.0506288081688
 30
0.0
 40
2.005930044038334
 41
5.047240019334847
 46
0.0
 71
     1
 72
     5
  1
{\fArial|b0|i0|c0|p34;W}
  7
Chinese
 73
     1
 44
1.0
1001
AcDbBlockRepETag
1070
     1
1071
      127
1005
3F2B1
  0
LINE
  5
3F2B2
330
10FE8
100
AcDbEntity
  8
图框
370
    -3
100
AcDbLine
 10
946.9285026103634
 20
490.327427634663
 30
0.0
 11
1036.653967466372
 21
490.327427634663
 31
0.0
1001
AcDbBlockRepETag
1070
     1
1071
      128
1005
3F2B2
  0
LINE
  5
3F2B3
330
10FE8
100
AcDbEntity
  8
图框
370
    -3
100
AcDbLine
 10
959.9086139692238
 20
509.2054027581959
 30
0.0
 11
959.9086139692238
 21
484.0347692601515
 31
0.0
1001
AcDbBlockRepETag
1070
     1
1071
      129
1005
3F2B3
  0
MTEXT
  5
3F2B4
330
10FE8
100
AcDbEntity
  8
图框
100
AcDbMText
 10
967.6594956750129
 20
506.0590735709403
 30
0.0
 40
2.252848170144607
 41
15.50176341157869
 46
6.292658374511246
 71
     5
 72
     5
  1
姓名{\Fromans|c134;/Name\Ftxt|c134; }
 73
     1
 44
1.0
1001
AcDbBlockRepETag
1070
     1
1071
      130
1005
3F2B4
1001
ACAD
1000
ACAD_MTEXT_DEFINED_HEIGHT_BEGIN
1070
    46
1040
6.292658374511246
1000
ACAD_MTEXT_DEFINED_HEIGHT_END
  0
MTEXT
  5
3F2B5
330
10FE8
100
AcDbEntity
  8
图框
100
AcDbMText
 10
983.0415693332477
 20
506.0590735709403
 30
0.0
 40
2.252848170144607
 41
15.26238390489042
 46
6.2926583745112
 71
     5
 72
     5
  1
日期{\Fromans|c134;/Date}
 73
     1
 44
1.0
1001
AcDbBlockRepETag
1070
     1
1071
      131
1005
3F2B5
1001
ACAD
1000
ACAD_MTEXT_DEFINED_HEIGHT_BEGIN
1070
    46
1040
6.2926583745112
1000
ACAD_MTEXT_DEFINED_HEIGHT_END
  0
LINE
  5
3F2B6
330
10FE8
100
AcDbEntity
  8
图框
370
    -3
100
AcDbLine
 10
946.9285026103634
 20
509.2054027581959
 30
0.0
 11
959.9086139692238
 21
502.9127443836848
 31
0.0
1001
AcDbBlockRepETag
1070
     1
1071
      132
1005
3F2B6
  0
MTEXT
  5
3F2B7
330
10FE8
100
AcDbEntity
  8
图框
100
AcDbMText
 10
1012.931405110086
 20
506.0185715840725
 30
0.0
 40
2.252848170144607
 41
16.93492221063566
 46
0.0
 71
     5
 72
     5
  1
姓名{\Fromans|c134;/Name}
 73
     1
 44
1.0
1001
AcDbBlockRepETag
1070
     1
1071
      133
1005
3F2B7
  0
MTEXT
  5
3F2B8
330
10FE8
100
AcDbEntity
  8
图框
100
AcDbMText
 10
1028.977802139886
 20
506.0590735709403
 30
0.0
 40
2.252848170144607
 41
15.35233065297283
 46
6.292658374511256
 71
     5
 72
     5
  1
日期{\Fromans|c134;/Date}
 73
     1
 44
1.0
1001
AcDbBlockRepETag
1070
     1
1071
      134
1005
3F2B8
1001
ACAD
1000
ACAD_MTEXT_DEFINED_HEIGHT_BEGIN
1070
    46
1040
6.292658374511256
1000
ACAD_MTEXT_DEFINED_HEIGHT_END
  0
LINE
  5
3F2B9
330
10FE8
100
AcDbEntity
  8
图框
370
    -3
100
AcDbLine
 10
1003.652872644553
 20
502.9127443836848
 30
0.0
 11
990.6727612856927
 21
509.2054027581959
 31
0.0
1001
AcDbBlockRepETag
1070
     1
1071
      135
1005
3F2B9
  0
MTEXT
  5
3F2BA
102
{ACAD_XDICTIONARY
360
485FE
102
}
330
10FE8
100
AcDbEntity
  8
图框
100
AcDbMText
 10
997.1628169651232
 20
487.1810984474071
 30
0.0
 40
2.252848170144607
 41
12.98011135886052
 46
6.292658374511517
 71
     5
 72
     5
  1
批准\P{\Fromans|c134;Approved}
 73
     1
 44
1.0
1001
AcDbBlockRepETag
1070
     1
1071
      136
1005
3F2BA
1001
ACAD
1000
ACAD_MTEXT_DEFINED_HEIGHT_BEGIN
1070
    46
1040
6.292658374511517
1000
ACAD_MTEXT_DEFINED_HEIGHT_END
  0
MTEXT
  5
3F2BB
102
{ACAD_XDICTIONARY
360
48600
102
}
330
10FE8
100
AcDbEntity
  8
图框
100
AcDbMText
 10
953.4185582897936
 20
487.1810984474071
 30
0.0
 40
2.252848170144607
 41
12.98011135886041
 46
6.292658374511495
 71
     5
 72
     5
  1
工艺\P{\Fromans|c134;Process}
 73
     1
 44
1.0
1001
AcDbBlockRepETag
1070
     1
1071
      137
1005
3F2BB
1001
ACAD
1000
ACAD_MTEXT_DEFINED_HEIGHT_BEGIN
1070
    46
1040
6.292658374511495
1000
ACAD_MTEXT_DEFINED_HEIGHT_END
  0
MTEXT
  5
3F2BC
102
{ACAD_XDICTIONARY
360
48602
102
}
330
10FE8
100
AcDbEntity
  8
图框
100
AcDbMText
 10
1028.977802139886
 20
511.8287965307664
 30
0.0
 40
1.958998408821398
 41
15.3523306529728
 46
5.246787545140668
 71
     5
 72
     5
  1
日期\P{\Fromans|c134;Date}
 73
     1
 44
1.0
1001
AcDbBlockRepETag
1070
     1
1071
      138
1005
3F2BC
1001
ACAD
1000
ACAD_MTEXT_DEFINED_HEIGHT_BEGIN
1070
    46
1040
5.246787545140668
1000
ACAD_MTEXT_DEFINED_HEIGHT_END
  0
MTEXT
  5
3F2BD
330
10FE8
100
AcDbEntity
  8
图框
100
AcDbMText
 10
1086.643735910939
 20
509.1493769780809
 30
0.0
 40
2.154898249703542
 41
13.34474941400573
 46
8.87215554796615
 71
     5
 72
     5
  1
产品料号\P{\Fromans|c134;Part No.}
 73
     1
 44
1.0
1001
AcDbBlockRepETag
1070
     1
1071
      139
1005
3F2BD
1001
ACAD
1000
ACAD_MTEXT_DEFINED_HEIGHT_BEGIN
1070
    46
1040
8.87215554796615
1000
ACAD_MTEXT_DEFINED_HEIGHT_END
  0
MTEXT
  5
3F2BE
330
10FE8
100
AcDbEntity
  8
图框
100
AcDbMText
 10
1086.643735910939
 20
500.2775205517163
 30
0.0
 40
1.958998408821398
 41
13.34474941400573
 46
8.871557304763321
 71
     5
 72
     5
  1
产品名称\P{\Fromans|c134;Part Name}
 73
     1
 44
1.0
1001
AcDbBlockRepETag
1070
     1
1071
      140
1005
3F2BE
1001
ACAD
1000
ACAD_MTEXT_DEFINED_HEIGHT_BEGIN
1070
    46
1040
8.871557304763321
1000
ACAD_MTEXT_DEFINED_HEIGHT_END
  0
LINE
  5
3F2BF
330
10FE8
100
AcDbEntity
  8
图框
 62
     1
370
    18
100
AcDbLine
 10
833.4128518455365
 20
690.5347692601515
 30
0.0
 11
833.4128518455365
 21
480.5347692601515
 31
0.0
1001
AcDbBlockRepETag
1070
     1
1071
      141
1005
3F2BF
  0
LINE
  5
3F2C0
330
10FE8
100
AcDbEntity
  8
图框
 62
     1
370
    18
100
AcDbLine
 10
833.4128518455365
 20
480.5347692601515
 30
0.0
 11
1130.411601781236
 21
480.5347692601515
 31
0.0
1001
AcDbBlockRepETag
1070
     1
1071
      142
1005
3F2C0
  0
LINE
  5
3F2C1
330
10FE8
100
AcDbEntity
  8
图框
 62
     1
370
    18
100
AcDbLine
 10
833.4128518455365
 20
690.5347692601515
 30
0.0
 11
1130.411601781236
 21
690.5347692601515
 31
0.0
1001
AcDbBlockRepETag
1070
     1
1071
      143
1005
3F2C1
  0
LINE
  5
3F2C2
330
10FE8
100
AcDbEntity
  8
图框
 62
     1
370
    18
100
AcDbLine
 10
1130.411601781236
 20
480.5347692601515
 30
0.0
 11
1130.411601781236
 21
690.5347692601515
 31
0.0
1001
AcDbBlockRepETag
1070
     1
1071
      144
1005
3F2C2
  0
LINE
  5
3F2C3
330
10FE8
100
AcDbEntity
  8
图框
370
    18
100
AcDbLine
 10
836.9128518455394
 20
686.7901958362482
 30
0.0
 11
861.5351874539182
 21
686.7901958362482
 31
0.0
1001
AcDbBlockRepETag
1070
     1
1071
      145
1005
3F2C3
  0
LINE
  5
3F2C4
330
10FE8
100
AcDbEntity
  8
图框
370
    30
100
AcDbLine
 10
1126.928502610363
 20
484.3410054693078
 30
0.0
 11
1126.928502610363
 21
675.5347692601515
 31
0.0
1001
AcDbBlockRepETag
1070
     1
1071
      146
1005
3F2C4
  0
MTEXT
  5
3F2C5
330
10FE8
100
AcDbEntity
  8
图框
 62
     3
100
AcDbMText
 10
1052.897990117958
 20
495.8417418993364
 30
0.0
 40
2.985513575034151
 41
10.82934843439114
 46
7.886094601211307
 71
     5
 72
     5
  1
V1.0
  7
Romans字体
 73
     1
 44
1.0
1001
AcDbBlockRepETag
1070
     1
1071
      147
1005
3F2C5
1001
ACAD
1000
ACAD_MTEXT_DEFINED_HEIGHT_BEGIN
1070
    46
1040
7.886094601211307
1000
ACAD_MTEXT_DEFINED_HEIGHT_END
  0
LINE
  5
3F2C6
330
10FE8
100
AcDbEntity
  8
图框
 62
     6
100
AcDbLine
 10
1126.911601781236
 20
531.714049199969
 30
0.0
 11
1130.411601781236
 21
531.714049199969
 31
0.0
1001
AcDbBlockRepETag
1070
     1
1071
      148
1005
3F2C6
  0
ENDBLK
  5
1107F
330
10FE8
100
AcDbEntity
  8
0
100
AcDbBlockEnd
  0
BLOCK
  5
3379D
330
3379C
100
AcDbEntity
  8
0
100
AcDbBlockBegin
  2
PE-ZEICHEN
 70
     0
 10
0.0
 20
0.0
 30
0.0
  3
PE-ZEICHEN
  1

  0
CIRCLE
  5
3379E
330
3379C
100
AcDbEntity
  8
1
  6
Continuous
 62
     1
100
AcDbCircle
 10
0.0
 20
0.0
 30
0.0
 40
1.739999999999999
  0
LINE
  5
3379F
330
3379C
100
AcDbEntity
  8
1
  6
Continuous
 62
     1
100
AcDbLine
 10
-1.139999999999999
 20
0.45
 30
0.0
 11
-1.139999999999999
 21
-0.45
 31
0.0
  0
LINE
  5
337A0
330
3379C
100
AcDbEntity
  8
1
  6
Continuous
 62
     1
100
AcDbLine
 10
-0.7400000000000003
 20
0.85
 30
0.0
 11
-0.7400000000000003
 21
-0.85
 31
0.0
  0
LINE
  5
337A1
330
3379C
100
AcDbEntity
  8
1
  6
Continuous
 62
     1
100
AcDbLine
 10
-0.34
 20
1.199999999999999
 30
0.0
 11
-0.34
 21
-1.199999999999999
 31
0.0
  0
LINE
  5
337A2
330
3379C
100
AcDbEntity
  8
1
  6
Continuous
 62
     1
100
AcDbLine
 10
-0.34
 20
0.0
 30
0.0
 11
1.159999999999999
 21
0.0
 31
0.0
  0
ENDBLK
  5
337A3
330
3379C
100
AcDbEntity
  8
0
100
AcDbBlockEnd
  0
BLOCK
  5
48150
330
4814F
100
AcDbEntity
  8
0
100
AcDbBlockBegin
  2
*D3
 70
     1
 10
0.0
 20
0.0
 30
0.0
  3
*D3
  1

  0
LINE
  5
48527
330
4814F
100
AcDbEntity
  8
DIM
 62
     6
370
     5
100
AcDbLine
 10
3517.31284340584
 20
746.7165759276102
 30
0.0
 11
3517.31284340584
 21
732.7878551293066
 31
0.0
  0
LINE
  5
48528
330
4814F
100
AcDbEntity
  8
DIM
 62
     6
370
     5
100
AcDbLine
 10
3577.312843406995
 20
746.7165759271412
 30
0.0
 11
3577.312843406995
 21
732.7878551293066
 31
0.0
  0
LINE
  5
48529
330
4814F
100
AcDbEntity
  8
DIM
 62
     1
370
     5
100
AcDbLine
 10
3518.93784340584
 20
733.4378551293066
 30
0.0
 11
3575.687843406995
 21
733.4378551293066
 31
0.0
  0
SOLID
  5
4852A
330
4814F
100
AcDbEntity
  8
DIM
 62
     1
100
AcDbTrace
 10
3518.93784340584
 20
733.7086884626399
 30
0.0
 11
3518.93784340584
 21
733.1670217959732
 31
0.0
 12
3517.31284340584
 22
733.4378551293066
 32
0.0
 13
3517.31284340584
 23
733.4378551293066
 33
0.0
  0
SOLID
  5
4852B
330
4814F
100
AcDbEntity
  8
DIM
 62
     1
100
AcDbTrace
 10
3575.687843406995
 20
733.7086884626399
 30
0.0
 11
3575.687843406995
 21
733.1670217959732
 31
0.0
 12
3577.312843406995
 22
733.4378551293066
 32
0.0
 13
3577.312843406995
 23
733.4378551293066
 33
0.0
  0
MTEXT
  5
4852C
330
4814F
100
AcDbEntity
  8
DIM
 62
     4
370
     5
100
AcDbMText
 10
3548.245609388141
 20
735.7128551293065
 30
0.0
 40
2.6
 41
0.0
 46
0.0
 71
     5
 72
     1
  1
\A1;60
  7
Romans字体
 73
     1
 44
1.0
  0
POINT
  5
4852D
330
4814F
100
AcDbEntity
  8
Defpoints
 62
     0
100
AcDbPoint
 10
3517.31284340584
 20
747.3665759276102
 30
0.0
  0
POINT
  5
4852E
330
4814F
100
AcDbEntity
  8
Defpoints
 62
     0
100
AcDbPoint
 10
3577.312843406995
 20
747.3665759271412
 30
0.0
  0
POINT
  5
4852F
330
4814F
100
AcDbEntity
  8
Defpoints
 62
     0
100
AcDbPoint
 10
3577.312843406995
 20
733.4378551293066
 30
0.0
  0
ENDBLK
  5
48151
330
4814F
100
AcDbEntity
  8
0
100
AcDbBlockEnd
  0
BLOCK
  5
48169
330
48168
100
AcDbEntity
  8
0
100
AcDbBlockBegin
  2
*D4
 70
     1
 10
0.0
 20
0.0
 30
0.0
  3
*D4
  1

  0
LINE
  5
48530
330
48168
100
AcDbEntity
  8
DIM
 62
     6
370
     5
100
AcDbLine
 10
3575.163269859596
 20
744.567002379741
 30
0.0
 11
3589.283873027722
 21
744.567002379741
 31
0.0
  0
LINE
  5
48531
330
48168
100
AcDbEntity
  8
DIM
 62
     6
370
     5
100
AcDbLine
 10
3575.163269859155
 20
761.9670023816761
 30
0.0
 11
3589.283873027722
 21
761.9670023816761
 31
0.0
  0
LINE
  5
48532
330
48168
100
AcDbEntity
  8
DIM
 62
     1
370
     5
100
AcDbLine
 10
3588.633873027722
 20
746.1920023797411
 30
0.0
 11
3588.633873027722
 21
760.3420023816761
 31
0.0
  0
SOLID
  5
48533
330
48168
100
AcDbEntity
  8
DIM
 62
     1
100
AcDbTrace
 10
3588.363039694388
 20
746.1920023797411
 30
0.0
 11
3588.904706361056
 21
746.1920023797411
 31
0.0
 12
3588.633873027722
 22
744.567002379741
 32
0.0
 13
3588.633873027722
 23
744.567002379741
 33
0.0
  0
SOLID
  5
48534
330
48168
100
AcDbEntity
  8
DIM
 62
     1
100
AcDbTrace
 10
3588.363039694388
 20
760.3420023816761
 30
0.0
 11
3588.904706361056
 21
760.3420023816761
 31
0.0
 12
3588.633873027722
 22
761.9670023816761
 32
0.0
 13
3588.633873027722
 23
761.9670023816761
 33
0.0
  0
MTEXT
  5
48535
330
48168
100
AcDbEntity
  8
DIM
 62
     4
370
     5
100
AcDbMText
 10
3586.358873027722
 20
753.2670023807088
 30
0.0
 40
2.6
 41
0.0
 46
0.0
 71
     5
 72
     1
  1
\A1;17.4
  7
Romans字体
 11
0.0000000000000001
 21
1.0
 31
0.0
 73
     1
 44
1.0
  0
POINT
  5
48536
330
48168
100
AcDbEntity
  8
Defpoints
 62
     0
100
AcDbPoint
 10
3574.513269859596
 20
744.567002379741
 30
0.0
  0
POINT
  5
48537
330
48168
100
AcDbEntity
  8
Defpoints
 62
     0
100
AcDbPoint
 10
3574.513269859155
 20
761.9670023816761
 30
0.0
  0
POINT
  5
48538
330
48168
100
AcDbEntity
  8
Defpoints
 62
     0
100
AcDbPoint
 10
3588.633873027722
 20
761.9670023816761
 30
0.0
  0
ENDBLK
  5
4816A
330
48168
100
AcDbEntity
  8
0
100
AcDbBlockEnd
  0
BLOCK
  5
4818A
330
48189
100
AcDbEntity
  8
0
100
AcDbBlockBegin
  2
*D5
 70
     1
 10
0.0
 20
0.0
 30
0.0
  3
*D5
  1

  0
LINE
  5
48539
330
48189
100
AcDbEntity
  8
DIM
 62
     6
370
     5
100
AcDbLine
 10
3516.662843407235
 20
785.7596425803412
 30
0.0
 11
3512.345954551552
 21
785.7596425803412
 31
0.0
  0
LINE
  5
4853A
330
48189
100
AcDbEntity
  8
DIM
 62
     6
370
     5
100
AcDbLine
 10
3517.276377491315
 20
792.7596425808214
 30
0.0
 11
3512.345954551552
 21
792.7596425808214
 31
0.0
  0
LINE
  5
4853B
330
48189
100
AcDbEntity
  8
DIM
 62
     1
370
     5
100
AcDbLine
 10
3512.995954551553
 20
787.3846425803413
 30
0.0
 11
3512.995954551553
 21
791.1346425808215
 31
0.0
  0
SOLID
  5
4853C
330
48189
100
AcDbEntity
  8
DIM
 62
     1
100
AcDbTrace
 10
3512.725121218219
 20
787.3846425803413
 30
0.0
 11
3513.266787884886
 21
787.3846425803413
 31
0.0
 12
3512.995954551553
 22
785.7596425803412
 32
0.0
 13
3512.995954551553
 23
785.7596425803412
 33
0.0
  0
SOLID
  5
4853D
330
48189
100
AcDbEntity
  8
DIM
 62
     1
100
AcDbTrace
 10
3512.725121218219
 20
791.1346425808215
 30
0.0
 11
3513.266787884886
 21
791.1346425808215
 31
0.0
 12
3512.995954551553
 22
792.7596425808214
 32
0.0
 13
3512.995954551553
 23
792.7596425808214
 33
0.0
  0
MTEXT
  5
4853E
330
48189
100
AcDbEntity
  8
DIM
 62
     4
370
     5
100
AcDbMText
 10
3510.720954551552
 20
789.2596425805813
 30
0.0
 40
2.6
 41
0.0
 46
0.0
 71
     5
 72
     1
  1
\A1;7
  7
Romans字体
 11
0.0000000000000001
 21
1.0
 31
0.0
 73
     1
 44
1.0
  0
POINT
  5
4853F
330
48189
100
AcDbEntity
  8
Defpoints
 62
     0
100
AcDbPoint
 10
3517.312843407236
 20
785.7596425803412
 30
0.0
  0
POINT
  5
48540
330
48189
100
AcDbEntity
  8
Defpoints
 62
     0
100
AcDbPoint
 10
3517.926377491316
 20
792.7596425808214
 30
0.0
  0
POINT
  5
48541
330
48189
100
AcDbEntity
  8
Defpoints
 62
     0
100
AcDbPoint
 10
3512.995954551553
 20
792.7596425808214
 30
0.0
  0
ENDBLK
  5
4818B
330
48189
100
AcDbEntity
  8
0
100
AcDbBlockEnd
  0
ENDSEC
  0
SECTION
  2
ENTITIES
  0
HATCH
  5
28AE
330
1F
100
AcDbEntity
  8
图层 1
 62
     7
100
AcDbHatch
 10
0.0
 20
0.0
 30
0.0
210
0.0
220
0.0
230
1.0
  2
SOLID
 70
     1
 71
     0
 91
        1
 92
        1
 93
        2
 72
     4
 94
        3
 73
     0
 74
     0
 95
       17
 96
       13
 40
0.0
 40
0.0
 40
0.0
 40
0.0
 40
0.3527780104152769
 40
0.3527780104152769
 40
0.3527780104152769
 40
0.7055560208305538
 40
0.7055560208305538
 40
0.7055560208305538
 40
1.058334031245828
 40
1.058334031245828
 40
1.058334031245828
 40
1.411112041661104
 40
1.411112041661104
 40
1.411112041661104
 40
1.411112041661104
 10
11.07013262565829
 20
29.50312817963231
 10
11.07013262565829
 20
29.50312817963231
 10
10.9431807732774
 20
29.50312817963231
 10
10.9431807732774
 20
29.50312817963231
 10
10.9431807732774
 20
29.50312817963231
 10
10.85843136843155
 20
29.22786486877117
 10
10.85843136843155
 20
29.22786486877117
 10
10.85843136843155
 20
29.22786486877117
 10
10.90080607085448
 20
29.2068497724476
 10
10.90080607085448
 20
29.2068497724476
 10
10.94455881238059
 20
29.31571486159919
 10
11.00346998404173
 20
29.40907701083995
 10
11.07013262565829
 20
29.50312817963231
 72
     1
 10
11.07013262565829
 20
29.50312817963231
 11
11.07013262565829
 21
29.50312817963231
 97
        0
 75
     0
 76
     1
 98
        0
450
        0
451
        0
460
0.0
461
0.0
452
        0
462
0.0
453
        0
470

  0
HATCH
  5
2C65
330
1F
100
AcDbEntity
  8
图层 1
 62
     7
100
AcDbHatch
 10
0.0
 20
0.0
 30
0.0
210
0.0
220
0.0
230
1.0
  2
SOLID
 70
     1
 71
     0
 91
        1
 92
        1
 93
        2
 72
     4
 94
        3
 73
     0
 74
     0
 95
       47
 96
       43
 40
0.0
 40
0.0
 40
0.0
 40
0.0
 40
0.3527780104152769
 40
0.3527780104152769
 40
0.3527780104152769
 40
0.7055560208305538
 40
0.7055560208305538
 40
0.7055560208305538
 40
1.058334031245828
 40
1.058334031245828
 40
1.058334031245828
 40
1.411112041661104
 40
1.411112041661104
 40
1.411112041661104
 40
1.763890052076384
 40
1.763890052076384
 40
1.763890052076384
 40
2.116668062491659
 40
2.116668062491659
 40
2.116668062491659
 40
2.469446072906936
 40
2.469446072906936
 40
2.469446072906936
 40
2.822224083322215
 40
2.822224083322215
 40
2.822224083322215
 40
3.175002093737492
 40
3.175002093737492
 40
3.175002093737492
 40
3.527780104152768
 40
3.527780104152768
 40
3.527780104152768
 40
3.880558114568044
 40
3.880558114568044
 40
3.880558114568044
 40
4.233336124983321
 40
4.233336124983321
 40
4.233336124983321
 40
4.586114135398599
 40
4.586114135398599
 40
4.586114135398599
 40
4.938892145813873
 40
4.938892145813873
 40
4.938892145813873
 40
4.938892145813873
 10
162.8986914070121
 20
257.4895347631509
 10
162.8986914070121
 20
257.4895347631509
 10
162.9200510131114
 20
257.4471600607279
 10
162.9200510131114
 20
257.4471600607279
 10
162.9200510131114
 20
257.4471600607279
 10
162.9200510131114
 20
257.404785358305
 10
162.9200510131114
 20
257.404785358305
 10
162.9200510131114
 20
257.404785358305
 10
162.8986914070121
 20
257.36258291077
 10
162.8986914070121
 20
257.36258291077
 10
162.8986914070121
 20
257.36258291077
 10
162.8986914070121
 20
257.320208208347
 10
162.8986914070121
 20
257.320208208347
 10
162.8986914070121
 20
257.320208208347
 10
162.8563167045891
 20
257.2990208571356
 10
162.8563167045891
 20
257.2990208571356
 10
162.8563167045891
 20
257.2990208571356
 10
162.8139420021662
 20
257.2563016449369
 10
162.8139420021662
 20
257.2563016449369
 10
162.8139420021662
 20
257.2563016449369
 10
162.7295371070961
 20
257.2563016449369
 10
162.7295371070961
 20
257.2563016449369
 10
162.7295371070961
 20
257.2563016449369
 10
162.6658027985738
 20
257.2778335059241
 10
162.6658027985738
 20
257.2778335059241
 10
162.6658027985738
 20
257.2778335059241
 10
162.6237726059267
 20
257.2990208571356
 10
162.6237726059267
 20
257.2990208571356
 10
162.6237726059267
 20
257.2990208571356
 10
162.5813979035038
 20
257.3413955595585
 10
162.5813979035038
 20
257.3413955595585
 10
162.5813979035038
 20
257.3413955595585
 10
162.5813979035038
 20
257.4895347631509
 10
162.5813979035038
 20
257.4895347631509
 10
162.5813979035038
 20
257.4895347631509
 10
162.6447877022503
 20
257.5525800521216
 10
162.6447877022503
 20
257.5525800521216
 10
162.6447877022503
 20
257.5525800521216
 10
162.7081775009967
 20
257.5525800521216
 10
162.7081775009967
 20
257.5525800521216
 10
162.8749202324821
 20
257.5424170137356
 10
162.7918933765152
 20
257.5939212252171
 10
162.8986914070121
 20
257.4895347631509
 72
     1
 10
162.8986914070121
 20
257.4895347631509
 11
162.8986914070121
 21
257.4895347631509
 97
        0
 75
     0
 76
     1
 98
        0
450
        0
451
        0
460
0.0
461
0.0
452
        0
462
0.0
453
        0
470

  0
HATCH
  5
2EE7
330
1F
100
AcDbEntity
  8
图层 1
 62
     7
100
AcDbHatch
 10
0.0
 20
0.0
 30
0.0
210
0.0
220
0.0
230
1.0
  2
SOLID
 70
     1
 71
     0
 91
        1
 92
        1
 93
        2
 72
     4
 94
        3
 73
     0
 74
     0
 95
       56
 96
       52
 40
0.0
 40
0.0
 40
0.0
 40
0.0
 40
0.3527780104152769
 40
0.3527780104152769
 40
0.3527780104152769
 40
0.7055560208305538
 40
0.7055560208305538
 40
0.7055560208305538
 40
1.058334031245828
 40
1.058334031245828
 40
1.058334031245828
 40
1.411112041661104
 40
1.411112041661104
 40
1.411112041661104
 40
1.763890052076384
 40
1.763890052076384
 40
1.763890052076384
 40
2.116668062491659
 40
2.116668062491659
 40
2.116668062491659
 40
2.469446072906936
 40
2.469446072906936
 40
2.469446072906936
 40
2.822224083322215
 40
2.822224083322215
 40
2.822224083322215
 40
3.175002093737492
 40
3.175002093737492
 40
3.175002093737492
 40
3.527780104152768
 40
3.527780104152768
 40
3.527780104152768
 40
3.880558114568044
 40
3.880558114568044
 40
3.880558114568044
 40
4.233336124983321
 40
4.233336124983321
 40
4.233336124983321
 40
4.586114135398599
 40
4.586114135398599
 40
4.586114135398599
 40
4.938892145813873
 40
4.938892145813873
 40
4.938892145813873
 40
5.291670156229153
 40
5.291670156229153
 40
5.291670156229153
 40
5.64444816664443
 40
5.64444816664443
 40
5.64444816664443
 40
5.997226177059705
 40
5.997226177059705
 40
5.997226177059705
 40
5.997226177059705
 10
185.4837187788815
 20
241.4451977396596
 10
185.4837187788815
 20
241.4451977396596
 10
185.4837187788815
 20
241.4028230372367
 10
185.4837187788815
 20
241.4028230372367
 10
185.4837187788815
 20
241.4028230372367
 10
185.5047338752051
 20
241.3604483348137
 10
185.5047338752051
 20
241.3604483348137
 10
185.4520238795082
 20
241.2782827532863
 10
185.4671823096433
 20
241.1897437409066
 10
185.335579575289
 20
241.2119646214456
 10
185.335579575289
 20
241.2119646214456
 10
185.2932048728662
 20
241.2119646214456
 10
185.2932048728662
 20
241.2119646214456
 10
185.2932048728662
 20
241.2119646214456
 10
185.2294705643439
 20
241.2334964824328
 10
185.2294705643439
 20
241.2334964824328
 10
185.2294705643439
 20
241.2334964824328
 10
185.1660807655974
 20
241.2543393238685
 10
185.1660807655974
 20
241.2543393238685
 10
185.1660807655974
 20
241.2543393238685
 10
185.1450656692739
 20
241.2758711848558
 10
185.1450656692739
 20
241.2758711848558
 10
185.1450656692739
 20
241.2758711848558
 10
185.1450656692739
 20
241.2967140262914
 10
185.1450656692739
 20
241.2967140262914
 10
185.1450656692739
 20
241.2967140262914
 10
185.1237060631745
 20
241.3604483348137
 10
185.1237060631745
 20
241.3604483348137
 10
185.1237060631745
 20
241.3604483348137
 10
185.1237060631745
 20
241.4028230372367
 10
185.1237060631745
 20
241.4028230372367
 10
185.1237060631745
 20
241.4028230372367
 10
185.1660807655974
 20
241.4875724420825
 10
185.1660807655974
 20
241.4875724420825
 10
185.1660807655974
 20
241.4875724420825
 10
185.2084554680203
 20
241.5085875384061
 10
185.2084554680203
 20
241.5085875384061
 10
185.2084554680203
 20
241.5085875384061
 10
185.2718452667668
 20
241.5297748896175
 10
185.2718452667668
 20
241.5297748896175
 10
185.2718452667668
 20
241.5297748896175
 10
185.3565946716127
 20
241.5297748896175
 10
185.3565946716127
 20
241.5297748896175
 10
185.3565946716127
 20
241.5297748896175
 10
185.4199844703592
 20
241.5085875384061
 10
185.4199844703592
 20
241.5085875384061
 10
185.4199844703592
 20
241.5085875384061
 10
185.4623591727821
 20
241.4875724420825
 10
185.4623591727821
 20
241.4875724420825
 10
185.4623591727821
 20
241.4875724420825
 10
185.4837187788815
 20
241.4451977396596
 10
185.4837187788815
 20
241.4451977396596
 72
     1
 10
185.4837187788815
 20
241.4451977396596
 11
185.4837187788815
 21
241.4451977396596
 97
        0
 75
     0
 76
     1
 98
        0
450
        0
451
        0
460
0.0
461
0.0
452
        0
462
0.0
453
        0
470

  0
HATCH
  5
2F93
330
1F
100
AcDbEntity
  8
图层 1
 62
     7
100
AcDbHatch
 10
0.0
 20
0.0
 30
0.0
210
0.0
220
0.0
230
1.0
  2
SOLID
 70
     1
 71
     0
 91
        1
 92
        1
 93
        2
 72
     4
 94
        3
 73
     0
 74
     0
 95
       38
 96
       34
 40
0.0
 40
0.0
 40
0.0
 40
0.0
 40
0.3527780104152769
 40
0.3527780104152769
 40
0.3527780104152769
 40
0.7055560208305538
 40
0.7055560208305538
 40
0.7055560208305538
 40
1.058334031245828
 40
1.058334031245828
 40
1.058334031245828
 40
1.411112041661104
 40
1.411112041661104
 40
1.411112041661104
 40
1.763890052076384
 40
1.763890052076384
 40
1.763890052076384
 40
2.116668062491659
 40
2.116668062491659
 40
2.116668062491659
 40
2.469446072906936
 40
2.469446072906936
 40
2.469446072906936
 40
2.822224083322215
 40
2.822224083322215
 40
2.822224083322215
 40
3.175002093737492
 40
3.175002093737492
 40
3.175002093737492
 40
3.527780104152768
 40
3.527780104152768
 40
3.527780104152768
 40
3.880558114568044
 40
3.880558114568044
 40
3.880558114568044
 40
3.880558114568044
 10
185.907121293335
 20
220.1937677098971
 10
185.9005756075949
 20
220.0449394867532
 10
185.9329595265197
 20
220.1136691870245
 10
185.864746590912
 20
219.9817219428946
 10
185.864746590912
 20
219.9817219428946
 10
185.822371888489
 20
219.9605345916831
 10
185.822371888489
 20
219.9605345916831
 10
185.822371888489
 20
219.9605345916831
 10
185.6528730787974
 20
219.9605345916831
 10
185.6528730787974
 20
219.9605345916831
 10
185.6528730787974
 20
219.9605345916831
 10
185.5894832800509
 20
220.002909294106
 10
185.5894832800509
 20
220.002909294106
 10
185.5894832800509
 20
220.002909294106
 10
185.5681236739515
 20
220.0240966453175
 10
185.5681236739515
 20
220.0240966453175
 10
185.5681236739515
 20
220.0240966453175
 10
185.5681236739515
 20
220.045283996529
 10
185.5681236739515
 20
220.045283996529
 10
185.5681236739515
 20
220.045283996529
 10
185.547108577628
 20
220.0876586989519
 10
185.547108577628
 20
220.0876586989519
 10
185.547108577628
 20
220.0876586989519
 10
185.547108577628
 20
220.1513930074742
 10
185.547108577628
 20
220.1513930074742
 10
185.547108577628
 20
220.1513930074742
 10
185.5894832800509
 20
220.23614241232
 10
185.5894832800509
 20
220.23614241232
 10
185.5894832800509
 20
220.23614241232
 10
185.6318579824738
 20
220.2573297635315
 10
185.6318579824738
 20
220.2573297635315
 10
185.7055830744942
 20
220.2566407439799
 10
185.8416644359337
 20
220.3310548555519
 10
185.907121293335
 20
220.1937677098971
 72
     1
 10
185.907121293335
 20
220.1937677098971
 11
185.907121293335
 21
220.1937677098971
 97
        0
 75
     0
 76
     1
 98
        0
450
        0
451
        0
460
0.0
461
0.0
452
        0
462
0.0
453
        0
470

  0
HATCH
  5
2FDE
330
1F
100
AcDbEntity
  8
图层 1
 62
     7
100
AcDbHatch
 10
0.0
 20
0.0
 30
0.0
210
0.0
220
0.0
230
1.0
  2
SOLID
 70
     1
 71
     0
 91
        1
 92
        1
 93
        2
 72
     4
 94
        3
 73
     0
 74
     0
 95
       50
 96
       46
 40
0.0
 40
0.0
 40
0.0
 40
0.0
 40
0.3527780104152769
 40
0.3527780104152769
 40
0.3527780104152769
 40
0.7055560208305538
 40
0.7055560208305538
 40
0.7055560208305538
 40
1.058334031245828
 40
1.058334031245828
 40
1.058334031245828
 40
1.411112041661104
 40
1.411112041661104
 40
1.411112041661104
 40
1.763890052076384
 40
1.763890052076384
 40
1.763890052076384
 40
2.116668062491659
 40
2.116668062491659
 40
2.116668062491659
 40
2.469446072906936
 40
2.469446072906936
 40
2.469446072906936
 40
2.822224083322215
 40
2.822224083322215
 40
2.822224083322215
 40
3.175002093737492
 40
3.175002093737492
 40
3.175002093737492
 40
3.527780104152768
 40
3.527780104152768
 40
3.527780104152768
 40
3.880558114568044
 40
3.880558114568044
 40
3.880558114568044
 40
4.233336124983321
 40
4.233336124983321
 40
4.233336124983321
 40
4.586114135398599
 40
4.586114135398599
 40
4.586114135398599
 40
4.938892145813873
 40
4.938892145813873
 40
4.938892145813873
 40
5.291670156229153
 40
5.291670156229153
 40
5.291670156229153
 40
5.291670156229153
 10
180.9117295442905
 20
208.9327766684477
 10
180.9117295442905
 20
208.9327766684477
 10
180.9117295442905
 20
208.7637946234197
 10
180.9117295442905
 20
208.7637946234197
 10
181.2273004989198
 20
208.6749111012643
 10
181.3833634273555
 20
208.6776671794706
 10
181.6948002646751
 20
208.5097186637701
 10
181.9542161258496
 20
208.4294478860095
 10
182.1388733656765
 20
208.2134402565853
 10
182.3297317814676
 20
208.02292635057
 10
182.3297317814676
 20
208.02292635057
 10
182.435496282637
 20
208.065301052993
 10
182.435496282637
 20
208.065301052993
 10
182.288390608372
 20
208.2733849575739
 10
182.3752070718726
 20
208.2134402565853
 10
182.1605774815516
 20
208.3824223016133
 10
182.1605774815516
 20
208.3824223016133
 10
182.1182027791287
 20
208.4247970040363
 10
182.1182027791287
 20
208.4247970040363
 10
182.1182027791287
 20
208.4247970040363
 10
182.0968431730294
 20
208.467516216235
 10
182.0968431730294
 20
208.467516216235
 10
182.0968431730294
 20
208.467516216235
 10
182.0544684706064
 20
208.4883590576707
 10
182.0544684706064
 20
208.4883590576707
 10
182.0544684706064
 20
208.4883590576707
 10
181.9910786718599
 20
208.5305615052057
 10
181.9910786718599
 20
208.5305615052057
 10
181.9910786718599
 20
208.5305615052057
 10
181.948703969437
 20
208.552093366193
 10
181.948703969437
 20
208.552093366193
 10
181.948703969437
 20
208.552093366193
 10
181.9063292670141
 20
208.5729362076286
 10
181.9063292670141
 20
208.5729362076286
 10
181.9063292670141
 20
208.5729362076286
 10
181.8639545645911
 20
208.6156554198274
 10
181.8639545645911
 20
208.6156554198274
 10
181.8639545645911
 20
208.6156554198274
 10
181.821924371944
 20
208.6368427710388
 10
181.821924371944
 20
208.6368427710388
 10
181.6637943848536
 20
208.6742220817127
 10
181.5452830219797
 20
208.8092699138248
 10
181.3771622513911
 20
208.8061693258427
 10
181.2803550043924
 20
208.8573290275484
 10
181.0126709085988
 20
208.8971199066528
 10
180.9117295442905
 20
208.9327766684477
 72
     1
 10
180.9117295442905
 20
208.9327766684477
 11
180.9117295442905
 21
208.9327766684477
 97
        0
 75
     0
 76
     1
 98
        0
450
        0
451
        0
460
0.0
461
0.0
452
        0
462
0.0
453
        0
470

  0
HATCH
  5
35C8
330
1F
100
AcDbEntity
  8
图层 1
 62
     7
100
AcDbHatch
 10
0.0
 20
0.0
 30
0.0
210
0.0
220
0.0
230
1.0
  2
SOLID
 70
     1
 71
     0
 91
        1
 92
        1
 93
        2
 72
     4
 94
        3
 73
     0
 74
     0
 95
       38
 96
       34
 40
0.0
 40
0.0
 40
0.0
 40
0.0
 40
0.3527780104152769
 40
0.3527780104152769
 40
0.3527780104152769
 40
0.7055560208305538
 40
0.7055560208305538
 40
0.7055560208305538
 40
1.058334031245828
 40
1.058334031245828
 40
1.058334031245828
 40
1.411112041661104
 40
1.411112041661104
 40
1.411112041661104
 40
1.763890052076384
 40
1.763890052076384
 40
1.763890052076384
 40
2.116668062491659
 40
2.116668062491659
 40
2.116668062491659
 40
2.469446072906936
 40
2.469446072906936
 40
2.469446072906936
 40
2.822224083322215
 40
2.822224083322215
 40
2.822224083322215
 40
3.175002093737492
 40
3.175002093737492
 40
3.175002093737492
 40
3.527780104152768
 40
3.527780104152768
 40
3.527780104152768
 40
3.880558114568044
 40
3.880558114568044
 40
3.880558114568044
 40
3.880558114568044
 10
189.145513185819
 20
166.8326485368285
 10
189.207869455238
 20
166.740492171803
 10
189.1317327947871
 20
166.6833035490209
 10
189.103138483396
 20
166.6209472796017
 10
189.103138483396
 20
166.6209472796017
 10
189.0607637809731
 20
166.5997599283903
 10
189.0607637809731
 20
166.5997599283903
 10
189.0607637809731
 20
166.5997599283903
 10
188.9973739822266
 20
166.5785725771788
 10
188.9973739822266
 20
166.5785725771788
 10
188.9973739822266
 20
166.5785725771788
 10
188.9549992798037
 20
166.5997599283903
 10
188.9549992798037
 20
166.5997599283903
 10
188.9549992798037
 20
166.5997599283903
 10
188.8916094810572
 20
166.5997599283903
 10
188.8916094810572
 20
166.5997599283903
 10
188.8916094810572
 20
166.5997599283903
 10
188.8492347786343
 20
166.6209472796017
 10
188.8492347786343
 20
166.6209472796017
 10
188.8492347786343
 20
166.6209472796017
 10
188.8278751725349
 20
166.6633219820247
 10
188.8278751725349
 20
166.6633219820247
 10
188.8278751725349
 20
166.6633219820247
 10
188.8068600762114
 20
166.6845093332361
 10
188.8068600762114
 20
166.6845093332361
 10
188.8068600762114
 20
166.6845093332361
 10
188.8068600762114
 20
166.8326485368285
 10
188.8068600762114
 20
166.8326485368285
 10
188.8068600762114
 20
166.8326485368285
 10
188.8702498749578
 20
166.896038335575
 10
188.8702498749578
 20
166.896038335575
 10
189.0228677056355
 20
166.8819134347673
 10
189.0686875058164
 20
166.9411691162043
 10
189.145513185819
 20
166.8326485368285
 72
     1
 10
189.145513185819
 20
166.8326485368285
 11
189.145513185819
 21
166.8326485368285
 97
        0
 75
     0
 76
     1
 98
        0
450
        0
451
        0
460
0.0
461
0.0
452
        0
462
0.0
453
        0
470

  0
HATCH
  5
35D8
330
1F
100
AcDbEntity
  8
图层 1
 62
     7
100
AcDbHatch
 10
0.0
 20
0.0
 30
0.0
210
0.0
220
0.0
230
1.0
  2
SOLID
 70
     1
 71
     0
 91
        1
 92
        1
 93
        2
 72
     4
 94
        3
 73
     0
 74
     0
 95
       68
 96
       64
 40
0.0
 40
0.0
 40
0.0
 40
0.0
 40
0.3527780104152769
 40
0.3527780104152769
 40
0.3527780104152769
 40
0.7055560208305538
 40
0.7055560208305538
 40
0.7055560208305538
 40
1.058334031245828
 40
1.058334031245828
 40
1.058334031245828
 40
1.411112041661104
 40
1.411112041661104
 40
1.411112041661104
 40
1.763890052076384
 40
1.763890052076384
 40
1.763890052076384
 40
2.116668062491659
 40
2.116668062491659
 40
2.116668062491659
 40
2.469446072906936
 40
2.469446072906936
 40
2.469446072906936
 40
2.822224083322215
 40
2.822224083322215
 40
2.822224083322215
 40
3.175002093737492
 40
3.175002093737492
 40
3.175002093737492
 40
3.527780104152768
 40
3.527780104152768
 40
3.527780104152768
 40
3.880558114568044
 40
3.880558114568044
 40
3.880558114568044
 40
4.233336124983321
 40
4.233336124983321
 40
4.233336124983321
 40
4.586114135398599
 40
4.586114135398599
 40
4.586114135398599
 40
4.938892145813873
 40
4.938892145813873
 40
4.938892145813873
 40
5.291670156229153
 40
5.291670156229153
 40
5.291670156229153
 40
5.64444816664443
 40
5.64444816664443
 40
5.64444816664443
 40
5.997226177059705
 40
5.997226177059705
 40
5.997226177059705
 40
6.350004187474984
 40
6.350004187474984
 40
6.350004187474984
 40
6.702782197890257
 40
6.702782197890257
 40
6.702782197890257
 40
7.055560208305537
 40
7.055560208305537
 40
7.055560208305537
 40
7.408338218720808
 40
7.408338218720808
 40
7.408338218720808
 40
7.408338218720808
 10
174.7732543591544
 20
135.4846705078077
 10
174.7732543591544
 20
135.4846705078077
 10
174.7732543591544
 20
135.3789060066383
 10
174.7732543591544
 20
135.3789060066383
 10
174.7732543591544
 20
135.3789060066383
 10
174.8156290615773
 20
135.3789060066383
 10
174.8156290615773
 20
135.3789060066383
 10
174.8156290615773
 20
135.3789060066383
 10
174.8580037640001
 20
135.3578909103147
 10
174.8580037640001
 20
135.3578909103147
 10
174.8580037640001
 20
135.3578909103147
 10
174.9213935627468
 20
135.3578909103147
 10
174.9213935627468
 20
135.3578909103147
 10
174.9213935627468
 20
135.3578909103147
 10
174.9637682651697
 20
135.3365313042154
 10
174.9637682651697
 20
135.3365313042154
 10
174.9637682651697
 20
135.3365313042154
 10
174.9847833614933
 20
135.3365313042154
 10
174.9847833614933
 20
135.3365313042154
 10
174.9847833614933
 20
135.3365313042154
 10
175.0271580639162
 20
135.3155162078918
 10
175.0271580639162
 20
135.3155162078918
 10
175.0271580639162
 20
135.3155162078918
 10
175.0485176700155
 20
135.2941566017924
 10
175.0485176700155
 20
135.2941566017924
 10
175.0485176700155
 20
135.2941566017924
 10
175.0695327663391
 20
135.2941566017924
 10
175.0695327663391
 20
135.2941566017924
 10
175.0695327663391
 20
135.2941566017924
 10
175.0908923724385
 20
135.2731415054689
 10
175.0908923724385
 20
135.2731415054689
 10
175.0908923724385
 20
135.2731415054689
 10
175.1332670748614
 20
135.2731415054689
 10
175.1332670748614
 20
135.2731415054689
 10
175.1332670748614
 20
135.2731415054689
 10
175.154282171185
 20
135.2517818993695
 10
175.154282171185
 20
135.2517818993695
 10
175.154282171185
 20
135.2517818993695
 10
175.154282171185
 20
135.3578909103147
 10
175.154282171185
 20
135.3578909103147
 10
175.154282171185
 20
135.3578909103147
 10
175.1332670748614
 20
135.3789060066383
 10
175.1332670748614
 20
135.3789060066383
 10
175.1332670748614
 20
135.3789060066383
 10
175.0908923724385
 20
135.3789060066383
 10
175.0908923724385
 20
135.3789060066383
 10
175.0908923724385
 20
135.3789060066383
 10
175.0908923724385
 20
135.3999211029619
 10
175.0908923724385
 20
135.3999211029619
 10
175.0908923724385
 20
135.3999211029619
 10
175.0695327663391
 20
135.3999211029619
 10
175.0695327663391
 20
135.3999211029619
 10
175.0695327663391
 20
135.3999211029619
 10
175.0271580639162
 20
135.4212807090612
 10
175.0271580639162
 20
135.4212807090612
 10
175.0271580639162
 20
135.4212807090612
 10
175.0061429675926
 20
135.4212807090612
 10
175.0061429675926
 20
135.4212807090612
 10
175.0061429675926
 20
135.4212807090612
 10
174.9637682651697
 20
135.4422958053848
 10
174.9637682651697
 20
135.4422958053848
 10
174.8996894468716
 20
135.4498750204523
 10
174.8394002361073
 20
135.4860485469109
 10
174.7732543591544
 20
135.4846705078077
 72
     1
 10
174.7732543591544
 20
135.4846705078077
 11
174.7732543591544
 21
135.4846705078077
 97
        0
 75
     0
 76
     1
 98
        0
450
        0
451
        0
460
0.0
461
0.0
452
        0
462
0.0
453
        0
470

  0
HATCH
  5
3807
330
1F
100
AcDbEntity
  8
图层 1
 62
     7
100
AcDbHatch
 10
0.0
 20
0.0
 30
0.0
210
0.0
220
0.0
230
1.0
  2
SOLID
 70
     1
 71
     0
 91
        1
 92
        1
 93
        2
 72
     4
 94
        3
 73
     0
 74
     0
 95
       29
 96
       25
 40
0.0
 40
0.0
 40
0.0
 40
0.0
 40
0.3527780104152769
 40
0.3527780104152769
 40
0.3527780104152769
 40
0.7055560208305538
 40
0.7055560208305538
 40
0.7055560208305538
 40
1.058334031245828
 40
1.058334031245828
 40
1.058334031245828
 40
1.411112041661104
 40
1.411112041661104
 40
1.411112041661104
 40
1.763890052076384
 40
1.763890052076384
 40
1.763890052076384
 40
2.116668062491659
 40
2.116668062491659
 40
2.116668062491659
 40
2.469446072906936
 40
2.469446072906936
 40
2.469446072906936
 40
2.822224083322215
 40
2.822224083322215
 40
2.822224083322215
 40
2.822224083322215
 10
175.4929352807925
 20
164.0174869039101
 10
175.4929352807925
 20
164.0174869039101
 10
175.5139503771161
 20
163.9751122014871
 10
175.5139503771161
 20
163.9751122014871
 10
175.5139503771161
 20
163.9751122014871
 10
175.5139503771161
 20
163.9327374990642
 10
175.5139503771161
 20
163.9327374990642
 10
175.5139503771161
 20
163.9327374990642
 10
175.4929352807925
 20
163.8903627966413
 10
175.4929352807925
 20
163.8903627966413
 10
175.4929352807925
 20
163.8903627966413
 10
175.471920184469
 20
163.8691754454296
 10
175.471920184469
 20
163.8691754454296
 10
175.471920184469
 20
163.8691754454296
 10
175.4505605783696
 20
163.8269729978948
 10
175.4505605783696
 20
163.8269729978948
 10
175.3571984291289
 20
163.7715069239916
 10
175.272449024283
 20
163.8195660377152
 10
175.1966568736079
 20
163.8691754454296
 10
175.208370205985
 20
163.9930267098286
 10
175.1563492298397
 20
164.0216210212197
 10
175.2600466723544
 20
164.0596893514451
 10
175.3330827448232
 20
164.1094710140476
 10
175.4357466580104
 20
164.0753645462439
 10
175.4929352807925
 20
164.0174869039101
 72
     1
 10
175.4929352807925
 20
164.0174869039101
 11
175.4929352807925
 21
164.0174869039101
 97
        0
 75
     0
 76
     1
 98
        0
450
        0
451
        0
460
0.0
461
0.0
452
        0
462
0.0
453
        0
470

  0
HATCH
  5
3895
330
1F
100
AcDbEntity
  8
图层 1
 62
     7
100
AcDbHatch
 10
0.0
 20
0.0
 30
0.0
210
0.0
220
0.0
230
1.0
  2
SOLID
 70
     1
 71
     0
 91
        1
 92
        1
 93
        2
 72
     4
 94
        3
 73
     0
 74
     0
 95
       11
 96
        7
 40
0.0
 40
0.0
 40
0.0
 40
0.0
 40
0.3527780104152769
 40
0.3527780104152769
 40
0.3527780104152769
 40
0.7055560208305538
 40
0.7055560208305538
 40
0.7055560208305538
 40
0.7055560208305538
 10
174.9213935627468
 20
174.5369206529582
 10
174.9213935627468
 20
174.5369206529582
 10
174.9213935627468
 20
174.3043765542958
 10
174.9213935627468
 20
174.3043765542958
 10
174.9213935627468
 20
174.3043765542958
 10
174.9213935627468
 20
174.5369206529582
 10
174.9213935627468
 20
174.5369206529582
 72
     1
 10
174.9213935627468
 20
174.5369206529582
 11
174.9213935627468
 21
174.5369206529582
 97
        0
 75
     0
 76
     1
 98
        0
450
        0
451
        0
460
0.0
461
0.0
452
        0
462
0.0
453
        0
470

  0
HATCH
  5
3943
330
1F
100
AcDbEntity
  8
图层 1
 62
     7
100
AcDbHatch
 10
0.0
 20
0.0
 30
0.0
210
0.0
220
0.0
230
1.0
  2
SOLID
 70
     1
 71
     0
 91
        1
 92
        1
 93
        2
 72
     4
 94
        3
 73
     0
 74
     0
 95
      131
 96
      127
 40
0.0
 40
0.0
 40
0.0
 40
0.0
 40
0.3527780104152769
 40
0.3527780104152769
 40
0.3527780104152769
 40
0.7055560208305538
 40
0.7055560208305538
 40
0.7055560208305538
 40
1.058334031245828
 40
1.058334031245828
 40
1.058334031245828
 40
1.411112041661104
 40
1.411112041661104
 40
1.411112041661104
 40
1.763890052076384
 40
1.763890052076384
 40
1.763890052076384
 40
2.116668062491659
 40
2.116668062491659
 40
2.116668062491659
 40
2.469446072906936
 40
2.469446072906936
 40
2.469446072906936
 40
2.822224083322215
 40
2.822224083322215
 40
2.822224083322215
 40
3.175002093737492
 40
3.175002093737492
 40
3.175002093737492
 40
3.527780104152768
 40
3.527780104152768
 40
3.527780104152768
 40
3.880558114568044
 40
3.880558114568044
 40
3.880558114568044
 40
4.233336124983321
 40
4.233336124983321
 40
4.233336124983321
 40
4.586114135398599
 40
4.586114135398599
 40
4.586114135398599
 40
4.938892145813873
 40
4.938892145813873
 40
4.938892145813873
 40
5.291670156229153
 40
5.291670156229153
 40
5.291670156229153
 40
5.64444816664443
 40
5.64444816664443
 40
5.64444816664443
 40
5.997226177059705
 40
5.997226177059705
 40
5.997226177059705
 40
6.350004187474984
 40
6.350004187474984
 40
6.350004187474984
 40
6.702782197890257
 40
6.702782197890257
 40
6.702782197890257
 40
7.055560208305537
 40
7.055560208305537
 40
7.055560208305537
 40
7.408338218720808
 40
7.408338218720808
 40
7.408338218720808
 40
7.76111622913609
 40
7.76111622913609
 40
7.76111622913609
 40
8.113894239551369
 40
8.113894239551369
 40
8.113894239551369
 40
8.466672249966642
 40
8.466672249966642
 40
8.466672249966642
 40
8.819450260381922
 40
8.819450260381922
 40
8.819450260381922
 40
9.172228270797198
 40
9.172228270797198
 40
9.172228270797198
 40
9.525006281212476
 40
9.525006281212476
 40
9.525006281212476
 40
9.877784291627751
 40
9.877784291627751
 40
9.877784291627751
 40
10.23056230204303
 40
10.23056230204303
 40
10.23056230204303
 40
10.58334031245831
 40
10.58334031245831
 40
10.58334031245831
 40
10.93611832287358
 40
10.93611832287358
 40
10.93611832287358
 40
11.28889633328886
 40
11.28889633328886
 40
11.28889633328886
 40
11.64167434370414
 40
11.64167434370414
 40
11.64167434370414
 40
11.99445235411941
 40
11.99445235411941
 40
11.99445235411941
 40
12.34723036453469
 40
12.34723036453469
 40
12.34723036453469
 40
12.70000837494997
 40
12.70000837494997
 40
12.70000837494997
 40
13.05278638536524
 40
13.05278638536524
 40
13.05278638536524
 40
13.40556439578052
 40
13.40556439578052
 40
13.40556439578052
 40
13.7583424061958
 40
13.7583424061958
 40
13.7583424061958
 40
14.11112041661107
 40
14.11112041661107
 40
14.11112041661107
 40
14.46389842702635
 40
14.46389842702635
 40
14.46389842702635
 40
14.81667643744163
 40
14.81667643744163
 40
14.81667643744163
 40
14.81667643744163
 10
173.3972823146245
 20
126.8274843518258
 10
173.3972823146245
 20
126.8274843518258
 10
173.3972823146245
 20
126.7217198506564
 10
173.3972823146245
 20
126.7217198506564
 10
173.3972823146245
 20
126.7217198506564
 10
173.4186419207238
 20
126.7217198506564
 10
173.4186419207238
 20
126.7217198506564
 10
173.4186419207238
 20
126.7217198506564
 10
173.4820317194703
 20
126.7007047543328
 10
173.4820317194703
 20
126.7007047543328
 10
173.4820317194703
 20
126.7007047543328
 10
173.5244064218933
 20
126.6793451482334
 10
173.5244064218933
 20
126.6793451482334
 10
173.5244064218933
 20
126.6793451482334
 10
173.5877962206398
 20
126.6793451482334
 10
173.5877962206398
 20
126.6793451482334
 10
173.5877962206398
 20
126.6793451482334
 10
173.6301709230627
 20
126.6583300519099
 10
173.6301709230627
 20
126.6583300519099
 10
173.7955356154449
 20
126.5911506456296
 10
173.759706598762
 20
126.6380039751379
 10
173.9478089363468
 20
126.5525655507404
 10
173.9478089363468
 20
126.5525655507404
 10
173.9688240326703
 20
126.4464565397952
 10
173.9688240326703
 20
126.4464565397952
 10
173.9688240326703
 20
126.4464565397952
 10
174.0325583411926
 20
126.5101908483175
 10
174.0325583411926
 20
126.5101908483175
 10
174.0325583411926
 20
126.5101908483175
 10
174.0749330436156
 20
126.5101908483175
 10
174.0749330436156
 20
126.5101908483175
 10
174.0749330436156
 20
126.5101908483175
 10
174.1593379386856
 20
126.4678161458946
 10
174.1593379386856
 20
126.4678161458946
 10
174.1593379386856
 20
126.4678161458946
 10
174.180697544785
 20
126.4464565397952
 10
174.180697544785
 20
126.4464565397952
 10
174.2464989119621
 20
126.3982251711837
 10
174.3298702777047
 20
126.3716979184474
 10
174.3922265471239
 20
126.3196769423022
 10
174.608234176548
 20
126.2059887162895
 10
174.7749769080334
 20
126.0278771622029
 10
174.9637682651697
 20
125.8749148217494
 10
174.9637682651697
 20
125.8749148217494
 10
175.0061429675926
 20
125.9172895241723
 10
175.0061429675926
 20
125.9172895241723
 10
174.961356696739
 20
125.9631093243532
 10
174.782211613325
 20
126.1246844092016
 10
174.7308796567315
 20
126.1501781326105
 10
174.7308796567315
 20
126.1501781326105
 10
174.6885049543085
 20
126.1925528350335
 10
174.6885049543085
 20
126.1925528350335
 10
174.6885049543085
 20
126.1925528350335
 10
174.667489857985
 20
126.2349275374564
 10
174.667489857985
 20
126.2349275374564
 10
174.667489857985
 20
126.2349275374564
 10
174.625115155562
 20
126.2559426337799
 10
174.625115155562
 20
126.2559426337799
 10
174.625115155562
 20
126.2559426337799
 10
174.5827404531391
 20
126.2983173362029
 10
174.5827404531391
 20
126.2983173362029
 10
174.5827404531391
 20
126.2983173362029
 10
174.5403657507162
 20
126.3196769423022
 10
174.5403657507162
 20
126.3196769423022
 10
174.5403657507162
 20
126.3196769423022
 10
174.4979910482932
 20
126.3620516447252
 10
174.4979910482932
 20
126.3620516447252
 10
174.4735308542117
 20
126.3875453681341
 10
174.3247026310678
 20
126.4695386947736
 10
174.2864620459544
 20
126.4888312422181
 10
174.2864620459544
 20
126.4888312422181
 10
174.2654469496308
 20
126.5101908483175
 10
174.2654469496308
 20
126.5101908483175
 10
174.2654469496308
 20
126.5101908483175
 10
174.2230722472079
 20
126.5312059446411
 10
174.2230722472079
 20
126.5312059446411
 10
174.2230722472079
 20
126.5312059446411
 10
174.2017126411085
 20
126.5525655507404
 10
174.2017126411085
 20
126.5525655507404
 10
174.2017126411085
 20
126.5525655507404
 10
174.1383228423621
 20
126.573580647064
 10
174.1383228423621
 20
126.573580647064
 10
174.1383228423621
 20
126.573580647064
 10
174.1169632362627
 20
126.5945957433876
 10
174.1169632362627
 20
126.5945957433876
 10
174.1169632362627
 20
126.5945957433876
 10
174.0959481399391
 20
126.7007047543328
 10
174.0959481399391
 20
126.7007047543328
 10
174.0959481399391
 20
126.7007047543328
 10
174.0325583411926
 20
126.6369704458105
 10
174.0325583411926
 20
126.6369704458105
 10
174.0325583411926
 20
126.6369704458105
 10
173.9901836387697
 20
126.6369704458105
 10
173.9901836387697
 20
126.6369704458105
 10
173.9901836387697
 20
126.6369704458105
 10
173.9054342339239
 20
126.6793451482334
 10
173.9054342339239
 20
126.6793451482334
 10
173.9054342339239
 20
126.6793451482334
 10
173.8420444351773
 20
126.7007047543328
 10
173.8420444351773
 20
126.7007047543328
 10
173.8420444351773
 20
126.7007047543328
 10
173.7996697327544
 20
126.7217198506564
 10
173.7996697327544
 20
126.7217198506564
 10
173.7996697327544
 20
126.7217198506564
 10
173.7572950303315
 20
126.7217198506564
 10
173.7572950303315
 20
126.7217198506564
 10
173.7572950303315
 20
126.7217198506564
 10
173.6725456254856
 20
126.7640945530793
 10
173.6725456254856
 20
126.7640945530793
 10
173.6725456254856
 20
126.7640945530793
 10
173.6515305291621
 20
126.7640945530793
 10
173.6515305291621
 20
126.7640945530793
 10
173.6515305291621
 20
126.7640945530793
 10
173.5667811243162
 20
126.7851096494029
 10
173.5667811243162
 20
126.7851096494029
 10
173.5667811243162
 20
126.7851096494029
 10
173.5033913255697
 20
126.8064692555022
 10
173.5033913255697
 20
126.8064692555022
 10
173.5033913255697
 20
126.8064692555022
 10
173.4396570170474
 20
126.8064692555022
 10
173.4396570170474
 20
126.8064692555022
 10
173.4396570170474
 20
126.8064692555022
 10
173.4186419207238
 20
126.8274843518258
 10
173.4186419207238
 20
126.8274843518258
 10
173.4186419207238
 20
126.8274843518258
 10
173.3972823146245
 20
126.8274843518258
 10
173.3972823146245
 20
126.8274843518258
 72
     1
 10
173.3972823146245
 20
126.8274843518258
 11
173.3972823146245
 21
126.8274843518258
 97
        0
 75
     0
 76
     1
 98
        0
450
        0
451
        0
460
0.0
461
0.0
452
        0
462
0.0
453
        0
470

  0
HATCH
  5
4842
330
1F
100
AcDbEntity
  8
图层 1
 62
     7
100
AcDbHatch
 10
0.0
 20
0.0
 30
0.0
210
0.0
220
0.0
230
1.0
  2
SOLID
 70
     1
 71
     0
 91
        1
 92
        1
 93
        2
 72
     4
 94
        3
 73
     0
 74
     0
 95
       47
 96
       43
 40
0.0
 40
0.0
 40
0.0
 40
0.0
 40
0.3527780104152769
 40
0.3527780104152769
 40
0.3527780104152769
 40
0.7055560208305538
 40
0.7055560208305538
 40
0.7055560208305538
 40
1.058334031245828
 40
1.058334031245828
 40
1.058334031245828
 40
1.411112041661104
 40
1.411112041661104
 40
1.411112041661104
 40
1.763890052076384
 40
1.763890052076384
 40
1.763890052076384
 40
2.116668062491659
 40
2.116668062491659
 40
2.116668062491659
 40
2.469446072906936
 40
2.469446072906936
 40
2.469446072906936
 40
2.822224083322215
 40
2.822224083322215
 40
2.822224083322215
 40
3.175002093737492
 40
3.175002093737492
 40
3.175002093737492
 40
3.527780104152768
 40
3.527780104152768
 40
3.527780104152768
 40
3.880558114568044
 40
3.880558114568044
 40
3.880558114568044
 40
4.233336124983321
 40
4.233336124983321
 40
4.233336124983321
 40
4.586114135398599
 40
4.586114135398599
 40
4.586114135398599
 40
4.938892145813873
 40
4.938892145813873
 40
4.938892145813873
 40
4.938892145813873
 10
180.1920486226523
 20
255.6479577566324
 10
180.1920486226523
 20
255.6479577566324
 10
180.2130637189759
 20
255.6055830542095
 10
180.2130637189759
 20
255.6055830542095
 10
180.2130637189759
 20
255.6055830542095
 10
180.2130637189759
 20
255.5210059042515
 10
180.2130637189759
 20
255.5210059042515
 10
180.2130637189759
 20
255.5210059042515
 10
180.1920486226523
 20
255.4786312018286
 10
180.1920486226523
 20
255.4786312018286
 10
180.1920486226523
 20
255.4786312018286
 10
180.1496739202294
 20
255.4359119896299
 10
180.1496739202294
 20
255.4359119896299
 10
180.1496739202294
 20
255.4359119896299
 10
180.1283143141301
 20
255.4147246384184
 10
180.1283143141301
 20
255.4147246384184
 10
180.1283143141301
 20
255.4147246384184
 10
180.0225498129606
 20
255.4147246384184
 10
180.0225498129606
 20
255.4147246384184
 10
180.0225498129606
 20
255.4147246384184
 10
179.9591600142141
 20
255.4359119896299
 10
179.9591600142141
 20
255.4359119896299
 10
179.9591600142141
 20
255.4359119896299
 10
179.9167853117912
 20
255.4570993408414
 10
179.9167853117912
 20
255.4570993408414
 10
179.9167853117912
 20
255.4570993408414
 10
179.8957702154676
 20
255.4786312018286
 10
179.8957702154676
 20
255.4786312018286
 10
179.8957702154676
 20
255.4786312018286
 10
179.8744106093683
 20
255.4994740432643
 10
179.8744106093683
 20
255.4994740432643
 10
179.8744106093683
 20
255.4994740432643
 10
179.8744106093683
 20
255.6479577566324
 10
179.8744106093683
 20
255.6479577566324
 10
179.9608825630931
 20
255.7323626517025
 10
180.045631967939
 20
255.7085914771726
 10
180.1496739202294
 20
255.7115198102668
 10
180.1496739202294
 20
255.7115198102668
 10
180.170689016553
 20
255.6688005980681
 10
180.170689016553
 20
255.6688005980681
 10
180.170689016553
 20
255.6688005980681
 10
180.1920486226523
 20
255.6479577566324
 10
180.1920486226523
 20
255.6479577566324
 72
     1
 10
180.1920486226523
 20
255.6479577566324
 11
180.1920486226523
 21
255.6479577566324
 97
        0
 75
     0
 76
     1
 98
        0
450
        0
451
        0
460
0.0
461
0.0
452
        0
462
0.0
453
        0
470

  0
MTEXT
  5
46088
330
1F
100
AcDbEntity
  8
图框
 62
     3
100
AcDbMText
 10
3663.812116854381
 20
694.9001313231457
 30
0.0
 40
2.38841086002732
 41
26.8899135939371
 46
6.949396404548693
 71
     5
 72
     5
  1
DS-044-CV/C
  7
Romans字体
 73
     1
 44
1.0
1001
ACAD
1000
ACAD_MTEXT_DEFINED_HEIGHT_BEGIN
1070
    46
1040
8.686745505685866
1000
ACAD_MTEXT_DEFINED_HEIGHT_END
  0
MTEXT
  5
46089
330
1F
100
AcDbEntity
  8
图框
 62
     3
100
AcDbMText
 10
3663.812116854381
 20
687.8765709016849
 30
0.0
 40
2.38841086002732
 41
26.8899135939371
 46
7.097724438372885
 71
     5
 72
     5
  1
1375000009001
  7
Romans字体
 73
     1
 44
1.0
1001
ACAD
1000
ACAD_MTEXT_DEFINED_HEIGHT_BEGIN
1070
    46
1040
8.872155547966105
1000
ACAD_MTEXT_DEFINED_HEIGHT_END
  0
MTEXT
  5
4608A
330
1F
100
AcDbEntity
  8
图框
 62
     3
100
AcDbMText
 10
3609.369184909913
 20
677.2304628386889
 30
0.0
 40
2.38841086002732
 41
8.663478747512376
 46
6.308875680968397
 71
     5
 72
     5
  1
1:1 
  7
Romans字体
 73
     1
 44
1.0
1001
ACAD
1000
ACAD_MTEXT_DEFINED_HEIGHT_BEGIN
1070
    46
1040
7.886094601210496
1000
ACAD_MTEXT_DEFINED_HEIGHT_END
  0
MTEXT
  5
4608B
330
1F
100
AcDbEntity
  8
图框
 62
     3
100
AcDbMText
 10
3618.032663657425
 20
677.2304628386889
 30
0.0
 40
2.38841086002732
 41
8.663478747513009
 46
6.308875680968367
 71
     5
 72
     5
  1
V1.0 
  7
Romans字体
 73
     1
 44
1.0
1001
ACAD
1000
ACAD_MTEXT_DEFINED_HEIGHT_BEGIN
1070
    46
1040
7.886094601210459
1000
ACAD_MTEXT_DEFINED_HEIGHT_END
  0
MTEXT
  5
4608C
330
1F
100
AcDbEntity
  8
图框
 62
     3
100
AcDbMText
 10
3626.696142404938
 20
677.2304628386889
 30
0.0
 40
2.38841086002732
 41
8.663478747513737
 46
6.308875680968322
 71
     5
 72
     5
  1
2.5g
  7
Romans字体
 73
     1
 44
1.0
1001
ACAD
1000
ACAD_MTEXT_DEFINED_HEIGHT_BEGIN
1070
    46
1040
7.886094601210402
1000
ACAD_MTEXT_DEFINED_HEIGHT_END
  0
INSERT
  5
4608F
330
1F
100
AcDbEntity
  8
DIM
100
AcDbBlockReference
  2
A4图框-NEW
 10
2775.714271563059
 20
280.5570693192201
 30
0.0
 41
0.7999999999999546
 42
0.8000000000000113
 43
0.8
  0
MTEXT
  5
47391
330
1F
100
AcDbEntity
  8
图框
 62
     3
100
AcDbMText
 10
3549.520623980052
 20
680.1544422926779
 30
0.0
 40
2.201159448601177
 41
7.984262013707405
 46
5.814259827580475
 71
     5
 72
     5
  1
XL SU
  7
Romans字体
 73
     1
 44
1.0
1001
ACAD
1000
ACAD_MTEXT_DEFINED_HEIGHT_BEGIN
1070
    46
1040
11.82914190181574
1000
ACAD_MTEXT_DEFINED_HEIGHT_END
  0
MTEXT
  5
47392
330
1F
100
AcDbEntity
  8
图框
 62
     3
100
AcDbMText
 10
3549.455528619436
 20
675.304054693169
 30
0.0
 40
2.201159448601177
 41
10.32929526424343
 46
5.814259827580475
 71
     5
 72
     5
  1
HZ LAN
  7
Romans字体
 73
     1
 44
1.0
1001
ACAD
1000
ACAD_MTEXT_DEFINED_HEIGHT_BEGIN
1070
    46
1040
11.82914190181574
1000
ACAD_MTEXT_DEFINED_HEIGHT_END
  0
MTEXT
  5
47D1F
330
1F
100
AcDbEntity
  8
图框
 62
     3
100
AcDbMText
 10
3561.992489578442
 20
680.1544422926779
 30
0.0
 40
1.76
 41
7.984262013707405
 46
5.814259827580475
 71
     5
 72
     5
  1
04.03.2020
  7
Romans字体
 73
     1
 44
1.0
1001
ACAD
1000
ACAD_MTEXT_DEFINED_HEIGHT_BEGIN
1070
    46
1040
11.82914190181574
1000
ACAD_MTEXT_DEFINED_HEIGHT_END
  0
MTEXT
  5
47D21
330
1F
100
AcDbEntity
  8
图框
 62
     3
100
AcDbMText
 10
3561.992489578442
 20
675.5041544065548
 30
0.0
 40
1.76
 41
7.984262013707405
 46
5.814259827580475
 71
     5
 72
     5
  1
04.03.2020
  7
Romans字体
 73
     1
 44
1.0
1001
ACAD
1000
ACAD_MTEXT_DEFINED_HEIGHT_BEGIN
1070
    46
1040
11.82914190181574
1000
ACAD_MTEXT_DEFINED_HEIGHT_END
  0
LINE
  5
47FE7
330
1F
100
AcDbEntity
  8
0
  6
ByBlock
370
    15
100
AcDbLine
 10
3517.312843407236
 20
759.167428832881
 30
0.0
 11
3517.312843407236
 21
747.3665759271412
 31
0.0
  0
LINE
  5
47FE8
330
1F
100
AcDbEntity
  8
0
  6
ByBlock
370
    15
100
AcDbLine
 10
3517.426453644835
 20
759.0538185952811
 30
0.0
 11
3517.426453644835
 21
747.4801861647411
 31
0.0
  0
LINE
  5
47FE9
330
1F
100
AcDbEntity
  8
0
  6
ByBlock
370
    15
100
AcDbLine
 10
3517.926377491316
 20
759.0538185952811
 30
0.0
 11
3517.926377491316
 21
747.4801861647411
 31
0.0
  0
LINE
  5
47FEA
330
1F
100
AcDbEntity
  8
0
  6
ByBlock
370
    15
100
AcDbLine
 10
3520.226027192235
 20
745.1805364663609
 30
0.0
 11
3520.226027192235
 21
744.680612619881
 31
0.0
  0
LINE
  5
47FEB
330
1F
100
AcDbEntity
  8
0
  6
ByBlock
370
    15
100
AcDbLine
 10
3520.226027192235
 20
761.353468293661
 30
0.0
 11
3520.226027192235
 21
761.853392142681
 31
0.0
  0
LINE
  5
47FEC
330
1F
100
AcDbEntity
  8
0
  6
ByBlock
370
    15
100
AcDbLine
 10
3517.426453644835
 20
747.4801861647411
 30
0.0
 11
3517.312843407236
 21
747.3665759271412
 31
0.0
  0
LINE
  5
47FED
330
1F
100
AcDbEntity
  8
0
  6
ByBlock
370
    15
100
AcDbLine
 10
3517.426453644835
 20
759.0538185952811
 30
0.0
 11
3517.312843407236
 21
759.167428832881
 31
0.0
  0
LINE
  5
47FEE
330
1F
100
AcDbEntity
  8
0
  6
ByBlock
370
    15
100
AcDbLine
 10
3520.226027192235
 20
744.680612619881
 30
0.0
 11
3520.112416952095
 21
744.567002379741
 31
0.0
  0
LINE
  5
47FEF
330
1F
100
AcDbEntity
  8
0
  6
ByBlock
370
    15
100
AcDbLine
 10
3520.226027192235
 20
761.853392142681
 30
0.0
 11
3520.112416952095
 21
761.9670023802812
 31
0.0
  0
LINE
  5
47FF0
330
1F
100
AcDbEntity
  8
0
  6
ByBlock
370
    15
100
AcDbLine
 10
3520.112416952095
 20
744.567002379741
 30
0.0
 11
3544.662843406135
 21
744.567002379741
 31
0.0
  0
LINE
  5
47FF1
330
1F
100
AcDbEntity
  8
0
  6
ByBlock
370
    15
100
AcDbLine
 10
3549.962843405555
 20
744.567002379741
 30
0.0
 11
3574.513269859596
 21
744.567002379741
 31
0.0
  0
LINE
  5
47FF2
330
1F
100
AcDbEntity
  8
0
  6
ByBlock
370
    15
100
AcDbLine
 10
3520.226027192235
 20
744.680612619881
 30
0.0
 11
3574.399659621996
 21
744.680612619881
 31
0.0
  0
LINE
  5
47FF3
330
1F
100
AcDbEntity
  8
0
  6
ByBlock
370
    15
100
AcDbLine
 10
3520.226027192235
 20
745.1805364663609
 30
0.0
 11
3574.399659621996
 21
745.1805364663609
 31
0.0
  0
LINE
  5
47FF4
330
1F
100
AcDbEntity
  8
0
  6
ByBlock
370
    15
100
AcDbLine
 10
3517.926377491316
 20
747.4801861647411
 30
0.0
 11
3517.426453644835
 21
747.4801861647411
 31
0.0
  0
LINE
  5
47FF5
330
1F
100
AcDbEntity
  8
0
  6
ByBlock
370
    15
100
AcDbLine
 10
3576.699309320375
 20
747.4801861647411
 30
0.0
 11
3577.199233166856
 21
747.4801861647411
 31
0.0
  0
LINE
  5
47FF6
330
1F
100
AcDbEntity
  8
0
  6
ByBlock
370
    15
100
AcDbLine
 10
3560.512843405336
 20
748.567002380741
 30
0.0
 11
3572.512843405795
 21
748.567002380741
 31
0.0
  0
LINE
  5
47FF7
330
1F
100
AcDbEntity
  8
0
  6
ByBlock
370
    15
100
AcDbLine
 10
3561.419271762655
 20
749.3670023809411
 30
0.0
 11
3561.880641446975
 21
749.3670023809411
 31
0.0
  0
LINE
  5
47FF8
330
1F
100
AcDbEntity
  8
0
  6
ByBlock
370
    15
100
AcDbLine
 10
3563.532717868496
 20
749.3670023809411
 30
0.0
 11
3563.968455767656
 21
749.3670023809411
 31
0.0
  0
LINE
  5
47FF9
330
1F
100
AcDbEntity
  8
0
  6
ByBlock
370
    15
100
AcDbLine
 10
3564.951779135016
 20
749.3670023809411
 30
0.0
 11
3565.431790082536
 21
749.3670023809411
 31
0.0
  0
LINE
  5
47FFA
330
1F
100
AcDbEntity
  8
0
  6
ByBlock
370
    15
100
AcDbLine
 10
3567.633782074275
 20
749.3670023809411
 30
0.0
 11
3568.148745436015
 21
749.3670023809411
 31
0.0
  0
LINE
  5
47FFB
330
1F
100
AcDbEntity
  8
0
  6
ByBlock
370
    15
100
AcDbLine
 10
3568.586813648015
 20
749.3670023809411
 30
0.0
 11
3569.038862500075
 21
749.3670023809411
 31
0.0
  0
LINE
  5
47FFC
330
1F
100
AcDbEntity
  8
0
  6
ByBlock
370
    15
100
AcDbLine
 10
3569.831113447956
 20
749.3670023809411
 30
0.0
 11
3570.264521445756
 21
749.3670023809411
 31
0.0
  0
LINE
  5
47FFD
330
1F
100
AcDbEntity
  8
0
  6
ByBlock
370
    15
100
AcDbLine
 10
3572.058737024195
 20
749.3670023809411
 30
0.0
 11
3572.522437222016
 21
749.3670023809411
 31
0.0
  0
LINE
  5
47FFE
330
1F
100
AcDbEntity
  8
0
  6
ByBlock
370
    15
100
AcDbLine
 10
3565.806944188715
 20
750.2150242104209
 30
0.0
 11
3567.235326493236
 21
750.2150242104209
 31
0.0
  0
LINE
  5
47FFF
330
1F
100
AcDbEntity
  8
0
  6
ByBlock
370
    15
100
AcDbLine
 10
3567.095517240215
 20
750.516797721681
 30
0.0
 11
3565.937432609476
 21
750.516797721681
 31
0.0
  0
LINE
  5
48000
330
1F
100
AcDbEntity
  8
0
  6
ByBlock
370
    15
100
AcDbLine
 10
3572.522437222016
 20
752.1670023816412
 30
0.0
 11
3572.089029226755
 21
752.1670023816412
 31
0.0
  0
LINE
  5
48001
330
1F
100
AcDbEntity
  8
0
  6
ByBlock
370
    15
100
AcDbLine
 10
3570.294813648315
 20
752.1670023816412
 30
0.0
 11
3569.831113447956
 21
752.1670023816412
 31
0.0
  0
LINE
  5
48002
330
1F
100
AcDbEntity
  8
0
  6
ByBlock
370
    15
100
AcDbLine
 10
3569.038862500075
 20
752.1670023816412
 30
0.0
 11
3568.586813648015
 21
752.1670023816412
 31
0.0
  0
LINE
  5
48003
330
1F
100
AcDbEntity
  8
0
  6
ByBlock
370
    15
100
AcDbLine
 10
3566.750655334055
 20
752.1670023816412
 30
0.0
 11
3566.263653661375
 21
752.1670023816412
 31
0.0
  0
LINE
  5
48004
330
1F
100
AcDbEntity
  8
0
  6
ByBlock
370
    15
100
AcDbLine
 10
3564.905176185295
 20
752.1670023816412
 30
0.0
 11
3564.450796822276
 21
752.1670023816412
 31
0.0
  0
LINE
  5
48005
330
1F
100
AcDbEntity
  8
0
  6
ByBlock
370
    15
100
AcDbLine
 10
3562.989793020896
 20
752.1670023816412
 30
0.0
 11
3562.444537865535
 21
752.1670023816412
 31
0.0
  0
LINE
  5
48006
330
1F
100
AcDbEntity
  8
0
  6
ByBlock
370
    15
100
AcDbLine
 10
3560.976543288195
 20
752.1670023816412
 30
0.0
 11
3560.512843405336
 21
752.1670023816412
 31
0.0
  0
LINE
  5
48007
330
1F
100
AcDbEntity
  8
0
  6
ByBlock
370
    15
100
AcDbLine
 10
3572.512843405795
 20
752.9670023793009
 30
0.0
 11
3560.512843405336
 21
752.9670023793009
 31
0.0
  0
LINE
  5
48008
330
1F
100
AcDbEntity
  8
0
  6
ByBlock
370
    15
100
AcDbLine
 10
3517.926377491316
 20
759.0538185952811
 30
0.0
 11
3517.426453644835
 21
759.0538185952811
 31
0.0
  0
LINE
  5
48009
330
1F
100
AcDbEntity
  8
0
  6
ByBlock
370
    15
100
AcDbLine
 10
3576.699309320375
 20
759.0538185952811
 30
0.0
 11
3577.199233166856
 21
759.0538185952811
 31
0.0
  0
LINE
  5
4800A
330
1F
100
AcDbEntity
  8
0
  6
ByBlock
370
    15
100
AcDbLine
 10
3574.399659621996
 20
761.353468293661
 30
0.0
 11
3520.226027192235
 21
761.353468293661
 31
0.0
  0
LINE
  5
4800B
330
1F
100
AcDbEntity
  8
0
  6
ByBlock
370
    15
100
AcDbLine
 10
3574.399659621996
 20
761.853392142681
 30
0.0
 11
3520.226027192235
 21
761.853392142681
 31
0.0
  0
LINE
  5
4800C
330
1F
100
AcDbEntity
  8
0
  6
ByBlock
370
    15
100
AcDbLine
 10
3574.513269859596
 20
761.9670023802812
 30
0.0
 11
3549.962843405555
 21
761.9670023802812
 31
0.0
  0
LINE
  5
4800D
330
1F
100
AcDbEntity
  8
0
  6
ByBlock
370
    15
100
AcDbLine
 10
3544.662843406135
 20
761.9670023802812
 30
0.0
 11
3520.112416952095
 21
761.9670023802812
 31
0.0
  0
LINE
  5
4800E
330
1F
100
AcDbEntity
  8
0
  6
ByBlock
370
    15
100
AcDbLine
 10
3559.712843407675
 20
752.1670023816412
 30
0.0
 11
3559.712843407675
 21
749.3670023809411
 31
0.0
  0
LINE
  5
4800F
330
1F
100
AcDbEntity
  8
0
  6
ByBlock
370
    15
100
AcDbLine
 10
3560.512843405336
 20
752.1670023816412
 30
0.0
 11
3561.419271762655
 21
749.3670023809411
 31
0.0
  0
LINE
  5
48010
330
1F
100
AcDbEntity
  8
0
  6
ByBlock
370
    15
100
AcDbLine
 10
3562.444537865535
 20
752.1670023816412
 30
0.0
 11
3561.794425970435
 21
750.2761429324812
 31
0.0
  0
LINE
  5
48011
330
1F
100
AcDbEntity
  8
0
  6
ByBlock
370
    15
100
AcDbLine
 10
3574.399659621996
 20
761.853392142681
 30
0.0
 11
3574.513269859596
 21
761.9670023802812
 31
0.0
  0
LINE
  5
48012
102
{ACAD_REACTORS
330
4813E
102
}
330
1F
100
AcDbEntity
  8
0
  6
ByBlock
370
    15
100
AcDbLine
 10
3574.399659621996
 20
744.680612619881
 30
0.0
 11
3574.513269859596
 21
744.567002379741
 31
0.0
  0
LINE
  5
48013
330
1F
100
AcDbEntity
  8
0
  6
ByBlock
370
    15
100
AcDbLine
 10
3563.479124394275
 20
750.7498127344411
 30
0.0
 11
3562.989793020896
 21
752.1670023816412
 31
0.0
  0
LINE
  5
48014
330
1F
100
AcDbEntity
  8
0
  6
ByBlock
370
    15
100
AcDbLine
 10
3562.812701449755
 20
751.5004267094611
 30
0.0
 11
3563.532717868496
 21
749.3670023809411
 31
0.0
  0
LINE
  5
48015
330
1F
100
AcDbEntity
  8
0
  6
ByBlock
370
    15
100
AcDbLine
 10
3561.496166709196
 20
750.3315317168009
 30
0.0
 11
3560.976543288195
 21
752.1670023816412
 31
0.0
  0
LINE
  5
48016
330
1F
100
AcDbEntity
  8
0
  6
ByBlock
370
    15
100
AcDbLine
 10
3564.450796822276
 20
752.1670023816412
 30
0.0
 11
3563.914862499176
 21
750.3678209304812
 31
0.0
  0
LINE
  5
48017
330
1F
100
AcDbEntity
  8
0
  6
ByBlock
370
    15
100
AcDbLine
 10
3561.880641446975
 20
749.3670023809411
 30
0.0
 11
3562.605318079916
 21
751.5004267094611
 31
0.0
  0
LINE
  5
48018
330
1F
100
AcDbEntity
  8
0
  6
ByBlock
370
    15
100
AcDbLine
 10
3570.264521445756
 20
751.5672752041612
 30
0.0
 11
3572.058737024195
 21
749.3670023809411
 31
0.0
  0
LINE
  5
48019
330
1F
100
AcDbEntity
  8
0
  6
ByBlock
370
    15
100
AcDbLine
 10
3568.148745436015
 20
749.3670023809411
 30
0.0
 11
3566.750655334055
 21
752.1670023816412
 31
0.0
  0
LINE
  5
4801A
330
1F
100
AcDbEntity
  8
0
  6
ByBlock
370
    15
100
AcDbLine
 10
3567.235326493236
 20
750.2150242104209
 30
0.0
 11
3567.633782074275
 21
749.3670023809411
 31
0.0
  0
LINE
  5
4801B
330
1F
100
AcDbEntity
  8
0
  6
ByBlock
370
    15
100
AcDbLine
 10
3566.739004392155
 20
751.2922412050811
 30
0.0
 11
3567.095517240215
 21
750.516797721681
 31
0.0
  0
LINE
  5
4801C
330
1F
100
AcDbEntity
  8
0
  6
ByBlock
370
    15
100
AcDbLine
 10
3563.968455767656
 20
749.3670023809411
 30
0.0
 11
3564.905176185295
 21
752.1670023816412
 31
0.0
  0
LINE
  5
4801D
330
1F
100
AcDbEntity
  8
0
  6
ByBlock
370
    15
100
AcDbLine
 10
3565.431790082536
 20
749.3670023809411
 30
0.0
 11
3565.806944188715
 21
750.2150242104209
 31
0.0
  0
LINE
  5
4801E
330
1F
100
AcDbEntity
  8
0
  6
ByBlock
370
    15
100
AcDbLine
 10
3565.937432609476
 20
750.516797721681
 30
0.0
 11
3566.312587124595
 21
751.338080204081
 31
0.0
  0
LINE
  5
4801F
330
1F
100
AcDbEntity
  8
0
  6
ByBlock
370
    15
100
AcDbLine
 10
3566.263653661375
 20
752.1670023816412
 30
0.0
 11
3564.951779135016
 21
749.3670023809411
 31
0.0
  0
LINE
  5
48020
330
1F
100
AcDbEntity
  8
0
  6
ByBlock
370
    15
100
AcDbLine
 10
3577.199233166856
 20
759.0538185952811
 30
0.0
 11
3577.312843406995
 21
759.167428832881
 31
0.0
  0
LINE
  5
48021
330
1F
100
AcDbEntity
  8
0
  6
ByBlock
370
    15
100
AcDbLine
 10
3577.199233166856
 20
747.4801861647411
 30
0.0
 11
3577.312843406995
 21
747.3665759271412
 31
0.0
  0
LINE
  5
48022
330
1F
100
AcDbEntity
  8
0
  6
ByBlock
370
    15
100
AcDbLine
 10
3572.089029226755
 20
749.9686394809412
 30
0.0
 11
3570.294813648315
 21
752.1670023816412
 31
0.0
  0
LINE
  5
48023
330
1F
100
AcDbEntity
  8
0
  6
ByBlock
370
    15
100
AcDbLine
 10
3568.586813648015
 20
752.1670023816412
 30
0.0
 11
3568.586813648015
 21
749.3670023809411
 31
0.0
  0
LINE
  5
48024
330
1F
100
AcDbEntity
  8
0
  6
ByBlock
370
    15
100
AcDbLine
 10
3569.038862500075
 20
749.3670023809411
 30
0.0
 11
3569.038862500075
 21
752.1670023816412
 31
0.0
  0
LINE
  5
48025
330
1F
100
AcDbEntity
  8
0
  6
ByBlock
370
    15
100
AcDbLine
 10
3569.831113447956
 20
752.1670023816412
 30
0.0
 11
3569.831113447956
 21
749.3670023809411
 31
0.0
  0
LINE
  5
48026
330
1F
100
AcDbEntity
  8
0
  6
ByBlock
370
    15
100
AcDbLine
 10
3570.264521445756
 20
749.3670023809411
 30
0.0
 11
3570.264521445756
 21
751.5672752041612
 31
0.0
  0
LINE
  5
48027
330
1F
100
AcDbEntity
  8
0
  6
ByBlock
370
    15
100
AcDbLine
 10
3572.089029226755
 20
752.1670023816412
 30
0.0
 11
3572.089029226755
 21
749.9686394809412
 31
0.0
  0
LINE
  5
48028
330
1F
100
AcDbEntity
  8
0
  6
ByBlock
370
    15
100
AcDbLine
 10
3572.522437222016
 20
749.3670023809411
 30
0.0
 11
3572.522437222016
 21
752.1670023816412
 31
0.0
  0
LINE
  5
48029
330
1F
100
AcDbEntity
  8
0
  6
ByBlock
370
    15
100
AcDbLine
 10
3573.312843405995
 20
749.3670023809411
 30
0.0
 11
3573.312843405995
 21
752.1670023816412
 31
0.0
  0
LINE
  5
4802A
330
1F
100
AcDbEntity
  8
0
  6
ByBlock
370
    15
100
AcDbLine
 10
3574.399659621996
 20
745.1805364663609
 30
0.0
 11
3574.399659621996
 21
744.680612619881
 31
0.0
  0
LINE
  5
4802B
330
1F
100
AcDbEntity
  8
0
  6
ByBlock
370
    15
100
AcDbLine
 10
3574.399659621996
 20
761.353468293661
 30
0.0
 11
3574.399659621996
 21
761.853392142681
 31
0.0
  0
LINE
  5
4802C
330
1F
100
AcDbEntity
  8
0
  6
ByBlock
370
    15
100
AcDbLine
 10
3576.699309320375
 20
747.4801861647411
 30
0.0
 11
3576.699309320375
 21
759.0538185952811
 31
0.0
  0
LINE
  5
4802D
330
1F
100
AcDbEntity
  8
0
  6
ByBlock
370
    15
100
AcDbLine
 10
3577.199233166856
 20
747.4801861647411
 30
0.0
 11
3577.199233166856
 21
759.0538185952811
 31
0.0
  0
LINE
  5
4802E
102
{ACAD_REACTORS
330
48138
102
}
330
1F
100
AcDbEntity
  8
0
  6
ByBlock
370
    15
100
AcDbLine
 10
3577.312843406995
 20
747.3665759271412
 30
0.0
 11
3577.312843406995
 21
759.167428832881
 31
0.0
  0
LINE
  5
4802F
330
1F
100
AcDbEntity
  8
0
  6
ByBlock
370
    15
100
AcDbLine
 10
3517.426453644835
 20
792.2683687830812
 30
0.0
 11
3517.312843407236
 21
785.7596425803412
 31
0.0
  0
LINE
  5
48030
330
1F
100
AcDbEntity
  8
0
  6
ByBlock
370
    15
100
AcDbLine
 10
3520.226027192235
 20
792.7596425808214
 30
0.0
 11
3520.226027192235
 21
792.2683687830812
 31
0.0
  0
LINE
  5
48031
330
1F
100
AcDbEntity
  8
0
  6
ByBlock
370
    15
100
AcDbLine
 10
3520.226027192235
 20
792.2683687830812
 30
0.0
 11
3520.112416952095
 21
785.7596425803412
 31
0.0
  0
LINE
  5
48033
330
1F
100
AcDbEntity
  8
0
  6
ByBlock
370
    15
100
AcDbLine
 10
3544.962843405575
 20
786.0596425797814
 30
0.0
 11
3544.962843405575
 21
786.2596425811013
 31
0.0
  0
LINE
  5
48034
102
{ACAD_REACTORS
330
48147
102
}
330
1F
100
AcDbEntity
  8
0
  6
ByBlock
370
    15
100
AcDbLine
 10
3517.312843407236
 20
785.7596425803412
 30
0.0
 11
3544.662843406135
 21
785.7596425803412
 31
0.0
  0
LINE
  5
48035
330
1F
100
AcDbEntity
  8
0
  6
ByBlock
370
    15
100
AcDbLine
 10
3549.962843405555
 20
785.7596425803412
 30
0.0
 11
3577.312843406995
 21
785.7596425803412
 31
0.0
  0
LINE
  5
48036
330
1F
100
AcDbEntity
  8
0
  6
ByBlock
370
    15
100
AcDbLine
 10
3549.662843406116
 20
786.0596425797814
 30
0.0
 11
3549.662843406116
 21
786.2596425811013
 31
0.0
  0
LINE
  5
48037
330
1F
100
AcDbEntity
  8
0
  6
ByBlock
370
    15
100
AcDbLine
 10
3520.226027192235
 20
792.2683687830812
 30
0.0
 11
3574.399659621996
 21
792.2683687830812
 31
0.0
  0
LINE
  5
48038
330
1F
100
AcDbEntity
  8
0
  6
ByBlock
370
    15
100
AcDbLine
 10
3517.926377491316
 20
792.7596425808214
 30
0.0
 11
3576.699309320375
 21
792.7596425808214
 31
0.0
  0
LINE
  5
48039
330
1F
100
AcDbEntity
  8
0
  6
ByBlock
370
    15
100
AcDbLine
 10
3560.512843405336
 20
793.2096425799813
 30
0.0
 11
3564.905176185295
 21
793.2096425799813
 31
0.0
  0
LINE
  5
4803A
330
1F
100
AcDbEntity
  8
0
  6
ByBlock
370
    15
100
AcDbLine
 10
3564.951779135016
 20
793.2096425799813
 30
0.0
 11
3568.148745436015
 21
793.2096425799813
 31
0.0
  0
LINE
  5
4803B
330
1F
100
AcDbEntity
  8
0
  6
ByBlock
370
    15
100
AcDbLine
 10
3568.586813648015
 20
793.2096425799813
 30
0.0
 11
3569.038862500075
 21
793.2096425799813
 31
0.0
  0
LINE
  5
4803C
330
1F
100
AcDbEntity
  8
0
  6
ByBlock
370
    15
100
AcDbLine
 10
3569.831113447956
 20
793.2096425799813
 30
0.0
 11
3572.522437222016
 21
793.2096425799813
 31
0.0
  0
LINE
  5
4803D
330
1F
100
AcDbEntity
  8
0
  6
ByBlock
370
    15
100
AcDbLine
 10
3560.512843405336
 20
792.7596425808214
 30
0.0
 11
3560.512843405336
 21
793.2096425799813
 31
0.0
  0
LINE
  5
4803E
330
1F
100
AcDbEntity
  8
0
  6
ByBlock
370
    15
100
AcDbLine
 10
3561.419271762655
 20
792.7596425808214
 30
0.0
 11
3561.419271762655
 21
793.2096425799813
 31
0.0
  0
LINE
  5
4803F
330
1F
100
AcDbEntity
  8
0
  6
ByBlock
370
    15
100
AcDbLine
 10
3561.880641446975
 20
792.7596425808214
 30
0.0
 11
3561.880641446975
 21
793.2096425799813
 31
0.0
  0
LINE
  5
48040
330
1F
100
AcDbEntity
  8
0
  6
ByBlock
370
    15
100
AcDbLine
 10
3562.605318079916
 20
792.7596425808214
 30
0.0
 11
3562.605318079916
 21
793.2096425799813
 31
0.0
  0
LINE
  5
48041
330
1F
100
AcDbEntity
  8
0
  6
ByBlock
370
    15
100
AcDbLine
 10
3562.705514707055
 20
792.7596425808214
 30
0.0
 11
3562.705514707055
 21
793.2096425799813
 31
0.0
  0
LINE
  5
48042
330
1F
100
AcDbEntity
  8
0
  6
ByBlock
370
    15
100
AcDbLine
 10
3562.812701449755
 20
792.7596425808214
 30
0.0
 11
3562.812701449755
 21
793.2096425799813
 31
0.0
  0
LINE
  5
48043
330
1F
100
AcDbEntity
  8
0
  6
ByBlock
370
    15
100
AcDbLine
 10
3563.532717868496
 20
792.7596425808214
 30
0.0
 11
3563.532717868496
 21
793.2096425799813
 31
0.0
  0
LINE
  5
48044
330
1F
100
AcDbEntity
  8
0
  6
ByBlock
370
    15
100
AcDbLine
 10
3563.968455767656
 20
792.7596425808214
 30
0.0
 11
3563.968455767656
 21
793.2096425799813
 31
0.0
  0
LINE
  5
48045
330
1F
100
AcDbEntity
  8
0
  6
ByBlock
370
    15
100
AcDbLine
 10
3564.905176185295
 20
792.7596425808214
 30
0.0
 11
3564.905176185295
 21
793.2096425799813
 31
0.0
  0
LINE
  5
48046
330
1F
100
AcDbEntity
  8
0
  6
ByBlock
370
    15
100
AcDbLine
 10
3564.951779135016
 20
792.7596425808214
 30
0.0
 11
3564.951779135016
 21
793.2096425799813
 31
0.0
  0
LINE
  5
48047
330
1F
100
AcDbEntity
  8
0
  6
ByBlock
370
    15
100
AcDbLine
 10
3565.431790082536
 20
792.7596425808214
 30
0.0
 11
3565.431790082536
 21
793.2096425799813
 31
0.0
  0
LINE
  5
48048
330
1F
100
AcDbEntity
  8
0
  6
ByBlock
370
    15
100
AcDbLine
 10
3565.806944188715
 20
792.7596425808214
 30
0.0
 11
3565.806944188715
 21
793.2096425799813
 31
0.0
  0
LINE
  5
48049
330
1F
100
AcDbEntity
  8
0
  6
ByBlock
370
    15
100
AcDbLine
 10
3567.235326493236
 20
792.7596425808214
 30
0.0
 11
3567.235326493236
 21
793.2096425799813
 31
0.0
  0
LINE
  5
4804A
330
1F
100
AcDbEntity
  8
0
  6
ByBlock
370
    15
100
AcDbLine
 10
3567.633782074275
 20
792.7596425808214
 30
0.0
 11
3567.633782074275
 21
793.2096425799813
 31
0.0
  0
LINE
  5
4804B
330
1F
100
AcDbEntity
  8
0
  6
ByBlock
370
    15
100
AcDbLine
 10
3568.148745436015
 20
792.7596425808214
 30
0.0
 11
3568.148745436015
 21
793.2096425799813
 31
0.0
  0
LINE
  5
4804C
330
1F
100
AcDbEntity
  8
0
  6
ByBlock
370
    15
100
AcDbLine
 10
3568.586813648015
 20
792.7596425808214
 30
0.0
 11
3568.586813648015
 21
793.2096425799813
 31
0.0
  0
LINE
  5
4804D
330
1F
100
AcDbEntity
  8
0
  6
ByBlock
370
    15
100
AcDbLine
 10
3569.038862500075
 20
792.7596425808214
 30
0.0
 11
3569.038862500075
 21
793.2096425799813
 31
0.0
  0
LINE
  5
4804E
330
1F
100
AcDbEntity
  8
0
  6
ByBlock
370
    15
100
AcDbLine
 10
3569.831113447956
 20
792.7596425808214
 30
0.0
 11
3569.831113447956
 21
793.2096425799813
 31
0.0
  0
LINE
  5
4804F
330
1F
100
AcDbEntity
  8
0
  6
ByBlock
370
    15
100
AcDbLine
 10
3570.264521445756
 20
792.7596425808214
 30
0.0
 11
3570.264521445756
 21
793.2096425799813
 31
0.0
  0
LINE
  5
48050
330
1F
100
AcDbEntity
  8
0
  6
ByBlock
370
    15
100
AcDbLine
 10
3572.058737024195
 20
792.7596425808214
 30
0.0
 11
3572.058737024195
 21
793.2096425799813
 31
0.0
  0
LINE
  5
48051
330
1F
100
AcDbEntity
  8
0
  6
ByBlock
370
    15
100
AcDbLine
 10
3572.522437222016
 20
792.7596425808214
 30
0.0
 11
3572.522437222016
 21
793.2096425799813
 31
0.0
  0
LINE
  5
48052
330
1F
100
AcDbEntity
  8
0
  6
ByBlock
370
    15
100
AcDbLine
 10
3574.399659621996
 20
792.2683687830812
 30
0.0
 11
3574.513269859596
 21
785.7596425803412
 31
0.0
  0
LINE
  5
48053
330
1F
100
AcDbEntity
  8
0
  6
ByBlock
370
    15
100
AcDbLine
 10
3577.199233166856
 20
792.2683687830812
 30
0.0
 11
3577.312843406995
 21
785.7596425803412
 31
0.0
  0
LINE
  5
48054
330
1F
100
AcDbEntity
  8
0
  6
ByBlock
370
    15
100
AcDbLine
 10
3574.399659621996
 20
792.7596425808214
 30
0.0
 11
3574.399659621996
 21
792.2683687830812
 31
0.0
  0
ARC
  5
48055
330
1F
100
AcDbEntity
  8
0
  6
ByBlock
370
    15
100
AcDbCircle
 10
3551.634293217335
 20
747.5403169080812
 30
0.0
 40
10.24926479734
100
AcDbArc
 50
12.49931395430136
 51
15.80315155700865
  0
ARC
  5
48056
330
1F
100
AcDbEntity
  8
0
  6
ByBlock
370
    15
100
AcDbCircle
 10
3563.470921941795
 20
752.615297228001
 30
0.0
 40
3.115500654939999
100
AcDbArc
 50
335.7979526318919
 51
346.2136828849061
  0
ARC
  5
48057
330
1F
100
AcDbEntity
  8
0
  6
ByBlock
370
    15
100
AcDbCircle
 10
3520.226071901316
 20
747.480233660201
 30
0.0
 40
2.799614725879999
100
AcDbArc
 50
180.000971984298
 51
269.9990850081934
  0
ARC
  5
48058
330
1F
100
AcDbEntity
  8
0
  6
ByBlock
370
    15
100
AcDbCircle
 10
3520.226074588635
 20
759.0537739827212
 30
0.0
 40
2.799614725879999
100
AcDbArc
 50
90.00097001630393
 51
179.9990870040013
  0
ARC
  5
48059
330
1F
100
AcDbEntity
  8
0
  6
ByBlock
370
    15
100
AcDbCircle
 10
3574.399612129076
 20
747.480230876361
 30
0.0
 40
2.799614725879999
100
AcDbArc
 50
270.0009719777061
 51
359.9990850016014
  0
ARC
  5
4805A
330
1F
100
AcDbEntity
  8
0
  6
ByBlock
370
    15
100
AcDbCircle
 10
3574.399615006895
 20
759.0537711988811
 30
0.0
 40
2.799614725879999
100
AcDbArc
 50
0.0009699954989441
 51
89.99908698319634
  0
ARC
  5
4805B
330
1F
100
AcDbEntity
  8
0
  6
ByBlock
370
    15
100
AcDbCircle
 10
3574.399795456115
 20
747.480047925241
 30
0.0
 40
2.29950668368
100
AcDbArc
 50
269.996615450593
 51
0.0034444770059715
  0
ARC
  5
4805C
330
1F
100
AcDbEntity
  8
0
  6
ByBlock
370
    15
100
AcDbCircle
 10
3520.225888950195
 20
747.480050330621
 30
0.0
 40
2.29950668368
100
AcDbArc
 50
179.9966154565987
 51
270.0034444845881
  0
ARC
  5
4805D
330
1F
100
AcDbEntity
  8
0
  6
ByBlock
370
    15
100
AcDbCircle
 10
3520.225891284455
 20
759.053956910981
 30
0.0
 40
2.29950668368
100
AcDbArc
 50
89.99661366290025
 51
180.0034463056965
  0
ARC
  5
4805E
330
1F
100
AcDbEntity
  8
0
  6
ByBlock
370
    15
100
AcDbCircle
 10
3574.399797935156
 20
759.053954503061
 30
0.0
 40
2.29950668368
100
AcDbArc
 50
359.9966136420952
 51
90.00344628489143
  0
ARC
  5
4805F
330
1F
100
AcDbEntity
  8
0
  6
ByBlock
370
    15
100
AcDbCircle
 10
3560.512843405336
 20
752.1670023816412
 30
0.0
 40
0.8000000002
100
AcDbArc
 50
90.0
 51
180.0
  0
ARC
  5
48060
330
1F
100
AcDbEntity
  8
0
  6
ByBlock
370
    15
100
AcDbCircle
 10
3560.512843405336
 20
749.3670023809411
 30
0.0
 40
0.8000000002
100
AcDbArc
 50
180.0
 51
270.0
  0
ARC
  5
48061
330
1F
100
AcDbEntity
  8
0
  6
ByBlock
370
    15
100
AcDbCircle
 10
3572.512843405795
 20
749.3670023809411
 30
0.0
 40
0.8000000002
100
AcDbArc
 50
270.0
 51
0.0
  0
ARC
  5
48062
330
1F
100
AcDbEntity
  8
0
  6
ByBlock
370
    15
100
AcDbCircle
 10
3572.512843405795
 20
752.1670023816412
 30
0.0
 40
0.8000000002
100
AcDbArc
 50
0.0
 51
90.0
  0
ARC
  5
48063
330
1F
100
AcDbEntity
  8
0
  6
ByBlock
370
    15
100
AcDbCircle
 10
3547.312843407115
 20
786.2596425811013
 30
0.0
 40
2.349999999
100
AcDbArc
 50
0.0
 51
180.0
  0
ARC
  5
48064
102
{ACAD_REACTORS
330
48147
102
}
330
1F
100
AcDbEntity
  8
0
  6
ByBlock
370
    15
100
AcDbCircle
 10
3517.926377491316
 20
792.2596425800613
 30
0.0
 40
0.50000000076
100
AcDbArc
 50
90.0
 51
178.9999999999982
  0
ARC
  5
48065
330
1F
100
AcDbEntity
  8
0
  6
ByBlock
370
    15
100
AcDbCircle
 10
3576.699309320375
 20
792.2596425800613
 30
0.0
 40
0.50000000076
100
AcDbArc
 50
1.000000000001775
 51
90.0
  0
ARC
  5
48066
330
1F
100
AcDbEntity
  8
0
  6
ByBlock
370
    15
100
AcDbCircle
 10
3544.662843406135
 20
786.0596425797814
 30
0.0
 40
0.29999999944
100
AcDbArc
 50
270.0
 51
0.0
  0
ARC
  5
48067
330
1F
100
AcDbEntity
  8
0
  6
ByBlock
370
    15
100
AcDbCircle
 10
3549.962843405555
 20
786.0596425797814
 30
0.0
 40
0.29999999944
100
AcDbArc
 50
180.0
 51
270.0
  0
SPLINE
  5
48068
330
1F
100
AcDbEntity
  8
0
  6
ByBlock
370
    15
100
AcDbSpline
210
0.0
220
0.0
230
1.0
 70
     8
 71
     3
 72
     8
 73
     4
 74
     0
 42
0.0000000001
 43
0.0000000001
 40
0.0
 40
0.0
 40
0.0
 40
0.0
 40
1.0
 40
1.0
 40
1.0
 40
1.0
 10
3566.496668813835
 20
751.8728686468212
 30
0.0
 10
3566.547931975215
 20
751.7200719242212
 30
0.0
 10
3566.630807976596
 20
751.527576921861
 30
0.0
 10
3566.739004392155
 20
751.2922412050811
 30
0.0
  0
LINE
  5
48069
330
1F
100
AcDbEntity
  8
0
  6
ByBlock
370
    15
100
AcDbLine
 10
3562.605318079916
 20
751.5004267094611
 30
0.0
 11
3562.705514707055
 21
751.8289395703411
 31
0.0
  0
LINE
  5
4806A
330
1F
100
AcDbEntity
  8
0
  6
ByBlock
370
    15
100
AcDbLine
 10
3562.705514707055
 20
751.8289395703411
 30
0.0
 11
3562.812701449755
 21
751.5004267094611
 31
0.0
  0
SPLINE
  5
4806B
330
1F
100
AcDbEntity
  8
0
  6
ByBlock
370
    15
100
AcDbSpline
210
0.0
220
0.0
230
1.0
 70
     8
 71
     3
 72
     8
 73
     4
 74
     0
 42
0.0000000001
 43
0.0000000001
 40
0.0
 40
0.0
 40
0.0
 40
0.0
 40
1.0
 40
1.0
 40
1.0
 40
1.0
 10
3563.914862499176
 20
750.3678209304812
 30
0.0
 10
3563.844958074595
 20
750.1386258491211
 30
0.0
 10
3563.786704185516
 20
749.9342602329611
 30
0.0
 10
3563.744761653196
 20
749.7585440108609
 30
0.0
  0
SPLINE
  5
4806C
330
1F
100
AcDbEntity
  8
0
  6
ByBlock
370
    15
100
AcDbSpline
210
0.0
220
0.0
230
1.0
 70
     8
 71
     3
 72
     8
 73
     4
 74
     0
 42
0.0000000001
 43
0.0000000001
 40
0.0
 40
0.0
 40
0.0
 40
0.0
 40
1.0
 40
1.0
 40
1.0
 40
1.0
 10
3563.744761653196
 20
749.7585440108609
 30
0.0
 10
3563.688837868676
 20
750.067957341741
 30
0.0
 10
3563.600454982196
 20
750.398418032101
 30
0.0
 10
3563.479124394275
 20
750.7498127344411
 30
0.0
  0
LINE
  5
4806D
330
1F
100
AcDbEntity
  8
0
  6
ByBlock
370
    15
100
AcDbLine
 10
3561.794425970435
 20
750.2761429324812
 30
0.0
 11
3561.640636077355
 21
749.7585440108609
 31
0.0
  0
SPLINE
  5
4806E
330
1F
100
AcDbEntity
  8
0
  6
ByBlock
370
    15
100
AcDbSpline
210
0.0
220
0.0
230
1.0
 70
     8
 71
     3
 72
    29
 73
    25
 74
     0
 42
0.0000000001
 43
0.0000000001
 40
0.0
 40
0.0
 40
0.0
 40
0.0
 40
0.1950849391
 40
0.3826474252
 40
0.4713444892
 40
0.5555135027000001
 40
0.6343273041
 40
0.7070342036000001
 40
0.7729308152
 40
0.8313906860999999
 40
0.8818469639999999
 40
0.9039223978
 40
0.9238176465
 40
0.9414856643999998
 40
0.9568886926000001
 40
0.9699892469999999
 40
0.9807500559999999
 40
0.9891435337999999
 40
0.9924482650999999
 40
0.9951563066
 40
0.9972662040000001
 40
0.9987766354999999
 40
0.9996867653
 40
1.0
 40
1.0
 40
1.0
 40
1.0
 10
3574.399659621996
 20
792.2683687830812
 30
0.0
 10
3574.581714083895
 20
792.2689365035615
 30
0.0
 10
3574.938803357016
 20
792.2699402861613
 30
0.0
 10
3575.378666040915
 20
792.2709044803213
 30
0.0
 10
3575.715021372775
 20
792.2714597141614
 30
0.0
 10
3575.949891540575
 20
792.2717557613213
 30
0.0
 10
3576.169839630015
 20
792.2719365305813
 30
0.0
 10
3576.372735787595
 20
792.2720008433814
 30
0.0
 10
3576.556637441635
 20
792.2719483212613
 30
0.0
 10
3576.719774511855
 20
792.2717803510614
 30
0.0
 10
3576.842017023275
 20
792.2715374813415
 30
0.0
 10
3576.928270498215
 20
792.2712759807214
 30
0.0
 10
3576.983925464376
 20
792.2710610205212
 30
0.0
 10
3577.033353910096
 20
792.2708196392414
 30
0.0
 10
3577.076439970735
 20
792.2705518038615
 30
0.0
 10
3577.113083590615
 20
792.2702622286215
 30
0.0
 10
3577.143174759795
 20
792.2699433265413
 30
0.0
 10
3577.164149650535
 20
792.2696580997812
 30
0.0
 10
3577.177563880756
 20
792.2693810823013
 30
0.0
 10
3577.185199313795
 20
792.2692301326414
 30
0.0
 10
3577.190953434875
 20
792.2689568616613
 30
0.0
 10
3577.195514837995
 20
792.2689663892013
 30
0.0
 10
3577.197464254976
 20
792.2684456917413
 30
0.0
 10
3577.199225869435
 20
792.2686610786613
 30
0.0
 10
3577.199233166856
 20
792.2683688567413
 30
0.0
  0
SPLINE
  5
4806F
330
1F
100
AcDbEntity
  8
0
  6
ByBlock
370
    15
100
AcDbSpline
210
0.0
220
0.0
230
1.0
 70
     8
 71
     3
 72
    29
 73
    25
 74
     0
 42
0.0000000001
 43
0.0000000001
 40
0.0
 40
0.0
 40
0.0
 40
0.0
 40
0.0003128253
 40
0.0012220688
 40
0.0027312272
 40
0.0048395484
 40
0.0075457946
 40
0.0108485946
 40
0.0192381357
 40
0.0299930607
 40
0.0430833629
 40
0.0584751217
 40
0.0761343809
 40
0.0960220495
 40
0.1180857368
 40
0.1685229868
 40
0.2269713363
 40
0.2928559545
 40
0.3655516859
 40
0.4443605358
 40
0.528530546
 40
0.6172342044
 40
0.8048687153999999
 40
1.0
 40
1.0
 40
1.0
 40
1.0
 10
3517.426453644835
 20
792.2683687830812
 30
0.0
 10
3517.426460335195
 20
792.2686606392412
 30
0.0
 10
3517.428221334976
 20
792.2684460295613
 30
0.0
 10
3517.430167650616
 20
792.2689660132814
 30
0.0
 10
3517.434726020975
 20
792.2689568108615
 30
0.0
 10
3517.440475585296
 20
792.2692299091213
 30
0.0
 10
3517.448106159315
 20
792.2693808765614
 30
0.0
 10
3517.461513191175
 20
792.2696578330815
 30
0.0
 10
3517.482477147215
 20
792.2699429506215
 30
0.0
 10
3517.512549571196
 20
792.2702617307813
 30
0.0
 10
3517.549167623435
 20
792.2705513314213
 30
0.0
 10
3517.592225421495
 20
792.2708191591814
 30
0.0
 10
3517.641628106536
 20
792.2710604718814
 30
0.0
 10
3517.697256862435
 20
792.2712753609614
 30
0.0
 10
3517.783474546235
 20
792.2715370393814
 30
0.0
 10
3517.905677586055
 20
792.2717800081613
 30
0.0
 10
3518.068774958615
 20
792.2719481307613
 30
0.0
 10
3518.252644250515
 20
792.2720008535414
 30
0.0
 10
3518.455514174976
 20
792.2719367337813
 30
0.0
 10
3518.675448154715
 20
792.2717561143813
 30
0.0
 10
3518.910320791395
 20
792.2714602551814
 30
0.0
 10
3519.246750425875
 20
792.2709049299014
 30
0.0
 10
3519.686729733876
 20
792.2699407205014
 30
0.0
 10
3520.043929479215
 20
792.2689367956613
 30
0.0
 10
3520.226027192235
 20
792.2683688567413
 30
0.0
  0
ELLIPSE
  5
48070
102
{ACAD_REACTORS
330
4813E
102
}
330
1F
100
AcDbEntity
  8
0
  6
ByBlock
370
    15
100
AcDbEllipse
 10
3574.512416886955
 20
759.1665758627812
 30
0.0
 11
1.980502129919999
 21
1.980502129919999
 31
0.0
210
0.0
220
0.0
230
1.0
 40
0.9996954599
 41
-0.7852458701
 42
0.7852458701
  0
ELLIPSE
  5
48071
330
1F
100
AcDbEntity
  8
0
  6
ByBlock
370
    15
100
AcDbEllipse
 10
3574.512416886955
 20
747.3674288997811
 30
0.0
 11
1.980502129919999
 21
-1.980502129919999
 31
0.0
210
0.0
220
0.0
230
1.0
 40
0.9996954599
 41
-0.7852458701
 42
0.7852458701
  0
ELLIPSE
  5
48072
102
{ACAD_REACTORS
330
48138
102
}
330
1F
100
AcDbEntity
  8
0
  6
ByBlock
370
    15
100
AcDbEllipse
 10
3520.113269924735
 20
747.3674288997811
 30
0.0
 11
1.980502129919999
 21
1.980502129919999
 31
0.0
210
0.0
220
0.0
230
1.0
 40
0.9996954599
 41
-3.926838523699999
 42
-2.3563467834
  0
ELLIPSE
  5
48073
330
1F
100
AcDbEntity
  8
0
  6
ByBlock
370
    15
100
AcDbEllipse
 10
3520.113269924735
 20
759.1665758627812
 30
0.0
 11
-1.980502129919999
 21
1.980502129919999
 31
0.0
210
0.0
220
0.0
230
1.0
 40
0.9996954599
 41
-0.7852458701
 42
0.7852458701
  0
ELLIPSE
  5
48074
330
1F
100
AcDbEntity
  8
0
  6
ByBlock
370
    15
100
AcDbEllipse
 10
3549.962843405555
 20
761.9617658604011
 30
0.0
 11
0.29999999944
 21
0.0
 31
0.0
210
0.0
220
0.0
230
1.0
 40
0.0174550649
 41
1.5707963268
 42
3.1415926536
  0
ELLIPSE
  5
48075
330
1F
100
AcDbEntity
  8
0
  6
ByBlock
370
    15
100
AcDbEllipse
 10
3547.312843407115
 20
761.958274848841
 30
0.0
 11
2.349999999
 21
0.0
 31
0.0
210
0.0
220
0.0
230
1.0
 40
0.0174550649
 41
-3.1415926536
 42
0.0
  0
ELLIPSE
  5
48076
330
1F
100
AcDbEntity
  8
0
  6
ByBlock
370
    15
100
AcDbEllipse
 10
3544.662843406135
 20
761.9617658604011
 30
0.0
 11
0.29999999944
 21
0.0
 31
0.0
210
0.0
220
0.0
230
1.0
 40
0.0174550649
 41
0.0
 42
1.5707963268
  0
ELLIPSE
  5
48077
330
1F
100
AcDbEntity
  8
0
  6
ByBlock
370
    15
100
AcDbEllipse
 10
3547.312843407115
 20
744.575729913721
 30
0.0
 11
2.349999999
 21
0.0
 31
0.0
210
0.0
220
0.0
230
1.0
 40
0.0174550649
 41
0.0
 42
3.1415926536
  0
ELLIPSE
  5
48078
330
1F
100
AcDbEntity
  8
0
  6
ByBlock
370
    15
100
AcDbEllipse
 10
3549.962843405555
 20
744.5722388996212
 30
0.0
 11
0.29999999944
 21
0.0
 31
0.0
210
0.0
220
0.0
230
1.0
 40
0.0174550649
 41
-3.1415926536
 42
-1.5707963268
  0
ELLIPSE
  5
48079
330
1F
100
AcDbEntity
  8
0
  6
ByBlock
370
    15
100
AcDbEllipse
 10
3544.662843406135
 20
744.5722388996212
 30
0.0
 11
0.29999999944
 21
0.0
 31
0.0
210
0.0
220
0.0
230
1.0
 40
0.0174550649
 41
-1.5707963268
 42
0.0
  0
LINE
  5
4807A
330
1F
100
AcDbEntity
  8
0
370
    15
100
AcDbLine
 10
3458.693475750512
 20
711.4019599284532
 30
0.0
 11
3458.021505611093
 21
706.8470907374731
 31
0.0
  0
LWPOLYLINE
  5
4807B
330
1F
100
AcDbEntity
  8
0
370
    15
100
AcDbPolyline
 90
        3
 70
     0
 43
0.0
 10
3459.015953901592
 20
712.1786560763532
 10
3458.821868564592
 20
711.843527973433
 10
3458.693488701972
 20
711.402056316373
  0
LINE
  5
4807C
330
1F
100
AcDbEntity
  8
0
370
    15
100
AcDbLine
 10
3460.214258027712
 20
709.3134570518732
 30
0.0
 11
3459.542548012232
 21
704.7603510603132
 31
0.0
  0
LINE
  5
4807D
330
1F
100
AcDbEntity
  8
0
370
    15
100
AcDbLine
 10
3464.201558760232
 20
719.2973958088733
 30
0.0
 11
3459.016054526232
 21
712.1787943310932
 31
0.0
  0
LINE
  5
4807E
330
1F
100
AcDbEntity
  8
0
370
    15
100
AcDbLine
 10
3464.645620536572
 20
719.3506468301332
 30
0.0
 11
3459.460116307652
 21
712.2320453523532
 31
0.0
  0
LINE
  5
4807F
330
1F
100
AcDbEntity
  8
0
370
    15
100
AcDbLine
 10
3459.542548012232
 20
704.7603510603132
 30
0.0
 11
3481.403208507232
 21
695.6318205874131
 31
0.0
  0
LINE
  5
48080
330
1F
100
AcDbEntity
  8
0
370
    15
100
AcDbLine
 10
3486.122535924032
 20
693.6611333730931
 30
0.0
 11
3507.983196419032
 21
684.5326029027333
 31
0.0
  0
LINE
  5
48081
330
1F
100
AcDbEntity
  8
0
370
    15
100
AcDbLine
 10
3481.696637882272
 20
695.7320809533132
 30
0.0
 11
3481.714169640452
 21
695.8732867542132
 31
0.0
  0
LINE
  5
48082
330
1F
100
AcDbEntity
  8
0
370
    15
100
AcDbLine
 10
3481.899068252113
 20
696.1271134754131
 30
0.0
 11
3481.881536496472
 21
695.985907674513
 31
0.0
  0
LINE
  5
48083
330
1F
100
AcDbEntity
  8
0
370
    15
100
AcDbLine
 10
3481.929650644592
 20
696.2016983706933
 30
0.0
 11
3481.912118886413
 21
696.0604925723332
 31
0.0
  0
LINE
  5
48084
330
1F
100
AcDbEntity
  8
0
370
    15
100
AcDbLine
 10
3481.929628902192
 20
696.2015240911332
 30
0.0
 11
3481.991531676532
 21
696.4496336685731
 31
0.0
  0
LINE
  5
48085
330
1F
100
AcDbEntity
  8
0
370
    15
100
AcDbLine
 10
3481.881536496472
 20
695.985907674513
 30
0.0
 11
3481.856890381172
 21
695.9208187495733
 31
0.0
  0
LINE
  5
48086
330
1F
100
AcDbEntity
  8
0
370
    15
100
AcDbLine
 10
3481.671174783592
 20
695.6658871232932
 30
0.0
 11
3481.696637882272
 21
695.7320809533132
 31
0.0
  0
LINE
  5
48087
330
1F
100
AcDbEntity
  8
0
370
    15
100
AcDbLine
 10
3481.912118886413
 20
696.0604925723332
 30
0.0
 11
3481.881536496472
 21
695.985907674513
 31
0.0
  0
LINE
  5
48088
330
1F
100
AcDbEntity
  8
0
370
    15
100
AcDbLine
 10
3481.929628902192
 20
696.2015240936732
 30
0.0
 11
3481.899068252113
 21
696.1271134754131
 31
0.0
  0
LINE
  5
48089
330
1F
100
AcDbEntity
  8
0
370
    15
100
AcDbLine
 10
3481.991531676532
 20
696.4496336685731
 30
0.0
 11
3482.032883176252
 21
696.5254053585331
 31
0.0
  0
LINE
  5
4808A
330
1F
100
AcDbEntity
  8
0
370
    15
100
AcDbLine
 10
3460.214258027712
 20
709.3134570518732
 30
0.0
 11
3508.452580430733
 21
689.1701957789132
 31
0.0
  0
LINE
  5
4808B
330
1F
100
AcDbEntity
  8
0
370
    15
100
AcDbLine
 10
3460.477468623972
 20
709.9625247148731
 30
0.0
 11
3508.715791024452
 21
689.8192634419131
 31
0.0
  0
LINE
  5
4808C
330
1F
100
AcDbEntity
  8
0
370
    15
100
AcDbLine
 10
3485.881701818453
 20
693.9844904048132
 30
0.0
 11
3485.899233574092
 21
694.1256962057131
 31
0.0
  0
LINE
  5
4808D
330
1F
100
AcDbEntity
  8
0
370
    15
100
AcDbLine
 10
3481.714169640452
 20
695.8732867542132
 30
0.0
 11
3481.899068252113
 21
696.1271134754131
 31
0.0
  0
LINE
  5
4808E
330
1F
100
AcDbEntity
  8
0
370
    15
100
AcDbLine
 10
3481.881536496472
 20
695.985907674513
 30
0.0
 11
3481.696637882272
 21
695.7320809533132
 31
0.0
  0
LINE
  5
4808F
330
1F
100
AcDbEntity
  8
0
370
    15
100
AcDbLine
 10
3481.856890381172
 20
695.9208187495733
 30
0.0
 11
3481.671182682993
 21
695.6658813244732
 31
0.0
  0
LINE
  5
48090
330
1F
100
AcDbEntity
  8
0
370
    15
100
AcDbLine
 10
3497.867714381813
 20
697.0656831806932
 30
0.0
 11
3508.552984001833
 21
692.6037498668331
 31
0.0
  0
LINE
  5
48091
330
1F
100
AcDbEntity
  8
0
370
    15
100
AcDbLine
 10
3499.029277486672
 20
697.1859398058131
 30
0.0
 11
3499.440099111052
 21
697.0143897425132
 31
0.0
  0
LINE
  5
48092
330
1F
100
AcDbEntity
  8
0
370
    15
100
AcDbLine
 10
3500.911172607813
 20
696.4001018397732
 30
0.0
 11
3501.299170688812
 21
696.2380823847931
 31
0.0
  0
LINE
  5
48093
330
1F
100
AcDbEntity
  8
0
370
    15
100
AcDbLine
 10
3502.174760296532
 20
695.8724554452333
 30
0.0
 11
3502.602180828532
 21
695.6939740419731
 31
0.0
  0
LINE
  5
48094
330
1F
100
AcDbEntity
  8
0
370
    15
100
AcDbLine
 10
3504.562920673873
 20
694.8752122555731
 30
0.0
 11
3505.021464204332
 21
694.6837345740132
 31
0.0
  0
LINE
  5
48095
330
1F
100
AcDbEntity
  8
0
370
    15
100
AcDbLine
 10
3505.411537282452
 20
694.5208486462932
 30
0.0
 11
3505.814059271413
 21
694.3527643266332
 31
0.0
  0
LINE
  5
48096
330
1F
100
AcDbEntity
  8
0
370
    15
100
AcDbLine
 10
3506.519510522432
 20
694.0581834171933
 30
0.0
 11
3506.905433964452
 21
693.8970302876332
 31
0.0
  0
LINE
  5
48097
330
1F
100
AcDbEntity
  8
0
370
    15
100
AcDbLine
 10
3508.503073730813
 20
693.2298910986733
 30
0.0
 11
3508.915970535193
 21
693.0574744838931
 31
0.0
  0
LINE
  5
48098
330
1F
100
AcDbEntity
  8
0
370
    15
100
AcDbLine
 10
3499.069196553392
 20
697.5335862555532
 30
0.0
 11
3499.480018177772
 21
697.3620361922533
 31
0.0
  0
LINE
  5
48099
330
1F
100
AcDbEntity
  8
0
370
    15
100
AcDbLine
 10
3500.951091677072
 20
696.747748289513
 30
0.0
 11
3501.339089755532
 21
696.5857288345333
 31
0.0
  0
LINE
  5
4809A
330
1F
100
AcDbEntity
  8
0
370
    15
100
AcDbLine
 10
3502.214679363252
 20
696.2201018949731
 30
0.0
 11
3502.642099895253
 21
696.0416204917132
 31
0.0
  0
LINE
  5
4809B
330
1F
100
AcDbEntity
  8
0
370
    15
100
AcDbLine
 10
3504.602839740592
 20
695.2228587053132
 30
0.0
 11
3505.061383271052
 21
695.0313810237532
 31
0.0
  0
LINE
  5
4809C
330
1F
100
AcDbEntity
  8
0
370
    15
100
AcDbLine
 10
3505.451456351712
 20
694.8684950960332
 30
0.0
 11
3505.853978338132
 21
694.7004107763732
 31
0.0
  0
LINE
  5
4809D
330
1F
100
AcDbEntity
  8
0
370
    15
100
AcDbLine
 10
3506.559429589152
 20
694.4058298669331
 30
0.0
 11
3506.945353031172
 21
694.2446767373731
 31
0.0
  0
LINE
  5
4809E
330
1F
100
AcDbEntity
  8
0
370
    15
100
AcDbLine
 10
3508.542992797532
 20
693.5775375484131
 30
0.0
 11
3508.955889601912
 21
693.4051209336332
 31
0.0
  0
LINE
  5
4809F
330
1F
100
AcDbEntity
  8
0
370
    15
100
AcDbLine
 10
3503.316184381472
 20
696.0760746519131
 30
0.0
 11
3504.588071885952
 21
695.5449624349933
 31
0.0
  0
LINE
  5
480A0
330
1F
100
AcDbEntity
  8
0
370
    15
100
AcDbLine
 10
3503.356103448192
 20
696.4237211016532
 30
0.0
 11
3504.627990952672
 21
695.8926088847331
 31
0.0
  0
LINE
  5
480A1
330
1F
100
AcDbEntity
  8
0
370
    15
100
AcDbLine
 10
3504.638707332052
 20
696.1302058771532
 30
0.0
 11
3503.607503455933
 21
696.5608139084931
 31
0.0
  0
LINE
  5
480A2
330
1F
100
AcDbEntity
  8
0
370
    15
100
AcDbLine
 10
3510.210414656992
 20
695.1273187185932
 30
0.0
 11
3509.824491214973
 21
695.2884718506932
 31
0.0
  0
LINE
  5
480A3
330
1F
100
AcDbEntity
  8
0
370
    15
100
AcDbLine
 10
3508.226851446072
 20
695.9556110396531
 30
0.0
 11
3507.813954641692
 21
696.1280276518932
 31
0.0
  0
LINE
  5
480A4
330
1F
100
AcDbEntity
  8
0
370
    15
100
AcDbLine
 10
3507.108503393212
 20
696.4226085613331
 30
0.0
 11
3506.705981404252
 21
696.5906928809931
 31
0.0
  0
LINE
  5
480A5
330
1F
100
AcDbEntity
  8
0
370
    15
100
AcDbLine
 10
3505.070994184012
 20
697.2734275429531
 30
0.0
 11
3504.637348833372
 21
697.4545082933132
 31
0.0
  0
LINE
  5
480A6
330
1F
100
AcDbEntity
  8
0
370
    15
100
AcDbLine
 10
3503.427707328352
 20
697.9596279510931
 30
0.0
 11
3503.023110159392
 21
698.1285788196933
 31
0.0
  0
LINE
  5
480A7
330
1F
100
AcDbEntity
  8
0
370
    15
100
AcDbLine
 10
3501.722175199672
 20
698.6718206135731
 30
0.0
 11
3501.236658670072
 21
698.8745616254131
 31
0.0
  0
LINE
  5
480A8
330
1F
100
AcDbEntity
  8
0
370
    15
100
AcDbLine
 10
3499.929498845992
 20
699.4204027841731
 30
0.0
 11
3499.516602326092
 21
699.5928192795731
 31
0.0
  0
LINE
  5
480A9
330
1F
100
AcDbEntity
  8
0
370
    15
100
AcDbLine
 10
3510.520388609052
 20
695.2752960274131
 30
0.0
 11
3499.835118989032
 21
699.7372293412731
 31
0.0
  0
LINE
  5
480AA
330
1F
100
AcDbEntity
  8
0
370
    15
100
AcDbLine
 10
3510.524380516232
 20
695.3100606721331
 30
0.0
 11
3499.839110896212
 21
699.7719939859933
 31
0.0
  0
LINE
  5
480AB
330
1F
100
AcDbEntity
  8
0
370
    15
100
AcDbLine
 10
3515.961986801272
 20
699.7667589291531
 30
0.0
 11
3467.723664398252
 21
719.9100202021131
 31
0.0
  0
LINE
  5
480AC
330
1F
100
AcDbEntity
  8
0
370
    15
100
AcDbLine
 10
3516.114733638272
 20
699.8805015236132
 30
0.0
 11
3467.876411230172
 21
720.0237627965732
 31
0.0
  0
LINE
  5
480AD
330
1F
100
AcDbEntity
  8
0
370
    15
100
AcDbLine
 10
3497.513798803132
 20
697.8552019115332
 30
0.0
 11
3497.509806898492
 21
697.820437266813
 31
0.0
  0
LINE
  5
480AE
330
1F
100
AcDbEntity
  8
0
370
    15
100
AcDbLine
 10
3498.768323858212
 20
699.577399696493
 30
0.0
 11
3498.764331951032
 21
699.5426350517732
 31
0.0
  0
LINE
  5
480AF
330
1F
100
AcDbEntity
  8
0
370
    15
100
AcDbLine
 10
3499.029277486672
 20
697.1859398058131
 30
0.0
 11
3499.069196553392
 21
697.5335862555532
 31
0.0
  0
LINE
  5
480B0
330
1F
100
AcDbEntity
  8
0
370
    15
100
AcDbLine
 10
3498.768323858212
 20
699.577399696493
 30
0.0
 11
3497.513798803132
 21
697.8552019115332
 31
0.0
  0
LINE
  5
480B1
330
1F
100
AcDbEntity
  8
0
370
    15
100
AcDbLine
 10
3498.764331951032
 20
699.5426350517732
 30
0.0
 11
3497.509806898492
 21
697.820437266813
 31
0.0
  0
LINE
  5
480B2
330
1F
100
AcDbEntity
  8
0
370
    15
100
AcDbLine
 10
3499.623696569612
 20
697.8225803003731
 30
0.0
 11
3499.441736138513
 21
697.6921026161931
 31
0.0
  0
LINE
  5
480B3
330
1F
100
AcDbEntity
  8
0
370
    15
100
AcDbLine
 10
3499.480018177772
 20
697.3620361922533
 30
0.0
 11
3501.081167992992
 21
698.4047879523131
 31
0.0
  0
LINE
  5
480B4
330
1F
100
AcDbEntity
  8
0
370
    15
100
AcDbLine
 10
3499.440099111052
 20
697.0143897425132
 30
0.0
 11
3501.041248926272
 21
698.0571415025731
 31
0.0
  0
LINE
  5
480B5
330
1F
100
AcDbEntity
  8
0
370
    15
100
AcDbLine
 10
3501.236658670072
 20
698.8745616254131
 30
0.0
 11
3499.810584113032
 21
697.9532791575932
 31
0.0
  0
LINE
  5
480B6
330
1F
100
AcDbEntity
  8
0
370
    15
100
AcDbLine
 10
3504.637348833372
 20
697.4545082933132
 30
0.0
 11
3502.214679363252
 21
696.2201018949731
 31
0.0
  0
LWPOLYLINE
  5
480B7
330
1F
100
AcDbEntity
  8
0
370
    15
100
AcDbPolyline
 90
        8
 70
     0
 43
0.0
 10
3467.876425240812
 20
720.0237569418732
 10
3467.379277563532
 20
720.1887291417731
 10
3466.748119097632
 20
720.2906795957333
 10
3466.108985821672
 20
720.2821448477532
 10
3465.499013477992
 20
720.1623775282333
 10
3464.952124508272
 20
719.9378703165932
 10
3464.496625525952
 20
719.6210827230932
 10
3464.201575430252
 20
719.2974186891931
  0
LINE
  5
480B8
330
1F
100
AcDbEntity
  8
0
370
    15
100
AcDbLine
 10
3499.440099111052
 20
697.0143897425132
 30
0.0
 11
3499.480018177772
 21
697.3620361922533
 31
0.0
  0
LINE
  5
480B9
330
1F
100
AcDbEntity
  8
0
370
    15
100
AcDbLine
 10
3499.529899977932
 20
697.7506018006931
 30
0.0
 11
3499.569819044652
 21
698.0982482504332
 31
0.0
  0
LINE
  5
480BA
330
1F
100
AcDbEntity
  8
0
370
    15
100
AcDbLine
 10
3499.839110896212
 20
699.7719939859933
 30
0.0
 11
3499.835118989032
 21
699.7372293412731
 31
0.0
  0
LINE
  5
480BB
330
1F
100
AcDbEntity
  8
0
370
    15
100
AcDbLine
 10
3499.889579779272
 20
699.0727563344332
 30
0.0
 11
3499.929498845992
 21
699.4204027841731
 31
0.0
  0
LINE
  5
480BC
330
1F
100
AcDbEntity
  8
0
370
    15
100
AcDbLine
 10
3501.041248926272
 20
698.0571415025731
 30
0.0
 11
3501.081167992992
 21
698.4047879523131
 31
0.0
  0
LINE
  5
480BD
330
1F
100
AcDbEntity
  8
0
370
    15
100
AcDbLine
 10
3500.911172607813
 20
696.4001018397732
 30
0.0
 11
3500.951091677072
 21
696.747748289513
 31
0.0
  0
LINE
  5
480BE
330
1F
100
AcDbEntity
  8
0
370
    15
100
AcDbLine
 10
3501.299170688812
 20
696.2380823847931
 30
0.0
 11
3501.339089755532
 21
696.5857288345333
 31
0.0
  0
LINE
  5
480BF
330
1F
100
AcDbEntity
  8
0
370
    15
100
AcDbLine
 10
3501.483011680033
 20
697.2705554277931
 30
0.0
 11
3501.522930746752
 21
697.6182018775332
 31
0.0
  0
LINE
  5
480C0
330
1F
100
AcDbEntity
  8
0
370
    15
100
AcDbLine
 10
3501.682256132953
 20
698.3241741638332
 30
0.0
 11
3501.722175199672
 21
698.6718206135731
 31
0.0
  0
LINE
  5
480C1
330
1F
100
AcDbEntity
  8
0
370
    15
100
AcDbLine
 10
3501.265830260192
 20
698.3276770575132
 30
0.0
 11
3500.951091677072
 21
696.747748289513
 31
0.0
  0
LINE
  5
480C2
330
1F
100
AcDbEntity
  8
0
370
    15
100
AcDbLine
 10
3499.516602326092
 20
699.5928192795731
 30
0.0
 11
3499.069196553392
 21
697.5335862555532
 31
0.0
  0
LINE
  5
480C3
330
1F
100
AcDbEntity
  8
0
370
    15
100
AcDbLine
 10
3499.569819044652
 20
698.0982482504332
 30
0.0
 11
3499.929498845992
 21
699.4204027841731
 31
0.0
  0
LINE
  5
480C4
330
1F
100
AcDbEntity
  8
0
370
    15
100
AcDbLine
 10
3499.531495232552
 20
697.7564658326532
 30
0.0
 11
3499.889579779272
 21
699.0727563344332
 31
0.0
  0
LINE
  5
480C5
330
1F
100
AcDbEntity
  8
0
370
    15
100
AcDbLine
 10
3503.023110159392
 20
698.1285788196933
 30
0.0
 11
3501.739779619632
 21
697.2212304057932
 31
0.0
  0
LINE
  5
480C6
330
1F
100
AcDbEntity
  8
0
370
    15
100
AcDbLine
 10
3501.339089755532
 20
696.5857288345333
 30
0.0
 11
3503.427707328352
 21
697.9596279510931
 31
0.0
  0
LINE
  5
480C7
330
1F
100
AcDbEntity
  8
0
370
    15
100
AcDbLine
 10
3501.299170688812
 20
696.2380823847931
 30
0.0
 11
3503.387788261632
 21
697.6119815013532
 31
0.0
  0
LINE
  5
480C8
330
1F
100
AcDbEntity
  8
0
370
    15
100
AcDbLine
 10
3502.642099895253
 20
696.0416204917132
 30
0.0
 11
3503.356103448192
 21
696.4237211016532
 31
0.0
  0
LINE
  5
480C9
330
1F
100
AcDbEntity
  8
0
370
    15
100
AcDbLine
 10
3502.602180828532
 20
695.6939740419731
 30
0.0
 11
3503.316184381472
 21
696.0760746519131
 31
0.0
  0
LINE
  5
480CA
330
1F
100
AcDbEntity
  8
0
370
    15
100
AcDbLine
 10
3503.607503455933
 20
696.5608139084931
 30
0.0
 11
3504.309526949012
 21
696.9264677796732
 31
0.0
  0
LINE
  5
480CB
330
1F
100
AcDbEntity
  8
0
370
    15
100
AcDbLine
 10
3503.955800694313
 20
696.4153726525132
 30
0.0
 11
3504.269607882292
 21
696.5788213299331
 31
0.0
  0
LINE
  5
480CC
330
1F
100
AcDbEntity
  8
0
370
    15
100
AcDbLine
 10
3502.174760296532
 20
695.8724554452333
 30
0.0
 11
3502.214679363252
 21
696.2201018949731
 31
0.0
  0
LINE
  5
480CD
330
1F
100
AcDbEntity
  8
0
370
    15
100
AcDbLine
 10
3502.602180828532
 20
695.6939740419731
 30
0.0
 11
3502.642099895253
 21
696.0416204917132
 31
0.0
  0
LINE
  5
480CE
330
1F
100
AcDbEntity
  8
0
370
    15
100
AcDbLine
 10
3503.387788261632
 20
697.6119815013532
 30
0.0
 11
3503.427707328352
 21
697.9596279510931
 31
0.0
  0
LINE
  5
480CF
330
1F
100
AcDbEntity
  8
0
370
    15
100
AcDbLine
 10
3503.316184381472
 20
696.0760746519131
 30
0.0
 11
3503.356103448192
 21
696.4237211016532
 31
0.0
  0
LINE
  5
480D0
330
1F
100
AcDbEntity
  8
0
370
    15
100
AcDbLine
 10
3501.522930746752
 20
697.6182018775332
 30
0.0
 11
3501.722175199672
 21
698.6718206135731
 31
0.0
  0
LINE
  5
480D1
330
1F
100
AcDbEntity
  8
0
370
    15
100
AcDbLine
 10
3501.483011680033
 20
697.2705554277931
 30
0.0
 11
3501.682256132953
 21
698.3241741638332
 31
0.0
  0
LINE
  5
480D2
330
1F
100
AcDbEntity
  8
0
370
    15
100
AcDbLine
 10
3505.061383271052
 20
695.0313810237532
 30
0.0
 11
3505.070994184012
 21
697.2734275429531
 31
0.0
  0
LINE
  5
480D3
330
1F
100
AcDbEntity
  8
0
370
    15
100
AcDbLine
 10
3504.588071885952
 20
695.5449624349933
 30
0.0
 11
3504.562920673873
 21
694.8752122555731
 31
0.0
  0
LINE
  5
480D4
330
1F
100
AcDbEntity
  8
0
370
    15
100
AcDbLine
 10
3504.627990952672
 20
695.8926088847331
 30
0.0
 11
3504.602839740592
 21
695.2228587053132
 31
0.0
  0
LINE
  5
480D5
330
1F
100
AcDbEntity
  8
0
370
    15
100
AcDbLine
 10
3504.628768586373
 20
696.3920733214131
 30
0.0
 11
3504.616347308192
 21
696.1395429298532
 31
0.0
  0
LINE
  5
480D6
330
1F
100
AcDbEntity
  8
0
370
    15
100
AcDbLine
 10
3504.668687653092
 20
696.7397197711532
 30
0.0
 11
3504.638707332052
 21
696.1302058771532
 31
0.0
  0
LINE
  5
480D7
330
1F
100
AcDbEntity
  8
0
370
    15
100
AcDbLine
 10
3504.269607882292
 20
696.5788213299331
 30
0.0
 11
3504.309526949012
 21
696.9264677796732
 31
0.0
  0
LINE
  5
480D8
330
1F
100
AcDbEntity
  8
0
370
    15
100
AcDbLine
 10
3504.667889308232
 20
696.8399091440531
 30
0.0
 11
3504.651593221952
 21
696.6979900755932
 31
0.0
  0
LINE
  5
480D9
330
1F
100
AcDbEntity
  8
0
370
    15
100
AcDbLine
 10
3504.628768586373
 20
696.3920733214131
 30
0.0
 11
3504.663735872292
 21
696.6965957756131
 31
0.0
  0
LINE
  5
480DA
330
1F
100
AcDbEntity
  8
0
370
    15
100
AcDbLine
 10
3504.588071885952
 20
695.5449624349933
 30
0.0
 11
3504.627990952672
 21
695.8926088847331
 31
0.0
  0
LINE
  5
480DB
330
1F
100
AcDbEntity
  8
0
370
    15
100
AcDbLine
 10
3504.562920673873
 20
694.8752122555731
 30
0.0
 11
3504.602839740592
 21
695.2228587053132
 31
0.0
  0
LINE
  5
480DC
330
1F
100
AcDbEntity
  8
0
370
    15
100
AcDbLine
 10
3505.021464204332
 20
694.6837345740132
 30
0.0
 11
3505.061383271052
 21
695.0313810237532
 31
0.0
  0
LINE
  5
480DD
330
1F
100
AcDbEntity
  8
0
370
    15
100
AcDbLine
 10
3505.411537282452
 20
694.5208486462932
 30
0.0
 11
3505.451456351712
 21
694.8684950960332
 31
0.0
  0
LINE
  5
480DE
330
1F
100
AcDbEntity
  8
0
370
    15
100
AcDbLine
 10
3505.814059271413
 20
694.3527643266332
 30
0.0
 11
3505.853978338132
 21
694.7004107763732
 31
0.0
  0
LINE
  5
480DF
330
1F
100
AcDbEntity
  8
0
370
    15
100
AcDbLine
 10
3506.705981404252
 20
696.5906928809931
 30
0.0
 11
3505.451456351712
 21
694.8684950960332
 31
0.0
  0
LINE
  5
480E0
330
1F
100
AcDbEntity
  8
0
370
    15
100
AcDbLine
 10
3508.839526451352
 20
693.9363233815131
 30
0.0
 11
3508.226851446072
 21
695.9556110396531
 31
0.0
  0
LINE
  5
480E1
330
1F
100
AcDbEntity
  8
0
370
    15
100
AcDbLine
 10
3507.891254456612
 20
695.2503534941131
 30
0.0
 11
3508.503073730813
 21
693.2298910986733
 31
0.0
  0
LINE
  5
480E2
330
1F
100
AcDbEntity
  8
0
370
    15
100
AcDbLine
 10
3507.931173523332
 20
695.5979999438532
 30
0.0
 11
3508.542992797532
 21
693.5775375484131
 31
0.0
  0
LINE
  5
480E3
330
1F
100
AcDbEntity
  8
0
370
    15
100
AcDbLine
 10
3506.519510522432
 20
694.0581834171933
 30
0.0
 11
3506.559429589152
 21
694.4058298669331
 31
0.0
  0
LINE
  5
480E4
330
1F
100
AcDbEntity
  8
0
370
    15
100
AcDbLine
 10
3507.068584326492
 20
696.0749621115933
 30
0.0
 11
3507.108503393212
 21
696.4226085613331
 31
0.0
  0
LINE
  5
480E5
330
1F
100
AcDbEntity
  8
0
370
    15
100
AcDbLine
 10
3506.905433964452
 20
693.8970302876332
 30
0.0
 11
3506.945353031172
 21
694.2446767373731
 31
0.0
  0
LINE
  5
480E6
330
1F
100
AcDbEntity
  8
0
370
    15
100
AcDbLine
 10
3507.891254456612
 20
695.2503534941131
 30
0.0
 11
3507.931173523332
 21
695.5979999438532
 31
0.0
  0
LINE
  5
480E7
330
1F
100
AcDbEntity
  8
0
370
    15
100
AcDbLine
 10
3505.853978338132
 20
694.7004107763732
 30
0.0
 11
3507.108503393212
 21
696.4226085613331
 31
0.0
  0
LINE
  5
480E8
330
1F
100
AcDbEntity
  8
0
370
    15
100
AcDbLine
 10
3505.814059271413
 20
694.3527643266332
 30
0.0
 11
3507.068584326492
 21
696.0749621115933
 31
0.0
  0
LINE
  5
480E9
330
1F
100
AcDbEntity
  8
0
370
    15
100
AcDbLine
 10
3507.813954641692
 20
696.1280276518932
 30
0.0
 11
3506.559429589152
 21
694.4058298669331
 31
0.0
  0
LINE
  5
480EA
330
1F
100
AcDbEntity
  8
0
370
    15
100
AcDbLine
 10
3506.945353031172
 20
694.2446767373731
 30
0.0
 11
3507.931173523332
 21
695.5979999438532
 31
0.0
  0
LINE
  5
480EB
330
1F
100
AcDbEntity
  8
0
370
    15
100
AcDbLine
 10
3506.905433964452
 20
693.8970302876332
 30
0.0
 11
3507.891254456612
 21
695.2503534941131
 31
0.0
  0
LINE
  5
480EC
330
1F
100
AcDbEntity
  8
0
370
    15
100
AcDbLine
 10
3508.452580430733
 20
689.1701957789132
 30
0.0
 11
3507.983196419032
 21
684.5326029027333
 31
0.0
  0
LINE
  5
480ED
330
1F
100
AcDbEntity
  8
0
370
    15
100
AcDbLine
 10
3508.503073730813
 20
693.2298910986733
 30
0.0
 11
3508.542992797532
 21
693.5775375484131
 31
0.0
  0
LINE
  5
480EE
330
1F
100
AcDbEntity
  8
0
370
    15
100
AcDbLine
 10
3508.915970535193
 20
693.0574744838931
 30
0.0
 11
3508.955889601912
 21
693.4051209336332
 31
0.0
  0
LINE
  5
480EF
330
1F
100
AcDbEntity
  8
0
370
    15
100
AcDbLine
 10
3510.170495590272
 20
694.7796722688531
 30
0.0
 11
3510.210414656992
 21
695.1273187185932
 31
0.0
  0
LINE
  5
480F0
330
1F
100
AcDbEntity
  8
0
370
    15
100
AcDbLine
 10
3510.524380516232
 20
695.3100606721331
 30
0.0
 11
3510.520388609052
 21
695.2752960274131
 31
0.0
  0
LINE
  5
480F1
330
1F
100
AcDbEntity
  8
0
370
    15
100
AcDbLine
 10
3509.824491214973
 20
695.2884718506932
 30
0.0
 11
3508.839526451352
 21
693.9363233815131
 31
0.0
  0
LINE
  5
480F2
330
1F
100
AcDbEntity
  8
0
370
    15
100
AcDbLine
 10
3508.955889601912
 20
693.4051209336332
 30
0.0
 11
3510.210414656992
 21
695.1273187185932
 31
0.0
  0
LINE
  5
480F3
330
1F
100
AcDbEntity
  8
0
370
    15
100
AcDbLine
 10
3508.915970535193
 20
693.0574744838931
 30
0.0
 11
3510.170495590272
 21
694.7796722688531
 31
0.0
  0
LINE
  5
480F4
330
1F
100
AcDbEntity
  8
0
370
    15
100
AcDbLine
 10
3509.623771039832
 20
692.7983441563333
 30
0.0
 11
3510.878296094912
 21
694.5205419412932
 31
0.0
  0
LINE
  5
480F5
330
1F
100
AcDbEntity
  8
0
370
    15
100
AcDbLine
 10
3512.199764262232
 20
689.8511720598333
 30
0.0
 11
3511.730380250532
 21
685.213579181113
 31
0.0
  0
LINE
  5
480F6
330
1F
100
AcDbEntity
  8
0
370
    15
100
AcDbLine
 10
3511.793834886133
 20
690.3786368138931
 30
0.0
 11
3516.979339117592
 21
697.4972382891333
 31
0.0
  0
LINE
  5
480F7
330
1F
100
AcDbEntity
  8
0
370
    15
100
AcDbLine
 10
3512.199764262232
 20
689.8511720598333
 30
0.0
 11
3517.385268493692
 21
696.9697735350733
 31
0.0
  0
LWPOLYLINE
  5
480F8
330
1F
100
AcDbEntity
  8
0
370
    15
100
AcDbPolyline
 90
        7
 70
     0
 43
0.0
 10
3517.678434262452
 20
697.7392027582132
 10
3517.662929967832
 20
698.1438393962332
 10
3517.535544360272
 20
698.5797175516531
 10
3517.297484808452
 20
698.9904748302133
 10
3516.958285705293
 20
699.3589876822132
 10
3516.530649344412
 20
699.6710932048131
 10
3516.114714247912
 20
699.8805096135131
  0
LINE
  5
480F9
330
1F
100
AcDbEntity
  8
0
370
    15
100
AcDbLine
 10
3517.385268493692
 20
696.9697735350733
 30
0.0
 11
3517.017689404112
 21
692.4719373008931
 31
0.0
  0
LINE
  5
480FA
330
1F
100
AcDbEntity
  8
0
370
    15
100
AcDbLine
 10
3517.678500810453
 20
697.7399689619133
 30
0.0
 11
3517.310766742772
 21
693.2402363815131
 31
0.0
  0
LINE
  5
480FB
330
1F
100
AcDbEntity
  8
0
370
    15
100
AcDbLine
 10
3511.730380250532
 20
685.213579181113
 30
0.0
 11
3517.017689404112
 21
692.4719373008931
 31
0.0
  0
ARC
  5
480FC
330
1F
100
AcDbEntity
  8
0
370
    15
100
AcDbCircle
 10
3494.366682209392
 20
699.5158508965532
 30
0.0
 40
5.3927942817
100
AcDbArc
 50
340.2338234225946
 51
344.7595869101067
  0
ARC
  5
480FD
330
1F
100
AcDbEntity
  8
0
370
    15
100
AcDbCircle
 10
3497.546485351932
 20
698.0102359956731
 30
0.0
 40
4.005417191079999
100
AcDbArc
 50
345.6921725999021
 51
349.3581041625017
  0
ARC
  5
480FE
330
1F
100
AcDbEntity
  8
0
370
    15
100
AcDbCircle
 10
3497.811297296272
 20
697.9441636792532
 30
0.0
 40
3.732490917019999
100
AcDbArc
 50
345.1757610624002
 51
345.6703677667969
  0
ARC
  5
480FF
330
1F
100
AcDbEntity
  8
0
370
    15
100
AcDbCircle
 10
3503.129711033312
 20
699.2071165508532
 30
0.0
 40
2.56671359656
100
AcDbArc
 50
305.8410848861931
 51
308.0882059049977
  0
ARC
  5
48100
330
1F
100
AcDbEntity
  8
0
370
    15
100
AcDbCircle
 10
3503.091317561712
 20
698.8574670520331
 30
0.0
 40
2.564196542919999
100
AcDbArc
 50
305.8396974453144
 51
307.9298112333832
  0
ARC
  5
48101
330
1F
100
AcDbEntity
  8
0
370
    15
100
AcDbCircle
 10
3483.136324611732
 20
695.9722873080531
 30
0.0
 40
1.246905964399999
100
AcDbArc
 50
169.0893657315953
 51
172.8672738085049
  0
ARC
  5
48102
330
1F
100
AcDbEntity
  8
0
370
    15
100
AcDbCircle
 10
3482.982989947613
 20
696.0139713699732
 30
0.0
 40
1.087692599819999
100
AcDbArc
 50
154.9183348832996
 51
160.246710080892
  0
ARC
  5
48103
330
1F
100
AcDbEntity
  8
0
370
    15
100
AcDbCircle
 10
3482.955681655772
 20
696.0263310861733
 30
0.0
 40
1.057720023239999
100
AcDbArc
 50
152.8321347741992
 51
154.8976425147042
  0
ARC
  5
48104
330
1F
100
AcDbEntity
  8
0
370
    15
100
AcDbCircle
 10
3497.837548612832
 20
697.6024124298133
 30
0.0
 40
0.4088460885799999
100
AcDbArc
 50
173.4566938248962
 51
178.2526530782042
  0
ARC
  5
48105
330
1F
100
AcDbEntity
  8
0
370
    15
100
AcDbCircle
 10
3510.556339466792
 20
694.7731686902932
 30
0.0
 40
0.4070460490000001
100
AcDbArc
 50
347.8244766058016
 51
353.4506878177045
  0
ARC
  5
48106
330
1F
100
AcDbEntity
  8
0
370
    15
100
AcDbCircle
 10
3481.614404754892
 20
696.0974560086931
 30
0.0
 40
0.29999999944
100
AcDbArc
 50
323.9287492342906
 51
352.9283838074988
  0
SPLINE
  5
48107
330
1F
100
AcDbEntity
  8
0
370
    15
100
AcDbSpline
210
0.0
220
0.0
230
1.0
 70
     8
 71
     3
 72
    11
 73
     7
 74
     0
 42
0.0000000001
 43
0.0000000001
 40
0.0
 40
0.0
 40
0.0
 40
0.0
 40
0.2671567507
 40
0.5338157022
 40
0.7814766259
 40
1.0
 40
1.0
 40
1.0
 40
1.0
 10
3508.552984001833
 20
692.6037498668331
 30
0.0
 10
3508.648183821592
 20
692.5639965198731
 30
0.0
 10
3508.851355833332
 20
692.5131898041131
 30
0.0
 10
3509.156759487193
 20
692.5219286817332
 30
0.0
 10
3509.429797627932
 20
692.6118516489532
 30
0.0
 10
3509.574085312432
 20
692.730136152033
 30
0.0
 10
3509.623771039832
 20
692.7983441563333
 30
0.0
  0
SPLINE
  5
48108
330
1F
100
AcDbEntity
  8
0
370
    15
100
AcDbSpline
210
0.0
220
0.0
230
1.0
 70
     8
 71
     3
 72
     9
 73
     5
 74
     0
 42
0.0000000001
 43
0.0000000001
 40
0.0
 40
0.0
 40
0.0
 40
0.0
 40
0.2564755791
 40
1.0
 40
1.0
 40
1.0
 40
1.0
 10
3510.878296094912
 20
694.5205419412932
 30
0.0
 10
3510.887557562292
 20
694.5332559798733
 30
0.0
 10
3510.921256392532
 20
694.5845195044732
 30
0.0
 10
3510.944610613032
 20
694.6427454383131
 30
0.0
 10
3510.954229453332
 20
694.6873197382931
 30
0.0
  0
LINE
  5
48109
330
1F
100
AcDbEntity
  8
0
370
    15
100
AcDbLine
 10
3499.810584113032
 20
697.9532791575932
 30
0.0
 11
3499.623696569612
 21
697.8225803003731
 31
0.0
  0
SPLINE
  5
4810A
330
1F
100
AcDbEntity
  8
0
370
    15
100
AcDbSpline
210
0.0
220
0.0
230
1.0
 70
     8
 71
     3
 72
     9
 73
     5
 74
     0
 42
0.0000000001
 43
0.0000000001
 40
0.0
 40
0.0
 40
0.0
 40
0.0
 40
0.5375276160000001
 40
1.0
 40
1.0
 40
1.0
 40
1.0
 10
3501.739779619632
 20
697.2212304057932
 30
0.0
 10
3501.662384514072
 20
697.1672771583532
 30
0.0
 10
3501.519141328373
 20
697.0658395735731
 30
0.0
 10
3501.378816958272
 20
696.9603114254733
 30
0.0
 10
3501.315331898553
 20
696.9097302820332
 30
0.0
  0
LINE
  5
4810B
330
1F
100
AcDbEntity
  8
0
370
    15
100
AcDbLine
 10
3501.317575424673
 20
698.5695906783332
 30
0.0
 11
3501.265830260192
 21
698.3276770575132
 31
0.0
  0
LINE
  5
4810C
330
1F
100
AcDbEntity
  8
0
370
    15
100
AcDbLine
 10
3504.713049596372
 20
697.1869537636532
 30
0.0
 11
3504.691512291212
 21
697.0456365354932
 31
0.0
  0
SPLINE
  5
4810D
330
1F
100
AcDbEntity
  8
0
370
    15
100
AcDbSpline
210
0.0
220
0.0
230
1.0
 70
     8
 71
     3
 72
    11
 73
     7
 74
     0
 42
0.0000000001
 43
0.0000000001
 40
0.0
 40
0.0
 40
0.0
 40
0.0
 40
0.2197285425
 40
0.4566321037
 40
0.7172620192000001
 40
1.0
 40
1.0
 40
1.0
 40
1.0
 10
3497.428892635632
 20
697.6148790571532
 30
0.0
 10
3497.427229481732
 20
697.5604329938333
 30
0.0
 10
3497.447277290252
 20
697.445699024673
 30
0.0
 10
3497.539380105792
 20
697.2900632958133
 30
0.0
 10
3497.683570663232
 20
697.1577742284132
 30
0.0
 10
3497.803035283332
 20
697.0926917499932
 30
0.0
 10
3497.867714381813
 20
697.0656831806932
 30
0.0
  0
SPLINE
  5
4810E
330
1F
100
AcDbEntity
  8
0
370
    15
100
AcDbSpline
210
0.0
220
0.0
230
1.0
 70
     8
 71
     3
 72
    12
 73
     8
 74
     0
 42
0.0000000001
 43
0.0000000001
 40
0.0
 40
0.0
 40
0.0
 40
0.0
 40
0.2668955907
 40
0.5333657862
 40
0.6607324198
 40
0.7816903536
 40
1.0
 40
1.0
 40
1.0
 40
1.0
 10
3499.835118989032
 20
699.7372293412731
 30
0.0
 10
3499.739930474812
 20
699.776977968913
 30
0.0
 10
3499.536855125312
 20
699.8277083449732
 30
0.0
 10
3499.278045396553
 20
699.8205924435331
 30
0.0
 10
3499.084590944752
 20
699.7703699150731
 30
0.0
 10
3498.919383424013
 20
699.6972782146731
 30
0.0
 10
3498.814011752612
 20
699.6108349204533
 30
0.0
 10
3498.764331951032
 20
699.5426350517732
 30
0.0
  0
SPLINE
  5
4810F
330
1F
100
AcDbEntity
  8
0
370
    15
100
AcDbSpline
210
0.0
220
0.0
230
1.0
 70
     8
 71
     3
 72
     9
 73
     5
 74
     0
 42
0.0000000001
 43
0.0000000001
 40
0.0
 40
0.0
 40
0.0
 40
0.0
 40
0.2563084718
 40
1.0
 40
1.0
 40
1.0
 40
1.0
 10
3497.509806898492
 20
697.820437266813
 30
0.0
 10
3497.500202363472
 20
697.8072522690531
 30
0.0
 10
3497.465344579492
 20
697.7539755379132
 30
0.0
 10
3497.441732917292
 20
697.693188661773
 30
0.0
 10
3497.432498996212
 20
697.6467671899731
 30
0.0
  0
LINE
  5
48110
330
1F
100
AcDbEntity
  8
0
370
    15
100
AcDbLine
 10
3501.041248926272
 20
698.0571415025731
 30
0.0
 11
3501.239369319972
 21
698.1943750736732
 31
0.0
  0
SPLINE
  5
48111
330
1F
100
AcDbEntity
  8
0
370
    15
100
AcDbSpline
210
0.0
220
0.0
230
1.0
 70
     8
 71
     3
 72
     9
 73
     5
 74
     0
 42
0.0000000001
 43
0.0000000001
 40
0.0
 40
0.0
 40
0.0
 40
0.0
 40
0.2576754435
 40
1.0
 40
1.0
 40
1.0
 40
1.0
 10
3504.269607882292
 20
696.5788213299331
 30
0.0
 10
3504.298497253012
 20
696.5940368671931
 30
0.0
 10
3504.409577736972
 20
696.6550270525531
 30
0.0
 10
3504.516454553952
 20
696.7236990132533
 30
0.0
 10
3504.592704589413
 20
696.7787797489132
 30
0.0
  0
SPLINE
  5
48112
330
1F
100
AcDbEntity
  8
0
370
    15
100
AcDbSpline
210
0.0
220
0.0
230
1.0
 70
     8
 71
     3
 72
     9
 73
     5
 74
     0
 42
0.0000000001
 43
0.0000000001
 40
0.0
 40
0.0
 40
0.0
 40
0.0
 40
0.2473292892
 40
1.0
 40
1.0
 40
1.0
 40
1.0
 10
3481.959300867232
 20
696.381579661933
 30
0.0
 10
3481.954288205172
 20
696.3676355267532
 30
0.0
 10
3481.935146833752
 20
696.3108566080531
 30
0.0
 10
3481.920504274773
 20
696.2525748373932
 30
0.0
 10
3481.911958221252
 20
696.2082987943731
 30
0.0
  0
SPLINE
  5
48113
330
1F
100
AcDbEntity
  8
0
370
    15
100
AcDbSpline
210
0.0
220
0.0
230
1.0
 70
     8
 71
     3
 72
     9
 73
     5
 74
     0
 42
0.0000000001
 43
0.0000000001
 40
0.0
 40
0.0
 40
0.0
 40
0.0
 40
0.2364611508
 40
1.0
 40
1.0
 40
1.0
 40
1.0
 10
3501.315331898553
 20
696.9097302820332
 30
0.0
 10
3501.337926102792
 20
696.9634229737332
 30
0.0
 10
3501.426497650312
 20
697.1934213478732
 30
0.0
 10
3501.487979544112
 20
697.4333774440331
 30
0.0
 10
3501.522930746752
 20
697.6182018775332
 30
0.0
  0
LINE
  5
48114
330
1F
100
AcDbEntity
  8
0
370
    15
100
AcDbLine
 10
3501.081167992992
 20
698.4047879523131
 30
0.0
 11
3501.317575424673
 21
698.5695906783332
 31
0.0
  0
SPLINE
  5
48115
330
1F
100
AcDbEntity
  8
0
370
    15
100
AcDbSpline
210
0.0
220
0.0
230
1.0
 70
     8
 71
     3
 72
     9
 73
     5
 74
     0
 42
0.0000000001
 43
0.0000000001
 40
0.0
 40
0.0
 40
0.0
 40
0.0
 40
0.2576754065
 40
1.0
 40
1.0
 40
1.0
 40
1.0
 10
3504.309526949012
 20
696.9264677796732
 30
0.0
 10
3504.338416182572
 20
696.9416832432732
 30
0.0
 10
3504.449496155992
 20
697.0026731390732
 30
0.0
 10
3504.556372508152
 20
697.0713447365531
 30
0.0
 10
3504.632622231192
 20
697.1264251699531
 30
0.0
  0
SPLINE
  5
48116
330
1F
100
AcDbEntity
  8
0
370
    15
100
AcDbSpline
210
0.0
220
0.0
230
1.0
 70
     8
 71
     3
 72
    11
 73
     7
 74
     0
 42
0.0000000001
 43
0.0000000001
 40
0.0
 40
0.0
 40
0.0
 40
0.0
 40
0.2671567507
 40
0.5338157022
 40
0.7814766259
 40
1.0
 40
1.0
 40
1.0
 40
1.0
 10
3499.839110896212
 20
699.7719939859933
 30
0.0
 10
3499.743911076452
 20
699.8117473329532
 30
0.0
 10
3499.540739067253
 20
699.8625540487132
 30
0.0
 10
3499.235335410852
 20
699.8538151685531
 30
0.0
 10
3498.962297270112
 20
699.7638922038731
 30
0.0
 10
3498.818009585612
 20
699.645607700793
 30
0.0
 10
3498.768323858212
 20
699.577399696493
 30
0.0
  0
SPLINE
  5
48117
330
1F
100
AcDbEntity
  8
0
370
    15
100
AcDbSpline
210
0.0
220
0.0
230
1.0
 70
     8
 71
     3
 72
     9
 73
     5
 74
     0
 42
0.0000000001
 43
0.0000000001
 40
0.0
 40
0.0
 40
0.0
 40
0.0
 40
0.507744396
 40
1.0
 40
1.0
 40
1.0
 40
1.0
 10
3497.513798803132
 20
697.8552019115332
 30
0.0
 10
3497.491483407072
 20
697.8245675887531
 30
0.0
 10
3497.454417728092
 20
697.7587850812531
 30
0.0
 10
3497.435555710952
 20
697.6855066908531
 30
0.0
 10
3497.431365742193
 20
697.6490021410532
 30
0.0
  0
SPLINE
  5
48118
330
1F
100
AcDbEntity
  8
0
370
    15
100
AcDbSpline
210
0.0
220
0.0
230
1.0
 70
     8
 71
     3
 72
    14
 73
    10
 74
     0
 42
0.0000000001
 43
0.0000000001
 40
0.0
 40
0.0
 40
0.0
 40
0.0
 40
0.108838089
 40
0.2197299872
 40
0.3347039257
 40
0.4552573126
 40
0.582228967
 40
0.7157681894
 40
1.0
 40
1.0
 40
1.0
 40
1.0
 10
3458.693473792172
 20
711.4019602103931
 30
0.0
 10
3458.678788083672
 20
711.3024023246732
 30
0.0
 10
3458.670646601353
 20
711.0975889547733
 30
0.0
 10
3458.723534882672
 20
710.7905692944932
 30
0.0
 10
3458.839629484112
 20
710.4899395198331
 30
0.0
 10
3459.015602652613
 20
710.2027519712732
 30
0.0
 10
3459.247075481513
 20
709.9351638856731
 30
0.0
 10
3459.629789410012
 20
709.6056900437331
 30
0.0
 10
3459.971969444473
 20
709.4152670362132
 30
0.0
 10
3460.214258035332
 20
709.3134571026732
 30
0.0
  0
SPLINE
  5
48119
330
1F
100
AcDbEntity
  8
0
370
    15
100
AcDbSpline
210
0.0
220
0.0
230
1.0
 70
     8
 71
     3
 72
    13
 73
     9
 74
     0
 42
0.0000000001
 43
0.0000000001
 40
0.0
 40
0.0
 40
0.0
 40
0.0
 40
0.2665443977
 40
0.5326514936
 40
0.6599169714000001
 40
0.7806597858
 40
0.8939794201000001
 40
1.0
 40
1.0
 40
1.0
 40
1.0
 10
3508.715791024452
 20
689.8192634419131
 30
0.0
 10
3508.989404218652
 20
689.7050199289731
 30
0.0
 10
3509.573042063312
 20
689.5590894232732
 30
0.0
 10
3510.317214006512
 20
689.5797730344331
 30
0.0
 10
3510.872924045712
 20
689.7236059243132
 30
0.0
 10
3511.242176629532
 20
689.8876759924132
 30
0.0
 10
3511.555579855912
 20
690.1036463631132
 30
0.0
 10
3511.724386770012
 20
690.2833144924731
 30
0.0
 10
3511.793834886133
 20
690.3786368138931
 30
0.0
  0
SPLINE
  5
4811A
330
1F
100
AcDbEntity
  8
0
370
    15
100
AcDbSpline
210
0.0
220
0.0
230
1.0
 70
     8
 71
     3
 72
    14
 73
    10
 74
     0
 42
0.0000000001
 43
0.0000000001
 40
0.0
 40
0.0
 40
0.0
 40
0.0
 40
0.1159665323
 40
0.2281516137
 40
0.3405115011
 40
0.4569382251
 40
0.5803758323000001
 40
0.7123488980000001
 40
1.0
 40
1.0
 40
1.0
 40
1.0
 10
3459.460116307652
 20
712.2320453523532
 30
0.0
 10
3459.394549700152
 20
712.1420255323933
 30
0.0
 10
3459.285911764012
 20
711.9485165188532
 30
0.0
 10
3459.206547757132
 20
711.6271275680331
 30
0.0
 10
3459.218789005192
 20
711.2957060312332
 30
0.0
 10
3459.321292638132
 20
710.9695300160731
 30
0.0
 10
3459.508096049132
 20
710.661558371413
 30
0.0
 10
3459.867456613113
 20
710.2797547281132
 30
0.0
 10
3460.222564119812
 20
710.0689814082332
 30
0.0
 10
3460.477468623972
 20
709.9625247148731
 30
0.0
  0
SPLINE
  5
4811B
330
1F
100
AcDbEntity
  8
0
370
    15
100
AcDbSpline
210
0.0
220
0.0
230
1.0
 70
     8
 71
     3
 72
    13
 73
     9
 74
     0
 42
0.0000000001
 43
0.0000000001
 40
0.0
 40
0.0
 40
0.0
 40
0.0
 40
0.2665443977
 40
0.5326514936
 40
0.6599169714000001
 40
0.7806597858
 40
0.8939794201000001
 40
1.0
 40
1.0
 40
1.0
 40
1.0
 10
3467.723664398252
 20
719.9100202021131
 30
0.0
 10
3467.450051206592
 20
720.0242637150531
 30
0.0
 10
3466.866413359392
 20
720.1701942207533
 30
0.0
 10
3466.122241416192
 20
720.1495106095931
 30
0.0
 10
3465.566531379533
 20
720.0056777197133
 30
0.0
 10
3465.197278795712
 20
719.8416076490732
 30
0.0
 10
3464.883875569332
 20
719.6256372809131
 30
0.0
 10
3464.715068655233
 20
719.4459691515531
 30
0.0
 10
3464.645620536572
 20
719.3506468301332
 30
0.0
  0
LINE
  5
4811C
330
1F
100
AcDbEntity
  8
0
370
    15
100
AcDbLine
 10
3504.651593219412
 20
696.6979900603533
 30
0.0
 11
3504.628768586373
 21
696.3920733214131
 31
0.0
  0
LINE
  5
4811D
330
1F
100
AcDbEntity
  8
0
370
    15
100
AcDbLine
 10
3504.691512291212
 20
697.0456365354932
 30
0.0
 11
3504.668687653092
 21
696.7397197711532
 31
0.0
  0
SPLINE
  5
4811E
330
1F
100
AcDbEntity
  8
0
370
    15
100
AcDbSpline
210
0.0
220
0.0
230
1.0
 70
     8
 71
     3
 72
    14
 73
    10
 74
     0
 42
0.0000000001
 43
0.0000000001
 40
0.0
 40
0.0
 40
0.0
 40
0.0
 40
0.1159665323
 40
0.2281516137
 40
0.3405115011
 40
0.4569382251
 40
0.5803758323000001
 40
0.7123488980000001
 40
1.0
 40
1.0
 40
1.0
 40
1.0
 10
3516.979339117592
 20
697.4972382891333
 30
0.0
 10
3517.044905725092
 20
697.5872581116332
 30
0.0
 10
3517.153543658692
 20
697.7807671251732
 30
0.0
 10
3517.232907665572
 20
698.1021560734532
 30
0.0
 10
3517.220666420052
 20
698.4335776127932
 30
0.0
 10
3517.118162787112
 20
698.7597536254131
 30
0.0
 10
3516.931359376112
 20
699.0677252726132
 30
0.0
 10
3516.571998809592
 20
699.449528915913
 30
0.0
 10
3516.216891302892
 20
699.660302233253
 30
0.0
 10
3515.961986801272
 20
699.7667589291531
 30
0.0
  0
SPLINE
  5
4811F
330
1F
100
AcDbEntity
  8
0
370
    15
100
AcDbSpline
210
0.0
220
0.0
230
1.0
 70
     8
 71
     3
 72
    11
 73
     7
 74
     0
 42
0.0000000001
 43
0.0000000001
 40
0.0
 40
0.0
 40
0.0
 40
0.0
 40
0.2194622058
 40
0.4552189912
 40
0.7157399378
 40
1.0
 40
1.0
 40
1.0
 40
1.0
 10
3510.960729155852
 20
694.7267417117732
 30
0.0
 10
3510.967213943492
 20
694.7832395743932
 30
0.0
 10
3510.955011036732
 20
694.904507358273
 30
0.0
 10
3510.865557306573
 20
695.0712326306131
 30
0.0
 10
3510.717350470653
 20
695.2127664826733
 30
0.0
 10
3510.592352115112
 20
695.281677228773
 30
0.0
 10
3510.524380516232
 20
695.3100606721331
 30
0.0
  0
SPLINE
  5
48120
330
1F
100
AcDbEntity
  8
0
370
    15
100
AcDbSpline
210
0.0
220
0.0
230
1.0
 70
     8
 71
     3
 72
    11
 73
     7
 74
     0
 42
0.0000000001
 43
0.0000000001
 40
0.0
 40
0.0
 40
0.0
 40
0.0
 40
0.2197522119
 40
0.4565062074
 40
0.7173989887000002
 40
1.0
 40
1.0
 40
1.0
 40
1.0
 10
3510.959166423393
 20
694.7246211572132
 30
0.0
 10
3510.961029157793
 20
694.7791725594131
 30
0.0
 10
3510.941331114892
 20
694.8941880215332
 30
0.0
 10
3510.849247412852
 20
695.0503195609333
 30
0.0
 10
3510.704837983612
 20
695.1829301085131
 30
0.0
 10
3510.585162007572
 20
695.2482480804931
 30
0.0
 10
3510.520388609052
 20
695.2752960274131
 30
0.0
  0
SPLINE
  5
48121
330
1F
100
AcDbEntity
  8
0
370
    15
100
AcDbSpline
210
0.0
220
0.0
230
1.0
 70
     8
 71
     3
 72
    11
 73
     7
 74
     0
 42
0.0000000001
 43
0.0000000001
 40
0.0
 40
0.0
 40
0.0
 40
0.0
 40
0.2369752699
 40
0.5073437973
 40
0.7738603677000001
 40
1.0
 40
1.0
 40
1.0
 40
1.0
 10
3460.477468623972
 20
709.9625247148731
 30
0.0
 10
3460.444646619512
 20
709.9174670376533
 30
0.0
 10
3460.383186381752
 20
709.8146434866333
 30
0.0
 10
3460.306490731233
 20
709.6492755318731
 30
0.0
 10
3460.247084789592
 20
709.4796690384733
 30
0.0
 10
3460.220812365632
 20
709.366247566053
 30
0.0
 10
3460.214258027712
 20
709.3134570518732
 30
0.0
  0
SPLINE
  5
48122
330
1F
100
AcDbEntity
  8
0
370
    15
100
AcDbSpline
210
0.0
220
0.0
230
1.0
 70
     8
 71
     3
 72
    11
 73
     7
 74
     0
 42
0.0000000001
 43
0.0000000001
 40
0.0
 40
0.0
 40
0.0
 40
0.0
 40
0.2946356665
 40
0.5594931385000001
 40
0.7909624442000001
 40
1.0
 40
1.0
 40
1.0
 40
1.0
 10
3459.460116307652
 20
712.2320453523532
 30
0.0
 10
3459.416739259533
 20
712.2501586511532
 30
0.0
 10
3459.330507095192
 20
712.2763828278132
 30
0.0
 10
3459.202923664812
 20
712.2827936481132
 30
0.0
 10
3459.091962347492
 20
712.2525902312531
 30
0.0
 10
3459.035667451192
 20
712.2057681125531
 30
0.0
 10
3459.016072377352
 20
712.1787813440732
 30
0.0
  0
SPLINE
  5
48123
330
1F
100
AcDbEntity
  8
0
370
    15
100
AcDbSpline
210
0.0
220
0.0
230
1.0
 70
     8
 71
     3
 72
    11
 73
     7
 74
     0
 42
0.0000000001
 43
0.0000000001
 40
0.0
 40
0.0
 40
0.0
 40
0.0
 40
0.2946327017
 40
0.5594904192
 40
0.7909621123
 40
1.0
 40
1.0
 40
1.0
 40
1.0
 10
3464.645620536572
 20
719.3506468301332
 30
0.0
 10
3464.602246439933
 20
719.368758897033
 30
0.0
 10
3464.516019982972
 20
719.3949819306931
 30
0.0
 10
3464.388444436752
 20
719.4013958116932
 30
0.0
 10
3464.277487876852
 20
719.3712010054333
 30
0.0
 10
3464.221190846952
 20
719.3243883329933
 30
0.0
 10
3464.201593240733
 20
719.2974057275733
 30
0.0
  0
SPLINE
  5
48124
330
1F
100
AcDbEntity
  8
0
370
    15
100
AcDbSpline
210
0.0
220
0.0
230
1.0
 70
     8
 71
     3
 72
    11
 73
     7
 74
     0
 42
0.0000000001
 43
0.0000000001
 40
0.0
 40
0.0
 40
0.0
 40
0.0
 40
0.3650952798
 40
0.5199464127000001
 40
0.6545558982000001
 40
1.0
 40
1.0
 40
1.0
 40
1.0
 10
3467.723664398252
 20
719.9100202021131
 30
0.0
 10
3467.737806638192
 20
719.9294345092332
 30
0.0
 10
3467.758987751532
 20
719.9562307269132
 30
0.0
 10
3467.789490906172
 20
719.9872002103131
 30
0.0
 10
3467.820169404632
 20
720.0136077470331
 30
0.0
 10
3467.855447050612
 20
720.0325370589332
 30
0.0
 10
3467.876409381052
 20
720.0237583744331
 30
0.0
  0
SPLINE
  5
48125
330
1F
100
AcDbEntity
  8
0
370
    15
100
AcDbSpline
210
0.0
220
0.0
230
1.0
 70
     8
 71
     3
 72
    11
 73
     7
 74
     0
 42
0.0000000001
 43
0.0000000001
 40
0.0
 40
0.0
 40
0.0
 40
0.0
 40
0.3650644537
 40
0.5199090659000002
 40
0.6545185593000001
 40
1.0
 40
1.0
 40
1.0
 40
1.0
 10
3515.961986801272
 20
699.7667589291531
 30
0.0
 10
3515.976126592653
 20
699.7861698758531
 30
0.0
 10
3515.997304325252
 20
699.8129618466532
 30
0.0
 10
3516.027801495653
 20
699.843927908673
 30
0.0
 10
3516.058478569173
 20
699.8703362124731
 30
0.0
 10
3516.093744310172
 20
699.8892712546132
 30
0.0
 10
3516.114712408953
 20
699.8805052091531
 30
0.0
  0
SPLINE
  5
48126
330
1F
100
AcDbEntity
  8
0
370
    15
100
AcDbSpline
210
0.0
220
0.0
230
1.0
 70
     8
 71
     3
 72
    11
 73
     7
 74
     0
 42
0.0000000001
 43
0.0000000001
 40
0.0
 40
0.0
 40
0.0
 40
0.0
 40
0.2727064742
 40
0.5432065759000001
 40
0.7896834948999999
 40
1.0
 40
1.0
 40
1.0
 40
1.0
 10
3516.979339117592
 20
697.4972382891333
 30
0.0
 10
3517.038262687832
 20
697.4726331059332
 30
0.0
 10
3517.149363347012
 20
697.4074581156332
 30
0.0
 10
3517.282807547992
 20
697.2767369292732
 30
0.0
 10
3517.370168864252
 20
697.1279880192533
 30
0.0
 10
3517.389761446352
 20
697.0188140034131
 30
0.0
 10
3517.385268493692
 20
696.9697735350733
 30
0.0
  0
SPLINE
  5
48127
330
1F
100
AcDbEntity
  8
0
370
    15
100
AcDbSpline
210
0.0
220
0.0
230
1.0
 70
     8
 71
     3
 72
    11
 73
     7
 74
     0
 42
0.0000000001
 43
0.0000000001
 40
0.0
 40
0.0
 40
0.0
 40
0.0
 40
0.2727065182
 40
0.5432066376
 40
0.7896835262000001
 40
1.0
 40
1.0
 40
1.0
 40
1.0
 10
3511.793834886133
 20
690.3786368138931
 30
0.0
 10
3511.852758463992
 20
690.3540316256132
 30
0.0
 10
3511.963859133332
 20
690.2888566200731
 30
0.0
 10
3512.097303331772
 20
690.1581354235531
 30
0.0
 10
3512.184664637872
 20
690.0093865211531
 30
0.0
 10
3512.204257214892
 20
689.9002125205531
 30
0.0
 10
3512.199764262232
 20
689.8511720598333
 30
0.0
  0
SPLINE
  5
48128
330
1F
100
AcDbEntity
  8
0
370
    15
100
AcDbSpline
210
0.0
220
0.0
230
1.0
 70
     8
 71
     3
 72
    11
 73
     7
 74
     0
 42
0.0000000001
 43
0.0000000001
 40
0.0
 40
0.0
 40
0.0
 40
0.0
 40
0.2369752276
 40
0.5073437343000001
 40
0.7738603359000001
 40
1.0
 40
1.0
 40
1.0
 40
1.0
 10
3508.715791024452
 20
689.8192634419131
 30
0.0
 10
3508.682969030152
 20
689.7742057723132
 30
0.0
 10
3508.621508800013
 20
689.6713822339932
 30
0.0
 10
3508.544813152032
 20
689.5060142868531
 30
0.0
 10
3508.485407202772
 20
689.3364077858332
 30
0.0
 10
3508.459134771192
 20
689.2229863007132
 30
0.0
 10
3508.452580430733
 20
689.1701957789132
 30
0.0
  0
SPLINE
  5
48129
330
1F
100
AcDbEntity
  8
0
370
    15
100
AcDbSpline
210
0.0
220
0.0
230
1.0
 70
     8
 71
     3
 72
    13
 73
     9
 74
     0
 42
0.0000000001
 43
0.0000000001
 40
0.0
 40
0.0
 40
0.0
 40
0.0
 40
0.266604013
 40
0.5328549868
 40
0.6601636817000001
 40
0.7809004133
 40
0.8941430163999999
 40
1.0
 40
1.0
 40
1.0
 40
1.0
 10
3508.452580430733
 20
689.1701957789132
 30
0.0
 10
3508.785896723713
 20
689.0318819610532
 30
0.0
 10
3509.496601769153
 20
688.8555756156732
 30
0.0
 10
3510.402331438513
 20
688.8813203292332
 30
0.0
 10
3511.078804068292
 20
689.0561796620131
 30
0.0
 10
3511.528236390152
 20
689.2553821338131
 30
0.0
 10
3511.909672929792
 20
689.5174426383932
 30
0.0
 10
3512.115222577112
 20
689.7354824918732
 30
0.0
 10
3512.199764267312
 20
689.8511721106331
 30
0.0
  0
SPLINE
  5
4812A
330
1F
100
AcDbEntity
  8
0
370
    15
100
AcDbSpline
210
0.0
220
0.0
230
1.0
 70
     8
 71
     3
 72
     9
 73
     5
 74
     0
 42
0.0000000001
 43
0.0000000001
 40
0.0
 40
0.0
 40
0.0
 40
0.0
 40
0.5084081879
 40
1.0
 40
1.0
 40
1.0
 40
1.0
 10
3517.385268493692
 20
696.9697735350733
 30
0.0
 10
3517.468055109932
 20
697.0837804495531
 30
0.0
 10
3517.604242592192
 20
697.3293108297132
 30
0.0
 10
3517.667305851893
 20
697.6035734079332
 30
0.0
 10
3517.678445928672
 20
697.7393511678731
 30
0.0
  0
ELLIPSE
  5
4812B
330
1F
100
AcDbEntity
  8
0
370
    15
100
AcDbEllipse
 10
3481.429506143232
 20
695.8436292874933
 30
0.0
 11
0.2410443718599999
 21
-0.1786084185
 31
0.0
210
0.0
220
0.0
230
1.0
 40
0.6612451662000001
 41
-1.213334989899999
 42
0.0053821969
  0
ELLIPSE
  5
4812C
330
1F
100
AcDbEntity
  8
0
370
    15
100
AcDbEllipse
 10
3486.148833557492
 20
693.8729420731731
 30
0.0
 11
0.2410443718599999
 21
-0.1786084185
 31
0.0
210
0.0
220
0.0
230
1.0
 40
0.6612451662000001
 41
-2.7841313167
 42
-1.213334989899999
  0
ELLIPSE
  5
4812D
330
1F
100
AcDbEntity
  8
0
370
    15
100
AcDbEllipse
 10
3460.798023685172
 20
706.4824940244532
 30
0.0
 11
2.782541491039999
 21
-0.31861032798
 31
0.0
210
0.0
220
0.0
230
1.0
 40
0.714127133
 41
3.1184048999
 42
4.327551827799999
  0
ELLIPSE
  5
4812E
330
1F
100
AcDbEntity
  8
0
370
    15
100
AcDbEllipse
 10
3509.237153052592
 20
686.2553801836131
 30
0.0
 11
2.781748378580001
 21
-0.3203192552200001
 31
0.0
210
0.0
220
0.0
230
0.9999999999999998
 40
0.7144296268000005
 41
-1.9546538393
 42
-0.384162099
  0
ELLIPSE
  5
4812F
330
1F
100
AcDbEntity
  8
0
370
    15
100
AcDbEllipse
 10
3514.523697866832
 20
693.5126890268532
 30
0.0
 11
2.782541491039999
 21
-0.31861032798
 31
0.0
210
0.0
220
0.0
230
1.0
 40
0.714127133
 41
-0.384532566
 42
0.0231877941
  0
ELLIPSE
  5
48130
330
1F
100
AcDbEntity
  8
0
370
    15
100
AcDbEllipse
 10
3483.806701607272
 20
694.9994914786932
 30
0.0
 11
1.888180904859999
 21
-1.399099269359999
 31
0.0
210
0.0
220
0.0
230
0.9999999999999998
 40
0.6612451662000002
 41
0.3574613369
 42
3.4990539905
  0
DIMENSION
  5
48136
102
{ACAD_XDICTIONARY
360
48137
102
}
102
{ACAD_REACTORS
330
48138
102
}
330
1F
100
AcDbEntity
  8
DIM
370
     5
100
AcDbDimension
  2
*D3
 10
3577.312843406995
 20
733.4378551293066
 30
0.0
 11
3548.245609388141
 21
733.4378551293066
 31
0.0
 70
   160
 71
     5
 42
60.0000000011546
 73
     0
 74
     0
 75
     0
  3
02
100
AcDbAlignedDimension
 13
3517.31284340584
 23
747.3665759276102
 33
0.0
 14
3577.312843406995
 24
747.3665759271412
 34
0.0
100
AcDbRotatedDimension
  0
DIMENSION
  5
4813C
102
{ACAD_XDICTIONARY
360
4813D
102
}
102
{ACAD_REACTORS
330
4813E
102
}
330
1F
100
AcDbEntity
  8
DIM
370
     5
100
AcDbDimension
  2
*D4
 10
3588.633873027722
 20
761.9670023816761
 30
0.0
 11
3588.633873027722
 21
753.2670023807088
 31
0.0
 70
   160
 71
     5
 42
17.40000000193504
 73
     0
 74
     0
 75
     0
  3
02
100
AcDbAlignedDimension
 13
3574.513269859596
 23
744.567002379741
 33
0.0
 14
3574.513269859155
 24
761.9670023816761
 34
0.0
 50
90.0
100
AcDbRotatedDimension
  0
DIMENSION
  5
48145
102
{ACAD_XDICTIONARY
360
48146
102
}
102
{ACAD_REACTORS
330
48147
102
}
330
1F
100
AcDbEntity
  8
DIM
370
     5
100
AcDbDimension
  2
*D5
 10
3512.995954551553
 20
792.7596425808214
 30
0.0
 11
3512.995954551553
 21
789.2596425805813
 31
0.0
 70
   160
 71
     5
 42
7.000000000480213
 73
     0
 74
     0
 75
     0
  3
02
100
AcDbAlignedDimension
 13
3517.312843407236
 23
785.7596425803412
 33
0.0
 14
3517.926377491316
 24
792.7596425808214
 34
0.0
 50
90.0
100
AcDbRotatedDimension
  0
MTEXT
  5
4823E
102
{ACAD_XDICTIONARY
360
48604
102
}
330
1F
100
AcDbEntity
  8
打标文字
 62
     3
100
AcDbMText
 10
3606.667160947636
 20
764.6576087286446
 30
0.0
 40
2.4
 41
82.8046253217421
 46
103.5106666520053
 71
     1
 72
     5
  3
\A1;技术参数：\P- 材料: 聚丙烯\P- 颜色: 透明 \P- 温度范围: {\Fromans|c134;-30}℃{\Fromans|c134; - +90}℃\P- 防护等级: {\Fromans|c134;IP5X}    \P{\Fromans|c134;\PTechnical specification:\P- Material: polypropylene\P- Colour: lucency \P- Temperature range: -30}℃{\Fromans|c134
  1
; - +90}℃{\Fromans|c134;\P- Degree of protection: IP5X  }
 73
     1
 44
1.0
1001
ACAD
1000
ACAD_MTEXT_DEFINED_HEIGHT_BEGIN
1070
    46
1040
129.3883333150067
1000
ACAD_MTEXT_DEFINED_HEIGHT_END
  0
ENDSEC
  0
SECTION
  2
OBJECTS
  0
DICTIONARY
  5
C
330
0
100
AcDbDictionary
281
     1
  3
ACAD_COLOR
350
4FFE
  3
ACAD_GROUP
350
D
  3
ACAD_LAYOUT
350
1A
  3
ACAD_MATERIAL
350
4FE5
  3
ACAD_MLEADERSTYLE
350
5022
  3
ACAD_MLINESTYLE
350
17
  3
ACAD_PLOTSETTINGS
350
19
  3
ACAD_PLOTSTYLENAME
350
E
  3
ACAD_RENDER_PLOT_SETTINGS
350
6537
  3
ACAD_SCALELIST
350
5000
  3
ACAD_TABLESTYLE
350
4FE3
  3
ACAD_VISUALSTYLE
350
2A
  3
ACDB_RECOMPOSE_DATA
350
50EC
  3
AcDbVariableDictionary
350
5108
  3
ASE_INDEX_DICTIONARY
350
1AF2E
  0
DICTIONARY
  5
50EE
330
8
100
AcDbDictionary
280
     1
281
     1
  0
DICTIONARY
  5
50B8
330
2
100
AcDbDictionary
280
     1
281
     1
  3
ACAD_LAYERFILTERS
360
11B10
  3
ACAD_LAYERSTATES
360
50B9
  3
ACLYDICTIONARY
360
11B0F
  0
DICTIONARY
  5
50D0
330
10
100
AcDbDictionary
280
     1
281
     1
  3
ADSK_XREC_LAYER_RECONCILED
360
50D1
  0
DICTIONARY
  5
50D2
330
3B
100
AcDbDictionary
280
     1
281
     1
  3
ADSK_XREC_LAYER_RECONCILED
360
50D3
  0
DICTIONARY
  5
50AF
330
50AE
100
AcDbDictionary
280
     1
281
     1
  3
ADSK_XREC_LAYER_RECONCILED
360
50D4
  0
DICTIONARY
  5
47E6F
330
47E6E
100
AcDbDictionary
280
     1
281
     1
  0
DICTIONARY
  5
47E71
330
47E70
100
AcDbDictionary
280
     1
281
     1
  0
DICTIONARY
  5
67C0
330
1F
100
AcDbDictionary
280
     1
281
     1
  3
ACAD_SORTENTS
360
67C1
  0
DICTIONARY
  5
3F2C7
330
10FE8
100
AcDbDictionary
280
     1
281
     1
  0
DICTIONARY
  5
485EE
330
3F276
100
AcDbDictionary
280
     1
281
     1
  3
ACAD_MTEXT_2008_RT
360
485EF
  0
DICTIONARY
  5
485F0
330
3F277
100
AcDbDictionary
280
     1
281
     1
  3
ACAD_MTEXT_2008_RT
360
485F1
  0
DICTIONARY
  5
485F2
330
3F29C
100
AcDbDictionary
280
     1
281
     1
  3
ACAD_MTEXT_2008_RT
360
485F3
  0
DICTIONARY
  5
485F4
330
3F29F
100
AcDbDictionary
280
     1
281
     1
  3
ACAD_MTEXT_2008_RT
360
485F5
  0
DICTIONARY
  5
485F6
330
3F2A0
100
AcDbDictionary
280
     1
281
     1
  3
ACAD_MTEXT_2008_RT
360
485F7
  0
DICTIONARY
  5
485F8
330
3F2AA
100
AcDbDictionary
280
     1
281
     1
  3
ACAD_MTEXT_2008_RT
360
485F9
  0
DICTIONARY
  5
485FA
330
3F2AB
100
AcDbDictionary
280
     1
281
     1
  3
ACAD_MTEXT_2008_RT
360
485FB
  0
DICTIONARY
  5
485FC
330
3F2AC
100
AcDbDictionary
280
     1
281
     1
  3
ACAD_MTEXT_2008_RT
360
485FD
  0
DICTIONARY
  5
485FE
330
3F2BA
100
AcDbDictionary
280
     1
281
     1
  3
ACAD_MTEXT_2008_RT
360
485FF
  0
DICTIONARY
  5
48600
330
3F2BB
100
AcDbDictionary
280
     1
281
     1
  3
ACAD_MTEXT_2008_RT
360
48601
  0
DICTIONARY
  5
48602
330
3F2BC
100
AcDbDictionary
280
     1
281
     1
  3
ACAD_MTEXT_2008_RT
360
48603
  0
DICTIONARY
  5
48137
330
48136
100
AcDbDictionary
280
     1
281
     1
  3
ACAD_DIMASSOC
360
48138
  0
DICTIONARY
  5
4813D
330
4813C
100
AcDbDictionary
280
     1
281
     1
  3
ACAD_DIMASSOC
360
4813E
  0
DICTIONARY
  5
48146
330
48145
100
AcDbDictionary
280
     1
281
     1
  3
ACAD_DIMASSOC
360
48147
  0
DICTIONARY
  5
48604
330
4823E
100
AcDbDictionary
280
     1
281
     1
  3
ACAD_MTEXT_2008_RT
360
48605
  0
DICTIONARY
  5
4FFE
102
{ACAD_REACTORS
330
C
102
}
330
C
100
AcDbDictionary
281
     1
  0
DICTIONARY
  5
D
102
{ACAD_REACTORS
330
C
102
}
330
C
100
AcDbDictionary
281
     1
  0
DICTIONARY
  5
1A
102
{ACAD_REACTORS
330
C
102
}
330
C
100
AcDbDictionary
281
     1
  3
Layout1
350
1E
  3
Layout2
350
26
  3
Model
350
22
  0
DICTIONARY
  5
4FE5
102
{ACAD_REACTORS
330
C
102
}
330
C
100
AcDbDictionary
281
     1
  3
ByBlock
350
4FEE
  3
ByLayer
350
4FE6
  3
Global
350
4FF6
  0
DICTIONARY
  5
5022
102
{ACAD_REACTORS
330
C
102
}
330
C
100
AcDbDictionary
281
     1
  3
Standard
350
5023
  0
DICTIONARY
  5
17
102
{ACAD_REACTORS
330
C
102
}
330
C
100
AcDbDictionary
281
     1
  3
Standard
350
18
  0
DICTIONARY
  5
19
102
{ACAD_REACTORS
330
C
102
}
330
C
100
AcDbDictionary
281
     1
  0
ACDBDICTIONARYWDFLT
  5
E
102
{ACAD_REACTORS
330
C
102
}
330
C
100
AcDbDictionary
281
     1
  3
Normal
350
F
100
AcDbDictionaryWithDefault
340
F
  0
DICTIONARY
  5
6537
102
{ACAD_REACTORS
330
C
102
}
330
C
100
AcDbDictionary
281
     1
  3
{1DC63513-1B1A-422F-9880-65CFD2B8D533}
350
6538
  0
DICTIONARY
  5
5000
102
{ACAD_REACTORS
330
C
102
}
330
C
100
AcDbDictionary
281
     1
  3
A0
350
5001
  3
A1
350
5002
  3
A2
350
5003
  3
A3
350
5004
  3
A4
350
5005
  3
A5
350
5006
  3
A6
350
5007
  3
A7
350
5008
  3
A8
350
5009
  3
A9
350
500A
  3
B0
350
500B
  3
B1
350
500C
  3
B2
350
500D
  3
B3
350
500E
  3
B4
350
500F
  3
B5
350
5010
  3
B6
350
5011
  3
B7
350
5012
  3
B8
350
5013
  3
B9
350
5014
  3
C0
350
5015
  3
C1
350
5016
  3
C2
350
5017
  3
C3
350
5018
  3
C4
350
5019
  3
C5
350
501A
  3
C6
350
501B
  3
C7
350
501C
  3
C8
350
501D
  3
C9
350
501E
  3
D0
350
501F
  3
D1
350
5020
  3
D2
350
5021
  0
DICTIONARY
  5
4FE3
102
{ACAD_REACTORS
330
C
102
}
330
C
100
AcDbDictionary
281
     1
  3
Standard
350
4FFF
  0
DICTIONARY
  5
2A
102
{ACAD_REACTORS
330
C
102
}
330
C
100
AcDbDictionary
281
     1
  3
2dWireframe
350
2F
  3
3D Hidden
350
31
  3
3dWireframe
350
30
  3
Basic
350
32
  3
Brighten
350
36
  3
ColorChange
350
3A
  3
Conceptual
350
34
  3
Dim
350
35
  3
Facepattern
350
39
  3
Flat
350
2B
  3
FlatWithEdges
350
2C
  3
Gouraud
350
2D
  3
GouraudWithEdges
350
2E
  3
Linepattern
350
38
  3
Realistic
350
33
  3
Thicken
350
37
  3
Wireframe
350
275F1
  0
XRECORD
  5
50EC
102
{ACAD_REACTORS
330
C
102
}
330
C
100
AcDbXrecord
280
     1
 90
        1
330
4FFF
330
3F276
330
3F277
330
3F29C
330
3F29F
330
3F2A0
330
3F2AA
330
3F2AB
330
3F2AC
330
3F2BA
330
3F2BB
330
3F2BC
330
4823E
  0
DICTIONARY
  5
5108
102
{ACAD_REACTORS
330
C
102
}
330
C
100
AcDbDictionary
281
     1
  3
CANNOSCALE
350
510B
  3
CMLEADERSTYLE
350
510A
  3
CTABLESTYLE
350
5109
  3
DIMASSOC
350
510E
  3
INDEXCTL
350
510D
  3
LIGHTINGUNITS
350
37AB9
  3
MSLTSCALE
350
37AB8
  3
SORTENTS
350
510C
  0
DICTIONARY
  5
1AF2E
102
{ACAD_REACTORS
330
C
102
}
330
C
100
AcDbDictionary
281
     1
  3
ASEBlockHierarchyIndexRecord
350
1AF2F
1001
DCO15
1040
1903697204.5
  0
DICTIONARY
  5
11B10
102
{ACAD_REACTORS
330
50B8
102
}
330
50B8
100
AcDbDictionary
281
     1
  0
DICTIONARY
  5
50B9
102
{ACAD_REACTORS
330
50B8
102
}
330
50B8
100
AcDbDictionary
281
     1
  0
DICTIONARY
  5
11B0F
102
{ACAD_REACTORS
330
50B8
102
}
330
50B8
100
AcDbDictionary
281
     1
1001
ACAD
1000
<All
  0
XRECORD
  5
50D1
102
{ACAD_REACTORS
330
50D0
102
}
330
50D0
100
AcDbXrecord
280
     1
290
     1
  0
XRECORD
  5
50D3
102
{ACAD_REACTORS
330
50D2
102
}
330
50D2
100
AcDbXrecord
280
     1
290
     1
  0
XRECORD
  5
50D4
102
{ACAD_REACTORS
330
50AF
102
}
330
50AF
100
AcDbXrecord
280
     1
290
     1
  0
SORTENTSTABLE
  5
67C1
102
{ACAD_REACTORS
330
67C0
102
}
330
67C0
100
AcDbSortentsTable
330
1F
331
35D8
  5
3807
331
2F93
  5
2FDE
331
35C8
  5
35D8
331
2EE7
  5
2F93
331
28AE
  5
2A38
331
2FDE
  5
35C8
331
3943
  5
4842
331
2C65
  5
2EE7
331
3895
  5
3943
331
4842
  5
4E94
331
3807
  5
3895
  0
XRECORD
  5
485EF
102
{ACAD_REACTORS
330
485EE
102
}
330
485EE
100
AcDbXrecord
280
     1
 40
1262561.0
  1
\pxqc;档案员{\H0.7x;\P\Fromans|c134;Filing Clerk\fFangSong_GB2312|b0|i0|c134|p49; }
  0
XRECORD
  5
485F1
102
{ACAD_REACTORS
330
485F0
102
}
330
485F0
100
AcDbXrecord
280
     1
 40
650528.0
  1
\pxqc;日期{\Fromans|c134;/Date}
  0
XRECORD
  5
485F3
102
{ACAD_REACTORS
330
485F2
102
}
330
485F2
100
AcDbXrecord
280
     1
 40
2555375.0
  1
\pxsm0.7;{\fFangSong_GB2312|b0|i0|c134|p49;标准化}\PStand.
  0
XRECORD
  5
485F5
102
{ACAD_REACTORS
330
485F4
102
}
330
485F4
100
AcDbXrecord
280
     1
 40
118135.0
  1
\pxsm0.7;签名\P{\Fromans|c134;Signature} 
  0
XRECORD
  5
485F7
102
{ACAD_REACTORS
330
485F6
102
}
330
485F6
100
AcDbXrecord
280
     1
 40
108939.0
  1
\pxsm0.7,qc;处数\P{\Fromans|c134;Number }
  0
XRECORD
  5
485F9
102
{ACAD_REACTORS
330
485F8
102
}
330
485F8
100
AcDbXrecord
280
     1
 40
125762.0
  1
\pxsm0.7;标记\P{\Fromans|c134;Mark}
  0
XRECORD
  5
485FB
102
{ACAD_REACTORS
330
485FA
102
}
330
485FA
100
AcDbXrecord
280
     1
 40
111973.0
  1
\pxsm0.7;审核\P{\Fromans|c134;Checked}
  0
XRECORD
  5
485FD
102
{ACAD_REACTORS
330
485FC
102
}
330
485FC
100
AcDbXrecord
280
     1
 40
137968.0
  1
\pxsm0.7;绘图\P{\Fromans|c134;Drawn\Ftxt|c134; }
  0
XRECORD
  5
485FF
102
{ACAD_REACTORS
330
485FE
102
}
330
485FE
100
AcDbXrecord
280
     1
 40
106320.0
  1
\pxsm0.7;批准\P{\Fromans|c134;Approved}
  0
XRECORD
  5
48601
102
{ACAD_REACTORS
330
48600
102
}
330
48600
100
AcDbXrecord
280
     1
 40
127283.0
  1
\pxsm0.7;工艺\P{\Fromans|c134;Process}
  0
XRECORD
  5
48603
102
{ACAD_REACTORS
330
48602
102
}
330
48602
100
AcDbXrecord
280
     1
 40
106220.0
  1
\pxsm0.7;日期\P{\Fromans|c134;Date}
  0
DIMASSOC
  5
48138
102
{ACAD_REACTORS
330
48137
102
}
330
48137
100
AcDbDimAssoc
330
48136
 90
        3
 70
     0
 71
     0
  1
AcDbOsnapPointRef
 72
    13
331
48072
 73
     2
 91
        0
 40
-3.926838523699999
 10
-3.926838523699999
 20
-2.3563467834
 30
2.000000000000000E+50
 75
     0
  1
AcDbOsnapPointRef
 72
    13
331
4802E
 73
     2
 91
        0
 40
0.0
 10
0.0
 20
0.0
 30
2.000000000000000E+50
 75
     0
  0
DIMASSOC
  5
4813E
102
{ACAD_REACTORS
330
4813D
102
}
330
4813D
100
AcDbDimAssoc
330
4813C
 90
        3
 70
     0
 71
     0
  1
AcDbOsnapPointRef
 72
     1
331
48012
 73
     2
 91
        0
 40
1.0
 10
0.0
 20
0.0
 30
2.000000000000000E+50
 75
     0
  1
AcDbOsnapPointRef
 72
     1
331
48070
 73
     2
 91
        0
 40
0.7852458701
 10
-0.7852458701
 20
0.7852458701
 30
2.000000000000000E+50
 75
     0
  0
DIMASSOC
  5
48147
102
{ACAD_REACTORS
330
48146
102
}
330
48146
100
AcDbDimAssoc
330
48145
 90
        3
 70
     0
 71
     0
  1
AcDbOsnapPointRef
 72
    13
331
48034
 73
     2
 91
        0
 40
0.0
 10
0.0
 20
0.0
 30
2.000000000000000E+50
 75
     0
  1
AcDbOsnapPointRef
 72
    13
331
48064
 73
     2
 91
        0
 40
1.570796326794896
 10
0.0
 20
0.0
 30
2.000000000000000E+50
 75
     0
  0
XRECORD
  5
48605
102
{ACAD_REACTORS
330
48604
102
}
330
48604
100
AcDbXrecord
280
     1
 40
32218081.0
  1
\A1;\pxql;技术参数：\P- 材料: 聚丙烯\P- 颜色: 透明 \P- 温度范围: {\Fromans|c134;-30}℃{\Fromans|c134; - +90}℃\P- 防护等级: {\Fromans|c134;IP5X}    \P{\Fromans|c134;\PTechnical specification:\P- Material: polypropylene\P- Colour: lucency \P- Temperature range: -30}℃{\Froman
  1
s|c134; - +90}℃{\Fromans|c134;\P- Degree of protection: IP5X  }
  0
LAYOUT
  5
1E
102
{ACAD_REACTORS
330
1A
102
}
330
1A
100
AcDbPlotSettings
  1

  2
none_device
  4

  6

 40
0.0
 41
0.0
 42
0.0
 43
0.0
 44
0.0
 45
0.0
 46
0.0
 47
0.0
 48
0.0
 49
0.0
140
0.0
141
0.0
142
1.0
143
1.0
 70
   688
 72
     0
 73
     0
 74
     5
  7

 75
    16
147
1.0
 76
     0
 77
     2
 78
   300
148
0.0
149
0.0
100
AcDbLayout
  1
Layout1
 70
     1
 71
     1
 10
0.0
 20
0.0
 11
12.0
 21
9.0
 12
0.0
 22
0.0
 32
0.0
 14
1.000000000000000E+20
 24
1.000000000000000E+20
 34
1.000000000000000E+20
 15
-1.000000000000000E+20
 25
-1.000000000000000E+20
 35
-1.000000000000000E+20
146
0.0
 13
0.0
 23
0.0
 33
0.0
 16
1.0
 26
0.0
 36
0.0
 17
0.0
 27
1.0
 37
0.0
 76
     0
330
1B
  0
LAYOUT
  5
26
102
{ACAD_REACTORS
330
1A
102
}
330
1A
100
AcDbPlotSettings
  1

  2
none_device
  4

  6

 40
0.0
 41
0.0
 42
0.0
 43
0.0
 44
0.0
 45
0.0
 46
0.0
 47
0.0
 48
0.0
 49
0.0
140
0.0
141
0.0
142
1.0
143
1.0
 70
   688
 72
     0
 73
     0
 74
     5
  7

 75
    16
147
1.0
 76
     0
 77
     2
 78
   300
148
0.0
149
0.0
100
AcDbLayout
  1
Layout2
 70
     1
 71
     2
 10
0.0
 20
0.0
 11
0.0
 21
0.0
 12
0.0
 22
0.0
 32
0.0
 14
0.0
 24
0.0
 34
0.0
 15
0.0
 25
0.0
 35
0.0
146
0.0
 13
0.0
 23
0.0
 33
0.0
 16
1.0
 26
0.0
 36
0.0
 17
0.0
 27
1.0
 37
0.0
 76
     0
330
23
  0
LAYOUT
  5
22
102
{ACAD_REACTORS
330
1A
102
}
330
1A
100
AcDbPlotSettings
  1

  2
Adobe PDF Converter.pc3
  4
A4
  6

 40
3.174999952316281
 41
3.174999952316281
 42
3.17498779296875
 43
3.175003051757812
 44
297.0318298339844
 45
209.9733276367186
 46
0.0000000000000076
 47
1.630241740247063
 48
246.9897427644609
 49
39.36804549891383
140
544.952097801264
141
244.7492402188181
142
1.0
143
1.025046328645055
 70
  3764
 72
     1
 73
     0
 74
     4
  7
monochrome.ctb
 75
     0
147
0.9755656618192436
 76
     1
 77
     2
 78
   300
148
-246.9897427644609
149
-39.36804549891383
100
AcDbLayout
  1
Model
 70
     1
 71
     0
 10
0.0
 20
0.0
 11
12.0
 21
9.0
 12
0.0
 22
0.0
 32
0.0
 14
1.000000000000000E+20
 24
1.000000000000000E+20
 34
1.000000000000000E+20
 15
-1.000000000000000E+20
 25
-1.000000000000000E+20
 35
-1.000000000000000E+20
146
0.0
 13
0.0
 23
0.0
 33
0.0
 16
1.0
 26
0.0
 36
0.0
 17
0.0
 27
1.0
 37
0.0
 76
     0
330
1F
331
29
1001
ACAD_PSEXT
1000
Adobe PDF Converter.pc3
1000
Adobe PDF Converter
1000
桌面\*.pdf
1000

1070
     0
  0
MATERIAL
  5
4FEE
102
{ACAD_XDICTIONARY
360
4FEF
102
}
102
{ACAD_REACTORS
330
4FE5
102
}
330
4FE5
100
AcDbMaterial
  1
ByBlock
 72
     0
 43
0.0208333333333333
 43
0.0
 43
0.0
 43
0.0
 43
0.0
 43
0.0208333333333333
 43
0.0
 43
0.0
 43
0.0
 43
0.0
 43
1.0
 43
0.0
 43
0.0
 43
0.0
 43
0.0
 43
1.0
 77
     0
 47
0.0208333333333333
 47
0.0
 47
0.0
 47
0.0
 47
0.0
 47
0.0208333333333333
 47
0.0
 47
0.0
 47
0.0
 47
0.0
 47
1.0
 47
0.0
 47
0.0
 47
0.0
 47
0.0
 47
1.0
171
     0
 49
0.0208333333333333
 49
0.0
 49
0.0
 49
0.0
 49
0.0
 49
0.0208333333333333
 49
0.0
 49
0.0
 49
0.0
 49
0.0
 49
1.0
 49
0.0
 49
0.0
 49
0.0
 49
0.0
 49
1.0
175
     0
142
0.0208333333333333
142
0.0
142
0.0
142
0.0
142
0.0
142
0.0208333333333333
142
0.0
142
0.0
142
0.0
142
0.0
142
1.0
142
0.0
142
0.0
142
0.0
142
0.0
142
1.0
179
     0
144
0.0208333333333333
144
0.0
144
0.0
144
0.0
144
0.0
144
0.0208333333333333
144
0.0
144
0.0
144
0.0
144
0.0
144
1.0
144
0.0
144
0.0
144
0.0
144
0.0
144
1.0
147
0.0208333333333333
147
0.0
147
0.0
147
0.0
147
0.0
147
0.0208333333333333
147
0.0
147
0.0
147
0.0
147
0.0
147
1.0
147
0.0
147
0.0
147
0.0
147
0.0
147
1.0
  0
MATERIAL
  5
4FE6
102
{ACAD_XDICTIONARY
360
4FE7
102
}
102
{ACAD_REACTORS
330
4FE5
102
}
330
4FE5
100
AcDbMaterial
  1
ByLayer
 72
     0
 43
0.0208333333333333
 43
0.0
 43
0.0
 43
0.0
 43
0.0
 43
0.0208333333333333
 43
0.0
 43
0.0
 43
0.0
 43
0.0
 43
1.0
 43
0.0
 43
0.0
 43
0.0
 43
0.0
 43
1.0
 77
     0
 47
0.0208333333333333
 47
0.0
 47
0.0
 47
0.0
 47
0.0
 47
0.0208333333333333
 47
0.0
 47
0.0
 47
0.0
 47
0.0
 47
1.0
 47
0.0
 47
0.0
 47
0.0
 47
0.0
 47
1.0
171
     0
 49
0.0208333333333333
 49
0.0
 49
0.0
 49
0.0
 49
0.0
 49
0.0208333333333333
 49
0.0
 49
0.0
 49
0.0
 49
0.0
 49
1.0
 49
0.0
 49
0.0
 49
0.0
 49
0.0
 49
1.0
175
     0
142
0.0208333333333333
142
0.0
142
0.0
142
0.0
142
0.0
142
0.0208333333333333
142
0.0
142
0.0
142
0.0
142
0.0
142
1.0
142
0.0
142
0.0
142
0.0
142
0.0
142
1.0
179
     0
144
0.0208333333333333
144
0.0
144
0.0
144
0.0
144
0.0
144
0.0208333333333333
144
0.0
144
0.0
144
0.0
144
0.0
144
1.0
144
0.0
144
0.0
144
0.0
144
0.0
144
1.0
147
0.0208333333333333
147
0.0
147
0.0
147
0.0
147
0.0
147
0.0208333333333333
147
0.0
147
0.0
147
0.0
147
0.0
147
1.0
147
0.0
147
0.0
147
0.0
147
0.0
147
1.0
  0
MATERIAL
  5
4FF6
102
{ACAD_XDICTIONARY
360
4FF7
102
}
102
{ACAD_REACTORS
330
4FE5
102
}
330
4FE5
100
AcDbMaterial
  1
Global
 72
     0
 43
0.0208333333333333
 43
0.0
 43
0.0
 43
0.0
 43
0.0
 43
0.0208333333333333
 43
0.0
 43
0.0
 43
0.0
 43
0.0
 43
1.0
 43
0.0
 43
0.0
 43
0.0
 43
0.0
 43
1.0
 77
     0
 47
0.0208333333333333
 47
0.0
 47
0.0
 47
0.0
 47
0.0
 47
0.0208333333333333
 47
0.0
 47
0.0
 47
0.0
 47
0.0
 47
1.0
 47
0.0
 47
0.0
 47
0.0
 47
0.0
 47
1.0
171
     0
 49
0.0208333333333333
 49
0.0
 49
0.0
 49
0.0
 49
0.0
 49
0.0208333333333333
 49
0.0
 49
0.0
 49
0.0
 49
0.0
 49
1.0
 49
0.0
 49
0.0
 49
0.0
 49
0.0
 49
1.0
175
     0
142
0.0208333333333333
142
0.0
142
0.0
142
0.0
142
0.0
142
0.0208333333333333
142
0.0
142
0.0
142
0.0
142
0.0
142
1.0
142
0.0
142
0.0
142
0.0
142
0.0
142
1.0
179
     0
144
0.0208333333333333
144
0.0
144
0.0
144
0.0
144
0.0
144
0.0208333333333333
144
0.0
144
0.0
144
0.0
144
0.0
144
1.0
144
0.0
144
0.0
144
0.0
144
0.0
144
1.0
147
0.0208333333333333
147
0.0
147
0.0
147
0.0
147
0.0
147
0.0208333333333333
147
0.0
147
0.0
147
0.0
147
0.0
147
1.0
147
0.0
147
0.0
147
0.0
147
0.0
147
1.0
  0
MLEADERSTYLE
  5
5023
102
{ACAD_REACTORS
330
5022
102
}
330
5022
100
AcDbMLeaderStyle
170
     2
171
     1
172
     0
 90
        2
 40
0.0
 41
0.0
173
     1
 91
-1056964608
340
14
 92
       -2
290
     1
 42
0.09
291
     1
 43
0.36
  3
Standard
 44
0.18
300

342
11
174
     1
178
     6
175
     1
176
     0
 93
-1056964608
 45
0.18
292
     0
297
     0
 46
0.18
 94
-1056964608
 47
1.0
 49
1.0
140
1.0
293
     1
141
0.0
294
     1
177
     0
142
1.0
295
     0
296
     0
143
0.125
1001
ACAD_MLEADERVER
1070
     2
  0
MLINESTYLE
  5
18
102
{ACAD_REACTORS
330
17
102
}
330
17
100
AcDbMlineStyle
  2
STANDARD
 70
     0
  3

 62
   256
 51
90.0
 52
90.0
 71
     2
 49
0.5
 62
   256
  6
BYLAYER
 49
-0.5
 62
   256
  6
BYLAYER
  0
ACDBPLACEHOLDER
  5
F
102
{ACAD_REACTORS
330
E
102
}
330
E
  0
MENTALRAYRENDERSETTINGS
  5
6538
102
{ACAD_REACTORS
330
6537
102
}
330
6537
100
AcDbRenderSettings
 90
        2
  1
中
290
     1
290
     1
290
     1
290
     1
  1

  1
渲染质量好于“低级”。包括纹理过滤并且强制双面处于激活状态。处理中等级反锯齿和 5 反射/折射的光线跟踪深度。
 90
        0
100
AcDbMentalRayRenderSettings
 90
        2
 90
        0
 90
        1
 70
     2
 40
3.0
 40
3.0
 40
0.0500000007450581
 40
0.0500000007450581
 40
0.0500000007450581
 40
0.0500000007450581
 70
     0
290
     0
290
     1
 90
        5
 90
        5
 90
        5
290
     0
 90
      500
290
     0
 40
1.0
 90
    10000
 90
        5
 90
        5
 90
        5
290
     0
 90
      200
290
     0
290
     0
290
     0
 40
0.1
 40
1.0
 40
1500.0
 70
     0
 70
     0
 40
10.0
 70
     0
 70
     0
290
     0
  1

 90
       32
 70
     0
 90
     1048
290
     0
 40
1.0
  0
SCALE
  5
5001
102
{ACAD_REACTORS
330
5000
102
}
330
5000
100
AcDbScale
 70
     0
300
1:1
140
1.0
141
1.0
290
     1
  0
SCALE
  5
5002
102
{ACAD_REACTORS
330
5000
102
}
330
5000
100
AcDbScale
 70
     0
300
1:2
140
1.0
141
2.0
290
     0
  0
SCALE
  5
5003
102
{ACAD_REACTORS
330
5000
102
}
330
5000
100
AcDbScale
 70
     0
300
1:4
140
1.0
141
4.0
290
     0
  0
SCALE
  5
5004
102
{ACAD_REACTORS
330
5000
102
}
330
5000
100
AcDbScale
 70
     0
300
1:5
140
1.0
141
5.0
290
     0
  0
SCALE
  5
5005
102
{ACAD_REACTORS
330
5000
102
}
330
5000
100
AcDbScale
 70
     0
300
1:8
140
1.0
141
8.0
290
     0
  0
SCALE
  5
5006
102
{ACAD_REACTORS
330
5000
102
}
330
5000
100
AcDbScale
 70
     0
300
1:10
140
1.0
141
10.0
290
     0
  0
SCALE
  5
5007
102
{ACAD_REACTORS
330
5000
102
}
330
5000
100
AcDbScale
 70
     0
300
1:16
140
1.0
141
16.0
290
     0
  0
SCALE
  5
5008
102
{ACAD_REACTORS
330
5000
102
}
330
5000
100
AcDbScale
 70
     0
300
1:20
140
1.0
141
20.0
290
     0
  0
SCALE
  5
5009
102
{ACAD_REACTORS
330
5000
102
}
330
5000
100
AcDbScale
 70
     0
300
1:30
140
1.0
141
30.0
290
     0
  0
SCALE
  5
500A
102
{ACAD_REACTORS
330
5000
102
}
330
5000
100
AcDbScale
 70
     0
300
1:40
140
1.0
141
40.0
290
     0
  0
SCALE
  5
500B
102
{ACAD_REACTORS
330
5000
102
}
330
5000
100
AcDbScale
 70
     0
300
1:50
140
1.0
141
50.0
290
     0
  0
SCALE
  5
500C
102
{ACAD_REACTORS
330
5000
102
}
330
5000
100
AcDbScale
 70
     0
300
1:100
140
1.0
141
100.0
290
     0
  0
SCALE
  5
500D
102
{ACAD_REACTORS
330
5000
102
}
330
5000
100
AcDbScale
 70
     0
300
2:1
140
2.0
141
1.0
290
     0
  0
SCALE
  5
500E
102
{ACAD_REACTORS
330
5000
102
}
330
5000
100
AcDbScale
 70
     0
300
4:1
140
4.0
141
1.0
290
     0
  0
SCALE
  5
500F
102
{ACAD_REACTORS
330
5000
102
}
330
5000
100
AcDbScale
 70
     0
300
8:1
140
8.0
141
1.0
290
     0
  0
SCALE
  5
5010
102
{ACAD_REACTORS
330
5000
102
}
330
5000
100
AcDbScale
 70
     0
300
10:1
140
10.0
141
1.0
290
     0
  0
SCALE
  5
5011
102
{ACAD_REACTORS
330
5000
102
}
330
5000
100
AcDbScale
 70
     0
300
100:1
140
100.0
141
1.0
290
     0
  0
SCALE
  5
5012
102
{ACAD_REACTORS
330
5000
102
}
330
5000
100
AcDbScale
 70
     0
300
1/128" = 1'-0"
140
0.0078125
141
12.0
290
     0
  0
SCALE
  5
5013
102
{ACAD_REACTORS
330
5000
102
}
330
5000
100
AcDbScale
 70
     0
300
1/64" = 1'-0"
140
0.015625
141
12.0
290
     0
  0
SCALE
  5
5014
102
{ACAD_REACTORS
330
5000
102
}
330
5000
100
AcDbScale
 70
     0
300
1/32" = 1'-0"
140
0.03125
141
12.0
290
     0
  0
SCALE
  5
5015
102
{ACAD_REACTORS
330
5000
102
}
330
5000
100
AcDbScale
 70
     0
300
1/16" = 1'-0"
140
0.0625
141
12.0
290
     0
  0
SCALE
  5
5016
102
{ACAD_REACTORS
330
5000
102
}
330
5000
100
AcDbScale
 70
     0
300
3/32" = 1'-0"
140
0.09375
141
12.0
290
     0
  0
SCALE
  5
5017
102
{ACAD_REACTORS
330
5000
102
}
330
5000
100
AcDbScale
 70
     0
300
1/8" = 1'-0"
140
0.125
141
12.0
290
     0
  0
SCALE
  5
5018
102
{ACAD_REACTORS
330
5000
102
}
330
5000
100
AcDbScale
 70
     0
300
3/16" = 1'-0"
140
0.1875
141
12.0
290
     0
  0
SCALE
  5
5019
102
{ACAD_REACTORS
330
5000
102
}
330
5000
100
AcDbScale
 70
     0
300
1/4" = 1'-0"
140
0.25
141
12.0
290
     0
  0
SCALE
  5
501A
102
{ACAD_REACTORS
330
5000
102
}
330
5000
100
AcDbScale
 70
     0
300
3/8" = 1'-0"
140
0.375
141
12.0
290
     0
  0
SCALE
  5
501B
102
{ACAD_REACTORS
330
5000
102
}
330
5000
100
AcDbScale
 70
     0
300
1/2" = 1'-0"
140
0.5
141
12.0
290
     0
  0
SCALE
  5
501C
102
{ACAD_REACTORS
330
5000
102
}
330
5000
100
AcDbScale
 70
     0
300
3/4" = 1'-0"
140
0.75
141
12.0
290
     0
  0
SCALE
  5
501D
102
{ACAD_REACTORS
330
5000
102
}
330
5000
100
AcDbScale
 70
     0
300
1" = 1'-0"
140
1.0
141
12.0
290
     0
  0
SCALE
  5
501E
102
{ACAD_REACTORS
330
5000
102
}
330
5000
100
AcDbScale
 70
     0
300
1-1/2" = 1'-0"
140
1.5
141
12.0
290
     0
  0
SCALE
  5
501F
102
{ACAD_REACTORS
330
5000
102
}
330
5000
100
AcDbScale
 70
     0
300
3" = 1'-0"
140
3.0
141
12.0
290
     0
  0
SCALE
  5
5020
102
{ACAD_REACTORS
330
5000
102
}
330
5000
100
AcDbScale
 70
     0
300
6" = 1'-0"
140
6.0
141
12.0
290
     0
  0
SCALE
  5
5021
102
{ACAD_REACTORS
330
5000
102
}
330
5000
100
AcDbScale
 70
     0
300
1'-0" = 1'-0"
140
12.0
141
12.0
290
     0
  0
TABLESTYLE
  5
4FFF
102
{ACAD_XDICTIONARY
360
50D6
102
}
102
{ACAD_REACTORS
330
4FE3
102
}
330
4FE3
100
AcDbTableStyle
  3
Standard
 70
     0
 71
     0
 40
0.06
 41
0.06
280
     0
281
     0
  7
Standard
140
0.18
170
     2
 62
     0
 63
     7
283
     0
 90
      512
 91
        0
  1

274
    -2
284
     1
 64
     0
275
    -2
285
     1
 65
     0
276
    -2
286
     1
 66
     0
277
    -2
287
     1
 67
     0
278
    -2
288
     1
 68
     0
279
    -2
289
     1
 69
     0
  7
Standard
140
0.25
170
     5
 62
     0
 63
     7
283
     0
 90
      512
 91
        0
  1

274
    -2
284
     1
 64
     0
275
    -2
285
     1
 65
     0
276
    -2
286
     1
 66
     0
277
    -2
287
     1
 67
     0
278
    -2
288
     1
 68
     0
279
    -2
289
     1
 69
     0
  7
Standard
140
0.18
170
     5
 62
     0
 63
     7
283
     0
 90
      512
 91
        0
  1

274
    -2
284
     1
 64
     0
275
    -2
285
     1
 65
     0
276
    -2
286
     1
 66
     0
277
    -2
287
     1
 67
     0
278
    -2
288
     1
 68
     0
279
    -2
289
     1
 69
     0
  0
VISUALSTYLE
  5
2F
102
{ACAD_REACTORS
330
2A
102
}
330
2A
100
AcDbVisualStyle
  2
2dWireframe
 70
     4
 71
     0
 72
     2
 73
     0
 90
        0
 40
-0.6
 41
-30.0
 62
     5
 63
     7
 74
     1
 91
        4
 64
     7
 65
   257
 75
     1
175
     1
 42
1.0
 92
        0
 66
   257
 43
1.0
 76
     1
 77
     6
 78
     2
 67
     7
 79
     5
170
     0
171
     0
290
     0
174
     0
 93
        1
 44
0.0
173
     0
291
     0
 45
0.0
1001
ACAD
1000
AcDbSavedByObjectVersion
1070
     0
1000
AcDbSavedByObjectVersion
1070
     0
1000
AcDbSavedByObjectVersion
1070
     0
1000
AcDbSavedByObjectVersion
1070
     0
1000
AcDbSavedByObjectVersion
1070
     0
1000
AcDbSavedByObjectVersion
1070
     0
1000
AcDbSavedByObjectVersion
1070
     0
1000
AcDbSavedByObjectVersion
1070
     0
1000
AcDbSavedByObjectVersion
1070
     0
1000
AcDbSavedByObjectVersion
1070
     0
1000
AcDbSavedByObjectVersion
1070
     0
1000
AcDbSavedByObjectVersion
1070
     0
1000
AcDbSavedByObjectVersion
1070
     0
1000
AcDbSavedByObjectVersion
1070
     0
1000
AcDbSavedByObjectVersion
1070
     0
1000
AcDbSavedByObjectVersion
1070
     0
1000
AcDbSavedByObjectVersion
1070
     0
1000
AcDbSavedByObjectVersion
1070
     0
1000
AcDbSavedByObjectVersion
1070
     0
1000
AcDbSavedByObjectVersion
1070
     0
1000
AcDbSavedByObjectVersion
1070
     0
  0
VISUALSTYLE
  5
31
102
{ACAD_REACTORS
330
2A
102
}
330
2A
100
AcDbVisualStyle
  2
3D Hidden
 70
     6
 71
     1
 72
     2
 73
     2
 90
        0
 40
-0.6
 41
-30.0
 62
     5
 63
     7
 74
     2
 91
        2
 64
     7
 65
   257
 75
     2
175
     1
 42
40.0
 92
        0
 66
   257
 43
1.0
 76
     1
 77
     6
 78
     2
 67
     7
 79
     3
170
     0
171
     0
290
     0
174
     0
 93
        1
 44
0.0
173
     0
291
     0
 45
0.0
1001
ACAD
1000
AcDbSavedByObjectVersion
1070
     0
1000
AcDbSavedByObjectVersion
1070
     0
1000
AcDbSavedByObjectVersion
1070
     0
1000
AcDbSavedByObjectVersion
1070
     0
1000
AcDbSavedByObjectVersion
1070
     0
1000
AcDbSavedByObjectVersion
1070
     0
1000
AcDbSavedByObjectVersion
1070
     0
1000
AcDbSavedByObjectVersion
1070
     0
1000
AcDbSavedByObjectVersion
1070
     0
1000
AcDbSavedByObjectVersion
1070
     0
1000
AcDbSavedByObjectVersion
1070
     0
1000
AcDbSavedByObjectVersion
1070
     0
1000
AcDbSavedByObjectVersion
1070
     0
1000
AcDbSavedByObjectVersion
1070
     0
1000
AcDbSavedByObjectVersion
1070
     0
1000
AcDbSavedByObjectVersion
1070
     0
1000
AcDbSavedByObjectVersion
1070
     0
1000
AcDbSavedByObjectVersion
1070
     0
1000
AcDbSavedByObjectVersion
1070
     0
1000
AcDbSavedByObjectVersion
1070
     0
1000
AcDbSavedByObjectVersion
1070
     0
  0
VISUALSTYLE
  5
30
102
{ACAD_REACTORS
330
2A
102
}
330
2A
100
AcDbVisualStyle
  2
3dWireframe
 70
     5
 71
     0
 72
     2
 73
     0
 90
        0
 40
-0.6
 41
-30.0
 62
     5
 63
     7
 74
     1
 91
        4
 64
     7
 65
   257
 75
     1
175
     1
 42
1.0
 92
        0
 66
   257
 43
1.0
 76
     1
 77
     6
 78
     2
 67
     7
 79
     5
170
     0
171
     0
290
     0
174
     0
 93
        1
 44
0.0
173
     0
291
     0
 45
0.0
1001
ACAD
1000
AcDbSavedByObjectVersion
1070
     0
1000
AcDbSavedByObjectVersion
1070
     0
1000
AcDbSavedByObjectVersion
1070
     0
1000
AcDbSavedByObjectVersion
1070
     0
1000
AcDbSavedByObjectVersion
1070
     0
1000
AcDbSavedByObjectVersion
1070
     0
1000
AcDbSavedByObjectVersion
1070
     0
1000
AcDbSavedByObjectVersion
1070
     0
1000
AcDbSavedByObjectVersion
1070
     0
1000
AcDbSavedByObjectVersion
1070
     0
1000
AcDbSavedByObjectVersion
1070
     0
1000
AcDbSavedByObjectVersion
1070
     0
1000
AcDbSavedByObjectVersion
1070
     0
1000
AcDbSavedByObjectVersion
1070
     0
1000
AcDbSavedByObjectVersion
1070
     0
1000
AcDbSavedByObjectVersion
1070
     0
1000
AcDbSavedByObjectVersion
1070
     0
1000
AcDbSavedByObjectVersion
1070
     0
1000
AcDbSavedByObjectVersion
1070
     0
1000
AcDbSavedByObjectVersion
1070
     0
1000
AcDbSavedByObjectVersion
1070
     0
  0
VISUALSTYLE
  5
32
102
{ACAD_REACTORS
330
2A
102
}
330
2A
100
AcDbVisualStyle
  2
Basic
 70
     7
 71
     1
 72
     0
 73
     1
 90
        0
 40
-0.6
 41
-30.0
 62
     5
 63
     7
 74
     0
 91
        4
 64
     7
 65
   257
 75
     1
175
     1
 42
1.0
 92
        8
 66
     7
 43
1.0
 76
     1
 77
     6
 78
     2
 67
     7
 79
     5
170
     0
171
     0
290
     0
174
     0
 93
        1
 44
0.0
173
     0
291
     1
 45
0.0
1001
ACAD
1000
AcDbSavedByObjectVersion
1070
     0
1000
AcDbSavedByObjectVersion
1070
     0
1000
AcDbSavedByObjectVersion
1070
     0
1000
AcDbSavedByObjectVersion
1070
     0
1000
AcDbSavedByObjectVersion
1070
     0
1000
AcDbSavedByObjectVersion
1070
     0
1000
AcDbSavedByObjectVersion
1070
     0
1000
AcDbSavedByObjectVersion
1070
     0
1000
AcDbSavedByObjectVersion
1070
     0
1000
AcDbSavedByObjectVersion
1070
     0
1000
AcDbSavedByObjectVersion
1070
     0
1000
AcDbSavedByObjectVersion
1070
     0
1000
AcDbSavedByObjectVersion
1070
     0
1000
AcDbSavedByObjectVersion
1070
     0
1000
AcDbSavedByObjectVersion
1070
     0
1000
AcDbSavedByObjectVersion
1070
     0
1000
AcDbSavedByObjectVersion
1070
     0
1000
AcDbSavedByObjectVersion
1070
     0
1000
AcDbSavedByObjectVersion
1070
     0
1000
AcDbSavedByObjectVersion
1070
     0
1000
AcDbSavedByObjectVersion
1070
     0
  0
VISUALSTYLE
  5
36
102
{ACAD_REACTORS
330
2A
102
}
330
2A
100
AcDbVisualStyle
  2
Brighten
 70
    12
 71
     2
 72
     2
 73
     0
 90
        0
 40
-0.6
 41
-30.0
 62
     5
 63
     7
 74
     1
 91
        4
 64
     7
 65
   257
 75
     1
175
     1
 42
1.0
 92
        8
 66
     7
 43
1.0
 76
     1
 77
     6
 78
     2
 67
     7
 79
     5
170
     0
171
     0
290
     0
174
     0
 93
        1
 44
50.0
173
     0
291
     1
 45
0.0
1001
ACAD
1000
AcDbSavedByObjectVersion
1070
     0
1000
AcDbSavedByObjectVersion
1070
     0
1000
AcDbSavedByObjectVersion
1070
     0
1000
AcDbSavedByObjectVersion
1070
     0
1000
AcDbSavedByObjectVersion
1070
     0
1000
AcDbSavedByObjectVersion
1070
     0
1000
AcDbSavedByObjectVersion
1070
     0
1000
AcDbSavedByObjectVersion
1070
     0
1000
AcDbSavedByObjectVersion
1070
     0
1000
AcDbSavedByObjectVersion
1070
     0
1000
AcDbSavedByObjectVersion
1070
     0
1000
AcDbSavedByObjectVersion
1070
     0
1000
AcDbSavedByObjectVersion
1070
     0
1000
AcDbSavedByObjectVersion
1070
     0
1000
AcDbSavedByObjectVersion
1070
     0
1000
AcDbSavedByObjectVersion
1070
     0
1000
AcDbSavedByObjectVersion
1070
     0
1000
AcDbSavedByObjectVersion
1070
     0
1000
AcDbSavedByObjectVersion
1070
     0
1000
AcDbSavedByObjectVersion
1070
     0
1000
AcDbSavedByObjectVersion
1070
     0
  0
VISUALSTYLE
  5
3A
102
{ACAD_REACTORS
330
2A
102
}
330
2A
100
AcDbVisualStyle
  2
ColorChange
 70
    16
 71
     2
 72
     2
 73
     3
 90
        0
 40
-0.6
 41
-30.0
 62
     5
 63
     8
 74
     1
 91
        4
 64
     7
 65
   257
 75
     1
175
     1
 42
1.0
 92
        8
 66
     8
 43
1.0
 76
     1
 77
     6
 78
     2
 67
     7
 79
     5
170
     0
171
     0
290
     0
174
     0
 93
        1
 44
0.0
173
     0
291
     1
 45
0.0
1001
ACAD
1000
AcDbSavedByObjectVersion
1070
     0
1000
AcDbSavedByObjectVersion
1070
     0
1000
AcDbSavedByObjectVersion
1070
     0
1000
AcDbSavedByObjectVersion
1070
     0
1000
AcDbSavedByObjectVersion
1070
     0
1000
AcDbSavedByObjectVersion
1070
     0
1000
AcDbSavedByObjectVersion
1070
     0
1000
AcDbSavedByObjectVersion
1070
     0
1000
AcDbSavedByObjectVersion
1070
     0
1000
AcDbSavedByObjectVersion
1070
     0
1000
AcDbSavedByObjectVersion
1070
     0
1000
AcDbSavedByObjectVersion
1070
     0
1000
AcDbSavedByObjectVersion
1070
     0
1000
AcDbSavedByObjectVersion
1070
     0
1000
AcDbSavedByObjectVersion
1070
     0
1000
AcDbSavedByObjectVersion
1070
     0
1000
AcDbSavedByObjectVersion
1070
     0
1000
AcDbSavedByObjectVersion
1070
     0
1000
AcDbSavedByObjectVersion
1070
     0
1000
AcDbSavedByObjectVersion
1070
     0
1000
AcDbSavedByObjectVersion
1070
     0
  0
VISUALSTYLE
  5
34
102
{ACAD_REACTORS
330
2A
102
}
330
2A
100
AcDbVisualStyle
  2
Conceptual
 70
     9
 71
     3
 72
     2
 73
     0
 90
        0
 40
-0.6
 41
-30.0
 62
     5
 63
     7
 74
     2
 91
        2
 64
     7
 65
   257
 75
     1
175
     1
 42
40.0
 92
        8
 66
     7
 43
1.0
 76
     1
 77
     6
 78
     2
 67
     7
 79
     3
170
     0
171
     0
290
     0
174
     0
 93
        1
 44
0.0
173
     0
291
     0
 45
0.0
1001
ACAD
1000
AcDbSavedByObjectVersion
1070
     0
1000
AcDbSavedByObjectVersion
1070
     0
1000
AcDbSavedByObjectVersion
1070
     0
1000
AcDbSavedByObjectVersion
1070
     0
1000
AcDbSavedByObjectVersion
1070
     0
1000
AcDbSavedByObjectVersion
1070
     0
1000
AcDbSavedByObjectVersion
1070
     0
1000
AcDbSavedByObjectVersion
1070
     0
1000
AcDbSavedByObjectVersion
1070
     0
1000
AcDbSavedByObjectVersion
1070
     0
1000
AcDbSavedByObjectVersion
1070
     0
1000
AcDbSavedByObjectVersion
1070
     0
1000
AcDbSavedByObjectVersion
1070
     0
1000
AcDbSavedByObjectVersion
1070
     0
1000
AcDbSavedByObjectVersion
1070
     0
1000
AcDbSavedByObjectVersion
1070
     0
1000
AcDbSavedByObjectVersion
1070
     0
1000
AcDbSavedByObjectVersion
1070
     0
1000
AcDbSavedByObjectVersion
1070
     0
1000
AcDbSavedByObjectVersion
1070
     0
1000
AcDbSavedByObjectVersion
1070
     0
  0
VISUALSTYLE
  5
35
102
{ACAD_REACTORS
330
2A
102
}
330
2A
100
AcDbVisualStyle
  2
Dim
 70
    11
 71
     2
 72
     2
 73
     0
 90
        0
 40
-0.6
 41
-30.0
 62
     5
 63
     7
 74
     1
 91
        4
 64
     7
 65
   257
 75
     1
175
     1
 42
1.0
 92
        8
 66
     7
 43
1.0
 76
     1
 77
     6
 78
     2
 67
     7
 79
     5
170
     0
171
     0
290
     0
174
     0
 93
        1
 44
-50.0
173
     0
291
     1
 45
0.0
1001
ACAD
1000
AcDbSavedByObjectVersion
1070
     0
1000
AcDbSavedByObjectVersion
1070
     0
1000
AcDbSavedByObjectVersion
1070
     0
1000
AcDbSavedByObjectVersion
1070
     0
1000
AcDbSavedByObjectVersion
1070
     0
1000
AcDbSavedByObjectVersion
1070
     0
1000
AcDbSavedByObjectVersion
1070
     0
1000
AcDbSavedByObjectVersion
1070
     0
1000
AcDbSavedByObjectVersion
1070
     0
1000
AcDbSavedByObjectVersion
1070
     0
1000
AcDbSavedByObjectVersion
1070
     0
1000
AcDbSavedByObjectVersion
1070
     0
1000
AcDbSavedByObjectVersion
1070
     0
1000
AcDbSavedByObjectVersion
1070
     0
1000
AcDbSavedByObjectVersion
1070
     0
1000
AcDbSavedByObjectVersion
1070
     0
1000
AcDbSavedByObjectVersion
1070
     0
1000
AcDbSavedByObjectVersion
1070
     0
1000
AcDbSavedByObjectVersion
1070
     0
1000
AcDbSavedByObjectVersion
1070
     0
1000
AcDbSavedByObjectVersion
1070
     0
  0
VISUALSTYLE
  5
39
102
{ACAD_REACTORS
330
2A
102
}
330
2A
100
AcDbVisualStyle
  2
Facepattern
 70
    15
 71
     2
 72
     2
 73
     0
 90
        0
 40
-0.6
 41
-30.0
 62
     5
 63
     7
 74
     1
 91
        4
 64
     7
 65
   257
 75
     1
175
     1
 42
1.0
 92
        8
 66
     7
 43
1.0
 76
     1
 77
     6
 78
     2
 67
     7
 79
     5
170
     0
171
     0
290
     0
174
     0
 93
        1
 44
0.0
173
     0
291
     1
 45
0.0
1001
ACAD
1000
AcDbSavedByObjectVersion
1070
     0
1000
AcDbSavedByObjectVersion
1070
     0
1000
AcDbSavedByObjectVersion
1070
     0
1000
AcDbSavedByObjectVersion
1070
     0
1000
AcDbSavedByObjectVersion
1070
     0
1000
AcDbSavedByObjectVersion
1070
     0
1000
AcDbSavedByObjectVersion
1070
     0
1000
AcDbSavedByObjectVersion
1070
     0
1000
AcDbSavedByObjectVersion
1070
     0
1000
AcDbSavedByObjectVersion
1070
     0
1000
AcDbSavedByObjectVersion
1070
     0
1000
AcDbSavedByObjectVersion
1070
     0
1000
AcDbSavedByObjectVersion
1070
     0
1000
AcDbSavedByObjectVersion
1070
     0
1000
AcDbSavedByObjectVersion
1070
     0
1000
AcDbSavedByObjectVersion
1070
     0
1000
AcDbSavedByObjectVersion
1070
     0
1000
AcDbSavedByObjectVersion
1070
     0
1000
AcDbSavedByObjectVersion
1070
     0
1000
AcDbSavedByObjectVersion
1070
     0
1000
AcDbSavedByObjectVersion
1070
     0
  0
VISUALSTYLE
  5
2B
102
{ACAD_REACTORS
330
2A
102
}
330
2A
100
AcDbVisualStyle
  2
Flat
 70
     0
 71
     2
 72
     1
 73
     1
 90
        2
 40
-0.6
 41
30.0
 62
     5
 63
     7
 74
     0
 91
        4
 64
     7
 65
   257
 75
     1
175
     1
 42
1.0
 92
        8
 66
     7
 43
1.0
 76
     1
 77
     6
 78
     2
 67
     7
 79
     5
170
     0
171
     0
290
     0
174
     0
 93
       13
 44
0.0
173
     0
291
     1
 45
0.0
1001
ACAD
1000
AcDbSavedByObjectVersion
1070
     0
1000
AcDbSavedByObjectVersion
1070
     0
1000
AcDbSavedByObjectVersion
1070
     0
1000
AcDbSavedByObjectVersion
1070
     0
1000
AcDbSavedByObjectVersion
1070
     0
1000
AcDbSavedByObjectVersion
1070
     0
1000
AcDbSavedByObjectVersion
1070
     0
1000
AcDbSavedByObjectVersion
1070
     0
1000
AcDbSavedByObjectVersion
1070
     0
1000
AcDbSavedByObjectVersion
1070
     0
1000
AcDbSavedByObjectVersion
1070
     0
1000
AcDbSavedByObjectVersion
1070
     0
1000
AcDbSavedByObjectVersion
1070
     0
1000
AcDbSavedByObjectVersion
1070
     0
1000
AcDbSavedByObjectVersion
1070
     0
1000
AcDbSavedByObjectVersion
1070
     0
1000
AcDbSavedByObjectVersion
1070
     0
1000
AcDbSavedByObjectVersion
1070
     0
1000
AcDbSavedByObjectVersion
1070
     0
1000
AcDbSavedByObjectVersion
1070
     0
1000
AcDbSavedByObjectVersion
1070
     0
  0
VISUALSTYLE
  5
2C
102
{ACAD_REACTORS
330
2A
102
}
330
2A
100
AcDbVisualStyle
  2
FlatWithEdges
 70
     1
 71
     2
 72
     1
 73
     1
 90
        2
 40
-0.6
 41
30.0
 62
     5
 63
     7
 74
     1
 91
        4
 64
     7
 65
   257
 75
     1
175
     1
 42
1.0
 92
        0
 66
   257
 43
1.0
 76
     1
 77
     6
 78
     2
 67
     7
 79
     5
170
     0
171
     0
290
     0
174
     0
 93
       13
 44
0.0
173
     0
291
     1
 45
0.0
1001
ACAD
1000
AcDbSavedByObjectVersion
1070
     0
1000
AcDbSavedByObjectVersion
1070
     0
1000
AcDbSavedByObjectVersion
1070
     0
1000
AcDbSavedByObjectVersion
1070
     0
1000
AcDbSavedByObjectVersion
1070
     0
1000
AcDbSavedByObjectVersion
1070
     0
1000
AcDbSavedByObjectVersion
1070
     0
1000
AcDbSavedByObjectVersion
1070
     0
1000
AcDbSavedByObjectVersion
1070
     0
1000
AcDbSavedByObjectVersion
1070
     0
1000
AcDbSavedByObjectVersion
1070
     0
1000
AcDbSavedByObjectVersion
1070
     0
1000
AcDbSavedByObjectVersion
1070
     0
1000
AcDbSavedByObjectVersion
1070
     0
1000
AcDbSavedByObjectVersion
1070
     0
1000
AcDbSavedByObjectVersion
1070
     0
1000
AcDbSavedByObjectVersion
1070
     0
1000
AcDbSavedByObjectVersion
1070
     0
1000
AcDbSavedByObjectVersion
1070
     0
1000
AcDbSavedByObjectVersion
1070
     0
1000
AcDbSavedByObjectVersion
1070
     0
  0
VISUALSTYLE
  5
2D
102
{ACAD_REACTORS
330
2A
102
}
330
2A
100
AcDbVisualStyle
  2
Gouraud
 70
     2
 71
     2
 72
     2
 73
     1
 90
        2
 40
-0.6
 41
30.0
 62
     5
 63
     7
 74
     0
 91
        4
 64
     7
 65
   257
 75
     1
175
     1
 42
1.0
 92
        0
 66
     7
 43
1.0
 76
     1
 77
     6
 78
     2
 67
     7
 79
     5
170
     0
171
     0
290
     0
174
     0
 93
       13
 44
0.0
173
     0
291
     1
 45
0.0
1001
ACAD
1000
AcDbSavedByObjectVersion
1070
     0
1000
AcDbSavedByObjectVersion
1070
     0
1000
AcDbSavedByObjectVersion
1070
     0
1000
AcDbSavedByObjectVersion
1070
     0
1000
AcDbSavedByObjectVersion
1070
     0
1000
AcDbSavedByObjectVersion
1070
     0
1000
AcDbSavedByObjectVersion
1070
     0
1000
AcDbSavedByObjectVersion
1070
     0
1000
AcDbSavedByObjectVersion
1070
     0
1000
AcDbSavedByObjectVersion
1070
     0
1000
AcDbSavedByObjectVersion
1070
     0
1000
AcDbSavedByObjectVersion
1070
     0
1000
AcDbSavedByObjectVersion
1070
     0
1000
AcDbSavedByObjectVersion
1070
     0
1000
AcDbSavedByObjectVersion
1070
     0
1000
AcDbSavedByObjectVersion
1070
     0
1000
AcDbSavedByObjectVersion
1070
     0
1000
AcDbSavedByObjectVersion
1070
     0
1000
AcDbSavedByObjectVersion
1070
     0
1000
AcDbSavedByObjectVersion
1070
     0
1000
AcDbSavedByObjectVersion
1070
     0
  0
VISUALSTYLE
  5
2E
102
{ACAD_REACTORS
330
2A
102
}
330
2A
100
AcDbVisualStyle
  2
GouraudWithEdges
 70
     3
 71
     2
 72
     2
 73
     1
 90
        2
 40
-0.6
 41
30.0
 62
     5
 63
     7
 74
     1
 91
        4
 64
     7
 65
   257
 75
     1
175
     1
 42
1.0
 92
        0
 66
   257
 43
1.0
 76
     1
 77
     6
 78
     2
 67
     7
 79
     5
170
     0
171
     0
290
     0
174
     0
 93
       13
 44
0.0
173
     0
291
     1
 45
0.0
1001
ACAD
1000
AcDbSavedByObjectVersion
1070
     0
1000
AcDbSavedByObjectVersion
1070
     0
1000
AcDbSavedByObjectVersion
1070
     0
1000
AcDbSavedByObjectVersion
1070
     0
1000
AcDbSavedByObjectVersion
1070
     0
1000
AcDbSavedByObjectVersion
1070
     0
1000
AcDbSavedByObjectVersion
1070
     0
1000
AcDbSavedByObjectVersion
1070
     0
1000
AcDbSavedByObjectVersion
1070
     0
1000
AcDbSavedByObjectVersion
1070
     0
1000
AcDbSavedByObjectVersion
1070
     0
1000
AcDbSavedByObjectVersion
1070
     0
1000
AcDbSavedByObjectVersion
1070
     0
1000
AcDbSavedByObjectVersion
1070
     0
1000
AcDbSavedByObjectVersion
1070
     0
1000
AcDbSavedByObjectVersion
1070
     0
1000
AcDbSavedByObjectVersion
1070
     0
1000
AcDbSavedByObjectVersion
1070
     0
1000
AcDbSavedByObjectVersion
1070
     0
1000
AcDbSavedByObjectVersion
1070
     0
1000
AcDbSavedByObjectVersion
1070
     0
  0
VISUALSTYLE
  5
38
102
{ACAD_REACTORS
330
2A
102
}
330
2A
100
AcDbVisualStyle
  2
Linepattern
 70
    14
 71
     2
 72
     2
 73
     0
 90
        0
 40
-0.6
 41
-30.0
 62
     5
 63
     7
 74
     1
 91
        4
 64
     7
 65
   257
 75
     7
175
     7
 42
1.0
 92
        8
 66
     7
 43
1.0
 76
     1
 77
     6
 78
     2
 67
     7
 79
     5
170
     0
171
     0
290
     0
174
     0
 93
        1
 44
0.0
173
     0
291
     1
 45
0.0
1001
ACAD
1000
AcDbSavedByObjectVersion
1070
     0
1000
AcDbSavedByObjectVersion
1070
     0
1000
AcDbSavedByObjectVersion
1070
     0
1000
AcDbSavedByObjectVersion
1070
     0
1000
AcDbSavedByObjectVersion
1070
     0
1000
AcDbSavedByObjectVersion
1070
     0
1000
AcDbSavedByObjectVersion
1070
     0
1000
AcDbSavedByObjectVersion
1070
     0
1000
AcDbSavedByObjectVersion
1070
     0
1000
AcDbSavedByObjectVersion
1070
     0
1000
AcDbSavedByObjectVersion
1070
     0
1000
AcDbSavedByObjectVersion
1070
     0
1000
AcDbSavedByObjectVersion
1070
     0
1000
AcDbSavedByObjectVersion
1070
     0
1000
AcDbSavedByObjectVersion
1070
     0
1000
AcDbSavedByObjectVersion
1070
     0
1000
AcDbSavedByObjectVersion
1070
     0
1000
AcDbSavedByObjectVersion
1070
     0
1000
AcDbSavedByObjectVersion
1070
     0
1000
AcDbSavedByObjectVersion
1070
     0
1000
AcDbSavedByObjectVersion
1070
     0
  0
VISUALSTYLE
  5
33
102
{ACAD_REACTORS
330
2A
102
}
330
2A
100
AcDbVisualStyle
  2
Realistic
 70
     8
 71
     2
 72
     2
 73
     0
 90
        0
 40
-0.6
 41
-30.0
 62
     5
 63
     7
 74
     1
 91
        0
 64
     7
 65
   257
 75
     1
175
     1
 42
1.0
 92
        8
 66
     8
 43
1.0
 76
     1
 77
     6
 78
     2
 67
     7
 79
     5
170
     0
171
     0
290
     0
174
     0
 93
       13
 44
0.0
173
     0
291
     0
 45
0.0
1001
ACAD
1000
AcDbSavedByObjectVersion
1070
     0
1000
AcDbSavedByObjectVersion
1070
     0
1000
AcDbSavedByObjectVersion
1070
     0
1000
AcDbSavedByObjectVersion
1070
     0
1000
AcDbSavedByObjectVersion
1070
     0
1000
AcDbSavedByObjectVersion
1070
     0
1000
AcDbSavedByObjectVersion
1070
     0
1000
AcDbSavedByObjectVersion
1070
     0
1000
AcDbSavedByObjectVersion
1070
     0
1000
AcDbSavedByObjectVersion
1070
     0
1000
AcDbSavedByObjectVersion
1070
     0
1000
AcDbSavedByObjectVersion
1070
     0
1000
AcDbSavedByObjectVersion
1070
     0
1000
AcDbSavedByObjectVersion
1070
     0
1000
AcDbSavedByObjectVersion
1070
     0
1000
AcDbSavedByObjectVersion
1070
     0
1000
AcDbSavedByObjectVersion
1070
     0
1000
AcDbSavedByObjectVersion
1070
     0
1000
AcDbSavedByObjectVersion
1070
     0
1000
AcDbSavedByObjectVersion
1070
     0
1000
AcDbSavedByObjectVersion
1070
     0
  0
VISUALSTYLE
  5
37
102
{ACAD_REACTORS
330
2A
102
}
330
2A
100
AcDbVisualStyle
  2
Thicken
 70
    13
 71
     2
 72
     2
 73
     0
 90
        0
 40
-0.6
 41
-30.0
 62
     5
 63
     7
 74
     1
 91
        4
 64
     7
 65
   257
 75
     1
175
     1
 42
1.0
 92
       12
 66
     7
 43
1.0
 76
     1
 77
     6
 78
     2
 67
     7
 79
     5
170
     0
171
     0
290
     0
174
     0
 93
        1
 44
0.0
173
     0
291
     1
 45
0.0
1001
ACAD
1000
AcDbSavedByObjectVersion
1070
     0
1000
AcDbSavedByObjectVersion
1070
     0
1000
AcDbSavedByObjectVersion
1070
     0
1000
AcDbSavedByObjectVersion
1070
     0
1000
AcDbSavedByObjectVersion
1070
     0
1000
AcDbSavedByObjectVersion
1070
     0
1000
AcDbSavedByObjectVersion
1070
     0
1000
AcDbSavedByObjectVersion
1070
     0
1000
AcDbSavedByObjectVersion
1070
     0
1000
AcDbSavedByObjectVersion
1070
     0
1000
AcDbSavedByObjectVersion
1070
     0
1000
AcDbSavedByObjectVersion
1070
     0
1000
AcDbSavedByObjectVersion
1070
     0
1000
AcDbSavedByObjectVersion
1070
     0
1000
AcDbSavedByObjectVersion
1070
     0
1000
AcDbSavedByObjectVersion
1070
     0
1000
AcDbSavedByObjectVersion
1070
     0
1000
AcDbSavedByObjectVersion
1070
     0
1000
AcDbSavedByObjectVersion
1070
     0
1000
AcDbSavedByObjectVersion
1070
     0
1000
AcDbSavedByObjectVersion
1070
     0
  0
VISUALSTYLE
  5
275F1
102
{ACAD_XDICTIONARY
360
275F2
102
}
102
{ACAD_REACTORS
330
2A
102
}
330
2A
100
AcDbVisualStyle
  2
Wireframe
 70
     5
 71
     0
 72
     2
 73
     0
 90
        0
 40
-0.6
 41
-30.0
 62
     5
 63
     7
421
 16777215
 74
     1
 91
        4
 64
     7
 65
   257
 75
     1
175
     1
 42
1.0
 92
        0
 66
   257
 43
1.0
 76
     1
 77
     6
 78
     2
 67
     7
 79
     3
170
     0
171
     0
290
     0
174
     0
 93
        1
 44
0.0
173
     0
291
     0
 45
0.0
  0
DICTIONARYVAR
  5
510B
102
{ACAD_REACTORS
330
5108
102
}
330
5108
100
DictionaryVariables
280
     0
  1
1:1
  0
DICTIONARYVAR
  5
510A
102
{ACAD_REACTORS
330
5108
102
}
330
5108
100
DictionaryVariables
280
     0
  1
STANDARD
  0
DICTIONARYVAR
  5
5109
102
{ACAD_REACTORS
330
5108
102
}
330
5108
100
DictionaryVariables
280
     0
  1
STANDARD
  0
DICTIONARYVAR
  5
510E
102
{ACAD_REACTORS
330
5108
102
}
330
5108
100
DictionaryVariables
280
     0
  1
1
  0
DICTIONARYVAR
  5
510D
102
{ACAD_REACTORS
330
5108
102
}
330
5108
100
DictionaryVariables
280
     0
  1
0
  0
DICTIONARYVAR
  5
37AB9
102
{ACAD_REACTORS
330
5108
102
}
330
5108
100
DictionaryVariables
280
     0
  1
0
  0
DICTIONARYVAR
  5
37AB8
102
{ACAD_REACTORS
330
5108
102
}
330
5108
100
DictionaryVariables
280
     0
  1
0
  0
DICTIONARYVAR
  5
510C
102
{ACAD_REACTORS
330
5108
102
}
330
5108
100
DictionaryVariables
280
     0
  1
127
  0
XRECORD
  5
1AF2F
102
{ACAD_REACTORS
330
1AF2E
102
}
330
1AF2E
100
AcDbXrecord
280
     1
330
0
330
0
330
0
330
0
330
0
330
0
330
0
  0
DICTIONARY
  5
4FEF
330
4FEE
100
AcDbDictionary
280
     1
281
     1
  3
ACAD_XREC_ROUNDTRIP
360
37A7B
  3
BUMPTILE
360
4FF1
  3
DIFFUSETILE
360
4FF0
  3
OPACITYTILE
360
4FF4
  3
REFLECTIONTILE
360
4FF3
  3
REFRACTIONTILE
360
4FF5
  3
SPECULARTILE
360
4FF2
  0
DICTIONARY
  5
4FE7
330
4FE6
100
AcDbDictionary
280
     1
281
     1
  3
ACAD_XREC_ROUNDTRIP
360
37A7A
  3
BUMPTILE
360
4FE9
  3
DIFFUSETILE
360
4FE8
  3
OPACITYTILE
360
4FEC
  3
REFLECTIONTILE
360
4FEB
  3
REFRACTIONTILE
360
4FED
  3
SPECULARTILE
360
4FEA
  0
DICTIONARY
  5
4FF7
330
4FF6
100
AcDbDictionary
280
     1
281
     1
  3
ACAD_XREC_ROUNDTRIP
360
37A7C
  3
BUMPTILE
360
4FF9
  3
DIFFUSETILE
360
4FF8
  3
OPACITYTILE
360
4FFC
  3
REFLECTIONTILE
360
4FFB
  3
REFRACTIONTILE
360
4FFD
  3
SPECULARTILE
360
4FFA
  0
DICTIONARY
  5
50D6
330
4FFF
100
AcDbDictionary
280
     1
281
     1
  3
ACAD_ROUNDTRIP_2008_TABLESTYLE_CELLSTYLEMAP
360
485ED
  0
DICTIONARY
  5
275F2
330
275F1
100
AcDbDictionary
280
     1
281
     1
  3
ACAD_XREC_ROUNDTRIP
360
275F3
  0
XRECORD
  5
37A7B
102
{ACAD_REACTORS
330
4FEF
102
}
330
4FEF
100
AcDbXrecord
280
     1
102
MATERIAL
148
0.0
149
0.0
149
0.0
 93
        0
 94
      127
282
     0
 72
     0
 77
     0
171
     0
175
     0
179
     0
273
     0
  0
XRECORD
  5
4FF1
102
{ACAD_REACTORS
330
4FEF
102
}
330
4FEF
100
AcDbXrecord
280
     1
270
     1
271
     1
  0
XRECORD
  5
4FF0
102
{ACAD_REACTORS
330
4FEF
102
}
330
4FEF
100
AcDbXrecord
280
     1
270
     1
271
     1
  0
XRECORD
  5
4FF4
102
{ACAD_REACTORS
330
4FEF
102
}
330
4FEF
100
AcDbXrecord
280
     1
270
     1
271
     1
  0
XRECORD
  5
4FF3
102
{ACAD_REACTORS
330
4FEF
102
}
330
4FEF
100
AcDbXrecord
280
     1
270
     1
271
     1
  0
XRECORD
  5
4FF5
102
{ACAD_REACTORS
330
4FEF
102
}
330
4FEF
100
AcDbXrecord
280
     1
270
     1
271
     1
  0
XRECORD
  5
4FF2
102
{ACAD_REACTORS
330
4FEF
102
}
330
4FEF
100
AcDbXrecord
280
     1
270
     1
271
     1
  0
XRECORD
  5
37A7A
102
{ACAD_REACTORS
330
4FE7
102
}
330
4FE7
100
AcDbXrecord
280
     1
102
MATERIAL
148
0.0
149
0.0
149
0.0
 93
        0
 94
      127
282
     0
 72
     0
 77
     0
171
     0
175
     0
179
     0
273
     0
  0
XRECORD
  5
4FE9
102
{ACAD_REACTORS
330
4FE7
102
}
330
4FE7
100
AcDbXrecord
280
     1
270
     1
271
     1
  0
XRECORD
  5
4FE8
102
{ACAD_REACTORS
330
4FE7
102
}
330
4FE7
100
AcDbXrecord
280
     1
270
     1
271
     1
  0
XRECORD
  5
4FEC
102
{ACAD_REACTORS
330
4FE7
102
}
330
4FE7
100
AcDbXrecord
280
     1
270
     1
271
     1
  0
XRECORD
  5
4FEB
102
{ACAD_REACTORS
330
4FE7
102
}
330
4FE7
100
AcDbXrecord
280
     1
270
     1
271
     1
  0
XRECORD
  5
4FED
102
{ACAD_REACTORS
330
4FE7
102
}
330
4FE7
100
AcDbXrecord
280
     1
270
     1
271
     1
  0
XRECORD
  5
4FEA
102
{ACAD_REACTORS
330
4FE7
102
}
330
4FE7
100
AcDbXrecord
280
     1
270
     1
271
     1
  0
XRECORD
  5
37A7C
102
{ACAD_REACTORS
330
4FF7
102
}
330
4FF7
100
AcDbXrecord
280
     1
102
MATERIAL
148
0.0
149
0.0
149
0.0
 93
        0
 94
      127
282
     0
 72
     0
 77
     0
171
     0
175
     0
179
     0
273
     0
  0
XRECORD
  5
4FF9
102
{ACAD_REACTORS
330
4FF7
102
}
330
4FF7
100
AcDbXrecord
280
     1
270
     1
271
     1
  0
XRECORD
  5
4FF8
102
{ACAD_REACTORS
330
4FF7
102
}
330
4FF7
100
AcDbXrecord
280
     1
270
     1
271
     1
  0
XRECORD
  5
4FFC
102
{ACAD_REACTORS
330
4FF7
102
}
330
4FF7
100
AcDbXrecord
280
     1
270
     1
271
     1
  0
XRECORD
  5
4FFB
102
{ACAD_REACTORS
330
4FF7
102
}
330
4FF7
100
AcDbXrecord
280
     1
270
     1
271
     1
  0
XRECORD
  5
4FFD
102
{ACAD_REACTORS
330
4FF7
102
}
330
4FF7
100
AcDbXrecord
280
     1
270
     1
271
     1
  0
XRECORD
  5
4FFA
102
{ACAD_REACTORS
330
4FF7
102
}
330
4FF7
100
AcDbXrecord
280
     1
270
     1
271
     1
  0
CELLSTYLEMAP
  5
485ED
102
{ACAD_REACTORS
330
50D6
102
}
330
50D6
100
AcDbCellStyleMap
 90
        3
300
CELLSTYLE
  1
TABLEFORMAT_BEGIN
 90
        5
170
     1
 91
        0
 92
    32768
 62
   257
 93
        1
300
CONTENTFORMAT
  1
CONTENTFORMAT_BEGIN
 90
        0
 91
        0
 92
      512
 93
        0
300

 40
0.0
140
1.0
 94
        5
 62
     0
340
11
144
0.25
309
CONTENTFORMAT_END
171
     1
301
MARGIN
  1
CELLMARGIN_BEGIN
 40
0.06
 40
0.06
 40
0.06
 40
0.06
 40
0.18
 40
0.18
309
CELLMARGIN_END
 94
        6
 95
        1
302
GRIDFORMAT
  1
GRIDFORMAT_BEGIN
 90
        0
 91
        1
 62
     0
 92
       -2
340
0
 93
        0
 40
0.045
309
GRIDFORMAT_END
 95
        2
302
GRIDFORMAT
  1
GRIDFORMAT_BEGIN
 90
        0
 91
        1
 62
     0
 92
       -2
340
0
 93
        0
 40
0.045
309
GRIDFORMAT_END
 95
        4
302
GRIDFORMAT
  1
GRIDFORMAT_BEGIN
 90
        0
 91
        1
 62
     0
 92
       -2
340
0
 93
        0
 40
0.045
309
GRIDFORMAT_END
 95
        8
302
GRIDFORMAT
  1
GRIDFORMAT_BEGIN
 90
        0
 91
        1
 62
     0
 92
       -2
340
0
 93
        0
 40
0.045
309
GRIDFORMAT_END
 95
       16
302
GRIDFORMAT
  1
GRIDFORMAT_BEGIN
 90
        0
 91
        1
 62
     0
 92
       -2
340
0
 93
        0
 40
0.045
309
GRIDFORMAT_END
 95
       32
302
GRIDFORMAT
  1
GRIDFORMAT_BEGIN
 90
        0
 91
        1
 62
     0
 92
       -2
340
0
 93
        0
 40
0.045
309
GRIDFORMAT_END
309
TABLEFORMAT_END
  1
CELLSTYLE_BEGIN
 90
        1
 91
        1
300
_TITLE
309
CELLSTYLE_END
300
CELLSTYLE
  1
TABLEFORMAT_BEGIN
 90
        5
170
     1
 91
        0
 92
        0
 62
   257
 93
        1
300
CONTENTFORMAT
  1
CONTENTFORMAT_BEGIN
 90
        0
 91
        0
 92
      512
 93
        0
300

 40
0.0
140
1.0
 94
        5
 62
     0
340
11
144
0.18
309
CONTENTFORMAT_END
171
     1
301
MARGIN
  1
CELLMARGIN_BEGIN
 40
0.06
 40
0.06
 40
0.06
 40
0.06
 40
0.18
 40
0.18
309
CELLMARGIN_END
 94
        6
 95
        1
302
GRIDFORMAT
  1
GRIDFORMAT_BEGIN
 90
        0
 91
        1
 62
     0
 92
       -2
340
0
 93
        0
 40
0.045
309
GRIDFORMAT_END
 95
        2
302
GRIDFORMAT
  1
GRIDFORMAT_BEGIN
 90
        0
 91
        1
 62
     0
 92
       -2
340
0
 93
        0
 40
0.045
309
GRIDFORMAT_END
 95
        4
302
GRIDFORMAT
  1
GRIDFORMAT_BEGIN
 90
        0
 91
        1
 62
     0
 92
       -2
340
0
 93
        0
 40
0.045
309
GRIDFORMAT_END
 95
        8
302
GRIDFORMAT
  1
GRIDFORMAT_BEGIN
 90
        0
 91
        1
 62
     0
 92
       -2
340
0
 93
        0
 40
0.045
309
GRIDFORMAT_END
 95
       16
302
GRIDFORMAT
  1
GRIDFORMAT_BEGIN
 90
        0
 91
        1
 62
     0
 92
       -2
340
0
 93
        0
 40
0.045
309
GRIDFORMAT_END
 95
       32
302
GRIDFORMAT
  1
GRIDFORMAT_BEGIN
 90
        0
 91
        1
 62
     0
 92
       -2
340
0
 93
        0
 40
0.045
309
GRIDFORMAT_END
309
TABLEFORMAT_END
  1
CELLSTYLE_BEGIN
 90
        2
 91
        1
300
_HEADER
309
CELLSTYLE_END
300
CELLSTYLE
  1
TABLEFORMAT_BEGIN
 90
        5
170
     1
 91
        0
 92
        0
 62
   257
 93
        1
300
CONTENTFORMAT
  1
CONTENTFORMAT_BEGIN
 90
        0
 91
        0
 92
      512
 93
        0
300

 40
0.0
140
1.0
 94
        2
 62
     0
340
11
144
0.18
309
CONTENTFORMAT_END
171
     1
301
MARGIN
  1
CELLMARGIN_BEGIN
 40
0.06
 40
0.06
 40
0.06
 40
0.06
 40
0.18
 40
0.18
309
CELLMARGIN_END
 94
        6
 95
        1
302
GRIDFORMAT
  1
GRIDFORMAT_BEGIN
 90
        0
 91
        1
 62
     0
 92
       -2
340
0
 93
        0
 40
0.045
309
GRIDFORMAT_END
 95
        2
302
GRIDFORMAT
  1
GRIDFORMAT_BEGIN
 90
        0
 91
        1
 62
     0
 92
       -2
340
0
 93
        0
 40
0.045
309
GRIDFORMAT_END
 95
        4
302
GRIDFORMAT
  1
GRIDFORMAT_BEGIN
 90
        0
 91
        1
 62
     0
 92
       -2
340
0
 93
        0
 40
0.045
309
GRIDFORMAT_END
 95
        8
302
GRIDFORMAT
  1
GRIDFORMAT_BEGIN
 90
        0
 91
        1
 62
     0
 92
       -2
340
0
 93
        0
 40
0.045
309
GRIDFORMAT_END
 95
       16
302
GRIDFORMAT
  1
GRIDFORMAT_BEGIN
 90
        0
 91
        1
 62
     0
 92
       -2
340
0
 93
        0
 40
0.045
309
GRIDFORMAT_END
 95
       32
302
GRIDFORMAT
  1
GRIDFORMAT_BEGIN
 90
        0
 91
        1
 62
     0
 92
       -2
340
0
 93
        0
 40
0.045
309
GRIDFORMAT_END
309
TABLEFORMAT_END
  1
CELLSTYLE_BEGIN
 90
        3
 91
        2
300
_DATA
309
CELLSTYLE_END
  0
XRECORD
  5
275F3
102
{ACAD_REACTORS
330
275F2
102
}
330
275F2
100
AcDbXrecord
280
     1
102
RTVSPost2010Prop28
280
     0
102
RTVSPost2010PropOp28
 70
     1
102
RTVSPost2010Prop29
280
     1
102
RTVSPost2010PropOp29
 70
     1
102
RTVSPost2010Prop30
280
     1
102
RTVSPost2010PropOp30
 70
     1
102
RTVSPost2010Prop31
280
     0
102
RTVSPost2010PropOp31
 70
     1
102
RTVSPost2010Prop32
280
     0
102
RTVSPost2010PropOp32
 70
     1
102
RTVSPost2010Prop33
280
     0
102
RTVSPost2010PropOp33
 70
     1
102
RTVSPost2010Prop34
280
     0
102
RTVSPost2010PropOp34
 70
     1
102
RTVSPost2010Prop35
280
     0
102
RTVSPost2010PropOp35
 70
     1
102
RTVSPost2010Prop36
280
     0
102
RTVSPost2010PropOp36
 70
     1
102
RTVSPost2010Prop37
 90
       50
102
RTVSPost2010PropOp37
 70
     1
102
RTVSPost2010Prop38
140
0.0
102
RTVSPost2010PropOp38
 70
     1
102
RTVSPost2010Prop39
140
1.0
102
RTVSPost2010PropOp39
 70
     1
102
RTVSPost2010Prop40
 90
        0
102
RTVSPost2010PropOp40
 70
     1
102
RTVSPost2010Prop41ColorIndex
 90
       18
102
RTVSPost2010Prop41ColorRGB
 90
        0
102
RTVSPost2010PropOp41
 70
     1
102
RTVSPost2010Prop42
 90
       50
102
RTVSPost2010PropOp42
 70
     1
102
RTVSPost2010Prop43
 90
        3
102
RTVSPost2010PropOp43
 70
     1
102
RTVSPost2010Prop44ColorIndex
 90
        5
102
RTVSPost2010Prop44ColorRGB
 90
      255
102
RTVSPost2010PropOp44
 70
     1
102
RTVSPost2010Prop45
280
     0
102
RTVSPost2010PropOp45
 70
     1
102
RTVSPost2010Prop46
 90
       50
102
RTVSPost2010PropOp46
 70
     1
102
RTVSPost2010Prop47
 90
       50
102
RTVSPost2010PropOp47
 70
     1
102
RTVSPost2010Prop48
 90
       50
102
RTVSPost2010PropOp48
 70
     1
102
RTVSPost2010Prop49
280
     0
102
RTVSPost2010PropOp49
 70
     1
102
RTVSPost2010Prop50
 90
       50
102
RTVSPost2010PropOp50
 70
     1
102
RTVSPost2010Prop51ColorIndex
 90
      256
102
RTVSPost2010Prop51ColorRGB
 90
-16777216
102
RTVSPost2010PropOp51
 70
     0
102
RTVSPost2010Prop52
140
1.0
102
RTVSPost2010PropOp52
 70
     0
102
RTVSPost2010Prop53
 90
        2
102
RTVSPost2010PropOp53
 70
     1
102
RTVSPost2010Prop54
  1
strokes_ogs.tif
102
RTVSPost2010PropOp54
 70
     1
102
RTVSPost2010Prop55
280
     0
102
RTVSPost2010PropOp55
 70
     1
102
RTVSPost2010Prop56
140
1.0
102
RTVSPost2010PropOp56
 70
     1
102
RTVSPost2010Prop57
140
1.0
102
RTVSPost2010PropOp57
 70
     1
102
RTVSPropertyOp0
 70
     1
102
RTVSPropertyOp1
 70
     1
102
RTVSPropertyOp2
 70
     1
102
RTVSPropertyOp3
 70
     1
102
RTVSPropertyOp4
 70
     1
102
RTVSPropertyOp5
 70
     1
102
RTVSPropertyOp6
 70
     1
102
RTVSPropertyOp7
 70
     1
102
RTVSPropertyOp8
 70
     1
102
RTVSPropertyOp9
 70
     1
102
RTVSPropertyOp10
 70
     1
102
RTVSPropertyOp11
 70
     1
102
RTVSPropertyOp12
 70
     1
102
RTVSPropertyOp13
 70
     1
102
RTVSPropertyOp14
 70
     1
102
RTVSPropertyOp15
 70
     1
102
RTVSPropertyOp16
 70
     1
102
RTVSPropertyOp17
 70
     1
102
RTVSPropertyOp18
 70
     1
102
RTVSPropertyOp19
 70
     1
102
RTVSPropertyOp20
 70
     1
102
RTVSPropertyOp21
 70
     1
102
RTVSPropertyOp22
 70
     1
102
RTVSPropertyOp23
 70
     1
102
RTVSPropertyOp24
 70
     1
102
RTVSPropertyOp25
 70
     1
102
RTVSPropertyOp26
 70
     1
102
RTVSPropertyOp27
 70
     1
102
RTVSPropertyOp28
 70
     1
102
RTVSPropertyOp29
 70
     1
102
RTVSPropertyOp30
 70
     1
102
RTVSPropertyOp31
 70
     1
102
RTVSPropertyOp32
 70
     1
102
RTVSPropertyOp33
 70
     1
102
RTVSPropertyOp34
 70
     1
102
RTVSPropertyOp35
 70
     1
102
RTVSPropertyOp36
 70
     1
102
RTVSPropertyOp37
 70
     1
102
RTVSPropertyOp38
 70
     1
102
RTVSPropertyOp39
 70
     1
102
RTVSPropertyOp40
 70
     1
102
RTVSPropertyOp41
 70
     1
102
RTVSPropertyOp42
 70
     1
102
RTVSPropertyOp43
 70
     1
102
RTVSPropertyOp44
 70
     1
102
RTVSPropertyOp45
 70
     1
102
RTVSPropertyOp46
 70
     1
102
RTVSPropertyOp47
 70
     1
102
RTVSPropertyOp48
 70
     1
102
RTVSPropertyOp49
 70
     1
102
RTVSPropertyOp50
 70
     1
102
RTVSPropertyOp51
 70
     0
102
RTVSPropertyOp52
 70
     0
102
RTVSPropertyOp53
 70
     1
102
RTVSPropertyOp54
 70
     1
102
RTVSPropertyOp55
 70
     1
102
RTVSPropertyOp56
 70
     1
102
RTVSPropertyOp57
 70
     1
102
RTVSPropertyOp58
 70
     1
102
RTVSPropertyOp59
 70
     1
102
RTVSPropertyOp60
 70
     1
102
RTVSPropertyOp61
 70
     1
102
RTVSPropertyOp62
 70
     1
  0
ENDSEC
  0
EOF
