  0
SECTION
  2
HEADER
  9
$ACADVER
  1
AC1015
  9
$ACADMAINTVER
 70
    20
  9
$DWGCODEPAGE
  3
ANSI_936
  9
$INSBASE
 10
0.0
 20
0.0
 30
0.0
  9
$EXTMIN
 10
375.5562134814872
 20
184.529655967694
 30
-0.0015258207003583
  9
$EXTMAX
 10
672.6652799046124
 20
394.5792560126008
 30
0.0000000349246037
  9
$LIMMIN
 10
0.0
 20
0.0
  9
$LIMMAX
 10
12.0
 20
9.0
  9
$ORTHOMODE
 70
     0
  9
$REGENMODE
 70
     1
  9
$FILLMODE
 70
     1
  9
$QTEXTMODE
 70
     0
  9
$MIRRTEXT
 70
     1
  9
$LTSCALE
 40
1.0
  9
$ATTMODE
 70
     1
  9
$TEXTSIZE
 40
0.2
  9
$TRACEWID
 40
0.05
  9
$TEXTSTYLE
  7
Standard
  9
$CLAYER
  8
DIM
  9
$CELTYPE
  6
ByLayer
  9
$CECOLOR
 62
   256
  9
$CELTSCALE
 40
1.0
  9
$DISPSILH
 70
     0
  9
$DIMSCALE
 40
1.0
  9
$DIMASZ
 40
3.0
  9
$DIMEXO
 40
0.2
  9
$DIMDLI
 40
0.2
  9
$DIMRND
 40
0.0
  9
$DIMDLE
 40
0.0
  9
$DIMEXE
 40
1.199999999999999
  9
$DIMTP
 40
0.0
  9
$DIMTM
 40
0.0
  9
$DIMTXT
 40
3.5
  9
$DIMCEN
 40
0.0
  9
$DIMTSZ
 40
0.0
  9
$DIMTOL
 70
     0
  9
$DIMLIM
 70
     0
  9
$DIMTIH
 70
     0
  9
$DIMTOH
 70
     0
  9
$DIMSE1
 70
     0
  9
$DIMSE2
 70
     0
  9
$DIMTAD
 70
     1
  9
$DIMZIN
 70
     8
  9
$DIMBLK
  1

  9
$DIMASO
 70
     1
  9
$DIMSHO
 70
     1
  9
$DIMPOST
  1

  9
$DIMAPOST
  1

  9
$DIMALT
 70
     0
  9
$DIMALTD
 70
     2
  9
$DIMALTF
 40
25.4
  9
$DIMLFAC
 40
1.0
  9
$DIMTOFL
 70
     0
  9
$DIMTVP
 40
0.0
  9
$DIMTIX
 70
     0
  9
$DIMSOXD
 70
     0
  9
$DIMSAH
 70
     0
  9
$DIMBLK1
  1

  9
$DIMBLK2
  1

  9
$DIMSTYLE
  2
01
  9
$DIMCLRD
 70
     1
  9
$DIMCLRE
 70
     6
  9
$DIMCLRT
 70
     4
  9
$DIMTFAC
 40
1.0
  9
$DIMGAP
 40
0.8
  9
$DIMJUST
 70
     0
  9
$DIMSD1
 70
     0
  9
$DIMSD2
 70
     0
  9
$DIMTOLJ
 70
     1
  9
$DIMTZIN
 70
     0
  9
$DIMALTZ
 70
     0
  9
$DIMALTTZ
 70
     0
  9
$DIMUPT
 70
     0
  9
$DIMDEC
 70
     1
  9
$DIMTDEC
 70
     1
  9
$DIMALTU
 70
     2
  9
$DIMALTTD
 70
     2
  9
$DIMTXSTY
  7
Romans字体
  9
$DIMAUNIT
 70
     0
  9
$DIMADEC
 70
     2
  9
$DIMALTRND
 40
0.0
  9
$DIMAZIN
 70
     2
  9
$DIMDSEP
 70
    46
  9
$DIMATFIT
 70
     3
  9
$DIMFRAC
 70
     0
  9
$DIMLDRBLK
  1

  9
$DIMLUNIT
 70
     2
  9
$DIMLWD
 70
    -2
  9
$DIMLWE
 70
    -2
  9
$DIMTMOVE
 70
     0
  9
$LUNITS
 70
     2
  9
$LUPREC
 70
     4
  9
$SKETCHINC
 40
0.1
  9
$FILLETRAD
 40
0.5
  9
$AUNITS
 70
     0
  9
$AUPREC
 70
     0
  9
$MENU
  1
.
  9
$ELEVATION
 40
0.0
  9
$PELEVATION
 40
0.0
  9
$THICKNESS
 40
0.0
  9
$LIMCHECK
 70
     0
  9
$CHAMFERA
 40
0.5
  9
$CHAMFERB
 40
0.5
  9
$CHAMFERC
 40
1.0
  9
$CHAMFERD
 40
0.0
  9
$SKPOLY
 70
     0
  9
$TDCREATE
 40
2456524.383632987
  9
$TDUCREATE
 40
2456524.050299653
  9
$TDUPDATE
 40
2460316.723898704
  9
$TDUUPDATE
 40
2460316.390565370
  9
$TDINDWG
 40
0.9620948611
  9
$TDUSRTIMER
 40
0.9620765856
  9
$USRTIMER
 70
     1
  9
$ANGBASE
 50
0.0
  9
$ANGDIR
 70
     0
  9
$PDMODE
 70
     0
  9
$PDSIZE
 40
0.0
  9
$PLINEWID
 40
0.0
  9
$SPLFRAME
 70
     0
  9
$SPLINETYPE
 70
     6
  9
$SPLINESEGS
 70
     8
  9
$HANDSEED
  5
12AA6
  9
$SURFTAB1
 70
     6
  9
$SURFTAB2
 70
     6
  9
$SURFTYPE
 70
     6
  9
$SURFU
 70
     6
  9
$SURFV
 70
     6
  9
$UCSBASE
  2

  9
$UCSNAME
  2

  9
$UCSORG
 10
0.0
 20
0.0
 30
0.0
  9
$UCSXDIR
 10
1.0
 20
0.0
 30
0.0
  9
$UCSYDIR
 10
0.0
 20
1.0
 30
0.0
  9
$UCSORTHOREF
  2

  9
$UCSORTHOVIEW
 70
     0
  9
$UCSORGTOP
 10
0.0
 20
0.0
 30
0.0
  9
$UCSORGBOTTOM
 10
0.0
 20
0.0
 30
0.0
  9
$UCSORGLEFT
 10
0.0
 20
0.0
 30
0.0
  9
$UCSORGRIGHT
 10
0.0
 20
0.0
 30
0.0
  9
$UCSORGFRONT
 10
0.0
 20
0.0
 30
0.0
  9
$UCSORGBACK
 10
0.0
 20
0.0
 30
0.0
  9
$PUCSBASE
  2

  9
$PUCSNAME
  2

  9
$PUCSORG
 10
0.0
 20
0.0
 30
0.0
  9
$PUCSXDIR
 10
1.0
 20
0.0
 30
0.0
  9
$PUCSYDIR
 10
0.0
 20
1.0
 30
0.0
  9
$PUCSORTHOREF
  2

  9
$PUCSORTHOVIEW
 70
     0
  9
$PUCSORGTOP
 10
0.0
 20
0.0
 30
0.0
  9
$PUCSORGBOTTOM
 10
0.0
 20
0.0
 30
0.0
  9
$PUCSORGLEFT
 10
0.0
 20
0.0
 30
0.0
  9
$PUCSORGRIGHT
 10
0.0
 20
0.0
 30
0.0
  9
$PUCSORGFRONT
 10
0.0
 20
0.0
 30
0.0
  9
$PUCSORGBACK
 10
0.0
 20
0.0
 30
0.0
  9
$USERI1
 70
     0
  9
$USERI2
 70
     0
  9
$USERI3
 70
     0
  9
$USERI4
 70
     0
  9
$USERI5
 70
     0
  9
$USERR1
 40
0.0
  9
$USERR2
 40
0.0
  9
$USERR3
 40
0.0
  9
$USERR4
 40
0.0
  9
$USERR5
 40
0.0
  9
$WORLDVIEW
 70
     1
  9
$SHADEDGE
 70
     3
  9
$SHADEDIF
 70
    70
  9
$TILEMODE
 70
     1
  9
$MAXACTVP
 70
    64
  9
$PINSBASE
 10
0.0
 20
0.0
 30
0.0
  9
$PLIMCHECK
 70
     0
  9
$PEXTMIN
 10
1.000000000000000E+20
 20
1.000000000000000E+20
 30
1.000000000000000E+20
  9
$PEXTMAX
 10
-1.000000000000000E+20
 20
-1.000000000000000E+20
 30
-1.000000000000000E+20
  9
$PLIMMIN
 10
0.0
 20
0.0
  9
$PLIMMAX
 10
12.0
 20
9.0
  9
$UNITMODE
 70
     0
  9
$VISRETAIN
 70
     1
  9
$PLINEGEN
 70
     0
  9
$PSLTSCALE
 70
     1
  9
$TREEDEPTH
 70
  3020
  9
$CMLSTYLE
  2
Standard
  9
$CMLJUST
 70
     0
  9
$CMLSCALE
 40
1.0
  9
$PROXYGRAPHICS
 70
     1
  9
$MEASUREMENT
 70
     0
  9
$CELWEIGHT
370
    -1
  9
$ENDCAPS
280
     0
  9
$JOINSTYLE
280
     0
  9
$LWDISPLAY
290
     0
  9
$INSUNITS
 70
     4
  9
$HYPERLINKBASE
  1

  9
$STYLESHEET
  1
monochrome.ctb
  9
$XEDIT
290
     1
  9
$CEPSNTYPE
380
     0
  9
$PSTYLEMODE
290
     1
  9
$FINGERPRINTGUID
  2
{4A02065B-8BB3-4A96-9036-502DC906C165}
  9
$VERSIONGUID
  2
{C80E7E4E-6BB9-424D-9312-9EF3B8E9AED0}
  9
$EXTNAMES
290
     1
  9
$PSVPSCALE
 40
0.0
  9
$OLESTARTUP
290
     0
  0
ENDSEC
  0
SECTION
  2
CLASSES
  0
CLASS
  1
ACDBDICTIONARYWDFLT
  2
AcDbDictionaryWithDefault
  3
ObjectDBX Classes
 90
        0
280
     0
281
     0
  0
CLASS
  1
VISUALSTYLE
  2
AcDbVisualStyle
  3
ObjectDBX Classes
 90
     4095
280
     0
281
     0
  0
CLASS
  1
MATERIAL
  2
AcDbMaterial
  3
ObjectDBX Classes
 90
     1153
280
     0
281
     0
  0
CLASS
  1
TABLESTYLE
  2
AcDbTableStyle
  3
ObjectDBX Classes
 90
     4095
280
     0
281
     0
  0
CLASS
  1
SCALE
  2
AcDbScale
  3
ObjectDBX Classes
 90
     1153
280
     0
281
     0
  0
CLASS
  1
MLEADERSTYLE
  2
AcDbMLeaderStyle
  3
ACDB_MLEADERSTYLE_CLASS
 90
     4095
280
     0
281
     0
  0
CLASS
  1
CELLSTYLEMAP
  2
AcDbCellStyleMap
  3
ObjectDBX Classes
 90
     1152
280
     0
281
     0
  0
CLASS
  1
DICTIONARYVAR
  2
AcDbDictionaryVar
  3
ObjectDBX Classes
 90
        0
280
     0
281
     0
  0
CLASS
  1
SORTENTSTABLE
  2
AcDbSortentsTable
  3
ObjectDBX Classes
 90
        0
280
     0
281
     0
  0
CLASS
  1
ACAD_EVALUATION_GRAPH
  2
AcDbEvalGraph
  3
ObjectDBX Classes
 90
     1153
280
     0
281
     0
  0
CLASS
  1
ACAECUSTOBJ
  2
AcAeEditorObj
  3
AcAeEditorObj
 90
     1024
280
     0
281
     0
  0
CLASS
  1
ACDB_DYNAMICBLOCKPURGEPREVENTER_VERSION
  2
AcDbDynamicBlockPurgePreventer
  3
ObjectDBX Classes
 90
     1153
280
     0
281
     0
  0
CLASS
  1
MENTALRAYRENDERSETTINGS
  2
AcDbMentalRayRenderSettings
  3
SCENEOE
 90
     1024
280
     0
281
     0
  0
CLASS
  1
ACDB_BLOCKREPRESENTATION_DATA
  2
AcDbBlockRepresentationData
  3
ObjectDBX Classes
 90
    33921
280
     0
281
     0
  0
CLASS
  1
ACDBPLACEHOLDER
  2
AcDbPlaceHolder
  3
ObjectDBX Classes
 90
        0
280
     0
281
     0
  0
CLASS
  1
LAYOUT
  2
AcDbLayout
  3
ObjectDBX Classes
 90
        0
280
     0
281
     0
  0
ENDSEC
  0
SECTION
  2
TABLES
  0
TABLE
  2
VPORT
  5
8
102
{ACAD_XDICTIONARY
360
50EE
102
}
330
0
100
AcDbSymbolTable
 70
     1
  0
VPORT
  5
29
330
8
100
AcDbSymbolTableRecord
100
AcDbViewportTableRecord
  2
*Active
 70
     0
 10
0.0
 20
0.0
 11
1.0
 21
1.0
 12
365.2978371206544
 22
161.0260939293018
 13
0.0
 23
0.0
 14
0.5
 24
0.5
 15
0.5
 25
0.5
 16
0.0
 26
0.0
 36
1.0
 17
104.9654968719086
 27
148.5022307685978
 37
0.0
 40
375.0770594498022
 41
2.087847730600292
 42
50.0
 43
0.0
 44
0.0
 50
0.0
 51
0.0
 71
     0
 72
   100
 73
     1
 74
     3
 75
     0
 76
     0
 77
     0
 78
     0
281
     0
 65
     1
110
0.0
120
0.0
130
0.0
111
1.0
121
0.0
131
0.0
112
0.0
122
1.0
132
0.0
 79
     0
146
0.0
  0
ENDTAB
  0
TABLE
  2
LTYPE
  5
5
330
0
100
AcDbSymbolTable
 70
     1
  0
LTYPE
  5
14
330
5
100
AcDbSymbolTableRecord
100
AcDbLinetypeTableRecord
  2
ByBlock
 70
     0
  3

 72
    65
 73
     0
 40
0.0
  0
LTYPE
  5
15
330
5
100
AcDbSymbolTableRecord
100
AcDbLinetypeTableRecord
  2
ByLayer
 70
     0
  3

 72
    65
 73
     0
 40
0.0
  0
LTYPE
  5
16
330
5
100
AcDbSymbolTableRecord
100
AcDbLinetypeTableRecord
  2
Continuous
 70
     0
  3
Solid line
 72
    65
 73
     0
 40
0.0
  0
ENDTAB
  0
TABLE
  2
LAYER
  5
2
102
{ACAD_XDICTIONARY
360
50B8
102
}
330
0
100
AcDbSymbolTable
 70
     6
  0
LAYER
  5
10
102
{ACAD_XDICTIONARY
360
50D0
102
}
330
2
100
AcDbSymbolTableRecord
100
AcDbLayerTableRecord
  2
0
 70
     0
 62
     7
  6
Continuous
370
    30
390
F
  0
LAYER
  5
3B
102
{ACAD_XDICTIONARY
360
50D2
102
}
330
2
100
AcDbSymbolTableRecord
100
AcDbLayerTableRecord
  2
图层 1
 70
     0
 62
     7
  6
Continuous
370
    -3
390
F
  0
LAYER
  5
50AE
102
{ACAD_XDICTIONARY
360
50AF
102
}
330
2
100
AcDbSymbolTableRecord
100
AcDbLayerTableRecord
  2
图框
 70
     0
 62
     7
  6
Continuous
370
    20
390
F
  0
LAYER
  5
5141
330
2
100
AcDbSymbolTableRecord
100
AcDbLayerTableRecord
  2
Defpoints
 70
     0
 62
     7
  6
Continuous
290
     0
370
    -3
390
F
  0
LAYER
  5
5144
330
2
100
AcDbSymbolTableRecord
100
AcDbLayerTableRecord
  2
DIM
 70
     0
 62
     3
  6
Continuous
370
    15
390
F
1001
AcAecLayerStandard
1000

1000

  0
LAYER
  5
52F3
330
2
100
AcDbSymbolTableRecord
100
AcDbLayerTableRecord
  2
打标文字
 70
     0
 62
     3
  6
Continuous
370
    20
390
F
  0
ENDTAB
  0
TABLE
  2
STYLE
  5
3
330
0
100
AcDbSymbolTable
 70
     6
  0
STYLE
  5
11
330
3
100
AcDbSymbolTableRecord
100
AcDbTextStyleTableRecord
  2
Standard
 70
     0
 40
0.0
 41
0.75
 50
0.0
 71
     0
 42
0.2
  3

  4

1001
ACAD
1000
仿宋_GB2312
1071
    34353
  0
STYLE
  5
FD48
330
3
100
AcDbSymbolTableRecord
100
AcDbTextStyleTableRecord
  2
Romans字体
 70
     0
 40
0.0
 41
0.75
 50
0.0
 71
     0
 42
0.2
  3
romans.shx
  4

  0
STYLE
  5
11080
330
3
100
AcDbSymbolTableRecord
100
AcDbTextStyleTableRecord
  2
工程字
 70
     0
 40
0.0
 41
1.0
 50
0.0
 71
     0
 42
3.5
  3
gbenor.shx
  4
gbcbig.shx
  0
STYLE
  5
11081
330
3
100
AcDbSymbolTableRecord
100
AcDbTextStyleTableRecord
  2
Chinese
 70
     0
 40
0.0
 41
1.0
 50
0.0
 71
     0
 42
2.5
  3
PMingLiU.ttf
  4

1001
ACAD
1000
PMingLiU
1071
    34834
  0
STYLE
  5
11C02
330
3
100
AcDbSymbolTableRecord
100
AcDbTextStyleTableRecord
  2
打标文字
 70
     0
 40
2.0
 41
0.8
 50
0.0
 71
     0
 42
1.199999999999999
  3
romans.shx
  4

  0
ENDTAB
  0
TABLE
  2
VIEW
  5
6
330
0
100
AcDbSymbolTable
 70
     0
  0
ENDTAB
  0
TABLE
  2
UCS
  5
7
330
0
100
AcDbSymbolTable
 70
     0
  0
ENDTAB
  0
TABLE
  2
APPID
  5
9
330
0
100
AcDbSymbolTable
 70
    17
  0
APPID
  5
12
330
9
100
AcDbSymbolTableRecord
100
AcDbRegAppTableRecord
  2
ACAD
 70
     0
  0
APPID
  5
5024
330
9
100
AcDbSymbolTableRecord
100
AcDbRegAppTableRecord
  2
ACAD_MLEADERVER
 70
     0
  0
APPID
  5
50B5
330
9
100
AcDbSymbolTableRecord
100
AcDbRegAppTableRecord
  2
AcDbDynamicBlockGUID
 70
     0
  0
APPID
  5
50B6
330
9
100
AcDbSymbolTableRecord
100
AcDbRegAppTableRecord
  2
AcDbBlockRepETag
 70
     0
  0
APPID
  5
50B7
330
9
100
AcDbSymbolTableRecord
100
AcDbRegAppTableRecord
  2
ACAD_PSEXT
 70
     0
  0
APPID
  5
50CF
330
9
100
AcDbSymbolTableRecord
100
AcDbRegAppTableRecord
  2
AcadAnnoPO
 70
     0
  0
APPID
  5
5146
330
9
100
AcDbSymbolTableRecord
100
AcDbRegAppTableRecord
  2
AcAecLayerStandard
 70
     0
  0
APPID
  5
5147
330
9
100
AcDbSymbolTableRecord
100
AcDbRegAppTableRecord
  2
ACAD_DSTYLE_DIMJAG
 70
     0
  0
APPID
  5
5148
330
9
100
AcDbSymbolTableRecord
100
AcDbRegAppTableRecord
  2
ACAD_DSTYLE_DIMTALN
 70
     0
  0
APPID
  5
52AD
330
9
100
AcDbSymbolTableRecord
100
AcDbRegAppTableRecord
  2
ACAUTHENVIRON
 70
     0
  0
APPID
  5
52B0
330
9
100
AcDbSymbolTableRecord
100
AcDbRegAppTableRecord
  2
AcDbDynamicBlockTrueName
 70
     0
  0
APPID
  5
67C6
330
9
100
AcDbSymbolTableRecord
100
AcDbRegAppTableRecord
  2
ACAD_EXEMPT_FROM_CAD_STANDARDS
 70
     0
  0
APPID
  5
6838
330
9
100
AcDbSymbolTableRecord
100
AcDbRegAppTableRecord
  2
ACAD_NAV_VCDISPLAY
 70
     0
  0
APPID
  5
70A9
330
9
100
AcDbSymbolTableRecord
100
AcDbRegAppTableRecord
  2
DCO15
 70
     0
  0
APPID
  5
8725
330
9
100
AcDbSymbolTableRecord
100
AcDbRegAppTableRecord
  2
AcDbBlockRepBTag
 70
     0
  0
APPID
  5
FE64
330
9
100
AcDbSymbolTableRecord
100
AcDbRegAppTableRecord
  2
ACAD_DSTYLE_DIMRADIAL_EXTENSION
 70
     0
  0
APPID
  5
FF93
330
9
100
AcDbSymbolTableRecord
100
AcDbRegAppTableRecord
  2
ACAD_DSTYLE_DIMBREAK
 70
     0
  0
ENDTAB
  0
TABLE
  2
DIMSTYLE
  5
A
330
0
100
AcDbSymbolTable
 70
     3
100
AcDbDimStyleTable
 71
     2
340
5145
340
27
  0
DIMSTYLE
105
27
330
A
100
AcDbSymbolTableRecord
100
AcDbDimStyleTableRecord
  2
Standard
 70
     0
340
11
  0
DIMSTYLE
105
5145
102
{ACAD_REACTORS
330
126B6
330
126B4
330
126B5
102
}
330
A
100
AcDbSymbolTableRecord
100
AcDbDimStyleTableRecord
  2
01
 70
     0
 41
3.0
 42
0.2
 43
0.2
 44
1.199999999999999
 73
     0
 74
     0
 77
     1
 78
     8
 79
     2
140
3.5
141
0.0
147
0.8
176
     1
177
     6
178
     4
179
     2
271
     1
272
     1
340
FD48
1001
ACAD_DSTYLE_DIMJAG
1070
   388
1040
1.5
1001
ACAD_DSTYLE_DIMTALN
1070
   392
1070
     0
  0
ENDTAB
  0
TABLE
  2
BLOCK_RECORD
  5
1
330
0
100
AcDbSymbolTable
 70
     7
  0
BLOCK_RECORD
  5
1F
102
{ACAD_XDICTIONARY
360
67C0
102
}
330
1
100
AcDbSymbolTableRecord
100
AcDbBlockTableRecord
  2
*Model_Space
340
22
  0
BLOCK_RECORD
  5
1B
330
1
100
AcDbSymbolTableRecord
100
AcDbBlockTableRecord
  2
*Paper_Space
340
1E
  0
BLOCK_RECORD
  5
23
330
1
100
AcDbSymbolTableRecord
100
AcDbBlockTableRecord
  2
*Paper_Space0
340
26
  0
BLOCK_RECORD
  5
10FE8
102
{ACAD_XDICTIONARY
360
12A4F
102
}
330
1
100
AcDbSymbolTableRecord
100
AcDbBlockTableRecord
  2
A4图框-NEW
340
0
310
2800000020000000200000000100080000000000000400000000000000000000000000000000000000000000000080000080000000808000800000008000800080800000C0C0C000C0DCC000F0CAA6000020400000206000002080000020A0000020C0000020E00000400000004020000040400000406000004080000040A0
310
000040C0000040E00000600000006020000060400000606000006080000060A0000060C0000060E00000800000008020000080400000806000008080000080A0000080C0000080E00000A0000000A0200000A0400000A0600000A0800000A0A00000A0C00000A0E00000C0000000C0200000C0400000C0600000C0800000C0
310
A00000C0C00000C0E00000E0000000E0200000E0400000E0600000E0800000E0A00000E0C00000E0E00040000000400020004000400040006000400080004000A0004000C0004000E00040200000402020004020400040206000402080004020A0004020C0004020E000404000004040200040404000404060004040800040
310
40A0004040C0004040E00040600000406020004060400040606000406080004060A0004060C0004060E00040800000408020004080400040806000408080004080A0004080C0004080E00040A0000040A0200040A0400040A0600040A0800040A0A00040A0C00040A0E00040C0000040C0200040C0400040C0600040C08000
310
40C0A00040C0C00040C0E00040E0000040E0200040E0400040E0600040E0800040E0A00040E0C00040E0E00080000000800020008000400080006000800080008000A0008000C0008000E00080200000802020008020400080206000802080008020A0008020C0008020E00080400000804020008040400080406000804080
310
008040A0008040C0008040E00080600000806020008060400080606000806080008060A0008060C0008060E00080800000808020008080400080806000808080008080A0008080C0008080E00080A0000080A0200080A0400080A0600080A0800080A0A00080A0C00080A0E00080C0000080C0200080C0400080C0600080C0
310
800080C0A00080C0C00080C0E00080E0000080E0200080E0400080E0600080E0800080E0A00080E0C00080E0E000C0000000C0002000C0004000C0006000C0008000C000A000C000C000C000E000C0200000C0202000C0204000C0206000C0208000C020A000C020C000C020E000C0400000C0402000C0404000C0406000C0
310
408000C040A000C040C000C040E000C0600000C0602000C0604000C0606000C0608000C060A000C060C000C060E000C0800000C0802000C0804000C0806000C0808000C080A000C080C000C080E000C0A00000C0A02000C0A04000C0A06000C0A08000C0A0A000C0A0C000C0A0E000C0C00000C0C02000C0C04000C0C06000
310
C0C08000C0C0A000F0FBFF00A4A0A000808080000000FF0000FF000000FFFF00FF000000FF00FF00FFFF0000FFFFFF0000000000000000000000000000000000000000000000000000000000000000000000000000000000000000000000000000000000000000000000000000000000000000000000000000000000000000
310
000000000000000000000000000000000000000000000000000000000000000000000000000000000000000000000000000000000000000000000000000000000000000000000000000000000000000000000000000000000000000000000000000000000000000000000000000000000000F9F9F9F9F9F9F9F9F9F9F9F9F9
310
F9F9F9F9F9F9F9F9F9F9F9F9F9F9FF00000000F9FF000000000000000000FFFFFFFFFFFFFFFFFFFFFFFFF9FAFAFAFF00000000F9FF000000000000000000FFFFFFFFFFFFFFFFFFFFFFFFFFFFFFFFFF00000000F9FD000000000000000000FFFFFFFFFFFFFFFFFFFFFFFFFFFFFFFFFF00000000F9FF000000000000000000FF
310
FFFFFFFFFFFFFFFFFFFFFFFFFFFFFFFF00000000F9FD000000000000000000FFFFFFFFFFFFFFFFFFFFFFFFFFFFFFFFFF00000000F9FF00000000000000000000000000000000000000000000000000FF00000000F9FD00000000000000000000000000000000000000000000000000FF00000000F9FF000000000000000000
310
00000000000000000000000000000000FF00000000F9FD00000000000000000000000000000000000000000000000000FF00000000F9FF00000000000000000000000000000000000000000000000000FF00000000F9FD00000000000000000000000000000000000000000000000000FF00000000F9FD0000000000000000
310
0000000000000000000000000000000000FF00000000F9FF00000000000000000000000000000000000000000000000000FF00000000F9FD00000000000000000000000000000000000000000000000000FF00000000F9FF00000000000000000000000000000000000000000000000000FF00000000F9FD00000000000000
310
000000000000000000000000000000000000FF00000000F9FF00000000000000000000000000000000000000000000000000FF00000000F9FFFFFFFFFFFFFFFFFFFFFFFFFFFFFFFFFFFFFFFFFFFFFFFFFFFFFF00000000F9FFFFFFF9F9F9F9F9F9F9F9F9F9F9F9F9F9F9F9F9F9F9F9F9F9F9F9000000000000000000000000
310
00000000000000000000000000000000000000000000000000000000000000000000000000000000000000000000000000000000000000000000000000000000000000000000000000000000000000000000000000000000000000000000000000000000000000000000000000000000000000000000000000000000000000
310
0000000000000000000000000000000000000000000000000000000000000000000000000000000000000000000000000000000000000000
102
{BLKREFS
331
11089
102
}
1001
AcDbDynamicBlockGUID
1000
{9CC661F1-ED1E-4561-8240-FA18CFE25329}
1001
AcDbBlockRepETag
1070
     1
1071
      148
1001
ACAD
1000
DesignCenter Data
1002
{
1070
     1
1070
     4
1002
}
  0
BLOCK_RECORD
  5
126B7
330
1
100
AcDbSymbolTableRecord
100
AcDbBlockTableRecord
  2
*D2
340
0
  0
BLOCK_RECORD
  5
126C4
330
1
100
AcDbSymbolTableRecord
100
AcDbBlockTableRecord
  2
*D3
340
0
  0
BLOCK_RECORD
  5
126D1
330
1
100
AcDbSymbolTableRecord
100
AcDbBlockTableRecord
  2
*D4
340
0
  0
ENDTAB
  0
ENDSEC
  0
SECTION
  2
BLOCKS
  0
BLOCK
  5
20
330
1F
100
AcDbEntity
  8
0
100
AcDbBlockBegin
  2
*Model_Space
 70
     0
 10
0.0
 20
0.0
 30
0.0
  3
*Model_Space
  1

  0
ENDBLK
  5
21
330
1F
100
AcDbEntity
  8
0
100
AcDbBlockEnd
  0
BLOCK
  5
1C
330
1B
100
AcDbEntity
 67
     1
  8
0
100
AcDbBlockBegin
  2
*Paper_Space
 70
     0
 10
0.0
 20
0.0
 30
0.0
  3
*Paper_Space
  1

  0
ENDBLK
  5
1D
330
1B
100
AcDbEntity
 67
     1
  8
0
100
AcDbBlockEnd
  0
BLOCK
  5
24
330
23
100
AcDbEntity
 67
     1
  8
0
100
AcDbBlockBegin
  2
*Paper_Space0
 70
     0
 10
0.0
 20
0.0
 30
0.0
  3
*Paper_Space0
  1

  0
ENDBLK
  5
25
330
23
100
AcDbEntity
 67
     1
  8
0
100
AcDbBlockEnd
  0
BLOCK
  5
10FEA
330
10FE8
100
AcDbEntity
  8
0
100
AcDbBlockBegin
  2
A4图框-NEW
 70
     0
 10
0.0
 20
0.0
 30
0.0
  3
A4图框-NEW
  1

  0
MTEXT
  5
129BB
102
{ACAD_XDICTIONARY
360
12A60
102
}
330
10FE8
100
AcDbEntity
  8
图框
 62
     3
100
AcDbMText
 10
967.6594956750133
 20
499.7664151964293
 30
0.0
 40
2.985513575034151
 41
15.50176341157864
 71
     5
 72
     5
  1
BQ LUO
  7
Romans字体
 73
     1
 44
1.0
1001
AcDbBlockRepETag
1070
     1
1071
        0
1005
129BB
1001
ACAD
1000
MTEXTBEGIN
1070
    73
1070
     1
1070
    44
1040
1.0
1070
    74
1070
     0
1000
MTEXTEND
1000
ACAD_MTEXT_DEFINED_HEIGHT_BEGIN
1070
    46
1040
6.292658374511018
1000
ACAD_MTEXT_DEFINED_HEIGHT_END
  0
MTEXT
  5
129BC
330
10FE8
100
AcDbEntity
  8
图框
 62
     3
100
AcDbMText
 10
983.041569333247
 20
499.7664151964293
 30
0.0
 40
2.487927979195124
 41
15.26238390489051
 71
     5
 72
     5
  1
{\W0.7;18.10.2010}
  7
Romans字体
 73
     1
 44
1.0
1001
AcDbBlockRepETag
1070
     1
1071
        1
1005
129BC
1001
ACAD
1000
MTEXTBEGIN
1070
    73
1070
     1
1070
    44
1040
1.0
1070
    74
1070
     0
1000
MTEXTEND
1000
ACAD_MTEXT_DEFINED_HEIGHT_BEGIN
1070
    46
1040
6.292658374511042
1000
ACAD_MTEXT_DEFINED_HEIGHT_END
  0
MTEXT
  5
129BD
330
10FE8
100
AcDbEntity
  8
图框
 62
     3
100
AcDbMText
 10
1012.477254728976
 20
487.1810984474071
 30
0.0
 40
2.985513575034151
 41
17.64876416884615
 71
     5
 72
     5
  1
YY LIN
  7
Romans字体
 73
     1
 44
1.0
1001
AcDbBlockRepETag
1070
     1
1071
        2
1005
129BD
1001
ACAD
1000
MTEXTBEGIN
1070
    73
1070
     1
1070
    44
1040
1.0
1070
    74
1070
     0
1000
MTEXTEND
1000
ACAD_MTEXT_DEFINED_HEIGHT_BEGIN
1070
    46
1040
6.292658374511455
1000
ACAD_MTEXT_DEFINED_HEIGHT_END
  0
MTEXT
  5
129BE
330
10FE8
100
AcDbEntity
  8
图框
 62
     3
100
AcDbMText
 10
1028.977802139886
 20
487.1810984474071
 30
0.0
 40
2.487927979195124
 41
15.35233065297276
 71
     5
 72
     5
  1
{\W0.7;18.10.2010}
  7
Romans字体
 73
     1
 44
1.0
1001
AcDbBlockRepETag
1070
     1
1071
        3
1005
129BE
1001
ACAD
1000
MTEXTBEGIN
1070
    73
1070
     1
1070
    44
1040
1.0
1070
    74
1070
     0
1000
MTEXTEND
1000
ACAD_MTEXT_DEFINED_HEIGHT_BEGIN
1070
    46
1040
6.292658374511495
1000
ACAD_MTEXT_DEFINED_HEIGHT_END
  0
MTEXT
  5
129BF
330
10FE8
100
AcDbEntity
  8
图框
 62
     3
100
AcDbMText
 10
1063.722665487208
 20
525.4145966538831
 30
0.0
 40
2.985513575034151
 41
32.4973914334545
 71
     5
 72
     5
  1
-
  7
Romans字体
 73
     1
 44
1.0
1001
AcDbBlockRepETag
1070
     1
1071
        4
1005
129BF
1001
ACAD
1000
MTEXTBEGIN
1070
    73
1070
     1
1070
    44
1040
1.0
1070
    74
1070
     0
1000
MTEXTEND
1000
ACAD_MTEXT_DEFINED_HEIGHT_BEGIN
1070
    46
1040
11.82914190181707
1000
ACAD_MTEXT_DEFINED_HEIGHT_END
  0
MTEXT
  5
129C0
330
10FE8
100
AcDbEntity
  8
图框
 62
     3
100
AcDbMText
 10
1063.727338552349
 20
513.5854547520641
 30
0.0
 40
2.985513575034151
 41
32.48804530317308
 71
     5
 72
     5
  1
-
  7
Romans字体
 73
     1
 44
1.0
1001
AcDbBlockRepETag
1070
     1
1071
        5
1005
129C0
1001
ACAD
1000
MTEXTBEGIN
1070
    73
1070
     1
1070
    44
1040
1.0
1070
    74
1070
     0
1000
MTEXTEND
1000
ACAD_MTEXT_DEFINED_HEIGHT_BEGIN
1070
    46
1040
11.82914190182139
1000
ACAD_MTEXT_DEFINED_HEIGHT_END
  0
MTEXT
  5
129C1
330
10FE8
100
AcDbEntity
  8
图框
 62
     3
100
AcDbMText
 10
1110.122306614152
 20
526.8006839312707
 30
0.0
 40
2.985513575034151
 41
33.61239199242139
 71
     5
 72
     5
  1
-
  7
Romans字体
 73
     1
 44
1.0
1001
AcDbBlockRepETag
1070
     1
1071
        6
1005
129C1
1001
ACAD
1000
MTEXTBEGIN
1070
    73
1070
     1
1070
    44
1040
1.0
1070
    74
1070
     0
1000
MTEXTEND
1000
ACAD_MTEXT_DEFINED_HEIGHT_BEGIN
1070
    46
1040
9.05696734704178
1000
ACAD_MTEXT_DEFINED_HEIGHT_END
  0
MTEXT
  5
129C2
330
10FE8
100
AcDbEntity
  8
图框
 62
     3
100
AcDbMText
 10
1110.122306614152
 20
500.2775205517162
 30
0.0
 40
2.985513575034151
 41
33.61239199242139
 71
     5
 72
     5
  1
-
  7
Romans字体
 73
     1
 44
1.0
1001
AcDbBlockRepETag
1070
     1
1071
        7
1005
129C2
1001
ACAD
1000
MTEXTBEGIN
1070
    73
1070
     1
1070
    44
1040
1.0
1070
    74
1070
     0
1000
MTEXTEND
1000
ACAD_MTEXT_DEFINED_HEIGHT_BEGIN
1070
    46
1040
8.871557304763419
1000
ACAD_MTEXT_DEFINED_HEIGHT_END
  0
MTEXT
  5
129C3
330
10FE8
100
AcDbEntity
  8
图框
 62
     3
100
AcDbMText
 10
967.6594956750133
 20
493.4737568219182
 30
0.0
 40
2.985513575034151
 41
15.50176341157864
 71
     5
 72
     5
  1
P RAO
  7
Romans字体
 73
     1
 44
1.0
1001
AcDbBlockRepETag
1070
     1
1071
        8
1005
129C3
1001
ACAD
1000
MTEXTBEGIN
1070
    73
1070
     1
1070
    44
1040
1.0
1070
    74
1070
     0
1000
MTEXTEND
1000
ACAD_MTEXT_DEFINED_HEIGHT_BEGIN
1070
    46
1040
6.292658374510335
1000
ACAD_MTEXT_DEFINED_HEIGHT_END
  0
MTEXT
  5
129C4
330
10FE8
100
AcDbEntity
  8
图框
 62
     3
100
AcDbMText
 10
983.041569333247
 20
493.2441970450405
 30
0.0
 40
2.487927979195124
 41
15.26238390489051
 71
     5
 72
     5
  1
{\W0.7;18.10.2010}
  7
Romans字体
 73
     1
 44
1.0
1001
AcDbBlockRepETag
1070
     1
1071
        9
1005
129C4
1001
ACAD
1000
MTEXTBEGIN
1070
    73
1070
     1
1070
    44
1040
1.0
1070
    74
1070
     0
1000
MTEXTEND
1000
ACAD_MTEXT_DEFINED_HEIGHT_BEGIN
1070
    46
1040
6.751777928266487
1000
ACAD_MTEXT_DEFINED_HEIGHT_END
  0
MTEXT
  5
129C5
330
10FE8
100
AcDbEntity
  8
图框
 62
     3
100
AcDbMText
 10
1012.477254728976
 20
499.7664151964291
 30
0.0
 40
2.985513575034151
 41
17.64876416884615
 71
     5
 72
     5
  1
-
  7
Romans字体
 73
     1
 44
1.0
1001
AcDbBlockRepETag
1070
     1
1071
       10
1005
129C5
1001
ACAD
1000
MTEXTBEGIN
1070
    73
1070
     1
1070
    44
1040
1.0
1070
    74
1070
     0
1000
MTEXTEND
1000
ACAD_MTEXT_DEFINED_HEIGHT_BEGIN
1070
    46
1040
6.292658374511397
1000
ACAD_MTEXT_DEFINED_HEIGHT_END
  0
MTEXT
  5
129C6
330
10FE8
100
AcDbEntity
  8
图框
 62
     3
100
AcDbMText
 10
1028.977802139886
 20
499.7664151964289
 30
0.0
 40
2.487927979195124
 41
15.35233065297265
 71
     5
 72
     5
  1
-
  7
Romans字体
 73
     1
 44
1.0
1001
AcDbBlockRepETag
1070
     1
1071
       11
1005
129C6
1001
ACAD
1000
MTEXTBEGIN
1070
    73
1070
     1
1070
    44
1040
1.0
1070
    74
1070
     0
1000
MTEXTEND
1000
ACAD_MTEXT_DEFINED_HEIGHT_BEGIN
1070
    46
1040
6.292658374511382
1000
ACAD_MTEXT_DEFINED_HEIGHT_END
  0
MTEXT
  5
129C7
330
10FE8
100
AcDbEntity
  8
图框
 62
     3
100
AcDbMText
 10
967.6594956750133
 20
487.1810984474071
 30
0.0
 40
2.985513575034151
 41
15.50176341157863
 71
     5
 72
     5
  1
-
  7
Romans字体
 73
     1
 44
1.0
1001
AcDbBlockRepETag
1070
     1
1071
       12
1005
129C7
1001
ACAD
1000
MTEXTBEGIN
1070
    73
1070
     1
1070
    44
1040
1.0
1070
    74
1070
     0
1000
MTEXTEND
1000
ACAD_MTEXT_DEFINED_HEIGHT_BEGIN
1070
    46
1040
6.292658374511478
1000
ACAD_MTEXT_DEFINED_HEIGHT_END
  0
MTEXT
  5
129C8
330
10FE8
100
AcDbEntity
  8
图框
 62
     3
100
AcDbMText
 10
983.041569333247
 20
487.1810984474071
 30
0.0
 40
2.487927979195124
 41
15.26238390489062
 71
     5
 72
     5
  1
-
  7
Romans字体
 73
     1
 44
1.0
1001
AcDbBlockRepETag
1070
     1
1071
       13
1005
129C8
1001
ACAD
1000
MTEXTBEGIN
1070
    73
1070
     1
1070
    44
1040
1.0
1070
    74
1070
     0
1000
MTEXTEND
1000
ACAD_MTEXT_DEFINED_HEIGHT_BEGIN
1070
    46
1040
6.292658374511495
1000
ACAD_MTEXT_DEFINED_HEIGHT_END
  0
MTEXT
  5
129C9
330
10FE8
100
AcDbEntity
  8
图框
 62
     3
100
AcDbMText
 10
1074.556686986741
 20
495.8417418993361
 30
0.0
 40
2.985513575034151
 41
10.82934843438978
 71
     5
 72
     5
  1
-
  7
Romans字体
 73
     1
 44
1.0
1001
AcDbBlockRepETag
1070
     1
1071
       14
1005
129C9
1001
ACAD
1000
MTEXTBEGIN
1070
    73
1070
     1
1070
    44
1040
1.0
1070
    74
1070
     0
1000
MTEXTEND
1000
ACAD_MTEXT_DEFINED_HEIGHT_BEGIN
1070
    46
1040
7.886094601210427
1000
ACAD_MTEXT_DEFINED_HEIGHT_END
  0
LINE
  5
129CA
330
10FE8
100
AcDbEntity
  8
图框
370
    -3
100
AcDbLine
 10
1036.653967466372
 20
499.7847891999413
 30
0.0
 11
1079.971361203936
 21
499.7847891999413
 31
0.0
1001
AcDbBlockRepETag
1070
     1
1071
       15
1005
129CA
  0
MTEXT
  5
129CB
330
10FE8
100
AcDbEntity
  8
图框
 62
     1
370
    20
100
AcDbMText
 10
1108.26336443907
 20
491.5162596080882
 30
0.0
 40
2.699054613030988
 41
82.30831305643079
 71
     5
 72
     5
  1
{\fSimHei|b0|i0|c134|p2;厦门唯恩电气有限公司}
 73
     1
 44
1.0
1001
AcDbBlockRepETag
1070
     1
1071
       16
1005
129CB
1001
ACAD
1000
MTEXTBEGIN
1070
    73
1070
     1
1070
    44
1040
1.0
1070
    74
1070
     0
1000
MTEXTEND
  0
MTEXT
  5
129CC
330
10FE8
100
AcDbEntity
  8
图框
 62
     3
370
    20
100
AcDbMText
 10
1108.435451459908
 20
487.298967726064
 30
0.0
 40
1.652482416141417
 41
68.08558693693567
 71
     5
 72
     5
  1
{\fArial Narrow|b0|i0|c0|p34;XIAMEN WAIN ELECTRICAL CO.LTD}
  7
工程字
 73
     1
 44
1.0
1001
AcDbBlockRepETag
1070
     1
1071
       17
1005
129CC
1001
ACAD
1000
MTEXTBEGIN
1070
    73
1070
     1
1070
    44
1040
1.0
1070
    74
1070
     0
1000
MTEXTEND
  0
MTEXT
  5
129CD
330
10FE8
100
AcDbEntity
  8
图框
 62
     1
370
    20
100
AcDbMText
 10
1085.711816899387
 20
491.0944802995856
 30
0.0
 40
2.005930044038334
 41
5.047240019334847
 71
     1
 72
     5
  1
{\fArial|b0|i0|c0|p34;A}
  7
Chinese
 73
     1
 44
1.0
1001
AcDbBlockRepETag
1070
     1
1071
       18
1005
129CD
1001
ACAD
1000
MTEXTBEGIN
1070
    73
1070
     1
1070
    44
1040
1.0
1070
    74
1070
     0
1000
MTEXTEND
  0
MTEXT
  5
129CE
330
10FE8
100
AcDbEntity
  8
图框
 62
     1
370
    20
100
AcDbMText
 10
1088.213485935716
 20
491.0944802995856
 30
0.0
 40
2.005930044038334
 41
5.047240019334847
 71
     1
 72
     5
  1
{\fArial|b0|i0|c0|p34;I}
  7
Chinese
 73
     1
 44
1.0
1001
AcDbBlockRepETag
1070
     1
1071
       19
1005
129CE
1001
ACAD
1000
MTEXTBEGIN
1070
    73
1070
     1
1070
    44
1040
1.0
1070
    74
1070
     0
1000
MTEXTEND
  0
MTEXT
  5
129CF
330
10FE8
100
AcDbEntity
  8
图框
 62
     1
370
    20
100
AcDbMText
 10
1089.142375222864
 20
491.0822866326808
 30
0.0
 40
2.005930044038334
 41
5.047240019334847
 71
     1
 72
     5
  1
{\fArial|b0|i0|c0|p34;N}
  7
Chinese
 73
     1
 44
1.0
1001
AcDbBlockRepETag
1070
     1
1071
       20
1005
129CF
1001
ACAD
1000
MTEXTBEGIN
1070
    73
1070
     1
1070
    44
1040
1.0
1070
    74
1070
     0
1000
MTEXTEND
  0
MTEXT
  5
129D0
330
10FE8
100
AcDbEntity
  8
图框
100
AcDbMText
 10
1069.142012769545
 20
487.9667319294409
 30
0.0
 40
2.252848170144607
 41
21.65869686878327
 71
     5
 72
     5
  1
{\W0.5;\C1;All Dimensions in mm\POriginal Size DIN A 4}
  7
Romans字体
 73
     1
 44
1.0
1001
AcDbBlockRepETag
1070
     1
1071
       21
1005
129D0
1001
ACAD
1000
MTEXTBEGIN
1070
    73
1070
     1
1070
    44
1040
1.0
1070
    74
1070
     0
1000
MTEXTEND
1000
ACAD_MTEXT_DEFINED_HEIGHT_BEGIN
1070
    46
1040
7.863925338579296
1000
ACAD_MTEXT_DEFINED_HEIGHT_END
  0
MTEXT
  5
129D1
330
10FE8
100
AcDbEntity
  8
图框
  6
ByBlock
 62
     6
370
    18
100
AcDbMText
 10
1127.40434942308
 20
508.7896535755975
 30
0.0
 40
2.651776162684904
 41
2.557913877927211
 71
     1
 72
     5
  1
A
  7
Romans字体
 11
0.0000000000000001
 21
1.0
 31
0.0
 73
     1
 44
1.0
1001
AcDbBlockRepETag
1070
     1
1071
       22
1005
129D1
1001
ACAD
1000
MTEXTBEGIN
1070
    73
1070
     1
1070
    44
1040
1.0
1070
    74
1070
     0
1000
MTEXTEND
  0
MTEXT
  5
129D2
330
10FE8
100
AcDbEntity
  8
图框
 62
     6
100
AcDbMText
 10
1127.40434942308
 20
556.3746573232886
 30
0.0
 40
2.651776162684904
 41
2.557913877927211
 71
     1
 72
     5
  1
B
  7
Romans字体
 11
0.0000000000000001
 21
1.0
 31
0.0
 73
     1
 44
1.0
1001
AcDbBlockRepETag
1070
     1
1071
       23
1005
129D2
1001
ACAD
1000
MTEXTBEGIN
1070
    73
1070
     1
1070
    44
1040
1.0
1070
    74
1070
     0
1000
MTEXTEND
  0
MTEXT
  5
129D3
330
10FE8
100
AcDbEntity
  8
图框
 62
     6
100
AcDbMText
 10
1127.40434942308
 20
607.5539372630998
 30
0.0
 40
2.651776162684904
 41
2.557913877927211
 71
     1
 72
     5
  1
C
  7
Romans字体
 11
0.0000000000000001
 21
1.0
 31
0.0
 73
     1
 44
1.0
1001
AcDbBlockRepETag
1070
     1
1071
       24
1005
129D3
1001
ACAD
1000
MTEXTBEGIN
1070
    73
1070
     1
1070
    44
1040
1.0
1070
    74
1070
     0
1000
MTEXTEND
  0
MTEXT
  5
129D4
330
10FE8
100
AcDbEntity
  8
图框
 62
     6
100
AcDbMText
 10
1127.40434942308
 20
658.7332172029115
 30
0.0
 40
2.651776162684904
 41
2.557913877927211
 71
     1
 72
     5
  1
D
  7
Romans字体
 11
0.0000000000000001
 21
1.0
 31
0.0
 73
     1
 44
1.0
1001
AcDbBlockRepETag
1070
     1
1071
       25
1005
129D4
1001
ACAD
1000
MTEXTBEGIN
1070
    73
1070
     1
1070
    44
1040
1.0
1070
    74
1070
     0
1000
MTEXTEND
  0
LINE
  5
129D5
330
10FE8
100
AcDbEntity
  8
图框
 62
     6
100
AcDbLine
 10
1130.411601781241
 20
634.0726090796082
 30
0.0
 11
1126.928502610363
 21
634.0726090796082
 31
0.0
1001
AcDbBlockRepETag
1070
     1
1071
       26
1005
129D5
  0
LINE
  5
129D6
330
10FE8
100
AcDbEntity
  8
图框
 62
     6
100
AcDbLine
 10
1130.411601781241
 20
582.89332913979
 30
0.0
 11
1126.928502610363
 21
582.89332913979
 31
0.0
1001
AcDbBlockRepETag
1070
     1
1071
       27
1005
129D6
  0
MTEXT
  5
129D7
330
10FE8
100
AcDbEntity
  8
图框
 62
     6
100
AcDbMText
 10
1105.329704038389
 20
483.6164543011163
 30
0.0
 40
2.651776162684904
 41
2.557913877927211
 71
     1
 72
     5
  1
6
  7
Romans字体
 73
     1
 44
1.0
1001
AcDbBlockRepETag
1070
     1
1071
       28
1005
129D7
1001
ACAD
1000
MTEXTBEGIN
1070
    73
1070
     1
1070
    44
1040
1.0
1070
    74
1070
     0
1000
MTEXTEND
  0
LINE
  5
129D8
330
10FE8
100
AcDbEntity
  8
图框
 62
     6
100
AcDbLine
 10
1081.088565155284
 20
484.0347692601515
 30
0.0
 11
1081.088565155284
 21
480.5347692601475
 31
0.0
1001
AcDbBlockRepETag
1070
     1
1071
       29
1005
129D8
  0
MTEXT
  5
129D9
330
10FE8
100
AcDbEntity
  8
图框
 62
     6
100
AcDbMText
 10
1055.900596365941
 20
483.520053108993
 30
0.0
 40
2.651776162684904
 41
2.557913877927211
 71
     1
 72
     5
  1
5
  7
Romans字体
 73
     1
 44
1.0
1001
AcDbBlockRepETag
1070
     1
1071
       30
1005
129D9
1001
ACAD
1000
MTEXTBEGIN
1070
    73
1070
     1
1070
    44
1040
1.0
1070
    74
1070
     0
1000
MTEXTEND
  0
LINE
  5
129DA
330
10FE8
100
AcDbEntity
  8
图框
 62
     6
100
AcDbLine
 10
1031.553386436349
 20
484.0347692601515
 30
0.0
 11
1031.553386436349
 21
480.5347692601475
 31
0.0
1001
AcDbBlockRepETag
1070
     1
1071
       31
1005
129DA
  0
MTEXT
  5
129DB
330
10FE8
100
AcDbEntity
  8
图框
 62
     6
100
AcDbMText
 10
1006.383180575197
 20
483.5687958215896
 30
0.0
 40
2.651776162684904
 41
2.557913877927211
 71
     1
 72
     5
  1
4
  7
Romans字体
 73
     1
 44
1.0
1001
AcDbBlockRepETag
1070
     1
1071
       32
1005
129DB
1001
ACAD
1000
MTEXTBEGIN
1070
    73
1070
     1
1070
    44
1040
1.0
1070
    74
1070
     0
1000
MTEXTEND
  0
LINE
  5
129DC
330
10FE8
100
AcDbEntity
  8
图框
 62
     6
100
AcDbLine
 10
982.0182077173887
 20
484.0347692601515
 30
0.0
 11
982.0182077173887
 21
480.5347692601475
 31
0.0
1001
AcDbBlockRepETag
1070
     1
1071
       33
1005
129DC
  0
MTEXT
  5
129DD
330
10FE8
100
AcDbEntity
  8
图框
 62
     6
100
AcDbMText
 10
956.8302389280352
 20
483.5989680297948
 30
0.0
 40
2.651776162684904
 41
2.557913877927211
 71
     1
 72
     5
  1
3
  7
Romans字体
 73
     1
 44
1.0
1001
AcDbBlockRepETag
1070
     1
1071
       34
1005
129DD
1001
ACAD
1000
MTEXTBEGIN
1070
    73
1070
     1
1070
    44
1040
1.0
1070
    74
1070
     0
1000
MTEXTEND
  0
LINE
  5
129DE
330
10FE8
100
AcDbEntity
  8
图框
 62
     6
100
AcDbLine
 10
932.4830289984245
 20
484.0347692601515
 30
0.0
 11
932.4830289984245
 21
480.5347692601475
 31
0.0
1001
AcDbBlockRepETag
1070
     1
1071
       35
1005
129DE
  0
MTEXT
  5
129DF
330
10FE8
100
AcDbEntity
  8
图框
 62
     6
100
AcDbMText
 10
906.0252349826365
 20
483.6475250013156
 30
0.0
 40
2.651776162684904
 41
2.557913877927211
 71
     1
 72
     5
  1
2
  7
Romans字体
 73
     1
 44
1.0
1001
AcDbBlockRepETag
1070
     1
1071
       36
1005
129DF
1001
ACAD
1000
MTEXTBEGIN
1070
    73
1070
     1
1070
    44
1040
1.0
1070
    74
1070
     0
1000
MTEXTEND
  0
LINE
  5
129E0
330
10FE8
100
AcDbEntity
  8
图框
 62
     6
100
AcDbLine
 10
882.9478502794648
 20
484.0347692601515
 30
0.0
 11
882.9478502794648
 21
480.5347692601475
 31
0.0
1001
AcDbBlockRepETag
1070
     1
1071
       37
1005
129E0
  0
MTEXT
  5
129E1
330
10FE8
100
AcDbEntity
  8
图框
 62
     6
100
AcDbMText
 10
857.7598814901191
 20
483.651829494754
 30
0.0
 40
2.651776162684904
 41
2.557913877927211
 71
     1
 72
     5
  1
1
  7
Romans字体
 73
     1
 44
1.0
1001
AcDbBlockRepETag
1070
     1
1071
       38
1005
129E1
1001
ACAD
1000
MTEXTBEGIN
1070
    73
1070
     1
1070
    44
1040
1.0
1070
    74
1070
     0
1000
MTEXTEND
  0
LINE
  5
129E2
330
10FE8
100
AcDbEntity
  8
图框
370
    50
100
AcDbLine
 10
836.8548209370597
 20
484.0347692601515
 30
0.0
 11
1126.928502610363
 21
484.0347692601515
 31
0.0
1001
AcDbBlockRepETag
1070
     1
1071
       39
1005
129E2
  0
LINE
  5
129E3
330
10FE8
100
AcDbEntity
  8
图框
370
    50
100
AcDbLine
 10
836.9128518455362
 20
484.0178684310246
 30
0.0
 11
836.9128518455394
 21
675.0207195125422
 31
0.0
1001
AcDbBlockRepETag
1070
     1
1071
       40
1005
129E3
  0
MTEXT
  5
129E4
330
10FE8
100
AcDbEntity
  8
图框
 62
     6
100
AcDbMText
 10
833.8475685789031
 20
658.7332172029115
 30
0.0
 40
2.651776162684904
 41
2.557913877927211
 71
     1
 72
     5
  1
D
  7
Romans字体
 11
0.0000000000000001
 21
1.0
 31
0.0
 73
     1
 44
1.0
1001
AcDbBlockRepETag
1070
     1
1071
       41
1005
129E4
1001
ACAD
1000
MTEXTBEGIN
1070
    73
1070
     1
1070
    44
1040
1.0
1070
    74
1070
     0
1000
MTEXTEND
  0
LINE
  5
129E5
330
10FE8
100
AcDbEntity
  8
图框
 62
     6
100
AcDbLine
 10
836.9128518455386
 20
634.0726090796082
 30
0.0
 11
833.4128518455365
 21
634.0726090796082
 31
0.0
1001
AcDbBlockRepETag
1070
     1
1071
       42
1005
129E5
  0
MTEXT
  5
129E6
330
10FE8
100
AcDbEntity
  8
图框
 62
     6
100
AcDbMText
 10
833.9039177480142
 20
607.5539372630998
 30
0.0
 40
2.651776162684904
 41
2.557913877927211
 71
     1
 72
     5
  1
C
  7
Romans字体
 11
0.0000000000000001
 21
1.0
 31
0.0
 73
     1
 44
1.0
1001
AcDbBlockRepETag
1070
     1
1071
       43
1005
129E6
1001
ACAD
1000
MTEXTBEGIN
1070
    73
1070
     1
1070
    44
1040
1.0
1070
    74
1070
     0
1000
MTEXTEND
  0
LINE
  5
129E7
330
10FE8
100
AcDbEntity
  8
图框
 62
     6
100
AcDbLine
 10
836.9128518455378
 20
582.89332913979
 30
0.0
 11
833.4128518455365
 21
582.89332913979
 31
0.0
1001
AcDbBlockRepETag
1070
     1
1071
       44
1005
129E7
  0
MTEXT
  5
129E8
330
10FE8
100
AcDbEntity
  8
图框
 62
     6
100
AcDbMText
 10
833.9039177480142
 20
556.3746573232886
 30
0.0
 40
2.651776162684904
 41
2.557913877927211
 71
     1
 72
     5
  1
B
  7
Romans字体
 11
0.0000000000000001
 21
1.0
 31
0.0
 73
     1
 44
1.0
1001
AcDbBlockRepETag
1070
     1
1071
       45
1005
129E8
1001
ACAD
1000
MTEXTBEGIN
1070
    73
1070
     1
1070
    44
1040
1.0
1070
    74
1070
     0
1000
MTEXTEND
  0
LINE
  5
129E9
330
10FE8
100
AcDbEntity
  8
图框
 62
     6
100
AcDbLine
 10
836.9128518455367
 20
531.714049199969
 30
0.0
 11
833.4128518455365
 21
531.714049199969
 31
0.0
1001
AcDbBlockRepETag
1070
     1
1071
       46
1005
129E9
  0
MTEXT
  5
129EA
330
10FE8
100
AcDbEntity
  8
图框
 62
     6
100
AcDbMText
 10
833.9039177480142
 20
508.7896535755975
 30
0.0
 40
2.651776162684904
 41
2.557913877927211
 71
     1
 72
     5
  1
A
  7
Romans字体
 11
0.0000000000000001
 21
1.0
 31
0.0
 73
     1
 44
1.0
1001
AcDbBlockRepETag
1070
     1
1071
       47
1005
129EA
1001
ACAD
1000
MTEXTBEGIN
1070
    73
1070
     1
1070
    44
1040
1.0
1070
    74
1070
     0
1000
MTEXTEND
  0
LINE
  5
129EB
330
10FE8
100
AcDbEntity
  8
图框
370
    -3
100
AcDbLine
 10
836.9128518455394
 20
675.0207195125422
 30
0.0
 11
836.9128518455394
 21
684.5021384922564
 31
0.0
1001
AcDbBlockRepETag
1070
     1
1071
       48
1005
129EB
  0
LINE
  5
129EC
330
10FE8
100
AcDbEntity
  8
图框
370
    -3
100
AcDbLine
 10
842.6237321475781
 20
675.5347692601515
 30
0.0
 11
842.6237321475781
 21
685.0161882398658
 31
0.0
1001
AcDbBlockRepETag
1070
     1
1071
       49
1005
129EC
  0
LINE
  5
129ED
330
10FE8
100
AcDbEntity
  8
图框
370
    -3
100
AcDbLine
 10
848.3346124496179
 20
675.5347692601515
 30
0.0
 11
848.3346124496179
 21
685.0161882398658
 31
0.0
1001
AcDbBlockRepETag
1070
     1
1071
       50
1005
129ED
  0
LINE
  5
129EE
330
10FE8
100
AcDbEntity
  8
图框
370
    -3
100
AcDbLine
 10
854.0454927516588
 20
675.5347692601515
 30
0.0
 11
854.0454927516588
 21
685.0161882398658
 31
0.0
1001
AcDbBlockRepETag
1070
     1
1071
       51
1005
129EE
  0
LINE
  5
129EF
330
10FE8
100
AcDbEntity
  8
图框
370
    -3
100
AcDbLine
 10
861.5351874539182
 20
675.5347692601515
 30
0.0
 11
861.5351874539182
 21
686.7901958362482
 31
0.0
1001
AcDbBlockRepETag
1070
     1
1071
       52
1005
129EF
  0
MTEXT
  5
129F0
330
10FE8
100
AcDbEntity
  8
图框
 62
     6
100
AcDbMText
 10
1105.329704038389
 20
678.859919059449
 30
0.0
 40
2.651776162684904
 41
2.557913877927211
 71
     1
 72
     5
  1
6
  7
Romans字体
 73
     1
 44
1.0
1001
AcDbBlockRepETag
1070
     1
1071
       53
1005
129F0
1001
ACAD
1000
MTEXTBEGIN
1070
    73
1070
     1
1070
    44
1040
1.0
1070
    74
1070
     0
1000
MTEXTEND
  0
LINE
  5
129F1
330
10FE8
100
AcDbEntity
  8
图框
 62
     6
100
AcDbLine
 10
1081.088565155284
 20
679.0347692601516
 30
0.0
 11
1081.088565155284
 21
675.5347692601515
 31
0.0
1001
AcDbBlockRepETag
1070
     1
1071
       54
1005
129F1
  0
MTEXT
  5
129F2
330
10FE8
100
AcDbEntity
  8
图框
 62
     6
100
AcDbMText
 10
1055.900596365941
 20
678.859919059449
 30
0.0
 40
2.651776162684904
 41
2.557913877927211
 71
     1
 72
     5
  1
5
  7
Romans字体
 73
     1
 44
1.0
1001
AcDbBlockRepETag
1070
     1
1071
       55
1005
129F2
1001
ACAD
1000
MTEXTBEGIN
1070
    73
1070
     1
1070
    44
1040
1.0
1070
    74
1070
     0
1000
MTEXTEND
  0
LINE
  5
129F3
330
10FE8
100
AcDbEntity
  8
图框
 62
     6
100
AcDbLine
 10
1031.553386436349
 20
679.0347692601516
 30
0.0
 11
1031.553386436349
 21
675.5347692601515
 31
0.0
1001
AcDbBlockRepETag
1070
     1
1071
       56
1005
129F3
  0
MTEXT
  5
129F4
330
10FE8
100
AcDbEntity
  8
图框
 62
     6
100
AcDbMText
 10
1006.36541764698
 20
678.7312083656147
 30
0.0
 40
2.651776162684904
 41
2.557913877927211
 71
     1
 72
     5
  1
4
  7
Romans字体
 73
     1
 44
1.0
1001
AcDbBlockRepETag
1070
     1
1071
       57
1005
129F4
1001
ACAD
1000
MTEXTBEGIN
1070
    73
1070
     1
1070
    44
1040
1.0
1070
    74
1070
     0
1000
MTEXTEND
  0
LINE
  5
129F5
330
10FE8
100
AcDbEntity
  8
图框
 62
     6
100
AcDbLine
 10
982.0182077173887
 20
679.0347692601516
 30
0.0
 11
982.0182077173887
 21
675.5347692601515
 31
0.0
1001
AcDbBlockRepETag
1070
     1
1071
       58
1005
129F5
  0
MTEXT
  5
129F6
330
10FE8
100
AcDbEntity
  8
图框
 62
     6
100
AcDbMText
 10
956.8302389280352
 20
678.859919059449
 30
0.0
 40
2.651776162684904
 41
2.557913877927211
 71
     1
 72
     5
  1
3
  7
Romans字体
 73
     1
 44
1.0
1001
AcDbBlockRepETag
1070
     1
1071
       59
1005
129F6
1001
ACAD
1000
MTEXTBEGIN
1070
    73
1070
     1
1070
    44
1040
1.0
1070
    74
1070
     0
1000
MTEXTEND
  0
LINE
  5
129F7
330
10FE8
100
AcDbEntity
  8
图框
 62
     6
100
AcDbLine
 10
932.4830289984245
 20
679.0347692601516
 30
0.0
 11
932.4830289984245
 21
675.5347692601515
 31
0.0
1001
AcDbBlockRepETag
1070
     1
1071
       60
1005
129F7
  0
MTEXT
  5
129F8
330
10FE8
100
AcDbEntity
  8
图框
 62
     6
100
AcDbMText
 10
907.295060209082
 20
678.859919059449
 30
0.0
 40
2.651776162684904
 41
2.557913877927211
 71
     1
 72
     5
  1
2
  7
Romans字体
 73
     1
 44
1.0
1001
AcDbBlockRepETag
1070
     1
1071
       61
1005
129F8
1001
ACAD
1000
MTEXTBEGIN
1070
    73
1070
     1
1070
    44
1040
1.0
1070
    74
1070
     0
1000
MTEXTEND
  0
LINE
  5
129F9
330
10FE8
100
AcDbEntity
  8
图框
 62
     6
100
AcDbLine
 10
882.9478502794648
 20
678.7962435131815
 30
0.0
 11
882.9478502794648
 21
675.5347692601515
 31
0.0
1001
AcDbBlockRepETag
1070
     1
1071
       62
1005
129F9
  0
MTEXT
  5
129FA
330
10FE8
100
AcDbEntity
  8
图框
 62
     6
100
AcDbMText
 10
862.6286629643733
 20
678.859919059449
 30
0.0
 40
2.651776162684904
 41
2.557913877927211
 71
     1
 72
     5
  1
1
  7
Romans字体
 73
     1
 44
1.0
1001
AcDbBlockRepETag
1070
     1
1071
       63
1005
129FA
1001
ACAD
1000
MTEXTBEGIN
1070
    73
1070
     1
1070
    44
1040
1.0
1070
    74
1070
     0
1000
MTEXTEND
  0
LINE
  5
129FB
330
10FE8
100
AcDbEntity
  8
图框
370
    -3
100
AcDbLine
 10
836.9128518455394
 20
675.0207195125422
 30
0.0
 11
836.9128518455394
 21
686.7901958362482
 31
0.0
1001
AcDbBlockRepETag
1070
     1
1071
       64
1005
129FB
  0
LINE
  5
129FC
330
10FE8
100
AcDbEntity
  8
图框
370
    50
100
AcDbLine
 10
836.9128518455394
 20
675.5347692601515
 30
0.0
 11
1126.928502610363
 21
675.5347692601515
 31
0.0
1001
AcDbBlockRepETag
1070
     1
1071
       65
1005
129FC
  0
LINE
  5
129FD
330
10FE8
100
AcDbEntity
  8
图框
370
    -3
100
AcDbLine
 10
842.6237321475781
 20
675.5347692601515
 30
0.0
 11
842.6237321475781
 21
686.7901958362482
 31
0.0
1001
AcDbBlockRepETag
1070
     1
1071
       66
1005
129FD
  0
LINE
  5
129FE
330
10FE8
100
AcDbEntity
  8
图框
370
    -3
100
AcDbLine
 10
848.3346124496179
 20
675.5347692601515
 30
0.0
 11
848.3346124496179
 21
686.7901958362482
 31
0.0
1001
AcDbBlockRepETag
1070
     1
1071
       67
1005
129FE
  0
MTEXT
  5
129FF
102
{ACAD_XDICTIONARY
360
12A62
102
}
330
10FE8
100
AcDbEntity
  8
图框
100
AcDbMText
 10
857.7903401027889
 20
686.7901958362482
 30
0.0
 40
1.958998408821398
 41
11.25542657609672
 71
     4
 72
     5
  1
{\W2.08073; }档案员{\H0.7x;\P\Fromans|c134;\W1.0325; \W0.75;Filing Clerk\fFangSong_GB2312|b0|i0|c134|p49; }
 11
-0.0000000000000002
 21
-1.0
 31
0.0
 73
     1
 44
1.0
1001
AcDbBlockRepETag
1070
     1
1071
       68
1005
129FF
1001
ACAD
1000
MTEXTBEGIN
1070
    73
1070
     1
1070
    44
1040
1.0
1070
    74
1070
     0
1000
MTEXTEND
1000
ACAD_MTEXT_DEFINED_HEIGHT_BEGIN
1070
    46
1040
7.489694702258906
1000
ACAD_MTEXT_DEFINED_HEIGHT_END
  0
MTEXT
  5
12A00
102
{ACAD_XDICTIONARY
360
12A64
102
}
330
10FE8
100
AcDbEntity
  8
图框
100
AcDbMText
 10
845.479172298598
 20
686.7901958362482
 30
0.0
 40
1.958998408821398
 41
11.25542657609672
 71
     4
 72
     5
  1
{\W0.524929; }日期{\Fromans|c134;/Date}
 11
-0.0000000000000002
 21
-1.0
 31
0.0
 73
     1
 44
1.0
1001
AcDbBlockRepETag
1070
     1
1071
       69
1005
12A00
1001
ACAD
1000
MTEXTBEGIN
1070
    73
1070
     1
1070
    44
1040
1.0
1070
    74
1070
     0
1000
MTEXTEND
1000
ACAD_MTEXT_DEFINED_HEIGHT_BEGIN
1070
    46
1040
5.710880302039671
1000
ACAD_MTEXT_DEFINED_HEIGHT_END
  0
LINE
  5
12A01
330
10FE8
100
AcDbEntity
  8
图框
370
    -3
100
AcDbLine
 10
854.0454927516588
 20
675.5347692601515
 30
0.0
 11
854.0454927516588
 21
686.7901958362482
 31
0.0
1001
AcDbBlockRepETag
1070
     1
1071
       70
1005
12A01
  0
LINE
  5
12A02
330
10FE8
100
AcDbEntity
  8
图框
370
    -3
100
AcDbLine
 10
1036.653967466372
 20
531.3291676047914
 30
0.0
 11
1036.653967466372
 21
484.0126019753161
 31
0.0
1001
AcDbBlockRepETag
1070
     1
1071
       71
1005
12A02
  0
LINE
  5
12A03
330
10FE8
100
AcDbEntity
  8
图框
370
    -3
100
AcDbLine
 10
1047.483315900763
 20
507.6708838011533
 30
0.0
 11
1047.483315900763
 21
491.8986945987308
 31
0.0
1001
AcDbBlockRepETag
1070
     1
1071
       72
1005
12A03
  0
LINE
  5
12A04
330
10FE8
100
AcDbEntity
  8
图框
370
    -3
100
AcDbLine
 10
1058.312664335153
 20
507.6708838011533
 30
0.0
 11
1058.312664335153
 21
484.0347692601515
 31
0.0
1001
AcDbBlockRepETag
1070
     1
1071
       73
1005
12A04
  0
LINE
  5
12A05
330
10FE8
100
AcDbEntity
  8
图框
370
    25
100
AcDbLine
 10
1048.474135214456
 20
488.1095628329926
 30
0.0
 11
1054.946420288459
 21
488.1095628329926
 31
0.0
1001
AcDbBlockRepETag
1070
     1
1071
       74
1005
12A05
  0
LINE
  5
12A06
330
10FE8
100
AcDbEntity
  8
图框
370
    25
100
AcDbLine
 10
1054.232527365989
 20
487.0761716842634
 30
0.0
 11
1049.156490914508
 21
486.4576273751
 31
0.0
1001
AcDbBlockRepETag
1070
     1
1071
       75
1005
12A06
  0
LINE
  5
12A07
330
10FE8
100
AcDbEntity
  8
图框
370
    25
100
AcDbLine
 10
1054.232527365989
 20
489.1429539817209
 30
0.0
 11
1049.156490914508
 21
489.7614982908846
 31
0.0
1001
AcDbBlockRepETag
1070
     1
1071
       76
1005
12A07
  0
LINE
  5
12A08
330
10FE8
100
AcDbEntity
  8
图框
370
    25
100
AcDbLine
 10
1049.156490914508
 20
489.7614982908846
 30
0.0
 11
1049.156490914508
 21
486.4576273751
 31
0.0
1001
AcDbBlockRepETag
1070
     1
1071
       77
1005
12A08
  0
LINE
  5
12A09
330
10FE8
100
AcDbEntity
  8
图框
370
    25
100
AcDbLine
 10
1054.232527365989
 20
489.1429539817209
 30
0.0
 11
1054.232527365989
 21
487.0761716842634
 31
0.0
1001
AcDbBlockRepETag
1070
     1
1071
       78
1005
12A09
  0
CIRCLE
  5
12A0A
330
10FE8
100
AcDbEntity
  8
图框
370
    25
100
AcDbCircle
 10
1042.502700458579
 20
488.1095628329926
 30
0.0
 40
1.651935457891863
1001
AcDbBlockRepETag
1070
     1
1071
       79
1005
12A0A
  0
CIRCLE
  5
12A0B
330
10FE8
100
AcDbEntity
  8
图框
370
    25
100
AcDbCircle
 10
1042.502700458579
 20
488.1095628329926
 30
0.0
 40
1.033391148728775
1001
AcDbBlockRepETag
1070
     1
1071
       80
1005
12A0B
  0
LINE
  5
12A0C
330
10FE8
100
AcDbEntity
  8
图框
370
    25
100
AcDbLine
 10
1040.136872078216
 20
488.1095628329926
 30
0.0
 11
1044.868528838943
 21
488.1095628329926
 31
0.0
1001
AcDbBlockRepETag
1070
     1
1071
       81
1005
12A0C
  0
LINE
  5
12A0D
330
10FE8
100
AcDbEntity
  8
图框
370
    25
100
AcDbLine
 10
1042.502700458579
 20
490.475391213355
 30
0.0
 11
1042.502700458579
 21
485.743734452629
 31
0.0
1001
AcDbBlockRepETag
1070
     1
1071
       82
1005
12A0D
  0
LINE
  5
12A0E
330
10FE8
100
AcDbEntity
  8
图框
370
    -3
100
AcDbLine
 10
1069.142012769546
 20
507.6708838011533
 30
0.0
 11
1069.142012769546
 21
491.8986945987308
 31
0.0
1001
AcDbBlockRepETag
1070
     1
1071
       83
1005
12A0E
  0
MTEXT
  5
12A0F
330
10FE8
100
AcDbEntity
  8
图框
100
AcDbMText
 10
1086.643735910939
 20
526.8006839312707
 30
0.0
 40
2.154898249703542
 41
13.34474941400573
 71
     5
 72
     5
  1
图号{\Ftxt|c134;\P\Fromans|c134;\W0.65;Drawing No.}
 73
     1
 44
1.0
1001
AcDbBlockRepETag
1070
     1
1071
       84
1005
12A0F
1001
ACAD
1000
MTEXTBEGIN
1070
    73
1070
     1
1070
    44
1040
1.0
1070
    74
1070
     0
1000
MTEXTEND
1000
ACAD_MTEXT_DEFINED_HEIGHT_BEGIN
1070
    46
1040
9.056967347041775
1000
ACAD_MTEXT_DEFINED_HEIGHT_END
  0
LINE
  5
12A10
330
10FE8
100
AcDbEntity
  8
图框
370
    -3
100
AcDbLine
 10
1093.316110617942
 20
531.3291676047914
 30
0.0
 11
1093.316110617942
 21
495.8417418993347
 31
0.0
1001
AcDbBlockRepETag
1070
     1
1071
       85
1005
12A10
  0
LINE
  5
12A11
330
10FE8
100
AcDbEntity
  8
图框
370
    -3
100
AcDbLine
 10
1047.473969770481
 20
531.3291676047914
 30
0.0
 11
1047.473969770481
 21
507.6708838011533
 31
0.0
1001
AcDbBlockRepETag
1070
     1
1071
       86
1005
12A11
  0
MTEXT
  5
12A12
330
10FE8
100
AcDbEntity
  8
图框
100
AcDbMText
 10
1063.72733855235
 20
503.7278365005473
 30
0.0
 40
2.252848170144607
 41
10.82934843439208
 71
     5
 72
     5
  1
重量\P{\Fromans|c134;Weight}
 73
     1
 44
1.0
1001
AcDbBlockRepETag
1070
     1
1071
       87
1005
12A12
1001
ACAD
1000
MTEXTBEGIN
1070
    73
1070
     1
1070
    44
1040
1.0
1070
    74
1070
     0
1000
MTEXTEND
1000
ACAD_MTEXT_DEFINED_HEIGHT_BEGIN
1070
    46
1040
7.886094601212128
1000
ACAD_MTEXT_DEFINED_HEIGHT_END
  0
LINE
  5
12A13
330
10FE8
100
AcDbEntity
  8
图框
370
    -3
100
AcDbLine
 10
1036.653967466372
 20
519.5000257029746
 30
0.0
 11
1079.971361203936
 21
519.5000257029746
 31
0.0
1001
AcDbBlockRepETag
1070
     1
1071
       88
1005
12A13
  0
MTEXT
  5
12A14
330
10FE8
100
AcDbEntity
  8
图框
100
AcDbMText
 10
1074.556686986741
 20
503.7278365005473
 30
0.0
 40
2.252848170144607
 41
10.82934843438984
 71
     5
 72
     5
  1
数量\P{\Fromans|c134;Qty.}
 73
     1
 44
1.0
1001
AcDbBlockRepETag
1070
     1
1071
       89
1005
12A14
1001
ACAD
1000
MTEXTBEGIN
1070
    73
1070
     1
1070
    44
1040
1.0
1070
    74
1070
     0
1000
MTEXTEND
1000
ACAD_MTEXT_DEFINED_HEIGHT_BEGIN
1070
    46
1040
7.886094601212141
1000
ACAD_MTEXT_DEFINED_HEIGHT_END
  0
LINE
  5
12A15
330
10FE8
100
AcDbEntity
  8
图框
370
    -3
100
AcDbLine
 10
1079.971361203936
 20
495.8417418993347
 30
0.0
 11
1126.928502610363
 21
495.8417418993342
 31
0.0
1001
AcDbBlockRepETag
1070
     1
1071
       90
1005
12A15
  0
LINE
  5
12A16
330
10FE8
100
AcDbEntity
  8
图框
370
    -3
100
AcDbLine
 10
1079.971361203936
 20
504.7132992040975
 30
0.0
 11
1126.928502610363
 21
504.7132992040975
 31
0.0
1001
AcDbBlockRepETag
1070
     1
1071
       91
1005
12A16
  0
MTEXT
  5
12A17
330
10FE8
100
AcDbEntity
  8
图框
100
AcDbMText
 10
1052.893317052817
 20
503.7278365005473
 30
0.0
 40
2.252848170144607
 41
10.83869456467139
 71
     5
 72
     5
  1
版本\P{\Fromans|c134;REV.}
 73
     1
 44
1.0
1001
AcDbBlockRepETag
1070
     1
1071
       92
1005
12A17
1001
ACAD
1000
MTEXTBEGIN
1070
    73
1070
     1
1070
    44
1040
1.0
1070
    74
1070
     0
1000
MTEXTEND
1000
ACAD_MTEXT_DEFINED_HEIGHT_BEGIN
1070
    46
1040
7.886094601212101
1000
ACAD_MTEXT_DEFINED_HEIGHT_END
  0
MTEXT
  5
12A18
330
10FE8
100
AcDbEntity
  8
图框
100
AcDbMText
 10
1042.068641683568
 20
503.7278365005473
 30
0.0
 40
2.252848170144607
 41
10.8293484343908
 71
     5
 72
     5
  1
比例\P{\Fromans|c134;Scale}
 73
     1
 44
1.0
1001
AcDbBlockRepETag
1070
     1
1071
       93
1005
12A18
1001
ACAD
1000
MTEXTBEGIN
1070
    73
1070
     1
1070
    44
1040
1.0
1070
    74
1070
     0
1000
MTEXTEND
1000
ACAD_MTEXT_DEFINED_HEIGHT_BEGIN
1070
    46
1040
7.886094601212136
1000
ACAD_MTEXT_DEFINED_HEIGHT_END
  0
LINE
  5
12A19
330
10FE8
100
AcDbEntity
  8
图框
370
    -3
100
AcDbLine
 10
1036.653967466372
 20
507.6708838011533
 30
0.0
 11
1079.971361203936
 21
507.6708838011533
 31
0.0
1001
AcDbBlockRepETag
1070
     1
1071
       94
1005
12A19
  0
LINE
  5
12A1A
330
10FE8
100
AcDbEntity
  8
图框
370
    -3
100
AcDbLine
 10
1036.653967466372
 20
491.8986945987308
 30
0.0
 11
1079.971361203936
 21
491.8986945987308
 31
0.0
1001
AcDbBlockRepETag
1070
     1
1071
       95
1005
12A1A
  0
LINE
  5
12A1B
330
10FE8
100
AcDbEntity
  8
图框
370
    -3
100
AcDbLine
 10
1079.971361203936
 20
531.3291676047914
 30
0.0
 11
1079.971361203936
 21
484.0125999975168
 31
0.0
1001
AcDbBlockRepETag
1070
     1
1071
       96
1005
12A1B
  0
MTEXT
  5
12A1C
330
10FE8
100
AcDbEntity
  8
图框
100
AcDbMText
 10
1042.063968618426
 20
525.4145966538832
 30
0.0
 40
2.252848170144607
 41
10.82000230410933
 71
     5
 72
     5
  1
表面处理\P{\Fromans|c134;Finish}
 73
     1
 44
1.0
1001
AcDbBlockRepETag
1070
     1
1071
       97
1005
12A1C
1001
ACAD
1000
MTEXTBEGIN
1070
    73
1070
     1
1070
    44
1040
1.0
1070
    74
1070
     0
1000
MTEXTEND
1000
ACAD_MTEXT_DEFINED_HEIGHT_BEGIN
1070
    46
1040
11.82914190181708
1000
ACAD_MTEXT_DEFINED_HEIGHT_END
  0
MTEXT
  5
12A1D
330
10FE8
100
AcDbEntity
  8
图框
100
AcDbMText
 10
1042.063968618426
 20
513.5854547520639
 30
0.0
 40
2.252848170144607
 41
10.82000230410933
 71
     5
 72
     5
  1
材料\P{\Fromans|c134;Material}
 73
     1
 44
1.0
1001
AcDbBlockRepETag
1070
     1
1071
       98
1005
12A1D
1001
ACAD
1000
MTEXTBEGIN
1070
    73
1070
     1
1070
    44
1040
1.0
1070
    74
1070
     0
1000
MTEXTEND
1000
ACAD_MTEXT_DEFINED_HEIGHT_BEGIN
1070
    46
1040
11.8291419018212
1000
ACAD_MTEXT_DEFINED_HEIGHT_END
  0
LINE
  5
12A1E
330
10FE8
100
AcDbEntity
  8
图框
370
    -3
100
AcDbLine
 10
1079.971361203936
 20
522.27220025775
 30
0.0
 11
1126.928502610363
 21
522.27220025775
 31
0.0
1001
AcDbBlockRepETag
1070
     1
1071
       99
1005
12A1E
  0
LINE
  5
12A1F
330
10FE8
100
AcDbEntity
  8
图框
370
    -3
100
AcDbLine
 10
1079.971361203936
 20
513.5854547520641
 30
0.0
 11
1126.928502610363
 21
513.5854547520639
 31
0.0
1001
AcDbBlockRepETag
1070
     1
1071
      100
1005
12A1F
  0
MTEXT
  5
12A20
330
10FE8
100
AcDbEntity
  8
图框
100
AcDbMText
 10
1086.643735910939
 20
517.9288275049072
 30
0.0
 40
1.958998408821398
 41
13.34474941400573
 71
     5
 72
     5
  1
产品代号\P{\Fromans|c134;Part Code}
 73
     1
 44
1.0
1001
AcDbBlockRepETag
1070
     1
1071
      101
1005
12A20
1001
ACAD
1000
MTEXTBEGIN
1070
    73
1070
     1
1070
    44
1040
1.0
1070
    74
1070
     0
1000
MTEXTEND
1000
ACAD_MTEXT_DEFINED_HEIGHT_BEGIN
1070
    46
1040
8.686745505685811
1000
ACAD_MTEXT_DEFINED_HEIGHT_END
  0
LINE
  5
12A21
330
10FE8
100
AcDbEntity
  8
图框
370
    -3
100
AcDbLine
 10
946.9285026103634
 20
525.7982263931411
 30
0.0
 11
1036.653967466372
 21
525.7982263931411
 31
0.0
1001
AcDbBlockRepETag
1070
     1
1071
      102
1005
12A21
  0
LINE
  5
12A22
330
10FE8
100
AcDbEntity
  8
图框
370
    -3
100
AcDbLine
 10
946.9285026103634
 20
520.2672851814959
 30
0.0
 11
1036.653967466372
 21
520.2672851814959
 31
0.0
1001
AcDbBlockRepETag
1070
     1
1071
      103
1005
12A22
  0
LINE
  5
12A23
330
10FE8
100
AcDbEntity
  8
图框
370
    35
100
AcDbLine
 10
946.9285026103634
 20
531.3291676047914
 30
0.0
 11
1126.928502610363
 21
531.3291676047914
 31
0.0
1001
AcDbBlockRepETag
1070
     1
1071
      104
1005
12A23
  0
LINE
  5
12A24
330
10FE8
100
AcDbEntity
  8
图框
370
    -3
100
AcDbLine
 10
990.6727612856927
 20
509.2054027581959
 30
0.0
 11
990.6727612856927
 21
484.0347692601515
 31
0.0
1001
AcDbBlockRepETag
1070
     1
1071
      105
1005
12A24
  0
MTEXT
  5
12A25
102
{ACAD_XDICTIONARY
360
12A66
102
}
330
10FE8
100
AcDbEntity
  8
图框
100
AcDbMText
 10
997.1628169651232
 20
499.816589978722
 30
0.0
 40
2.252848170144607
 41
12.98011135886052
 71
     5
 72
     5
  1
{\f仿宋_GB2312|b0|i0|c134|p49;标准化}\PStand.
  7
Romans字体
 73
     1
 44
1.0
1001
AcDbBlockRepETag
1070
     1
1071
      106
1005
12A25
1001
ACAD
1000
MTEXTBEGIN
1070
    73
1070
     1
1070
    44
1040
1.0
1070
    74
1070
     0
1000
MTEXTEND
1000
ACAD_MTEXT_DEFINED_HEIGHT_BEGIN
1070
    46
1040
6.19230880992475
1000
ACAD_MTEXT_DEFINED_HEIGHT_END
  0
LINE
  5
12A26
330
10FE8
100
AcDbEntity
  8
图框
370
    -3
100
AcDbLine
 10
975.4103773808022
 20
509.2054027581959
 30
0.0
 11
975.4103773808022
 21
484.0347692601515
 31
0.0
1001
AcDbBlockRepETag
1070
     1
1071
      107
1005
12A26
  0
MTEXT
  5
12A27
330
10FE8
100
AcDbEntity
  8
图框
100
AcDbMText
 10
984.5089229802068
 20
511.9708733640202
 30
0.0
 40
2.448748011026752
 41
38.287899328693
 71
     5
 72
     5
  1
  变更描述{\Fromans|c134;/Description}
 73
     1
 44
1.0
1001
AcDbBlockRepETag
1070
     1
1071
      108
1005
12A27
1001
ACAD
1000
MTEXTBEGIN
1070
    73
1070
     1
1070
    44
1040
1.0
1070
    74
1070
     0
1000
MTEXTEND
1000
ACAD_MTEXT_DEFINED_HEIGHT_BEGIN
1070
    46
1040
5.530941211648832
1000
ACAD_MTEXT_DEFINED_HEIGHT_END
  0
MTEXT
  5
12A28
102
{ACAD_XDICTIONARY
360
12A68
102
}
330
10FE8
100
AcDbEntity
  8
图框
100
AcDbMText
 10
1012.466086049227
 20
511.9708733640202
 30
0.0
 40
1.958998408821398
 41
17.6264268093469
 71
     5
 72
     5
  1
签名\P{\Fromans|c134;Signature} 
 73
     1
 44
1.0
1001
AcDbBlockRepETag
1070
     1
1071
      109
1005
12A28
1001
ACAD
1000
MTEXTBEGIN
1070
    73
1070
     1
1070
    44
1040
1.0
1070
    74
1070
     0
1000
MTEXTEND
1000
ACAD_MTEXT_DEFINED_HEIGHT_BEGIN
1070
    46
1040
5.530941211648825
1000
ACAD_MTEXT_DEFINED_HEIGHT_END
  0
MTEXT
  5
12A29
102
{ACAD_XDICTIONARY
360
12A6A
102
}
330
10FE8
100
AcDbEntity
  8
图框
100
AcDbMText
 10
960.7558556394856
 20
511.9708733640202
 30
0.0
 40
1.958998408821398
 41
9.218235352749283
 71
     5
 72
     5
  1
处数\P{\Fromans|c134;Number }
 73
     1
 44
1.0
1001
AcDbBlockRepETag
1070
     1
1071
      110
1005
12A29
1001
ACAD
1000
MTEXTBEGIN
1070
    73
1070
     1
1070
    44
1040
1.0
1070
    74
1070
     0
1000
MTEXTEND
1000
ACAD_MTEXT_DEFINED_HEIGHT_BEGIN
1070
    46
1040
5.530941211648841
1000
ACAD_MTEXT_DEFINED_HEIGHT_END
  0
LINE
  5
12A2A
330
10FE8
100
AcDbEntity
  8
图框
370
    -3
100
AcDbLine
 10
946.9285026103634
 20
514.7363439698449
 30
0.0
 11
1036.653967466372
 21
514.7363439698449
 31
0.0
1001
AcDbBlockRepETag
1070
     1
1071
      111
1005
12A2A
  0
LINE
  5
12A2B
330
10FE8
100
AcDbEntity
  8
图框
370
    -3
100
AcDbLine
 10
946.9285026103634
 20
509.2054027581959
 30
0.0
 11
1036.653967466372
 21
509.2054027581959
 31
0.0
1001
AcDbBlockRepETag
1070
     1
1071
      112
1005
12A2B
  0
LINE
  5
12A2C
330
10FE8
100
AcDbEntity
  8
图框
370
    -3
100
AcDbLine
 10
946.9285026103634
 20
502.9127443836848
 30
0.0
 11
1036.653967466372
 21
502.9127443836848
 31
0.0
1001
AcDbBlockRepETag
1070
     1
1071
      113
1005
12A2C
  0
LINE
  5
12A2D
330
10FE8
100
AcDbEntity
  8
图框
370
    -3
100
AcDbLine
 10
946.9285026103634
 20
496.620086009173
 30
0.0
 11
1036.653967466372
 21
496.620086009173
 31
0.0
1001
AcDbBlockRepETag
1070
     1
1071
      114
1005
12A2D
  0
LINE
  5
12A2E
330
10FE8
100
AcDbEntity
  8
图框
370
    35
380
     1
100
AcDbLine
 10
946.9285026103634
 20
531.3291676047914
 30
0.0
 11
946.9285026103634
 21
484.0347692601515
 31
0.0
1001
AcDbBlockRepETag
1070
     1
1071
      115
1005
12A2E
  0
LINE
  5
12A2F
330
10FE8
100
AcDbEntity
  8
图框
370
    -3
100
AcDbLine
 10
1021.301636813399
 20
531.3291676047914
 30
0.0
 11
1021.301636813399
 21
484.0347692601515
 31
0.0
1001
AcDbBlockRepETag
1070
     1
1071
      116
1005
12A2F
  0
LINE
  5
12A30
330
10FE8
100
AcDbEntity
  8
图框
370
    -3
100
AcDbLine
 10
1003.652872644553
 20
531.3291676047914
 30
0.0
 11
1003.652872644553
 21
484.0347692601515
 31
0.0
1001
AcDbBlockRepETag
1070
     1
1071
      117
1005
12A30
  0
LINE
  5
12A31
330
10FE8
100
AcDbEntity
  8
图框
370
    -3
100
AcDbLine
 10
965.3649733158603
 20
531.3291676047914
 30
0.0
 11
965.3649733158603
 21
509.2054027581959
 31
0.0
1001
AcDbBlockRepETag
1070
     1
1071
      118
1005
12A31
  0
LINE
  5
12A32
330
10FE8
100
AcDbEntity
  8
图框
370
    -3
100
AcDbLine
 10
956.1467379631109
 20
531.3291676047914
 30
0.0
 11
956.1467379631109
 21
509.2054027581959
 31
0.0
1001
AcDbBlockRepETag
1070
     1
1071
      119
1005
12A32
  0
MTEXT
  5
12A33
102
{ACAD_XDICTIONARY
360
12A6C
102
}
330
10FE8
100
AcDbEntity
  8
图框
100
AcDbMText
 10
951.537620286737
 20
511.9708733640202
 30
0.0
 40
1.958998408821398
 41
9.218235352747692
 71
     5
 72
     5
  1
标记\P{\Fromans|c134;Mark}
 73
     1
 44
1.0
1001
AcDbBlockRepETag
1070
     1
1071
      120
1005
12A33
1001
ACAD
1000
MTEXTBEGIN
1070
    73
1070
     1
1070
    44
1040
1.0
1070
    74
1070
     0
1000
MTEXTEND
1000
ACAD_MTEXT_DEFINED_HEIGHT_BEGIN
1070
    46
1040
5.530941211648832
1000
ACAD_MTEXT_DEFINED_HEIGHT_END
  0
MTEXT
  5
12A34
102
{ACAD_XDICTIONARY
360
12A6E
102
}
330
10FE8
100
AcDbEntity
  8
图框
100
AcDbMText
 10
953.4185582897936
 20
493.4737568219182
 30
0.0
 40
2.252848170144607
 41
12.98011135886041
 71
     5
 72
     5
  1
审核\P{\Fromans|c134;Checked}
 73
     1
 44
1.0
1001
AcDbBlockRepETag
1070
     1
1071
      121
1005
12A34
1001
ACAD
1000
MTEXTBEGIN
1070
    73
1070
     1
1070
    44
1040
1.0
1070
    74
1070
     0
1000
MTEXTEND
1000
ACAD_MTEXT_DEFINED_HEIGHT_BEGIN
1070
    46
1040
6.292658374510382
1000
ACAD_MTEXT_DEFINED_HEIGHT_END
  0
MTEXT
  5
12A35
102
{ACAD_XDICTIONARY
360
12A70
102
}
330
10FE8
100
AcDbEntity
  8
图框
100
AcDbMText
 10
953.4185582897936
 20
499.8775635376777
 30
0.0
 40
2.252848170144607
 41
12.98011135886041
 71
     5
 72
     5
  1
绘图\P{\Fromans|c134;Drawn\Ftxt|c134; }
 73
     1
 44
1.0
1001
AcDbBlockRepETag
1070
     1
1071
      122
1005
12A35
1001
ACAD
1000
MTEXTBEGIN
1070
    73
1070
     1
1070
    44
1040
1.0
1070
    74
1070
     0
1000
MTEXTEND
1000
ACAD_MTEXT_DEFINED_HEIGHT_BEGIN
1070
    46
1040
6.070361692014189
1000
ACAD_MTEXT_DEFINED_HEIGHT_END
  0
ARC
  5
12A36
330
10FE8
100
AcDbEntity
  8
图框
 62
     4
370
    35
100
AcDbCircle
 10
1086.900627017421
 20
490.0179944151195
 30
0.0
 40
4.063310408393665
100
AcDbArc
 50
18.95237904564806
 51
161.0476209543519
1001
AcDbBlockRepETag
1070
     1
1071
      123
1005
12A36
  0
ARC
  5
12A37
330
10FE8
100
AcDbEntity
  8
图框
 62
     4
370
    35
100
AcDbCircle
 10
1086.900627017421
 20
490.0179944151195
 30
0.0
 40
4.063310408393665
100
AcDbArc
 50
198.952379045648
 51
341.0476209543519
1001
AcDbBlockRepETag
1070
     1
1071
      124
1005
12A37
  0
LINE
  5
12A38
330
10FE8
100
AcDbEntity
  8
图框
 62
     4
370
    35
100
AcDbLine
 10
1083.057593369548
 20
488.6983035966752
 30
0.0
 11
1090.74366066529
 21
488.6983035966752
 31
0.0
1001
AcDbBlockRepETag
1070
     1
1071
      125
1005
12A38
  0
LINE
  5
12A39
330
10FE8
100
AcDbEntity
  8
图框
 62
     4
370
    35
100
AcDbLine
 10
1083.057593369548
 20
491.3376852335652
 30
0.0
 11
1090.74366066529
 21
491.3376852335652
 31
0.0
1001
AcDbBlockRepETag
1070
     1
1071
      126
1005
12A39
  0
MTEXT
  5
12A3A
330
10FE8
100
AcDbEntity
  8
图框
 62
     1
370
    20
100
AcDbMText
 10
1083.034582879669
 20
491.0506288081688
 30
0.0
 40
2.005930044038334
 41
5.047240019334847
 71
     1
 72
     5
  1
{\fArial|b0|i0|c0|p34;W}
  7
Chinese
 73
     1
 44
1.0
1001
AcDbBlockRepETag
1070
     1
1071
      127
1005
12A3A
1001
ACAD
1000
MTEXTBEGIN
1070
    73
1070
     1
1070
    44
1040
1.0
1070
    74
1070
     0
1000
MTEXTEND
  0
LINE
  5
12A3B
330
10FE8
100
AcDbEntity
  8
图框
370
    -3
100
AcDbLine
 10
946.9285026103634
 20
490.327427634663
 30
0.0
 11
1036.653967466372
 21
490.327427634663
 31
0.0
1001
AcDbBlockRepETag
1070
     1
1071
      128
1005
12A3B
  0
LINE
  5
12A3C
330
10FE8
100
AcDbEntity
  8
图框
370
    -3
100
AcDbLine
 10
959.9086139692238
 20
509.2054027581959
 30
0.0
 11
959.9086139692238
 21
484.0347692601515
 31
0.0
1001
AcDbBlockRepETag
1070
     1
1071
      129
1005
12A3C
  0
MTEXT
  5
12A3D
330
10FE8
100
AcDbEntity
  8
图框
100
AcDbMText
 10
967.6594956750129
 20
506.0590735709403
 30
0.0
 40
2.252848170144607
 41
15.50176341157869
 71
     5
 72
     5
  1
姓名{\Fromans|c134;/Name\Ftxt|c134; }
 73
     1
 44
1.0
1001
AcDbBlockRepETag
1070
     1
1071
      130
1005
12A3D
1001
ACAD
1000
MTEXTBEGIN
1070
    73
1070
     1
1070
    44
1040
1.0
1070
    74
1070
     0
1000
MTEXTEND
1000
ACAD_MTEXT_DEFINED_HEIGHT_BEGIN
1070
    46
1040
6.292658374511246
1000
ACAD_MTEXT_DEFINED_HEIGHT_END
  0
MTEXT
  5
12A3E
330
10FE8
100
AcDbEntity
  8
图框
100
AcDbMText
 10
983.0415693332477
 20
506.0590735709403
 30
0.0
 40
2.252848170144607
 41
15.26238390489042
 71
     5
 72
     5
  1
日期{\Fromans|c134;/Date}
 73
     1
 44
1.0
1001
AcDbBlockRepETag
1070
     1
1071
      131
1005
12A3E
1001
ACAD
1000
MTEXTBEGIN
1070
    73
1070
     1
1070
    44
1040
1.0
1070
    74
1070
     0
1000
MTEXTEND
1000
ACAD_MTEXT_DEFINED_HEIGHT_BEGIN
1070
    46
1040
6.2926583745112
1000
ACAD_MTEXT_DEFINED_HEIGHT_END
  0
LINE
  5
12A3F
330
10FE8
100
AcDbEntity
  8
图框
370
    -3
100
AcDbLine
 10
946.9285026103634
 20
509.2054027581959
 30
0.0
 11
959.9086139692238
 21
502.9127443836848
 31
0.0
1001
AcDbBlockRepETag
1070
     1
1071
      132
1005
12A3F
  0
MTEXT
  5
12A40
330
10FE8
100
AcDbEntity
  8
图框
100
AcDbMText
 10
1012.931405110086
 20
506.0185715840725
 30
0.0
 40
2.252848170144607
 41
16.93492221063566
 71
     5
 72
     5
  1
姓名{\Fromans|c134;/Name}
 73
     1
 44
1.0
1001
AcDbBlockRepETag
1070
     1
1071
      133
1005
12A40
1001
ACAD
1000
MTEXTBEGIN
1070
    73
1070
     1
1070
    44
1040
1.0
1070
    74
1070
     0
1000
MTEXTEND
  0
MTEXT
  5
12A41
330
10FE8
100
AcDbEntity
  8
图框
100
AcDbMText
 10
1028.977802139886
 20
506.0590735709403
 30
0.0
 40
2.252848170144607
 41
15.35233065297283
 71
     5
 72
     5
  1
日期{\Fromans|c134;/Date}
 73
     1
 44
1.0
1001
AcDbBlockRepETag
1070
     1
1071
      134
1005
12A41
1001
ACAD
1000
MTEXTBEGIN
1070
    73
1070
     1
1070
    44
1040
1.0
1070
    74
1070
     0
1000
MTEXTEND
1000
ACAD_MTEXT_DEFINED_HEIGHT_BEGIN
1070
    46
1040
6.292658374511256
1000
ACAD_MTEXT_DEFINED_HEIGHT_END
  0
LINE
  5
12A42
330
10FE8
100
AcDbEntity
  8
图框
370
    -3
100
AcDbLine
 10
1003.652872644553
 20
502.9127443836848
 30
0.0
 11
990.6727612856927
 21
509.2054027581959
 31
0.0
1001
AcDbBlockRepETag
1070
     1
1071
      135
1005
12A42
  0
MTEXT
  5
12A43
102
{ACAD_XDICTIONARY
360
12A72
102
}
330
10FE8
100
AcDbEntity
  8
图框
100
AcDbMText
 10
997.1628169651232
 20
487.1810984474071
 30
0.0
 40
2.252848170144607
 41
12.98011135886052
 71
     5
 72
     5
  1
批准\P{\Fromans|c134;Approved}
 73
     1
 44
1.0
1001
AcDbBlockRepETag
1070
     1
1071
      136
1005
12A43
1001
ACAD
1000
MTEXTBEGIN
1070
    73
1070
     1
1070
    44
1040
1.0
1070
    74
1070
     0
1000
MTEXTEND
1000
ACAD_MTEXT_DEFINED_HEIGHT_BEGIN
1070
    46
1040
6.292658374511517
1000
ACAD_MTEXT_DEFINED_HEIGHT_END
  0
MTEXT
  5
12A44
102
{ACAD_XDICTIONARY
360
12A74
102
}
330
10FE8
100
AcDbEntity
  8
图框
100
AcDbMText
 10
953.4185582897936
 20
487.1810984474071
 30
0.0
 40
2.252848170144607
 41
12.98011135886041
 71
     5
 72
     5
  1
工艺\P{\Fromans|c134;Process}
 73
     1
 44
1.0
1001
AcDbBlockRepETag
1070
     1
1071
      137
1005
12A44
1001
ACAD
1000
MTEXTBEGIN
1070
    73
1070
     1
1070
    44
1040
1.0
1070
    74
1070
     0
1000
MTEXTEND
1000
ACAD_MTEXT_DEFINED_HEIGHT_BEGIN
1070
    46
1040
6.292658374511495
1000
ACAD_MTEXT_DEFINED_HEIGHT_END
  0
MTEXT
  5
12A45
102
{ACAD_XDICTIONARY
360
12A76
102
}
330
10FE8
100
AcDbEntity
  8
图框
100
AcDbMText
 10
1028.977802139886
 20
511.8287965307664
 30
0.0
 40
1.958998408821398
 41
15.3523306529728
 71
     5
 72
     5
  1
日期\P{\Fromans|c134;Date}
 73
     1
 44
1.0
1001
AcDbBlockRepETag
1070
     1
1071
      138
1005
12A45
1001
ACAD
1000
MTEXTBEGIN
1070
    73
1070
     1
1070
    44
1040
1.0
1070
    74
1070
     0
1000
MTEXTEND
1000
ACAD_MTEXT_DEFINED_HEIGHT_BEGIN
1070
    46
1040
5.246787545140668
1000
ACAD_MTEXT_DEFINED_HEIGHT_END
  0
MTEXT
  5
12A46
330
10FE8
100
AcDbEntity
  8
图框
100
AcDbMText
 10
1086.643735910939
 20
509.1493769780809
 30
0.0
 40
2.154898249703542
 41
13.34474941400573
 71
     5
 72
     5
  1
产品料号\P{\Fromans|c134;Part No.}
 73
     1
 44
1.0
1001
AcDbBlockRepETag
1070
     1
1071
      139
1005
12A46
1001
ACAD
1000
MTEXTBEGIN
1070
    73
1070
     1
1070
    44
1040
1.0
1070
    74
1070
     0
1000
MTEXTEND
1000
ACAD_MTEXT_DEFINED_HEIGHT_BEGIN
1070
    46
1040
8.87215554796615
1000
ACAD_MTEXT_DEFINED_HEIGHT_END
  0
MTEXT
  5
12A47
330
10FE8
100
AcDbEntity
  8
图框
100
AcDbMText
 10
1086.643735910939
 20
500.2775205517163
 30
0.0
 40
1.958998408821398
 41
13.34474941400573
 71
     5
 72
     5
  1
产品名称\P{\Fromans|c134;Part Name}
 73
     1
 44
1.0
1001
AcDbBlockRepETag
1070
     1
1071
      140
1005
12A47
1001
ACAD
1000
MTEXTBEGIN
1070
    73
1070
     1
1070
    44
1040
1.0
1070
    74
1070
     0
1000
MTEXTEND
1000
ACAD_MTEXT_DEFINED_HEIGHT_BEGIN
1070
    46
1040
8.871557304763321
1000
ACAD_MTEXT_DEFINED_HEIGHT_END
  0
LINE
  5
12A48
330
10FE8
100
AcDbEntity
  8
图框
 62
     1
370
    18
100
AcDbLine
 10
833.4128518455365
 20
690.5347692601515
 30
0.0
 11
833.4128518455365
 21
480.5347692601515
 31
0.0
1001
AcDbBlockRepETag
1070
     1
1071
      141
1005
12A48
  0
LINE
  5
12A49
330
10FE8
100
AcDbEntity
  8
图框
 62
     1
370
    18
100
AcDbLine
 10
833.4128518455365
 20
480.5347692601515
 30
0.0
 11
1130.411601781236
 21
480.5347692601515
 31
0.0
1001
AcDbBlockRepETag
1070
     1
1071
      142
1005
12A49
  0
LINE
  5
12A4A
330
10FE8
100
AcDbEntity
  8
图框
 62
     1
370
    18
100
AcDbLine
 10
833.4128518455365
 20
690.5347692601515
 30
0.0
 11
1130.411601781236
 21
690.5347692601515
 31
0.0
1001
AcDbBlockRepETag
1070
     1
1071
      143
1005
12A4A
  0
LINE
  5
12A4B
330
10FE8
100
AcDbEntity
  8
图框
 62
     1
370
    18
100
AcDbLine
 10
1130.411601781236
 20
480.5347692601515
 30
0.0
 11
1130.411601781236
 21
690.5347692601515
 31
0.0
1001
AcDbBlockRepETag
1070
     1
1071
      144
1005
12A4B
  0
LINE
  5
12A4C
330
10FE8
100
AcDbEntity
  8
图框
370
    18
100
AcDbLine
 10
836.9128518455394
 20
686.7901958362482
 30
0.0
 11
861.5351874539182
 21
686.7901958362482
 31
0.0
1001
AcDbBlockRepETag
1070
     1
1071
      145
1005
12A4C
  0
LINE
  5
12A4D
330
10FE8
100
AcDbEntity
  8
图框
370
    50
100
AcDbLine
 10
1126.928502610363
 20
484.3410054693078
 30
0.0
 11
1126.928502610363
 21
675.5347692601515
 31
0.0
1001
AcDbBlockRepETag
1070
     1
1071
      146
1005
12A4D
  0
MTEXT
  5
12A4E
330
10FE8
100
AcDbEntity
  8
图框
 62
     3
100
AcDbMText
 10
1052.897990117958
 20
495.8417418993364
 30
0.0
 40
2.985513575034151
 41
10.82934843439114
 71
     5
 72
     5
  1
V1.0
  7
Romans字体
 73
     1
 44
1.0
1001
AcDbBlockRepETag
1070
     1
1071
      147
1005
12A4E
1001
ACAD
1000
MTEXTBEGIN
1070
    73
1070
     1
1070
    44
1040
1.0
1070
    74
1070
     0
1000
MTEXTEND
1000
ACAD_MTEXT_DEFINED_HEIGHT_BEGIN
1070
    46
1040
7.886094601211307
1000
ACAD_MTEXT_DEFINED_HEIGHT_END
  0
ENDBLK
  5
1107F
330
10FE8
100
AcDbEntity
  8
0
100
AcDbBlockEnd
  0
BLOCK
  5
126B8
330
126B7
100
AcDbEntity
  8
0
100
AcDbBlockBegin
  2
*D2
 70
     1
 10
0.0
 20
0.0
 30
0.0
  3
*D2
  1

  0
LINE
  5
1275C
330
126B7
100
AcDbEntity
  8
DIM
 62
     6
370
    -2
100
AcDbLine
 10
441.8461833115934
 20
297.4307058410202
 30
0.0
 11
441.8461833115934
 21
315.2657918985815
 31
0.0
  0
LINE
  5
1275D
330
126B7
100
AcDbEntity
  8
DIM
 62
     6
370
    -2
100
AcDbLine
 10
476.0461783115934
 20
297.4307058410202
 30
0.0
 11
476.0461783115934
 21
315.2657918985815
 31
0.0
  0
LINE
  5
1275E
330
126B7
100
AcDbEntity
  8
DIM
 62
     1
370
    -2
100
AcDbLine
 10
444.8461833115934
 20
314.0657918985815
 30
0.0
 11
473.0461783115933
 21
314.0657918985815
 31
0.0
  0
SOLID
  5
1275F
330
126B7
100
AcDbEntity
  8
DIM
 62
     1
100
AcDbTrace
 10
444.8461833115934
 20
314.5657918985815
 30
0.0
 11
444.8461833115934
 21
313.5657918985815
 31
0.0
 12
441.8461833115934
 22
314.0657918985815
 32
0.0
 13
441.8461833115934
 23
314.0657918985815
 33
0.0
  0
SOLID
  5
12760
330
126B7
100
AcDbEntity
  8
DIM
 62
     1
100
AcDbTrace
 10
473.0461783115933
 20
314.5657918985815
 30
0.0
 11
473.0461783115933
 21
313.5657918985815
 31
0.0
 12
476.0461783115934
 22
314.0657918985815
 32
0.0
 13
476.0461783115934
 23
314.0657918985815
 33
0.0
  0
MTEXT
  5
12761
330
126B7
100
AcDbEntity
  8
DIM
 62
     4
100
AcDbMText
 10
458.9461808115934
 20
316.6157918985815
 30
0.0
 40
3.5
 41
0.0
 71
     5
 72
     1
  1
\A1;34.2
  7
Romans字体
 73
     1
 44
1.0
1001
ACAD
1000
MTEXTBEGIN
1070
    73
1070
     1
1070
    44
1040
1.0
1070
    74
1070
     0
1000
MTEXTEND
  0
POINT
  5
12762
330
126B7
100
AcDbEntity
  8
Defpoints
 62
     0
100
AcDbPoint
 10
441.8461833115934
 20
297.2307058410202
 30
0.0
  0
POINT
  5
12763
330
126B7
100
AcDbEntity
  8
Defpoints
 62
     0
100
AcDbPoint
 10
476.0461783115934
 20
297.2307058410202
 30
0.0
  0
POINT
  5
12764
330
126B7
100
AcDbEntity
  8
Defpoints
 62
     0
100
AcDbPoint
 10
476.0461783115934
 20
314.0657918985815
 30
0.0
  0
ENDBLK
  5
126B9
330
126B7
100
AcDbEntity
  8
0
100
AcDbBlockEnd
  0
BLOCK
  5
126C5
330
126C4
100
AcDbEntity
  8
0
100
AcDbBlockBegin
  2
*D3
 70
     1
 10
0.0
 20
0.0
 30
0.0
  3
*D3
  1

  0
LINE
  5
12765
330
126C4
100
AcDbEntity
  8
DIM
 62
     6
370
    -2
100
AcDbLine
 10
474.2961783115648
 20
346.4891694144092
 30
0.0
 11
484.6821943351637
 21
346.4891694144092
 31
0.0
  0
LINE
  5
12766
330
126C4
100
AcDbEntity
  8
DIM
 62
     6
370
    -2
100
AcDbLine
 10
474.2961833115933
 20
331.8891694144093
 30
0.0
 11
484.6821943351637
 21
331.8891694144093
 31
0.0
  0
LINE
  5
12767
330
126C4
100
AcDbEntity
  8
DIM
 62
     1
370
    -2
100
AcDbLine
 10
483.482194335164
 20
343.4891694144092
 30
0.0
 11
483.482194335164
 21
334.8891694144093
 31
0.0
  0
SOLID
  5
12768
330
126C4
100
AcDbEntity
  8
DIM
 62
     1
100
AcDbTrace
 10
482.9821943351638
 20
343.4891694144092
 30
0.0
 11
483.982194335164
 21
343.4891694144092
 31
0.0
 12
483.482194335164
 22
346.4891694144092
 32
0.0
 13
483.482194335164
 23
346.4891694144092
 33
0.0
  0
SOLID
  5
12769
330
126C4
100
AcDbEntity
  8
DIM
 62
     1
100
AcDbTrace
 10
482.9821943351638
 20
334.8891694144093
 30
0.0
 11
483.982194335164
 21
334.8891694144093
 31
0.0
 12
483.482194335164
 22
331.8891694144093
 32
0.0
 13
483.482194335164
 23
331.8891694144093
 33
0.0
  0
MTEXT
  5
1276A
330
126C4
100
AcDbEntity
  8
DIM
 62
     4
100
AcDbMText
 10
480.9321943351639
 20
339.1891694144093
 30
0.0
 40
3.5
 41
0.0
 71
     5
 72
     1
  1
\A1;14.6
  7
Romans字体
 11
0.0000000000000001
 21
1.0
 31
0.0
 73
     1
 44
1.0
1001
ACAD
1000
MTEXTBEGIN
1070
    73
1070
     1
1070
    44
1040
1.0
1070
    74
1070
     0
1000
MTEXTEND
  0
POINT
  5
1276B
330
126C4
100
AcDbEntity
  8
Defpoints
 62
     0
100
AcDbPoint
 10
474.0961783115649
 20
346.4891694144092
 30
0.0
  0
POINT
  5
1276C
330
126C4
100
AcDbEntity
  8
Defpoints
 62
     0
100
AcDbPoint
 10
474.0961833115933
 20
331.8891694144093
 30
0.0
  0
POINT
  5
1276D
330
126C4
100
AcDbEntity
  8
Defpoints
 62
     0
100
AcDbPoint
 10
483.482194335164
 20
331.8891694144093
 30
0.0
  0
ENDBLK
  5
126C6
330
126C4
100
AcDbEntity
  8
0
100
AcDbBlockEnd
  0
BLOCK
  5
126D2
330
126D1
100
AcDbEntity
  8
0
100
AcDbBlockBegin
  2
*D4
 70
     1
 10
0.0
 20
0.0
 30
0.0
  3
*D4
  1

  0
LINE
  5
1276E
330
126D1
100
AcDbEntity
  8
DIM
 62
     6
370
    -2
100
AcDbLine
 10
506.6797805584311
 20
307.6307058410205
 30
0.0
 11
520.2346918794753
 21
307.6307058410205
 31
0.0
  0
LINE
  5
1276F
330
126D1
100
AcDbEntity
  8
DIM
 62
     6
370
    -2
100
AcDbLine
 10
506.6797805584311
 20
265.2307058410203
 30
0.0
 11
520.2346918794753
 21
265.2307058410203
 31
0.0
  0
LINE
  5
12770
330
126D1
100
AcDbEntity
  8
DIM
 62
     1
370
    -2
100
AcDbLine
 10
519.0346918794753
 20
304.6307058410205
 30
0.0
 11
519.0346918794753
 21
268.2307058410203
 31
0.0
  0
SOLID
  5
12771
330
126D1
100
AcDbEntity
  8
DIM
 62
     1
100
AcDbTrace
 10
518.5346918794753
 20
304.6307058410205
 30
0.0
 11
519.5346918794752
 21
304.6307058410205
 31
0.0
 12
519.0346918794753
 22
307.6307058410205
 32
0.0
 13
519.0346918794753
 23
307.6307058410205
 33
0.0
  0
SOLID
  5
12772
330
126D1
100
AcDbEntity
  8
DIM
 62
     1
100
AcDbTrace
 10
518.5346918794753
 20
268.2307058410203
 30
0.0
 11
519.5346918794752
 21
268.2307058410203
 31
0.0
 12
519.0346918794753
 22
265.2307058410203
 32
0.0
 13
519.0346918794753
 23
265.2307058410203
 33
0.0
  0
MTEXT
  5
12773
330
126D1
100
AcDbEntity
  8
DIM
 62
     4
100
AcDbMText
 10
516.4846918794751
 20
286.4307058410205
 30
0.0
 40
3.5
 41
0.0
 71
     5
 72
     1
  1
\A1;42.4
  7
Romans字体
 11
0.0000000000000001
 21
1.0
 31
0.0
 73
     1
 44
1.0
1001
ACAD
1000
MTEXTBEGIN
1070
    73
1070
     1
1070
    44
1040
1.0
1070
    74
1070
     0
1000
MTEXTEND
  0
POINT
  5
12774
330
126D1
100
AcDbEntity
  8
Defpoints
 62
     0
100
AcDbPoint
 10
506.4797805584311
 20
307.6307058410205
 30
0.0
  0
POINT
  5
12775
330
126D1
100
AcDbEntity
  8
Defpoints
 62
     0
100
AcDbPoint
 10
506.4797805584311
 20
265.2307058410203
 30
0.0
  0
POINT
  5
12776
330
126D1
100
AcDbEntity
  8
Defpoints
 62
     0
100
AcDbPoint
 10
519.0346918794753
 20
265.2307058410203
 30
0.0
  0
ENDBLK
  5
126D3
330
126D1
100
AcDbEntity
  8
0
100
AcDbBlockEnd
  0
ENDSEC
  0
SECTION
  2
ENTITIES
  0
HATCH
  5
28AE
330
1F
100
AcDbEntity
  8
图层 1
 62
     7
100
AcDbHatch
 10
0.0
 20
0.0
 30
0.0
210
0.0
220
0.0
230
1.0
  2
SOLID
 70
     1
 71
     0
 91
        1
 92
        1
 93
        2
 72
     4
 94
        3
 73
     0
 74
     0
 95
       17
 96
       13
 40
0.0
 40
0.0
 40
0.0
 40
0.0
 40
0.3527780104152769
 40
0.3527780104152769
 40
0.3527780104152769
 40
0.7055560208305538
 40
0.7055560208305538
 40
0.7055560208305538
 40
1.058334031245828
 40
1.058334031245828
 40
1.058334031245828
 40
1.411112041661104
 40
1.411112041661104
 40
1.411112041661104
 40
1.411112041661104
 10
11.07013262565829
 20
29.50312817963231
 10
11.07013262565829
 20
29.50312817963231
 10
10.9431807732774
 20
29.50312817963231
 10
10.9431807732774
 20
29.50312817963231
 10
10.9431807732774
 20
29.50312817963231
 10
10.85843136843155
 20
29.22786486877117
 10
10.85843136843155
 20
29.22786486877117
 10
10.85843136843155
 20
29.22786486877117
 10
10.90080607085448
 20
29.2068497724476
 10
10.90080607085448
 20
29.2068497724476
 10
10.94455881238059
 20
29.31571486159919
 10
11.00346998404173
 20
29.40907701083995
 10
11.07013262565829
 20
29.50312817963231
 72
     1
 10
11.07013262565829
 20
29.50312817963231
 11
11.07013262565829
 21
29.50312817963231
 97
        0
 75
     0
 76
     1
 98
        0
  0
HATCH
  5
2C65
330
1F
100
AcDbEntity
  8
图层 1
 62
     7
100
AcDbHatch
 10
0.0
 20
0.0
 30
0.0
210
0.0
220
0.0
230
1.0
  2
SOLID
 70
     1
 71
     0
 91
        1
 92
        1
 93
        2
 72
     4
 94
        3
 73
     0
 74
     0
 95
       47
 96
       43
 40
0.0
 40
0.0
 40
0.0
 40
0.0
 40
0.3527780104152769
 40
0.3527780104152769
 40
0.3527780104152769
 40
0.7055560208305538
 40
0.7055560208305538
 40
0.7055560208305538
 40
1.058334031245828
 40
1.058334031245828
 40
1.058334031245828
 40
1.411112041661104
 40
1.411112041661104
 40
1.411112041661104
 40
1.763890052076384
 40
1.763890052076384
 40
1.763890052076384
 40
2.116668062491659
 40
2.116668062491659
 40
2.116668062491659
 40
2.469446072906936
 40
2.469446072906936
 40
2.469446072906936
 40
2.822224083322215
 40
2.822224083322215
 40
2.822224083322215
 40
3.175002093737492
 40
3.175002093737492
 40
3.175002093737492
 40
3.527780104152768
 40
3.527780104152768
 40
3.527780104152768
 40
3.880558114568044
 40
3.880558114568044
 40
3.880558114568044
 40
4.233336124983321
 40
4.233336124983321
 40
4.233336124983321
 40
4.586114135398599
 40
4.586114135398599
 40
4.586114135398599
 40
4.938892145813873
 40
4.938892145813873
 40
4.938892145813873
 40
4.938892145813873
 10
162.8986914070121
 20
257.4895347631509
 10
162.8986914070121
 20
257.4895347631509
 10
162.9200510131114
 20
257.4471600607279
 10
162.9200510131114
 20
257.4471600607279
 10
162.9200510131114
 20
257.4471600607279
 10
162.9200510131114
 20
257.404785358305
 10
162.9200510131114
 20
257.404785358305
 10
162.9200510131114
 20
257.404785358305
 10
162.8986914070121
 20
257.36258291077
 10
162.8986914070121
 20
257.36258291077
 10
162.8986914070121
 20
257.36258291077
 10
162.8986914070121
 20
257.320208208347
 10
162.8986914070121
 20
257.320208208347
 10
162.8986914070121
 20
257.320208208347
 10
162.8563167045891
 20
257.2990208571356
 10
162.8563167045891
 20
257.2990208571356
 10
162.8563167045891
 20
257.2990208571356
 10
162.8139420021662
 20
257.2563016449369
 10
162.8139420021662
 20
257.2563016449369
 10
162.8139420021662
 20
257.2563016449369
 10
162.7295371070961
 20
257.2563016449369
 10
162.7295371070961
 20
257.2563016449369
 10
162.7295371070961
 20
257.2563016449369
 10
162.6658027985738
 20
257.2778335059241
 10
162.6658027985738
 20
257.2778335059241
 10
162.6658027985738
 20
257.2778335059241
 10
162.6237726059267
 20
257.2990208571356
 10
162.6237726059267
 20
257.2990208571356
 10
162.6237726059267
 20
257.2990208571356
 10
162.5813979035038
 20
257.3413955595585
 10
162.5813979035038
 20
257.3413955595585
 10
162.5813979035038
 20
257.3413955595585
 10
162.5813979035038
 20
257.4895347631509
 10
162.5813979035038
 20
257.4895347631509
 10
162.5813979035038
 20
257.4895347631509
 10
162.6447877022503
 20
257.5525800521216
 10
162.6447877022503
 20
257.5525800521216
 10
162.6447877022503
 20
257.5525800521216
 10
162.7081775009967
 20
257.5525800521216
 10
162.7081775009967
 20
257.5525800521216
 10
162.8749202324821
 20
257.5424170137356
 10
162.7918933765152
 20
257.5939212252171
 10
162.8986914070121
 20
257.4895347631509
 72
     1
 10
162.8986914070121
 20
257.4895347631509
 11
162.8986914070121
 21
257.4895347631509
 97
        0
 75
     0
 76
     1
 98
        0
  0
HATCH
  5
2EE7
330
1F
100
AcDbEntity
  8
图层 1
 62
     7
100
AcDbHatch
 10
0.0
 20
0.0
 30
0.0
210
0.0
220
0.0
230
1.0
  2
SOLID
 70
     1
 71
     0
 91
        1
 92
        1
 93
        2
 72
     4
 94
        3
 73
     0
 74
     0
 95
       56
 96
       52
 40
0.0
 40
0.0
 40
0.0
 40
0.0
 40
0.3527780104152769
 40
0.3527780104152769
 40
0.3527780104152769
 40
0.7055560208305538
 40
0.7055560208305538
 40
0.7055560208305538
 40
1.058334031245828
 40
1.058334031245828
 40
1.058334031245828
 40
1.411112041661104
 40
1.411112041661104
 40
1.411112041661104
 40
1.763890052076384
 40
1.763890052076384
 40
1.763890052076384
 40
2.116668062491659
 40
2.116668062491659
 40
2.116668062491659
 40
2.469446072906936
 40
2.469446072906936
 40
2.469446072906936
 40
2.822224083322215
 40
2.822224083322215
 40
2.822224083322215
 40
3.175002093737492
 40
3.175002093737492
 40
3.175002093737492
 40
3.527780104152768
 40
3.527780104152768
 40
3.527780104152768
 40
3.880558114568044
 40
3.880558114568044
 40
3.880558114568044
 40
4.233336124983321
 40
4.233336124983321
 40
4.233336124983321
 40
4.586114135398599
 40
4.586114135398599
 40
4.586114135398599
 40
4.938892145813873
 40
4.938892145813873
 40
4.938892145813873
 40
5.291670156229153
 40
5.291670156229153
 40
5.291670156229153
 40
5.64444816664443
 40
5.64444816664443
 40
5.64444816664443
 40
5.997226177059705
 40
5.997226177059705
 40
5.997226177059705
 40
5.997226177059705
 10
185.4837187788815
 20
241.4451977396596
 10
185.4837187788815
 20
241.4451977396596
 10
185.4837187788815
 20
241.4028230372367
 10
185.4837187788815
 20
241.4028230372367
 10
185.4837187788815
 20
241.4028230372367
 10
185.5047338752051
 20
241.3604483348137
 10
185.5047338752051
 20
241.3604483348137
 10
185.4520238795082
 20
241.2782827532863
 10
185.4671823096433
 20
241.1897437409066
 10
185.335579575289
 20
241.2119646214456
 10
185.335579575289
 20
241.2119646214456
 10
185.2932048728662
 20
241.2119646214456
 10
185.2932048728662
 20
241.2119646214456
 10
185.2932048728662
 20
241.2119646214456
 10
185.2294705643439
 20
241.2334964824328
 10
185.2294705643439
 20
241.2334964824328
 10
185.2294705643439
 20
241.2334964824328
 10
185.1660807655974
 20
241.2543393238685
 10
185.1660807655974
 20
241.2543393238685
 10
185.1660807655974
 20
241.2543393238685
 10
185.1450656692739
 20
241.2758711848558
 10
185.1450656692739
 20
241.2758711848558
 10
185.1450656692739
 20
241.2758711848558
 10
185.1450656692739
 20
241.2967140262914
 10
185.1450656692739
 20
241.2967140262914
 10
185.1450656692739
 20
241.2967140262914
 10
185.1237060631745
 20
241.3604483348137
 10
185.1237060631745
 20
241.3604483348137
 10
185.1237060631745
 20
241.3604483348137
 10
185.1237060631745
 20
241.4028230372367
 10
185.1237060631745
 20
241.4028230372367
 10
185.1237060631745
 20
241.4028230372367
 10
185.1660807655974
 20
241.4875724420825
 10
185.1660807655974
 20
241.4875724420825
 10
185.1660807655974
 20
241.4875724420825
 10
185.2084554680203
 20
241.5085875384061
 10
185.2084554680203
 20
241.5085875384061
 10
185.2084554680203
 20
241.5085875384061
 10
185.2718452667668
 20
241.5297748896175
 10
185.2718452667668
 20
241.5297748896175
 10
185.2718452667668
 20
241.5297748896175
 10
185.3565946716127
 20
241.5297748896175
 10
185.3565946716127
 20
241.5297748896175
 10
185.3565946716127
 20
241.5297748896175
 10
185.4199844703592
 20
241.5085875384061
 10
185.4199844703592
 20
241.5085875384061
 10
185.4199844703592
 20
241.5085875384061
 10
185.4623591727821
 20
241.4875724420825
 10
185.4623591727821
 20
241.4875724420825
 10
185.4623591727821
 20
241.4875724420825
 10
185.4837187788815
 20
241.4451977396596
 10
185.4837187788815
 20
241.4451977396596
 72
     1
 10
185.4837187788815
 20
241.4451977396596
 11
185.4837187788815
 21
241.4451977396596
 97
        0
 75
     0
 76
     1
 98
        0
  0
HATCH
  5
2F93
330
1F
100
AcDbEntity
  8
图层 1
 62
     7
100
AcDbHatch
 10
0.0
 20
0.0
 30
0.0
210
0.0
220
0.0
230
1.0
  2
SOLID
 70
     1
 71
     0
 91
        1
 92
        1
 93
        2
 72
     4
 94
        3
 73
     0
 74
     0
 95
       38
 96
       34
 40
0.0
 40
0.0
 40
0.0
 40
0.0
 40
0.3527780104152769
 40
0.3527780104152769
 40
0.3527780104152769
 40
0.7055560208305538
 40
0.7055560208305538
 40
0.7055560208305538
 40
1.058334031245828
 40
1.058334031245828
 40
1.058334031245828
 40
1.411112041661104
 40
1.411112041661104
 40
1.411112041661104
 40
1.763890052076384
 40
1.763890052076384
 40
1.763890052076384
 40
2.116668062491659
 40
2.116668062491659
 40
2.116668062491659
 40
2.469446072906936
 40
2.469446072906936
 40
2.469446072906936
 40
2.822224083322215
 40
2.822224083322215
 40
2.822224083322215
 40
3.175002093737492
 40
3.175002093737492
 40
3.175002093737492
 40
3.527780104152768
 40
3.527780104152768
 40
3.527780104152768
 40
3.880558114568044
 40
3.880558114568044
 40
3.880558114568044
 40
3.880558114568044
 10
185.907121293335
 20
220.1937677098971
 10
185.9005756075949
 20
220.0449394867532
 10
185.9329595265197
 20
220.1136691870245
 10
185.864746590912
 20
219.9817219428946
 10
185.864746590912
 20
219.9817219428946
 10
185.822371888489
 20
219.9605345916831
 10
185.822371888489
 20
219.9605345916831
 10
185.822371888489
 20
219.9605345916831
 10
185.6528730787974
 20
219.9605345916831
 10
185.6528730787974
 20
219.9605345916831
 10
185.6528730787974
 20
219.9605345916831
 10
185.5894832800509
 20
220.002909294106
 10
185.5894832800509
 20
220.002909294106
 10
185.5894832800509
 20
220.002909294106
 10
185.5681236739515
 20
220.0240966453175
 10
185.5681236739515
 20
220.0240966453175
 10
185.5681236739515
 20
220.0240966453175
 10
185.5681236739515
 20
220.045283996529
 10
185.5681236739515
 20
220.045283996529
 10
185.5681236739515
 20
220.045283996529
 10
185.547108577628
 20
220.0876586989519
 10
185.547108577628
 20
220.0876586989519
 10
185.547108577628
 20
220.0876586989519
 10
185.547108577628
 20
220.1513930074742
 10
185.547108577628
 20
220.1513930074742
 10
185.547108577628
 20
220.1513930074742
 10
185.5894832800509
 20
220.23614241232
 10
185.5894832800509
 20
220.23614241232
 10
185.5894832800509
 20
220.23614241232
 10
185.6318579824738
 20
220.2573297635315
 10
185.6318579824738
 20
220.2573297635315
 10
185.7055830744942
 20
220.2566407439799
 10
185.8416644359337
 20
220.3310548555519
 10
185.907121293335
 20
220.1937677098971
 72
     1
 10
185.907121293335
 20
220.1937677098971
 11
185.907121293335
 21
220.1937677098971
 97
        0
 75
     0
 76
     1
 98
        0
  0
HATCH
  5
2FDE
330
1F
100
AcDbEntity
  8
图层 1
 62
     7
100
AcDbHatch
 10
0.0
 20
0.0
 30
0.0
210
0.0
220
0.0
230
1.0
  2
SOLID
 70
     1
 71
     0
 91
        1
 92
        1
 93
        2
 72
     4
 94
        3
 73
     0
 74
     0
 95
       50
 96
       46
 40
0.0
 40
0.0
 40
0.0
 40
0.0
 40
0.3527780104152769
 40
0.3527780104152769
 40
0.3527780104152769
 40
0.7055560208305538
 40
0.7055560208305538
 40
0.7055560208305538
 40
1.058334031245828
 40
1.058334031245828
 40
1.058334031245828
 40
1.411112041661104
 40
1.411112041661104
 40
1.411112041661104
 40
1.763890052076384
 40
1.763890052076384
 40
1.763890052076384
 40
2.116668062491659
 40
2.116668062491659
 40
2.116668062491659
 40
2.469446072906936
 40
2.469446072906936
 40
2.469446072906936
 40
2.822224083322215
 40
2.822224083322215
 40
2.822224083322215
 40
3.175002093737492
 40
3.175002093737492
 40
3.175002093737492
 40
3.527780104152768
 40
3.527780104152768
 40
3.527780104152768
 40
3.880558114568044
 40
3.880558114568044
 40
3.880558114568044
 40
4.233336124983321
 40
4.233336124983321
 40
4.233336124983321
 40
4.586114135398599
 40
4.586114135398599
 40
4.586114135398599
 40
4.938892145813873
 40
4.938892145813873
 40
4.938892145813873
 40
5.291670156229153
 40
5.291670156229153
 40
5.291670156229153
 40
5.291670156229153
 10
180.9117295442905
 20
208.9327766684477
 10
180.9117295442905
 20
208.9327766684477
 10
180.9117295442905
 20
208.7637946234197
 10
180.9117295442905
 20
208.7637946234197
 10
181.2273004989198
 20
208.6749111012643
 10
181.3833634273555
 20
208.6776671794706
 10
181.6948002646751
 20
208.5097186637701
 10
181.9542161258496
 20
208.4294478860095
 10
182.1388733656765
 20
208.2134402565853
 10
182.3297317814676
 20
208.02292635057
 10
182.3297317814676
 20
208.02292635057
 10
182.435496282637
 20
208.065301052993
 10
182.435496282637
 20
208.065301052993
 10
182.288390608372
 20
208.2733849575739
 10
182.3752070718726
 20
208.2134402565853
 10
182.1605774815516
 20
208.3824223016133
 10
182.1605774815516
 20
208.3824223016133
 10
182.1182027791287
 20
208.4247970040363
 10
182.1182027791287
 20
208.4247970040363
 10
182.1182027791287
 20
208.4247970040363
 10
182.0968431730294
 20
208.467516216235
 10
182.0968431730294
 20
208.467516216235
 10
182.0968431730294
 20
208.467516216235
 10
182.0544684706064
 20
208.4883590576707
 10
182.0544684706064
 20
208.4883590576707
 10
182.0544684706064
 20
208.4883590576707
 10
181.9910786718599
 20
208.5305615052057
 10
181.9910786718599
 20
208.5305615052057
 10
181.9910786718599
 20
208.5305615052057
 10
181.948703969437
 20
208.552093366193
 10
181.948703969437
 20
208.552093366193
 10
181.948703969437
 20
208.552093366193
 10
181.9063292670141
 20
208.5729362076286
 10
181.9063292670141
 20
208.5729362076286
 10
181.9063292670141
 20
208.5729362076286
 10
181.8639545645911
 20
208.6156554198274
 10
181.8639545645911
 20
208.6156554198274
 10
181.8639545645911
 20
208.6156554198274
 10
181.821924371944
 20
208.6368427710388
 10
181.821924371944
 20
208.6368427710388
 10
181.6637943848536
 20
208.6742220817127
 10
181.5452830219797
 20
208.8092699138248
 10
181.3771622513911
 20
208.8061693258427
 10
181.2803550043924
 20
208.8573290275484
 10
181.0126709085988
 20
208.8971199066528
 10
180.9117295442905
 20
208.9327766684477
 72
     1
 10
180.9117295442905
 20
208.9327766684477
 11
180.9117295442905
 21
208.9327766684477
 97
        0
 75
     0
 76
     1
 98
        0
  0
HATCH
  5
35C8
330
1F
100
AcDbEntity
  8
图层 1
 62
     7
100
AcDbHatch
 10
0.0
 20
0.0
 30
0.0
210
0.0
220
0.0
230
1.0
  2
SOLID
 70
     1
 71
     0
 91
        1
 92
        1
 93
        2
 72
     4
 94
        3
 73
     0
 74
     0
 95
       38
 96
       34
 40
0.0
 40
0.0
 40
0.0
 40
0.0
 40
0.3527780104152769
 40
0.3527780104152769
 40
0.3527780104152769
 40
0.7055560208305538
 40
0.7055560208305538
 40
0.7055560208305538
 40
1.058334031245828
 40
1.058334031245828
 40
1.058334031245828
 40
1.411112041661104
 40
1.411112041661104
 40
1.411112041661104
 40
1.763890052076384
 40
1.763890052076384
 40
1.763890052076384
 40
2.116668062491659
 40
2.116668062491659
 40
2.116668062491659
 40
2.469446072906936
 40
2.469446072906936
 40
2.469446072906936
 40
2.822224083322215
 40
2.822224083322215
 40
2.822224083322215
 40
3.175002093737492
 40
3.175002093737492
 40
3.175002093737492
 40
3.527780104152768
 40
3.527780104152768
 40
3.527780104152768
 40
3.880558114568044
 40
3.880558114568044
 40
3.880558114568044
 40
3.880558114568044
 10
189.145513185819
 20
166.8326485368285
 10
189.207869455238
 20
166.740492171803
 10
189.1317327947871
 20
166.6833035490209
 10
189.103138483396
 20
166.6209472796017
 10
189.103138483396
 20
166.6209472796017
 10
189.0607637809731
 20
166.5997599283903
 10
189.0607637809731
 20
166.5997599283903
 10
189.0607637809731
 20
166.5997599283903
 10
188.9973739822266
 20
166.5785725771788
 10
188.9973739822266
 20
166.5785725771788
 10
188.9973739822266
 20
166.5785725771788
 10
188.9549992798037
 20
166.5997599283903
 10
188.9549992798037
 20
166.5997599283903
 10
188.9549992798037
 20
166.5997599283903
 10
188.8916094810572
 20
166.5997599283903
 10
188.8916094810572
 20
166.5997599283903
 10
188.8916094810572
 20
166.5997599283903
 10
188.8492347786343
 20
166.6209472796017
 10
188.8492347786343
 20
166.6209472796017
 10
188.8492347786343
 20
166.6209472796017
 10
188.8278751725349
 20
166.6633219820247
 10
188.8278751725349
 20
166.6633219820247
 10
188.8278751725349
 20
166.6633219820247
 10
188.8068600762114
 20
166.6845093332361
 10
188.8068600762114
 20
166.6845093332361
 10
188.8068600762114
 20
166.6845093332361
 10
188.8068600762114
 20
166.8326485368285
 10
188.8068600762114
 20
166.8326485368285
 10
188.8068600762114
 20
166.8326485368285
 10
188.8702498749578
 20
166.896038335575
 10
188.8702498749578
 20
166.896038335575
 10
189.0228677056355
 20
166.8819134347673
 10
189.0686875058164
 20
166.9411691162043
 10
189.145513185819
 20
166.8326485368285
 72
     1
 10
189.145513185819
 20
166.8326485368285
 11
189.145513185819
 21
166.8326485368285
 97
        0
 75
     0
 76
     1
 98
        0
  0
HATCH
  5
35D8
330
1F
100
AcDbEntity
  8
图层 1
 62
     7
100
AcDbHatch
 10
0.0
 20
0.0
 30
0.0
210
0.0
220
0.0
230
1.0
  2
SOLID
 70
     1
 71
     0
 91
        1
 92
        1
 93
        2
 72
     4
 94
        3
 73
     0
 74
     0
 95
       68
 96
       64
 40
0.0
 40
0.0
 40
0.0
 40
0.0
 40
0.3527780104152769
 40
0.3527780104152769
 40
0.3527780104152769
 40
0.7055560208305538
 40
0.7055560208305538
 40
0.7055560208305538
 40
1.058334031245828
 40
1.058334031245828
 40
1.058334031245828
 40
1.411112041661104
 40
1.411112041661104
 40
1.411112041661104
 40
1.763890052076384
 40
1.763890052076384
 40
1.763890052076384
 40
2.116668062491659
 40
2.116668062491659
 40
2.116668062491659
 40
2.469446072906936
 40
2.469446072906936
 40
2.469446072906936
 40
2.822224083322215
 40
2.822224083322215
 40
2.822224083322215
 40
3.175002093737492
 40
3.175002093737492
 40
3.175002093737492
 40
3.527780104152768
 40
3.527780104152768
 40
3.527780104152768
 40
3.880558114568044
 40
3.880558114568044
 40
3.880558114568044
 40
4.233336124983321
 40
4.233336124983321
 40
4.233336124983321
 40
4.586114135398599
 40
4.586114135398599
 40
4.586114135398599
 40
4.938892145813873
 40
4.938892145813873
 40
4.938892145813873
 40
5.291670156229153
 40
5.291670156229153
 40
5.291670156229153
 40
5.64444816664443
 40
5.64444816664443
 40
5.64444816664443
 40
5.997226177059705
 40
5.997226177059705
 40
5.997226177059705
 40
6.350004187474984
 40
6.350004187474984
 40
6.350004187474984
 40
6.702782197890257
 40
6.702782197890257
 40
6.702782197890257
 40
7.055560208305537
 40
7.055560208305537
 40
7.055560208305537
 40
7.408338218720808
 40
7.408338218720808
 40
7.408338218720808
 40
7.408338218720808
 10
174.7732543591544
 20
135.4846705078077
 10
174.7732543591544
 20
135.4846705078077
 10
174.7732543591544
 20
135.3789060066383
 10
174.7732543591544
 20
135.3789060066383
 10
174.7732543591544
 20
135.3789060066383
 10
174.8156290615773
 20
135.3789060066383
 10
174.8156290615773
 20
135.3789060066383
 10
174.8156290615773
 20
135.3789060066383
 10
174.8580037640002
 20
135.3578909103147
 10
174.8580037640002
 20
135.3578909103147
 10
174.8580037640002
 20
135.3578909103147
 10
174.9213935627468
 20
135.3578909103147
 10
174.9213935627468
 20
135.3578909103147
 10
174.9213935627468
 20
135.3578909103147
 10
174.9637682651697
 20
135.3365313042154
 10
174.9637682651697
 20
135.3365313042154
 10
174.9637682651697
 20
135.3365313042154
 10
174.9847833614933
 20
135.3365313042154
 10
174.9847833614933
 20
135.3365313042154
 10
174.9847833614933
 20
135.3365313042154
 10
175.0271580639162
 20
135.3155162078918
 10
175.0271580639162
 20
135.3155162078918
 10
175.0271580639162
 20
135.3155162078918
 10
175.0485176700155
 20
135.2941566017924
 10
175.0485176700155
 20
135.2941566017924
 10
175.0485176700155
 20
135.2941566017924
 10
175.0695327663391
 20
135.2941566017924
 10
175.0695327663391
 20
135.2941566017924
 10
175.0695327663391
 20
135.2941566017924
 10
175.0908923724385
 20
135.2731415054689
 10
175.0908923724385
 20
135.2731415054689
 10
175.0908923724385
 20
135.2731415054689
 10
175.1332670748614
 20
135.2731415054689
 10
175.1332670748614
 20
135.2731415054689
 10
175.1332670748614
 20
135.2731415054689
 10
175.154282171185
 20
135.2517818993695
 10
175.154282171185
 20
135.2517818993695
 10
175.154282171185
 20
135.2517818993695
 10
175.154282171185
 20
135.3578909103147
 10
175.154282171185
 20
135.3578909103147
 10
175.154282171185
 20
135.3578909103147
 10
175.1332670748614
 20
135.3789060066383
 10
175.1332670748614
 20
135.3789060066383
 10
175.1332670748614
 20
135.3789060066383
 10
175.0908923724385
 20
135.3789060066383
 10
175.0908923724385
 20
135.3789060066383
 10
175.0908923724385
 20
135.3789060066383
 10
175.0908923724385
 20
135.3999211029619
 10
175.0908923724385
 20
135.3999211029619
 10
175.0908923724385
 20
135.3999211029619
 10
175.0695327663391
 20
135.3999211029619
 10
175.0695327663391
 20
135.3999211029619
 10
175.0695327663391
 20
135.3999211029619
 10
175.0271580639162
 20
135.4212807090612
 10
175.0271580639162
 20
135.4212807090612
 10
175.0271580639162
 20
135.4212807090612
 10
175.0061429675926
 20
135.4212807090612
 10
175.0061429675926
 20
135.4212807090612
 10
175.0061429675926
 20
135.4212807090612
 10
174.9637682651697
 20
135.4422958053848
 10
174.9637682651697
 20
135.4422958053848
 10
174.8996894468716
 20
135.4498750204523
 10
174.8394002361073
 20
135.4860485469109
 10
174.7732543591544
 20
135.4846705078077
 72
     1
 10
174.7732543591544
 20
135.4846705078077
 11
174.7732543591544
 21
135.4846705078077
 97
        0
 75
     0
 76
     1
 98
        0
  0
HATCH
  5
3807
330
1F
100
AcDbEntity
  8
图层 1
 62
     7
100
AcDbHatch
 10
0.0
 20
0.0
 30
0.0
210
0.0
220
0.0
230
1.0
  2
SOLID
 70
     1
 71
     0
 91
        1
 92
        1
 93
        2
 72
     4
 94
        3
 73
     0
 74
     0
 95
       29
 96
       25
 40
0.0
 40
0.0
 40
0.0
 40
0.0
 40
0.3527780104152769
 40
0.3527780104152769
 40
0.3527780104152769
 40
0.7055560208305538
 40
0.7055560208305538
 40
0.7055560208305538
 40
1.058334031245828
 40
1.058334031245828
 40
1.058334031245828
 40
1.411112041661104
 40
1.411112041661104
 40
1.411112041661104
 40
1.763890052076384
 40
1.763890052076384
 40
1.763890052076384
 40
2.116668062491659
 40
2.116668062491659
 40
2.116668062491659
 40
2.469446072906936
 40
2.469446072906936
 40
2.469446072906936
 40
2.822224083322215
 40
2.822224083322215
 40
2.822224083322215
 40
2.822224083322215
 10
175.4929352807925
 20
164.0174869039101
 10
175.4929352807925
 20
164.0174869039101
 10
175.5139503771161
 20
163.9751122014871
 10
175.5139503771161
 20
163.9751122014871
 10
175.5139503771161
 20
163.9751122014871
 10
175.5139503771161
 20
163.9327374990642
 10
175.5139503771161
 20
163.9327374990642
 10
175.5139503771161
 20
163.9327374990642
 10
175.4929352807925
 20
163.8903627966413
 10
175.4929352807925
 20
163.8903627966413
 10
175.4929352807925
 20
163.8903627966413
 10
175.471920184469
 20
163.8691754454298
 10
175.471920184469
 20
163.8691754454298
 10
175.471920184469
 20
163.8691754454298
 10
175.4505605783696
 20
163.8269729978948
 10
175.4505605783696
 20
163.8269729978948
 10
175.3571984291289
 20
163.7715069239916
 10
175.272449024283
 20
163.8195660377152
 10
175.1966568736079
 20
163.8691754454298
 10
175.208370205985
 20
163.9930267098286
 10
175.1563492298397
 20
164.0216210212197
 10
175.2600466723544
 20
164.0596893514451
 10
175.3330827448232
 20
164.1094710140476
 10
175.4357466580104
 20
164.0753645462439
 10
175.4929352807925
 20
164.0174869039101
 72
     1
 10
175.4929352807925
 20
164.0174869039101
 11
175.4929352807925
 21
164.0174869039101
 97
        0
 75
     0
 76
     1
 98
        0
  0
HATCH
  5
3895
330
1F
100
AcDbEntity
  8
图层 1
 62
     7
100
AcDbHatch
 10
0.0
 20
0.0
 30
0.0
210
0.0
220
0.0
230
1.0
  2
SOLID
 70
     1
 71
     0
 91
        1
 92
        1
 93
        2
 72
     4
 94
        3
 73
     0
 74
     0
 95
       11
 96
        7
 40
0.0
 40
0.0
 40
0.0
 40
0.0
 40
0.3527780104152769
 40
0.3527780104152769
 40
0.3527780104152769
 40
0.7055560208305538
 40
0.7055560208305538
 40
0.7055560208305538
 40
0.7055560208305538
 10
174.9213935627468
 20
174.5369206529582
 10
174.9213935627468
 20
174.5369206529582
 10
174.9213935627468
 20
174.3043765542958
 10
174.9213935627468
 20
174.3043765542958
 10
174.9213935627468
 20
174.3043765542958
 10
174.9213935627468
 20
174.5369206529582
 10
174.9213935627468
 20
174.5369206529582
 72
     1
 10
174.9213935627468
 20
174.5369206529582
 11
174.9213935627468
 21
174.5369206529582
 97
        0
 75
     0
 76
     1
 98
        0
  0
HATCH
  5
3943
330
1F
100
AcDbEntity
  8
图层 1
 62
     7
100
AcDbHatch
 10
0.0
 20
0.0
 30
0.0
210
0.0
220
0.0
230
1.0
  2
SOLID
 70
     1
 71
     0
 91
        1
 92
        1
 93
        2
 72
     4
 94
        3
 73
     0
 74
     0
 95
      131
 96
      127
 40
0.0
 40
0.0
 40
0.0
 40
0.0
 40
0.3527780104152769
 40
0.3527780104152769
 40
0.3527780104152769
 40
0.7055560208305538
 40
0.7055560208305538
 40
0.7055560208305538
 40
1.058334031245828
 40
1.058334031245828
 40
1.058334031245828
 40
1.411112041661104
 40
1.411112041661104
 40
1.411112041661104
 40
1.763890052076384
 40
1.763890052076384
 40
1.763890052076384
 40
2.116668062491659
 40
2.116668062491659
 40
2.116668062491659
 40
2.469446072906936
 40
2.469446072906936
 40
2.469446072906936
 40
2.822224083322215
 40
2.822224083322215
 40
2.822224083322215
 40
3.175002093737492
 40
3.175002093737492
 40
3.175002093737492
 40
3.527780104152768
 40
3.527780104152768
 40
3.527780104152768
 40
3.880558114568044
 40
3.880558114568044
 40
3.880558114568044
 40
4.233336124983321
 40
4.233336124983321
 40
4.233336124983321
 40
4.586114135398599
 40
4.586114135398599
 40
4.586114135398599
 40
4.938892145813873
 40
4.938892145813873
 40
4.938892145813873
 40
5.291670156229153
 40
5.291670156229153
 40
5.291670156229153
 40
5.64444816664443
 40
5.64444816664443
 40
5.64444816664443
 40
5.997226177059705
 40
5.997226177059705
 40
5.997226177059705
 40
6.350004187474984
 40
6.350004187474984
 40
6.350004187474984
 40
6.702782197890257
 40
6.702782197890257
 40
6.702782197890257
 40
7.055560208305537
 40
7.055560208305537
 40
7.055560208305537
 40
7.408338218720808
 40
7.408338218720808
 40
7.408338218720808
 40
7.76111622913609
 40
7.76111622913609
 40
7.76111622913609
 40
8.113894239551369
 40
8.113894239551369
 40
8.113894239551369
 40
8.466672249966642
 40
8.466672249966642
 40
8.466672249966642
 40
8.819450260381922
 40
8.819450260381922
 40
8.819450260381922
 40
9.172228270797198
 40
9.172228270797198
 40
9.172228270797198
 40
9.525006281212476
 40
9.525006281212476
 40
9.525006281212476
 40
9.877784291627751
 40
9.877784291627751
 40
9.877784291627751
 40
10.23056230204303
 40
10.23056230204303
 40
10.23056230204303
 40
10.58334031245831
 40
10.58334031245831
 40
10.58334031245831
 40
10.93611832287358
 40
10.93611832287358
 40
10.93611832287358
 40
11.28889633328886
 40
11.28889633328886
 40
11.28889633328886
 40
11.64167434370414
 40
11.64167434370414
 40
11.64167434370414
 40
11.99445235411941
 40
11.99445235411941
 40
11.99445235411941
 40
12.34723036453469
 40
12.34723036453469
 40
12.34723036453469
 40
12.70000837494997
 40
12.70000837494997
 40
12.70000837494997
 40
13.05278638536524
 40
13.05278638536524
 40
13.05278638536524
 40
13.40556439578052
 40
13.40556439578052
 40
13.40556439578052
 40
13.7583424061958
 40
13.7583424061958
 40
13.7583424061958
 40
14.11112041661107
 40
14.11112041661107
 40
14.11112041661107
 40
14.46389842702635
 40
14.46389842702635
 40
14.46389842702635
 40
14.81667643744163
 40
14.81667643744163
 40
14.81667643744163
 40
14.81667643744163
 10
173.3972823146245
 20
126.8274843518258
 10
173.3972823146245
 20
126.8274843518258
 10
173.3972823146245
 20
126.7217198506564
 10
173.3972823146245
 20
126.7217198506564
 10
173.3972823146245
 20
126.7217198506564
 10
173.4186419207238
 20
126.7217198506564
 10
173.4186419207238
 20
126.7217198506564
 10
173.4186419207238
 20
126.7217198506564
 10
173.4820317194703
 20
126.7007047543328
 10
173.4820317194703
 20
126.7007047543328
 10
173.4820317194703
 20
126.7007047543328
 10
173.5244064218933
 20
126.6793451482334
 10
173.5244064218933
 20
126.6793451482334
 10
173.5244064218933
 20
126.6793451482334
 10
173.5877962206398
 20
126.6793451482334
 10
173.5877962206398
 20
126.6793451482334
 10
173.5877962206398
 20
126.6793451482334
 10
173.6301709230627
 20
126.6583300519099
 10
173.6301709230627
 20
126.6583300519099
 10
173.7955356154449
 20
126.5911506456296
 10
173.759706598762
 20
126.6380039751379
 10
173.9478089363468
 20
126.5525655507404
 10
173.9478089363468
 20
126.5525655507404
 10
173.9688240326703
 20
126.4464565397952
 10
173.9688240326703
 20
126.4464565397952
 10
173.9688240326703
 20
126.4464565397952
 10
174.0325583411926
 20
126.5101908483175
 10
174.0325583411926
 20
126.5101908483175
 10
174.0325583411926
 20
126.5101908483175
 10
174.0749330436156
 20
126.5101908483175
 10
174.0749330436156
 20
126.5101908483175
 10
174.0749330436156
 20
126.5101908483175
 10
174.1593379386856
 20
126.4678161458946
 10
174.1593379386856
 20
126.4678161458946
 10
174.1593379386856
 20
126.4678161458946
 10
174.180697544785
 20
126.4464565397952
 10
174.180697544785
 20
126.4464565397952
 10
174.2464989119621
 20
126.3982251711837
 10
174.3298702777047
 20
126.3716979184474
 10
174.3922265471239
 20
126.3196769423022
 10
174.608234176548
 20
126.2059887162895
 10
174.7749769080334
 20
126.0278771622029
 10
174.9637682651697
 20
125.8749148217494
 10
174.9637682651697
 20
125.8749148217494
 10
175.0061429675926
 20
125.9172895241723
 10
175.0061429675926
 20
125.9172895241723
 10
174.961356696739
 20
125.9631093243532
 10
174.782211613325
 20
126.1246844092016
 10
174.7308796567315
 20
126.1501781326105
 10
174.7308796567315
 20
126.1501781326105
 10
174.6885049543085
 20
126.1925528350335
 10
174.6885049543085
 20
126.1925528350335
 10
174.6885049543085
 20
126.1925528350335
 10
174.667489857985
 20
126.2349275374564
 10
174.667489857985
 20
126.2349275374564
 10
174.667489857985
 20
126.2349275374564
 10
174.625115155562
 20
126.2559426337799
 10
174.625115155562
 20
126.2559426337799
 10
174.625115155562
 20
126.2559426337799
 10
174.5827404531391
 20
126.2983173362029
 10
174.5827404531391
 20
126.2983173362029
 10
174.5827404531391
 20
126.2983173362029
 10
174.5403657507162
 20
126.3196769423022
 10
174.5403657507162
 20
126.3196769423022
 10
174.5403657507162
 20
126.3196769423022
 10
174.4979910482932
 20
126.3620516447252
 10
174.4979910482932
 20
126.3620516447252
 10
174.4735308542117
 20
126.3875453681341
 10
174.3247026310678
 20
126.4695386947736
 10
174.2864620459544
 20
126.4888312422181
 10
174.2864620459544
 20
126.4888312422181
 10
174.2654469496308
 20
126.5101908483175
 10
174.2654469496308
 20
126.5101908483175
 10
174.2654469496308
 20
126.5101908483175
 10
174.2230722472079
 20
126.5312059446411
 10
174.2230722472079
 20
126.5312059446411
 10
174.2230722472079
 20
126.5312059446411
 10
174.2017126411085
 20
126.5525655507404
 10
174.2017126411085
 20
126.5525655507404
 10
174.2017126411085
 20
126.5525655507404
 10
174.1383228423621
 20
126.573580647064
 10
174.1383228423621
 20
126.573580647064
 10
174.1383228423621
 20
126.573580647064
 10
174.1169632362627
 20
126.5945957433876
 10
174.1169632362627
 20
126.5945957433876
 10
174.1169632362627
 20
126.5945957433876
 10
174.0959481399391
 20
126.7007047543328
 10
174.0959481399391
 20
126.7007047543328
 10
174.0959481399391
 20
126.7007047543328
 10
174.0325583411926
 20
126.6369704458105
 10
174.0325583411926
 20
126.6369704458105
 10
174.0325583411926
 20
126.6369704458105
 10
173.9901836387697
 20
126.6369704458105
 10
173.9901836387697
 20
126.6369704458105
 10
173.9901836387697
 20
126.6369704458105
 10
173.9054342339239
 20
126.6793451482334
 10
173.9054342339239
 20
126.6793451482334
 10
173.9054342339239
 20
126.6793451482334
 10
173.8420444351773
 20
126.7007047543328
 10
173.8420444351773
 20
126.7007047543328
 10
173.8420444351773
 20
126.7007047543328
 10
173.7996697327544
 20
126.7217198506564
 10
173.7996697327544
 20
126.7217198506564
 10
173.7996697327544
 20
126.7217198506564
 10
173.7572950303315
 20
126.7217198506564
 10
173.7572950303315
 20
126.7217198506564
 10
173.7572950303315
 20
126.7217198506564
 10
173.6725456254856
 20
126.7640945530793
 10
173.6725456254856
 20
126.7640945530793
 10
173.6725456254856
 20
126.7640945530793
 10
173.6515305291621
 20
126.7640945530793
 10
173.6515305291621
 20
126.7640945530793
 10
173.6515305291621
 20
126.7640945530793
 10
173.5667811243162
 20
126.7851096494029
 10
173.5667811243162
 20
126.7851096494029
 10
173.5667811243162
 20
126.7851096494029
 10
173.5033913255697
 20
126.8064692555022
 10
173.5033913255697
 20
126.8064692555022
 10
173.5033913255697
 20
126.8064692555022
 10
173.4396570170474
 20
126.8064692555022
 10
173.4396570170474
 20
126.8064692555022
 10
173.4396570170474
 20
126.8064692555022
 10
173.4186419207238
 20
126.8274843518258
 10
173.4186419207238
 20
126.8274843518258
 10
173.4186419207238
 20
126.8274843518258
 10
173.3972823146245
 20
126.8274843518258
 10
173.3972823146245
 20
126.8274843518258
 72
     1
 10
173.3972823146245
 20
126.8274843518258
 11
173.3972823146245
 21
126.8274843518258
 97
        0
 75
     0
 76
     1
 98
        0
  0
HATCH
  5
4842
330
1F
100
AcDbEntity
  8
图层 1
 62
     7
100
AcDbHatch
 10
0.0
 20
0.0
 30
0.0
210
0.0
220
0.0
230
1.0
  2
SOLID
 70
     1
 71
     0
 91
        1
 92
        1
 93
        2
 72
     4
 94
        3
 73
     0
 74
     0
 95
       47
 96
       43
 40
0.0
 40
0.0
 40
0.0
 40
0.0
 40
0.3527780104152769
 40
0.3527780104152769
 40
0.3527780104152769
 40
0.7055560208305538
 40
0.7055560208305538
 40
0.7055560208305538
 40
1.058334031245828
 40
1.058334031245828
 40
1.058334031245828
 40
1.411112041661104
 40
1.411112041661104
 40
1.411112041661104
 40
1.763890052076384
 40
1.763890052076384
 40
1.763890052076384
 40
2.116668062491659
 40
2.116668062491659
 40
2.116668062491659
 40
2.469446072906936
 40
2.469446072906936
 40
2.469446072906936
 40
2.822224083322215
 40
2.822224083322215
 40
2.822224083322215
 40
3.175002093737492
 40
3.175002093737492
 40
3.175002093737492
 40
3.527780104152768
 40
3.527780104152768
 40
3.527780104152768
 40
3.880558114568044
 40
3.880558114568044
 40
3.880558114568044
 40
4.233336124983321
 40
4.233336124983321
 40
4.233336124983321
 40
4.586114135398599
 40
4.586114135398599
 40
4.586114135398599
 40
4.938892145813873
 40
4.938892145813873
 40
4.938892145813873
 40
4.938892145813873
 10
180.1920486226523
 20
255.6479577566324
 10
180.1920486226523
 20
255.6479577566324
 10
180.2130637189759
 20
255.6055830542095
 10
180.2130637189759
 20
255.6055830542095
 10
180.2130637189759
 20
255.6055830542095
 10
180.2130637189759
 20
255.5210059042515
 10
180.2130637189759
 20
255.5210059042515
 10
180.2130637189759
 20
255.5210059042515
 10
180.1920486226523
 20
255.4786312018286
 10
180.1920486226523
 20
255.4786312018286
 10
180.1920486226523
 20
255.4786312018286
 10
180.1496739202294
 20
255.4359119896299
 10
180.1496739202294
 20
255.4359119896299
 10
180.1496739202294
 20
255.4359119896299
 10
180.1283143141301
 20
255.4147246384184
 10
180.1283143141301
 20
255.4147246384184
 10
180.1283143141301
 20
255.4147246384184
 10
180.0225498129606
 20
255.4147246384184
 10
180.0225498129606
 20
255.4147246384184
 10
180.0225498129606
 20
255.4147246384184
 10
179.9591600142141
 20
255.4359119896299
 10
179.9591600142141
 20
255.4359119896299
 10
179.9591600142141
 20
255.4359119896299
 10
179.9167853117912
 20
255.4570993408414
 10
179.9167853117912
 20
255.4570993408414
 10
179.9167853117912
 20
255.4570993408414
 10
179.8957702154676
 20
255.4786312018286
 10
179.8957702154676
 20
255.4786312018286
 10
179.8957702154676
 20
255.4786312018286
 10
179.8744106093683
 20
255.4994740432643
 10
179.8744106093683
 20
255.4994740432643
 10
179.8744106093683
 20
255.4994740432643
 10
179.8744106093683
 20
255.6479577566324
 10
179.8744106093683
 20
255.6479577566324
 10
179.9608825630931
 20
255.7323626517025
 10
180.045631967939
 20
255.7085914771726
 10
180.1496739202294
 20
255.7115198102668
 10
180.1496739202294
 20
255.7115198102668
 10
180.170689016553
 20
255.6688005980681
 10
180.170689016553
 20
255.6688005980681
 10
180.170689016553
 20
255.6688005980681
 10
180.1920486226523
 20
255.6479577566324
 10
180.1920486226523
 20
255.6479577566324
 72
     1
 10
180.1920486226523
 20
255.6479577566324
 11
180.1920486226523
 21
255.6479577566324
 97
        0
 75
     0
 76
     1
 98
        0
  0
MTEXT
  5
65A0
330
1F
100
AcDbEntity
  8
图框
 62
     3
100
AcDbMText
 10
652.3064215351515
 20
221.9674786344378
 30
0.0
 40
2.985513575034151
 41
33.61239199242137
 71
     5
 72
     5
  1
HMK-002-FC
  7
Romans字体
 73
     1
 44
1.0
1001
ACAD
1000
MTEXTBEGIN
1070
    73
1070
     1
1070
    44
1040
1.0
1070
    74
1070
     0
1000
MTEXTEND
1000
ACAD_MTEXT_DEFINED_HEIGHT_BEGIN
1070
    46
1040
8.686745505685866
1000
ACAD_MTEXT_DEFINED_HEIGHT_END
  0
MTEXT
  5
65A1
330
1F
100
AcDbEntity
  8
图框
 62
     3
100
AcDbMText
 10
652.3064215351515
 20
213.1880281076118
 30
0.0
 40
2.985513575034151
 41
33.61239199242137
 71
     5
 72
     5
  1
1290020200001
  7
Romans字体
 73
     1
 44
1.0
1001
ACAD
1000
MTEXTBEGIN
1070
    73
1070
     1
1070
    44
1040
1.0
1070
    74
1070
     0
1000
MTEXTEND
1000
ACAD_MTEXT_DEFINED_HEIGHT_BEGIN
1070
    46
1040
8.872155547966105
1000
ACAD_MTEXT_DEFINED_HEIGHT_END
  0
MTEXT
  5
65A3
330
1F
100
AcDbEntity
  8
图框
 62
     3
100
AcDbMText
 10
584.2527566045665
 20
199.8803930288668
 30
0.0
 40
2.985513575034151
 41
10.82934843439047
 71
     5
 72
     5
  1
1:1 
  7
Romans字体
 73
     1
 44
1.0
1001
ACAD
1000
MTEXTBEGIN
1070
    73
1070
     1
1070
    44
1040
1.0
1070
    74
1070
     0
1000
MTEXTEND
1000
ACAD_MTEXT_DEFINED_HEIGHT_BEGIN
1070
    46
1040
7.886094601210496
1000
ACAD_MTEXT_DEFINED_HEIGHT_END
  0
MTEXT
  5
65A4
330
1F
100
AcDbEntity
  8
图框
 62
     3
100
AcDbMText
 10
595.0821050389572
 20
199.8803930288669
 30
0.0
 40
2.985513575034151
 41
10.82934843439126
 71
     5
 72
     5
  1
V1.0 
  7
Romans字体
 73
     1
 44
1.0
1001
ACAD
1000
MTEXTBEGIN
1070
    73
1070
     1
1070
    44
1040
1.0
1070
    74
1070
     0
1000
MTEXTEND
1000
ACAD_MTEXT_DEFINED_HEIGHT_BEGIN
1070
    46
1040
7.886094601210459
1000
ACAD_MTEXT_DEFINED_HEIGHT_END
  0
MTEXT
  5
65B2
330
1F
100
AcDbEntity
  8
图框
 62
     3
100
AcDbMText
 10
605.9114534733492
 20
199.8803930288669
 30
0.0
 40
2.985513575034151
 41
10.82934843439217
 71
     5
 72
     5
  1
12.7g
  7
Romans字体
 73
     1
 44
1.0
1001
ACAD
1000
MTEXTBEGIN
1070
    73
1070
     1
1070
    44
1040
1.0
1070
    74
1070
     0
1000
MTEXTEND
1000
ACAD_MTEXT_DEFINED_HEIGHT_BEGIN
1070
    46
1040
7.886094601210402
1000
ACAD_MTEXT_DEFINED_HEIGHT_END
  0
MTEXT
  5
6E00
102
{ACAD_XDICTIONARY
360
12A5C
102
}
330
1F
100
AcDbEntity
  8
打标文字
 62
     3
100
AcDbMText
 10
569.7875236196565
 20
324.2279756403526
 30
0.0
 40
1.912985285738284
 41
55.18345123699972
 71
     1
 72
     5
  3
\A1;{\f仿宋_GB2312|b0|i0|c134|p49;技术参数}:\P{\f仿宋_GB2312|b0|i0|c134|p49;插芯：}\P- {\f仿宋_GB2312|b0|i0|c134|p49;插针数}: 2\P- {\f仿宋_GB2312|b0|i0|c134|p49;额定电流}: 40A\P- {\f仿宋_GB2312|b0|i0|c134|p49;额定电压}: 1000V\P- {\f仿宋_GB2312|b0|i0|c134|p49;额定脉冲电压}: 8kV\P- {\f仿宋
  3
_GB2312|b0|i0|c134|p49;污染等级}: 3\P- {\f仿宋_GB2312|b0|i0|c134|p49;绝缘阻抗}: {\f仿宋_GB2312|b0|i0|c134|p49;≥}10{\H0.7x;\S10^ ;}\U+03A9\P- {\f仿宋_GB2312|b0|i0|c134|p49;材料}: {\f仿宋_GB2312|b0|i0|c134|p49;聚碳酸酯}\P- {\f仿宋_GB2312|b0|i0|c134|p49;颜色}: RAL 7032{\f仿宋_GB231
  3
2|b0|i0|c134|p49;（浅灰色）}\P- {\f仿宋_GB2312|b0|i0|c134|p49;温度范围}: -40{\f仿宋_GB2312|b0|i0|c134|p49;℃} - +125{\f仿宋_GB2312|b0|i0|c134|p49;℃}\P- {\f仿宋_GB2312|b0|i0|c134|p49;依据}UL 94{\f仿宋_GB2312|b0|i0|c134|p49;的阻燃等级}: V0\P- {\f仿宋_GB2312|b0|i0|c134|p49;可插拔次数}: 
  3
{\f仿宋_GB2312|b0|i0|c134|p49;≥}500\P{\f仿宋_GB2312|b0|i0|c134|p49;插针：}\P- {\f仿宋_GB2312|b0|i0|c134|p49;接线方式}: {\f仿宋_GB2312|b0|i0|c134|p49;冷压连接}\P- {\f仿宋_GB2312|b0|i0|c134|p49;材料}: {\f仿宋_GB2312|b0|i0|c134|p49;铜合金}\P- {\f仿宋_GB2312|b0|i0|c134|p49;表面处理}: {\f
  3
仿宋_GB2312|b0|i0|c134|p49;镀银}\P- {\f仿宋_GB2312|b0|i0|c134|p49;接触电阻}: \U+22641m\U+03A9\P- {\f仿宋_GB2312|b0|i0|c134|p49;线径范围}: 1.5-10mm{\H0.7x;\S2^ ;}(16-8 AWG)\P- {\f仿宋_GB2312|b0|i0|c134|p49;工具：}\P   {\f仿宋_GB2312|b0|i0|c134|p49;·} {\f仿宋_GB2312|b0|i0|c134|
  1
p49;冷压钳}: \P    TL02-0G(1.5-6mm{\H0.7x;\S2^ ;})\P    TL02-3G(4/6/10mm{\H0.7x;\S2^ ;})\P   {\f仿宋_GB2312|b0|i0|c134|p49;·} {\f仿宋_GB2312|b0|i0|c134|p49;退针器}: TL06G
  7
Romans字体
 73
     1
 44
1.0
1001
ACAD
1000
MTEXTBEGIN
1070
    73
1070
     1
1070
    44
1040
1.0
1070
    74
1070
     0
1000
MTEXTEND
1000
ACAD_MTEXT_DEFINED_HEIGHT_BEGIN
1070
    46
1040
8.294818561909686
1000
ACAD_MTEXT_DEFINED_HEIGHT_END
  0
MTEXT
  5
7228
102
{ACAD_XDICTIONARY
360
12A5E
102
}
330
1F
100
AcDbEntity
  8
打标文字
 62
     3
100
AcDbMText
 10
615.4785658800781
 20
324.4029607961731
 30
0.0
 40
1.912985285738284
 41
67.09538717665188
 71
     1
 72
     5
  3
\A1;Technical specification:\PInserts:\P- No. of contact: 2\P- Rated current: 40A\P- Rated voltage: 1000V\P- Rated impulse voltage: 8kV\P- Pollution degree: 3\P- Insulation resistance: {\fSimSun|b0|i0|c134|p2;≥}10{\H0.7x;\S10^ ;}\U+03A9\P- Material: p
  3
olycarbonate\P- Colour: RAL 7032(light grey) \P- Temperature range: -40{\fSimSun|b0|i0|c0|p2;\U+2103} - +125{\fSimSun|b0|i0|c0|p2;\U+2103}\P- Flammability acc.to UL 94: V0\P- Mating cycles: {\fSimSun|b0|i0|c134|p2;≥}500\PContacts:\P- Terminal: crimp 
  3
terminal\P- Material: copper alloy\P- Surface: hard-silver plated\P- Contact resistance: {\fFangSong_GB2312|b0|i0|c134|p49;≤}1m\U+03A9\P- Wire gauge: 1.5-10mm{\H0.7x;\S2^ ;\H1.4286x;(16-8 AWG)}\P- Tools:\P   {\fISOCPEUR|b0|i0|c0|p34;\U+00B7} Crimp con
  1
tact tool: \P    TL02-0G(1.5-6mm{\H0.7x;\S2^ ;\H1.4286x;)\P    TL02-3G(4/6/10mm\H0.7x;\S2^ ;\H1.4286x;)\P}   {\fISOCPEUR|b0|i0|c0|p34;\U+00B7} Contact removal tool: TL06G
  7
Romans字体
 73
     1
 44
1.0
1001
ACAD
1000
MTEXTBEGIN
1070
    73
1070
     1
1070
    44
1040
1.0
1070
    74
1070
     0
1000
MTEXTEND
1000
ACAD_MTEXT_DEFINED_HEIGHT_BEGIN
1070
    46
1040
8.294818561909686
1000
ACAD_MTEXT_DEFINED_HEIGHT_END
  0
INSERT
  5
11089
330
1F
100
AcDbEntity
  8
DIM
100
AcDbBlockReference
  2
A4图框-NEW
 10
-457.8158850790006
 20
-295.9613488704692
 30
0.0
  0
LINE
  5
12488
330
1F
100
AcDbEntity
  8
0
100
AcDbLine
 10
497.0468914935048
 20
307.6307058410204
 30
0.0
 11
495.8468914935044
 21
306.4307058410204
 31
0.0
  0
LINE
  5
12489
330
1F
100
AcDbEntity
  8
0
100
AcDbLine
 10
505.6468914935049
 20
293.7307058410203
 30
0.0
 11
506.6468914935049
 21
294.7307058409204
 31
0.0
  0
LINE
  5
1248A
330
1F
100
AcDbEntity
  8
0
100
AcDbLine
 10
495.8468914935044
 20
279.7307058410203
 30
0.0
 11
495.8468914935044
 21
306.4307058410204
 31
0.0
  0
LINE
  5
1248B
330
1F
100
AcDbEntity
  8
0
100
AcDbLine
 10
496.8468914935047
 20
279.7307058410203
 30
0.0
 11
496.8468914935047
 21
290.7307058409204
 31
0.0
  0
LINE
  5
1248C
330
1F
100
AcDbEntity
  8
0
100
AcDbLine
 10
497.9670964935047
 20
279.7307058410203
 30
0.0
 11
497.9670964935047
 21
290.7307058409204
 31
0.0
  0
LINE
  5
1248D
330
1F
100
AcDbEntity
  8
0
100
AcDbLine
 10
498.9809270724046
 20
265.2307058410203
 30
0.0
 11
507.3128569145047
 21
265.2307058410203
 31
0.0
  0
LINE
  5
1248E
330
1F
100
AcDbEntity
  8
0
100
AcDbLine
 10
498.6809721640047
 20
265.5254701085204
 30
0.0
 11
507.6128108232047
 21
265.5254701260204
 31
0.0
  0
LINE
  5
1248F
330
1F
100
AcDbEntity
  8
0
100
AcDbLine
 10
498.4330200516047
 20
279.7307058619204
 30
0.0
 11
498.6809733637046
 21
265.5254701295204
 31
0.0
  0
LINE
  5
12490
330
1F
100
AcDbEntity
  8
0
100
AcDbLine
 10
498.9519044935045
 20
279.7307058410203
 30
0.0
 11
498.9519044935045
 21
290.7307058409204
 31
0.0
  0
LINE
  5
12491
330
1F
100
AcDbEntity
  8
0
100
AcDbLine
 10
499.1054754935047
 20
279.7307058410203
 30
0.0
 11
499.1054754935047
 21
290.7307058409204
 31
0.0
  0
LINE
  5
12492
330
1F
100
AcDbEntity
  8
0
100
AcDbLine
 10
499.6468914935046
 20
297.2307058410203
 30
0.0
 11
499.6468914935046
 21
294.7307058409204
 31
0.0
  0
LINE
  5
12493
330
1F
100
AcDbEntity
  8
0
100
AcDbLine
 10
501.0750904935047
 20
291.7307058409204
 30
0.0
 11
501.0750904935047
 21
279.7307058410203
 31
0.0
  0
LINE
  5
12494
330
1F
100
AcDbEntity
  8
0
100
AcDbLine
 10
502.4468914935046
 20
279.7307058410203
 30
0.0
 11
502.4468914935046
 21
265.2307058410203
 31
0.0
  0
LINE
  5
12495
330
1F
100
AcDbEntity
  8
0
100
AcDbLine
 10
503.8468914935045
 20
279.7307057397203
 30
0.0
 11
503.8468914935045
 21
265.2307058410203
 31
0.0
  0
LINE
  5
12496
330
1F
100
AcDbEntity
  8
0
100
AcDbLine
 10
505.2186924935049
 20
279.7307058410203
 30
0.0
 11
505.2186924935049
 21
291.7307058409204
 31
0.0
  0
LINE
  5
12497
330
1F
100
AcDbEntity
  8
0
100
AcDbLine
 10
506.6468914935049
 20
297.2307058410203
 30
0.0
 11
506.6468914935049
 21
294.7307058409204
 31
0.0
  0
LINE
  5
12498
330
1F
100
AcDbEntity
  8
0
100
AcDbLine
 10
507.1883074935048
 20
279.7307058410203
 30
0.0
 11
507.1883074935048
 21
290.7307058409204
 31
0.0
  0
LINE
  5
12499
330
1F
100
AcDbEntity
  8
0
100
AcDbLine
 10
507.3418784935046
 20
279.7307058410203
 30
0.0
 11
507.3418784935046
 21
290.7307058409204
 31
0.0
  0
LINE
  5
1249A
330
1F
100
AcDbEntity
  8
0
100
AcDbLine
 10
507.8607641349048
 20
279.7307058410203
 30
0.0
 11
507.6128108232047
 21
265.5254701260204
 31
0.0
  0
LINE
  5
1249B
330
1F
100
AcDbEntity
  8
0
100
AcDbLine
 10
508.3266864935048
 20
279.7307058410203
 30
0.0
 11
508.3266864935048
 21
290.7307058409204
 31
0.0
  0
LINE
  5
1249C
330
1F
100
AcDbEntity
  8
0
100
AcDbLine
 10
509.4468914935045
 20
279.7307058410203
 30
0.0
 11
509.4468914935045
 21
290.7307058409204
 31
0.0
  0
LINE
  5
1249D
330
1F
100
AcDbEntity
  8
0
100
AcDbLine
 10
510.4468914935046
 20
279.7307058410203
 30
0.0
 11
510.4468914935046
 21
306.4307058410204
 31
0.0
  0
LINE
  5
1249E
330
1F
100
AcDbEntity
  8
0
100
AcDbLine
 10
495.8468914935044
 20
279.7307058410203
 30
0.0
 11
510.4468914935046
 21
279.7307058410203
 31
0.0
  0
LINE
  5
1249F
330
1F
100
AcDbEntity
  8
0
100
AcDbLine
 10
499.6468914935046
 20
294.7307058409204
 30
0.0
 11
500.6468914935047
 21
293.7307058410203
 31
0.0
  0
LINE
  5
124A0
330
1F
100
AcDbEntity
  8
0
100
AcDbLine
 10
496.8468914935047
 20
290.7307058409204
 30
0.0
 11
499.3430425726042
 21
290.7307058409204
 31
0.0
  0
LINE
  5
124A1
330
1F
100
AcDbEntity
  8
0
100
AcDbLine
 10
506.9507404143045
 20
290.7307058409204
 30
0.0
 11
509.4468914935045
 21
290.7307058409204
 31
0.0
  0
LINE
  5
124A2
330
1F
100
AcDbEntity
  8
0
100
AcDbLine
 10
495.8468914935044
 20
291.7307058409204
 30
0.0
 11
501.0750904935047
 21
291.7307058409204
 31
0.0
  0
LINE
  5
124A3
330
1F
100
AcDbEntity
  8
0
100
AcDbLine
 10
505.2186924935049
 20
291.7307058409204
 30
0.0
 11
510.4468914935046
 21
291.7307058409204
 31
0.0
  0
LINE
  5
124A4
330
1F
100
AcDbEntity
  8
0
100
AcDbLine
 10
500.6468914935047
 20
293.7307058410203
 30
0.0
 11
505.6468914935049
 21
293.7307058410203
 31
0.0
  0
LINE
  5
124A5
330
1F
100
AcDbEntity
  8
0
100
AcDbLine
 10
510.4468914935046
 20
295.7307058410203
 30
0.0
 11
506.6468914935049
 21
295.7307058410203
 31
0.0
  0
LINE
  5
124A6
330
1F
100
AcDbEntity
  8
0
100
AcDbLine
 10
499.6468914935046
 20
295.7307058410203
 30
0.0
 11
495.8468914935044
 21
295.7307058410203
 31
0.0
  0
LINE
  5
124A7
330
1F
100
AcDbEntity
  8
0
100
AcDbLine
 10
499.6468914935046
 20
297.2307058410203
 30
0.0
 11
506.6468914935049
 21
297.2307058410203
 31
0.0
  0
LINE
  5
124A8
330
1F
100
AcDbEntity
  8
0
100
AcDbLine
 10
495.8468914935044
 20
299.2307058410203
 30
0.0
 11
510.4468914935046
 21
299.2307058410203
 31
0.0
  0
LINE
  5
124A9
330
1F
100
AcDbEntity
  8
0
100
AcDbLine
 10
510.4468914935046
 20
306.4307058410204
 30
0.0
 11
509.2468914935047
 21
307.6307058410204
 31
0.0
  0
LINE
  5
124AA
330
1F
100
AcDbEntity
  8
0
100
AcDbLine
 10
497.0468914935048
 20
307.6307058410204
 30
0.0
 11
509.2468914935047
 21
307.6307058410204
 31
0.0
  0
ARC
  5
124AB
330
1F
100
AcDbEntity
  8
0
100
AcDbCircle
 10
496.8468914935047
 20
291.7307058409204
 30
0.0
 40
1.0
100
AcDbArc
 50
180.0
 51
270.0
  0
ARC
  5
124AC
330
1F
100
AcDbEntity
  8
0
100
AcDbCircle
 10
509.4468914935045
 20
291.7307058409204
 30
0.0
 40
1.0
100
AcDbArc
 50
270.0
 51
0.0
  0
ARC
  5
124AD
330
1F
100
AcDbEntity
  8
0
100
AcDbCircle
 10
498.9809264724049
 20
265.5307058410204
 30
0.0
 40
0.3
100
AcDbArc
 50
181.0000019998986
 51
270.0001145915978
  0
ARC
  5
124AE
330
1F
100
AcDbEntity
  8
0
100
AcDbCircle
 10
507.3128573145043
 20
265.5307058410204
 30
0.0
 40
0.3
100
AcDbArc
 50
269.9999236057057
 51
358.9999986666989
  0
SPLINE
  5
124AF
330
1F
100
AcDbEntity
  8
0
100
AcDbSpline
210
0.0
220
0.0
230
1.0
 70
     8
 71
     3
 72
    13
 73
     9
 74
     0
 42
0.0000000001
 43
0.0000000001
 40
0.0
 40
0.0
 40
0.0
 40
0.0
 40
0.290251963
 40
0.5679482917000001
 40
0.6967602378
 40
0.8146255431
 40
0.9171399232999998
 40
1.0
 40
1.0
 40
1.0
 40
1.0
 10
501.0750904935047
 20
291.7307058409204
 30
0.0
 10
500.9158791634048
 20
291.6181264298204
 30
0.0
 10
500.6043631397046
 20
291.3978650206204
 30
0.0
 10
500.2165945847045
 20
291.1353317399204
 30
0.0
 10
499.9160527121047
 20
290.9515180390204
 30
0.0
 10
499.7094486130047
 20
290.8396545847203
 30
0.0
 10
499.5223331356045
 20
290.7593458071204
 30
0.0
 10
499.3987085406046
 20
290.7307058409204
 30
0.0
 10
499.3430425726042
 20
290.7307058409204
 30
0.0
  0
SPLINE
  5
124B0
330
1F
100
AcDbEntity
  8
0
100
AcDbSpline
210
0.0
220
0.0
230
1.0
 70
     8
 71
     3
 72
    13
 73
     9
 74
     0
 42
0.0000000001
 43
0.0000000001
 40
0.0
 40
0.0
 40
0.0
 40
0.0
 40
0.0829147483
 40
0.1854890522
 40
0.3033941439999999
 40
0.4322139428
 40
0.7098539522000003
 40
1.0
 40
1.0
 40
1.0
 40
1.0
 10
506.9507404143045
 20
290.7307058409204
 30
0.0
 10
506.8950377455045
 20
290.7307058409204
 30
0.0
 10
506.7713385811048
 20
290.7593800666204
 30
0.0
 10
506.5841381139048
 20
290.8397502703203
 30
0.0
 10
506.3774790323043
 20
290.9516641899204
 30
0.0
 10
506.0769515788047
 20
291.1354895132203
 30
0.0
 10
505.6892721297049
 20
291.3979685543203
 30
0.0
 10
505.3778456462046
 20
291.6181675674204
 30
0.0
 10
505.2186924935049
 20
291.7307058409204
 30
0.0
  0
LINE
  5
124B1
330
1F
100
AcDbEntity
  8
0
100
AcDbLine
 10
427.3076292794272
 20
241.0676527439685
 30
0.0
 11
428.2322649646673
 21
241.4837119964384
 31
0.0
  0
LINE
  5
124B2
330
1F
100
AcDbEntity
  8
0
100
AcDbLine
 10
427.3076292794272
 20
241.0676527439685
 30
0.0
 11
422.8800803425971
 21
236.1629642765384
 31
0.0
  0
LINE
  5
124B3
330
1F
100
AcDbEntity
  8
0
100
AcDbLine
 10
432.4943675477872
 20
239.7172038504284
 30
0.0
 11
431.823428350847
 21
239.1959953425585
 31
0.0
  0
LINE
  5
124B4
330
1F
100
AcDbEntity
  8
0
100
AcDbLine
 10
421.1251976786573
 20
233.9921406335384
 30
0.0
 11
420.116388648587
 21
232.0700628556784
 31
0.0
  0
LINE
  5
124B5
330
1F
100
AcDbEntity
  8
0
100
AcDbLine
 10
419.8536548309871
 20
230.3967302887484
 30
0.0
 11
422.8800803425971
 21
236.1629642765384
 31
0.0
  0
LINE
  5
124B6
330
1F
100
AcDbEntity
  8
0
100
AcDbLine
 10
436.4407573667271
 20
238.0815487655084
 30
0.0
 11
435.7698181698771
 21
237.5603402576385
 31
0.0
  0
LINE
  5
124B7
330
1F
100
AcDbEntity
  8
0
100
AcDbLine
 10
420.426546794477
 20
228.4008931003485
 30
0.0
 11
415.8095869278167
 21
219.6042272335786
 31
0.0
  0
LINE
  5
124B8
330
1F
100
AcDbEntity
  8
0
100
AcDbLine
 10
416.8228259813575
 20
219.5401398840884
 30
0.0
 11
421.2615857136468
 21
227.9972821065285
 31
0.0
  0
LINE
  5
124B9
330
1F
100
AcDbEntity
  8
0
100
AcDbLine
 10
417.4863452529471
 20
219.3065964656085
 30
0.0
 11
421.9251049852369
 21
227.7637386880484
 31
0.0
  0
LINE
  5
124BA
330
1F
100
AcDbEntity
  8
0
100
AcDbLine
 10
422.2660693977172
 20
228.3341612174086
 30
0.0
 11
417.803420767697
 21
219.8315036217585
 31
0.0
  0
LINE
  5
124BB
330
1F
100
AcDbEntity
  8
0
100
AcDbLine
 10
424.7178589270971
 20
225.2916091386885
 30
0.0
 11
425.7519693748371
 21
226.5047656466384
 31
0.0
  0
LINE
  5
124BC
330
1F
100
AcDbEntity
  8
0
100
AcDbLine
 10
440.3871471857571
 20
236.4458936805884
 30
0.0
 11
439.7162079888174
 21
235.9246851727185
 31
0.0
  0
LINE
  5
124BD
330
1F
100
AcDbEntity
  8
0
100
AcDbLine
 10
419.8684574219567
 20
230.9667410566786
 30
0.0
 11
420.116388648587
 21
232.0700628556784
 31
0.0
  0
LINE
  5
124BE
330
1F
100
AcDbEntity
  8
0
100
AcDbLine
 10
418.4808764079773
 20
218.2989431561385
 30
0.0
 11
412.9464515498272
 21
207.2740559414384
 31
0.0
  0
LINE
  5
124BF
330
1F
100
AcDbEntity
  8
0
100
AcDbLine
 10
423.287017919837
 20
228.9737087292583
 30
0.0
 11
418.4447345755372
 21
219.7477353956386
 31
0.0
  0
LINE
  5
124C0
330
1F
100
AcDbEntity
  8
0
100
AcDbLine
 10
425.8087780799871
 20
231.6728341399485
 30
0.0
 11
421.2893136252771
 21
223.0619256952185
 31
0.0
  0
LINE
  5
124C1
330
1F
100
AcDbEntity
  8
0
100
AcDbLine
 10
422.4568667111273
 20
225.0118169315984
 30
0.0
 11
425.9271697745573
 21
231.6237644873684
 31
0.0
  0
LINE
  5
124C2
330
1F
100
AcDbEntity
  8
0
100
AcDbLine
 10
421.6156952465873
 20
222.9266507266785
 30
0.0
 11
422.3061004699973
 21
224.2420756465486
 31
0.0
  0
LINE
  5
124C3
330
1F
100
AcDbEntity
  8
0
100
AcDbLine
 10
422.5916262119572
 20
222.5221578815386
 30
0.0
 11
420.6547128741473
 21
218.8317685481084
 31
0.0
  0
LINE
  5
124C4
330
1F
100
AcDbEntity
  8
0
100
AcDbLine
 10
420.8414237366571
 20
218.4303797225985
 30
0.0
 11
422.7783370743769
 21
222.1207690560285
 31
0.0
  0
LINE
  5
124C5
330
1F
100
AcDbEntity
  8
0
100
AcDbLine
 10
431.823428350847
 20
239.1959953425585
 30
0.0
 11
424.1363035417371
 21
224.5497626753984
 31
0.0
  0
LINE
  5
124C6
330
1F
100
AcDbEntity
  8
0
100
AcDbLine
 10
444.3335370047872
 20
234.8102385956684
 30
0.0
 11
443.662597807847
 21
234.2890300877085
 31
0.0
  0
LINE
  5
124C7
330
1F
100
AcDbEntity
  8
0
100
AcDbLine
 10
416.6053154025473
 20
203.8296836758485
 30
0.0
 11
416.5876372549671
 21
203.8484591102684
 31
0.0
  0
LINE
  5
124C8
330
1F
100
AcDbEntity
  8
0
100
AcDbLine
 10
413.1889918623171
 20
206.2583913050085
 30
0.0
 11
412.9711625226772
 21
206.7266782680286
 31
0.0
  0
LINE
  5
124C9
330
1F
100
AcDbEntity
  8
0
100
AcDbLine
 10
413.3127474796672
 20
206.1416175444886
 30
0.0
 11
413.0949181401172
 21
206.6099045075085
 31
0.0
  0
LINE
  5
124CA
330
1F
100
AcDbEntity
  8
0
100
AcDbLine
 10
421.0570944687772
 20
217.9667332857585
 30
0.0
 11
415.3635260906573
 21
206.9623680533084
 31
0.0
  0
LINE
  5
124CB
330
1F
100
AcDbEntity
  8
0
100
AcDbLine
 10
424.3143353150871
 20
224.5227780275985
 30
0.0
 11
424.7178589270971
 21
225.2916091386885
 31
0.0
  0
LINE
  5
124CC
330
1F
100
AcDbEntity
  8
0
100
AcDbLine
 10
429.0085052457473
 20
233.1387053634585
 30
0.0
 11
425.1656424324771
 21
225.8169219570585
 31
0.0
  0
LINE
  5
124CD
330
1F
100
AcDbEntity
  8
0
100
AcDbLine
 10
432.4943675477872
 20
239.7172038504284
 30
0.0
 11
429.0240644842671
 21
233.1052562946585
 31
0.0
  0
LINE
  5
124CE
330
1F
100
AcDbEntity
  8
0
100
AcDbLine
 10
428.8486886322472
 20
224.3735537745584
 30
0.0
 11
428.348537560547
 21
223.7868064605585
 31
0.0
  0
LINE
  5
124CF
330
1F
100
AcDbEntity
  8
0
100
AcDbLine
 10
420.3319403885569
 20
202.2851142369885
 30
0.0
 11
416.6053154013773
 21
203.8296836762984
 31
0.0
  0
LINE
  5
124D0
330
1F
100
AcDbEntity
  8
0
100
AcDbLine
 10
425.5071299421471
 20
200.1401601151486
 30
0.0
 11
429.2337588757375
 21
198.5955890401783
 31
0.0
  0
LINE
  5
124D1
330
1F
100
AcDbEntity
  8
0
100
AcDbLine
 10
420.3142621489067
 20
202.3038898716584
 30
0.0
 11
416.5876372549671
 21
203.8484591102684
 31
0.0
  0
LINE
  5
124D2
330
1F
100
AcDbEntity
  8
0
100
AcDbLine
 10
425.4894517024074
 20
200.1589357497285
 30
0.0
 11
429.2160807294171
 21
198.6143644741485
 31
0.0
  0
LINE
  5
124D3
330
1F
100
AcDbEntity
  8
0
100
AcDbLine
 10
420.3142621489067
 20
202.3038898716584
 30
0.0
 11
420.3319403881072
 21
202.2851142371686
 31
0.0
  0
LINE
  5
124D4
330
1F
100
AcDbEntity
  8
0
100
AcDbLine
 10
420.674508561977
 20
202.4151237606584
 30
0.0
 11
420.6721976143374
 21
202.4049687344985
 31
0.0
  0
LINE
  5
124D5
330
1F
100
AcDbEntity
  8
0
100
AcDbLine
 10
420.4938289117674
 20
204.8360180840084
 30
0.0
 11
425.2855798847869
 21
214.0973765692184
 31
0.0
  0
LINE
  5
124D6
330
1F
100
AcDbEntity
  8
0
100
AcDbLine
 10
427.9450139485373
 20
223.0179753494686
 30
0.0
 11
428.348537560547
 21
223.7868064605585
 31
0.0
  0
LINE
  5
124D7
330
1F
100
AcDbEntity
  8
0
100
AcDbLine
 10
435.7698181698771
 20
237.5603402576385
 30
0.0
 11
428.0826933606773
 21
222.9141075904786
 31
0.0
  0
LINE
  5
124D8
330
1F
100
AcDbEntity
  8
0
100
AcDbLine
 10
432.6106385650671
 20
222.0202989688485
 30
0.0
 11
433.6447490128072
 21
223.2334554767984
 31
0.0
  0
LINE
  5
124D9
330
1F
100
AcDbEntity
  8
0
100
AcDbLine
 10
427.9196958902272
 20
201.4013174183984
 30
0.0
 11
422.7893898526073
 21
203.5276688354384
 31
0.0
  0
LINE
  5
124DA
330
1F
100
AcDbEntity
  8
0
100
AcDbLine
 10
415.2912524158668
 20
206.6354120545184
 30
0.0
 11
420.4215551719071
 21
204.5090622135584
 31
0.0
  0
LINE
  5
124DB
330
1F
100
AcDbEntity
  8
0
100
AcDbLine
 10
427.9919695650169
 20
201.7282734171884
 30
0.0
 11
422.8616635923772
 21
203.8546247058885
 31
0.0
  0
LINE
  5
124DC
330
1F
100
AcDbEntity
  8
0
100
AcDbLine
 10
415.3635260906573
 20
206.9623680533084
 30
0.0
 11
420.4938289117674
 21
204.8360180840084
 31
0.0
  0
LINE
  5
124DD
330
1F
100
AcDbEntity
  8
0
100
AcDbLine
 10
425.4894517024074
 20
200.1589357497285
 30
0.0
 11
425.5071299421471
 21
200.1401601151486
 31
0.0
  0
LINE
  5
124DE
330
1F
100
AcDbEntity
  8
0
100
AcDbLine
 10
429.2160807294171
 20
198.6143644741485
 30
0.0
 11
429.2337588769972
 21
198.5955890397284
 31
0.0
  0
LINE
  5
124DF
330
1F
100
AcDbEntity
  8
0
100
AcDbLine
 10
423.7385417924572
 20
201.5049270419984
 30
0.0
 11
423.7202460111473
 21
201.5265251678384
 31
0.0
  0
LINE
  5
124E0
330
1F
100
AcDbEntity
  8
0
100
AcDbLine
 10
420.4215551719071
 20
204.5090622135584
 30
0.0
 11
421.3524112521473
 21
202.5079187141685
 31
0.0
  0
LINE
  5
124E1
330
1F
100
AcDbEntity
  8
0
100
AcDbLine
 10
422.7893898526073
 20
203.5276688354384
 30
0.0
 11
423.7202460111473
 21
201.5265251678384
 31
0.0
  0
LINE
  5
124E2
330
1F
100
AcDbEntity
  8
0
100
AcDbLine
 10
415.8248394403972
 20
219.4219730753085
 30
0.0
 11
416.4695523596872
 21
218.0359767920384
 31
0.0
  0
LINE
  5
124E3
330
1F
100
AcDbEntity
  8
0
100
AcDbLine
 10
422.8616635923772
 20
203.8546247058885
 30
0.0
 11
427.6534145654871
 21
213.1159831911885
 31
0.0
  0
LINE
  5
124E4
330
1F
100
AcDbEntity
  8
0
100
AcDbLine
 10
439.7162079888174
 20
235.9246851727185
 30
0.0
 11
432.0290831797072
 21
221.2784525055584
 31
0.0
  0
LINE
  5
124E5
330
1F
100
AcDbEntity
  8
0
100
AcDbLine
 10
432.2071149530573
 20
221.2514678577584
 30
0.0
 11
432.6106385650671
 21
222.0202989688485
 31
0.0
  0
LINE
  5
124E6
330
1F
100
AcDbEntity
  8
0
100
AcDbLine
 10
436.9012848838072
 20
229.8673951936185
 30
0.0
 11
433.058422070537
 21
222.5456117871284
 31
0.0
  0
LINE
  5
124E7
330
1F
100
AcDbEntity
  8
0
100
AcDbLine
 10
440.3871471857571
 20
236.4458936805884
 30
0.0
 11
436.9168441223271
 21
229.8339461248184
 31
0.0
  0
LINE
  5
124E8
330
1F
100
AcDbEntity
  8
0
100
AcDbLine
 10
426.386269117007
 20
211.7311277489085
 30
0.0
 11
421.5242623429968
 21
202.6208043615584
 31
0.0
  0
LINE
  5
124E9
330
1F
100
AcDbEntity
  8
0
100
AcDbLine
 10
420.6721976143374
 20
202.4049687344985
 30
0.0
 11
420.6721467456175
 21
202.4048752983884
 31
0.0
  0
LINE
  5
124EA
330
1F
100
AcDbEntity
  8
0
100
AcDbLine
 10
420.671824690967
 20
202.4042887997085
 30
0.0
 11
420.7385702092672
 21
202.5254394101685
 31
0.0
  0
LINE
  5
124EB
330
1F
100
AcDbEntity
  8
0
100
AcDbLine
 10
436.7414682702172
 20
221.1022436047183
 30
0.0
 11
436.2413171986075
 21
220.5154962907184
 31
0.0
  0
LINE
  5
124EC
330
1F
100
AcDbEntity
  8
0
100
AcDbLine
 10
417.9853443652371
 20
219.3656775837285
 30
0.0
 11
417.8110489971468
 21
219.7403757247485
 31
0.0
  0
LINE
  5
124ED
330
1F
100
AcDbEntity
  8
0
100
AcDbLine
 10
420.6547128741473
 20
218.8317685481084
 30
0.0
 11
420.8414237366571
 21
218.4303797225985
 31
0.0
  0
LINE
  5
124EE
330
1F
100
AcDbEntity
  8
0
100
AcDbLine
 10
431.4124131875271
 20
198.6398725044585
 30
0.0
 11
431.1945838479771
 21
199.1081594674784
 31
0.0
  0
LINE
  5
124EF
330
1F
100
AcDbEntity
  8
0
100
AcDbLine
 10
431.7681051724671
 20
198.7683719577285
 30
0.0
 11
431.5502758328273
 21
199.2366589207484
 31
0.0
  0
LINE
  5
124F0
330
1F
100
AcDbEntity
  8
0
100
AcDbLine
 10
425.2855798847869
 20
214.0973765692184
 30
0.0
 11
426.386269117007
 21
211.7311277489085
 31
0.0
  0
LINE
  5
124F1
330
1F
100
AcDbEntity
  8
0
100
AcDbLine
 10
433.6855379432273
 20
212.7326386496384
 30
0.0
 11
427.9919695650169
 21
201.7282734171884
 31
0.0
  0
LINE
  5
124F2
330
1F
100
AcDbEntity
  8
0
100
AcDbLine
 10
435.8377935865972
 20
219.7466651796286
 30
0.0
 11
436.2413171986075
 21
220.5154962907184
 31
0.0
  0
LINE
  5
124F3
330
1F
100
AcDbEntity
  8
0
100
AcDbLine
 10
443.662597807847
 20
234.2890300877085
 30
0.0
 11
435.9754729987373
 21
219.6427974206386
 31
0.0
  0
LINE
  5
124F4
330
1F
100
AcDbEntity
  8
0
100
AcDbLine
 10
435.2200696863171
 20
217.2880632454185
 30
0.0
 11
433.2831563485972
 21
213.5976739119886
 31
0.0
  0
LINE
  5
124F5
330
1F
100
AcDbEntity
  8
0
100
AcDbLine
 10
437.4531480232972
 20
218.7963276088486
 30
0.0
 11
440.9234510867269
 21
225.4082751646184
 31
0.0
  0
LINE
  5
124F6
330
1F
100
AcDbEntity
  8
0
100
AcDbLine
 10
441.0418427812969
 20
225.3592055121286
 30
0.0
 11
436.5223783265872
 21
216.7482970673985
 31
0.0
  0
LINE
  5
124F7
330
1F
100
AcDbEntity
  8
0
100
AcDbLine
 10
448.595639587817
 20
233.0437304496584
 30
0.0
 11
448.1783968792671
 21
232.4173726862985
 31
0.0
  0
LINE
  5
124F8
330
1F
100
AcDbEntity
  8
0
100
AcDbLine
 10
447.7953141498772
 20
217.7719177841985
 30
0.0
 11
448.354430147357
 21
218.2062582074685
 31
0.0
  0
LINE
  5
124F9
330
1F
100
AcDbEntity
  8
0
100
AcDbLine
 10
439.3866916384369
 20
208.0057388321685
 30
0.0
 11
438.7231674528472
 21
208.2392842269586
 31
0.0
  0
LINE
  5
124FA
330
1F
100
AcDbEntity
  8
0
100
AcDbLine
 10
437.0883507538372
 20
208.0785032162085
 30
0.0
 11
437.7647834740971
 21
207.7981430213684
 31
0.0
  0
LINE
  5
124FB
330
1F
100
AcDbEntity
  8
0
100
AcDbLine
 10
427.6534145654871
 20
213.1159831911885
 30
0.0
 11
425.2855798847869
 21
214.0973765692184
 31
0.0
  0
LINE
  5
124FC
330
1F
100
AcDbEntity
  8
0
100
AcDbLine
 10
422.5916262119572
 20
222.5221578815386
 30
0.0
 11
422.7783370743769
 21
222.1207690560285
 31
0.0
  0
LINE
  5
124FD
330
1F
100
AcDbEntity
  8
0
100
AcDbLine
 10
422.4113802477175
 20
223.8103939146286
 30
0.0
 11
422.5358541560574
 21
223.5428013643184
 31
0.0
  0
LINE
  5
124FE
330
1F
100
AcDbEntity
  8
0
100
AcDbLine
 10
420.462956392217
 20
228.3226201735184
 30
0.0
 11
419.8826565030773
 21
229.5701420789685
 31
0.0
  0
LINE
  5
124FF
330
1F
100
AcDbEntity
  8
0
100
AcDbLine
 10
420.7833836688767
 20
228.1313381812184
 30
0.0
 11
420.3950015681273
 21
228.9662774728186
 31
0.0
  0
LINE
  5
12500
330
1F
100
AcDbEntity
  8
0
100
AcDbLine
 10
423.1126491091371
 20
223.1486813138384
 30
0.0
 11
423.2371230174774
 21
222.8810887635285
 31
0.0
  0
LINE
  5
12501
330
1F
100
AcDbEntity
  8
0
100
AcDbLine
 10
420.0020693794074
 20
230.6795036353185
 30
0.0
 11
419.8684574219567
 21
230.9667410566786
 31
0.0
  0
LINE
  5
12502
330
1F
100
AcDbEntity
  8
0
100
AcDbLine
 10
435.4931346472072
 20
212.6817070644584
 30
0.0
 11
440.3354179915975
 21
221.9076803979884
 31
0.0
  0
LINE
  5
12503
330
1F
100
AcDbEntity
  8
0
100
AcDbLine
 10
436.4380049964473
 20
212.0200853595284
 30
0.0
 11
440.8767647287368
 21
220.4772275820586
 31
0.0
  0
LINE
  5
12504
330
1F
100
AcDbEntity
  8
0
100
AcDbLine
 10
436.6123003645371
 20
211.6453872185084
 30
0.0
 11
441.0510600968271
 21
220.1025294410384
 31
0.0
  0
LINE
  5
12505
330
1F
100
AcDbEntity
  8
0
100
AcDbLine
 10
416.8228296039472
 20
219.5401386090585
 30
0.0
 11
417.4863576097671
 21
219.3065921162684
 31
0.0
  0
LINE
  5
12506
330
1F
100
AcDbEntity
  8
0
100
AcDbLine
 10
421.0570944687772
 20
217.9667332857585
 30
0.0
 11
433.6855379432273
 21
212.7326386496384
 31
0.0
  0
LINE
  5
12507
330
1F
100
AcDbEntity
  8
0
100
AcDbLine
 10
420.8414237366571
 20
218.4303797225985
 30
0.0
 11
433.4698672111072
 21
213.1962850864784
 31
0.0
  0
LINE
  5
12508
330
1F
100
AcDbEntity
  8
0
100
AcDbLine
 10
435.4931346472072
 20
212.6817070644584
 30
0.0
 11
433.2831563485972
 21
213.5976739119886
 31
0.0
  0
LINE
  5
12509
330
1F
100
AcDbEntity
  8
0
100
AcDbLine
 10
420.6547128741473
 20
218.8317685481084
 30
0.0
 11
418.4447345755372
 21
219.7477353956386
 31
0.0
  0
LINE
  5
1250A
330
1F
100
AcDbEntity
  8
0
100
AcDbLine
 10
437.4177514545774
 20
211.0456522512885
 30
0.0
 11
438.1290646662771
 21
210.7093705677885
 31
0.0
  0
LINE
  5
1250B
330
1F
100
AcDbEntity
  8
0
100
AcDbLine
 10
423.2548012567672
 20
222.8623131290383
 30
0.0
 11
423.237123018197
 21
222.8810887631685
 31
0.0
  0
LINE
  5
1250C
330
1F
100
AcDbEntity
  8
0
100
AcDbLine
 10
424.3143353150871
 20
224.5227780275985
 30
0.0
 11
424.3413066877072
 21
224.4647952865785
 31
0.0
  0
LINE
  5
1250D
330
1F
100
AcDbEntity
  8
0
100
AcDbLine
 10
427.9719853211575
 20
222.9599926084484
 30
0.0
 11
427.9450139485373
 21
223.0179753494686
 31
0.0
  0
LINE
  5
1250E
330
1F
100
AcDbEntity
  8
0
100
AcDbLine
 10
437.4177504143572
 20
211.0456527430486
 30
0.0
 11
441.8565101466469
 21
219.5027949654885
 31
0.0
  0
LINE
  5
1250F
330
1F
100
AcDbEntity
  8
0
100
AcDbLine
 10
438.1290625887166
 20
210.7093715500485
 30
0.0
 11
442.5678223210971
 21
219.1665137724886
 31
0.0
  0
LINE
  5
12510
330
1F
100
AcDbEntity
  8
0
100
AcDbLine
 10
446.7952058028473
 20
226.2508931533485
 30
0.0
 11
443.7687771341273
 21
220.4846604741584
 31
0.0
  0
LINE
  5
12511
330
1F
100
AcDbEntity
  8
0
100
AcDbLine
 10
438.2241736843973
 20
208.1802008332784
 30
0.0
 11
438.2930682745374
 21
208.3114652813984
 31
0.0
  0
LINE
  5
12512
330
1F
100
AcDbEntity
  8
0
100
AcDbLine
 10
445.4150066493473
 20
221.8545798814785
 30
0.0
 11
445.818530261357
 21
222.6234109926584
 31
0.0
  0
LINE
  5
12513
330
1F
100
AcDbEntity
  8
0
100
AcDbLine
 10
446.5027434757669
 20
223.7439445576186
 30
0.0
 11
445.8974580577071
 21
222.5906978909384
 31
0.0
  0
LINE
  5
12514
330
1F
100
AcDbEntity
  8
0
100
AcDbLine
 10
438.3984690524873
 20
207.8055026922585
 30
0.0
 11
438.6391765548471
 21
208.2641212487686
 31
0.0
  0
LINE
  5
12515
330
1F
100
AcDbEntity
  8
0
100
AcDbLine
 10
438.6871827717468
 20
208.2499252883986
 30
0.0
 11
438.4060972820273
 21
207.7143747952485
 31
0.0
  0
LINE
  5
12516
330
1F
100
AcDbEntity
  8
0
100
AcDbLine
 10
437.4781279490873
 20
210.0769728710385
 30
0.0
 11
431.5502758328273
 21
199.2366589207484
 31
0.0
  0
LINE
  5
12517
330
1F
100
AcDbEntity
  8
0
100
AcDbLine
 10
437.6959572827875
 20
209.6086858973083
 30
0.0
 11
431.7681051724671
 21
198.7683719577285
 31
0.0
  0
LINE
  5
12518
330
1F
100
AcDbEntity
  8
0
100
AcDbLine
 10
437.7244366800169
 20
209.2389235726485
 30
0.0
 11
431.794825239347
 21
198.4214513740485
 31
0.0
  0
LINE
  5
12519
330
1F
100
AcDbEntity
  8
0
100
AcDbLine
 10
433.2831563485972
 20
213.5976739119886
 30
0.0
 11
433.4698672111072
 21
213.1962850864784
 31
0.0
  0
LINE
  5
1251A
330
1F
100
AcDbEntity
  8
0
100
AcDbLine
 10
425.8087780799871
 20
231.6728341399485
 30
0.0
 11
425.876505592697
 21
231.5272343263185
 31
0.0
  0
LINE
  5
1251B
330
1F
100
AcDbEntity
  8
0
100
AcDbLine
 10
436.4380049964473
 20
212.0200853595284
 30
0.0
 11
436.6123003645371
 21
211.6453872185084
 31
0.0
  0
LINE
  5
1251C
330
1F
100
AcDbEntity
  8
0
100
AcDbLine
 10
438.2241736843973
 20
208.1802008332784
 30
0.0
 11
438.3984690524873
 21
207.8055026922585
 31
0.0
  0
LINE
  5
1251D
330
1F
100
AcDbEntity
  8
0
100
AcDbLine
 10
444.5822450878373
 20
218.7358765942484
 30
0.0
 11
439.7399617435373
 21
209.5099032606284
 31
0.0
  0
LINE
  5
1251E
330
1F
100
AcDbEntity
  8
0
100
AcDbLine
 10
447.962907708827
 20
223.1387521761586
 30
0.0
 11
446.9540986787571
 21
221.2166743983885
 31
0.0
  0
LINE
  5
1251F
330
1F
100
AcDbEntity
  8
0
100
AcDbLine
 10
440.3846746629171
 20
208.1239069773586
 30
0.0
 11
445.226958007217
 21
217.3498803109786
 31
0.0
  0
LINE
  5
12520
330
1F
100
AcDbEntity
  8
0
100
AcDbLine
 10
445.0594846063673
 20
216.8194704140686
 30
0.0
 11
440.3999311218174
 21
207.9416511834284
 31
0.0
  0
LINE
  5
12521
330
1F
100
AcDbEntity
  8
0
100
AcDbLine
 10
446.0404259610171
 20
215.6010964310686
 30
0.0
 11
447.2897639215672
 21
217.9814525335785
 31
0.0
  0
LINE
  5
12522
330
1F
100
AcDbEntity
  8
0
100
AcDbLine
 10
449.0668546297372
 20
221.3673291103485
 30
0.0
 11
448.9184410946275
 21
221.0845576943685
 31
0.0
  0
LINE
  5
12523
330
1F
100
AcDbEntity
  8
0
100
AcDbLine
 10
436.5223783265872
 20
216.7482970673985
 30
0.0
 11
435.2200696863171
 21
217.2880632454185
 31
0.0
  0
LINE
  5
12524
330
1F
100
AcDbEntity
  8
0
100
AcDbLine
 10
422.5916262119572
 20
222.5221578815386
 30
0.0
 11
421.2893136252771
 21
223.0619256952185
 31
0.0
  0
LINE
  5
12525
330
1F
100
AcDbEntity
  8
0
100
AcDbLine
 10
435.5675374924073
 20
217.7590692639586
 30
0.0
 11
423.2548012572172
 21
222.8623131288585
 31
0.0
  0
LINE
  5
12526
330
1F
100
AcDbEntity
  8
0
100
AcDbLine
 10
435.5498592527569
 20
217.7778448985385
 30
0.0
 11
423.2371230174774
 21
222.8810887635285
 31
0.0
  0
LINE
  5
12527
330
1F
100
AcDbEntity
  8
0
100
AcDbLine
 10
423.1126491091371
 20
223.1486813138384
 30
0.0
 11
435.4253853444172
 21
218.0454374488484
 31
0.0
  0
LINE
  5
12528
330
1F
100
AcDbEntity
  8
0
100
AcDbLine
 10
444.9690791501573
 20
215.3408977925086
 30
0.0
 11
444.4059510104573
 21
215.5742967842985
 31
0.0
  0
LINE
  5
12529
330
1F
100
AcDbEntity
  8
0
100
AcDbLine
 10
444.6920319997673
 20
215.4938870248184
 30
0.0
 11
444.4224017699871
 21
215.6056403174985
 31
0.0
  0
LINE
  5
1252A
330
1F
100
AcDbEntity
  8
0
100
AcDbLine
 10
435.5675374924073
 20
217.7590692639586
 30
0.0
 11
435.5498592527569
 21
217.7778448985385
 31
0.0
  0
LINE
  5
1252B
330
1F
100
AcDbEntity
  8
0
100
AcDbLine
 10
432.2071149530573
 20
221.2514678577584
 30
0.0
 11
432.234086325677
 21
221.1934851167385
 31
0.0
  0
LINE
  5
1252C
330
1F
100
AcDbEntity
  8
0
100
AcDbLine
 10
437.6959566571975
 20
209.6086861696486
 30
0.0
 11
437.4781279490873
 21
210.0769728710385
 31
0.0
  0
LINE
  5
1252D
330
1F
100
AcDbEntity
  8
0
100
AcDbLine
 10
435.5498592527569
 20
217.7778448985385
 30
0.0
 11
435.4253853444172
 21
218.0454374488484
 31
0.0
  0
LINE
  5
1252E
330
1F
100
AcDbEntity
  8
0
100
AcDbLine
 10
440.3846746629171
 20
208.1239069773586
 30
0.0
 11
439.7399617435373
 21
209.5099032606284
 31
0.0
  0
LINE
  5
1252F
330
1F
100
AcDbEntity
  8
0
100
AcDbLine
 10
429.0085052457473
 20
233.1387053634585
 30
0.0
 11
429.0240644842671
 21
233.1052562946585
 31
0.0
  0
LINE
  5
12530
330
1F
100
AcDbEntity
  8
0
100
AcDbLine
 10
435.864764959127
 20
219.6886824386084
 30
0.0
 11
435.8377935865972
 21
219.7466651796286
 31
0.0
  0
LINE
  5
12531
330
1F
100
AcDbEntity
  8
0
100
AcDbLine
 10
446.7952058028473
 20
226.2508931533485
 30
0.0
 11
448.1783968792671
 21
232.4173726862985
 31
0.0
  0
LINE
  5
12532
330
1F
100
AcDbEntity
  8
0
100
AcDbLine
 10
445.1670754227173
 20
220.7512580824785
 30
0.0
 11
445.4150066493473
 21
221.8545798814785
 31
0.0
  0
LINE
  5
12533
330
1F
100
AcDbEntity
  8
0
100
AcDbLine
 10
449.3632391774274
 20
220.1283359852385
 30
0.0
 11
448.354430147357
 21
218.2062582074685
 31
0.0
  0
LINE
  5
12534
330
1F
100
AcDbEntity
  8
0
100
AcDbLine
 10
421.2615891908873
 20
227.9972808827084
 30
0.0
 11
421.9251160670268
 21
227.7637347875384
 31
0.0
  0
LINE
  5
12535
330
1F
100
AcDbEntity
  8
0
100
AcDbLine
 10
424.1363035417371
 20
224.5497626753984
 30
0.0
 11
428.0826933606773
 21
222.9141075904786
 31
0.0
  0
LINE
  5
12536
330
1F
100
AcDbEntity
  8
0
100
AcDbLine
 10
432.0290831797072
 20
221.2784525055584
 30
0.0
 11
435.9754729987373
 21
219.6427974206386
 31
0.0
  0
LINE
  5
12537
330
1F
100
AcDbEntity
  8
0
100
AcDbLine
 10
435.8377935865972
 20
219.7466651796286
 30
0.0
 11
432.2071149530573
 21
221.2514678577584
 31
0.0
  0
LINE
  5
12538
330
1F
100
AcDbEntity
  8
0
100
AcDbLine
 10
427.9450139485373
 20
223.0179753494686
 30
0.0
 11
424.3143353150871
 21
224.5227780275985
 31
0.0
  0
LINE
  5
12539
330
1F
100
AcDbEntity
  8
0
100
AcDbLine
 10
424.7178589270971
 20
225.2916091386885
 30
0.0
 11
428.348537560547
 21
223.7868064605585
 31
0.0
  0
LINE
  5
1253A
330
1F
100
AcDbEntity
  8
0
100
AcDbLine
 10
432.6106385650671
 20
222.0202989688485
 30
0.0
 11
436.2413171986075
 21
220.5154962907184
 31
0.0
  0
LINE
  5
1253B
330
1F
100
AcDbEntity
  8
0
100
AcDbLine
 10
425.7519693748371
 20
226.5047656466384
 30
0.0
 11
429.214121979677
 21
225.0698117336984
 31
0.0
  0
LINE
  5
1253C
330
1F
100
AcDbEntity
  8
0
100
AcDbLine
 10
433.6447490128072
 20
223.2334554767984
 30
0.0
 11
437.1069016177373
 21
221.7985015637685
 31
0.0
  0
LINE
  5
1253D
330
1F
100
AcDbEntity
  8
0
100
AcDbLine
 10
420.3950015681273
 20
228.9662774728186
 30
0.0
 11
422.2042601407371
 21
228.2163964118984
 31
0.0
  0
LINE
  5
1253E
330
1F
100
AcDbEntity
  8
0
100
AcDbLine
 10
440.8767647287368
 20
220.4772275820586
 30
0.0
 11
442.7315679436372
 21
219.7084696920884
 31
0.0
  0
LINE
  5
1253F
330
1F
100
AcDbEntity
  8
0
100
AcDbLine
 10
446.2562221204673
 20
218.4098232672885
 30
0.0
 11
447.7953141498772
 21
217.7719177841985
 31
0.0
  0
LINE
  5
12540
330
1F
100
AcDbEntity
  8
0
100
AcDbLine
 10
441.8565109401773
 20
219.5027945903685
 30
0.0
 11
442.5678239510872
 21
219.1665130019085
 31
0.0
  0
LINE
  5
12541
330
1F
100
AcDbEntity
  8
0
100
AcDbLine
 10
437.5208755360072
 20
218.6507277953086
 30
0.0
 11
437.4531480232972
 21
218.7963276088486
 31
0.0
  0
LINE
  5
12542
330
1F
100
AcDbEntity
  8
0
100
AcDbLine
 10
450.4500457061573
 20
227.5338086432985
 30
0.0
 11
449.0668546297372
 21
221.3673291103485
 31
0.0
  0
LINE
  5
12543
330
1F
100
AcDbEntity
  8
0
100
AcDbLine
 10
446.9540986787571
 20
221.2166743983885
 30
0.0
 11
446.7061674521271
 21
220.1133525993885
 31
0.0
  0
LINE
  5
12544
330
1F
100
AcDbEntity
  8
0
100
AcDbLine
 10
419.8536548309871
 20
230.3967302887484
 30
0.0
 11
423.287017919837
 21
228.9737087292583
 31
0.0
  0
LINE
  5
12545
330
1F
100
AcDbEntity
  8
0
100
AcDbLine
 10
440.3354179915975
 20
221.9076803979884
 30
0.0
 11
443.7687771341273
 21
220.4846604741584
 31
0.0
  0
LINE
  5
12546
330
1F
100
AcDbEntity
  8
0
100
AcDbLine
 10
420.1020190194474
 20
230.8699370834084
 30
0.0
 11
419.8684574219567
 21
230.9667410566786
 31
0.0
  0
LINE
  5
12547
330
1F
100
AcDbEntity
  8
0
100
AcDbLine
 10
446.7061674521271
 20
220.1133525993885
 30
0.0
 11
445.1670754227173
 21
220.7512580824785
 31
0.0
  0
LINE
  5
12548
330
1F
100
AcDbEntity
  8
0
100
AcDbLine
 10
420.621934930577
 20
231.8605297419584
 30
0.0
 11
420.116388648587
 21
232.0700628556784
 31
0.0
  0
LINE
  5
12549
330
1F
100
AcDbEntity
  8
0
100
AcDbLine
 10
446.9540986787571
 20
221.2166743983885
 30
0.0
 11
445.4150066493473
 21
221.8545798814785
 31
0.0
  0
LINE
  5
1254A
330
1F
100
AcDbEntity
  8
0
100
AcDbLine
 10
440.8767647287368
 20
220.4772275820586
 30
0.0
 11
441.0510600968271
 21
220.1025294410384
 31
0.0
  0
LINE
  5
1254B
330
1F
100
AcDbEntity
  8
0
100
AcDbLine
 10
436.9012848838072
 20
229.8673951936185
 30
0.0
 11
436.9168441223271
 21
229.8339461248184
 31
0.0
  0
LINE
  5
1254C
330
1F
100
AcDbEntity
  8
0
100
AcDbLine
 10
445.818530261357
 20
222.6234109926584
 30
0.0
 11
445.8974580577071
 21
222.5906978909384
 31
0.0
  0
LINE
  5
1254D
330
1F
100
AcDbEntity
  8
0
100
AcDbLine
 10
445.3828731607672
 20
223.5599842643986
 30
0.0
 11
440.9234510867269
 21
225.4082751646184
 31
0.0
  0
LINE
  5
1254E
330
1F
100
AcDbEntity
  8
0
100
AcDbLine
 10
421.4677492790269
 20
233.4720547332884
 30
0.0
 11
425.9271697745573
 21
231.6237644873684
 31
0.0
  0
LINE
  5
1254F
330
1F
100
AcDbEntity
  8
0
100
AcDbLine
 10
421.1251976786573
 20
233.9921406335384
 30
0.0
 11
421.6307423820471
 21
233.7826081740284
 31
0.0
  0
LINE
  5
12550
330
1F
100
AcDbEntity
  8
0
100
AcDbLine
 10
446.5027434757669
 20
223.7439445576186
 30
0.0
 11
447.962907708827
 21
223.1387521761586
 31
0.0
  0
LINE
  5
12551
330
1F
100
AcDbEntity
  8
0
100
AcDbLine
 10
442.7315679436372
 20
219.7084696920884
 30
0.0
 11
443.1199495952871
 21
218.8735313661885
 31
0.0
  0
LINE
  5
12552
330
1F
100
AcDbEntity
  8
0
100
AcDbLine
 10
444.537786510827
 20
215.8254821703586
 30
0.0
 11
444.6920319997673
 21
215.4938870248184
 31
0.0
  0
LINE
  5
12553
330
1F
100
AcDbEntity
  8
0
100
AcDbLine
 10
440.9911785994373
 20
225.2626753510784
 30
0.0
 11
440.9234510867269
 21
225.4082751646184
 31
0.0
  0
LINE
  5
12554
330
1F
100
AcDbEntity
  8
0
100
AcDbLine
 10
443.7687771341273
 20
220.4846604741584
 30
0.0
 11
444.5822450878373
 21
218.7358765942484
 31
0.0
  0
LINE
  5
12555
330
1F
100
AcDbEntity
  8
0
100
AcDbLine
 10
445.226958007217
 20
217.3498803109786
 30
0.0
 11
446.0404259610171
 21
215.6010964310686
 31
0.0
  0
LINE
  5
12556
330
1F
100
AcDbEntity
  8
0
100
AcDbLine
 10
445.1670754227173
 20
220.7512580824785
 30
0.0
 11
446.2562221204673
 21
218.4098232672885
 31
0.0
  0
LINE
  5
12557
330
1F
100
AcDbEntity
  8
0
100
AcDbLine
 10
450.4500457061573
 20
227.5338086432985
 30
0.0
 11
450.493866689777
 21
228.9629440574984
 31
0.0
  0
LINE
  5
12558
330
1F
100
AcDbEntity
  8
0
100
AcDbLine
 10
428.8758089322775
 20
232.8858798753584
 30
0.0
 11
432.5230155983573
 21
231.3742268449785
 31
0.0
  0
LINE
  5
12559
330
1F
100
AcDbEntity
  8
0
100
AcDbLine
 10
436.7685885702472
 20
229.6145697055186
 30
0.0
 11
440.4157952363273
 21
228.1029166751385
 31
0.0
  0
LINE
  5
1255A
330
1F
100
AcDbEntity
  8
0
100
AcDbLine
 10
440.5368523199569
 20
228.3335660084384
 30
0.0
 11
436.9168441223271
 21
229.8339461248184
 31
0.0
  0
LINE
  5
1255B
330
1F
100
AcDbEntity
  8
0
100
AcDbLine
 10
432.6440726818971
 20
231.6048761782784
 30
0.0
 11
429.0240644842671
 21
233.1052562946585
 31
0.0
  0
LINE
  5
1255C
330
1F
100
AcDbEntity
  8
0
100
AcDbLine
 10
446.7061674521271
 20
220.1133525993885
 30
0.0
 11
447.7953141498772
 21
217.7719177841985
 31
0.0
  0
LINE
  5
1255D
330
1F
100
AcDbEntity
  8
0
100
AcDbLine
 10
445.3828731607672
 20
223.5599842643986
 30
0.0
 11
445.8185313088669
 21
222.6234114799184
 31
0.0
  0
LINE
  5
1255E
330
1F
100
AcDbEntity
  8
0
100
AcDbLine
 10
447.962907708827
 20
223.1387521761586
 30
0.0
 11
449.3632391774274
 21
220.1283359852385
 31
0.0
  0
LINE
  5
1255F
330
1F
100
AcDbEntity
  8
0
100
AcDbLine
 10
446.7952058028473
 20
226.2508931533485
 30
0.0
 11
449.0668546297372
 21
221.3673291103485
 31
0.0
  0
LINE
  5
12560
330
1F
100
AcDbEntity
  8
0
100
AcDbLine
 10
427.3076292794272
 20
241.0676527439685
 30
0.0
 11
431.823428350847
 21
239.1959953425585
 31
0.0
  0
LINE
  5
12561
330
1F
100
AcDbEntity
  8
0
100
AcDbLine
 10
435.7698181698771
 20
237.5603402576385
 30
0.0
 11
439.7162079888174
 21
235.9246851727185
 31
0.0
  0
LINE
  5
12562
330
1F
100
AcDbEntity
  8
0
100
AcDbLine
 10
443.662597807847
 20
234.2890300877085
 30
0.0
 11
448.1783968792671
 21
232.4173726862985
 31
0.0
  0
LINE
  5
12563
330
1F
100
AcDbEntity
  8
0
100
AcDbLine
 10
428.2322649646673
 20
241.4837119964384
 30
0.0
 11
448.595639587817
 21
233.0437304496584
 31
0.0
  0
LINE
  5
12564
330
1F
100
AcDbEntity
  8
0
100
AcDbLine
 10
448.595639587817
 20
233.0437304496584
 30
0.0
 11
450.493866689777
 21
228.9629440574984
 31
0.0
  0
ARC
  5
12565
330
1F
100
AcDbEntity
  8
0
100
AcDbCircle
 10
418.2328080057772
 20
191.9155998885285
 30
0.0
 40
11.06715232512
100
AcDbArc
 50
60.13493687070408
 51
60.27543286961064
  0
ARC
  5
12566
330
1F
100
AcDbEntity
  8
0
100
AcDbCircle
 10
420.5865517967875
 20
213.4352794105785
 30
0.0
 40
10.39796705466
100
AcDbArc
 50
247.3598150716083
 51
247.4874357296998
  0
ARC
  5
12567
330
1F
100
AcDbEntity
  8
0
100
AcDbCircle
 10
433.0628556234469
 20
207.8955500596185
 30
0.0
 40
10.04679466083
100
AcDbArc
 50
247.4874500199114
 51
247.6238772964026
  0
ARC
  5
12568
330
1F
100
AcDbEntity
  8
0
100
AcDbCircle
 10
439.6644487263769
 20
213.0283521756886
 30
0.0
 40
6.790184535329997
100
AcDbArc
 50
59.40964861939185
 51
64.68565889401154
  0
ARC
  5
12569
330
1F
100
AcDbEntity
  8
0
100
AcDbCircle
 10
420.5940870757673
 20
198.8129364851684
 30
0.0
 40
3.75291338373
100
AcDbArc
 50
77.9069938264917
 51
78.43256961449272
  0
ARC
  5
1256A
330
1F
100
AcDbEntity
  8
0
100
AcDbCircle
 10
422.668016501237
 20
229.8736584815384
 30
0.0
 40
2.23689048678
100
AcDbArc
 50
250.6029230786942
 51
251.6529717486146
  0
ARC
  5
1256B
330
1F
100
AcDbEntity
  8
0
100
AcDbCircle
 10
423.8076747210473
 20
224.1962529085784
 30
0.0
 40
1.443975208559999
100
AcDbArc
 50
246.5182608494904
 51
247.4876270756889
  0
ARC
  5
1256C
330
1F
100
AcDbEntity
  8
0
100
AcDbCircle
 10
436.0966815029571
 20
219.0972122657086
 30
0.0
 40
1.428196353119999
100
AcDbArc
 50
247.4880508866013
 51
248.3654455983934
  0
ARC
  5
1256D
330
1F
100
AcDbEntity
  8
0
100
AcDbCircle
 10
420.435085670477
 20
202.5581151083384
 30
0.0
 40
0.28150302645
100
AcDbArc
 50
249.1188356264066
 51
261.3821731170901
  0
ARC
  5
1256E
330
1F
100
AcDbEntity
  8
0
100
AcDbCircle
 10
420.4326919320171
 20
202.5516729992385
 30
0.0
 40
0.2746308283199999
100
AcDbArc
 50
244.4541865663897
 51
249.1063920392994
  0
ARC
  5
1256F
330
1F
100
AcDbEntity
  8
0
100
AcDbCircle
 10
420.4357878307676
 20
202.5364866152384
 30
0.0
 40
0.27197860905
100
AcDbArc
 50
247.5534068480119
 51
265.3872660338936
  0
ARC
  5
12570
330
1F
100
AcDbEntity
  8
0
100
AcDbCircle
 10
420.4355168922472
 20
202.5343099761286
 30
0.0
 40
0.26970155784
100
AcDbArc
 50
265.4533746874916
 51
331.3442828846916
  0
ARC
  5
12571
330
1F
100
AcDbEntity
  8
0
100
AcDbCircle
 10
425.6101223302673
 20
200.3885349682485
 30
0.0
 40
0.26888194368
100
AcDbArc
 50
242.1831005399014
 51
247.477920123103
  0
ARC
  5
12572
330
1F
100
AcDbEntity
  8
0
100
AcDbCircle
 10
420.4535188884472
 20
202.5362171610885
 30
0.0
 40
0.2519921575800001
100
AcDbArc
 50
329.1601389181063
 51
331.2790414345138
  0
ARC
  5
12573
330
1F
100
AcDbEntity
  8
0
100
AcDbCircle
 10
420.866356417667
 20
202.4285461607686
 30
0.0
 40
0.19070889462
100
AcDbArc
 50
151.2894786969919
 51
159.5077979267908
  0
ARC
  5
12574
330
1F
100
AcDbEntity
  8
0
100
AcDbCircle
 10
425.5475690255573
 20
200.3409711020684
 30
0.0
 40
0.19047230244
100
AcDbArc
 50
217.811637162309
 51
230.9234299121896
  0
SPLINE
  5
12575
330
1F
100
AcDbEntity
  8
0
100
AcDbSpline
210
0.0
220
0.0
230
1.0
 70
     8
 71
     3
 72
    11
 73
     7
 74
     0
 42
0.0000000001
 43
0.0000000001
 40
0.0
 40
0.0
 40
0.0
 40
0.0
 40
0.256319556
 40
0.5076571261999999
 40
0.7549536576000003
 40
1.0
 40
1.0
 40
1.0
 40
1.0
 10
422.4568667111273
 20
225.0118169315984
 30
0.0
 10
422.4074946808671
 20
224.9177486993986
 30
0.0
 10
422.329195142657
 20
224.7203338090185
 30
0.0
 10
422.2806769980172
 20
224.4085486815584
 30
0.0
 10
422.304578568197
 20
224.0984825423084
 30
0.0
 10
422.3686167462771
 20
223.9023014504986
 30
0.0
 10
422.4114632211471
 20
223.8102163700986
 30
0.0
  0
SPLINE
  5
12576
330
1F
100
AcDbEntity
  8
0
100
AcDbSpline
210
0.0
220
0.0
230
1.0
 70
     8
 71
     3
 72
    11
 73
     7
 74
     0
 42
0.0000000001
 43
0.0000000001
 40
0.0
 40
0.0
 40
0.0
 40
0.0
 40
0.2527035672
 40
0.5031620194000001
 40
0.7520099025000003
 40
1.0
 40
1.0
 40
1.0
 40
1.0
 10
423.2323130225569
 20
222.8718574545285
 30
0.0
 10
423.1560299155373
 20
222.9049975802384
 30
0.0
 10
423.0094989487668
 20
222.9842870317785
 30
0.0
 10
422.8151963735871
 20
223.1397024725684
 30
0.0
 10
422.6532779955768
 20
223.3266163206284
 30
0.0
 10
422.5702783851172
 20
223.4687965598685
 30
0.0
 10
422.5358541560574
 20
223.5428013643184
 30
0.0
  0
SPLINE
  5
12577
330
1F
100
AcDbEntity
  8
0
100
AcDbSpline
210
0.0
220
0.0
230
1.0
 70
     8
 71
     3
 72
    11
 73
     7
 74
     0
 42
0.0000000001
 43
0.0000000001
 40
0.0
 40
0.0
 40
0.0
 40
0.0
 40
0.2459027273
 40
0.4956830082
 40
0.7478412195000002
 40
1.0
 40
1.0
 40
1.0
 40
1.0
 10
435.5675374924073
 20
217.7590692639586
 30
0.0
 10
435.6990216738169
 20
217.7045731853084
 30
0.0
 10
435.9818021529775
 20
217.6336170691184
 30
0.0
 10
436.4195975124473
 20
217.6483937724884
 30
0.0
 10
436.8411596179073
 20
217.7794946816985
 30
0.0
 10
437.0907812676469
 20
217.9385810512186
 30
0.0
 10
437.2022245264371
 20
218.0328264468886
 30
0.0
  0
SPLINE
  5
12578
330
1F
100
AcDbEntity
  8
0
100
AcDbSpline
210
0.0
220
0.0
230
1.0
 70
     8
 71
     3
 72
    13
 73
     9
 74
     0
 42
0.0000000001
 43
0.0000000001
 40
0.0
 40
0.0
 40
0.0
 40
0.0
 40
0.121894316
 40
0.2459252406
 40
0.497526767
 40
0.750567137
 40
0.8761939094999997
 40
1.0
 40
1.0
 40
1.0
 40
1.0
 10
435.4253853444172
 20
218.0454374488484
 30
0.0
 10
435.513850141697
 20
218.0087715587386
 30
0.0
 10
435.7002801974571
 20
217.9526114786384
 30
0.0
 10
436.0910240867572
 20
217.9128585681884
 30
0.0
 10
436.5887425551175
 20
218.0016527112885
 30
0.0
 10
437.0248095294772
 20
218.2593465921585
 30
0.0
 10
437.2997116916874
 20
218.5451293816785
 30
0.0
 10
437.4079462391571
 20
218.7102049214384
 30
0.0
 10
437.4531480232972
 20
218.7963276088486
 30
0.0
  0
SPLINE
  5
12579
330
1F
100
AcDbEntity
  8
0
100
AcDbSpline
210
0.0
220
0.0
230
1.0
 70
     8
 71
     3
 72
    11
 73
     7
 74
     0
 42
0.0000000001
 43
0.0000000001
 40
0.0
 40
0.0
 40
0.0
 40
0.0
 40
0.252750112
 40
0.5058659137000002
 40
0.7557767619
 40
1.0
 40
1.0
 40
1.0
 40
1.0
 10
437.2356332549871
 20
218.0909158056884
 30
0.0
 10
437.1242234105871
 20
217.9906525857585
 30
0.0
 10
436.8723117572874
 20
217.8199086526784
 30
0.0
 10
436.4428754489575
 20
217.6743854212185
 30
0.0
 10
435.9950265148373
 20
217.6491520598384
 30
0.0
 10
435.7047500791368
 20
217.7162296565385
 30
0.0
 10
435.5701266123171
 20
217.7696261969084
 30
0.0
  0
SPLINE
  5
1257A
330
1F
100
AcDbEntity
  8
0
100
AcDbSpline
210
0.0
220
0.0
230
1.0
 70
     8
 71
     3
 72
    11
 73
     7
 74
     0
 42
0.0000000001
 43
0.0000000001
 40
0.0
 40
0.0
 40
0.0
 40
0.0
 40
0.2544139822
 40
0.5053134369
 40
0.7533702354999999
 40
1.0
 40
1.0
 40
1.0
 40
1.0
 10
423.2371230174774
 20
222.8810887635285
 30
0.0
 10
423.1599237244968
 20
222.9130854546284
 30
0.0
 10
423.0118097851675
 20
222.9902778948286
 30
0.0
 10
422.815593454487
 20
223.1432962041584
 30
0.0
 10
422.6529231543775
 20
223.3282443344986
 30
0.0
 10
422.570018409767
 20
223.4693471894985
 30
0.0
 10
422.5358544684475
 20
223.5428015095784
 30
0.0
  0
SPLINE
  5
1257B
330
1F
100
AcDbEntity
  8
0
100
AcDbSpline
210
0.0
220
0.0
230
1.0
 70
     8
 71
     3
 72
    11
 73
     7
 74
     0
 42
0.0000000001
 43
0.0000000001
 40
0.0
 40
0.0
 40
0.0
 40
0.0
 40
0.2466295586
 40
0.4946866798
 40
0.7455864335
 40
1.0
 40
1.0
 40
1.0
 40
1.0
 10
422.4114632211471
 20
223.8102163700986
 30
0.0
 10
422.4456316996372
 20
223.7367819253484
 30
0.0
 10
422.5285387900073
 20
223.5957185492085
 30
0.0
 10
422.6911941268975
 20
223.4108228100286
 30
0.0
 10
422.8873796902673
 20
223.2578459946586
 30
0.0
 10
423.0354652272174
 20
223.1806716175484
 30
0.0
 10
423.1126491091371
 20
223.1486813138384
 30
0.0
  0
SPLINE
  5
1257C
330
1F
100
AcDbEntity
  8
0
100
AcDbSpline
210
0.0
220
0.0
230
1.0
 70
     8
 71
     3
 72
    15
 73
    11
 74
     0
 42
0.0000000001
 43
0.0000000001
 40
0.0
 40
0.0
 40
0.0
 40
0.0
 40
0.1916078411
 40
0.3671719209000001
 40
0.5237815713
 40
0.6596185492000001
 40
0.7736294900000003
 40
0.8659383894999999
 40
0.939100612
 40
1.0
 40
1.0
 40
1.0
 40
1.0
 10
439.3866916384369
 20
208.0057388321685
 30
0.0
 10
439.4507938355871
 20
207.9831763221285
 30
0.0
 10
439.5745864370872
 20
207.9425737540785
 30
0.0
 10
439.7539283924571
 20
207.8937777618885
 30
0.0
 10
439.9166517863569
 20
207.8603158661086
 30
0.0
 10
440.0599199671971
 20
207.8426864604586
 30
0.0
 10
440.181613330307
 20
207.8409783350685
 30
0.0
 10
440.2802358158571
 20
207.8554633501485
 30
0.0
 10
440.3557318646873
 20
207.8864965301384
 30
0.0
 10
440.3899131211971
 20
207.9225567750585
 30
0.0
 10
440.3999478041271
 20
207.9416832711286
 30
0.0
  0
SPLINE
  5
1257D
330
1F
100
AcDbEntity
  8
0
100
AcDbSpline
210
0.0
220
0.0
230
1.0
 70
     8
 71
     3
 72
    14
 73
    10
 74
     0
 42
0.0000000001
 43
0.0000000001
 40
0.0
 40
0.0
 40
0.0
 40
0.0
 40
0.3670965661
 40
0.5238005334000003
 40
0.659651821
 40
0.7736106900000001
 40
0.8659426614999999
 40
0.9390870554000001
 40
1.0
 40
1.0
 40
1.0
 40
1.0
 10
438.7231674528472
 20
208.2392842269586
 30
0.0
 10
438.6617617762974
 20
208.2608976232785
 30
0.0
 10
438.5727876943072
 20
208.2884018401785
 30
0.0
 10
438.4581288230871
 20
208.3120081703985
 30
0.0
 10
438.3864811425771
 20
208.3208304385785
 30
0.0
 10
438.3256391671673
 20
208.3216380425084
 30
0.0
 10
438.2763331150074
 20
208.3144127318085
 30
0.0
 10
438.2385904531071
 20
208.2988711426486
 30
0.0
 10
438.2215108061568
 20
208.2808291436984
 30
0.0
 10
438.2165031796973
 20
208.2712581322185
 30
0.0
  0
SPLINE
  5
1257E
330
1F
100
AcDbEntity
  8
0
100
AcDbSpline
210
0.0
220
0.0
230
1.0
 70
     8
 71
     3
 72
    15
 73
    11
 74
     0
 42
0.0000000001
 43
0.0000000001
 40
0.0
 40
0.0
 40
0.0
 40
0.0
 40
0.1900777807
 40
0.3667088098
 40
0.5257464877000002
 40
0.6642915018
 40
0.7802578759000001
 40
0.8727815303999999
 40
0.9436845033999999
 40
1.0
 40
1.0
 40
1.0
 40
1.0
 10
437.7647834740971
 20
207.7981430213684
 30
0.0
 10
437.8043557140474
 20
207.7817415662685
 30
0.0
 10
437.881409431127
 20
207.7517662493386
 30
0.0
 10
437.9938965052372
 20
207.7143754910385
 30
0.0
 10
438.097229696447
 20
207.6867822861885
 30
0.0
 10
438.188934631067
 20
207.6695994715186
 30
0.0
 10
438.2670804553973
 20
207.6629917838384
 30
0.0
 10
438.330189134897
 20
207.6672980190584
 30
0.0
 10
438.3782805549773
 20
207.6822823805085
 30
0.0
 10
438.4002403017173
 20
207.7031887423185
 30
0.0
 10
438.4061291587666
 20
207.7144312560286
 30
0.0
  0
SPLINE
  5
1257F
330
1F
100
AcDbEntity
  8
0
100
AcDbSpline
210
0.0
220
0.0
230
1.0
 70
     8
 71
     3
 72
    13
 73
     9
 74
     0
 42
0.0000000001
 43
0.0000000001
 40
0.0
 40
0.0
 40
0.0
 40
0.0
 40
0.0740871985
 40
0.1662088814
 40
0.2754956205
 40
0.4002589773
 40
0.6860711296000001
 40
1.0
 40
1.0
 40
1.0
 40
1.0
 10
416.4695516824371
 20
218.0359799601284
 30
0.0
 10
416.4876192299572
 20
217.9971385580685
 30
0.0
 10
416.5393326657468
 20
217.9153145438984
 30
0.0
 10
416.6424660492173
 20
217.7936218781086
 30
0.0
 10
416.7779575136568
 20
217.6620655021184
 30
0.0
 10
417.0084231366169
 20
217.4688084123884
 30
0.0
 10
417.3526406536373
 20
217.2286860469185
 30
0.0
 10
417.6530728642068
 20
217.0547233733685
 30
0.0
 10
417.8135994953573
 20
216.9699911201683
 30
0.0
  0
SPLINE
  5
12580
330
1F
100
AcDbEntity
  8
0
100
AcDbSpline
210
0.0
220
0.0
230
1.0
 70
     8
 71
     3
 72
    11
 73
     7
 74
     0
 42
0.0000000001
 43
0.0000000001
 40
0.0
 40
0.0
 40
0.0
 40
0.0
 40
0.2479955078
 40
0.4995120835000001
 40
0.7518935309
 40
1.0
 40
1.0
 40
1.0
 40
1.0
 10
419.882667556247
 20
229.5701181425684
 30
0.0
 10
419.852867358437
 20
229.6341644582686
 30
0.0
 10
419.8027915793875
 20
229.7681500195784
 30
0.0
 10
419.7650986783972
 20
229.9804117296285
 30
0.0
 10
419.7750094399673
 20
230.1964413730185
 30
0.0
 10
419.8208115546171
 20
230.3341541918986
 30
0.0
 10
419.8536548309871
 20
230.3967302887484
 30
0.0
  0
SPLINE
  5
12581
330
1F
100
AcDbEntity
  8
0
100
AcDbSpline
210
0.0
220
0.0
230
1.0
 70
     8
 71
     3
 72
    27
 73
    23
 74
     0
 42
0.0000000001
 43
0.0000000001
 40
0.0
 40
0.0
 40
0.0
 40
0.0
 40
0.0188694343
 40
0.0405019534
 40
0.0919474544
 40
0.1536761662
 40
0.2242953015
 40
0.3019597105
 40
0.3845280766
 40
0.4696648417000004
 40
0.5549375378
 40
0.6379083397000001
 40
0.7162261725
 40
0.7877219627
 40
0.8505142382999999
 40
0.9031454004
 40
0.9253850719999999
 40
0.9448645744
 40
0.9616850663999999
 40
0.976095616
 40
0.9885956038999999
 40
1.0
 40
1.0
 40
1.0
 40
1.0
 10
430.5410832970967
 20
199.1900132365484
 30
0.0
 10
430.5227216662069
 20
199.2294868555785
 30
0.0
 10
430.4771516575971
 20
199.3113734402685
 30
0.0
 10
430.355679059807
 20
199.4855755844685
 30
0.0
 10
430.1475128496173
 20
199.7180215733684
 30
0.0
 10
429.8344806343671
 20
200.0046312611085
 30
0.0
 10
429.453448611227
 20
200.3045797792784
 30
0.0
 10
429.0158374434175
 20
200.6086326085784
 30
0.0
 10
428.5347403744975
 20
200.9074442630384
 30
0.0
 10
428.024799934487
 20
201.1918156159484
 30
0.0
 10
427.5015814088272
 20
201.4530301221285
 30
0.0
 10
426.981086129177
 20
201.6831284055884
 30
0.0
 10
426.4792429631572
 20
201.8751517286085
 30
0.0
 10
426.0112973074972
 20
202.0234803026386
 30
0.0
 10
425.5914793472268
 20
202.1237885597384
 30
0.0
 10
425.2760235689573
 20
202.1679108889185
 30
0.0
 10
425.0581542590571
 20
202.1731536698986
 30
0.0
 10
424.923179025527
 20
202.1634295316085
 30
0.0
 10
424.8080495423271
 20
202.1404372926284
 30
0.0
 10
424.7133056299974
 20
202.1038433665185
 30
0.0
 10
424.6396079944672
 20
202.0531785378285
 30
0.0
 10
424.6051711416471
 20
202.0086002380486
 30
0.0
 10
424.5929350689772
 20
201.9853064389484
 30
0.0
  0
SPLINE
  5
12582
330
1F
100
AcDbEntity
  8
0
100
AcDbSpline
210
0.0
220
0.0
230
1.0
 70
     8
 71
     3
 72
    27
 73
    23
 74
     0
 42
0.0000000001
 43
0.0000000001
 40
0.0
 40
0.0
 40
0.0
 40
0.0
 40
0.0188694343
 40
0.0405019534
 40
0.0919474544
 40
0.1536761662
 40
0.2242953015
 40
0.3019597105
 40
0.3845280766
 40
0.4696648417000004
 40
0.5549375378
 40
0.6379083397000001
 40
0.7162261725
 40
0.7877219627
 40
0.8505142382999999
 40
0.9031454004
 40
0.9253850719999999
 40
0.9448645744
 40
0.9616850663999999
 40
0.976095616
 40
0.9885956038999999
 40
1.0
 40
1.0
 40
1.0
 40
1.0
 10
419.8858347322071
 20
203.6062803302085
 30
0.0
 10
419.8674731013173
 20
203.6457539492385
 30
0.0
 10
419.8219030927073
 20
203.7276405338385
 30
0.0
 10
419.7004304949171
 20
203.9018426781286
 30
0.0
 10
419.4922642846369
 20
204.1342886670284
 30
0.0
 10
419.1792320694774
 20
204.4208983547686
 30
0.0
 10
418.7982000463373
 20
204.7208468729385
 30
0.0
 10
418.3605888785271
 20
205.0248997022384
 30
0.0
 10
417.8794918096071
 20
205.3237113566984
 30
0.0
 10
417.3695513695069
 20
205.6080827096085
 30
0.0
 10
416.8463328439369
 20
205.8692972157885
 30
0.0
 10
416.3258375642873
 20
206.0993954992485
 30
0.0
 10
415.8239943982673
 20
206.2914188222686
 30
0.0
 10
415.3560487426073
 20
206.4397473962984
 30
0.0
 10
414.9362307823373
 20
206.5400556533985
 30
0.0
 10
414.6207750040671
 20
206.5841779825785
 30
0.0
 10
414.4029056941674
 20
206.5894207635586
 30
0.0
 10
414.2679304606374
 20
206.5796966252686
 30
0.0
 10
414.1528009774372
 20
206.5567043861984
 30
0.0
 10
414.0580570651072
 20
206.5201104601784
 30
0.0
 10
413.9843594295773
 20
206.4694456314886
 30
0.0
 10
413.9499225767572
 20
206.4248673317084
 30
0.0
 10
413.9376865040873
 20
206.4015735325184
 30
0.0
  0
SPLINE
  5
12583
330
1F
100
AcDbEntity
  8
0
100
AcDbSpline
210
0.0
220
0.0
230
1.0
 70
     8
 71
     3
 72
    13
 73
     9
 74
     0
 42
0.0000000001
 43
0.0000000001
 40
0.0
 40
0.0
 40
0.0
 40
0.0
 40
0.2460298049
 40
0.4894328997
 40
0.6123857005
 40
0.7375026587000001
 40
0.8664445085
 40
1.0
 40
1.0
 40
1.0
 40
1.0
 10
444.9690404448471
 20
215.3409117194686
 30
0.0
 10
445.0607472353572
 20
215.3028497030085
 30
0.0
 10
445.2522244496273
 20
215.2466673445784
 30
0.0
 10
445.5038079626572
 20
215.2431854630984
 30
0.0
 10
445.6968414195773
 20
215.2936644445784
 30
0.0
 10
445.8339797098672
 20
215.3626067891685
 30
0.0
 10
445.9540526960575
 20
215.4653131461285
 30
0.0
 10
446.0153769889371
 20
215.5533707752184
 30
0.0
 10
446.0404259610171
 20
215.6010964310686
 30
0.0
  0
SPLINE
  5
12584
330
1F
100
AcDbEntity
  8
0
100
AcDbSpline
210
0.0
220
0.0
230
1.0
 70
     8
 71
     3
 72
    12
 73
     8
 74
     0
 42
0.0000000001
 43
0.0000000001
 40
0.0
 40
0.0
 40
0.0
 40
0.0
 40
0.1434289861
 40
0.238464541
 40
0.3527230283
 40
0.6414700458000003
 40
1.0
 40
1.0
 40
1.0
 40
1.0
 10
421.3803128141874
 20
202.4825664698085
 30
0.0
 10
421.3900523634471
 20
202.4804573774984
 30
0.0
 10
421.4075588948873
 20
202.4844522433185
 30
0.0
 10
421.4284791022071
 20
202.4969974571685
 30
0.0
 10
421.4552554493272
 20
202.5192160894485
 30
0.0
 10
421.4891338783375
 20
202.5602860354184
 30
0.0
 10
421.5125357399871
 20
202.5988268974184
 30
0.0
 10
421.5242623429968
 20
202.6208043615584
 30
0.0
  0
SPLINE
  5
12585
330
1F
100
AcDbEntity
  8
0
100
AcDbSpline
210
0.0
220
0.0
230
1.0
 70
     8
 71
     3
 72
    11
 73
     7
 74
     0
 42
0.0000000001
 43
0.0000000001
 40
0.0
 40
0.0
 40
0.0
 40
0.0
 40
0.3477011202
 40
0.6368821025
 40
0.8587251421999997
 40
1.0
 40
1.0
 40
1.0
 40
1.0
 10
421.3466252157767
 20
202.4896259218486
 30
0.0
 10
421.2746651984573
 20
202.5043517348984
 30
0.0
 10
421.1420207638671
 20
202.5274549175984
 30
0.0
 10
420.9610319166769
 20
202.5441744468285
 30
0.0
 10
420.8231124753472
 20
202.5416136401084
 30
0.0
 10
420.7466864827971
 20
202.5292218667185
 30
0.0
 10
420.7184059217571
 20
202.5196888013084
 30
0.0
  0
SPLINE
  5
12586
330
1F
100
AcDbEntity
  8
0
100
AcDbSpline
210
0.0
220
0.0
230
1.0
 70
     8
 71
     3
 72
     9
 73
     5
 74
     0
 42
0.0000000001
 43
0.0000000001
 40
0.0
 40
0.0
 40
0.0
 40
0.0
 40
0.2701692359
 40
1.0
 40
1.0
 40
1.0
 40
1.0
 10
426.8738286420473
 20
211.6122914717085
 30
0.0
 10
426.8305758447175
 20
211.6254456885584
 30
0.0
 10
426.6698932184572
 20
211.6720976066086
 30
0.0
 10
426.5066548199873
 20
211.7105818002886
 30
0.0
 10
426.386269117007
 20
211.7311277489085
 30
0.0
  0
SPLINE
  5
12587
330
1F
100
AcDbEntity
  8
0
100
AcDbSpline
210
0.0
220
0.0
230
1.0
 70
     8
 71
     3
 72
    12
 73
     8
 74
     0
 42
0.0000000001
 43
0.0000000001
 40
0.0
 40
0.0
 40
0.0
 40
0.0
 40
0.0848261934
 40
0.1845150701
 40
0.42202348
 40
0.6985516051000003
 40
1.0
 40
1.0
 40
1.0
 40
1.0
 10
425.3970900579473
 20
200.2241993325284
 30
0.0
 10
425.3606220341874
 20
200.2712587630186
 30
0.0
 10
425.2758377394773
 20
200.3694063736485
 30
0.0
 10
425.0662961600871
 20
200.5789920374685
 30
0.0
 10
424.7350704026271
 20
200.8556390951986
 30
0.0
 10
424.2678117874373
 20
201.1868287242285
 30
0.0
 10
423.9219060847074
 20
201.3993657505785
 30
0.0
 10
423.7385213457176
 20
201.5048802393886
 30
0.0
  0
SPLINE
  5
12588
330
1F
100
AcDbEntity
  8
0
100
AcDbSpline
210
0.0
220
0.0
230
1.0
 70
     8
 71
     3
 72
     8
 73
     4
 74
     0
 42
0.0000000001
 43
0.0000000001
 40
0.0
 40
0.0
 40
0.0
 40
0.0
 40
1.0
 40
1.0
 40
1.0
 40
1.0
 10
425.3970478163568
 20
200.2242586203884
 30
0.0
 10
425.4203953159366
 20
200.1941193498285
 30
0.0
 10
425.4509281264374
 20
200.1685108550385
 30
0.0
 10
425.4846492358072
 20
200.1507241143584
 30
0.0
  0
SPLINE
  5
12589
330
1F
100
AcDbEntity
  8
0
100
AcDbSpline
210
0.0
220
0.0
230
1.0
 70
     8
 71
     3
 72
    11
 73
     7
 74
     0
 42
0.0000000001
 43
0.0000000001
 40
0.0
 40
0.0
 40
0.0
 40
0.0
 40
0.2101368492
 40
0.4384920946000002
 40
0.6989852078000001
 40
1.0
 40
1.0
 40
1.0
 40
1.0
 10
419.9143982319172
 20
203.2644697551885
 30
0.0
 10
419.9259476545369
 20
203.2864563794386
 30
0.0
 10
419.9425752858472
 20
203.3365886819084
 30
0.0
 10
419.9445288110871
 20
203.4200875403686
 30
0.0
 10
419.9253134346172
 20
203.5120474697385
 30
0.0
 10
419.9008394737072
 20
203.5740233126686
 30
0.0
 10
419.8858347322071
 20
203.6062803302085
 30
0.0
  0
SPLINE
  5
1258A
330
1F
100
AcDbEntity
  8
0
100
AcDbSpline
210
0.0
220
0.0
230
1.0
 70
     8
 71
     3
 72
    11
 73
     7
 74
     0
 42
0.0000000001
 43
0.0000000001
 40
0.0
 40
0.0
 40
0.0
 40
0.0
 40
0.2101368492
 40
0.4384920946000002
 40
0.6989852078000001
 40
1.0
 40
1.0
 40
1.0
 40
1.0
 10
430.5696467968068
 20
198.8482026615284
 30
0.0
 10
430.5811962194272
 20
198.8701892857785
 30
0.0
 10
430.5978238507375
 20
198.9203215882485
 30
0.0
 10
430.5997773759774
 20
199.0038204467085
 30
0.0
 10
430.5805619995973
 20
199.0957803760785
 30
0.0
 10
430.5560880385971
 20
199.1577562190085
 30
0.0
 10
430.5410832970967
 20
199.1900132365484
 30
0.0
  0
SPLINE
  5
1258B
330
1F
100
AcDbEntity
  8
0
100
AcDbSpline
210
0.0
220
0.0
230
1.0
 70
     8
 71
     3
 72
    12
 73
     8
 74
     0
 42
0.0000000001
 43
0.0000000001
 40
0.0
 40
0.0
 40
0.0
 40
0.0
 40
0.0720756987
 40
0.164440041
 40
0.4044794298000002
 40
0.6956038255000001
 40
1.0
 40
1.0
 40
1.0
 40
1.0
 10
422.7893898526073
 20
203.5276688354384
 30
0.0
 10
422.7859284674566
 20
203.5351100806184
 30
0.0
 10
422.7813903866572
 20
203.5535787306886
 30
0.0
 10
422.7794218802871
 20
203.5997012922285
 30
0.0
 10
422.7906697584471
 20
203.6704095125086
 30
0.0
 10
422.8183990270975
 20
203.7615376239886
 30
0.0
 10
422.845736294627
 20
203.8238408826885
 30
0.0
 10
422.8616635923772
 20
203.8546247058885
 30
0.0
  0
SPLINE
  5
1258C
330
1F
100
AcDbEntity
  8
0
100
AcDbSpline
210
0.0
220
0.0
230
1.0
 70
     8
 71
     3
 72
     9
 73
     5
 74
     0
 42
0.0000000001
 43
0.0000000001
 40
0.0
 40
0.0
 40
0.0
 40
0.0
 40
0.2411017315
 40
1.0
 40
1.0
 40
1.0
 40
1.0
 10
413.1889980666469
 20
206.2583859109484
 30
0.0
 10
413.194277740517
 20
206.2470358369786
 30
0.0
 10
413.2170032720571
 20
206.2003457455185
 30
0.0
 10
413.242797465917
 20
206.1551789279084
 30
0.0
 10
413.2636186164472
 20
206.1217276960483
 30
0.0
  0
SPLINE
  5
1258D
330
1F
100
AcDbEntity
  8
0
100
AcDbSpline
210
0.0
220
0.0
230
1.0
 70
     8
 71
     3
 72
    15
 73
    11
 74
     0
 42
0.0000000001
 43
0.0000000001
 40
0.0
 40
0.0
 40
0.0
 40
0.0
 40
0.0864882992
 40
0.1874611325
 40
0.303507439
 40
0.4322563994000002
 40
0.5704104131000002
 40
0.7139736319
 40
0.8586289991000001
 40
1.0
 40
1.0
 40
1.0
 40
1.0
 10
413.2636186164472
 20
206.1217276960483
 30
0.0
 10
413.3256789719871
 20
206.0220216140984
 30
0.0
 10
413.4835896185871
 20
205.8205683876286
 30
0.0
 10
413.7770194166867
 20
205.5304576290585
 30
0.0
 10
414.1383790393071
 20
205.2299008807184
 30
0.0
 10
414.5600281456073
 20
204.9250416011985
 30
0.0
 10
415.0295307519475
 20
204.6241705473886
 30
0.0
 10
415.5323492433771
 20
204.3366731837985
 30
0.0
 10
416.0522978254073
 20
204.0717450707084
 30
0.0
 10
416.4067547392669
 20
203.9124713543984
 30
0.0
 10
416.583929970467
 20
203.8385749040086
 30
0.0
  0
SPLINE
  5
1258E
330
1F
100
AcDbEntity
  8
0
100
AcDbSpline
210
0.0
220
0.0
230
1.0
 70
     8
 71
     3
 72
    11
 73
     7
 74
     0
 42
0.0000000001
 43
0.0000000001
 40
0.0
 40
0.0
 40
0.0
 40
0.0
 40
0.2567499153
 40
0.5053454806000001
 40
0.7513144794
 40
1.0
 40
1.0
 40
1.0
 40
1.0
 10
412.9464515512673
 20
207.2740559442284
 30
0.0
 10
412.9247063413968
 20
207.2307382578884
 30
0.0
 10
412.8945853706269
 20
207.1384214373884
 30
0.0
 10
412.8901819743771
 20
206.9952163733684
 30
0.0
 10
412.9171021201671
 20
206.8565652553485
 30
0.0
 10
412.9513665325371
 20
206.7692433998384
 30
0.0
 10
412.9711671005273
 20
206.7266763707385
 30
0.0
  0
SPLINE
  5
1258F
330
1F
100
AcDbEntity
  8
0
100
AcDbSpline
210
0.0
220
0.0
230
1.0
 70
     8
 71
     3
 72
    17
 73
    13
 74
     0
 42
0.0000000001
 43
0.0000000001
 40
0.0
 40
0.0
 40
0.0
 40
0.0
 40
0.1712850697
 40
0.3307720276
 40
0.4754575333
 40
0.6036421909000002
 40
0.7151534889
 40
0.8128877465999998
 40
0.8592657557999999
 40
0.9052082441999999
 40
0.9515240808999999
 40
1.0
 40
1.0
 40
1.0
 40
1.0
 10
429.2337593201571
 20
198.5955885320384
 30
0.0
 10
429.3780288017571
 20
198.5357933511284
 30
0.0
 10
429.6592632543471
 20
198.4265156399384
 30
0.0
 10
430.071114624857
 20
198.2905087764584
 30
0.0
 10
430.4526018481971
 20
198.1900836947684
 30
0.0
 10
430.7979847238271
 20
198.1274738894984
 30
0.0
 10
431.1054095780876
 20
198.1053304674283
 30
0.0
 10
431.3396595935871
 20
198.1250790050683
 30
0.0
 10
431.5062817691271
 20
198.1750011479985
 30
0.0
 10
431.6202353310471
 20
198.2314413922484
 30
0.0
 10
431.7214421599372
 20
198.3121680652185
 30
0.0
 10
431.7735803170672
 20
198.3826939682686
 30
0.0
 10
431.794825239617
 20
198.4214513744984
 30
0.0
  0
SPLINE
  5
12590
330
1F
100
AcDbEntity
  8
0
100
AcDbSpline
210
0.0
220
0.0
230
1.0
 70
     8
 71
     3
 72
     9
 73
     5
 74
     0
 42
0.0000000001
 43
0.0000000001
 40
0.0
 40
0.0
 40
0.0
 40
0.0
 40
0.4373729343
 40
1.0
 40
1.0
 40
1.0
 40
1.0
 10
417.9930148708374
 20
219.2746202843385
 30
0.0
 10
417.9993551788673
 20
219.2867384356785
 30
0.0
 10
418.0035662551975
 20
219.3197245541085
 30
0.0
 10
417.9927645882171
 20
219.3497256753886
 30
0.0
 10
417.9853443652371
 20
219.3656775837285
 30
0.0
  0
SPLINE
  5
12591
330
1F
100
AcDbEntity
  8
0
100
AcDbSpline
210
0.0
220
0.0
230
1.0
 70
     8
 71
     3
 72
    11
 73
     7
 74
     0
 42
0.0000000001
 43
0.0000000001
 40
0.0
 40
0.0
 40
0.0
 40
0.0
 40
0.2101781112
 40
0.4386731447
 40
0.6991631286
 40
1.0
 40
1.0
 40
1.0
 40
1.0
 10
415.8095706407872
 20
219.6041951510984
 30
0.0
 10
415.8034184827973
 20
219.5924688964786
 30
0.0
 10
415.7945626685568
 20
219.5657271395985
 30
0.0
 10
415.7935716153771
 20
219.5212030135186
 30
0.0
 10
415.8038077340568
 20
219.4721849901585
 30
0.0
 10
415.8168479469175
 20
219.4391548063785
 30
0.0
 10
415.8248420908972
 20
219.4219690893886
 30
0.0
  0
SPLINE
  5
12592
330
1F
100
AcDbEntity
  8
0
100
AcDbSpline
210
0.0
220
0.0
230
1.0
 70
     8
 71
     3
 72
     9
 73
     5
 74
     0
 42
0.0000000001
 43
0.0000000001
 40
0.0
 40
0.0
 40
0.0
 40
0.0
 40
0.4372370596000001
 40
1.0
 40
1.0
 40
1.0
 40
1.0
 10
417.8033888909574
 20
219.8314471609786
 30
0.0
 10
417.7970435739773
 20
219.8193332122786
 30
0.0
 10
417.7928067995874
 20
219.7863412572583
 30
0.0
 10
417.8036254358874
 20
219.7563348097784
 30
0.0
 10
417.8110489971468
 20
219.7403757247485
 30
0.0
  0
SPLINE
  5
12593
330
1F
100
AcDbEntity
  8
0
100
AcDbSpline
210
0.0
220
0.0
230
1.0
 70
     8
 71
     3
 72
     9
 73
     5
 74
     0
 42
0.0000000001
 43
0.0000000001
 40
0.0
 40
0.0
 40
0.0
 40
0.0
 40
0.4945685652
 40
1.0
 40
1.0
 40
1.0
 40
1.0
 10
413.1890004332873
 20
206.2583904818685
 30
0.0
 10
413.2010290426372
 20
206.2325047732184
 30
0.0
 10
413.235838801547
 20
206.1844710712185
 30
0.0
 10
413.285799401027
 20
206.1527863708785
 30
0.0
 10
413.3127474796672
 20
206.1416175444886
 30
0.0
  0
SPLINE
  5
12594
330
1F
100
AcDbEntity
  8
0
100
AcDbSpline
210
0.0
220
0.0
230
1.0
 70
     8
 71
     3
 72
    13
 73
     9
 74
     0
 42
0.0000000001
 43
0.0000000001
 40
0.0
 40
0.0
 40
0.0
 40
0.0
 40
0.0728719542
 40
0.1656171123
 40
0.2768327306
 40
0.4039251004000004
 40
0.6925134231
 40
1.0
 40
1.0
 40
1.0
 40
1.0
 10
441.0510600968271
 20
220.1025294410384
 30
0.0
 10
441.0614728767771
 20
220.0801441686286
 30
0.0
 10
441.0925766088474
 20
220.0328541839686
 30
0.0
 10
441.1550048014071
 20
219.9627032694285
 30
0.0
 10
441.2377901792871
 20
219.8867767488885
 30
0.0
 10
441.3779857936972
 20
219.7761046038884
 30
0.0
 10
441.5836939138072
 20
219.6421189469984
 30
0.0
 10
441.762330793697
 20
219.5473193653484
 30
0.0
 10
441.8565109401773
 20
219.5027945903685
 30
0.0
  0
SPLINE
  5
12595
330
1F
100
AcDbEntity
  8
0
100
AcDbSpline
210
0.0
220
0.0
230
1.0
 70
     8
 71
     3
 72
    13
 73
     9
 74
     0
 42
0.0000000001
 43
0.0000000001
 40
0.0
 40
0.0
 40
0.0
 40
0.0
 40
0.0725356312
 40
0.1667258092
 40
0.2806092385
 40
0.4108409760000001
 40
0.7020855677000001
 40
1.0
 40
1.0
 40
1.0
 40
1.0
 10
436.4380049964473
 20
212.0200853595284
 30
0.0
 10
436.4260862750271
 20
212.0457080872784
 30
0.0
 10
436.389091420157
 20
212.0999255783084
 30
0.0
 10
436.3143127074174
 20
212.1798344798686
 30
0.0
 10
436.2146990612273
 20
212.2664712617685
 30
0.0
 10
436.0473004114972
 20
212.3911003782585
 30
0.0
 10
435.807408725117
 20
212.5371730335285
 30
0.0
 10
435.6003545848971
 20
212.6372677555485
 30
0.0
 10
435.4931346472072
 20
212.6817070644584
 30
0.0
  0
SPLINE
  5
12596
330
1F
100
AcDbEntity
  8
0
100
AcDbSpline
210
0.0
220
0.0
230
1.0
 70
     8
 71
     3
 72
     9
 73
     5
 74
     0
 42
0.0000000001
 43
0.0000000001
 40
0.0
 40
0.0
 40
0.0
 40
0.0
 40
0.4684802364000002
 40
1.0
 40
1.0
 40
1.0
 40
1.0
 10
420.7833836688767
 20
228.1313381812184
 30
0.0
 10
420.8596044742073
 20
228.1167345391184
 30
0.0
 10
421.0207184764969
 20
228.0772317747586
 30
0.0
 10
421.1785336413774
 20
228.0265145400586
 30
0.0
 10
421.2615891908873
 20
227.9972808827084
 30
0.0
  0
SPLINE
  5
12597
330
1F
100
AcDbEntity
  8
0
100
AcDbSpline
210
0.0
220
0.0
230
1.0
 70
     8
 71
     3
 72
     9
 73
     5
 74
     0
 42
0.0000000001
 43
0.0000000001
 40
0.0
 40
0.0
 40
0.0
 40
0.0
 40
0.4945685667000002
 40
1.0
 40
1.0
 40
1.0
 40
1.0
 10
412.9711712012873
 20
206.7266772135884
 30
0.0
 10
412.9831998225172
 20
206.7007915558784
 30
0.0
 10
413.0180095693672
 20
206.6527579573786
 30
0.0
 10
413.0679701005368
 20
206.6210733176984
 30
0.0
 10
413.0949181401172
 20
206.6099045075085
 30
0.0
  0
SPLINE
  5
12598
330
1F
100
AcDbEntity
  8
0
100
AcDbSpline
210
0.0
220
0.0
230
1.0
 70
     8
 71
     3
 72
    17
 73
    13
 74
     0
 42
0.0000000001
 43
0.0000000001
 40
0.0
 40
0.0
 40
0.0
 40
0.0
 40
0.0335894458
 40
0.0726372861
 40
0.1171060649
 40
0.1668131564
 40
0.2806701661
 40
0.4108515280000001
 40
0.5529927581000002
 40
0.7021182485999999
 40
0.8529170226999999
 40
1.0
 40
1.0
 40
1.0
 40
1.0
 10
437.4781279490873
 20
210.0769728710385
 30
0.0
 10
437.455965874517
 20
210.1246166393085
 30
0.0
 10
437.3996341267071
 20
210.2237526386685
 30
0.0
 10
437.292304128917
 20
210.3724874020484
 30
0.0
 10
437.1566441375874
 20
210.5309637975584
 30
0.0
 10
436.9291836579169
 20
210.7639531494884
 30
0.0
 10
436.5818003057571
 20
211.0658733402285
 30
0.0
 10
436.0970291938372
 20
211.4270287629284
 30
0.0
 10
435.544779153257
 20
211.7878477316984
 30
0.0
 10
434.946007959227
 20
212.1344695634385
 30
0.0
 10
434.3234654977369
 20
212.4535826331885
 30
0.0
 10
433.8980952231771
 20
212.6445401058284
 30
0.0
 10
433.6855380732769
 20
212.7326383928685
 30
0.0
  0
SPLINE
  5
12599
330
1F
100
AcDbEntity
  8
0
100
AcDbSpline
210
0.0
220
0.0
230
1.0
 70
     8
 71
     3
 72
    18
 73
    14
 74
     0
 42
0.0000000001
 43
0.0000000001
 40
0.0
 40
0.0
 40
0.0
 40
0.0
 40
0.1903700363
 40
0.3669884031
 40
0.5260241957999999
 40
0.6644941489000003
 40
0.7801960792
 40
0.8292417976000001
 40
0.8725010679
 40
0.9103017719
 40
0.9433035140999999
 40
0.9726421881
 40
1.0
 40
1.0
 40
1.0
 40
1.0
 10
421.0570945988271
 20
217.9667330289886
 30
0.0
 10
420.8976253108072
 20
218.0328280586085
 30
0.0
 10
420.5873552642271
 20
218.1535453008885
 30
0.0
 10
420.134451033977
 20
218.3038909089285
 30
0.0
 10
419.7186729090174
 20
218.4146598396586
 30
0.0
 10
419.3499726645469
 20
218.4834095323186
 30
0.0
 10
419.0750579596672
 20
218.5061289317085
 30
0.0
 10
418.886351316557
 20
218.4985559294986
 30
0.0
 10
418.7692939651372
 20
218.4819396565486
 30
0.0
 10
418.6692841928572
 20
218.4541188327886
 30
0.0
 10
418.586756185997
 20
218.4148360314885
 30
0.0
 10
418.522340624237
 20
218.3638123317585
 30
0.0
 10
418.492051456787
 20
218.3211874160984
 30
0.0
 10
418.4809150941175
 20
218.2990199770785
 30
0.0
  0
SPLINE
  5
1259A
330
1F
100
AcDbEntity
  8
0
100
AcDbSpline
210
0.0
220
0.0
230
1.0
 70
     8
 71
     3
 72
    11
 73
     7
 74
     0
 42
0.0000000001
 43
0.0000000001
 40
0.0
 40
0.0
 40
0.0
 40
0.0
 40
0.2102043722
 40
0.4382063972
 40
0.6985543199000001
 40
1.0
 40
1.0
 40
1.0
 40
1.0
 10
431.7948254858571
 20
198.4214512443585
 30
0.0
 10
431.8069551604374
 20
198.4435822831484
 30
0.0
 10
431.8246385586173
 20
198.4942422915285
 30
0.0
 10
431.8273756043274
 20
198.5790365431185
 30
0.0
 10
431.8082003896371
 20
198.6725414414684
 30
0.0
 10
431.7833688654769
 20
198.7355571766184
 30
0.0
 10
431.7681045467873
 20
198.7683722300685
 30
0.0
  0
SPLINE
  5
1259B
330
1F
100
AcDbEntity
  8
0
100
AcDbSpline
210
0.0
220
0.0
230
1.0
 70
     8
 71
     3
 72
    13
 73
     9
 74
     0
 42
0.0000000001
 43
0.0000000001
 40
0.0
 40
0.0
 40
0.0
 40
0.0
 40
0.072918121
 40
0.1656361486
 40
0.2767778678
 40
0.4039397528000002
 40
0.6924854576000003
 40
1.0
 40
1.0
 40
1.0
 40
1.0
 10
436.6123003645371
 20
211.6453872185084
 30
0.0
 10
436.6227197803675
 20
211.6229876802884
 30
0.0
 10
436.6537967966571
 20
211.5756715699786
 30
0.0
 10
436.7162579608971
 20
211.5055709552685
 30
0.0
 10
436.7990108899073
 20
211.4296283990685
 30
0.0
 10
436.9392224910168
 20
211.3189974950385
 30
0.0
 10
437.1449217687175
 20
211.1849693465384
 30
0.0
 10
437.3235623891869
 20
211.0901812427686
 30
0.0
 10
437.4177514545774
 20
211.0456522512885
 30
0.0
  0
SPLINE
  5
1259C
330
1F
100
AcDbEntity
  8
0
100
AcDbSpline
210
0.0
220
0.0
230
1.0
 70
     8
 71
     3
 72
    27
 73
    23
 74
     0
 42
0.0000000001
 43
0.0000000001
 40
0.0
 40
0.0
 40
0.0
 40
0.0
 40
0.0188694343
 40
0.0405019534
 40
0.0919474544
 40
0.1536761662
 40
0.2242953015
 40
0.3019597105
 40
0.3845280766
 40
0.4696648417000004
 40
0.5549375378
 40
0.6379083397000001
 40
0.7162261725
 40
0.7877219627
 40
0.8505142382999999
 40
0.9031454004
 40
0.9253850719999999
 40
0.9448645744
 40
0.9616850663999999
 40
0.976095616
 40
0.9885956038999999
 40
1.0
 40
1.0
 40
1.0
 40
1.0
 10
424.6214985685972
 20
201.6434958639284
 30
0.0
 10
424.6398601995768
 20
201.6040222448985
 30
0.0
 10
424.6854302081872
 20
201.5221356602086
 30
0.0
 10
424.8069028059774
 20
201.3479335159185
 30
0.0
 10
425.0150690161674
 20
201.1154875271084
 30
0.0
 10
425.3281012314172
 20
200.8288778393685
 30
0.0
 10
425.7091332545571
 20
200.5289293211984
 30
0.0
 10
426.1467444222772
 20
200.2248764918984
 30
0.0
 10
426.6278414912873
 20
199.9260648374384
 30
0.0
 10
427.1377819312971
 20
199.6416934845284
 30
0.0
 10
427.6610004568672
 20
199.3804789783485
 30
0.0
 10
428.1814957366075
 20
199.1503806948886
 30
0.0
 10
428.6833389026271
 20
198.9583573718685
 30
0.0
 10
429.1512845582872
 20
198.8100287978384
 30
0.0
 10
429.5711025185569
 20
198.7097205407384
 30
0.0
 10
429.8865582968272
 20
198.6655982115586
 30
0.0
 10
430.1044276067271
 20
198.6603554305784
 30
0.0
 10
430.239402840257
 20
198.6700795688685
 30
0.0
 10
430.3545323234573
 20
198.6930718078484
 30
0.0
 10
430.4492762356974
 20
198.7296657339585
 30
0.0
 10
430.5229738713172
 20
198.7803305626485
 30
0.0
 10
430.5574107240475
 20
198.8249088624284
 30
0.0
 10
430.5696467968068
 20
198.8482026615284
 30
0.0
  0
SPLINE
  5
1259D
330
1F
100
AcDbEntity
  8
0
100
AcDbSpline
210
0.0
220
0.0
230
1.0
 70
     8
 71
     3
 72
    13
 73
     9
 74
     0
 42
0.0000000001
 43
0.0000000001
 40
0.0
 40
0.0
 40
0.0
 40
0.0
 40
0.0729365284
 40
0.1656338013
 40
0.276773892
 40
0.4039281208000002
 40
0.6924967299000003
 40
1.0
 40
1.0
 40
1.0
 40
1.0
 10
439.7399617435373
 20
209.5099032606284
 30
0.0
 10
439.7191176746868
 20
209.5547135957984
 30
0.0
 10
439.6569936099472
 20
209.6493638390084
 30
0.0
 10
439.5320295140875
 20
209.7895282026284
 30
0.0
 10
439.3665476274771
 20
209.9414036002484
 30
0.0
 10
439.0861445973171
 20
210.1627081880984
 30
0.0
 10
438.6747131387271
 20
210.4307207175585
 30
0.0
 10
438.3174356805773
 20
210.6203159492084
 30
0.0
 10
438.1290646662771
 20
210.7093705677885
 30
0.0
  0
SPLINE
  5
1259E
330
1F
100
AcDbEntity
  8
0
100
AcDbSpline
210
0.0
220
0.0
230
1.0
 70
     8
 71
     3
 72
    27
 73
    23
 74
     0
 42
0.0000000001
 43
0.0000000001
 40
0.0
 40
0.0
 40
0.0
 40
0.0
 40
0.0188694343
 40
0.0405019534
 40
0.0919474544
 40
0.1536761662
 40
0.2242953015
 40
0.3019597105
 40
0.3845280766
 40
0.4696648417000004
 40
0.5549375378
 40
0.6379083397000001
 40
0.7162261725
 40
0.7877219627
 40
0.8505142382999999
 40
0.9031454004
 40
0.9253850719999999
 40
0.9448645744
 40
0.9616850663999999
 40
0.976095616
 40
0.9885956038999999
 40
1.0
 40
1.0
 40
1.0
 40
1.0
 10
413.9662500037072
 20
206.0597629575885
 30
0.0
 10
413.9846116345973
 20
206.0202893384686
 30
0.0
 10
414.0301816432971
 20
205.9384027538686
 30
0.0
 10
414.1516542409974
 20
205.7642006095785
 30
0.0
 10
414.3598204512774
 20
205.5317546207685
 30
0.0
 10
414.672852666527
 20
205.2451449330284
 30
0.0
 10
415.0538846895771
 20
204.9451964148584
 30
0.0
 10
415.4914958573874
 20
204.6411435854685
 30
0.0
 10
415.9725929263068
 20
204.3423319310985
 30
0.0
 10
416.4825333664073
 20
204.0579605781884
 30
0.0
 10
417.0057518919771
 20
203.7967460720084
 30
0.0
 10
417.5262471716271
 20
203.5666477884586
 30
0.0
 10
418.0280903376471
 20
203.3746244655284
 30
0.0
 10
418.4960359933072
 20
203.2262958914085
 30
0.0
 10
418.9158539535772
 20
203.1259876343984
 30
0.0
 10
419.2313097319368
 20
203.0818653051284
 30
0.0
 10
419.449179041837
 20
203.0766225242385
 30
0.0
 10
419.5841542752771
 20
203.0863466625283
 30
0.0
 10
419.6992837585672
 20
203.1093389015085
 30
0.0
 10
419.7940276708068
 20
203.1459328276185
 30
0.0
 10
419.8677253063372
 20
203.1965976563086
 30
0.0
 10
419.9021621591571
 20
203.2411759560885
 30
0.0
 10
419.9143982319172
 20
203.2644697551885
 30
0.0
  0
SPLINE
  5
1259F
330
1F
100
AcDbEntity
  8
0
100
AcDbSpline
210
0.0
220
0.0
230
1.0
 70
     8
 71
     3
 72
    11
 73
     7
 74
     0
 42
0.0000000001
 43
0.0000000001
 40
0.0
 40
0.0
 40
0.0
 40
0.0
 40
0.2101769879
 40
0.4386720705
 40
0.6991632308
 40
1.0
 40
1.0
 40
1.0
 40
1.0
 10
440.3999478041271
 20
207.9416832711286
 30
0.0
 10
440.4060998559172
 20
207.9534093211785
 30
0.0
 10
440.4149554767474
 20
207.9801507540584
 30
0.0
 10
440.4159457220873
 20
208.0246744007985
 30
0.0
 10
440.4057089437968
 20
208.0736917113584
 30
0.0
 10
440.3926687077171
 20
208.1067214734886
 30
0.0
 10
440.3846746629171
 20
208.1239069773586
 30
0.0
  0
SPLINE
  5
125A0
330
1F
100
AcDbEntity
  8
0
100
AcDbSpline
210
0.0
220
0.0
230
1.0
 70
     8
 71
     3
 72
     9
 73
     5
 74
     0
 42
0.0000000001
 43
0.0000000001
 40
0.0
 40
0.0
 40
0.0
 40
0.0
 40
0.2425912357
 40
1.0
 40
1.0
 40
1.0
 40
1.0
 10
445.0590692669873
 20
216.8186762922285
 30
0.0
 10
445.0800533630574
 20
216.8586779918385
 30
0.0
 10
445.1585185687674
 20
217.0277445439784
 30
0.0
 10
445.206344624117
 20
217.2103620672583
 30
0.0
 10
445.226958007217
 20
217.3498803109786
 30
0.0
  0
SPLINE
  5
125A1
330
1F
100
AcDbEntity
  8
0
100
AcDbSpline
210
0.0
220
0.0
230
1.0
 70
     8
 71
     3
 72
    11
 73
     7
 74
     0
 42
0.0000000001
 43
0.0000000001
 40
0.0
 40
0.0
 40
0.0
 40
0.0
 40
0.2906944279
 40
0.5610618313
 40
0.8004121726000001
 40
1.0
 40
1.0
 40
1.0
 40
1.0
 10
423.7437966104874
 20
201.5130404424584
 30
0.0
 10
423.9217879906671
 20
201.4108351269284
 30
0.0
 10
424.2600076017772
 20
201.2041098818086
 30
0.0
 10
424.7236421573573
 20
200.8801746228585
 30
0.0
 10
425.1123472528973
 20
200.5637291549086
 30
0.0
 10
425.333384683037
 20
200.3450754923984
 30
0.0
 10
425.4249708660775
 20
200.2379736458684
 30
0.0
  0
SPLINE
  5
125A2
330
1F
100
AcDbEntity
  8
0
100
AcDbSpline
210
0.0
220
0.0
230
1.0
 70
     8
 71
     3
 72
     9
 73
     5
 74
     0
 42
0.0000000001
 43
0.0000000001
 40
0.0
 40
0.0
 40
0.0
 40
0.0
 40
0.2572433109
 40
1.0
 40
1.0
 40
1.0
 40
1.0
 10
425.4249708660775
 20
200.2379736458684
 30
0.0
 10
425.430655666307
 20
200.2313257805684
 30
0.0
 10
425.4526114966973
 20
200.2053613480185
 30
0.0
 10
425.473981395317
 20
200.1788990976584
 30
0.0
 10
425.4894517024074
 20
200.1589357497285
 30
0.0
  0
SPLINE
  5
125A3
330
1F
100
AcDbEntity
  8
0
100
AcDbSpline
210
0.0
220
0.0
230
1.0
 70
     8
 71
     3
 72
     9
 73
     5
 74
     0
 42
0.0000000001
 43
0.0000000001
 40
0.0
 40
0.0
 40
0.0
 40
0.0
 40
0.4372370596000001
 40
1.0
 40
1.0
 40
1.0
 40
1.0
 10
438.4061291587666
 20
207.7144312560286
 30
0.0
 10
438.4124744756575
 20
207.7265452047285
 30
0.0
 10
438.4167112501375
 20
207.7595371597484
 30
0.0
 10
438.405892613747
 20
207.7895436072284
 30
0.0
 10
438.3984690524873
 20
207.8055026922585
 30
0.0
  0
SPLINE
  5
125A4
330
1F
100
AcDbEntity
  8
0
100
AcDbSpline
210
0.0
220
0.0
230
1.0
 70
     8
 71
     3
 72
     9
 73
     5
 74
     0
 42
0.0000000001
 43
0.0000000001
 40
0.0
 40
0.0
 40
0.0
 40
0.0
 40
0.4373729263000001
 40
1.0
 40
1.0
 40
1.0
 40
1.0
 10
438.2165031796973
 20
208.2712581322185
 30
0.0
 10
438.2101628705874
 20
208.2591399816884
 30
0.0
 10
438.2059517937171
 20
208.2261538627184
 30
0.0
 10
438.2167534614175
 20
208.1961527418885
 30
0.0
 10
438.2241736843973
 20
208.1802008332784
 30
0.0
  0
SPLINE
  5
125A5
330
1F
100
AcDbEntity
  8
0
100
AcDbSpline
210
0.0
220
0.0
230
1.0
 70
     8
 71
     3
 72
    17
 73
    13
 74
     0
 42
0.0000000001
 43
0.0000000001
 40
0.0
 40
0.0
 40
0.0
 40
0.0
 40
0.0335893305
 40
0.0726370424
 40
0.1171059098
 40
0.1668131569
 40
0.2806702286
 40
0.4108515192000004
 40
0.5529926675
 40
0.7021182126000002
 40
0.8529173901999998
 40
1.0
 40
1.0
 40
1.0
 40
1.0
 10
431.1945838479771
 20
199.1081594674784
 30
0.0
 10
431.175447040067
 20
199.1492995530585
 30
0.0
 10
431.126805148127
 20
199.2349029674683
 30
0.0
 10
431.0341261933674
 20
199.3633347621585
 30
0.0
 10
430.916984101367
 20
199.5001786311284
 30
0.0
 10
430.7205726157674
 20
199.7013645423886
 30
0.0
 10
430.4206080691368
 20
199.9620716072384
 30
0.0
 10
430.002010032947
 20
200.2739279901285
 30
0.0
 10
429.5251441630973
 20
200.5854938227784
 30
0.0
 10
429.008106905657
 20
200.8848008291384
 30
0.0
 10
428.4705435322671
 20
201.1603538378684
 30
0.0
 10
428.1032377851468
 20
201.3252450465584
 30
0.0
 10
427.9196958902272
 20
201.4013174183984
 30
0.0
  0
SPLINE
  5
125A6
330
1F
100
AcDbEntity
  8
0
100
AcDbSpline
210
0.0
220
0.0
230
1.0
 70
     8
 71
     3
 72
    20
 73
    16
 74
     0
 42
0.0000000001
 43
0.0000000001
 40
0.0
 40
0.0
 40
0.0
 40
0.0
 40
0.2096644104
 40
0.3983039599
 40
0.5598876813000003
 40
0.6291248313000001
 40
0.6901801554000003
 40
0.7429778968000002
 40
0.7878288879000001
 40
0.8256034653
 40
0.8581243422
 40
0.8883969095000001
 40
0.9201789026999998
 40
0.9567212737
 40
1.0
 40
1.0
 40
1.0
 40
1.0
 10
429.2381910924166
 20
198.6052312178085
 30
0.0
 10
429.4093325251671
 20
198.5347754885684
 30
0.0
 10
429.7382137337574
 20
198.4096858941885
 30
0.0
 10
430.2111082068174
 20
198.2648537272785
 30
0.0
 10
430.5737107804673
 20
198.1861625051086
 30
0.0
 10
430.8297766034573
 20
198.1559140998284
 30
0.0
 10
430.9914852383573
 20
198.1495976660085
 30
0.0
 10
431.1316135377171
 20
198.1584873239386
 30
0.0
 10
431.2492423573671
 20
198.1825621675185
 30
0.0
 10
431.343772885277
 20
198.2222704125884
 30
0.0
 10
431.4142625780871
 20
198.2788279932584
 30
0.0
 10
431.457062807087
 20
198.3529226581184
 30
0.0
 10
431.4696247132371
 20
198.4408188592484
 30
0.0
 10
431.4539630471569
 20
198.5390872732785
 30
0.0
 10
431.4285260249572
 20
198.6052333154385
 30
0.0
 10
431.4124131875271
 20
198.6398725044585
 30
0.0
  0
SPLINE
  5
125A7
330
1F
100
AcDbEntity
  8
0
100
AcDbSpline
210
0.0
220
0.0
230
1.0
 70
     8
 71
     3
 72
     9
 73
     5
 74
     0
 42
0.0000000001
 43
0.0000000001
 40
0.0
 40
0.0
 40
0.0
 40
0.0
 40
0.5433460774000001
 40
1.0
 40
1.0
 40
1.0
 40
1.0
 10
421.3524112521473
 20
202.5079187141685
 30
0.0
 10
421.252826708987
 20
202.5301802007585
 30
0.0
 10
421.0680560314671
 20
202.5648612485084
 30
0.0
 10
420.8803676822872
 20
202.5811241387986
 30
0.0
 10
420.7946076931673
 20
202.5815997852886
 30
0.0
  0
SPLINE
  5
125A8
330
1F
100
AcDbEntity
  8
0
100
AcDbSpline
210
0.0
220
0.0
230
1.0
 70
     8
 71
     3
 72
    12
 73
     8
 74
     0
 42
0.0000000001
 43
0.0000000001
 40
0.0
 40
0.0
 40
0.0
 40
0.0
 40
0.3287874274
 40
0.5955888018
 40
0.8109730715999996
 40
0.9068079297
 40
1.0
 40
1.0
 40
1.0
 40
1.0
 10
420.7946076931673
 20
202.5815997852886
 30
0.0
 10
420.7367530900971
 20
202.5819206614784
 30
0.0
 10
420.6316308271373
 20
202.5766950968685
 30
0.0
 10
420.4916277825772
 20
202.5446577541184
 30
0.0
 10
420.4005285466076
 20
202.4941394575786
 30
0.0
 10
420.3524362727874
 20
202.4408823022784
 30
0.0
 10
420.3364078306973
 20
202.4113129157684
 30
0.0
 10
420.330348679337
 20
202.3960747160684
 30
0.0
  0
SPLINE
  5
125A9
330
1F
100
AcDbEntity
  8
0
100
AcDbSpline
210
0.0
220
0.0
230
1.0
 70
     8
 71
     3
 72
     9
 73
     5
 74
     0
 42
0.0000000001
 43
0.0000000001
 40
0.0
 40
0.0
 40
0.0
 40
0.0
 40
0.2409451317
 40
1.0
 40
1.0
 40
1.0
 40
1.0
 10
420.330348679337
 20
202.3960747160684
 30
0.0
 10
420.3275614018371
 20
202.3890649735484
 30
0.0
 10
420.3175462615972
 20
202.3593555867285
 30
0.0
 10
420.3140037652968
 20
202.3276531364984
 30
0.0
 10
420.3142621489067
 20
202.3038898716584
 30
0.0
  0
SPLINE
  5
125AA
330
1F
100
AcDbEntity
  8
0
100
AcDbSpline
210
0.0
220
0.0
230
1.0
 70
     8
 71
     3
 72
    11
 73
     7
 74
     0
 42
0.0000000001
 43
0.0000000001
 40
0.0
 40
0.0
 40
0.0
 40
0.0
 40
0.2102062564
 40
0.4382000857000001
 40
0.6985445025
 40
1.0
 40
1.0
 40
1.0
 40
1.0
 10
437.724387767717
 20
209.2388337110683
 30
0.0
 10
437.7373292570576
 20
209.2624230318284
 30
0.0
 10
437.7562014723473
 20
209.3164261085686
 30
0.0
 10
437.7591381190668
 20
209.4068264490884
 30
0.0
 10
437.7387035150268
 20
209.5065162618285
 30
0.0
 10
437.7122308234072
 20
209.5737001578885
 30
0.0
 10
437.6959566571975
 20
209.6086861696486
 30
0.0
  0
SPLINE
  5
125AB
330
1F
100
AcDbEntity
  8
0
100
AcDbSpline
210
0.0
220
0.0
230
1.0
 70
     8
 71
     3
 72
    17
 73
    13
 74
     0
 42
0.0000000001
 43
0.0000000001
 40
0.0
 40
0.0
 40
0.0
 40
0.0
 40
0.1470825263
 40
0.2978816542
 40
0.4470071539
 40
0.5891482493
 40
0.7193294943000002
 40
0.8331865154999999
 40
0.8828936819999999
 40
0.9273625846999999
 40
0.9664105295999998
 40
1.0
 40
1.0
 40
1.0
 40
1.0
 10
416.5876372549671
 20
203.8484591102684
 30
0.0
 10
416.4040953978472
 20
203.9245314664486
 30
0.0
 10
416.0367895381368
 20
204.0894223398885
 30
0.0
 10
415.499226247457
 20
204.3649754787585
 30
0.0
 10
414.9821889679672
 20
204.6642824702686
 30
0.0
 10
414.5053230874068
 20
204.9758483171386
 30
0.0
 10
414.0867251035071
 20
205.2877047374685
 30
0.0
 10
413.7867605447273
 20
205.5484116563385
 30
0.0
 10
413.5903492450673
 20
205.7495977170884
 30
0.0
 10
413.4732069790072
 20
205.8864418409385
 30
0.0
 10
413.3805270674572
 20
206.0148736581285
 30
0.0
 10
413.3318843743372
 20
206.1004772725185
 30
0.0
 10
413.3127474796672
 20
206.1416175444886
 30
0.0
  0
SPLINE
  5
125AC
330
1F
100
AcDbEntity
  8
0
100
AcDbSpline
210
0.0
220
0.0
230
1.0
 70
     8
 71
     3
 72
    18
 73
    14
 74
     0
 42
0.0000000001
 43
0.0000000001
 40
0.0
 40
0.0
 40
0.0
 40
0.0
 40
0.0273578627
 40
0.0566946626
 40
0.0896935173
 40
0.1274910445
 40
0.1707473613
 40
0.2197906157
 40
0.3354896425
 40
0.4739596578
 40
0.6329985234000001
 40
0.8096225189
 40
1.0
 40
1.0
 40
1.0
 40
1.0
 10
412.9464516717773
 20
207.2740559299185
 30
0.0
 10
412.9568932959172
 20
207.2948582762086
 30
0.0
 10
412.9852978665174
 20
207.3348599427884
 30
0.0
 10
413.0457205088871
 20
207.3827472210886
 30
0.0
 10
413.1231399911873
 20
207.4196165915685
 30
0.0
 10
413.2169639791369
 20
207.4457302676986
 30
0.0
 10
413.326785084047
 20
207.4613298779685
 30
0.0
 10
413.5038326571772
 20
207.4684468794286
 30
0.0
 10
413.761769500697
 20
207.4471403606986
 30
0.0
 10
414.1077061211274
 20
207.3826429488884
 30
0.0
 10
414.497820661217
 20
207.2787159334485
 30
0.0
 10
414.9227743601572
 20
207.1376514465285
 30
0.0
 10
415.2138974551073
 20
207.0243842374785
 30
0.0
 10
415.3635262207074
 20
206.9623677965386
 30
0.0
  0
SPLINE
  5
125AD
330
1F
100
AcDbEntity
  8
0
100
AcDbSpline
210
0.0
220
0.0
230
1.0
 70
     8
 71
     3
 72
    20
 73
    16
 74
     0
 42
0.0000000001
 43
0.0000000001
 40
0.0
 40
0.0
 40
0.0
 40
0.0
 40
0.0430946461
 40
0.0794514257
 40
0.1110697741
 40
0.1412348029
 40
0.1737244845
 40
0.2115363005
 40
0.2564732541
 40
0.3093867384
 40
0.3705723959
 40
0.4399412971000001
 40
0.6017450988000002
 40
0.7904784921
 40
1.0
 40
1.0
 40
1.0
 40
1.0
 10
413.0949181401172
 20
206.6099045075085
 30
0.0
 10
413.0787290631472
 20
206.6447075955285
 30
0.0
 10
413.0531998381973
 20
206.7111532113284
 30
0.0
 10
413.0376394356174
 20
206.8098774448486
 30
0.0
 10
413.050643554787
 20
206.8981307238585
 30
0.0
 10
413.0942392013571
 20
206.9723597268585
 30
0.0
 10
413.1657373389471
 20
207.0288056793584
 30
0.0
 10
413.261457770807
 20
207.0682489934084
 30
0.0
 10
413.380485348767
 20
207.0919156515284
 30
0.0
 10
413.5222095731269
 20
207.1002451449586
 30
0.0
 10
413.6856848031773
 20
207.0932137775986
 30
0.0
 10
413.9443789213671
 20
207.0617536173584
 30
0.0
 10
414.3104058952974
 20
206.9812253993385
 30
0.0
 10
414.7873425104574
 20
206.8338428314185
 30
0.0
 10
415.1188540625573
 20
206.7068657770185
 30
0.0
 10
415.2912524158668
 20
206.6354120545184
 30
0.0
  0
SPLINE
  5
125AE
330
1F
100
AcDbEntity
  8
0
100
AcDbSpline
210
0.0
220
0.0
230
1.0
 70
     8
 71
     3
 72
    12
 73
     8
 74
     0
 42
0.0000000001
 43
0.0000000001
 40
0.0
 40
0.0
 40
0.0
 40
0.0
 40
0.0720756041
 40
0.1644398727
 40
0.4044792181
 40
0.6956036929
 40
1.0
 40
1.0
 40
1.0
 40
1.0
 10
427.9196958902272
 20
201.4013174183984
 30
0.0
 10
427.9162344896873
 20
201.4087586481886
 30
0.0
 10
427.9116963821572
 20
201.4272272822384
 30
0.0
 10
427.909727837537
 20
201.4733498372985
 30
0.0
 10
427.9209756978771
 20
201.5440580884483
 30
0.0
 10
427.948704969047
 20
201.6351862595084
 30
0.0
 10
427.9760422537671
 20
201.6974895679785
 30
0.0
 10
427.9919695650169
 20
201.7282734171884
 30
0.0
  0
SPLINE
  5
125AF
330
1F
100
AcDbEntity
  8
0
100
AcDbSpline
210
0.0
220
0.0
230
1.0
 70
     8
 71
     3
 72
    11
 73
     7
 74
     0
 42
0.0000000001
 43
0.0000000001
 40
0.0
 40
0.0
 40
0.0
 40
0.0
 40
0.2452651615
 40
0.4972744460000003
 40
0.7508481818000004
 40
1.0
 40
1.0
 40
1.0
 40
1.0
 10
431.1945838479771
 20
199.1081594674784
 30
0.0
 10
431.2255885807672
 20
199.0953089270086
 30
0.0
 10
431.294264323847
 20
199.0817902741485
 30
0.0
 10
431.3975495727775
 20
199.0998457999186
 30
0.0
 10
431.4888890596073
 20
199.1523222604783
 30
0.0
 10
431.5339179680568
 20
199.2067451531985
 30
0.0
 10
431.5502758328273
 20
199.2366589207484
 30
0.0
  0
SPLINE
  5
125B0
330
1F
100
AcDbEntity
  8
0
100
AcDbSpline
210
0.0
220
0.0
230
1.0
 70
     8
 71
     3
 72
    11
 73
     7
 74
     0
 42
0.0000000001
 43
0.0000000001
 40
0.0
 40
0.0
 40
0.0
 40
0.0
 40
0.2452651616
 40
0.4972744461
 40
0.7508481819
 40
1.0
 40
1.0
 40
1.0
 40
1.0
 10
431.4124131875271
 20
198.6398725044585
 30
0.0
 10
431.4434179203173
 20
198.6270219638985
 30
0.0
 10
431.5120936634873
 20
198.6135033110384
 30
0.0
 10
431.6153789124173
 20
198.6315588368985
 30
0.0
 10
431.7067183991571
 20
198.6840352974585
 30
0.0
 10
431.751747307607
 20
198.7384581901784
 30
0.0
 10
431.7681051724671
 20
198.7683719577285
 30
0.0
  0
SPLINE
  5
125B1
330
1F
100
AcDbEntity
  8
0
100
AcDbSpline
210
0.0
220
0.0
230
1.0
 70
     8
 71
     3
 72
    12
 73
     8
 74
     0
 42
0.0000000001
 43
0.0000000001
 40
0.0
 40
0.0
 40
0.0
 40
0.0
 40
0.3043963071
 40
0.5955207819
 40
0.8355601273000001
 40
0.9279243959
 40
1.0
 40
1.0
 40
1.0
 40
1.0
 10
415.3635260906573
 20
206.9623680533084
 30
0.0
 10
415.3475987793174
 20
206.9315842040985
 30
0.0
 10
415.3202614946874
 20
206.8692808956285
 30
0.0
 10
415.2925322234271
 20
206.7781527245684
 30
0.0
 10
415.2812843630873
 20
206.7074444734185
 30
0.0
 10
415.283252907707
 20
206.6613219183585
 30
0.0
 10
415.2877910153272
 20
206.6428532843084
 30
0.0
 10
415.2912524158668
 20
206.6354120545184
 30
0.0
  0
SPLINE
  5
125B2
330
1F
100
AcDbEntity
  8
0
100
AcDbSpline
210
0.0
220
0.0
230
1.0
 70
     8
 71
     3
 72
    13
 73
     9
 74
     0
 42
0.0000000001
 43
0.0000000001
 40
0.0
 40
0.0
 40
0.0
 40
0.0
 40
0.0906547288
 40
0.196787081
 40
0.3161051759
 40
0.4457599703000001
 40
0.7228319419
 40
1.0
 40
1.0
 40
1.0
 40
1.0
 10
425.2884039918174
 20
202.1564776793385
 30
0.0
 10
425.3658516994669
 20
202.0643626741185
 30
0.0
 10
425.547482618627
 20
201.8757690745186
 30
0.0
 10
425.8635986088171
 20
201.5993229849885
 30
0.0
 10
426.2384640509273
 20
201.3129742103086
 30
0.0
 10
426.8160367907571
 20
200.9199566055584
 30
0.0
 10
427.602611623157
 20
200.4640710982185
 30
0.0
 10
428.2687291009671
 20
200.1490104567584
 30
0.0
 10
428.6086383302272
 20
200.0081287016986
 30
0.0
  0
SPLINE
  5
125B3
330
1F
100
AcDbEntity
  8
0
100
AcDbSpline
210
0.0
220
0.0
230
1.0
 70
     8
 71
     3
 72
    11
 73
     7
 74
     0
 42
0.0000000001
 43
0.0000000001
 40
0.0
 40
0.0
 40
0.0
 40
0.0
 40
0.2910706722
 40
0.5589068914000001
 40
0.7969149437000001
 40
1.0
 40
1.0
 40
1.0
 40
1.0
 10
428.6086383302272
 20
200.0081287016986
 30
0.0
 10
428.768668714607
 20
199.9418011189185
 30
0.0
 10
429.079008637817
 20
199.8216204137985
 30
0.0
 10
429.5303058196971
 20
199.6747779329085
 30
0.0
 10
429.939634834097
 20
199.5711937914585
 30
0.0
 10
430.1993304329573
 20
199.5288449902185
 30
0.0
 10
430.3196710213671
 20
199.5175824879584
 30
0.0
  0
SPLINE
  5
125B4
330
1F
100
AcDbEntity
  8
0
100
AcDbSpline
210
0.0
220
0.0
230
1.0
 70
     8
 71
     3
 72
    13
 73
     9
 74
     0
 42
0.0000000001
 43
0.0000000001
 40
0.0
 40
0.0
 40
0.0
 40
0.0
 40
0.0906547288
 40
0.196787081
 40
0.3161051759
 40
0.4457599703000001
 40
0.7228319419
 40
1.0
 40
1.0
 40
1.0
 40
1.0
 10
414.6331554268374
 20
206.5727447729985
 30
0.0
 10
414.7106031345772
 20
206.4806297677786
 30
0.0
 10
414.8922340537372
 20
206.2920361681784
 30
0.0
 10
415.2083500439273
 20
206.0155900786484
 30
0.0
 10
415.583215486037
 20
205.7292413039684
 30
0.0
 10
416.1607882257773
 20
205.3362236992185
 30
0.0
 10
416.9473630581769
 20
204.8803381918786
 30
0.0
 10
417.6134805360772
 20
204.5652775504184
 30
0.0
 10
417.9533897652475
 20
204.4243957953584
 30
0.0
  0
SPLINE
  5
125B5
330
1F
100
AcDbEntity
  8
0
100
AcDbSpline
210
0.0
220
0.0
230
1.0
 70
     8
 71
     3
 72
    11
 73
     7
 74
     0
 42
0.0000000001
 43
0.0000000001
 40
0.0
 40
0.0
 40
0.0
 40
0.0
 40
0.2910706722
 40
0.5589068914000001
 40
0.7969149437000001
 40
1.0
 40
1.0
 40
1.0
 40
1.0
 10
417.9533897652475
 20
204.4243957953584
 30
0.0
 10
418.113420149627
 20
204.3580682125785
 30
0.0
 10
418.4237600728371
 20
204.2378875074585
 30
0.0
 10
418.8750572547171
 20
204.0910450265684
 30
0.0
 10
419.2843862692073
 20
203.9874608851185
 30
0.0
 10
419.5440818680673
 20
203.9451120838785
 30
0.0
 10
419.6644224563871
 20
203.9338495816185
 30
0.0
  0
SPLINE
  5
125B6
330
1F
100
AcDbEntity
  8
0
100
AcDbSpline
210
0.0
220
0.0
230
1.0
 70
     8
 71
     3
 72
     9
 73
     5
 74
     0
 42
0.0000000001
 43
0.0000000001
 40
0.0
 40
0.0
 40
0.0
 40
0.0
 40
0.25382536
 40
1.0
 40
1.0
 40
1.0
 40
1.0
 10
425.4894517036671
 20
200.1589357481085
 30
0.0
 10
425.4837783309173
 20
200.1608969648385
 30
0.0
 10
425.4617627777872
 20
200.1695537149185
 30
0.0
 10
425.4412036890774
 20
200.1819847653885
 30
0.0
 10
425.4275032084072
 20
200.1931066453486
 30
0.0
  0
SPLINE
  5
125B7
330
1F
100
AcDbEntity
  8
0
100
AcDbSpline
210
0.0
220
0.0
230
1.0
 70
     8
 71
     3
 72
     8
 73
     4
 74
     0
 42
0.0000000001
 43
0.0000000001
 40
0.0
 40
0.0
 40
0.0
 40
0.0
 40
1.0
 40
1.0
 40
1.0
 40
1.0
 10
420.6698802261173
 20
202.4070358194886
 30
0.0
 10
420.6575354368672
 20
202.3863580556086
 30
0.0
 10
420.6421099711972
 20
202.3672635701085
 30
0.0
 10
420.6245657173373
 20
202.3507662098384
 30
0.0
  0
SPLINE
  5
125B8
330
1F
100
AcDbEntity
  8
0
100
AcDbSpline
210
0.0
220
0.0
230
1.0
 70
     8
 71
     3
 72
     9
 73
     5
 74
     0
 42
0.0000000001
 43
0.0000000001
 40
0.0
 40
0.0
 40
0.0
 40
0.0
 40
0.4971967458
 40
1.0
 40
1.0
 40
1.0
 40
1.0
 10
420.6245657173373
 20
202.3507662098384
 30
0.0
 10
420.5945553823974
 20
202.3225466395484
 30
0.0
 10
420.5198619053271
 20
202.2796114541084
 30
0.0
 10
420.4340943066172
 20
202.2735578056184
 30
0.0
 10
420.3929044193571
 20
202.2797903053484
 30
0.0
  0
SPLINE
  5
125B9
330
1F
100
AcDbEntity
  8
0
100
AcDbSpline
210
0.0
220
0.0
230
1.0
 70
     8
 71
     3
 72
     9
 73
     5
 74
     0
 42
0.0000000001
 43
0.0000000001
 40
0.0
 40
0.0
 40
0.0
 40
0.0
 40
0.2524609719
 40
1.0
 40
1.0
 40
1.0
 40
1.0
 10
444.6920319997673
 20
215.4938870248184
 30
0.0
 10
444.7138693178874
 20
215.4785959918784
 30
0.0
 10
444.8019105840772
 20
215.4202778718885
 30
0.0
 10
444.8961339454074
 20
215.3711708569786
 30
0.0
 10
444.9690404448471
 20
215.3409117194686
 30
0.0
  0
SPLINE
  5
125BA
330
1F
100
AcDbEntity
  8
0
100
AcDbSpline
210
0.0
220
0.0
230
1.0
 70
     8
 71
     3
 72
    13
 73
     9
 74
     0
 42
0.0000000001
 43
0.0000000001
 40
0.0
 40
0.0
 40
0.0
 40
0.0
 40
0.1779458984
 40
0.2844426299
 40
0.4040578798000001
 40
0.6842298347
 40
0.8415390319
 40
1.0
 40
1.0
 40
1.0
 40
1.0
 10
442.7315679436372
 20
219.7084696920884
 30
0.0
 10
442.8113448404872
 20
219.7093962268785
 30
0.0
 10
442.9385587532872
 20
219.7389181515285
 30
0.0
 10
443.1041081030874
 20
219.8125256417084
 30
0.0
 10
443.2992983308071
 20
219.9295148580885
 30
0.0
 10
443.489718566807
 20
220.0950145194284
 30
0.0
 10
443.6601077240273
 20
220.3013700866685
 30
0.0
 10
443.7357596903871
 20
220.4217525372285
 30
0.0
 10
443.7687771341273
 20
220.4846604741584
 30
0.0
  0
SPLINE
  5
125BB
330
1F
100
AcDbEntity
  8
0
100
AcDbSpline
210
0.0
220
0.0
230
1.0
 70
     8
 71
     3
 72
    13
 73
     9
 74
     0
 42
0.0000000001
 43
0.0000000001
 40
0.0
 40
0.0
 40
0.0
 40
0.0
 40
0.0777271812
 40
0.1872689285
 40
0.3155493057999999
 40
0.4527696752000001
 40
0.7323779019
 40
1.0
 40
1.0
 40
1.0
 40
1.0
 10
440.8767647287368
 20
220.4772275820586
 30
0.0
 10
440.8600486103272
 20
220.5131636975385
 30
0.0
 10
440.8229060846271
 20
220.6011730815886
 30
0.0
 10
440.7629143741369
 20
220.7504612967285
 30
0.0
 10
440.6938202384274
 20
220.9287895825485
 30
0.0
 10
440.5953896250473
 20
221.1887329830884
 30
0.0
 10
440.474755111667
 20
221.5162369606485
 30
0.0
 10
440.3807252475472
 20
221.7789584888385
 30
0.0
 10
440.3354179915975
 20
221.9076803979884
 30
0.0
  0
SPLINE
  5
125BC
330
1F
100
AcDbEntity
  8
0
100
AcDbSpline
210
0.0
220
0.0
230
1.0
 70
     8
 71
     3
 72
    12
 73
     8
 74
     0
 42
0.0000000001
 43
0.0000000001
 40
0.0
 40
0.0
 40
0.0
 40
0.0
 40
0.0828956494
 40
0.1772034495
 40
0.40143786
 40
0.6762903518000001
 40
1.0
 40
1.0
 40
1.0
 40
1.0
 10
444.5822450878373
 20
218.7358765942484
 30
0.0
 10
444.5444117233073
 20
218.7179302142686
 30
0.0
 10
444.4603335011873
 20
218.6861853965384
 30
0.0
 10
444.2627241964068
 20
218.6389997029785
 30
0.0
 10
443.9610267507172
 20
218.6205273659685
 30
0.0
 10
443.5470344186271
 20
218.6783589811485
 30
0.0
 10
443.2606732393371
 20
218.7902523238186
 30
0.0
 10
443.1199495952871
 20
218.8735313661885
 30
0.0
  0
SPLINE
  5
125BD
330
1F
100
AcDbEntity
  8
0
100
AcDbSpline
210
0.0
220
0.0
230
1.0
 70
     8
 71
     3
 72
     9
 73
     5
 74
     0
 42
0.0000000001
 43
0.0000000001
 40
0.0
 40
0.0
 40
0.0
 40
0.0
 40
0.4910670223000002
 40
1.0
 40
1.0
 40
1.0
 40
1.0
 10
420.3950015681273
 20
228.9662774728186
 30
0.0
 10
420.2879272689772
 20
229.0412535586184
 30
0.0
 10
420.0884574731274
 20
229.2218635350586
 30
0.0
 10
419.9398172254971
 20
229.4472925904384
 30
0.0
 10
419.882667556247
 20
229.5701181425684
 30
0.0
  0
SPLINE
  5
125BE
330
1F
100
AcDbEntity
  8
0
100
AcDbSpline
210
0.0
220
0.0
230
1.0
 70
     8
 71
     3
 72
    10
 73
     6
 74
     0
 42
0.0000000001
 43
0.0000000001
 40
0.0
 40
0.0
 40
0.0
 40
0.0
 40
0.3342927337999999
 40
0.6058703949000001
 40
1.0
 40
1.0
 40
1.0
 40
1.0
 10
420.7833836688767
 20
228.1313381812184
 30
0.0
 10
420.7412755298872
 20
228.1394059547384
 30
0.0
 10
420.6656312272973
 20
228.1600000917884
 30
0.0
 10
420.5501962675373
 20
228.2153139192583
 30
0.0
 10
420.4837546691571
 20
228.2776963208986
 30
0.0
 10
420.462514292147
 20
228.3235654625985
 30
0.0
  0
SPLINE
  5
125BF
330
1F
100
AcDbEntity
  8
0
100
AcDbSpline
210
0.0
220
0.0
230
1.0
 70
     8
 71
     3
 72
    13
 73
     9
 74
     0
 42
0.0000000001
 43
0.0000000001
 40
0.0
 40
0.0
 40
0.0
 40
0.0
 40
0.2858956189
 40
0.5595042867
 40
0.6874062989000001
 40
0.8059429140999998
 40
0.9115008951
 40
1.0
 40
1.0
 40
1.0
 40
1.0
 10
423.287017919837
 20
228.9737087292583
 30
0.0
 10
423.1774543767468
 20
228.9331368283484
 30
0.0
 10
422.9660853977573
 20
228.8452763826886
 30
0.0
 10
422.716401133217
 20
228.7153598752785
 30
0.0
 10
422.5373735814171
 20
228.6005977472385
 30
0.0
 10
422.4224309680073
 20
228.5137002869984
 30
0.0
 10
422.329259793797
 20
228.4260484383884
 30
0.0
 10
422.2806986384273
 20
228.3621615467985
 30
0.0
 10
422.263950572537
 20
228.3301070774085
 30
0.0
  0
SPLINE
  5
125C0
330
1F
100
AcDbEntity
  8
0
100
AcDbSpline
210
0.0
220
0.0
230
1.0
 70
     8
 71
     3
 72
     9
 73
     5
 74
     0
 42
0.0000000001
 43
0.0000000001
 40
0.0
 40
0.0
 40
0.0
 40
0.0
 40
0.241003805
 40
1.0
 40
1.0
 40
1.0
 40
1.0
 10
420.6877156117071
 20
202.4953095110384
 30
0.0
 10
420.6854216013469
 20
202.4891742308385
 30
0.0
 10
420.6771915617871
 20
202.4632365559185
 30
0.0
 10
420.6742842779274
 20
202.4357509312184
 30
0.0
 10
420.674508561977
 20
202.4151237606584
 30
0.0
  0
LINE
  5
125C1
330
1F
100
AcDbEntity
  8
0
100
AcDbLine
 10
420.674508561977
 20
202.4151237606584
 30
0.0
 11
420.7289183491671
 21
202.5139646545184
 31
0.0
  0
LINE
  5
125C2
330
1F
100
AcDbEntity
  8
0
100
AcDbLine
 10
420.7289183491671
 20
202.5139646545184
 30
0.0
 11
420.7346442578876
 21
202.5243662516085
 31
0.0
  0
SPLINE
  5
125C3
330
1F
100
AcDbEntity
  8
0
100
AcDbSpline
210
0.0
220
0.0
230
1.0
 70
     8
 71
     3
 72
    15
 73
    11
 74
     0
 42
0.0000000001
 43
0.0000000001
 40
0.0
 40
0.0
 40
0.0
 40
0.0
 40
0.1916076958
 40
0.3671717704
 40
0.5237814997
 40
0.6596185461000001
 40
0.7736295523000001
 40
0.8659385710999998
 40
0.9391007520999995
 40
1.0
 40
1.0
 40
1.0
 40
1.0
 10
416.8228296039472
 20
219.5401386090585
 30
0.0
 10
416.758727270087
 20
219.5627011671584
 30
0.0
 10
416.6349343712274
 20
219.6033038622884
 30
0.0
 10
416.4555919532572
 20
219.6521000980186
 30
0.0
 10
416.292868070837
 20
219.6855622517385
 30
0.0
 10
416.149599422807
 20
219.7031918732085
 30
0.0
 10
416.0279056104172
 20
219.7049001178485
 30
0.0
 10
415.929282799787
 20
219.6904152677385
 30
0.0
 10
415.8537863783573
 20
219.6593821957484
 30
0.0
 10
415.8196053282171
 20
219.6233216592284
 30
0.0
 10
415.8095706407872
 20
219.6041951510984
 30
0.0
  0
SPLINE
  5
125C4
330
1F
100
AcDbEntity
  8
0
100
AcDbSpline
210
0.0
220
0.0
230
1.0
 70
     8
 71
     3
 72
    11
 73
     7
 74
     0
 42
0.0000000001
 43
0.0000000001
 40
0.0
 40
0.0
 40
0.0
 40
0.0
 40
0.2101368492
 40
0.4384920946000002
 40
0.6989852078000001
 40
1.0
 40
1.0
 40
1.0
 40
1.0
 10
413.9376865040873
 20
206.4015735325184
 30
0.0
 10
413.9261370813771
 20
206.3795869083584
 30
0.0
 10
413.9095094500674
 20
206.3294546058886
 30
0.0
 10
413.9075559248273
 20
206.2459557474284
 30
0.0
 10
413.9267713012968
 20
206.1539958180584
 30
0.0
 10
413.9512452622073
 20
206.0920199750386
 30
0.0
 10
413.9662500037072
 20
206.0597629575885
 30
0.0
  0
SPLINE
  5
125C5
330
1F
100
AcDbEntity
  8
0
100
AcDbSpline
210
0.0
220
0.0
230
1.0
 70
     8
 71
     3
 72
    17
 73
    13
 74
     0
 42
0.0000000001
 43
0.0000000001
 40
0.0
 40
0.0
 40
0.0
 40
0.0
 40
0.0335894058
 40
0.0726371906
 40
0.1171059895
 40
0.1668131181
 40
0.2806700956
 40
0.4108514641000001
 40
0.5529927002
 40
0.7021181381
 40
0.8529169918
 40
1.0
 40
1.0
 40
1.0
 40
1.0
 10
431.550275207237
 20
199.2366591930884
 30
0.0
 10
431.5294822018669
 20
199.2813597526484
 30
0.0
 10
431.4766305348173
 20
199.3743716653785
 30
0.0
 10
431.3759309985774
 20
199.5139185047986
 30
0.0
 10
431.2486512641874
 20
199.6626051297885
 30
0.0
 10
431.0352419099571
 20
199.8812017385084
 30
0.0
 10
430.7093178796074
 20
200.1644710678784
 30
0.0
 10
430.2544931307171
 20
200.5033163794185
 30
0.0
 10
429.7363579435669
 20
200.8418460140684
 30
0.0
 10
429.174575324477
 20
201.1670555953486
 30
0.0
 10
428.5904898496672
 20
201.4664557520684
 30
0.0
 10
428.191396339427
 20
201.6456170570084
 30
0.0
 10
427.991969695067
 20
201.7282731604185
 30
0.0
  0
SPLINE
  5
125C6
330
1F
100
AcDbEntity
  8
0
100
AcDbSpline
210
0.0
220
0.0
230
1.0
 70
     8
 71
     3
 72
    14
 73
    10
 74
     0
 42
0.0000000001
 43
0.0000000001
 40
0.0
 40
0.0
 40
0.0
 40
0.0
 40
0.3670972295
 40
0.5238009248
 40
0.6596518389
 40
0.7736104512999999
 40
0.8659423420999999
 40
0.9390868226
 40
1.0
 40
1.0
 40
1.0
 40
1.0
 10
417.4863576097671
 20
219.3065921162684
 30
0.0
 10
417.5477625538968
 20
219.2849789777086
 30
0.0
 10
417.6367355300572
 20
219.2574752353785
 30
0.0
 10
417.751392912227
 20
219.2338696182285
 30
0.0
 10
417.823039490957
 20
219.2250478085085
 30
0.0
 10
417.8838805075072
 20
219.2242405093185
 30
0.0
 10
417.9331858060971
 20
219.2314659462884
 30
0.0
 10
417.9709279079268
 20
219.2470075328386
 30
0.0
 10
417.9880072949575
 20
219.2650493671784
 30
0.0
 10
417.9930148708374
 20
219.2746202843385
 30
0.0
  0
SPLINE
  5
125C7
330
1F
100
AcDbEntity
  8
0
100
AcDbSpline
210
0.0
220
0.0
230
1.0
 70
     8
 71
     3
 72
    11
 73
     7
 74
     0
 42
0.0000000001
 43
0.0000000001
 40
0.0
 40
0.0
 40
0.0
 40
0.0
 40
0.2101368492
 40
0.4384920946000002
 40
0.6989852078000001
 40
1.0
 40
1.0
 40
1.0
 40
1.0
 10
424.5929350689772
 20
201.9853064389484
 30
0.0
 10
424.5813856462671
 20
201.9633198146985
 30
0.0
 10
424.564758014957
 20
201.9131875122285
 30
0.0
 10
424.562804489807
 20
201.8296886537685
 30
0.0
 10
424.5820198661871
 20
201.7377287243986
 30
0.0
 10
424.6064938271872
 20
201.6757528814685
 30
0.0
 10
424.6214985685972
 20
201.6434958639284
 30
0.0
  0
SPLINE
  5
125C8
330
1F
100
AcDbEntity
  8
0
100
AcDbSpline
210
0.0
220
0.0
230
1.0
 70
     8
 71
     3
 72
    15
 73
    11
 74
     0
 42
0.0000000001
 43
0.0000000001
 40
0.0
 40
0.0
 40
0.0
 40
0.0
 40
0.1900777807
 40
0.3667088098
 40
0.5257464877000002
 40
0.6642915018
 40
0.7802578759000001
 40
0.8727815303999999
 40
0.9436845033999999
 40
1.0
 40
1.0
 40
1.0
 40
1.0
 10
418.4447345755372
 20
219.7477353956386
 30
0.0
 10
418.4051623355871
 20
219.7641368507385
 30
0.0
 10
418.328108618507
 20
219.7941121676686
 30
0.0
 10
418.2156215443971
 20
219.8315029259684
 30
0.0
 10
418.1122883531871
 20
219.8590961308185
 30
0.0
 10
418.0205834185673
 20
219.8762789454884
 30
0.0
 10
417.9424375942374
 20
219.8828866331685
 30
0.0
 10
417.8793289147368
 20
219.8785803979486
 30
0.0
 10
417.8312374946574
 20
219.8635960364985
 30
0.0
 10
417.8092777479171
 20
219.8426896746885
 30
0.0
 10
417.8033888909574
 20
219.8314471609786
 30
0.0
  0
SPLINE
  5
125C9
330
1F
100
AcDbEntity
  8
0
100
AcDbSpline
210
0.0
220
0.0
230
1.0
 70
     8
 71
     3
 72
     9
 73
     5
 74
     0
 42
0.0000000001
 43
0.0000000001
 40
0.0
 40
0.0
 40
0.0
 40
0.0
 40
0.5358907085000002
 40
1.0
 40
1.0
 40
1.0
 40
1.0
 10
421.3524112521473
 20
202.5079187141685
 30
0.0
 10
421.3553331051173
 20
202.5016373489385
 30
0.0
 10
421.362464259707
 20
202.4903707073084
 30
0.0
 10
421.3744489934271
 20
202.4838362758485
 30
0.0
 10
421.3803128141874
 20
202.4825664698085
 30
0.0
  0
SPLINE
  5
125CA
330
1F
100
AcDbEntity
  8
0
100
AcDbSpline
210
0.0
220
0.0
230
1.0
 70
     8
 71
     3
 72
    12
 73
     8
 74
     0
 42
0.0000000001
 43
0.0000000001
 40
0.0
 40
0.0
 40
0.0
 40
0.0
 40
0.3043961745
 40
0.5955205702000002
 40
0.835559959
 40
0.9279243012999998
 40
1.0
 40
1.0
 40
1.0
 40
1.0
 10
420.4938289117674
 20
204.8360180840084
 30
0.0
 10
420.4779016139267
 20
204.8052342607185
 30
0.0
 10
420.4505643463972
 20
204.7429310021085
 30
0.0
 10
420.4228350777473
 20
204.6518028905385
 30
0.0
 10
420.4115871995874
 20
204.5810946703485
 30
0.0
 10
420.4135557059573
 20
204.5349721087185
 30
0.0
 10
420.4180937868475
 20
204.5165034587386
 30
0.0
 10
420.4215551719071
 20
204.5090622135584
 30
0.0
  0
LINE
  5
125CB
330
1F
100
AcDbEntity
  8
0
100
AcDbLine
 10
476.0461783115934
 20
342.6891694144093
 30
0.0
 11
476.0461783115934
 21
335.6891694144092
 31
0.0
  0
LINE
  5
125CC
330
1F
100
AcDbEntity
  8
0
100
AcDbLine
 10
474.0961833115933
 20
346.4891694144092
 30
0.0
 11
474.0961833115933
 21
331.8891694144093
 31
0.0
  0
LINE
  5
125CD
330
1F
100
AcDbEntity
  8
0
100
AcDbLine
 10
473.0961833115934
 20
345.4891694144091
 30
0.0
 11
473.0961833115934
 21
342.9930183352092
 31
0.0
  0
LINE
  5
125CE
330
1F
100
AcDbEntity
  8
0
100
AcDbLine
 10
473.0961833115934
 20
335.3853204936093
 30
0.0
 11
473.0961833115934
 21
332.8891694144093
 31
0.0
  0
LINE
  5
125CF
330
1F
100
AcDbEntity
  8
0
100
AcDbLine
 10
470.9600509529932
 20
338.4891694144092
 30
0.0
 11
470.9600567529935
 21
339.8891694144093
 31
0.0
  0
LINE
  5
125D0
330
1F
100
AcDbEntity
  8
0
100
AcDbLine
 10
470.7461783115935
 20
345.4891694144091
 30
0.0
 11
470.7461783115935
 21
344.3689644144094
 31
0.0
  0
LINE
  5
125D1
330
1F
100
AcDbEntity
  8
0
100
AcDbLine
 10
470.7461783115935
 20
334.0093744144092
 30
0.0
 11
470.7461783115935
 21
332.8891694144093
 31
0.0
  0
LINE
  5
125D2
330
1F
100
AcDbEntity
  8
0
100
AcDbLine
 10
470.7121034402935
 20
339.8891694144093
 30
0.0
 11
470.7121034402935
 21
338.4891694144092
 31
0.0
  0
LINE
  5
125D3
330
1F
100
AcDbEntity
  8
0
100
AcDbLine
 10
470.4121462325931
 20
339.8891694144093
 30
0.0
 11
470.4121462325931
 21
338.4891694144092
 31
0.0
  0
LINE
  5
125D4
330
1F
100
AcDbEntity
  8
0
100
AcDbLine
 10
466.9461783115933
 20
331.8891694144093
 30
0.0
 11
466.9461783115933
 21
333.0891694144094
 31
0.0
  0
LINE
  5
125D5
330
1F
100
AcDbEntity
  8
0
100
AcDbLine
 10
466.9461783115933
 20
334.4752959732094
 30
0.0
 11
466.9461783115933
 21
335.0232039933092
 31
0.0
  0
LINE
  5
125D6
330
1F
100
AcDbEntity
  8
0
100
AcDbLine
 10
466.9461783115933
 20
346.4891694144092
 30
0.0
 11
466.9461783115933
 21
345.2891694144094
 31
0.0
  0
LINE
  5
125D7
330
1F
100
AcDbEntity
  8
0
100
AcDbLine
 10
466.9461783115933
 20
343.9030408562092
 30
0.0
 11
466.9461783115933
 21
343.3551338354094
 31
0.0
  0
LINE
  5
125D8
330
1F
100
AcDbEntity
  8
0
100
AcDbLine
 10
466.7461833115934
 20
345.3891694144093
 30
0.0
 11
466.7461833115934
 21
346.4891694144092
 31
0.0
  0
LINE
  5
125D9
330
1F
100
AcDbEntity
  8
0
100
AcDbLine
 10
466.7461833115934
 20
332.9891694144091
 30
0.0
 11
466.7461833115934
 21
331.8891694144093
 31
0.0
  0
LINE
  5
125DA
330
1F
100
AcDbEntity
  8
0
100
AcDbLine
 10
466.4461833115931
 20
332.9891694144091
 30
0.0
 11
466.4461833115931
 21
333.0891694144094
 31
0.0
  0
LINE
  5
125DB
330
1F
100
AcDbEntity
  8
0
100
AcDbLine
 10
466.4461833115931
 20
345.3891694144093
 30
0.0
 11
466.4461833115931
 21
345.2891694144094
 31
0.0
  0
LINE
  5
125DC
330
1F
100
AcDbEntity
  8
0
100
AcDbLine
 10
466.2461833115933
 20
332.9891694144091
 30
0.0
 11
466.2461833115933
 21
333.0891694144094
 31
0.0
  0
LINE
  5
125DD
330
1F
100
AcDbEntity
  8
0
100
AcDbLine
 10
466.2461833115933
 20
345.2891694144094
 30
0.0
 11
466.2461833115933
 21
345.3891694144093
 31
0.0
  0
LINE
  5
125DE
330
1F
100
AcDbEntity
  8
0
100
AcDbLine
 10
474.0961833115933
 20
346.4891694144092
 30
0.0
 11
443.7961833115933
 21
346.4891694144092
 31
0.0
  0
LINE
  5
125DF
330
1F
100
AcDbEntity
  8
0
100
AcDbLine
 10
445.4488837677935
 20
343.2305849658094
 30
0.0
 11
446.3198300378935
 21
343.3841561898094
 31
0.0
  0
LINE
  5
125E0
330
1F
100
AcDbEntity
  8
0
100
AcDbLine
 10
466.9461783115933
 20
345.6891694144093
 30
0.0
 11
450.9461833115933
 21
345.6891694144093
 31
0.0
  0
LINE
  5
125E1
330
1F
100
AcDbEntity
  8
0
100
AcDbLine
 10
444.7961833115932
 20
345.4891694144091
 30
0.0
 11
447.1461833115935
 21
345.4891694144091
 31
0.0
  0
LINE
  5
125E2
330
1F
100
AcDbEntity
  8
0
100
AcDbLine
 10
470.7461783115935
 20
345.4891694144091
 30
0.0
 11
473.0961833115934
 21
345.4891694144091
 31
0.0
  0
LINE
  5
125E3
330
1F
100
AcDbEntity
  8
0
100
AcDbLine
 10
466.9461783115933
 20
345.3891694144093
 30
0.0
 11
450.9461833115933
 21
345.3891694144093
 31
0.0
  0
LINE
  5
125E4
330
1F
100
AcDbEntity
  8
0
100
AcDbLine
 10
450.9461833115933
 20
345.2891694144094
 30
0.0
 11
466.9461783115933
 21
345.2891694144094
 31
0.0
  0
LINE
  5
125E5
330
1F
100
AcDbEntity
  8
0
100
AcDbLine
 10
471.5725220919932
 20
343.3841592743093
 30
0.0
 11
472.4434735564932
 21
343.2305862528092
 31
0.0
  0
LINE
  5
125E6
330
1F
100
AcDbEntity
  8
0
100
AcDbLine
 10
455.6677504955937
 20
343.3551332395094
 30
0.0
 11
455.9622479553936
 21
343.4120879007094
 31
0.0
  0
LINE
  5
125E7
330
1F
100
AcDbEntity
  8
0
100
AcDbLine
 10
455.8791614750933
 20
343.9030408558092
 30
0.0
 11
450.9461833115933
 21
343.9030408558092
 31
0.0
  0
LINE
  5
125E8
330
1F
100
AcDbEntity
  8
0
100
AcDbLine
 10
466.9461783115933
 20
343.9030420558093
 30
0.0
 11
462.0132051479933
 21
343.9030408558092
 31
0.0
  0
LINE
  5
125E9
330
1F
100
AcDbEntity
  8
0
100
AcDbLine
 10
443.7961833115933
 20
343.6891694144093
 30
0.0
 11
441.8461833115934
 21
343.6891694144093
 31
0.0
  0
LINE
  5
125EA
330
1F
100
AcDbEntity
  8
0
100
AcDbLine
 10
462.2246161266935
 20
343.6550875440094
 30
0.0
 11
466.9461783115933
 21
343.6550875442093
 31
0.0
  0
LINE
  5
125EB
330
1F
100
AcDbEntity
  8
0
100
AcDbLine
 10
455.6677504963936
 20
343.6550875440094
 30
0.0
 11
450.9461833115933
 21
343.6550875442093
 31
0.0
  0
LINE
  5
125EC
330
1F
100
AcDbEntity
  8
0
100
AcDbLine
 10
462.2246161266935
 20
343.3551332354094
 30
0.0
 11
466.9461783115933
 21
343.3551338354094
 31
0.0
  0
LINE
  5
125ED
330
1F
100
AcDbEntity
  8
0
100
AcDbLine
 10
455.6677504963936
 20
343.3551332354094
 30
0.0
 11
450.9461833115933
 21
343.3551338354094
 31
0.0
  0
LINE
  5
125EE
330
1F
100
AcDbEntity
  8
0
100
AcDbLine
 10
461.9301186677935
 20
343.4120879007094
 30
0.0
 11
462.2246161266935
 21
343.3551332354094
 31
0.0
  0
LINE
  5
125EF
330
1F
100
AcDbEntity
  8
0
100
AcDbLine
 10
462.2246161266935
 20
343.3551332354094
 30
0.0
 11
462.2246161266935
 21
343.6550875440094
 31
0.0
  0
LINE
  5
125F0
330
1F
100
AcDbEntity
  8
0
100
AcDbLine
 10
461.6461833115933
 20
345.3891694144093
 30
0.0
 11
461.6461833115933
 21
345.2891694144094
 31
0.0
  0
LINE
  5
125F1
330
1F
100
AcDbEntity
  8
0
100
AcDbLine
 10
461.6461833115933
 20
333.0891694144094
 30
0.0
 11
461.6461833115933
 21
332.9891694144091
 31
0.0
  0
LINE
  5
125F2
330
1F
100
AcDbEntity
  8
0
100
AcDbLine
 10
476.0461783115934
 20
342.6891694144093
 30
0.0
 11
474.0961833115933
 21
342.6891694144093
 31
0.0
  0
LINE
  5
125F3
330
1F
100
AcDbEntity
  8
0
100
AcDbLine
 10
443.7961833115933
 20
342.6891694144093
 30
0.0
 11
441.8461833115934
 21
342.6891694144093
 31
0.0
  0
LINE
  5
125F4
330
1F
100
AcDbEntity
  8
0
100
AcDbLine
 10
461.4461833115933
 20
332.9891694144091
 30
0.0
 11
461.4461833115933
 21
333.0891694144094
 31
0.0
  0
LINE
  5
125F5
330
1F
100
AcDbEntity
  8
0
100
AcDbLine
 10
461.4461833115933
 20
345.3891694144093
 30
0.0
 11
461.4461833115933
 21
345.2891694144094
 31
0.0
  0
LINE
  5
125F6
330
1F
100
AcDbEntity
  8
0
100
AcDbLine
 10
460.4461833115933
 20
341.5887543116093
 30
0.0
 11
460.4461833115933
 21
334.5145698690095
 31
0.0
  0
LINE
  5
125F7
330
1F
100
AcDbEntity
  8
0
100
AcDbLine
 10
476.0461783115934
 20
341.6891694144092
 30
0.0
 11
474.0961833115933
 21
341.6891694144092
 31
0.0
  0
LINE
  5
125F8
330
1F
100
AcDbEntity
  8
0
100
AcDbLine
 10
470.9600567529935
 20
339.8891694144093
 30
0.0
 11
470.4121462325931
 21
339.8891694144093
 31
0.0
  0
LINE
  5
125F9
330
1F
100
AcDbEntity
  8
0
100
AcDbLine
 10
447.4802178904933
 20
339.8891694144093
 30
0.0
 11
446.9323098702933
 21
339.8891694144093
 31
0.0
  0
LINE
  5
125FA
330
1F
100
AcDbEntity
  8
0
100
AcDbLine
 10
457.4461823115933
 20
341.5887549365093
 30
0.0
 11
457.4461823115933
 21
334.5145698690095
 31
0.0
  0
LINE
  5
125FB
330
1F
100
AcDbEntity
  8
0
100
AcDbLine
 10
470.9600567512934
 20
338.4891694144092
 30
0.0
 11
470.4121462325931
 21
338.4891694144092
 31
0.0
  0
LINE
  5
125FC
330
1F
100
AcDbEntity
  8
0
100
AcDbLine
 10
447.4802178904933
 20
338.4891694144092
 30
0.0
 11
446.9323098700932
 21
338.4891694144092
 31
0.0
  0
LINE
  5
125FD
330
1F
100
AcDbEntity
  8
0
100
AcDbLine
 10
456.4461833115934
 20
332.9891694144091
 30
0.0
 11
456.4461833115934
 21
333.0891694144094
 31
0.0
  0
LINE
  5
125FE
330
1F
100
AcDbEntity
  8
0
100
AcDbLine
 10
456.4461833115934
 20
345.3891694144093
 30
0.0
 11
456.4461833115934
 21
345.2891694144094
 31
0.0
  0
LINE
  5
125FF
330
1F
100
AcDbEntity
  8
0
100
AcDbLine
 10
456.2461833115935
 20
332.9891694144091
 30
0.0
 11
456.2461833115935
 21
333.0891694144094
 31
0.0
  0
LINE
  5
12600
330
1F
100
AcDbEntity
  8
0
100
AcDbLine
 10
456.2461833115935
 20
345.2891694144094
 30
0.0
 11
456.2461833115935
 21
345.3891694144093
 31
0.0
  0
LINE
  5
12601
330
1F
100
AcDbEntity
  8
0
100
AcDbLine
 10
474.0961833115933
 20
336.6891694144093
 30
0.0
 11
476.0461783115934
 21
336.6891694144093
 31
0.0
  0
LINE
  5
12602
330
1F
100
AcDbEntity
  8
0
100
AcDbLine
 10
455.6677504963936
 20
343.3551332354094
 30
0.0
 11
455.6677504963936
 21
343.6550875440094
 31
0.0
  0
LINE
  5
12603
330
1F
100
AcDbEntity
  8
0
100
AcDbLine
 10
441.8461833115934
 20
335.6891694144092
 30
0.0
 11
443.7961833115933
 21
335.6891694144092
 31
0.0
  0
LINE
  5
12604
330
1F
100
AcDbEntity
  8
0
100
AcDbLine
 10
474.0961833115933
 20
335.6891694144092
 30
0.0
 11
476.0461783115934
 21
335.6891694144092
 31
0.0
  0
LINE
  5
12605
330
1F
100
AcDbEntity
  8
0
100
AcDbLine
 10
450.9461833115933
 20
335.0232039933092
 30
0.0
 11
457.4461823115933
 21
335.0232035933093
 31
0.0
  0
LINE
  5
12606
330
1F
100
AcDbEntity
  8
0
100
AcDbLine
 10
466.9461783115933
 20
335.0232039933092
 30
0.0
 11
460.4461833115933
 21
335.0232035933093
 31
0.0
  0
LINE
  5
12607
330
1F
100
AcDbEntity
  8
0
100
AcDbLine
 10
450.9461833115933
 20
334.7232492849093
 30
0.0
 11
457.4461823115933
 21
334.7232492848093
 31
0.0
  0
LINE
  5
12608
330
1F
100
AcDbEntity
  8
0
100
AcDbLine
 10
466.9461783115933
 20
334.7232492849093
 30
0.0
 11
460.4461833115933
 21
334.7232492848093
 31
0.0
  0
LINE
  5
12609
330
1F
100
AcDbEntity
  8
0
100
AcDbLine
 10
441.8461833115934
 20
334.6891694144093
 30
0.0
 11
443.7961833115933
 21
334.6891694144093
 31
0.0
  0
LINE
  5
1260A
330
1F
100
AcDbEntity
  8
0
100
AcDbLine
 10
457.4461823115933
 20
334.5145698690095
 30
0.0
 11
460.4461833115933
 21
334.5145698690095
 31
0.0
  0
LINE
  5
1260B
330
1F
100
AcDbEntity
  8
0
100
AcDbLine
 10
466.9461783115933
 20
334.4752959732094
 30
0.0
 11
450.9461833115933
 21
334.4752959732094
 31
0.0
  0
LINE
  5
1260C
330
1F
100
AcDbEntity
  8
0
100
AcDbLine
 10
472.4434735564932
 20
335.1477525759092
 30
0.0
 11
471.5725220919932
 21
334.9941795544093
 31
0.0
  0
LINE
  5
1260D
330
1F
100
AcDbEntity
  8
0
100
AcDbLine
 10
466.9461783115933
 20
333.0891694144094
 30
0.0
 11
450.9461833115933
 21
333.0891694144094
 31
0.0
  0
LINE
  5
1260E
330
1F
100
AcDbEntity
  8
0
100
AcDbLine
 10
450.9461833115933
 20
332.9891694144091
 30
0.0
 11
466.9461783115933
 21
332.9891694144091
 31
0.0
  0
LINE
  5
1260F
330
1F
100
AcDbEntity
  8
0
100
AcDbLine
 10
473.0961833115934
 20
332.8891694144093
 30
0.0
 11
470.7461783115935
 21
332.8891694144093
 31
0.0
  0
LINE
  5
12610
330
1F
100
AcDbEntity
  8
0
100
AcDbLine
 10
447.1461833115935
 20
332.8891694144093
 30
0.0
 11
444.7961833115932
 21
332.8891694144093
 31
0.0
  0
LINE
  5
12611
330
1F
100
AcDbEntity
  8
0
100
AcDbLine
 10
450.9461833115933
 20
332.6891694144093
 30
0.0
 11
466.9461783115933
 21
332.6891694144093
 31
0.0
  0
LINE
  5
12612
330
1F
100
AcDbEntity
  8
0
100
AcDbLine
 10
446.3198300378935
 20
334.9941826390093
 30
0.0
 11
445.4488837677935
 21
335.1477538629093
 31
0.0
  0
LINE
  5
12613
330
1F
100
AcDbEntity
  8
0
100
AcDbLine
 10
451.6461833115934
 20
345.3891694144093
 30
0.0
 11
451.6461833115934
 21
345.2891694144094
 31
0.0
  0
LINE
  5
12614
330
1F
100
AcDbEntity
  8
0
100
AcDbLine
 10
451.6461833115934
 20
333.0891694144094
 30
0.0
 11
451.6461833115934
 21
332.9891694144091
 31
0.0
  0
LINE
  5
12615
330
1F
100
AcDbEntity
  8
0
100
AcDbLine
 10
451.4461833115933
 20
332.9891694144091
 30
0.0
 11
451.4461833115933
 21
333.0891694144094
 31
0.0
  0
LINE
  5
12616
330
1F
100
AcDbEntity
  8
0
100
AcDbLine
 10
451.4461833115933
 20
345.3891694144093
 30
0.0
 11
451.4461833115933
 21
345.2891694144094
 31
0.0
  0
LINE
  5
12617
330
1F
100
AcDbEntity
  8
0
100
AcDbLine
 10
451.1461833115935
 20
346.4891694144092
 30
0.0
 11
451.1461833115935
 21
345.3891694144093
 31
0.0
  0
LINE
  5
12618
330
1F
100
AcDbEntity
  8
0
100
AcDbLine
 10
451.1461833115935
 20
332.9891694144091
 30
0.0
 11
451.1461833115935
 21
331.8891694144093
 31
0.0
  0
LINE
  5
12619
330
1F
100
AcDbEntity
  8
0
100
AcDbLine
 10
450.9461833115933
 20
331.8891694144093
 30
0.0
 11
450.9461833115933
 21
333.0891694144094
 31
0.0
  0
LINE
  5
1261A
330
1F
100
AcDbEntity
  8
0
100
AcDbLine
 10
450.9461833115933
 20
346.4891694144092
 30
0.0
 11
450.9461833115933
 21
345.2891694144094
 31
0.0
  0
LINE
  5
1261B
330
1F
100
AcDbEntity
  8
0
100
AcDbLine
 10
450.9461833115933
 20
343.9030408558092
 30
0.0
 11
450.9461833115933
 21
343.3551338354094
 31
0.0
  0
LINE
  5
1261C
330
1F
100
AcDbEntity
  8
0
100
AcDbLine
 10
450.9461833115933
 20
335.0232039933092
 30
0.0
 11
450.9461833115933
 21
334.4752959732094
 31
0.0
  0
LINE
  5
1261D
330
1F
100
AcDbEntity
  8
0
100
AcDbLine
 10
474.0961833115933
 20
331.8891694144093
 30
0.0
 11
443.7961833115933
 21
331.8891694144093
 31
0.0
  0
LINE
  5
1261E
330
1F
100
AcDbEntity
  8
0
100
AcDbLine
 10
447.4802178904933
 20
339.8891694144093
 30
0.0
 11
447.4802178904933
 21
338.4891694144092
 31
0.0
  0
LINE
  5
1261F
330
1F
100
AcDbEntity
  8
0
100
AcDbLine
 10
447.180263182093
 20
339.8891694144093
 30
0.0
 11
447.180263182093
 21
338.4891694144092
 31
0.0
  0
LINE
  5
12620
330
1F
100
AcDbEntity
  8
0
100
AcDbLine
 10
447.1461833115935
 20
332.8891694144093
 30
0.0
 11
447.1461833115935
 21
334.0093744144092
 31
0.0
  0
LINE
  5
12621
330
1F
100
AcDbEntity
  8
0
100
AcDbLine
 10
447.1461833115935
 20
344.3689644144094
 30
0.0
 11
447.1461833115935
 21
345.4891694144091
 31
0.0
  0
LINE
  5
12622
330
1F
100
AcDbEntity
  8
0
100
AcDbLine
 10
446.9323106700935
 20
339.8891694144093
 30
0.0
 11
446.9323098700932
 21
338.4891694144092
 31
0.0
  0
LINE
  5
12623
330
1F
100
AcDbEntity
  8
0
100
AcDbLine
 10
444.7961833115932
 20
332.8891694144093
 30
0.0
 11
444.7961833115932
 21
335.3853176068095
 31
0.0
  0
LINE
  5
12624
330
1F
100
AcDbEntity
  8
0
100
AcDbLine
 10
444.7961833115932
 20
342.9930212220093
 30
0.0
 11
444.7961833115932
 21
345.4891694144091
 31
0.0
  0
LINE
  5
12625
330
1F
100
AcDbEntity
  8
0
100
AcDbLine
 10
443.7961833115933
 20
346.4891694144092
 30
0.0
 11
443.7961833115933
 21
331.8891694144093
 31
0.0
  0
LINE
  5
12626
330
1F
100
AcDbEntity
  8
0
100
AcDbLine
 10
441.8461833115934
 20
334.6891694144093
 30
0.0
 11
441.8461833115934
 21
343.6891694144093
 31
0.0
  0
LINE
  5
12627
330
1F
100
AcDbEntity
  8
0
100
AcDbLine
 10
471.8461853115936
 20
307.6307058410203
 30
0.0
 11
446.0461813115935
 21
307.6307058410203
 31
0.0
  0
LINE
  5
12628
330
1F
100
AcDbEntity
  8
0
100
AcDbLine
 10
445.7247527400935
 20
306.4307058410203
 30
0.0
 11
451.4461833115933
 21
306.4307058410203
 31
0.0
  0
LINE
  5
12629
330
1F
100
AcDbEntity
  8
0
100
AcDbLine
 10
456.4461833115934
 20
306.4307058410203
 30
0.0
 11
461.4461833115933
 21
306.4307058410203
 31
0.0
  0
LINE
  5
1262A
330
1F
100
AcDbEntity
  8
0
100
AcDbLine
 10
466.4461833115931
 20
306.4307058410203
 30
0.0
 11
472.1676138829931
 21
306.4307058410203
 31
0.0
  0
LINE
  5
1262B
330
1F
100
AcDbEntity
  8
0
100
AcDbLine
 10
466.4461833115931
 20
299.0307058410202
 30
0.0
 11
461.4461833115933
 21
299.0307058410202
 31
0.0
  0
LINE
  5
1262C
330
1F
100
AcDbEntity
  8
0
100
AcDbLine
 10
456.4461833115934
 20
299.0307058410202
 30
0.0
 11
451.4461833115933
 21
299.0307058410202
 31
0.0
  0
LINE
  5
1262D
330
1F
100
AcDbEntity
  8
0
100
AcDbLine
 10
451.4461833115933
 20
298.7307058410202
 30
0.0
 11
456.4461833115934
 21
298.7307058410202
 31
0.0
  0
LINE
  5
1262E
330
1F
100
AcDbEntity
  8
0
100
AcDbLine
 10
461.4461833115933
 20
298.7307058410202
 30
0.0
 11
466.4461833115931
 21
298.7307058410202
 31
0.0
  0
LINE
  5
1262F
330
1F
100
AcDbEntity
  8
0
100
AcDbLine
 10
441.8461833115934
 20
297.2307058410202
 30
0.0
 11
443.6961833115931
 21
297.2307058410202
 31
0.0
  0
LINE
  5
12630
330
1F
100
AcDbEntity
  8
0
100
AcDbLine
 10
474.1961833115933
 20
297.2307058410202
 30
0.0
 11
476.0461783115934
 21
297.2307058410202
 31
0.0
  0
LINE
  5
12631
330
1F
100
AcDbEntity
  8
0
100
AcDbLine
 10
474.1961833115933
 20
295.7307058410202
 30
0.0
 11
468.4461833115933
 21
295.7307058410202
 31
0.0
  0
LINE
  5
12632
330
1F
100
AcDbEntity
  8
0
100
AcDbLine
 10
449.4461833115932
 20
295.7307058410202
 30
0.0
 11
443.6961833115931
 21
295.7307058410202
 31
0.0
  0
LINE
  5
12633
330
1F
100
AcDbEntity
  8
0
100
AcDbLine
 10
476.0461783115934
 20
294.7307058410202
 30
0.0
 11
474.0961833115933
 21
294.7307058410202
 31
0.0
  0
LINE
  5
12634
330
1F
100
AcDbEntity
  8
0
100
AcDbLine
 10
443.7961833115933
 20
294.7307058410202
 30
0.0
 11
441.8461833115934
 21
294.7307058410202
 31
0.0
  0
LINE
  5
12635
330
1F
100
AcDbEntity
  8
0
100
AcDbLine
 10
476.0461783115934
 20
293.7307058410202
 30
0.0
 11
474.0961833115933
 21
293.7307058410202
 31
0.0
  0
LINE
  5
12636
330
1F
100
AcDbEntity
  8
0
100
AcDbLine
 10
443.7961833115933
 20
293.7307058410202
 30
0.0
 11
441.8461833115934
 21
293.7307058410202
 31
0.0
  0
LINE
  5
12637
330
1F
100
AcDbEntity
  8
0
100
AcDbLine
 10
471.8461853115936
 20
307.6307058410203
 30
0.0
 11
474.0961853115936
 21
299.2307058410202
 31
0.0
  0
LINE
  5
12638
330
1F
100
AcDbEntity
  8
0
100
AcDbLine
 10
443.7961833115933
 20
291.7307058410202
 30
0.0
 11
448.1461833115933
 21
291.7307058410202
 31
0.0
  0
LINE
  5
12639
330
1F
100
AcDbEntity
  8
0
100
AcDbLine
 10
469.7461783115937
 20
291.7307058410202
 30
0.0
 11
474.0961833115933
 21
291.7307058410202
 31
0.0
  0
LINE
  5
1263A
330
1F
100
AcDbEntity
  8
0
100
AcDbLine
 10
444.7961833115932
 20
290.7307058410202
 30
0.0
 11
447.1461833115935
 21
290.7307058410202
 31
0.0
  0
LINE
  5
1263B
330
1F
100
AcDbEntity
  8
0
100
AcDbLine
 10
470.7461783115935
 20
290.7307058410202
 30
0.0
 11
473.0961833115934
 21
290.7307058410202
 31
0.0
  0
LINE
  5
1263C
330
1F
100
AcDbEntity
  8
0
100
AcDbLine
 10
451.6461833115934
 20
290.5307058410202
 30
0.0
 11
456.2461833115935
 21
290.5307058410202
 31
0.0
  0
LINE
  5
1263D
330
1F
100
AcDbEntity
  8
0
100
AcDbLine
 10
461.6461833115933
 20
290.5307058410202
 30
0.0
 11
466.2461833115933
 21
290.5307058410202
 31
0.0
  0
LINE
  5
1263E
330
1F
100
AcDbEntity
  8
0
100
AcDbLine
 10
476.0461783115934
 20
297.2307058410202
 30
0.0
 11
476.0461783115934
 21
293.7307058410202
 31
0.0
  0
LINE
  5
1263F
330
1F
100
AcDbEntity
  8
0
100
AcDbLine
 10
451.6461833115934
 20
288.4307058410202
 30
0.0
 11
456.2461833115935
 21
288.4307058410202
 31
0.0
  0
LINE
  5
12640
330
1F
100
AcDbEntity
  8
0
100
AcDbLine
 10
461.6461833115933
 20
288.4307058410202
 30
0.0
 11
466.2461833115933
 21
288.4307058410202
 31
0.0
  0
LINE
  5
12641
330
1F
100
AcDbEntity
  8
0
100
AcDbLine
 10
474.1961833115933
 20
297.2307058410202
 30
0.0
 11
474.1961833115933
 21
295.7307058410202
 31
0.0
  0
LINE
  5
12642
330
1F
100
AcDbEntity
  8
0
100
AcDbLine
 10
474.0961853115936
 20
299.2307058410202
 30
0.0
 11
474.0961833115933
 21
279.7307058410202
 31
0.0
  0
LINE
  5
12643
330
1F
100
AcDbEntity
  8
0
100
AcDbLine
 10
472.4434783115935
 20
279.7307058410202
 30
0.0
 11
472.4434783115935
 21
290.7307058410202
 31
0.0
  0
LINE
  5
12644
330
1F
100
AcDbEntity
  8
0
100
AcDbLine
 10
466.2461833115933
 20
287.4307058410202
 30
0.0
 11
461.6461833115933
 21
287.4307058410202
 31
0.0
  0
LINE
  5
12645
330
1F
100
AcDbEntity
  8
0
100
AcDbLine
 10
456.2461833115935
 20
287.4307058410202
 30
0.0
 11
451.6461833115934
 21
287.4307058410202
 31
0.0
  0
LINE
  5
12646
330
1F
100
AcDbEntity
  8
0
100
AcDbLine
 10
466.4461833115931
 20
287.3807058410203
 30
0.0
 11
461.4461833115933
 21
287.3807058410203
 31
0.0
  0
LINE
  5
12647
330
1F
100
AcDbEntity
  8
0
100
AcDbLine
 10
456.4461833115934
 20
287.3807058410203
 30
0.0
 11
451.4461833115933
 21
287.3807058410203
 31
0.0
  0
LINE
  5
12648
330
1F
100
AcDbEntity
  8
0
100
AcDbLine
 10
451.1461833115935
 20
285.4307058410203
 30
0.0
 11
466.7461833115934
 21
285.4307058410203
 31
0.0
  0
LINE
  5
12649
330
1F
100
AcDbEntity
  8
0
100
AcDbLine
 10
471.5725383115937
 20
279.7307058410202
 30
0.0
 11
471.5725383115937
 21
290.7307058410202
 31
0.0
  0
LINE
  5
1264A
330
1F
100
AcDbEntity
  8
0
100
AcDbLine
 10
470.7461783115935
 20
279.7307058410202
 30
0.0
 11
470.7461783115935
 21
290.7307058410202
 31
0.0
  0
LINE
  5
1264B
330
1F
100
AcDbEntity
  8
0
100
AcDbLine
 10
469.7461783115937
 20
279.7307058410202
 30
0.0
 11
469.7461783115937
 21
291.7307058410202
 31
0.0
  0
LINE
  5
1264C
330
1F
100
AcDbEntity
  8
0
100
AcDbLine
 10
470.9600567512934
 20
279.7307057398203
 30
0.0
 11
470.7121034402935
 21
265.5254700685203
 31
0.0
  0
LINE
  5
1264D
330
1F
100
AcDbEntity
  8
0
100
AcDbLine
 10
449.2961833115932
 20
284.5307058410202
 30
0.0
 11
450.9461833115933
 21
284.5307058410202
 31
0.0
  0
LINE
  5
1264E
330
1F
100
AcDbEntity
  8
0
100
AcDbLine
 10
466.9461783115933
 20
284.5307058410202
 30
0.0
 11
468.5961833115934
 21
284.5307058410202
 31
0.0
  0
LINE
  5
1264F
330
1F
100
AcDbEntity
  8
0
100
AcDbLine
 10
468.5961833115934
 20
295.7307058410202
 30
0.0
 11
468.5961833115934
 21
284.5307058410202
 31
0.0
  0
LINE
  5
12650
330
1F
100
AcDbEntity
  8
0
100
AcDbLine
 10
468.4461833115933
 20
287.1307058410203
 30
0.0
 11
468.4461833115933
 21
295.7307058410202
 31
0.0
  0
LINE
  5
12651
330
1F
100
AcDbEntity
  8
0
100
AcDbLine
 10
466.9461783115933
 20
284.5307058410202
 30
0.0
 11
466.9461783115933
 21
265.2307058410202
 31
0.0
  0
LINE
  5
12652
330
1F
100
AcDbEntity
  8
0
100
AcDbLine
 10
474.0961820615934
 20
279.7307058410202
 30
0.0
 11
443.7961833115933
 21
279.7307058410202
 31
0.0
  0
LINE
  5
12653
330
1F
100
AcDbEntity
  8
0
100
AcDbLine
 10
466.4461833115931
 20
307.6307058410203
 30
0.0
 11
466.4461833115931
 21
287.3807058410203
 31
0.0
  0
LINE
  5
12654
330
1F
100
AcDbEntity
  8
0
100
AcDbLine
 10
466.2461833115933
 20
290.5307058410202
 30
0.0
 11
466.2461833115933
 21
287.4307058410202
 31
0.0
  0
LINE
  5
12655
330
1F
100
AcDbEntity
  8
0
100
AcDbLine
 10
457.4461823115933
 20
277.4807058410202
 30
0.0
 11
460.4461833115933
 21
277.4807058410202
 31
0.0
  0
LINE
  5
12656
330
1F
100
AcDbEntity
  8
0
100
AcDbLine
 10
463.8961833115934
 20
299.0307058410202
 30
0.0
 11
463.8961833115934
 21
298.7307058410202
 31
0.0
  0
LINE
  5
12657
330
1F
100
AcDbEntity
  8
0
100
AcDbLine
 10
462.2246161266935
 20
265.2307058410202
 30
0.0
 11
462.2246161266935
 21
265.5254701191203
 31
0.0
  0
LINE
  5
12658
330
1F
100
AcDbEntity
  8
0
100
AcDbLine
 10
461.6461833115933
 20
287.4307058410202
 30
0.0
 11
461.6461833115933
 21
290.5307058410202
 31
0.0
  0
LINE
  5
12659
330
1F
100
AcDbEntity
  8
0
100
AcDbLine
 10
461.4461833115933
 20
307.6307058410203
 30
0.0
 11
461.4461833115933
 21
287.3807058410203
 31
0.0
  0
LINE
  5
1265A
330
1F
100
AcDbEntity
  8
0
100
AcDbLine
 10
460.4461833115933
 20
277.4807058410202
 30
0.0
 11
460.4461833115933
 21
265.2307058410202
 31
0.0
  0
LINE
  5
1265B
330
1F
100
AcDbEntity
  8
0
100
AcDbLine
 10
457.4461823115933
 20
277.4807058410202
 30
0.0
 11
457.4461823115933
 21
265.2307058410202
 31
0.0
  0
LINE
  5
1265C
330
1F
100
AcDbEntity
  8
0
100
AcDbLine
 10
456.4461833115934
 20
307.6307058410203
 30
0.0
 11
456.4461833115934
 21
287.3807058410203
 31
0.0
  0
LINE
  5
1265D
330
1F
100
AcDbEntity
  8
0
100
AcDbLine
 10
456.2461833115935
 20
290.5307058410202
 30
0.0
 11
456.2461833115935
 21
287.4307058410202
 31
0.0
  0
LINE
  5
1265E
330
1F
100
AcDbEntity
  8
0
100
AcDbLine
 10
455.6677504963936
 20
265.2307058410202
 30
0.0
 11
455.6677504963936
 21
265.5254701191203
 31
0.0
  0
LINE
  5
1265F
330
1F
100
AcDbEntity
  8
0
100
AcDbLine
 10
453.9961833115935
 20
298.7307058410202
 30
0.0
 11
453.9961833115935
 21
299.0307058410202
 31
0.0
  0
LINE
  5
12660
330
1F
100
AcDbEntity
  8
0
100
AcDbLine
 10
451.6461833115934
 20
287.4307058410202
 30
0.0
 11
451.6461833115934
 21
290.5307058410202
 31
0.0
  0
LINE
  5
12661
330
1F
100
AcDbEntity
  8
0
100
AcDbLine
 10
451.4461833115933
 20
307.6307058410203
 30
0.0
 11
451.4461833115933
 21
287.3807058410203
 31
0.0
  0
LINE
  5
12662
330
1F
100
AcDbEntity
  8
0
100
AcDbLine
 10
450.9461833115933
 20
284.5307058410202
 30
0.0
 11
450.9461833115933
 21
265.2307058410202
 31
0.0
  0
LINE
  5
12663
330
1F
100
AcDbEntity
  8
0
100
AcDbLine
 10
460.4461833115933
 20
265.5254701191203
 30
0.0
 11
461.9301186677935
 21
265.5254701191203
 31
0.0
  0
LINE
  5
12664
330
1F
100
AcDbEntity
  8
0
100
AcDbLine
 10
462.2246161266935
 20
265.5254701191203
 30
0.0
 11
470.7120976420933
 21
265.5254701697202
 31
0.0
  0
LINE
  5
12665
330
1F
100
AcDbEntity
  8
0
100
AcDbLine
 10
457.4461823115933
 20
265.5254701191203
 30
0.0
 11
455.9622479553936
 21
265.5254701191203
 31
0.0
  0
LINE
  5
12666
330
1F
100
AcDbEntity
  8
0
100
AcDbLine
 10
455.6677504963936
 20
265.5254701191203
 30
0.0
 11
447.1802639817934
 21
265.5254701261202
 31
0.0
  0
LINE
  5
12667
330
1F
100
AcDbEntity
  8
0
100
AcDbLine
 10
460.4461833115933
 20
265.2307058410202
 30
0.0
 11
470.4121462325931
 21
265.2307058410202
 31
0.0
  0
LINE
  5
12668
330
1F
100
AcDbEntity
  8
0
100
AcDbLine
 10
457.4461823115933
 20
265.2307058410202
 30
0.0
 11
447.4802178904933
 21
265.2307058410202
 31
0.0
  0
LINE
  5
12669
330
1F
100
AcDbEntity
  8
0
100
AcDbLine
 10
449.4461833115932
 20
287.1307058410203
 30
0.0
 11
449.4461833115932
 21
295.7307058410202
 31
0.0
  0
LINE
  5
1266A
330
1F
100
AcDbEntity
  8
0
100
AcDbLine
 10
449.2961833115932
 20
295.7307058410202
 30
0.0
 11
449.2961833115932
 21
284.5307058410202
 31
0.0
  0
LINE
  5
1266B
330
1F
100
AcDbEntity
  8
0
100
AcDbLine
 10
448.1461833115933
 20
291.7307058410202
 30
0.0
 11
448.1461833115933
 21
279.7307058410202
 31
0.0
  0
LINE
  5
1266C
330
1F
100
AcDbEntity
  8
0
100
AcDbLine
 10
446.9323098702933
 20
279.7307058271202
 30
0.0
 11
447.180263182093
 21
265.5254701121203
 31
0.0
  0
LINE
  5
1266D
330
1F
100
AcDbEntity
  8
0
100
AcDbLine
 10
447.1461833115935
 20
279.7307058410202
 30
0.0
 11
447.1461833115935
 21
290.7307058410202
 31
0.0
  0
LINE
  5
1266E
330
1F
100
AcDbEntity
  8
0
100
AcDbLine
 10
446.3198313115936
 20
279.7307058410202
 30
0.0
 11
446.3198313115936
 21
290.7307058410202
 31
0.0
  0
LINE
  5
1266F
330
1F
100
AcDbEntity
  8
0
100
AcDbLine
 10
445.4488863115932
 20
279.7307058410202
 30
0.0
 11
445.4488863115932
 21
290.7307058410202
 31
0.0
  0
LINE
  5
12670
330
1F
100
AcDbEntity
  8
0
100
AcDbLine
 10
443.7961813115935
 20
299.2307058410202
 30
0.0
 11
443.7961833115933
 21
279.7307058410202
 31
0.0
  0
LINE
  5
12671
330
1F
100
AcDbEntity
  8
0
100
AcDbLine
 10
443.6961833115931
 20
297.2307058410202
 30
0.0
 11
443.6961833115931
 21
295.7307058410202
 31
0.0
  0
LINE
  5
12672
330
1F
100
AcDbEntity
  8
0
100
AcDbLine
 10
441.8461833115934
 20
297.2307058410202
 30
0.0
 11
441.8461833115934
 21
293.7307058410202
 31
0.0
  0
LINE
  5
12673
330
1F
100
AcDbEntity
  8
0
100
AcDbLine
 10
446.0461813115935
 20
307.6307058410203
 30
0.0
 11
443.7961813115935
 21
299.2307058410202
 31
0.0
  0
ARC
  5
12674
330
1F
100
AcDbEntity
  8
0
100
AcDbCircle
 10
466.9461783115933
 20
339.8891694144093
 30
0.0
 40
4.013872641499999
100
AcDbArc
 50
0.0
 51
90.0
  0
ARC
  5
12675
330
1F
100
AcDbEntity
  8
0
100
AcDbCircle
 10
466.9461783115933
 20
339.8891694144093
 30
0.0
 40
3.765919329599998
100
AcDbArc
 50
0.0
 51
90.0
  0
ARC
  5
12676
330
1F
100
AcDbEntity
  8
0
100
AcDbCircle
 10
466.9461783115933
 20
339.8891694144093
 30
0.0
 40
3.4659650211
100
AcDbArc
 50
0.0
 51
90.0
  0
ARC
  5
12677
330
1F
100
AcDbEntity
  8
0
100
AcDbCircle
 10
458.946183311593
 20
343.9891694144092
 30
0.0
 40
3.339180078899997
100
AcDbArc
 50
296.6931424998911
 51
349.0543469601063
  0
ARC
  5
12678
330
1F
100
AcDbEntity
  8
0
100
AcDbCircle
 10
458.946183311593
 20
343.9891694144092
 30
0.0
 40
3.339180078899997
100
AcDbArc
 50
190.9456530398935
 51
243.3068382947061
  0
ARC
  5
12679
330
1F
100
AcDbEntity
  8
0
100
AcDbCircle
 10
458.946183311593
 20
343.9891694144092
 30
0.0
 40
3.039225770399997
100
AcDbArc
 50
299.5739669324016
 51
349.0543469601063
  0
ARC
  5
1267A
330
1F
100
AcDbEntity
  8
0
100
AcDbCircle
 10
458.946183311593
 20
343.9891694144092
 30
0.0
 40
3.039225770399997
100
AcDbArc
 50
190.9456530398935
 51
240.4260113915
  0
ARC
  5
1267B
330
1F
100
AcDbEntity
  8
0
100
AcDbCircle
 10
458.946183311593
 20
343.9891694144092
 30
0.0
 40
2.830546354599995
100
AcDbArc
 50
237.9990462337151
 51
302.0009298972
  0
ARC
  5
1267C
330
1F
100
AcDbEntity
  8
0
100
AcDbCircle
 10
458.946183311593
 20
343.9891694144092
 30
0.0
 40
2.791272458499999
100
AcDbArc
 50
187.1747687983987
 51
352.8252312018912
  0
ARC
  5
1267D
330
1F
100
AcDbEntity
  8
0
100
AcDbCircle
 10
472.0961783115932
 20
341.2609704144093
 30
0.0
 40
2.0
100
AcDbArc
 50
359.9996936417948
 51
80.00003297970629
  0
ARC
  5
1267E
330
1F
100
AcDbEntity
  8
0
100
AcDbCircle
 10
469.7461783115937
 20
345.4891694144091
 30
0.0
 40
1.0
100
AcDbArc
 50
0.0
 51
90.0000000001042
  0
ARC
  5
1267F
330
1F
100
AcDbEntity
  8
0
100
AcDbCircle
 10
471.7461783115934
 20
344.3689644144094
 30
0.0
 40
1.0
100
AcDbArc
 50
180.0
 51
259.9995202341047
  0
ARC
  5
12680
330
1F
100
AcDbEntity
  8
0
100
AcDbCircle
 10
462.2247024768935
 20
343.3550285855093
 30
0.0
 40
0.3000592521
100
AcDbArc
 50
90.01648842748146
 51
169.0378585326986
  0
ARC
  5
12681
330
1F
100
AcDbEntity
  8
0
100
AcDbCircle
 10
462.0132151969933
 20
343.6030751540093
 30
0.0
 40
0.2999686333
100
AcDbArc
 50
90.00191943378167
 51
172.8233117531039
  0
ARC
  5
12682
330
1F
100
AcDbEntity
  8
0
100
AcDbCircle
 10
463.3840029643931
 20
337.2901281456094
 30
0.0
 40
10.0026626602
100
AcDbArc
 50
138.6150172234126
 51
140.4815613574815
  0
ARC
  5
12683
330
1F
100
AcDbEntity
  8
0
100
AcDbCircle
 10
462.2413911660935
 20
337.7310967595093
 30
0.0
 40
8.467662003599999
100
AcDbArc
 50
135.7424498623152
 51
137.8630998070092
  0
ARC
  5
12684
330
1F
100
AcDbEntity
  8
0
100
AcDbCircle
 10
466.9461783115933
 20
338.4891694144092
 30
0.0
 40
4.013872641499999
100
AcDbArc
 50
270.0
 51
0.0
  0
ARC
  5
12685
330
1F
100
AcDbEntity
  8
0
100
AcDbCircle
 10
466.9461783115933
 20
338.4891694144092
 30
0.0
 40
3.765919329599998
100
AcDbArc
 50
270.0
 51
0.0
  0
CIRCLE
  5
12686
330
1F
100
AcDbEntity
  8
0
100
AcDbCircle
 10
465.6961783115931
 20
339.1891694144093
 30
0.0
 40
3.75
  0
ARC
  5
12687
330
1F
100
AcDbEntity
  8
0
100
AcDbCircle
 10
466.9461783115933
 20
338.4891694144092
 30
0.0
 40
3.4659650211
100
AcDbArc
 50
270.0
 51
0.0
  0
CIRCLE
  5
12688
330
1F
100
AcDbEntity
  8
0
100
AcDbCircle
 10
465.6961783115931
 20
339.1891694144093
 30
0.0
 40
2.1
  0
ARC
  5
12689
330
1F
100
AcDbEntity
  8
0
100
AcDbCircle
 10
472.0961783115932
 20
337.1173684144094
 30
0.0
 40
2.0
100
AcDbArc
 50
279.9999670202937
 51
0.0003063582051012
  0
ARC
  5
1268A
330
1F
100
AcDbEntity
  8
0
100
AcDbCircle
 10
471.7461783115934
 20
334.0093744144092
 30
0.0
 40
1.0
100
AcDbArc
 50
100.0004797658953
 51
180.0
  0
ARC
  5
1268B
330
1F
100
AcDbEntity
  8
0
100
AcDbCircle
 10
469.7461783115937
 20
332.8891694144093
 30
0.0
 40
1.0
100
AcDbArc
 50
270.0000000001042
 51
0.0
  0
ARC
  5
1268C
330
1F
100
AcDbEntity
  8
0
100
AcDbCircle
 10
450.9461833115933
 20
339.8891694144093
 30
0.0
 40
4.013872641499999
100
AcDbArc
 50
90.0
 51
180.0
  0
ARC
  5
1268D
330
1F
100
AcDbEntity
  8
0
100
AcDbCircle
 10
450.9461833115933
 20
339.8891694144093
 30
0.0
 40
3.765919329599998
100
AcDbArc
 50
90.0
 51
180.0
  0
ARC
  5
1268E
330
1F
100
AcDbEntity
  8
0
100
AcDbCircle
 10
450.9461833115933
 20
339.8891694144093
 30
0.0
 40
3.4659650211
100
AcDbArc
 50
90.0
 51
180.0
  0
ARC
  5
1268F
330
1F
100
AcDbEntity
  8
0
100
AcDbCircle
 10
445.796183311593
 20
341.2609704144093
 30
0.0
 40
2.0
100
AcDbArc
 50
100.0000947039143
 51
180.0
  0
ARC
  5
12690
330
1F
100
AcDbEntity
  8
0
100
AcDbCircle
 10
446.1461833115936
 20
344.3689644144094
 30
0.0
 40
1.0
100
AcDbArc
 50
279.9999134156828
 51
0.0
  0
ARC
  5
12691
330
1F
100
AcDbEntity
  8
0
100
AcDbCircle
 10
448.1461833115933
 20
345.4891694144091
 30
0.0
 40
1.0
100
AcDbArc
 50
89.99999999989578
 51
180.0
  0
ARC
  5
12692
330
1F
100
AcDbEntity
  8
0
100
AcDbCircle
 10
455.6676641463932
 20
343.3550285855093
 30
0.0
 40
0.3000592519
100
AcDbArc
 50
10.9621414746026
 51
89.98351157069469
  0
ARC
  5
12693
330
1F
100
AcDbEntity
  8
0
100
AcDbCircle
 10
455.8791514314934
 20
343.6030751601093
 30
0.0
 40
0.2999686246
100
AcDbArc
 50
7.176687218795979
 51
89.9980815923986
  0
ARC
  5
12694
330
1F
100
AcDbEntity
  8
0
100
AcDbCircle
 10
454.5083630080933
 20
337.2901275909094
 30
0.0
 40
10.002663515
100
AcDbArc
 50
39.51843872220023
 51
41.38498269681238
  0
ARC
  5
12695
330
1F
100
AcDbEntity
  8
0
100
AcDbCircle
 10
455.6509752950937
 20
337.7310966075093
 30
0.0
 40
8.467662225699999
100
AcDbArc
 50
42.13690022091149
 51
44.25755010990715
  0
ARC
  5
12696
330
1F
100
AcDbEntity
  8
0
100
AcDbCircle
 10
450.9461833115933
 20
338.4891694144092
 30
0.0
 40
4.013872641499999
100
AcDbArc
 50
180.0
 51
270.0
  0
ARC
  5
12697
330
1F
100
AcDbEntity
  8
0
100
AcDbCircle
 10
450.9461833115933
 20
338.4891694144092
 30
0.0
 40
3.765919329599998
100
AcDbArc
 50
180.0
 51
270.0
  0
CIRCLE
  5
12698
330
1F
100
AcDbEntity
  8
0
100
AcDbCircle
 10
452.1961833115931
 20
339.1891694144093
 30
0.0
 40
3.75
  0
ARC
  5
12699
330
1F
100
AcDbEntity
  8
0
100
AcDbCircle
 10
450.9461833115933
 20
338.4891694144092
 30
0.0
 40
3.4659650211
100
AcDbArc
 50
180.0
 51
270.0
  0
CIRCLE
  5
1269A
330
1F
100
AcDbEntity
  8
0
100
AcDbCircle
 10
452.1961833115931
 20
339.1891694144093
 30
0.0
 40
2.1
  0
ARC
  5
1269B
330
1F
100
AcDbEntity
  8
0
100
AcDbCircle
 10
445.796183311593
 20
337.1173684144094
 30
0.0
 40
2.0
100
AcDbArc
 50
180.0
 51
259.9999052960856
  0
ARC
  5
1269C
330
1F
100
AcDbEntity
  8
0
100
AcDbCircle
 10
448.1461833115933
 20
332.8891694144093
 30
0.0
 40
1.0
100
AcDbArc
 50
180.0
 51
269.9999999998958
  0
ARC
  5
1269D
330
1F
100
AcDbEntity
  8
0
100
AcDbCircle
 10
446.1461833115936
 20
334.0093744144092
 30
0.0
 40
1.0
100
AcDbArc
 50
0.0
 51
80.00008658431719
  0
ARC
  5
1269E
330
1F
100
AcDbEntity
  8
0
100
AcDbCircle
 10
451.1461833115935
 20
287.1307058410203
 30
0.0
 40
1.7
100
AcDbArc
 50
180.0
 51
270.0
  0
ARC
  5
1269F
330
1F
100
AcDbEntity
  8
0
100
AcDbCircle
 10
466.7461833115934
 20
287.1307058410203
 30
0.0
 40
1.7
100
AcDbArc
 50
270.0
 51
0.0
  0
ARC
  5
126A0
330
1F
100
AcDbEntity
  8
0
100
AcDbCircle
 10
473.0961833115934
 20
291.7307058410202
 30
0.0
 40
1.0
100
AcDbArc
 50
270.0
 51
0.0
  0
ARC
  5
126A1
330
1F
100
AcDbEntity
  8
0
100
AcDbCircle
 10
444.7961833115932
 20
291.7307058410202
 30
0.0
 40
1.0
100
AcDbArc
 50
180.0
 51
270.0
  0
ARC
  5
126A2
330
1F
100
AcDbEntity
  8
0
100
AcDbCircle
 10
470.4121433325934
 20
265.5307058410204
 30
0.0
 40
0.3
100
AcDbArc
 50
270.000553859181
 51
359.0000096659988
  0
ARC
  5
126A3
330
1F
100
AcDbEntity
  8
0
100
AcDbCircle
 10
447.4802174904935
 20
265.5307058410204
 30
0.0
 40
0.3
100
AcDbArc
 50
181.0000013333011
 51
270.0000763943986
  0
LINE
  5
126A4
330
1F
100
AcDbEntity
  8
0
100
AcDbLine
 10
473.0961833115934
 20
345.4891694144091
 30
0.0
 11
474.0961833115933
 21
346.4891694144092
 31
0.0
  0
LINE
  5
126A5
330
1F
100
AcDbEntity
  8
0
100
AcDbLine
 10
473.0961833115934
 20
332.8891694144093
 30
0.0
 11
474.0961833115933
 21
331.8891694144093
 31
0.0
  0
LINE
  5
126A6
330
1F
100
AcDbEntity
  8
0
100
AcDbLine
 10
444.7961833115932
 20
332.8891694144093
 30
0.0
 11
443.7961833115933
 21
331.8891694144093
 31
0.0
  0
LINE
  5
126A7
330
1F
100
AcDbEntity
  8
0
100
AcDbLine
 10
444.7961833115932
 20
345.4891694144091
 30
0.0
 11
443.7961833115933
 21
346.4891694144092
 31
0.0
  0
SPLINE
  5
126A8
330
1F
100
AcDbEntity
  8
0
100
AcDbSpline
210
0.0
220
0.0
230
1.0
 70
     8
 71
     3
 72
     8
 73
     4
 74
     0
 42
0.0000000001
 43
0.0000000001
 40
0.0
 40
0.0
 40
0.0
 40
0.0
 40
1.0
 40
1.0
 40
1.0
 40
1.0
 10
462.2246161266935
 20
265.5254701191203
 30
0.0
 10
462.1564174853934
 20
270.2605819566202
 30
0.0
 10
462.0861036411934
 20
274.9956640272204
 30
0.0
 10
462.0132051479933
 20
279.7307058410202
 30
0.0
  0
LINE
  5
126A9
330
1F
100
AcDbEntity
  8
0
100
AcDbLine
 10
470.7461783115935
 20
290.7307058410202
 30
0.0
 11
469.7461783115937
 21
291.7307058410202
 31
0.0
  0
SPLINE
  5
126AA
330
1F
100
AcDbEntity
  8
0
100
AcDbSpline
210
0.0
220
0.0
230
1.0
 70
     8
 71
     3
 72
     8
 73
     4
 74
     0
 42
0.0000000001
 43
0.0000000001
 40
0.0
 40
0.0
 40
0.0
 40
0.0
 40
1.0
 40
1.0
 40
1.0
 40
1.0
 10
455.9622479553936
 20
265.5254701191203
 30
0.0
 10
456.0316098121933
 20
270.2605805926203
 30
0.0
 10
456.1029850621935
 20
274.9956621794202
 30
0.0
 10
456.1767670807935
 20
279.7307058410202
 30
0.0
  0
SPLINE
  5
126AB
330
1F
100
AcDbEntity
  8
0
100
AcDbSpline
210
0.0
220
0.0
230
1.0
 70
     8
 71
     3
 72
     8
 73
     4
 74
     0
 42
0.0000000001
 43
0.0000000001
 40
0.0
 40
0.0
 40
0.0
 40
0.0
 40
1.0
 40
1.0
 40
1.0
 40
1.0
 10
461.9301186677935
 20
265.5254701191203
 30
0.0
 10
461.8607568102933
 20
270.2605805926203
 30
0.0
 10
461.7893815618936
 20
274.9956621794202
 30
0.0
 10
461.7155995423933
 20
279.7307058410202
 30
0.0
  0
LINE
  5
126AC
330
1F
100
AcDbEntity
  8
0
100
AcDbLine
 10
448.1461833115933
 20
291.7307058410202
 30
0.0
 11
447.1461833115935
 21
290.7307058410202
 31
0.0
  0
SPLINE
  5
126AD
330
1F
100
AcDbEntity
  8
0
100
AcDbSpline
210
0.0
220
0.0
230
1.0
 70
     8
 71
     3
 72
    11
 73
     7
 74
     0
 42
0.0000000001
 43
0.0000000001
 40
0.0
 40
0.0
 40
0.0
 40
0.0
 40
0.2521527483
 40
0.5029907238
 40
0.7520907377000004
 40
1.0
 40
1.0
 40
1.0
 40
1.0
 10
461.9301186677935
 20
265.5254701191203
 30
0.0
 10
461.9307794741935
 20
265.4869110694204
 30
0.0
 10
461.9469909110935
 20
265.4094393902204
 30
0.0
 10
462.0126663251935
 20
265.3116296573204
 30
0.0
 10
462.1098476104934
 20
265.2460573306203
 30
0.0
 10
462.1867004216932
 20
265.2307058410202
 30
0.0
 10
462.2246161266935
 20
265.2307058410202
 30
0.0
  0
SPLINE
  5
126AE
330
1F
100
AcDbEntity
  8
0
100
AcDbSpline
210
0.0
220
0.0
230
1.0
 70
     8
 71
     3
 72
    14
 73
    10
 74
     0
 42
0.0000000001
 43
0.0000000001
 40
0.0
 40
0.0
 40
0.0
 40
0.0
 40
0.047998041
 40
0.1244280872
 40
0.2267713865
 40
0.3518882124
 40
0.4962340515000001
 40
0.6556603233000004
 40
1.0
 40
1.0
 40
1.0
 40
1.0
 10
461.9301186677935
 20
265.5254701191203
 30
0.0
 10
461.9348002202936
 20
265.5260082165203
 30
0.0
 10
461.9470758669936
 20
265.5251861534203
 30
0.0
 10
461.969261935493
 20
265.5240642989202
 30
0.0
 10
461.9991234930933
 20
265.5237302248202
 30
0.0
 10
462.0356172649935
 20
265.5239159656204
 30
0.0
 10
462.0777277809933
 20
265.5242203490203
 30
0.0
 10
462.1413514150936
 20
265.5244383602203
 30
0.0
 10
462.1908400912935
 20
265.5240293237203
 30
0.0
 10
462.2246161266935
 20
265.5254701191203
 30
0.0
  0
SPLINE
  5
126AF
330
1F
100
AcDbEntity
  8
0
100
AcDbSpline
210
0.0
220
0.0
230
1.0
 70
     8
 71
     3
 72
    11
 73
     7
 74
     0
 42
0.0000000001
 43
0.0000000001
 40
0.0
 40
0.0
 40
0.0
 40
0.0
 40
0.2479092628
 40
0.497009276
 40
0.7478472517000001
 40
1.0
 40
1.0
 40
1.0
 40
1.0
 10
455.6677504955937
 20
265.2307058410202
 30
0.0
 10
455.7056662006933
 20
265.2307058410202
 30
0.0
 10
455.7825190121929
 20
265.2460573302203
 30
0.0
 10
455.8797002975934
 20
265.3116296571202
 30
0.0
 10
455.9453757119936
 20
265.4094393899202
 30
0.0
 10
455.9615871489937
 20
265.4869110693204
 30
0.0
 10
455.9622479553936
 20
265.5254701191203
 30
0.0
  0
SPLINE
  5
126B0
330
1F
100
AcDbEntity
  8
0
100
AcDbSpline
210
0.0
220
0.0
230
1.0
 70
     8
 71
     3
 72
    14
 73
    10
 74
     0
 42
0.0000000001
 43
0.0000000001
 40
0.0
 40
0.0
 40
0.0
 40
0.0
 40
0.3443396766
 40
0.5037659484
 40
0.6481117876
 40
0.7732286134000002
 40
0.8755719128
 40
0.952001959
 40
1.0
 40
1.0
 40
1.0
 40
1.0
 10
455.667750496593
 20
265.5254701083202
 30
0.0
 10
455.7015265319937
 20
265.5240293140203
 30
0.0
 10
455.7510152081936
 20
265.5244383519203
 30
0.0
 10
455.814638842293
 20
265.5242203439203
 30
0.0
 10
455.8567493581936
 20
265.5239159626204
 30
0.0
 10
455.8932431300934
 20
265.5237302234203
 30
0.0
 10
455.9231046876933
 20
265.5240642984202
 30
0.0
 10
455.9452907560935
 20
265.5251861535203
 30
0.0
 10
455.9575664028931
 20
265.5260082166204
 30
0.0
 10
455.9622479553936
 20
265.5254701191203
 30
0.0
  0
SPLINE
  5
126B1
330
1F
100
AcDbEntity
  8
0
100
AcDbSpline
210
0.0
220
0.0
230
1.0
 70
     8
 71
     3
 72
     8
 73
     4
 74
     0
 42
0.0000000001
 43
0.0000000001
 40
0.0
 40
0.0
 40
0.0
 40
0.0
 40
1.0
 40
1.0
 40
1.0
 40
1.0
 10
455.6677504963936
 20
265.5254701191203
 30
0.0
 10
455.7359491362936
 20
270.2605819566202
 30
0.0
 10
455.8062629845935
 20
274.9956640272204
 30
0.0
 10
455.8791614750933
 20
279.7307058410202
 30
0.0
  0
MTEXT
  5
126B2
330
1F
100
AcDbEntity
  8
打标文字
100
AcDbMText
 10
462.8076567547275
 20
336.1637401810977
 30
0.0
 40
2.0
 41
2.371951884948201
 71
     1
 72
     5
  1
1
  7
打标文字
 11
-0.0000000000000004
 21
-1.0
 31
0.0
 73
     1
 44
1.0
1001
ACAD
1000
MTEXTBEGIN
1070
    73
1070
     1
1070
    44
1040
1.0
1070
    74
1070
     0
1000
MTEXTEND
  0
MTEXT
  5
126B3
330
1F
100
AcDbEntity
  8
打标文字
100
AcDbMText
 10
457.2116452834784
 20
336.4809908677071
 30
0.0
 40
2.0
 41
2.371951884948201
 71
     1
 72
     5
  1
2
  7
打标文字
 11
-0.0000000000000004
 21
-1.0
 31
0.0
 73
     1
 44
1.0
1001
ACAD
1000
MTEXTBEGIN
1070
    73
1070
     1
1070
    44
1040
1.0
1070
    74
1070
     0
1000
MTEXTEND
  0
DIMENSION
  5
126B4
330
1F
100
AcDbEntity
  8
DIM
100
AcDbDimension
  2
*D2
 10
476.0461783115934
 20
314.0657918985815
 30
0.0
 11
458.9461808115934
 21
316.6157918985815
 31
0.0
 70
    32
 71
     5
 42
34.19999499999994
  3
01
100
AcDbAlignedDimension
 13
441.8461833115934
 23
297.2307058410202
 33
0.0
 14
476.0461783115934
 24
297.2307058410202
 34
0.0
100
AcDbRotatedDimension
  0
DIMENSION
  5
126B5
330
1F
100
AcDbEntity
  8
DIM
100
AcDbDimension
  2
*D3
 10
483.482194335164
 20
331.8891694144093
 30
0.0
 11
480.9321943351639
 21
339.1891694144093
 31
0.0
 70
    32
 71
     5
 42
14.59999999999991
  3
01
100
AcDbAlignedDimension
 13
474.0961783115649
 23
346.4891694144092
 33
0.0
 14
474.0961833115933
 24
331.8891694144093
 34
0.0
 50
90.0
100
AcDbRotatedDimension
  0
DIMENSION
  5
126B6
330
1F
100
AcDbEntity
  8
DIM
100
AcDbDimension
  2
*D4
 10
519.0346918794753
 20
265.2307058410203
 30
0.0
 11
516.4846918794751
 21
286.4307058410205
 31
0.0
 70
    32
 71
     5
 42
42.40000000000018
  3
01
100
AcDbAlignedDimension
 13
506.4797805584311
 23
307.6307058410205
 33
0.0
 14
506.4797805584311
 24
265.2307058410203
 34
0.0
 50
90.0
100
AcDbRotatedDimension
  0
ENDSEC
  0
SECTION
  2
OBJECTS
  0
DICTIONARY
  5
C
330
0
100
AcDbDictionary
281
     1
  3
ACAD_COLOR
350
4FFE
  3
ACAD_GROUP
350
D
  3
ACAD_LAYOUT
350
1A
  3
ACAD_MATERIAL
350
4FE5
  3
ACAD_MLEADERSTYLE
350
5022
  3
ACAD_MLINESTYLE
350
17
  3
ACAD_PLOTSETTINGS
350
19
  3
ACAD_PLOTSTYLENAME
350
E
  3
ACAD_RENDER_PLOT_SETTINGS
350
6537
  3
ACAD_SCALELIST
350
5000
  3
ACAD_TABLESTYLE
350
4FE3
  3
ACAD_VISUALSTYLE
350
2A
  3
ACDB_RECOMPOSE_DATA
350
50EC
  3
AcDbVariableDictionary
350
5108
  3
ASE_INDEX_DICTIONARY
350
11ACE
  3
DWGPROPS
350
12A78
  0
DICTIONARY
  5
50EE
330
8
100
AcDbDictionary
280
     1
281
     1
  0
DICTIONARY
  5
50B8
330
2
100
AcDbDictionary
280
     1
281
     1
  3
ACAD_LAYERFILTERS
360
11B10
  3
ACAD_LAYERSTATES
360
50B9
  3
ACLYDICTIONARY
360
11B0F
  0
DICTIONARY
  5
50D0
330
10
100
AcDbDictionary
280
     1
281
     1
  3
ADSK_XREC_LAYER_RECONCILED
360
50D1
  0
DICTIONARY
  5
50D2
330
3B
100
AcDbDictionary
280
     1
281
     1
  3
ADSK_XREC_LAYER_RECONCILED
360
50D3
  0
DICTIONARY
  5
50AF
330
50AE
100
AcDbDictionary
280
     1
281
     1
  3
ADSK_XREC_LAYER_RECONCILED
360
50D4
  0
DICTIONARY
  5
67C0
330
1F
100
AcDbDictionary
280
     1
281
     1
  3
ACAD_SORTENTS
360
67C1
  0
DICTIONARY
  5
12A4F
330
10FE8
100
AcDbDictionary
280
     1
281
     1
  0
DICTIONARY
  5
12A60
330
129BB
100
AcDbDictionary
280
     1
281
     1
  3
ACAD_MTEXT_2008_RT
360
12A61
  3
ACAD_MTEXT_RT
360
12A9A
  0
DICTIONARY
  5
12A62
330
129FF
100
AcDbDictionary
280
     1
281
     1
  3
ACAD_MTEXT_2008_RT
360
12A63
  3
ACAD_MTEXT_RT
360
12A9B
  0
DICTIONARY
  5
12A64
330
12A00
100
AcDbDictionary
280
     1
281
     1
  3
ACAD_MTEXT_2008_RT
360
12A65
  3
ACAD_MTEXT_RT
360
12A9C
  0
DICTIONARY
  5
12A66
330
12A25
100
AcDbDictionary
280
     1
281
     1
  3
ACAD_MTEXT_2008_RT
360
12A67
  3
ACAD_MTEXT_RT
360
12A9D
  0
DICTIONARY
  5
12A68
330
12A28
100
AcDbDictionary
280
     1
281
     1
  3
ACAD_MTEXT_2008_RT
360
12A69
  3
ACAD_MTEXT_RT
360
12A9E
  0
DICTIONARY
  5
12A6A
330
12A29
100
AcDbDictionary
280
     1
281
     1
  3
ACAD_MTEXT_2008_RT
360
12A6B
  3
ACAD_MTEXT_RT
360
12A9F
  0
DICTIONARY
  5
12A6C
330
12A33
100
AcDbDictionary
280
     1
281
     1
  3
ACAD_MTEXT_2008_RT
360
12A6D
  3
ACAD_MTEXT_RT
360
12AA0
  0
DICTIONARY
  5
12A6E
330
12A34
100
AcDbDictionary
280
     1
281
     1
  3
ACAD_MTEXT_2008_RT
360
12A6F
  3
ACAD_MTEXT_RT
360
12AA1
  0
DICTIONARY
  5
12A70
330
12A35
100
AcDbDictionary
280
     1
281
     1
  3
ACAD_MTEXT_2008_RT
360
12A71
  3
ACAD_MTEXT_RT
360
12AA2
  0
DICTIONARY
  5
12A72
330
12A43
100
AcDbDictionary
280
     1
281
     1
  3
ACAD_MTEXT_2008_RT
360
12A73
  3
ACAD_MTEXT_RT
360
12AA3
  0
DICTIONARY
  5
12A74
330
12A44
100
AcDbDictionary
280
     1
281
     1
  3
ACAD_MTEXT_2008_RT
360
12A75
  3
ACAD_MTEXT_RT
360
12AA4
  0
DICTIONARY
  5
12A76
330
12A45
100
AcDbDictionary
280
     1
281
     1
  3
ACAD_MTEXT_2008_RT
360
12A77
  3
ACAD_MTEXT_RT
360
12AA5
  0
DICTIONARY
  5
12A5C
330
6E00
100
AcDbDictionary
280
     1
281
     1
  3
ACAD_MTEXT_2008_RT
360
12A5D
  3
ACAD_MTEXT_RT
360
12A80
  0
DICTIONARY
  5
12A5E
330
7228
100
AcDbDictionary
280
     1
281
     1
  3
ACAD_MTEXT_2008_RT
360
12A5F
  3
ACAD_MTEXT_RT
360
12A81
  0
DICTIONARY
  5
4FFE
102
{ACAD_REACTORS
330
C
102
}
330
C
100
AcDbDictionary
281
     1
  0
DICTIONARY
  5
D
102
{ACAD_REACTORS
330
C
102
}
330
C
100
AcDbDictionary
281
     1
  0
DICTIONARY
  5
1A
102
{ACAD_REACTORS
330
C
102
}
330
C
100
AcDbDictionary
281
     1
  3
Layout1
350
1E
  3
Layout2
350
26
  3
Model
350
22
  0
DICTIONARY
  5
4FE5
102
{ACAD_REACTORS
330
C
102
}
330
C
100
AcDbDictionary
281
     1
  3
ByBlock
350
4FEE
  3
ByLayer
350
4FE6
  3
Global
350
4FF6
  0
DICTIONARY
  5
5022
102
{ACAD_REACTORS
330
C
102
}
330
C
100
AcDbDictionary
281
     1
  3
Standard
350
5023
  0
DICTIONARY
  5
17
102
{ACAD_REACTORS
330
C
102
}
330
C
100
AcDbDictionary
281
     1
  3
Standard
350
18
  0
DICTIONARY
  5
19
102
{ACAD_REACTORS
330
C
102
}
330
C
100
AcDbDictionary
281
     1
  0
ACDBDICTIONARYWDFLT
  5
E
102
{ACAD_REACTORS
330
C
102
}
330
C
100
AcDbDictionary
281
     1
  3
Normal
350
F
100
AcDbDictionaryWithDefault
340
F
  0
DICTIONARY
  5
6537
102
{ACAD_REACTORS
330
C
102
}
330
C
100
AcDbDictionary
281
     1
  3
{1DC63513-1B1A-422F-9880-65CFD2B8D533}
350
6538
  0
DICTIONARY
  5
5000
102
{ACAD_REACTORS
330
C
102
}
330
C
100
AcDbDictionary
281
     1
  3
A0
350
5001
  3
A1
350
5002
  3
A2
350
5003
  3
A3
350
5004
  3
A4
350
5005
  3
A5
350
5006
  3
A6
350
5007
  3
A7
350
5008
  3
A8
350
5009
  3
A9
350
500A
  3
B0
350
500B
  3
B1
350
500C
  3
B2
350
500D
  3
B3
350
500E
  3
B4
350
500F
  3
B5
350
5010
  3
B6
350
5011
  3
B7
350
5012
  3
B8
350
5013
  3
B9
350
5014
  3
C0
350
5015
  3
C1
350
5016
  3
C2
350
5017
  3
C3
350
5018
  3
C4
350
5019
  3
C5
350
501A
  3
C6
350
501B
  3
C7
350
501C
  3
C8
350
501D
  3
C9
350
501E
  3
D0
350
501F
  3
D1
350
5020
  3
D2
350
5021
  0
DICTIONARY
  5
4FE3
102
{ACAD_REACTORS
330
C
102
}
330
C
100
AcDbDictionary
281
     1
  3
Standard
350
4FFF
  0
DICTIONARY
  5
2A
102
{ACAD_REACTORS
330
C
102
}
330
C
100
AcDbDictionary
281
     1
  3
2dWireframe
350
2F
  3
3D Hidden
350
31
  3
3dWireframe
350
30
  3
Basic
350
32
  3
Brighten
350
36
  3
ColorChange
350
3A
  3
Conceptual
350
34
  3
Dim
350
35
  3
Facepattern
350
39
  3
Flat
350
2B
  3
FlatWithEdges
350
2C
  3
Gouraud
350
2D
  3
GouraudWithEdges
350
2E
  3
Linepattern
350
38
  3
Realistic
350
33
  3
Thicken
350
37
  0
XRECORD
  5
50EC
102
{ACAD_REACTORS
330
C
102
}
330
C
100
AcDbXrecord
280
     1
 90
        1
330
4FFF
330
6E00
330
7228
330
129BB
330
129FF
330
12A00
330
12A25
330
12A28
330
12A29
330
12A33
330
12A34
330
12A35
330
12A43
330
12A44
330
12A45
  0
DICTIONARY
  5
5108
102
{ACAD_REACTORS
330
C
102
}
330
C
100
AcDbDictionary
281
     1
  3
CANNOSCALE
350
510B
  3
CMLEADERSTYLE
350
510A
  3
CTABLESTYLE
350
5109
  3
DIMASSOC
350
510E
  3
INDEXCTL
350
510D
  3
SORTENTS
350
510C
  0
DICTIONARY
  5
11ACE
102
{ACAD_REACTORS
330
C
102
}
330
C
100
AcDbDictionary
281
     1
  3
ASEBlockHierarchyIndexRecord
350
11ACF
1001
DCO15
1040
1901610418.781
  0
XRECORD
  5
12A78
102
{ACAD_REACTORS
330
C
102
}
330
C
100
AcDbXrecord
280
     1
  1
DWGPROPS COOKIE
  2

  3

  4

  6

  7

  8
yl.gao
  9

300
=
301
=
302
=
303
=
304
=
305
=
306
=
307
=
308
=
309
=
 40
0.9620943518518519
 41
2456524.383632987
 42
2460316.723898704
  1

 90
        0
  0
DICTIONARY
  5
11B10
102
{ACAD_REACTORS
330
50B8
102
}
330
50B8
100
AcDbDictionary
281
     1
  0
DICTIONARY
  5
50B9
102
{ACAD_REACTORS
330
50B8
102
}
330
50B8
100
AcDbDictionary
281
     1
  0
DICTIONARY
  5
11B0F
102
{ACAD_REACTORS
330
50B8
102
}
330
50B8
100
AcDbDictionary
281
     1
1001
ACAD
1000
<All
  0
XRECORD
  5
50D1
102
{ACAD_REACTORS
330
50D0
102
}
330
50D0
100
AcDbXrecord
280
     1
290
     1
  0
XRECORD
  5
50D3
102
{ACAD_REACTORS
330
50D2
102
}
330
50D2
100
AcDbXrecord
280
     1
290
     1
  0
XRECORD
  5
50D4
102
{ACAD_REACTORS
330
50AF
102
}
330
50AF
100
AcDbXrecord
280
     1
290
     1
  0
SORTENTSTABLE
  5
67C1
102
{ACAD_REACTORS
330
67C0
102
}
330
67C0
100
AcDbSortentsTable
330
1F
331
7228
  5
99F4
331
3895
  5
3943
331
35C8
  5
35D8
331
65A0
  5
65A1
331
2FDE
  5
35C8
331
3807
  5
3895
331
28AE
  5
2A38
331
2F93
  5
2FDE
331
3943
  5
4842
331
6E00
  5
99F3
331
65A3
  5
65A4
331
2C65
  5
2EE7
331
4842
  5
4E94
331
65A1
  5
65A2
331
2EE7
  5
2F93
331
65B2
  5
65B3
331
35D8
  5
3807
331
65A4
  5
65A5
  0
XRECORD
  5
12A61
102
{ACAD_REACTORS
330
12A60
102
}
330
12A60
100
AcDbXrecord
280
     1
 40
1527.0
  1
\pxqc;BQ LUO
  0
XRECORD
  5
12A9A
102
{ACAD_REACTORS
330
12A60
102
}
330
12A60
100
AcDbXrecord
280
     1
 40
1527.0
  1
\pxqc;BQ LUO
  0
XRECORD
  5
12A63
102
{ACAD_REACTORS
330
12A62
102
}
330
12A62
100
AcDbXrecord
280
     1
 40
1262561.0
  1
\pxqc;档案员{\H0.7x;\P\Fromans|c134;Filing Clerk\fFangSong_GB2312|b0|i0|c134|p49; }
  0
XRECORD
  5
12A9B
102
{ACAD_REACTORS
330
12A62
102
}
330
12A62
100
AcDbXrecord
280
     1
 40
448513.0
  1
\pxqc;档案员{\H0.7x;\P\Fromans|c134;Filing Clerk\fFangSong_GB2312|b0|i0|c134|p49; }
  0
XRECORD
  5
12A65
102
{ACAD_REACTORS
330
12A64
102
}
330
12A64
100
AcDbXrecord
280
     1
 40
650528.0
  1
\pxqc;日期{\Fromans|c134;/Date}
  0
XRECORD
  5
12A9C
102
{ACAD_REACTORS
330
12A64
102
}
330
12A64
100
AcDbXrecord
280
     1
 40
58584.0
  1
\pxqc;日期{\Fromans|c134;/Date}
  0
XRECORD
  5
12A67
102
{ACAD_REACTORS
330
12A66
102
}
330
12A66
100
AcDbXrecord
280
     1
 40
2318748.0
  1
\pxsm0.7;{\f仿宋_GB2312|b0|i0|c134|p49;标准化}\PStand.
  0
XRECORD
  5
12A9D
102
{ACAD_REACTORS
330
12A66
102
}
330
12A66
100
AcDbXrecord
280
     1
 40
55334.0
  1
\pxsm0.7;{\f仿宋_GB2312|b0|i0|c134|p49;标准化}\PStand.
  0
XRECORD
  5
12A69
102
{ACAD_REACTORS
330
12A68
102
}
330
12A68
100
AcDbXrecord
280
     1
 40
118135.0
  1
\pxsm0.7;签名\P{\Fromans|c134;Signature} 
  0
XRECORD
  5
12A9E
102
{ACAD_REACTORS
330
12A68
102
}
330
12A68
100
AcDbXrecord
280
     1
 40
48353.0
  1
\pxsm0.7;签名\P{\Fromans|c134;Signature} 
  0
XRECORD
  5
12A6B
102
{ACAD_REACTORS
330
12A6A
102
}
330
12A6A
100
AcDbXrecord
280
     1
 40
108939.0
  1
\pxsm0.7,qc;处数\P{\Fromans|c134;Number }
  0
XRECORD
  5
12A9F
102
{ACAD_REACTORS
330
12A6A
102
}
330
12A6A
100
AcDbXrecord
280
     1
 40
38427.0
  1
\pxsm0.7,qc;处数\P{\Fromans|c134;Number }
  0
XRECORD
  5
12A6D
102
{ACAD_REACTORS
330
12A6C
102
}
330
12A6C
100
AcDbXrecord
280
     1
 40
125762.0
  1
\pxsm0.7;标记\P{\Fromans|c134;Mark}
  0
XRECORD
  5
12AA0
102
{ACAD_REACTORS
330
12A6C
102
}
330
12A6C
100
AcDbXrecord
280
     1
 40
31190.0
  1
\pxsm0.7;标记\P{\Fromans|c134;Mark}
  0
XRECORD
  5
12A6F
102
{ACAD_REACTORS
330
12A6E
102
}
330
12A6E
100
AcDbXrecord
280
     1
 40
111973.0
  1
\pxsm0.7;审核\P{\Fromans|c134;Checked}
  0
XRECORD
  5
12AA1
102
{ACAD_REACTORS
330
12A6E
102
}
330
12A6E
100
AcDbXrecord
280
     1
 40
39355.0
  1
\pxsm0.7;审核\P{\Fromans|c134;Checked}
  0
XRECORD
  5
12A71
102
{ACAD_REACTORS
330
12A70
102
}
330
12A70
100
AcDbXrecord
280
     1
 40
137968.0
  1
\pxsm0.7;绘图\P{\Fromans|c134;Drawn\Ftxt|c134; }
  0
XRECORD
  5
12AA2
102
{ACAD_REACTORS
330
12A70
102
}
330
12A70
100
AcDbXrecord
280
     1
 40
66730.0
  1
\pxsm0.7;绘图\P{\Fromans|c134;Drawn\Ftxt|c134; }
  0
XRECORD
  5
12A73
102
{ACAD_REACTORS
330
12A72
102
}
330
12A72
100
AcDbXrecord
280
     1
 40
106320.0
  1
\pxsm0.7;批准\P{\Fromans|c134;Approved}
  0
XRECORD
  5
12AA3
102
{ACAD_REACTORS
330
12A72
102
}
330
12A72
100
AcDbXrecord
280
     1
 40
43787.0
  1
\pxsm0.7;批准\P{\Fromans|c134;Approved}
  0
XRECORD
  5
12A75
102
{ACAD_REACTORS
330
12A74
102
}
330
12A74
100
AcDbXrecord
280
     1
 40
127283.0
  1
\pxsm0.7;工艺\P{\Fromans|c134;Process}
  0
XRECORD
  5
12AA4
102
{ACAD_REACTORS
330
12A74
102
}
330
12A74
100
AcDbXrecord
280
     1
 40
40691.0
  1
\pxsm0.7;工艺\P{\Fromans|c134;Process}
  0
XRECORD
  5
12A77
102
{ACAD_REACTORS
330
12A76
102
}
330
12A76
100
AcDbXrecord
280
     1
 40
106220.0
  1
\pxsm0.7;日期\P{\Fromans|c134;Date}
  0
XRECORD
  5
12AA5
102
{ACAD_REACTORS
330
12A76
102
}
330
12A76
100
AcDbXrecord
280
     1
 40
30977.0
  1
\pxsm0.7;日期\P{\Fromans|c134;Date}
  0
XRECORD
  5
12A5D
102
{ACAD_REACTORS
330
12A5C
102
}
330
12A5C
100
AcDbXrecord
280
     1
 40
3016615307.0
  1
\A1;\pxql;{\f仿宋_GB2312|b0|i0|c134|p49;技术参数}:\P{\f仿宋_GB2312|b0|i0|c134|p49;插芯：}\P- {\f仿宋_GB2312|b0|i0|c134|p49;插针数}: 2\P- {\f仿宋_GB2312|b0|i0|c134|p49;额定电流}: 40A\P- {\f仿宋_GB2312|b0|i0|c134|p49;额定电压}: 1000V\P- {\f仿宋_GB2312|b0|i0|c134|p49;额定脉冲电压}: 8kV\P-
  1
 {\f仿宋_GB2312|b0|i0|c134|p49;污染等级}: 3\P- {\f仿宋_GB2312|b0|i0|c134|p49;绝缘阻抗}: {\f仿宋_GB2312|b0|i0|c134|p49;≥}10{\H0.7x;\S10^ ;}Ω\P- {\f仿宋_GB2312|b0|i0|c134|p49;材料}: {\f仿宋_GB2312|b0|i0|c134|p49;聚碳酸酯}\P- {\f仿宋_GB2312|b0|i0|c134|p49;颜色}: RAL 7032{\f仿宋_GB231
  1
2|b0|i0|c134|p49;（浅灰色）}\P- {\f仿宋_GB2312|b0|i0|c134|p49;温度范围}: -40{\f仿宋_GB2312|b0|i0|c134|p49;℃} - +125{\f仿宋_GB2312|b0|i0|c134|p49;℃}\P- {\f仿宋_GB2312|b0|i0|c134|p49;依据}UL 94{\f仿宋_GB2312|b0|i0|c134|p49;的阻燃等级}: V0\P\pq*;- {\f仿宋_GB2312|b0|i0|c134|p49;可插拔
  1
次数}: {\f仿宋_GB2312|b0|i0|c134|p49;≥}500\P\pql;{\f仿宋_GB2312|b0|i0|c134|p49;插针：}\P- {\f仿宋_GB2312|b0|i0|c134|p49;接线方式}: {\f仿宋_GB2312|b0|i0|c134|p49;冷压连接}\P- {\f仿宋_GB2312|b0|i0|c134|p49;材料}: {\f仿宋_GB2312|b0|i0|c134|p49;铜合金}\P- {\f仿宋_GB2312|b0|i0|c134|p49;
  1
表面处理}: {\f仿宋_GB2312|b0|i0|c134|p49;镀银}\P- {\f仿宋_GB2312|b0|i0|c134|p49;接触电阻}: ≤1mΩ\P- {\f仿宋_GB2312|b0|i0|c134|p49;线径范围}: 1.5-10mm{\H0.7x;\S2^ ;}(16-8 AWG)\P- {\f仿宋_GB2312|b0|i0|c134|p49;工具：}\P\pq*;   {\f仿宋_GB2312|b0|i0|c134|p49;·} {\f仿宋_GB2312|b0|i0|c1
  1
34|p49;冷压钳}: \P\pql;    TL02-0G(1.5-6mm{\H0.7x;\S2^ ;})\P    TL02-3G(4/6/10mm{\H0.7x;\S2^ ;})\P   {\f仿宋_GB2312|b0|i0|c134|p49;·} {\f仿宋_GB2312|b0|i0|c134|p49;退针器}: TL06G
  0
XRECORD
  5
12A80
102
{ACAD_REACTORS
330
12A5C
102
}
330
12A5C
100
AcDbXrecord
280
     1
 40
60300693.0
  1
\A1;\pxql;{\f仿宋_GB2312|b0|i0|c134|p49;技术参数}:\P{\f仿宋_GB2312|b0|i0|c134|p49;插芯：}\P- {\f仿宋_GB2312|b0|i0|c134|p49;插针数}: 2\P- {\f仿宋_GB2312|b0|i0|c134|p49;额定电流}: 40A\P- {\f仿宋_GB2312|b0|i0|c134|p49;额定电压}: 1000V\P- {\f仿宋_GB2312|b0|i0|c134|p49;额定脉冲电压}: 8kV\P-
  1
 {\f仿宋_GB2312|b0|i0|c134|p49;污染等级}: 3\P- {\f仿宋_GB2312|b0|i0|c134|p49;绝缘阻抗}: {\f仿宋_GB2312|b0|i0|c134|p49;≥}10{\H0.7x;\S10^ ;}Ω\P- {\f仿宋_GB2312|b0|i0|c134|p49;材料}: {\f仿宋_GB2312|b0|i0|c134|p49;聚碳酸酯}\P- {\f仿宋_GB2312|b0|i0|c134|p49;颜色}: RAL 7032{\f仿宋_GB231
  1
2|b0|i0|c134|p49;（浅灰色）}\P- {\f仿宋_GB2312|b0|i0|c134|p49;温度范围}: -40{\f仿宋_GB2312|b0|i0|c134|p49;℃} - +125{\f仿宋_GB2312|b0|i0|c134|p49;℃}\P- {\f仿宋_GB2312|b0|i0|c134|p49;依据}UL 94{\f仿宋_GB2312|b0|i0|c134|p49;的阻燃等级}: V0\P\pq*;- {\f仿宋_GB2312|b0|i0|c134|p49;可插拔
  1
次数}: {\f仿宋_GB2312|b0|i0|c134|p49;≥}500\P\pql;{\f仿宋_GB2312|b0|i0|c134|p49;插针：}\P- {\f仿宋_GB2312|b0|i0|c134|p49;接线方式}: {\f仿宋_GB2312|b0|i0|c134|p49;冷压连接}\P- {\f仿宋_GB2312|b0|i0|c134|p49;材料}: {\f仿宋_GB2312|b0|i0|c134|p49;铜合金}\P- {\f仿宋_GB2312|b0|i0|c134|p49;
  1
表面处理}: {\f仿宋_GB2312|b0|i0|c134|p49;镀银}\P- {\f仿宋_GB2312|b0|i0|c134|p49;接触电阻}: ≤1mΩ\P- {\f仿宋_GB2312|b0|i0|c134|p49;线径范围}: 1.5-10mm{\H0.7x;\S2^ ;}(16-8 AWG)\P- {\f仿宋_GB2312|b0|i0|c134|p49;工具：}\P\pq*;   {\f仿宋_GB2312|b0|i0|c134|p49;·} {\f仿宋_GB2312|b0|i0|c1
  1
34|p49;冷压钳}: \P\pql;    TL02-0G(1.5-6mm{\H0.7x;\S2^ ;})\P    TL02-3G(4/6/10mm{\H0.7x;\S2^ ;})\P   {\f仿宋_GB2312|b0|i0|c134|p49;·} {\f仿宋_GB2312|b0|i0|c134|p49;退针器}: TL06G
  0
XRECORD
  5
12A5F
102
{ACAD_REACTORS
330
12A5E
102
}
330
12A5E
100
AcDbXrecord
280
     1
 40
49414916.0
  1
\A1;\pxql;Technical specification:\PInserts:\P- No. of contact: 2\P- Rated current: 40A\P- Rated voltage: 1000V\P- Rated impulse voltage: 8kV\P- Pollution degree: 3\P- Insulation resistance: {\fFangSong_GB2312|b0|i0|c134|p49;≥}10{\H0.7x;\S10^ ;}Ω\P- M
  1
aterial: polycarbonate\P- Colour: RAL 7032(light grey) \P- Temperature range: -40{\fArial|b0|i0|c0|p34;℃} - +125{\fArial|b0|i0|c0|p34;℃}\P- Flammability acc.to UL 94: V0\P- Mating cycles: {\fFangSong_GB2312|b0|i0|c134|p49;≥}500\PContacts:\P- Terminal
  1
: crimp terminal\P- Material: copper alloy\P- Surface: hard-silver plated\P- Contact resistance: {\fFangSong_GB2312|b0|i0|c134|p49;≤}1mΩ\P- Wire gauge: 1.5-10mm{\H0.7x;\S2^ ;\H1.4286x;(16-8 AWG)}\P- Tools:\P   {\fISOCPEUR|b0|i0|c0|p34;·} Crimp contact
  1
 tool: \P    TL02-0G(1.5-6mm{\H0.7x;\S2^ ;\H1.4286x;)\P    TL02-3G(4/6/10mm\H0.7x;\S2^ ;\H1.4286x;)\P}   {\fISOCPEUR|b0|i0|c0|p34;·} Contact removal tool: TL06G
  0
XRECORD
  5
12A81
102
{ACAD_REACTORS
330
12A5E
102
}
330
12A5E
100
AcDbXrecord
280
     1
 40
33630765.0
  1
\A1;\pxql;Technical specification:\PInserts:\P- No. of contact: 2\P- Rated current: 40A\P- Rated voltage: 1000V\P- Rated impulse voltage: 8kV\P- Pollution degree: 3\P- Insulation resistance: {\fFangSong_GB2312|b0|i0|c134|p49;≥}10{\H0.7x;\S10^ ;}Ω\P- M
  1
aterial: polycarbonate\P- Colour: RAL 7032(light grey) \P- Temperature range: -40{\fArial|b0|i0|c0|p34;℃} - +125{\fArial|b0|i0|c0|p34;℃}\P- Flammability acc.to UL 94: V0\P- Mating cycles: {\fFangSong_GB2312|b0|i0|c134|p49;≥}500\PContacts:\P- Terminal
  1
: crimp terminal\P- Material: copper alloy\P- Surface: hard-silver plated\P- Contact resistance: {\fFangSong_GB2312|b0|i0|c134|p49;≤}1mΩ\P- Wire gauge: 1.5-10mm{\H0.7x;\S2^ ;\H1.4286x;(16-8 AWG)}\P- Tools:\P   {\fISOCPEUR|b0|i0|c0|p34;·} Crimp contact
  1
 tool: \P    TL02-0G(1.5-6mm{\H0.7x;\S2^ ;\H1.4286x;)\P    TL02-3G(4/6/10mm\H0.7x;\S2^ ;\H1.4286x;)\P}   {\fISOCPEUR|b0|i0|c0|p34;·} Contact removal tool: TL06G
  0
LAYOUT
  5
1E
102
{ACAD_XDICTIONARY
360
12A79
102
}
102
{ACAD_REACTORS
330
1A
102
}
330
1A
100
AcDbPlotSettings
  1

  2
none_device
  4

  6

 40
0.0
 41
0.0
 42
0.0
 43
0.0
 44
0.0
 45
0.0
 46
0.0
 47
0.0
 48
0.0
 49
0.0
140
0.0
141
0.0
142
1.0
143
1.0
 70
   688
 72
     0
 73
     0
 74
     5
  7

 75
    16
147
1.0
148
0.0
149
0.0
100
AcDbLayout
  1
Layout1
 70
     1
 71
     1
 10
0.0
 20
0.0
 11
12.0
 21
9.0
 12
0.0
 22
0.0
 32
0.0
 14
1.000000000000000E+20
 24
1.000000000000000E+20
 34
1.000000000000000E+20
 15
-1.000000000000000E+20
 25
-1.000000000000000E+20
 35
-1.000000000000000E+20
146
0.0
 13
0.0
 23
0.0
 33
0.0
 16
1.0
 26
0.0
 36
0.0
 17
0.0
 27
1.0
 37
0.0
 76
     0
330
1B
  0
LAYOUT
  5
26
102
{ACAD_XDICTIONARY
360
12A7D
102
}
102
{ACAD_REACTORS
330
1A
102
}
330
1A
100
AcDbPlotSettings
  1

  2
none_device
  4

  6

 40
0.0
 41
0.0
 42
0.0
 43
0.0
 44
0.0
 45
0.0
 46
0.0
 47
0.0
 48
0.0
 49
0.0
140
0.0
141
0.0
142
1.0
143
1.0
 70
   688
 72
     0
 73
     0
 74
     5
  7

 75
    16
147
1.0
148
0.0
149
0.0
100
AcDbLayout
  1
Layout2
 70
     1
 71
     2
 10
0.0
 20
0.0
 11
0.0
 21
0.0
 12
0.0
 22
0.0
 32
0.0
 14
0.0
 24
0.0
 34
0.0
 15
0.0
 25
0.0
 35
0.0
146
0.0
 13
0.0
 23
0.0
 33
0.0
 16
1.0
 26
0.0
 36
0.0
 17
0.0
 27
1.0
 37
0.0
 76
     0
330
23
  0
LAYOUT
  5
22
102
{ACAD_XDICTIONARY
360
12A7B
102
}
102
{ACAD_REACTORS
330
1A
102
}
330
1A
100
AcDbPlotSettings
  1

  2
Adobe PDF Converter.pc3
  4
A4
  6

 40
3.174999952316281
 41
3.174999952316281
 42
3.17498779296875
 43
3.175003051757812
 44
297.0318298339844
 45
209.9733276367186
 46
0.0000000000000076
 47
1.630241740247063
 48
246.9897427644609
 49
39.36804549891383
140
544.952097801264
141
244.7492402188181
142
1.0
143
1.025046328645055
 70
  3764
 72
     1
 73
     0
 74
     4
  7
monochrome.ctb
 75
     0
147
0.9755656618192436
148
-246.9897427644609
149
-39.36804549891383
100
AcDbLayout
  1
Model
 70
     1
 71
     0
 10
0.0
 20
0.0
 11
12.0
 21
9.0
 12
0.0
 22
0.0
 32
0.0
 14
1.000000000000000E+20
 24
1.000000000000000E+20
 34
1.000000000000000E+20
 15
-1.000000000000000E+20
 25
-1.000000000000000E+20
 35
-1.000000000000000E+20
146
0.0
 13
0.0
 23
0.0
 33
0.0
 16
1.0
 26
0.0
 36
0.0
 17
0.0
 27
1.0
 37
0.0
 76
     0
330
1F
331
29
1001
ACAD_PSEXT
1000
Adobe PDF Converter.pc3
1000
Adobe PDF Converter
1000
桌面\*.pdf
1000

1070
     0
  0
MATERIAL
  5
4FEE
102
{ACAD_XDICTIONARY
360
4FEF
102
}
102
{ACAD_REACTORS
330
4FE5
102
}
330
4FE5
100
AcDbMaterial
  1
ByBlock
 72
     0
 43
0.0208333333333333
 43
0.0
 43
0.0
 43
0.0
 43
0.0
 43
0.0208333333333333
 43
0.0
 43
0.0
 43
0.0
 43
0.0
 43
1.0
 43
0.0
 43
0.0
 43
0.0
 43
0.0
 43
1.0
 77
     0
 47
0.0208333333333333
 47
0.0
 47
0.0
 47
0.0
 47
0.0
 47
0.0208333333333333
 47
0.0
 47
0.0
 47
0.0
 47
0.0
 47
1.0
 47
0.0
 47
0.0
 47
0.0
 47
0.0
 47
1.0
171
     0
 49
0.0208333333333333
 49
0.0
 49
0.0
 49
0.0
 49
0.0
 49
0.0208333333333333
 49
0.0
 49
0.0
 49
0.0
 49
0.0
 49
1.0
 49
0.0
 49
0.0
 49
0.0
 49
0.0
 49
1.0
175
     0
142
0.0208333333333333
142
0.0
142
0.0
142
0.0
142
0.0
142
0.0208333333333333
142
0.0
142
0.0
142
0.0
142
0.0
142
1.0
142
0.0
142
0.0
142
0.0
142
0.0
142
1.0
179
     0
144
0.0208333333333333
144
0.0
144
0.0
144
0.0
144
0.0
144
0.0208333333333333
144
0.0
144
0.0
144
0.0
144
0.0
144
1.0
144
0.0
144
0.0
144
0.0
144
0.0
144
1.0
147
0.0208333333333333
147
0.0
147
0.0
147
0.0
147
0.0
147
0.0208333333333333
147
0.0
147
0.0
147
0.0
147
0.0
147
1.0
147
0.0
147
0.0
147
0.0
147
0.0
147
1.0
  0
MATERIAL
  5
4FE6
102
{ACAD_XDICTIONARY
360
4FE7
102
}
102
{ACAD_REACTORS
330
4FE5
102
}
330
4FE5
100
AcDbMaterial
  1
ByLayer
 72
     0
 43
0.0208333333333333
 43
0.0
 43
0.0
 43
0.0
 43
0.0
 43
0.0208333333333333
 43
0.0
 43
0.0
 43
0.0
 43
0.0
 43
1.0
 43
0.0
 43
0.0
 43
0.0
 43
0.0
 43
1.0
 77
     0
 47
0.0208333333333333
 47
0.0
 47
0.0
 47
0.0
 47
0.0
 47
0.0208333333333333
 47
0.0
 47
0.0
 47
0.0
 47
0.0
 47
1.0
 47
0.0
 47
0.0
 47
0.0
 47
0.0
 47
1.0
171
     0
 49
0.0208333333333333
 49
0.0
 49
0.0
 49
0.0
 49
0.0
 49
0.0208333333333333
 49
0.0
 49
0.0
 49
0.0
 49
0.0
 49
1.0
 49
0.0
 49
0.0
 49
0.0
 49
0.0
 49
1.0
175
     0
142
0.0208333333333333
142
0.0
142
0.0
142
0.0
142
0.0
142
0.0208333333333333
142
0.0
142
0.0
142
0.0
142
0.0
142
1.0
142
0.0
142
0.0
142
0.0
142
0.0
142
1.0
179
     0
144
0.0208333333333333
144
0.0
144
0.0
144
0.0
144
0.0
144
0.0208333333333333
144
0.0
144
0.0
144
0.0
144
0.0
144
1.0
144
0.0
144
0.0
144
0.0
144
0.0
144
1.0
147
0.0208333333333333
147
0.0
147
0.0
147
0.0
147
0.0
147
0.0208333333333333
147
0.0
147
0.0
147
0.0
147
0.0
147
1.0
147
0.0
147
0.0
147
0.0
147
0.0
147
1.0
  0
MATERIAL
  5
4FF6
102
{ACAD_XDICTIONARY
360
4FF7
102
}
102
{ACAD_REACTORS
330
4FE5
102
}
330
4FE5
100
AcDbMaterial
  1
Global
 72
     0
 43
0.0208333333333333
 43
0.0
 43
0.0
 43
0.0
 43
0.0
 43
0.0208333333333333
 43
0.0
 43
0.0
 43
0.0
 43
0.0
 43
1.0
 43
0.0
 43
0.0
 43
0.0
 43
0.0
 43
1.0
 77
     0
 47
0.0208333333333333
 47
0.0
 47
0.0
 47
0.0
 47
0.0
 47
0.0208333333333333
 47
0.0
 47
0.0
 47
0.0
 47
0.0
 47
1.0
 47
0.0
 47
0.0
 47
0.0
 47
0.0
 47
1.0
171
     0
 49
0.0208333333333333
 49
0.0
 49
0.0
 49
0.0
 49
0.0
 49
0.0208333333333333
 49
0.0
 49
0.0
 49
0.0
 49
0.0
 49
1.0
 49
0.0
 49
0.0
 49
0.0
 49
0.0
 49
1.0
175
     0
142
0.0208333333333333
142
0.0
142
0.0
142
0.0
142
0.0
142
0.0208333333333333
142
0.0
142
0.0
142
0.0
142
0.0
142
1.0
142
0.0
142
0.0
142
0.0
142
0.0
142
1.0
179
     0
144
0.0208333333333333
144
0.0
144
0.0
144
0.0
144
0.0
144
0.0208333333333333
144
0.0
144
0.0
144
0.0
144
0.0
144
1.0
144
0.0
144
0.0
144
0.0
144
0.0
144
1.0
147
0.0208333333333333
147
0.0
147
0.0
147
0.0
147
0.0
147
0.0208333333333333
147
0.0
147
0.0
147
0.0
147
0.0
147
1.0
147
0.0
147
0.0
147
0.0
147
0.0
147
1.0
  0
MLEADERSTYLE
  5
5023
102
{ACAD_REACTORS
330
5022
102
}
330
5022
100
AcDbMLeaderStyle
170
     2
171
     1
172
     0
 90
        2
 40
0.0
 41
0.0
173
     1
 91
-1056964608
340
14
 92
       -2
290
     1
 42
0.09
291
     1
 43
0.36
  3
Standard
 44
0.18
300

342
11
174
     1
178
     6
175
     1
176
     0
 93
-1056964608
 45
0.18
292
     0
297
     0
 46
0.18
 94
-1056964608
 47
1.0
 49
1.0
140
1.0
293
     1
141
0.0
294
     1
177
     0
142
1.0
295
     0
296
     0
143
0.125
1001
ACAD_MLEADERVER
1070
     2
  0
MLINESTYLE
  5
18
102
{ACAD_REACTORS
330
17
102
}
330
17
100
AcDbMlineStyle
  2
STANDARD
 70
     0
  3

 62
   256
 51
90.0
 52
90.0
 71
     2
 49
0.5
 62
   256
  6
BYLAYER
 49
-0.5
 62
   256
  6
BYLAYER
  0
ACDBPLACEHOLDER
  5
F
102
{ACAD_REACTORS
330
E
102
}
330
E
  0
MENTALRAYRENDERSETTINGS
  5
6538
102
{ACAD_REACTORS
330
6537
102
}
330
6537
100
AcDbRenderSettings
 90
        2
  1
中
290
     1
290
     1
290
     1
290
     1
  1

  1
渲染质量好于“低级”。包括纹理过滤并且强制双面处于激活状态。处理中等级反锯齿和 5 反射/折射的光线跟踪深度。
 90
        0
100
AcDbMentalRayRenderSettings
 90
        2
 90
        0
 90
        1
 70
     2
 40
3.0
 40
3.0
 40
0.0500000007450581
 40
0.0500000007450581
 40
0.0500000007450581
 40
0.0500000007450581
 70
     0
290
     0
290
     1
 90
        5
 90
        5
 90
        5
290
     0
 90
      500
290
     0
 40
1.0
 90
    10000
 90
        5
 90
        5
 90
        5
290
     0
 90
      200
290
     0
290
     0
290
     0
 40
0.1
 40
1.0
 40
1500.0
 70
     0
 70
     0
 40
10.0
 70
     0
 70
     0
290
     0
  1

 90
       32
 70
     0
 90
     1048
290
     0
 40
1.0
  0
SCALE
  5
5001
102
{ACAD_REACTORS
330
5000
102
}
330
5000
100
AcDbScale
 70
     0
300
1:1
140
1.0
141
1.0
290
     1
  0
SCALE
  5
5002
102
{ACAD_REACTORS
330
5000
102
}
330
5000
100
AcDbScale
 70
     0
300
1:2
140
1.0
141
2.0
290
     0
  0
SCALE
  5
5003
102
{ACAD_REACTORS
330
5000
102
}
330
5000
100
AcDbScale
 70
     0
300
1:4
140
1.0
141
4.0
290
     0
  0
SCALE
  5
5004
102
{ACAD_REACTORS
330
5000
102
}
330
5000
100
AcDbScale
 70
     0
300
1:5
140
1.0
141
5.0
290
     0
  0
SCALE
  5
5005
102
{ACAD_REACTORS
330
5000
102
}
330
5000
100
AcDbScale
 70
     0
300
1:8
140
1.0
141
8.0
290
     0
  0
SCALE
  5
5006
102
{ACAD_REACTORS
330
5000
102
}
330
5000
100
AcDbScale
 70
     0
300
1:10
140
1.0
141
10.0
290
     0
  0
SCALE
  5
5007
102
{ACAD_REACTORS
330
5000
102
}
330
5000
100
AcDbScale
 70
     0
300
1:16
140
1.0
141
16.0
290
     0
  0
SCALE
  5
5008
102
{ACAD_REACTORS
330
5000
102
}
330
5000
100
AcDbScale
 70
     0
300
1:20
140
1.0
141
20.0
290
     0
  0
SCALE
  5
5009
102
{ACAD_REACTORS
330
5000
102
}
330
5000
100
AcDbScale
 70
     0
300
1:30
140
1.0
141
30.0
290
     0
  0
SCALE
  5
500A
102
{ACAD_REACTORS
330
5000
102
}
330
5000
100
AcDbScale
 70
     0
300
1:40
140
1.0
141
40.0
290
     0
  0
SCALE
  5
500B
102
{ACAD_REACTORS
330
5000
102
}
330
5000
100
AcDbScale
 70
     0
300
1:50
140
1.0
141
50.0
290
     0
  0
SCALE
  5
500C
102
{ACAD_REACTORS
330
5000
102
}
330
5000
100
AcDbScale
 70
     0
300
1:100
140
1.0
141
100.0
290
     0
  0
SCALE
  5
500D
102
{ACAD_REACTORS
330
5000
102
}
330
5000
100
AcDbScale
 70
     0
300
2:1
140
2.0
141
1.0
290
     0
  0
SCALE
  5
500E
102
{ACAD_REACTORS
330
5000
102
}
330
5000
100
AcDbScale
 70
     0
300
4:1
140
4.0
141
1.0
290
     0
  0
SCALE
  5
500F
102
{ACAD_REACTORS
330
5000
102
}
330
5000
100
AcDbScale
 70
     0
300
8:1
140
8.0
141
1.0
290
     0
  0
SCALE
  5
5010
102
{ACAD_REACTORS
330
5000
102
}
330
5000
100
AcDbScale
 70
     0
300
10:1
140
10.0
141
1.0
290
     0
  0
SCALE
  5
5011
102
{ACAD_REACTORS
330
5000
102
}
330
5000
100
AcDbScale
 70
     0
300
100:1
140
100.0
141
1.0
290
     0
  0
SCALE
  5
5012
102
{ACAD_REACTORS
330
5000
102
}
330
5000
100
AcDbScale
 70
     0
300
1/128" = 1'-0"
140
0.0078125
141
12.0
290
     0
  0
SCALE
  5
5013
102
{ACAD_REACTORS
330
5000
102
}
330
5000
100
AcDbScale
 70
     0
300
1/64" = 1'-0"
140
0.015625
141
12.0
290
     0
  0
SCALE
  5
5014
102
{ACAD_REACTORS
330
5000
102
}
330
5000
100
AcDbScale
 70
     0
300
1/32" = 1'-0"
140
0.03125
141
12.0
290
     0
  0
SCALE
  5
5015
102
{ACAD_REACTORS
330
5000
102
}
330
5000
100
AcDbScale
 70
     0
300
1/16" = 1'-0"
140
0.0625
141
12.0
290
     0
  0
SCALE
  5
5016
102
{ACAD_REACTORS
330
5000
102
}
330
5000
100
AcDbScale
 70
     0
300
3/32" = 1'-0"
140
0.09375
141
12.0
290
     0
  0
SCALE
  5
5017
102
{ACAD_REACTORS
330
5000
102
}
330
5000
100
AcDbScale
 70
     0
300
1/8" = 1'-0"
140
0.125
141
12.0
290
     0
  0
SCALE
  5
5018
102
{ACAD_REACTORS
330
5000
102
}
330
5000
100
AcDbScale
 70
     0
300
3/16" = 1'-0"
140
0.1875
141
12.0
290
     0
  0
SCALE
  5
5019
102
{ACAD_REACTORS
330
5000
102
}
330
5000
100
AcDbScale
 70
     0
300
1/4" = 1'-0"
140
0.25
141
12.0
290
     0
  0
SCALE
  5
501A
102
{ACAD_REACTORS
330
5000
102
}
330
5000
100
AcDbScale
 70
     0
300
3/8" = 1'-0"
140
0.375
141
12.0
290
     0
  0
SCALE
  5
501B
102
{ACAD_REACTORS
330
5000
102
}
330
5000
100
AcDbScale
 70
     0
300
1/2" = 1'-0"
140
0.5
141
12.0
290
     0
  0
SCALE
  5
501C
102
{ACAD_REACTORS
330
5000
102
}
330
5000
100
AcDbScale
 70
     0
300
3/4" = 1'-0"
140
0.75
141
12.0
290
     0
  0
SCALE
  5
501D
102
{ACAD_REACTORS
330
5000
102
}
330
5000
100
AcDbScale
 70
     0
300
1" = 1'-0"
140
1.0
141
12.0
290
     0
  0
SCALE
  5
501E
102
{ACAD_REACTORS
330
5000
102
}
330
5000
100
AcDbScale
 70
     0
300
1-1/2" = 1'-0"
140
1.5
141
12.0
290
     0
  0
SCALE
  5
501F
102
{ACAD_REACTORS
330
5000
102
}
330
5000
100
AcDbScale
 70
     0
300
3" = 1'-0"
140
3.0
141
12.0
290
     0
  0
SCALE
  5
5020
102
{ACAD_REACTORS
330
5000
102
}
330
5000
100
AcDbScale
 70
     0
300
6" = 1'-0"
140
6.0
141
12.0
290
     0
  0
SCALE
  5
5021
102
{ACAD_REACTORS
330
5000
102
}
330
5000
100
AcDbScale
 70
     0
300
1'-0" = 1'-0"
140
12.0
141
12.0
290
     0
  0
TABLESTYLE
  5
4FFF
102
{ACAD_XDICTIONARY
360
50D6
102
}
102
{ACAD_REACTORS
330
4FE3
102
}
330
4FE3
100
AcDbTableStyle
  3
Standard
 70
     0
 71
     0
 40
0.06
 41
0.06
280
     0
281
     0
  7
Standard
140
0.18
170
     2
 62
     0
 63
     7
283
     0
274
    -2
284
     1
 64
     0
275
    -2
285
     1
 65
     0
276
    -2
286
     1
 66
     0
277
    -2
287
     1
 67
     0
278
    -2
288
     1
 68
     0
279
    -2
289
     1
 69
     0
  7
Standard
140
0.25
170
     5
 62
     0
 63
     7
283
     0
274
    -2
284
     1
 64
     0
275
    -2
285
     1
 65
     0
276
    -2
286
     1
 66
     0
277
    -2
287
     1
 67
     0
278
    -2
288
     1
 68
     0
279
    -2
289
     1
 69
     0
  7
Standard
140
0.18
170
     5
 62
     0
 63
     7
283
     0
274
    -2
284
     1
 64
     0
275
    -2
285
     1
 65
     0
276
    -2
286
     1
 66
     0
277
    -2
287
     1
 67
     0
278
    -2
288
     1
 68
     0
279
    -2
289
     1
 69
     0
  0
VISUALSTYLE
  5
2F
102
{ACAD_REACTORS
330
2A
102
}
330
2A
100
AcDbVisualStyle
  2
2dWireframe
 70
     4
 71
     0
 72
     2
 73
     0
 90
        0
 40
-0.6
 41
-30.0
 62
     5
 63
     7
 74
     1
 91
        4
 64
     7
 65
   257
 75
     1
175
     1
 42
1.0
 92
        0
 66
   257
 43
1.0
 76
     1
 77
     6
 78
     2
 67
     7
 79
     5
170
     0
171
     0
290
     0
174
     0
 93
        1
 44
0.0
173
     0
291
     0
 45
0.0
1001
ACAD
1000
AcDbSavedByObjectVersion
1070
     0
1000
AcDbSavedByObjectVersion
1070
     0
1000
AcDbSavedByObjectVersion
1070
     0
1000
AcDbSavedByObjectVersion
1070
     0
1000
AcDbSavedByObjectVersion
1070
     0
1000
AcDbSavedByObjectVersion
1070
     0
1000
AcDbSavedByObjectVersion
1070
     0
1000
AcDbSavedByObjectVersion
1070
     0
1000
AcDbSavedByObjectVersion
1070
     0
1000
AcDbSavedByObjectVersion
1070
     0
1000
AcDbSavedByObjectVersion
1070
     0
1000
AcDbSavedByObjectVersion
1070
     0
1000
AcDbSavedByObjectVersion
1070
     0
1000
AcDbSavedByObjectVersion
1070
     0
1000
AcDbSavedByObjectVersion
1070
     0
1000
AcDbSavedByObjectVersion
1070
     0
1000
AcDbSavedByObjectVersion
1070
     0
1000
AcDbSavedByObjectVersion
1070
     0
1000
AcDbSavedByObjectVersion
1070
     0
1000
AcDbSavedByObjectVersion
1070
     0
1000
AcDbSavedByObjectVersion
1070
     0
1000
AcDbSavedByObjectVersion
1070
     0
1000
AcDbSavedByObjectVersion
1070
     0
1000
AcDbSavedByObjectVersion
1070
     0
1000
AcDbSavedByObjectVersion
1070
     0
1000
AcDbSavedByObjectVersion
1070
     0
1000
AcDbSavedByObjectVersion
1070
     0
1000
AcDbSavedByObjectVersion
1070
     0
1000
AcDbSavedByObjectVersion
1070
     0
1000
AcDbSavedByObjectVersion
1070
     0
1000
AcDbSavedByObjectVersion
1070
     0
1000
AcDbSavedByObjectVersion
1070
     0
1000
AcDbSavedByObjectVersion
1070
     0
1000
AcDbSavedByObjectVersion
1070
     0
1000
AcDbSavedByObjectVersion
1070
     0
1000
AcDbSavedByObjectVersion
1070
     0
1000
AcDbSavedByObjectVersion
1070
     0
1000
AcDbSavedByObjectVersion
1070
     0
1000
AcDbSavedByObjectVersion
1070
     0
1000
AcDbSavedByObjectVersion
1070
     0
1000
AcDbSavedByObjectVersion
1070
     0
  0
VISUALSTYLE
  5
31
102
{ACAD_REACTORS
330
2A
102
}
330
2A
100
AcDbVisualStyle
  2
3D Hidden
 70
     6
 71
     1
 72
     2
 73
     2
 90
        0
 40
-0.6
 41
-30.0
 62
     5
 63
     7
 74
     2
 91
        2
 64
     7
 65
   257
 75
     2
175
     1
 42
40.0
 92
        0
 66
   257
 43
1.0
 76
     1
 77
     6
 78
     2
 67
     7
 79
     3
170
     0
171
     0
290
     0
174
     0
 93
        1
 44
0.0
173
     0
291
     0
 45
0.0
1001
ACAD
1000
AcDbSavedByObjectVersion
1070
     0
1000
AcDbSavedByObjectVersion
1070
     0
1000
AcDbSavedByObjectVersion
1070
     0
1000
AcDbSavedByObjectVersion
1070
     0
1000
AcDbSavedByObjectVersion
1070
     0
1000
AcDbSavedByObjectVersion
1070
     0
1000
AcDbSavedByObjectVersion
1070
     0
1000
AcDbSavedByObjectVersion
1070
     0
1000
AcDbSavedByObjectVersion
1070
     0
1000
AcDbSavedByObjectVersion
1070
     0
1000
AcDbSavedByObjectVersion
1070
     0
1000
AcDbSavedByObjectVersion
1070
     0
1000
AcDbSavedByObjectVersion
1070
     0
1000
AcDbSavedByObjectVersion
1070
     0
1000
AcDbSavedByObjectVersion
1070
     0
1000
AcDbSavedByObjectVersion
1070
     0
1000
AcDbSavedByObjectVersion
1070
     0
1000
AcDbSavedByObjectVersion
1070
     0
1000
AcDbSavedByObjectVersion
1070
     0
1000
AcDbSavedByObjectVersion
1070
     0
1000
AcDbSavedByObjectVersion
1070
     0
1000
AcDbSavedByObjectVersion
1070
     0
1000
AcDbSavedByObjectVersion
1070
     0
1000
AcDbSavedByObjectVersion
1070
     0
1000
AcDbSavedByObjectVersion
1070
     0
1000
AcDbSavedByObjectVersion
1070
     0
1000
AcDbSavedByObjectVersion
1070
     0
1000
AcDbSavedByObjectVersion
1070
     0
1000
AcDbSavedByObjectVersion
1070
     0
1000
AcDbSavedByObjectVersion
1070
     0
1000
AcDbSavedByObjectVersion
1070
     0
1000
AcDbSavedByObjectVersion
1070
     0
1000
AcDbSavedByObjectVersion
1070
     0
1000
AcDbSavedByObjectVersion
1070
     0
1000
AcDbSavedByObjectVersion
1070
     0
1000
AcDbSavedByObjectVersion
1070
     0
1000
AcDbSavedByObjectVersion
1070
     0
1000
AcDbSavedByObjectVersion
1070
     0
1000
AcDbSavedByObjectVersion
1070
     0
1000
AcDbSavedByObjectVersion
1070
     0
1000
AcDbSavedByObjectVersion
1070
     0
  0
VISUALSTYLE
  5
30
102
{ACAD_REACTORS
330
2A
102
}
330
2A
100
AcDbVisualStyle
  2
3dWireframe
 70
     5
 71
     0
 72
     2
 73
     0
 90
        0
 40
-0.6
 41
-30.0
 62
     5
 63
     7
 74
     1
 91
        4
 64
     7
 65
   257
 75
     1
175
     1
 42
1.0
 92
        0
 66
   257
 43
1.0
 76
     1
 77
     6
 78
     2
 67
     7
 79
     5
170
     0
171
     0
290
     0
174
     0
 93
        1
 44
0.0
173
     0
291
     0
 45
0.0
1001
ACAD
1000
AcDbSavedByObjectVersion
1070
     0
1000
AcDbSavedByObjectVersion
1070
     0
1000
AcDbSavedByObjectVersion
1070
     0
1000
AcDbSavedByObjectVersion
1070
     0
1000
AcDbSavedByObjectVersion
1070
     0
1000
AcDbSavedByObjectVersion
1070
     0
1000
AcDbSavedByObjectVersion
1070
     0
1000
AcDbSavedByObjectVersion
1070
     0
1000
AcDbSavedByObjectVersion
1070
     0
1000
AcDbSavedByObjectVersion
1070
     0
1000
AcDbSavedByObjectVersion
1070
     0
1000
AcDbSavedByObjectVersion
1070
     0
1000
AcDbSavedByObjectVersion
1070
     0
1000
AcDbSavedByObjectVersion
1070
     0
1000
AcDbSavedByObjectVersion
1070
     0
1000
AcDbSavedByObjectVersion
1070
     0
1000
AcDbSavedByObjectVersion
1070
     0
1000
AcDbSavedByObjectVersion
1070
     0
1000
AcDbSavedByObjectVersion
1070
     0
1000
AcDbSavedByObjectVersion
1070
     0
1000
AcDbSavedByObjectVersion
1070
     0
1000
AcDbSavedByObjectVersion
1070
     0
1000
AcDbSavedByObjectVersion
1070
     0
1000
AcDbSavedByObjectVersion
1070
     0
1000
AcDbSavedByObjectVersion
1070
     0
1000
AcDbSavedByObjectVersion
1070
     0
1000
AcDbSavedByObjectVersion
1070
     0
1000
AcDbSavedByObjectVersion
1070
     0
1000
AcDbSavedByObjectVersion
1070
     0
1000
AcDbSavedByObjectVersion
1070
     0
1000
AcDbSavedByObjectVersion
1070
     0
1000
AcDbSavedByObjectVersion
1070
     0
1000
AcDbSavedByObjectVersion
1070
     0
1000
AcDbSavedByObjectVersion
1070
     0
1000
AcDbSavedByObjectVersion
1070
     0
1000
AcDbSavedByObjectVersion
1070
     0
1000
AcDbSavedByObjectVersion
1070
     0
1000
AcDbSavedByObjectVersion
1070
     0
1000
AcDbSavedByObjectVersion
1070
     0
1000
AcDbSavedByObjectVersion
1070
     0
1000
AcDbSavedByObjectVersion
1070
     0
  0
VISUALSTYLE
  5
32
102
{ACAD_REACTORS
330
2A
102
}
330
2A
100
AcDbVisualStyle
  2
Basic
 70
     7
 71
     1
 72
     0
 73
     1
 90
        0
 40
-0.6
 41
-30.0
 62
     5
 63
     7
 74
     0
 91
        4
 64
     7
 65
   257
 75
     1
175
     1
 42
1.0
 92
        8
 66
     7
 43
1.0
 76
     1
 77
     6
 78
     2
 67
     7
 79
     5
170
     0
171
     0
290
     0
174
     0
 93
        1
 44
0.0
173
     0
291
     1
 45
0.0
1001
ACAD
1000
AcDbSavedByObjectVersion
1070
     0
1000
AcDbSavedByObjectVersion
1070
     0
1000
AcDbSavedByObjectVersion
1070
     0
1000
AcDbSavedByObjectVersion
1070
     0
1000
AcDbSavedByObjectVersion
1070
     0
1000
AcDbSavedByObjectVersion
1070
     0
1000
AcDbSavedByObjectVersion
1070
     0
1000
AcDbSavedByObjectVersion
1070
     0
1000
AcDbSavedByObjectVersion
1070
     0
1000
AcDbSavedByObjectVersion
1070
     0
1000
AcDbSavedByObjectVersion
1070
     0
1000
AcDbSavedByObjectVersion
1070
     0
1000
AcDbSavedByObjectVersion
1070
     0
1000
AcDbSavedByObjectVersion
1070
     0
1000
AcDbSavedByObjectVersion
1070
     0
1000
AcDbSavedByObjectVersion
1070
     0
1000
AcDbSavedByObjectVersion
1070
     0
1000
AcDbSavedByObjectVersion
1070
     0
1000
AcDbSavedByObjectVersion
1070
     0
1000
AcDbSavedByObjectVersion
1070
     0
1000
AcDbSavedByObjectVersion
1070
     0
1000
AcDbSavedByObjectVersion
1070
     0
1000
AcDbSavedByObjectVersion
1070
     0
1000
AcDbSavedByObjectVersion
1070
     0
1000
AcDbSavedByObjectVersion
1070
     0
1000
AcDbSavedByObjectVersion
1070
     0
1000
AcDbSavedByObjectVersion
1070
     0
1000
AcDbSavedByObjectVersion
1070
     0
1000
AcDbSavedByObjectVersion
1070
     0
1000
AcDbSavedByObjectVersion
1070
     0
1000
AcDbSavedByObjectVersion
1070
     0
1000
AcDbSavedByObjectVersion
1070
     0
1000
AcDbSavedByObjectVersion
1070
     0
1000
AcDbSavedByObjectVersion
1070
     0
1000
AcDbSavedByObjectVersion
1070
     0
1000
AcDbSavedByObjectVersion
1070
     0
1000
AcDbSavedByObjectVersion
1070
     0
1000
AcDbSavedByObjectVersion
1070
     0
1000
AcDbSavedByObjectVersion
1070
     0
1000
AcDbSavedByObjectVersion
1070
     0
1000
AcDbSavedByObjectVersion
1070
     0
  0
VISUALSTYLE
  5
36
102
{ACAD_REACTORS
330
2A
102
}
330
2A
100
AcDbVisualStyle
  2
Brighten
 70
    12
 71
     2
 72
     2
 73
     0
 90
        0
 40
-0.6
 41
-30.0
 62
     5
 63
     7
 74
     1
 91
        4
 64
     7
 65
   257
 75
     1
175
     1
 42
1.0
 92
        8
 66
     7
 43
1.0
 76
     1
 77
     6
 78
     2
 67
     7
 79
     5
170
     0
171
     0
290
     0
174
     0
 93
        1
 44
50.0
173
     0
291
     1
 45
0.0
1001
ACAD
1000
AcDbSavedByObjectVersion
1070
     0
1000
AcDbSavedByObjectVersion
1070
     0
1000
AcDbSavedByObjectVersion
1070
     0
1000
AcDbSavedByObjectVersion
1070
     0
1000
AcDbSavedByObjectVersion
1070
     0
1000
AcDbSavedByObjectVersion
1070
     0
1000
AcDbSavedByObjectVersion
1070
     0
1000
AcDbSavedByObjectVersion
1070
     0
1000
AcDbSavedByObjectVersion
1070
     0
1000
AcDbSavedByObjectVersion
1070
     0
1000
AcDbSavedByObjectVersion
1070
     0
1000
AcDbSavedByObjectVersion
1070
     0
1000
AcDbSavedByObjectVersion
1070
     0
1000
AcDbSavedByObjectVersion
1070
     0
1000
AcDbSavedByObjectVersion
1070
     0
1000
AcDbSavedByObjectVersion
1070
     0
1000
AcDbSavedByObjectVersion
1070
     0
1000
AcDbSavedByObjectVersion
1070
     0
1000
AcDbSavedByObjectVersion
1070
     0
1000
AcDbSavedByObjectVersion
1070
     0
1000
AcDbSavedByObjectVersion
1070
     0
1000
AcDbSavedByObjectVersion
1070
     0
1000
AcDbSavedByObjectVersion
1070
     0
1000
AcDbSavedByObjectVersion
1070
     0
1000
AcDbSavedByObjectVersion
1070
     0
1000
AcDbSavedByObjectVersion
1070
     0
1000
AcDbSavedByObjectVersion
1070
     0
1000
AcDbSavedByObjectVersion
1070
     0
1000
AcDbSavedByObjectVersion
1070
     0
1000
AcDbSavedByObjectVersion
1070
     0
1000
AcDbSavedByObjectVersion
1070
     0
1000
AcDbSavedByObjectVersion
1070
     0
1000
AcDbSavedByObjectVersion
1070
     0
1000
AcDbSavedByObjectVersion
1070
     0
1000
AcDbSavedByObjectVersion
1070
     0
1000
AcDbSavedByObjectVersion
1070
     0
1000
AcDbSavedByObjectVersion
1070
     0
1000
AcDbSavedByObjectVersion
1070
     0
1000
AcDbSavedByObjectVersion
1070
     0
1000
AcDbSavedByObjectVersion
1070
     0
1000
AcDbSavedByObjectVersion
1070
     0
  0
VISUALSTYLE
  5
3A
102
{ACAD_REACTORS
330
2A
102
}
330
2A
100
AcDbVisualStyle
  2
ColorChange
 70
    16
 71
     2
 72
     2
 73
     3
 90
        0
 40
-0.6
 41
-30.0
 62
     5
 63
     8
 74
     1
 91
        4
 64
     7
 65
   257
 75
     1
175
     1
 42
1.0
 92
        8
 66
     8
 43
1.0
 76
     1
 77
     6
 78
     2
 67
     7
 79
     5
170
     0
171
     0
290
     0
174
     0
 93
        1
 44
0.0
173
     0
291
     1
 45
0.0
1001
ACAD
1000
AcDbSavedByObjectVersion
1070
     0
1000
AcDbSavedByObjectVersion
1070
     0
1000
AcDbSavedByObjectVersion
1070
     0
1000
AcDbSavedByObjectVersion
1070
     0
1000
AcDbSavedByObjectVersion
1070
     0
1000
AcDbSavedByObjectVersion
1070
     0
1000
AcDbSavedByObjectVersion
1070
     0
1000
AcDbSavedByObjectVersion
1070
     0
1000
AcDbSavedByObjectVersion
1070
     0
1000
AcDbSavedByObjectVersion
1070
     0
1000
AcDbSavedByObjectVersion
1070
     0
1000
AcDbSavedByObjectVersion
1070
     0
1000
AcDbSavedByObjectVersion
1070
     0
1000
AcDbSavedByObjectVersion
1070
     0
1000
AcDbSavedByObjectVersion
1070
     0
1000
AcDbSavedByObjectVersion
1070
     0
1000
AcDbSavedByObjectVersion
1070
     0
1000
AcDbSavedByObjectVersion
1070
     0
1000
AcDbSavedByObjectVersion
1070
     0
1000
AcDbSavedByObjectVersion
1070
     0
1000
AcDbSavedByObjectVersion
1070
     0
1000
AcDbSavedByObjectVersion
1070
     0
1000
AcDbSavedByObjectVersion
1070
     0
1000
AcDbSavedByObjectVersion
1070
     0
1000
AcDbSavedByObjectVersion
1070
     0
1000
AcDbSavedByObjectVersion
1070
     0
1000
AcDbSavedByObjectVersion
1070
     0
1000
AcDbSavedByObjectVersion
1070
     0
1000
AcDbSavedByObjectVersion
1070
     0
1000
AcDbSavedByObjectVersion
1070
     0
1000
AcDbSavedByObjectVersion
1070
     0
1000
AcDbSavedByObjectVersion
1070
     0
1000
AcDbSavedByObjectVersion
1070
     0
1000
AcDbSavedByObjectVersion
1070
     0
1000
AcDbSavedByObjectVersion
1070
     0
1000
AcDbSavedByObjectVersion
1070
     0
1000
AcDbSavedByObjectVersion
1070
     0
1000
AcDbSavedByObjectVersion
1070
     0
1000
AcDbSavedByObjectVersion
1070
     0
1000
AcDbSavedByObjectVersion
1070
     0
1000
AcDbSavedByObjectVersion
1070
     0
  0
VISUALSTYLE
  5
34
102
{ACAD_REACTORS
330
2A
102
}
330
2A
100
AcDbVisualStyle
  2
Conceptual
 70
     9
 71
     3
 72
     2
 73
     0
 90
        0
 40
-0.6
 41
-30.0
 62
     5
 63
     7
 74
     2
 91
        2
 64
     7
 65
   257
 75
     1
175
     1
 42
40.0
 92
        8
 66
     7
 43
1.0
 76
     1
 77
     6
 78
     2
 67
     7
 79
     3
170
     0
171
     0
290
     0
174
     0
 93
        1
 44
0.0
173
     0
291
     0
 45
0.0
1001
ACAD
1000
AcDbSavedByObjectVersion
1070
     0
1000
AcDbSavedByObjectVersion
1070
     0
1000
AcDbSavedByObjectVersion
1070
     0
1000
AcDbSavedByObjectVersion
1070
     0
1000
AcDbSavedByObjectVersion
1070
     0
1000
AcDbSavedByObjectVersion
1070
     0
1000
AcDbSavedByObjectVersion
1070
     0
1000
AcDbSavedByObjectVersion
1070
     0
1000
AcDbSavedByObjectVersion
1070
     0
1000
AcDbSavedByObjectVersion
1070
     0
1000
AcDbSavedByObjectVersion
1070
     0
1000
AcDbSavedByObjectVersion
1070
     0
1000
AcDbSavedByObjectVersion
1070
     0
1000
AcDbSavedByObjectVersion
1070
     0
1000
AcDbSavedByObjectVersion
1070
     0
1000
AcDbSavedByObjectVersion
1070
     0
1000
AcDbSavedByObjectVersion
1070
     0
1000
AcDbSavedByObjectVersion
1070
     0
1000
AcDbSavedByObjectVersion
1070
     0
1000
AcDbSavedByObjectVersion
1070
     0
1000
AcDbSavedByObjectVersion
1070
     0
1000
AcDbSavedByObjectVersion
1070
     0
1000
AcDbSavedByObjectVersion
1070
     0
1000
AcDbSavedByObjectVersion
1070
     0
1000
AcDbSavedByObjectVersion
1070
     0
1000
AcDbSavedByObjectVersion
1070
     0
1000
AcDbSavedByObjectVersion
1070
     0
1000
AcDbSavedByObjectVersion
1070
     0
1000
AcDbSavedByObjectVersion
1070
     0
1000
AcDbSavedByObjectVersion
1070
     0
1000
AcDbSavedByObjectVersion
1070
     0
1000
AcDbSavedByObjectVersion
1070
     0
1000
AcDbSavedByObjectVersion
1070
     0
1000
AcDbSavedByObjectVersion
1070
     0
1000
AcDbSavedByObjectVersion
1070
     0
1000
AcDbSavedByObjectVersion
1070
     0
1000
AcDbSavedByObjectVersion
1070
     0
1000
AcDbSavedByObjectVersion
1070
     0
1000
AcDbSavedByObjectVersion
1070
     0
1000
AcDbSavedByObjectVersion
1070
     0
1000
AcDbSavedByObjectVersion
1070
     0
  0
VISUALSTYLE
  5
35
102
{ACAD_REACTORS
330
2A
102
}
330
2A
100
AcDbVisualStyle
  2
Dim
 70
    11
 71
     2
 72
     2
 73
     0
 90
        0
 40
-0.6
 41
-30.0
 62
     5
 63
     7
 74
     1
 91
        4
 64
     7
 65
   257
 75
     1
175
     1
 42
1.0
 92
        8
 66
     7
 43
1.0
 76
     1
 77
     6
 78
     2
 67
     7
 79
     5
170
     0
171
     0
290
     0
174
     0
 93
        1
 44
-50.0
173
     0
291
     1
 45
0.0
1001
ACAD
1000
AcDbSavedByObjectVersion
1070
     0
1000
AcDbSavedByObjectVersion
1070
     0
1000
AcDbSavedByObjectVersion
1070
     0
1000
AcDbSavedByObjectVersion
1070
     0
1000
AcDbSavedByObjectVersion
1070
     0
1000
AcDbSavedByObjectVersion
1070
     0
1000
AcDbSavedByObjectVersion
1070
     0
1000
AcDbSavedByObjectVersion
1070
     0
1000
AcDbSavedByObjectVersion
1070
     0
1000
AcDbSavedByObjectVersion
1070
     0
1000
AcDbSavedByObjectVersion
1070
     0
1000
AcDbSavedByObjectVersion
1070
     0
1000
AcDbSavedByObjectVersion
1070
     0
1000
AcDbSavedByObjectVersion
1070
     0
1000
AcDbSavedByObjectVersion
1070
     0
1000
AcDbSavedByObjectVersion
1070
     0
1000
AcDbSavedByObjectVersion
1070
     0
1000
AcDbSavedByObjectVersion
1070
     0
1000
AcDbSavedByObjectVersion
1070
     0
1000
AcDbSavedByObjectVersion
1070
     0
1000
AcDbSavedByObjectVersion
1070
     0
1000
AcDbSavedByObjectVersion
1070
     0
1000
AcDbSavedByObjectVersion
1070
     0
1000
AcDbSavedByObjectVersion
1070
     0
1000
AcDbSavedByObjectVersion
1070
     0
1000
AcDbSavedByObjectVersion
1070
     0
1000
AcDbSavedByObjectVersion
1070
     0
1000
AcDbSavedByObjectVersion
1070
     0
1000
AcDbSavedByObjectVersion
1070
     0
1000
AcDbSavedByObjectVersion
1070
     0
1000
AcDbSavedByObjectVersion
1070
     0
1000
AcDbSavedByObjectVersion
1070
     0
1000
AcDbSavedByObjectVersion
1070
     0
1000
AcDbSavedByObjectVersion
1070
     0
1000
AcDbSavedByObjectVersion
1070
     0
1000
AcDbSavedByObjectVersion
1070
     0
1000
AcDbSavedByObjectVersion
1070
     0
1000
AcDbSavedByObjectVersion
1070
     0
1000
AcDbSavedByObjectVersion
1070
     0
1000
AcDbSavedByObjectVersion
1070
     0
1000
AcDbSavedByObjectVersion
1070
     0
  0
VISUALSTYLE
  5
39
102
{ACAD_REACTORS
330
2A
102
}
330
2A
100
AcDbVisualStyle
  2
Facepattern
 70
    15
 71
     2
 72
     2
 73
     0
 90
        0
 40
-0.6
 41
-30.0
 62
     5
 63
     7
 74
     1
 91
        4
 64
     7
 65
   257
 75
     1
175
     1
 42
1.0
 92
        8
 66
     7
 43
1.0
 76
     1
 77
     6
 78
     2
 67
     7
 79
     5
170
     0
171
     0
290
     0
174
     0
 93
        1
 44
0.0
173
     0
291
     1
 45
0.0
1001
ACAD
1000
AcDbSavedByObjectVersion
1070
     0
1000
AcDbSavedByObjectVersion
1070
     0
1000
AcDbSavedByObjectVersion
1070
     0
1000
AcDbSavedByObjectVersion
1070
     0
1000
AcDbSavedByObjectVersion
1070
     0
1000
AcDbSavedByObjectVersion
1070
     0
1000
AcDbSavedByObjectVersion
1070
     0
1000
AcDbSavedByObjectVersion
1070
     0
1000
AcDbSavedByObjectVersion
1070
     0
1000
AcDbSavedByObjectVersion
1070
     0
1000
AcDbSavedByObjectVersion
1070
     0
1000
AcDbSavedByObjectVersion
1070
     0
1000
AcDbSavedByObjectVersion
1070
     0
1000
AcDbSavedByObjectVersion
1070
     0
1000
AcDbSavedByObjectVersion
1070
     0
1000
AcDbSavedByObjectVersion
1070
     0
1000
AcDbSavedByObjectVersion
1070
     0
1000
AcDbSavedByObjectVersion
1070
     0
1000
AcDbSavedByObjectVersion
1070
     0
1000
AcDbSavedByObjectVersion
1070
     0
1000
AcDbSavedByObjectVersion
1070
     0
1000
AcDbSavedByObjectVersion
1070
     0
1000
AcDbSavedByObjectVersion
1070
     0
1000
AcDbSavedByObjectVersion
1070
     0
1000
AcDbSavedByObjectVersion
1070
     0
1000
AcDbSavedByObjectVersion
1070
     0
1000
AcDbSavedByObjectVersion
1070
     0
1000
AcDbSavedByObjectVersion
1070
     0
1000
AcDbSavedByObjectVersion
1070
     0
1000
AcDbSavedByObjectVersion
1070
     0
1000
AcDbSavedByObjectVersion
1070
     0
1000
AcDbSavedByObjectVersion
1070
     0
1000
AcDbSavedByObjectVersion
1070
     0
1000
AcDbSavedByObjectVersion
1070
     0
1000
AcDbSavedByObjectVersion
1070
     0
1000
AcDbSavedByObjectVersion
1070
     0
1000
AcDbSavedByObjectVersion
1070
     0
1000
AcDbSavedByObjectVersion
1070
     0
1000
AcDbSavedByObjectVersion
1070
     0
1000
AcDbSavedByObjectVersion
1070
     0
1000
AcDbSavedByObjectVersion
1070
     0
  0
VISUALSTYLE
  5
2B
102
{ACAD_REACTORS
330
2A
102
}
330
2A
100
AcDbVisualStyle
  2
Flat
 70
     0
 71
     2
 72
     1
 73
     1
 90
        2
 40
-0.6
 41
30.0
 62
     5
 63
     7
 74
     0
 91
        4
 64
     7
 65
   257
 75
     1
175
     1
 42
1.0
 92
        8
 66
     7
 43
1.0
 76
     1
 77
     6
 78
     2
 67
     7
 79
     5
170
     0
171
     0
290
     0
174
     0
 93
       13
 44
0.0
173
     0
291
     1
 45
0.0
1001
ACAD
1000
AcDbSavedByObjectVersion
1070
     0
1000
AcDbSavedByObjectVersion
1070
     0
1000
AcDbSavedByObjectVersion
1070
     0
1000
AcDbSavedByObjectVersion
1070
     0
1000
AcDbSavedByObjectVersion
1070
     0
1000
AcDbSavedByObjectVersion
1070
     0
1000
AcDbSavedByObjectVersion
1070
     0
1000
AcDbSavedByObjectVersion
1070
     0
1000
AcDbSavedByObjectVersion
1070
     0
1000
AcDbSavedByObjectVersion
1070
     0
1000
AcDbSavedByObjectVersion
1070
     0
1000
AcDbSavedByObjectVersion
1070
     0
1000
AcDbSavedByObjectVersion
1070
     0
1000
AcDbSavedByObjectVersion
1070
     0
1000
AcDbSavedByObjectVersion
1070
     0
1000
AcDbSavedByObjectVersion
1070
     0
1000
AcDbSavedByObjectVersion
1070
     0
1000
AcDbSavedByObjectVersion
1070
     0
1000
AcDbSavedByObjectVersion
1070
     0
1000
AcDbSavedByObjectVersion
1070
     0
1000
AcDbSavedByObjectVersion
1070
     0
1000
AcDbSavedByObjectVersion
1070
     0
1000
AcDbSavedByObjectVersion
1070
     0
1000
AcDbSavedByObjectVersion
1070
     0
1000
AcDbSavedByObjectVersion
1070
     0
1000
AcDbSavedByObjectVersion
1070
     0
1000
AcDbSavedByObjectVersion
1070
     0
1000
AcDbSavedByObjectVersion
1070
     0
1000
AcDbSavedByObjectVersion
1070
     0
1000
AcDbSavedByObjectVersion
1070
     0
1000
AcDbSavedByObjectVersion
1070
     0
1000
AcDbSavedByObjectVersion
1070
     0
1000
AcDbSavedByObjectVersion
1070
     0
1000
AcDbSavedByObjectVersion
1070
     0
1000
AcDbSavedByObjectVersion
1070
     0
1000
AcDbSavedByObjectVersion
1070
     0
1000
AcDbSavedByObjectVersion
1070
     0
1000
AcDbSavedByObjectVersion
1070
     0
1000
AcDbSavedByObjectVersion
1070
     0
1000
AcDbSavedByObjectVersion
1070
     0
1000
AcDbSavedByObjectVersion
1070
     0
  0
VISUALSTYLE
  5
2C
102
{ACAD_REACTORS
330
2A
102
}
330
2A
100
AcDbVisualStyle
  2
FlatWithEdges
 70
     1
 71
     2
 72
     1
 73
     1
 90
        2
 40
-0.6
 41
30.0
 62
     5
 63
     7
 74
     1
 91
        4
 64
     7
 65
   257
 75
     1
175
     1
 42
1.0
 92
        0
 66
   257
 43
1.0
 76
     1
 77
     6
 78
     2
 67
     7
 79
     5
170
     0
171
     0
290
     0
174
     0
 93
       13
 44
0.0
173
     0
291
     1
 45
0.0
1001
ACAD
1000
AcDbSavedByObjectVersion
1070
     0
1000
AcDbSavedByObjectVersion
1070
     0
1000
AcDbSavedByObjectVersion
1070
     0
1000
AcDbSavedByObjectVersion
1070
     0
1000
AcDbSavedByObjectVersion
1070
     0
1000
AcDbSavedByObjectVersion
1070
     0
1000
AcDbSavedByObjectVersion
1070
     0
1000
AcDbSavedByObjectVersion
1070
     0
1000
AcDbSavedByObjectVersion
1070
     0
1000
AcDbSavedByObjectVersion
1070
     0
1000
AcDbSavedByObjectVersion
1070
     0
1000
AcDbSavedByObjectVersion
1070
     0
1000
AcDbSavedByObjectVersion
1070
     0
1000
AcDbSavedByObjectVersion
1070
     0
1000
AcDbSavedByObjectVersion
1070
     0
1000
AcDbSavedByObjectVersion
1070
     0
1000
AcDbSavedByObjectVersion
1070
     0
1000
AcDbSavedByObjectVersion
1070
     0
1000
AcDbSavedByObjectVersion
1070
     0
1000
AcDbSavedByObjectVersion
1070
     0
1000
AcDbSavedByObjectVersion
1070
     0
1000
AcDbSavedByObjectVersion
1070
     0
1000
AcDbSavedByObjectVersion
1070
     0
1000
AcDbSavedByObjectVersion
1070
     0
1000
AcDbSavedByObjectVersion
1070
     0
1000
AcDbSavedByObjectVersion
1070
     0
1000
AcDbSavedByObjectVersion
1070
     0
1000
AcDbSavedByObjectVersion
1070
     0
1000
AcDbSavedByObjectVersion
1070
     0
1000
AcDbSavedByObjectVersion
1070
     0
1000
AcDbSavedByObjectVersion
1070
     0
1000
AcDbSavedByObjectVersion
1070
     0
1000
AcDbSavedByObjectVersion
1070
     0
1000
AcDbSavedByObjectVersion
1070
     0
1000
AcDbSavedByObjectVersion
1070
     0
1000
AcDbSavedByObjectVersion
1070
     0
1000
AcDbSavedByObjectVersion
1070
     0
1000
AcDbSavedByObjectVersion
1070
     0
1000
AcDbSavedByObjectVersion
1070
     0
1000
AcDbSavedByObjectVersion
1070
     0
1000
AcDbSavedByObjectVersion
1070
     0
  0
VISUALSTYLE
  5
2D
102
{ACAD_REACTORS
330
2A
102
}
330
2A
100
AcDbVisualStyle
  2
Gouraud
 70
     2
 71
     2
 72
     2
 73
     1
 90
        2
 40
-0.6
 41
30.0
 62
     5
 63
     7
 74
     0
 91
        4
 64
     7
 65
   257
 75
     1
175
     1
 42
1.0
 92
        0
 66
     7
 43
1.0
 76
     1
 77
     6
 78
     2
 67
     7
 79
     5
170
     0
171
     0
290
     0
174
     0
 93
       13
 44
0.0
173
     0
291
     1
 45
0.0
1001
ACAD
1000
AcDbSavedByObjectVersion
1070
     0
1000
AcDbSavedByObjectVersion
1070
     0
1000
AcDbSavedByObjectVersion
1070
     0
1000
AcDbSavedByObjectVersion
1070
     0
1000
AcDbSavedByObjectVersion
1070
     0
1000
AcDbSavedByObjectVersion
1070
     0
1000
AcDbSavedByObjectVersion
1070
     0
1000
AcDbSavedByObjectVersion
1070
     0
1000
AcDbSavedByObjectVersion
1070
     0
1000
AcDbSavedByObjectVersion
1070
     0
1000
AcDbSavedByObjectVersion
1070
     0
1000
AcDbSavedByObjectVersion
1070
     0
1000
AcDbSavedByObjectVersion
1070
     0
1000
AcDbSavedByObjectVersion
1070
     0
1000
AcDbSavedByObjectVersion
1070
     0
1000
AcDbSavedByObjectVersion
1070
     0
1000
AcDbSavedByObjectVersion
1070
     0
1000
AcDbSavedByObjectVersion
1070
     0
1000
AcDbSavedByObjectVersion
1070
     0
1000
AcDbSavedByObjectVersion
1070
     0
1000
AcDbSavedByObjectVersion
1070
     0
1000
AcDbSavedByObjectVersion
1070
     0
1000
AcDbSavedByObjectVersion
1070
     0
1000
AcDbSavedByObjectVersion
1070
     0
1000
AcDbSavedByObjectVersion
1070
     0
1000
AcDbSavedByObjectVersion
1070
     0
1000
AcDbSavedByObjectVersion
1070
     0
1000
AcDbSavedByObjectVersion
1070
     0
1000
AcDbSavedByObjectVersion
1070
     0
1000
AcDbSavedByObjectVersion
1070
     0
1000
AcDbSavedByObjectVersion
1070
     0
1000
AcDbSavedByObjectVersion
1070
     0
1000
AcDbSavedByObjectVersion
1070
     0
1000
AcDbSavedByObjectVersion
1070
     0
1000
AcDbSavedByObjectVersion
1070
     0
1000
AcDbSavedByObjectVersion
1070
     0
1000
AcDbSavedByObjectVersion
1070
     0
1000
AcDbSavedByObjectVersion
1070
     0
1000
AcDbSavedByObjectVersion
1070
     0
1000
AcDbSavedByObjectVersion
1070
     0
1000
AcDbSavedByObjectVersion
1070
     0
  0
VISUALSTYLE
  5
2E
102
{ACAD_REACTORS
330
2A
102
}
330
2A
100
AcDbVisualStyle
  2
GouraudWithEdges
 70
     3
 71
     2
 72
     2
 73
     1
 90
        2
 40
-0.6
 41
30.0
 62
     5
 63
     7
 74
     1
 91
        4
 64
     7
 65
   257
 75
     1
175
     1
 42
1.0
 92
        0
 66
   257
 43
1.0
 76
     1
 77
     6
 78
     2
 67
     7
 79
     5
170
     0
171
     0
290
     0
174
     0
 93
       13
 44
0.0
173
     0
291
     1
 45
0.0
1001
ACAD
1000
AcDbSavedByObjectVersion
1070
     0
1000
AcDbSavedByObjectVersion
1070
     0
1000
AcDbSavedByObjectVersion
1070
     0
1000
AcDbSavedByObjectVersion
1070
     0
1000
AcDbSavedByObjectVersion
1070
     0
1000
AcDbSavedByObjectVersion
1070
     0
1000
AcDbSavedByObjectVersion
1070
     0
1000
AcDbSavedByObjectVersion
1070
     0
1000
AcDbSavedByObjectVersion
1070
     0
1000
AcDbSavedByObjectVersion
1070
     0
1000
AcDbSavedByObjectVersion
1070
     0
1000
AcDbSavedByObjectVersion
1070
     0
1000
AcDbSavedByObjectVersion
1070
     0
1000
AcDbSavedByObjectVersion
1070
     0
1000
AcDbSavedByObjectVersion
1070
     0
1000
AcDbSavedByObjectVersion
1070
     0
1000
AcDbSavedByObjectVersion
1070
     0
1000
AcDbSavedByObjectVersion
1070
     0
1000
AcDbSavedByObjectVersion
1070
     0
1000
AcDbSavedByObjectVersion
1070
     0
1000
AcDbSavedByObjectVersion
1070
     0
1000
AcDbSavedByObjectVersion
1070
     0
1000
AcDbSavedByObjectVersion
1070
     0
1000
AcDbSavedByObjectVersion
1070
     0
1000
AcDbSavedByObjectVersion
1070
     0
1000
AcDbSavedByObjectVersion
1070
     0
1000
AcDbSavedByObjectVersion
1070
     0
1000
AcDbSavedByObjectVersion
1070
     0
1000
AcDbSavedByObjectVersion
1070
     0
1000
AcDbSavedByObjectVersion
1070
     0
1000
AcDbSavedByObjectVersion
1070
     0
1000
AcDbSavedByObjectVersion
1070
     0
1000
AcDbSavedByObjectVersion
1070
     0
1000
AcDbSavedByObjectVersion
1070
     0
1000
AcDbSavedByObjectVersion
1070
     0
1000
AcDbSavedByObjectVersion
1070
     0
1000
AcDbSavedByObjectVersion
1070
     0
1000
AcDbSavedByObjectVersion
1070
     0
1000
AcDbSavedByObjectVersion
1070
     0
1000
AcDbSavedByObjectVersion
1070
     0
1000
AcDbSavedByObjectVersion
1070
     0
  0
VISUALSTYLE
  5
38
102
{ACAD_REACTORS
330
2A
102
}
330
2A
100
AcDbVisualStyle
  2
Linepattern
 70
    14
 71
     2
 72
     2
 73
     0
 90
        0
 40
-0.6
 41
-30.0
 62
     5
 63
     7
 74
     1
 91
        4
 64
     7
 65
   257
 75
     7
175
     7
 42
1.0
 92
        8
 66
     7
 43
1.0
 76
     1
 77
     6
 78
     2
 67
     7
 79
     5
170
     0
171
     0
290
     0
174
     0
 93
        1
 44
0.0
173
     0
291
     1
 45
0.0
1001
ACAD
1000
AcDbSavedByObjectVersion
1070
     0
1000
AcDbSavedByObjectVersion
1070
     0
1000
AcDbSavedByObjectVersion
1070
     0
1000
AcDbSavedByObjectVersion
1070
     0
1000
AcDbSavedByObjectVersion
1070
     0
1000
AcDbSavedByObjectVersion
1070
     0
1000
AcDbSavedByObjectVersion
1070
     0
1000
AcDbSavedByObjectVersion
1070
     0
1000
AcDbSavedByObjectVersion
1070
     0
1000
AcDbSavedByObjectVersion
1070
     0
1000
AcDbSavedByObjectVersion
1070
     0
1000
AcDbSavedByObjectVersion
1070
     0
1000
AcDbSavedByObjectVersion
1070
     0
1000
AcDbSavedByObjectVersion
1070
     0
1000
AcDbSavedByObjectVersion
1070
     0
1000
AcDbSavedByObjectVersion
1070
     0
1000
AcDbSavedByObjectVersion
1070
     0
1000
AcDbSavedByObjectVersion
1070
     0
1000
AcDbSavedByObjectVersion
1070
     0
1000
AcDbSavedByObjectVersion
1070
     0
1000
AcDbSavedByObjectVersion
1070
     0
1000
AcDbSavedByObjectVersion
1070
     0
1000
AcDbSavedByObjectVersion
1070
     0
1000
AcDbSavedByObjectVersion
1070
     0
1000
AcDbSavedByObjectVersion
1070
     0
1000
AcDbSavedByObjectVersion
1070
     0
1000
AcDbSavedByObjectVersion
1070
     0
1000
AcDbSavedByObjectVersion
1070
     0
1000
AcDbSavedByObjectVersion
1070
     0
1000
AcDbSavedByObjectVersion
1070
     0
1000
AcDbSavedByObjectVersion
1070
     0
1000
AcDbSavedByObjectVersion
1070
     0
1000
AcDbSavedByObjectVersion
1070
     0
1000
AcDbSavedByObjectVersion
1070
     0
1000
AcDbSavedByObjectVersion
1070
     0
1000
AcDbSavedByObjectVersion
1070
     0
1000
AcDbSavedByObjectVersion
1070
     0
1000
AcDbSavedByObjectVersion
1070
     0
1000
AcDbSavedByObjectVersion
1070
     0
1000
AcDbSavedByObjectVersion
1070
     0
1000
AcDbSavedByObjectVersion
1070
     0
  0
VISUALSTYLE
  5
33
102
{ACAD_REACTORS
330
2A
102
}
330
2A
100
AcDbVisualStyle
  2
Realistic
 70
     8
 71
     2
 72
     2
 73
     0
 90
        0
 40
-0.6
 41
-30.0
 62
     5
 63
     7
 74
     1
 91
        0
 64
     7
 65
   257
 75
     1
175
     1
 42
1.0
 92
        8
 66
     8
 43
1.0
 76
     1
 77
     6
 78
     2
 67
     7
 79
     5
170
     0
171
     0
290
     0
174
     0
 93
       13
 44
0.0
173
     0
291
     0
 45
0.0
1001
ACAD
1000
AcDbSavedByObjectVersion
1070
     0
1000
AcDbSavedByObjectVersion
1070
     0
1000
AcDbSavedByObjectVersion
1070
     0
1000
AcDbSavedByObjectVersion
1070
     0
1000
AcDbSavedByObjectVersion
1070
     0
1000
AcDbSavedByObjectVersion
1070
     0
1000
AcDbSavedByObjectVersion
1070
     0
1000
AcDbSavedByObjectVersion
1070
     0
1000
AcDbSavedByObjectVersion
1070
     0
1000
AcDbSavedByObjectVersion
1070
     0
1000
AcDbSavedByObjectVersion
1070
     0
1000
AcDbSavedByObjectVersion
1070
     0
1000
AcDbSavedByObjectVersion
1070
     0
1000
AcDbSavedByObjectVersion
1070
     0
1000
AcDbSavedByObjectVersion
1070
     0
1000
AcDbSavedByObjectVersion
1070
     0
1000
AcDbSavedByObjectVersion
1070
     0
1000
AcDbSavedByObjectVersion
1070
     0
1000
AcDbSavedByObjectVersion
1070
     0
1000
AcDbSavedByObjectVersion
1070
     0
1000
AcDbSavedByObjectVersion
1070
     0
1000
AcDbSavedByObjectVersion
1070
     0
1000
AcDbSavedByObjectVersion
1070
     0
1000
AcDbSavedByObjectVersion
1070
     0
1000
AcDbSavedByObjectVersion
1070
     0
1000
AcDbSavedByObjectVersion
1070
     0
1000
AcDbSavedByObjectVersion
1070
     0
1000
AcDbSavedByObjectVersion
1070
     0
1000
AcDbSavedByObjectVersion
1070
     0
1000
AcDbSavedByObjectVersion
1070
     0
1000
AcDbSavedByObjectVersion
1070
     0
1000
AcDbSavedByObjectVersion
1070
     0
1000
AcDbSavedByObjectVersion
1070
     0
1000
AcDbSavedByObjectVersion
1070
     0
1000
AcDbSavedByObjectVersion
1070
     0
1000
AcDbSavedByObjectVersion
1070
     0
1000
AcDbSavedByObjectVersion
1070
     0
1000
AcDbSavedByObjectVersion
1070
     0
1000
AcDbSavedByObjectVersion
1070
     0
1000
AcDbSavedByObjectVersion
1070
     0
1000
AcDbSavedByObjectVersion
1070
     0
  0
VISUALSTYLE
  5
37
102
{ACAD_REACTORS
330
2A
102
}
330
2A
100
AcDbVisualStyle
  2
Thicken
 70
    13
 71
     2
 72
     2
 73
     0
 90
        0
 40
-0.6
 41
-30.0
 62
     5
 63
     7
 74
     1
 91
        4
 64
     7
 65
   257
 75
     1
175
     1
 42
1.0
 92
       12
 66
     7
 43
1.0
 76
     1
 77
     6
 78
     2
 67
     7
 79
     5
170
     0
171
     0
290
     0
174
     0
 93
        1
 44
0.0
173
     0
291
     1
 45
0.0
1001
ACAD
1000
AcDbSavedByObjectVersion
1070
     0
1000
AcDbSavedByObjectVersion
1070
     0
1000
AcDbSavedByObjectVersion
1070
     0
1000
AcDbSavedByObjectVersion
1070
     0
1000
AcDbSavedByObjectVersion
1070
     0
1000
AcDbSavedByObjectVersion
1070
     0
1000
AcDbSavedByObjectVersion
1070
     0
1000
AcDbSavedByObjectVersion
1070
     0
1000
AcDbSavedByObjectVersion
1070
     0
1000
AcDbSavedByObjectVersion
1070
     0
1000
AcDbSavedByObjectVersion
1070
     0
1000
AcDbSavedByObjectVersion
1070
     0
1000
AcDbSavedByObjectVersion
1070
     0
1000
AcDbSavedByObjectVersion
1070
     0
1000
AcDbSavedByObjectVersion
1070
     0
1000
AcDbSavedByObjectVersion
1070
     0
1000
AcDbSavedByObjectVersion
1070
     0
1000
AcDbSavedByObjectVersion
1070
     0
1000
AcDbSavedByObjectVersion
1070
     0
1000
AcDbSavedByObjectVersion
1070
     0
1000
AcDbSavedByObjectVersion
1070
     0
1000
AcDbSavedByObjectVersion
1070
     0
1000
AcDbSavedByObjectVersion
1070
     0
1000
AcDbSavedByObjectVersion
1070
     0
1000
AcDbSavedByObjectVersion
1070
     0
1000
AcDbSavedByObjectVersion
1070
     0
1000
AcDbSavedByObjectVersion
1070
     0
1000
AcDbSavedByObjectVersion
1070
     0
1000
AcDbSavedByObjectVersion
1070
     0
1000
AcDbSavedByObjectVersion
1070
     0
1000
AcDbSavedByObjectVersion
1070
     0
1000
AcDbSavedByObjectVersion
1070
     0
1000
AcDbSavedByObjectVersion
1070
     0
1000
AcDbSavedByObjectVersion
1070
     0
1000
AcDbSavedByObjectVersion
1070
     0
1000
AcDbSavedByObjectVersion
1070
     0
1000
AcDbSavedByObjectVersion
1070
     0
1000
AcDbSavedByObjectVersion
1070
     0
1000
AcDbSavedByObjectVersion
1070
     0
1000
AcDbSavedByObjectVersion
1070
     0
1000
AcDbSavedByObjectVersion
1070
     0
  0
DICTIONARYVAR
  5
510B
102
{ACAD_REACTORS
330
5108
102
}
330
5108
100
DictionaryVariables
280
     0
  1
1:1
  0
DICTIONARYVAR
  5
510A
102
{ACAD_REACTORS
330
5108
102
}
330
5108
100
DictionaryVariables
280
     0
  1
STANDARD
  0
DICTIONARYVAR
  5
5109
102
{ACAD_REACTORS
330
5108
102
}
330
5108
100
DictionaryVariables
280
     0
  1
STANDARD
  0
DICTIONARYVAR
  5
510E
102
{ACAD_REACTORS
330
5108
102
}
330
5108
100
DictionaryVariables
280
     0
  1
1
  0
DICTIONARYVAR
  5
510D
102
{ACAD_REACTORS
330
5108
102
}
330
5108
100
DictionaryVariables
280
     0
  1
0
  0
DICTIONARYVAR
  5
510C
102
{ACAD_REACTORS
330
5108
102
}
330
5108
100
DictionaryVariables
280
     0
  1
127
  0
XRECORD
  5
11ACF
102
{ACAD_REACTORS
330
11ACE
102
}
330
11ACE
100
AcDbXrecord
280
     1
330
11089
  0
DICTIONARY
  5
12A79
330
1E
100
AcDbDictionary
280
     1
281
     1
  3
ACAD_XREC_ROUNDTRIP
360
12A7A
  0
DICTIONARY
  5
12A7D
330
26
100
AcDbDictionary
280
     1
281
     1
  3
ACAD_XREC_ROUNDTRIP
360
12A7E
  0
DICTIONARY
  5
12A7B
330
22
100
AcDbDictionary
280
     1
281
     1
  3
ACAD_XREC_ROUNDTRIP
360
12A7C
  0
DICTIONARY
  5
4FEF
330
4FEE
100
AcDbDictionary
280
     1
281
     1
  3
ACAD_XREC_ROUNDTRIP
360
7C2C
  3
BUMPTILE
360
4FF1
  3
DIFFUSETILE
360
4FF0
  3
OPACITYTILE
360
4FF4
  3
REFLECTIONTILE
360
4FF3
  3
REFRACTIONTILE
360
4FF5
  3
SPECULARTILE
360
4FF2
  0
DICTIONARY
  5
4FE7
330
4FE6
100
AcDbDictionary
280
     1
281
     1
  3
ACAD_XREC_ROUNDTRIP
360
7C2B
  3
BUMPTILE
360
4FE9
  3
DIFFUSETILE
360
4FE8
  3
OPACITYTILE
360
4FEC
  3
REFLECTIONTILE
360
4FEB
  3
REFRACTIONTILE
360
4FED
  3
SPECULARTILE
360
4FEA
  0
DICTIONARY
  5
4FF7
330
4FF6
100
AcDbDictionary
280
     1
281
     1
  3
ACAD_XREC_ROUNDTRIP
360
7C2D
  3
BUMPTILE
360
4FF9
  3
DIFFUSETILE
360
4FF8
  3
OPACITYTILE
360
4FFC
  3
REFLECTIONTILE
360
4FFB
  3
REFRACTIONTILE
360
4FFD
  3
SPECULARTILE
360
4FFA
  0
DICTIONARY
  5
50D6
330
4FFF
100
AcDbDictionary
280
     1
281
     1
  3
ACAD_ROUNDTRIP_2008_TABLESTYLE_CELLSTYLEMAP
360
12A5B
  3
ACAD_XREC_ROUNDTRIP
360
12A7F
  0
XRECORD
  5
12A7A
102
{ACAD_REACTORS
330
12A79
102
}
330
12A79
100
AcDbXrecord
280
     1
102
SHADEPLOT
 70
     0
102
SHADEPLOTRESLEVEL
 70
     2
102
SHADEPLOTCUSTOMDPI
 70
   300
  0
XRECORD
  5
12A7E
102
{ACAD_REACTORS
330
12A7D
102
}
330
12A7D
100
AcDbXrecord
280
     1
102
SHADEPLOT
 70
     0
102
SHADEPLOTRESLEVEL
 70
     2
102
SHADEPLOTCUSTOMDPI
 70
   300
  0
XRECORD
  5
12A7C
102
{ACAD_REACTORS
330
12A7B
102
}
330
12A7B
100
AcDbXrecord
280
     1
102
SHADEPLOT
 70
     1
102
SHADEPLOTRESLEVEL
 70
     2
102
SHADEPLOTCUSTOMDPI
 70
   300
  0
XRECORD
  5
7C2C
102
{ACAD_REACTORS
330
4FEF
102
}
330
4FEF
100
AcDbXrecord
280
     1
102
MATERIAL
148
0.0
149
0.0
149
0.0
 93
        0
 94
      127
282
     0
 72
     0
 77
     0
171
     0
175
     0
179
     0
273
     0
  0
XRECORD
  5
4FF1
102
{ACAD_REACTORS
330
4FEF
102
}
330
4FEF
100
AcDbXrecord
280
     1
270
     1
271
     1
  0
XRECORD
  5
4FF0
102
{ACAD_REACTORS
330
4FEF
102
}
330
4FEF
100
AcDbXrecord
280
     1
270
     1
271
     1
  0
XRECORD
  5
4FF4
102
{ACAD_REACTORS
330
4FEF
102
}
330
4FEF
100
AcDbXrecord
280
     1
270
     1
271
     1
  0
XRECORD
  5
4FF3
102
{ACAD_REACTORS
330
4FEF
102
}
330
4FEF
100
AcDbXrecord
280
     1
270
     1
271
     1
  0
XRECORD
  5
4FF5
102
{ACAD_REACTORS
330
4FEF
102
}
330
4FEF
100
AcDbXrecord
280
     1
270
     1
271
     1
  0
XRECORD
  5
4FF2
102
{ACAD_REACTORS
330
4FEF
102
}
330
4FEF
100
AcDbXrecord
280
     1
270
     1
271
     1
  0
XRECORD
  5
7C2B
102
{ACAD_REACTORS
330
4FE7
102
}
330
4FE7
100
AcDbXrecord
280
     1
102
MATERIAL
148
0.0
149
0.0
149
0.0
 93
        0
 94
      127
282
     0
 72
     0
 77
     0
171
     0
175
     0
179
     0
273
     0
  0
XRECORD
  5
4FE9
102
{ACAD_REACTORS
330
4FE7
102
}
330
4FE7
100
AcDbXrecord
280
     1
270
     1
271
     1
  0
XRECORD
  5
4FE8
102
{ACAD_REACTORS
330
4FE7
102
}
330
4FE7
100
AcDbXrecord
280
     1
270
     1
271
     1
  0
XRECORD
  5
4FEC
102
{ACAD_REACTORS
330
4FE7
102
}
330
4FE7
100
AcDbXrecord
280
     1
270
     1
271
     1
  0
XRECORD
  5
4FEB
102
{ACAD_REACTORS
330
4FE7
102
}
330
4FE7
100
AcDbXrecord
280
     1
270
     1
271
     1
  0
XRECORD
  5
4FED
102
{ACAD_REACTORS
330
4FE7
102
}
330
4FE7
100
AcDbXrecord
280
     1
270
     1
271
     1
  0
XRECORD
  5
4FEA
102
{ACAD_REACTORS
330
4FE7
102
}
330
4FE7
100
AcDbXrecord
280
     1
270
     1
271
     1
  0
XRECORD
  5
7C2D
102
{ACAD_REACTORS
330
4FF7
102
}
330
4FF7
100
AcDbXrecord
280
     1
102
MATERIAL
148
0.0
149
0.0
149
0.0
 93
        0
 94
      127
282
     0
 72
     0
 77
     0
171
     0
175
     0
179
     0
273
     0
  0
XRECORD
  5
4FF9
102
{ACAD_REACTORS
330
4FF7
102
}
330
4FF7
100
AcDbXrecord
280
     1
270
     1
271
     1
  0
XRECORD
  5
4FF8
102
{ACAD_REACTORS
330
4FF7
102
}
330
4FF7
100
AcDbXrecord
280
     1
270
     1
271
     1
  0
XRECORD
  5
4FFC
102
{ACAD_REACTORS
330
4FF7
102
}
330
4FF7
100
AcDbXrecord
280
     1
270
     1
271
     1
  0
XRECORD
  5
4FFB
102
{ACAD_REACTORS
330
4FF7
102
}
330
4FF7
100
AcDbXrecord
280
     1
270
     1
271
     1
  0
XRECORD
  5
4FFD
102
{ACAD_REACTORS
330
4FF7
102
}
330
4FF7
100
AcDbXrecord
280
     1
270
     1
271
     1
  0
XRECORD
  5
4FFA
102
{ACAD_REACTORS
330
4FF7
102
}
330
4FF7
100
AcDbXrecord
280
     1
270
     1
271
     1
  0
CELLSTYLEMAP
  5
12A5B
102
{ACAD_REACTORS
330
50D6
102
}
330
50D6
100
AcDbCellStyleMap
 90
        3
300
CELLSTYLE
  1
TABLEFORMAT_BEGIN
 90
        5
170
     1
 91
        0
 92
    32768
 62
   257
 93
        1
300
CONTENTFORMAT
  1
CONTENTFORMAT_BEGIN
 90
        0
 91
        0
 92
      512
 93
        0
300

 40
0.0
140
1.0
 94
        5
 62
     0
340
11
144
0.25
309
CONTENTFORMAT_END
171
     1
301
MARGIN
  1
CELLMARGIN_BEGIN
 40
0.06
 40
0.06
 40
0.06
 40
0.06
 40
0.18
 40
0.18
309
CELLMARGIN_END
 94
        6
 95
        1
302
GRIDFORMAT
  1
GRIDFORMAT_BEGIN
 90
        0
 91
        1
 62
     0
 92
       -2
340
0
 93
        0
 40
0.045
309
GRIDFORMAT_END
 95
        2
302
GRIDFORMAT
  1
GRIDFORMAT_BEGIN
 90
        0
 91
        1
 62
     0
 92
       -2
340
0
 93
        0
 40
0.045
309
GRIDFORMAT_END
 95
        4
302
GRIDFORMAT
  1
GRIDFORMAT_BEGIN
 90
        0
 91
        1
 62
     0
 92
       -2
340
0
 93
        0
 40
0.045
309
GRIDFORMAT_END
 95
        8
302
GRIDFORMAT
  1
GRIDFORMAT_BEGIN
 90
        0
 91
        1
 62
     0
 92
       -2
340
0
 93
        0
 40
0.045
309
GRIDFORMAT_END
 95
       16
302
GRIDFORMAT
  1
GRIDFORMAT_BEGIN
 90
        0
 91
        1
 62
     0
 92
       -2
340
0
 93
        0
 40
0.045
309
GRIDFORMAT_END
 95
       32
302
GRIDFORMAT
  1
GRIDFORMAT_BEGIN
 90
        0
 91
        1
 62
     0
 92
       -2
340
0
 93
        0
 40
0.045
309
GRIDFORMAT_END
309
TABLEFORMAT_END
  1
CELLSTYLE_BEGIN
 90
        1
 91
        1
300
_TITLE
309
CELLSTYLE_END
300
CELLSTYLE
  1
TABLEFORMAT_BEGIN
 90
        5
170
     1
 91
        0
 92
        0
 62
   257
 93
        1
300
CONTENTFORMAT
  1
CONTENTFORMAT_BEGIN
 90
        0
 91
        0
 92
      512
 93
        0
300

 40
0.0
140
1.0
 94
        5
 62
     0
340
11
144
0.18
309
CONTENTFORMAT_END
171
     1
301
MARGIN
  1
CELLMARGIN_BEGIN
 40
0.06
 40
0.06
 40
0.06
 40
0.06
 40
0.18
 40
0.18
309
CELLMARGIN_END
 94
        6
 95
        1
302
GRIDFORMAT
  1
GRIDFORMAT_BEGIN
 90
        0
 91
        1
 62
     0
 92
       -2
340
0
 93
        0
 40
0.045
309
GRIDFORMAT_END
 95
        2
302
GRIDFORMAT
  1
GRIDFORMAT_BEGIN
 90
        0
 91
        1
 62
     0
 92
       -2
340
0
 93
        0
 40
0.045
309
GRIDFORMAT_END
 95
        4
302
GRIDFORMAT
  1
GRIDFORMAT_BEGIN
 90
        0
 91
        1
 62
     0
 92
       -2
340
0
 93
        0
 40
0.045
309
GRIDFORMAT_END
 95
        8
302
GRIDFORMAT
  1
GRIDFORMAT_BEGIN
 90
        0
 91
        1
 62
     0
 92
       -2
340
0
 93
        0
 40
0.045
309
GRIDFORMAT_END
 95
       16
302
GRIDFORMAT
  1
GRIDFORMAT_BEGIN
 90
        0
 91
        1
 62
     0
 92
       -2
340
0
 93
        0
 40
0.045
309
GRIDFORMAT_END
 95
       32
302
GRIDFORMAT
  1
GRIDFORMAT_BEGIN
 90
        0
 91
        1
 62
     0
 92
       -2
340
0
 93
        0
 40
0.045
309
GRIDFORMAT_END
309
TABLEFORMAT_END
  1
CELLSTYLE_BEGIN
 90
        2
 91
        1
300
_HEADER
309
CELLSTYLE_END
300
CELLSTYLE
  1
TABLEFORMAT_BEGIN
 90
        5
170
     1
 91
        0
 92
        0
 62
   257
 93
        1
300
CONTENTFORMAT
  1
CONTENTFORMAT_BEGIN
 90
        0
 91
        0
 92
      512
 93
        0
300

 40
0.0
140
1.0
 94
        2
 62
     0
340
11
144
0.18
309
CONTENTFORMAT_END
171
     1
301
MARGIN
  1
CELLMARGIN_BEGIN
 40
0.06
 40
0.06
 40
0.06
 40
0.06
 40
0.18
 40
0.18
309
CELLMARGIN_END
 94
        6
 95
        1
302
GRIDFORMAT
  1
GRIDFORMAT_BEGIN
 90
        0
 91
        1
 62
     0
 92
       -2
340
0
 93
        0
 40
0.045
309
GRIDFORMAT_END
 95
        2
302
GRIDFORMAT
  1
GRIDFORMAT_BEGIN
 90
        0
 91
        1
 62
     0
 92
       -2
340
0
 93
        0
 40
0.045
309
GRIDFORMAT_END
 95
        4
302
GRIDFORMAT
  1
GRIDFORMAT_BEGIN
 90
        0
 91
        1
 62
     0
 92
       -2
340
0
 93
        0
 40
0.045
309
GRIDFORMAT_END
 95
        8
302
GRIDFORMAT
  1
GRIDFORMAT_BEGIN
 90
        0
 91
        1
 62
     0
 92
       -2
340
0
 93
        0
 40
0.045
309
GRIDFORMAT_END
 95
       16
302
GRIDFORMAT
  1
GRIDFORMAT_BEGIN
 90
        0
 91
        1
 62
     0
 92
       -2
340
0
 93
        0
 40
0.045
309
GRIDFORMAT_END
 95
       32
302
GRIDFORMAT
  1
GRIDFORMAT_BEGIN
 90
        0
 91
        1
 62
     0
 92
       -2
340
0
 93
        0
 40
0.045
309
GRIDFORMAT_END
309
TABLEFORMAT_END
  1
CELLSTYLE_BEGIN
 90
        3
 91
        2
300
_DATA
309
CELLSTYLE_END
  0
XRECORD
  5
12A7F
102
{ACAD_REACTORS
330
50D6
102
}
330
50D6
100
AcDbXrecord
280
     1
102
ACAD_ROUNDTRIP_PRE2007_TABLESTYLE
 90
      512
 91
        0
  1

 92
      512
 93
        0
  2

 94
      512
 95
        0
  3

  0
ENDSEC
  0
EOF
