  0
SECTION
  2
HEADER
  9
$ACADVER
  1
AC1015
  9
$ACADMAINTVER
 70
    20
  9
$DWGCODEPAGE
  3
ANSI_936
  9
$INSBASE
 10
0.0
 20
0.0
 30
0.0
  9
$EXTMIN
 10
375.5562134814872
 20
184.529655967694
 30
-0.0015258207003583
  9
$EXTMAX
 10
672.6652799046124
 20
394.5792560126008
 30
0.0000000349246037
  9
$LIMMIN
 10
0.0
 20
0.0
  9
$LIMMAX
 10
12.0
 20
9.0
  9
$ORTHOMODE
 70
     1
  9
$REGENMODE
 70
     1
  9
$FILLMODE
 70
     1
  9
$QTEXTMODE
 70
     0
  9
$MIRRTEXT
 70
     1
  9
$LTSCALE
 40
1.0
  9
$ATTMODE
 70
     1
  9
$TEXTSIZE
 40
0.2
  9
$TRACEWID
 40
0.05
  9
$TEXTSTYLE
  7
Standard
  9
$CLAYER
  8
DIM
  9
$CELTYPE
  6
ByLayer
  9
$CECOLOR
 62
   256
  9
$CELTSCALE
 40
1.0
  9
$DISPSILH
 70
     0
  9
$DIMSCALE
 40
1.0
  9
$DIMASZ
 40
3.0
  9
$DIMEXO
 40
0.2
  9
$DIMDLI
 40
0.2
  9
$DIMRND
 40
0.0
  9
$DIMDLE
 40
0.0
  9
$DIMEXE
 40
1.199999999999999
  9
$DIMTP
 40
0.0
  9
$DIMTM
 40
0.0
  9
$DIMTXT
 40
3.5
  9
$DIMCEN
 40
0.0
  9
$DIMTSZ
 40
0.0
  9
$DIMTOL
 70
     0
  9
$DIMLIM
 70
     0
  9
$DIMTIH
 70
     0
  9
$DIMTOH
 70
     0
  9
$DIMSE1
 70
     0
  9
$DIMSE2
 70
     0
  9
$DIMTAD
 70
     1
  9
$DIMZIN
 70
     8
  9
$DIMBLK
  1

  9
$DIMASO
 70
     1
  9
$DIMSHO
 70
     1
  9
$DIMPOST
  1

  9
$DIMAPOST
  1

  9
$DIMALT
 70
     0
  9
$DIMALTD
 70
     2
  9
$DIMALTF
 40
25.4
  9
$DIMLFAC
 40
1.0
  9
$DIMTOFL
 70
     0
  9
$DIMTVP
 40
0.0
  9
$DIMTIX
 70
     0
  9
$DIMSOXD
 70
     0
  9
$DIMSAH
 70
     0
  9
$DIMBLK1
  1

  9
$DIMBLK2
  1

  9
$DIMSTYLE
  2
01
  9
$DIMCLRD
 70
     1
  9
$DIMCLRE
 70
     6
  9
$DIMCLRT
 70
     4
  9
$DIMTFAC
 40
1.0
  9
$DIMGAP
 40
0.8
  9
$DIMJUST
 70
     0
  9
$DIMSD1
 70
     0
  9
$DIMSD2
 70
     0
  9
$DIMTOLJ
 70
     1
  9
$DIMTZIN
 70
     0
  9
$DIMALTZ
 70
     0
  9
$DIMALTTZ
 70
     0
  9
$DIMUPT
 70
     0
  9
$DIMDEC
 70
     1
  9
$DIMTDEC
 70
     1
  9
$DIMALTU
 70
     2
  9
$DIMALTTD
 70
     2
  9
$DIMTXSTY
  7
Romans字体
  9
$DIMAUNIT
 70
     0
  9
$DIMADEC
 70
     2
  9
$DIMALTRND
 40
0.0
  9
$DIMAZIN
 70
     2
  9
$DIMDSEP
 70
    46
  9
$DIMATFIT
 70
     3
  9
$DIMFRAC
 70
     0
  9
$DIMLDRBLK
  1

  9
$DIMLUNIT
 70
     2
  9
$DIMLWD
 70
    -2
  9
$DIMLWE
 70
    -2
  9
$DIMTMOVE
 70
     0
  9
$LUNITS
 70
     2
  9
$LUPREC
 70
     4
  9
$SKETCHINC
 40
0.1
  9
$FILLETRAD
 40
0.5
  9
$AUNITS
 70
     0
  9
$AUPREC
 70
     0
  9
$MENU
  1
.
  9
$ELEVATION
 40
0.0
  9
$PELEVATION
 40
0.0
  9
$THICKNESS
 40
0.0
  9
$LIMCHECK
 70
     0
  9
$CHAMFERA
 40
0.5
  9
$CHAMFERB
 40
0.5
  9
$CHAMFERC
 40
1.0
  9
$CHAMFERD
 40
0.0
  9
$SKPOLY
 70
     0
  9
$TDCREATE
 40
2456524.383632987
  9
$TDUCREATE
 40
2456524.050299653
  9
$TDUPDATE
 40
2460316.701227025
  9
$TDUUPDATE
 40
2460316.367893693
  9
$TDINDWG
 40
0.8715160648
  9
$TDUSRTIMER
 40
0.8714977662
  9
$USRTIMER
 70
     1
  9
$ANGBASE
 50
0.0
  9
$ANGDIR
 70
     0
  9
$PDMODE
 70
     0
  9
$PDSIZE
 40
0.0
  9
$PLINEWID
 40
0.0
  9
$SPLFRAME
 70
     0
  9
$SPLINETYPE
 70
     6
  9
$SPLINESEGS
 70
     8
  9
$HANDSEED
  5
12508
  9
$SURFTAB1
 70
     6
  9
$SURFTAB2
 70
     6
  9
$SURFTYPE
 70
     6
  9
$SURFU
 70
     6
  9
$SURFV
 70
     6
  9
$UCSBASE
  2

  9
$UCSNAME
  2

  9
$UCSORG
 10
0.0
 20
0.0
 30
0.0
  9
$UCSXDIR
 10
1.0
 20
0.0
 30
0.0
  9
$UCSYDIR
 10
0.0
 20
1.0
 30
0.0
  9
$UCSORTHOREF
  2

  9
$UCSORTHOVIEW
 70
     0
  9
$UCSORGTOP
 10
0.0
 20
0.0
 30
0.0
  9
$UCSORGBOTTOM
 10
0.0
 20
0.0
 30
0.0
  9
$UCSORGLEFT
 10
0.0
 20
0.0
 30
0.0
  9
$UCSORGRIGHT
 10
0.0
 20
0.0
 30
0.0
  9
$UCSORGFRONT
 10
0.0
 20
0.0
 30
0.0
  9
$UCSORGBACK
 10
0.0
 20
0.0
 30
0.0
  9
$PUCSBASE
  2

  9
$PUCSNAME
  2

  9
$PUCSORG
 10
0.0
 20
0.0
 30
0.0
  9
$PUCSXDIR
 10
1.0
 20
0.0
 30
0.0
  9
$PUCSYDIR
 10
0.0
 20
1.0
 30
0.0
  9
$PUCSORTHOREF
  2

  9
$PUCSORTHOVIEW
 70
     0
  9
$PUCSORGTOP
 10
0.0
 20
0.0
 30
0.0
  9
$PUCSORGBOTTOM
 10
0.0
 20
0.0
 30
0.0
  9
$PUCSORGLEFT
 10
0.0
 20
0.0
 30
0.0
  9
$PUCSORGRIGHT
 10
0.0
 20
0.0
 30
0.0
  9
$PUCSORGFRONT
 10
0.0
 20
0.0
 30
0.0
  9
$PUCSORGBACK
 10
0.0
 20
0.0
 30
0.0
  9
$USERI1
 70
     0
  9
$USERI2
 70
     0
  9
$USERI3
 70
     0
  9
$USERI4
 70
     0
  9
$USERI5
 70
     0
  9
$USERR1
 40
0.0
  9
$USERR2
 40
0.0
  9
$USERR3
 40
0.0
  9
$USERR4
 40
0.0
  9
$USERR5
 40
0.0
  9
$WORLDVIEW
 70
     1
  9
$SHADEDGE
 70
     3
  9
$SHADEDIF
 70
    70
  9
$TILEMODE
 70
     1
  9
$MAXACTVP
 70
    64
  9
$PINSBASE
 10
0.0
 20
0.0
 30
0.0
  9
$PLIMCHECK
 70
     0
  9
$PEXTMIN
 10
1.000000000000000E+20
 20
1.000000000000000E+20
 30
1.000000000000000E+20
  9
$PEXTMAX
 10
-1.000000000000000E+20
 20
-1.000000000000000E+20
 30
-1.000000000000000E+20
  9
$PLIMMIN
 10
0.0
 20
0.0
  9
$PLIMMAX
 10
12.0
 20
9.0
  9
$UNITMODE
 70
     0
  9
$VISRETAIN
 70
     1
  9
$PLINEGEN
 70
     0
  9
$PSLTSCALE
 70
     1
  9
$TREEDEPTH
 70
  3020
  9
$CMLSTYLE
  2
Standard
  9
$CMLJUST
 70
     0
  9
$CMLSCALE
 40
1.0
  9
$PROXYGRAPHICS
 70
     1
  9
$MEASUREMENT
 70
     0
  9
$CELWEIGHT
370
    -1
  9
$ENDCAPS
280
     0
  9
$JOINSTYLE
280
     0
  9
$LWDISPLAY
290
     0
  9
$INSUNITS
 70
     4
  9
$HYPERLINKBASE
  1

  9
$STYLESHEET
  1
monochrome.ctb
  9
$XEDIT
290
     1
  9
$CEPSNTYPE
380
     0
  9
$PSTYLEMODE
290
     1
  9
$FINGERPRINTGUID
  2
{4A02065B-8BB3-4A96-9036-502DC906C165}
  9
$VERSIONGUID
  2
{1F0B066A-BE75-44DF-AA21-12294C2C7CDB}
  9
$EXTNAMES
290
     1
  9
$PSVPSCALE
 40
0.0
  9
$OLESTARTUP
290
     0
  0
ENDSEC
  0
SECTION
  2
CLASSES
  0
CLASS
  1
ACDBDICTIONARYWDFLT
  2
AcDbDictionaryWithDefault
  3
ObjectDBX Classes
 90
        0
280
     0
281
     0
  0
CLASS
  1
VISUALSTYLE
  2
AcDbVisualStyle
  3
ObjectDBX Classes
 90
     4095
280
     0
281
     0
  0
CLASS
  1
MATERIAL
  2
AcDbMaterial
  3
ObjectDBX Classes
 90
     1153
280
     0
281
     0
  0
CLASS
  1
TABLESTYLE
  2
AcDbTableStyle
  3
ObjectDBX Classes
 90
     4095
280
     0
281
     0
  0
CLASS
  1
SCALE
  2
AcDbScale
  3
ObjectDBX Classes
 90
     1153
280
     0
281
     0
  0
CLASS
  1
MLEADERSTYLE
  2
AcDbMLeaderStyle
  3
ACDB_MLEADERSTYLE_CLASS
 90
     4095
280
     0
281
     0
  0
CLASS
  1
CELLSTYLEMAP
  2
AcDbCellStyleMap
  3
ObjectDBX Classes
 90
     1152
280
     0
281
     0
  0
CLASS
  1
DICTIONARYVAR
  2
AcDbDictionaryVar
  3
ObjectDBX Classes
 90
        0
280
     0
281
     0
  0
CLASS
  1
SORTENTSTABLE
  2
AcDbSortentsTable
  3
ObjectDBX Classes
 90
        0
280
     0
281
     0
  0
CLASS
  1
ACAD_EVALUATION_GRAPH
  2
AcDbEvalGraph
  3
ObjectDBX Classes
 90
     1153
280
     0
281
     0
  0
CLASS
  1
ACAECUSTOBJ
  2
AcAeEditorObj
  3
AcAeEditorObj
 90
     1024
280
     0
281
     0
  0
CLASS
  1
ACDB_DYNAMICBLOCKPURGEPREVENTER_VERSION
  2
AcDbDynamicBlockPurgePreventer
  3
ObjectDBX Classes
 90
     1153
280
     0
281
     0
  0
CLASS
  1
MENTALRAYRENDERSETTINGS
  2
AcDbMentalRayRenderSettings
  3
SCENEOE
 90
     1024
280
     0
281
     0
  0
CLASS
  1
ACDB_BLOCKREPRESENTATION_DATA
  2
AcDbBlockRepresentationData
  3
ObjectDBX Classes
 90
    33921
280
     0
281
     0
  0
CLASS
  1
ACDBPLACEHOLDER
  2
AcDbPlaceHolder
  3
ObjectDBX Classes
 90
        0
280
     0
281
     0
  0
CLASS
  1
LAYOUT
  2
AcDbLayout
  3
ObjectDBX Classes
 90
        0
280
     0
281
     0
  0
ENDSEC
  0
SECTION
  2
TABLES
  0
TABLE
  2
VPORT
  5
8
102
{ACAD_XDICTIONARY
360
50EE
102
}
330
0
100
AcDbSymbolTable
 70
     1
  0
VPORT
  5
29
330
8
100
AcDbSymbolTableRecord
100
AcDbViewportTableRecord
  2
*Active
 70
     0
 10
0.0
 20
0.0
 11
1.0
 21
1.0
 12
379.4291984327172
 22
130.6297099542855
 13
0.0
 23
0.0
 14
0.5
 24
0.5
 15
0.5
 25
0.5
 16
0.0
 26
0.0
 36
1.0
 17
104.9654968719086
 27
148.5022307685978
 37
0.0
 40
234.6141352485291
 41
2.087847730600292
 42
50.0
 43
0.0
 44
0.0
 50
0.0
 51
0.0
 71
     0
 72
   100
 73
     1
 74
     3
 75
     0
 76
     0
 77
     0
 78
     0
281
     0
 65
     1
110
0.0
120
0.0
130
0.0
111
1.0
121
0.0
131
0.0
112
0.0
122
1.0
132
0.0
 79
     0
146
0.0
  0
ENDTAB
  0
TABLE
  2
LTYPE
  5
5
330
0
100
AcDbSymbolTable
 70
     1
  0
LTYPE
  5
14
330
5
100
AcDbSymbolTableRecord
100
AcDbLinetypeTableRecord
  2
ByBlock
 70
     0
  3

 72
    65
 73
     0
 40
0.0
  0
LTYPE
  5
15
330
5
100
AcDbSymbolTableRecord
100
AcDbLinetypeTableRecord
  2
ByLayer
 70
     0
  3

 72
    65
 73
     0
 40
0.0
  0
LTYPE
  5
16
330
5
100
AcDbSymbolTableRecord
100
AcDbLinetypeTableRecord
  2
Continuous
 70
     0
  3
Solid line
 72
    65
 73
     0
 40
0.0
  0
ENDTAB
  0
TABLE
  2
LAYER
  5
2
102
{ACAD_XDICTIONARY
360
50B8
102
}
330
0
100
AcDbSymbolTable
 70
     6
  0
LAYER
  5
10
102
{ACAD_XDICTIONARY
360
50D0
102
}
330
2
100
AcDbSymbolTableRecord
100
AcDbLayerTableRecord
  2
0
 70
     0
 62
     7
  6
Continuous
370
    30
390
F
  0
LAYER
  5
3B
102
{ACAD_XDICTIONARY
360
50D2
102
}
330
2
100
AcDbSymbolTableRecord
100
AcDbLayerTableRecord
  2
图层 1
 70
     0
 62
     7
  6
Continuous
370
    -3
390
F
  0
LAYER
  5
50AE
102
{ACAD_XDICTIONARY
360
50AF
102
}
330
2
100
AcDbSymbolTableRecord
100
AcDbLayerTableRecord
  2
图框
 70
     0
 62
     7
  6
Continuous
370
    20
390
F
  0
LAYER
  5
5141
330
2
100
AcDbSymbolTableRecord
100
AcDbLayerTableRecord
  2
Defpoints
 70
     0
 62
     7
  6
Continuous
290
     0
370
    -3
390
F
  0
LAYER
  5
5144
330
2
100
AcDbSymbolTableRecord
100
AcDbLayerTableRecord
  2
DIM
 70
     0
 62
     3
  6
Continuous
370
    15
390
F
1001
AcAecLayerStandard
1000

1000

  0
LAYER
  5
52F3
330
2
100
AcDbSymbolTableRecord
100
AcDbLayerTableRecord
  2
打标文字
 70
     0
 62
     3
  6
Continuous
370
    20
390
F
  0
ENDTAB
  0
TABLE
  2
STYLE
  5
3
330
0
100
AcDbSymbolTable
 70
     6
  0
STYLE
  5
11
330
3
100
AcDbSymbolTableRecord
100
AcDbTextStyleTableRecord
  2
Standard
 70
     0
 40
0.0
 41
0.75
 50
0.0
 71
     0
 42
0.2
  3

  4

1001
ACAD
1000
仿宋_GB2312
1071
    34353
  0
STYLE
  5
FD48
330
3
100
AcDbSymbolTableRecord
100
AcDbTextStyleTableRecord
  2
Romans字体
 70
     0
 40
0.0
 41
0.75
 50
0.0
 71
     0
 42
0.2
  3
romans.shx
  4

  0
STYLE
  5
11080
330
3
100
AcDbSymbolTableRecord
100
AcDbTextStyleTableRecord
  2
工程字
 70
     0
 40
0.0
 41
1.0
 50
0.0
 71
     0
 42
3.5
  3
gbenor.shx
  4
gbcbig.shx
  0
STYLE
  5
11081
330
3
100
AcDbSymbolTableRecord
100
AcDbTextStyleTableRecord
  2
Chinese
 70
     0
 40
0.0
 41
1.0
 50
0.0
 71
     0
 42
2.5
  3
PMingLiU.ttf
  4

1001
ACAD
1000
PMingLiU
1071
    34834
  0
STYLE
  5
11C02
330
3
100
AcDbSymbolTableRecord
100
AcDbTextStyleTableRecord
  2
打标文字
 70
     0
 40
2.0
 41
0.8
 50
0.0
 71
     0
 42
1.199999999999999
  3
romans.shx
  4

  0
ENDTAB
  0
TABLE
  2
VIEW
  5
6
330
0
100
AcDbSymbolTable
 70
     0
  0
ENDTAB
  0
TABLE
  2
UCS
  5
7
330
0
100
AcDbSymbolTable
 70
     0
  0
ENDTAB
  0
TABLE
  2
APPID
  5
9
330
0
100
AcDbSymbolTable
 70
    17
  0
APPID
  5
12
330
9
100
AcDbSymbolTableRecord
100
AcDbRegAppTableRecord
  2
ACAD
 70
     0
  0
APPID
  5
5024
330
9
100
AcDbSymbolTableRecord
100
AcDbRegAppTableRecord
  2
ACAD_MLEADERVER
 70
     0
  0
APPID
  5
50B5
330
9
100
AcDbSymbolTableRecord
100
AcDbRegAppTableRecord
  2
AcDbDynamicBlockGUID
 70
     0
  0
APPID
  5
50B6
330
9
100
AcDbSymbolTableRecord
100
AcDbRegAppTableRecord
  2
AcDbBlockRepETag
 70
     0
  0
APPID
  5
50B7
330
9
100
AcDbSymbolTableRecord
100
AcDbRegAppTableRecord
  2
ACAD_PSEXT
 70
     0
  0
APPID
  5
50CF
330
9
100
AcDbSymbolTableRecord
100
AcDbRegAppTableRecord
  2
AcadAnnoPO
 70
     0
  0
APPID
  5
5146
330
9
100
AcDbSymbolTableRecord
100
AcDbRegAppTableRecord
  2
AcAecLayerStandard
 70
     0
  0
APPID
  5
5147
330
9
100
AcDbSymbolTableRecord
100
AcDbRegAppTableRecord
  2
ACAD_DSTYLE_DIMJAG
 70
     0
  0
APPID
  5
5148
330
9
100
AcDbSymbolTableRecord
100
AcDbRegAppTableRecord
  2
ACAD_DSTYLE_DIMTALN
 70
     0
  0
APPID
  5
52AD
330
9
100
AcDbSymbolTableRecord
100
AcDbRegAppTableRecord
  2
ACAUTHENVIRON
 70
     0
  0
APPID
  5
52B0
330
9
100
AcDbSymbolTableRecord
100
AcDbRegAppTableRecord
  2
AcDbDynamicBlockTrueName
 70
     0
  0
APPID
  5
67C6
330
9
100
AcDbSymbolTableRecord
100
AcDbRegAppTableRecord
  2
ACAD_EXEMPT_FROM_CAD_STANDARDS
 70
     0
  0
APPID
  5
6838
330
9
100
AcDbSymbolTableRecord
100
AcDbRegAppTableRecord
  2
ACAD_NAV_VCDISPLAY
 70
     0
  0
APPID
  5
70A9
330
9
100
AcDbSymbolTableRecord
100
AcDbRegAppTableRecord
  2
DCO15
 70
     0
  0
APPID
  5
8725
330
9
100
AcDbSymbolTableRecord
100
AcDbRegAppTableRecord
  2
AcDbBlockRepBTag
 70
     0
  0
APPID
  5
FE64
330
9
100
AcDbSymbolTableRecord
100
AcDbRegAppTableRecord
  2
ACAD_DSTYLE_DIMRADIAL_EXTENSION
 70
     0
  0
APPID
  5
FF93
330
9
100
AcDbSymbolTableRecord
100
AcDbRegAppTableRecord
  2
ACAD_DSTYLE_DIMBREAK
 70
     0
  0
ENDTAB
  0
TABLE
  2
DIMSTYLE
  5
A
330
0
100
AcDbSymbolTable
 70
     3
100
AcDbDimStyleTable
 71
     2
340
5145
340
27
  0
DIMSTYLE
105
27
330
A
100
AcDbSymbolTableRecord
100
AcDbDimStyleTableRecord
  2
Standard
 70
     0
340
11
  0
DIMSTYLE
105
5145
102
{ACAD_REACTORS
330
12001
330
12002
330
12191
102
}
330
A
100
AcDbSymbolTableRecord
100
AcDbDimStyleTableRecord
  2
01
 70
     0
 41
3.0
 42
0.2
 43
0.2
 44
1.199999999999999
 73
     0
 74
     0
 77
     1
 78
     8
 79
     2
140
3.5
141
0.0
147
0.8
176
     1
177
     6
178
     4
179
     2
271
     1
272
     1
340
FD48
1001
ACAD_DSTYLE_DIMJAG
1070
   388
1040
1.5
1001
ACAD_DSTYLE_DIMTALN
1070
   392
1070
     0
  0
ENDTAB
  0
TABLE
  2
BLOCK_RECORD
  5
1
330
0
100
AcDbSymbolTable
 70
     9
  0
BLOCK_RECORD
  5
1F
102
{ACAD_XDICTIONARY
360
67C0
102
}
330
1
100
AcDbSymbolTableRecord
100
AcDbBlockTableRecord
  2
*Model_Space
340
22
  0
BLOCK_RECORD
  5
1B
330
1
100
AcDbSymbolTableRecord
100
AcDbBlockTableRecord
  2
*Paper_Space
340
1E
  0
BLOCK_RECORD
  5
23
330
1
100
AcDbSymbolTableRecord
100
AcDbBlockTableRecord
  2
*Paper_Space0
340
26
  0
BLOCK_RECORD
  5
10FE8
102
{ACAD_XDICTIONARY
360
124B1
102
}
330
1
100
AcDbSymbolTableRecord
100
AcDbBlockTableRecord
  2
A4图框-NEW
340
0
310
2800000020000000200000000100080000000000000400000000000000000000000000000000000000000000000080000080000000808000800000008000800080800000C0C0C000C0DCC000F0CAA6000020400000206000002080000020A0000020C0000020E00000400000004020000040400000406000004080000040A0
310
000040C0000040E00000600000006020000060400000606000006080000060A0000060C0000060E00000800000008020000080400000806000008080000080A0000080C0000080E00000A0000000A0200000A0400000A0600000A0800000A0A00000A0C00000A0E00000C0000000C0200000C0400000C0600000C0800000C0
310
A00000C0C00000C0E00000E0000000E0200000E0400000E0600000E0800000E0A00000E0C00000E0E00040000000400020004000400040006000400080004000A0004000C0004000E00040200000402020004020400040206000402080004020A0004020C0004020E000404000004040200040404000404060004040800040
310
40A0004040C0004040E00040600000406020004060400040606000406080004060A0004060C0004060E00040800000408020004080400040806000408080004080A0004080C0004080E00040A0000040A0200040A0400040A0600040A0800040A0A00040A0C00040A0E00040C0000040C0200040C0400040C0600040C08000
310
40C0A00040C0C00040C0E00040E0000040E0200040E0400040E0600040E0800040E0A00040E0C00040E0E00080000000800020008000400080006000800080008000A0008000C0008000E00080200000802020008020400080206000802080008020A0008020C0008020E00080400000804020008040400080406000804080
310
008040A0008040C0008040E00080600000806020008060400080606000806080008060A0008060C0008060E00080800000808020008080400080806000808080008080A0008080C0008080E00080A0000080A0200080A0400080A0600080A0800080A0A00080A0C00080A0E00080C0000080C0200080C0400080C0600080C0
310
800080C0A00080C0C00080C0E00080E0000080E0200080E0400080E0600080E0800080E0A00080E0C00080E0E000C0000000C0002000C0004000C0006000C0008000C000A000C000C000C000E000C0200000C0202000C0204000C0206000C0208000C020A000C020C000C020E000C0400000C0402000C0404000C0406000C0
310
408000C040A000C040C000C040E000C0600000C0602000C0604000C0606000C0608000C060A000C060C000C060E000C0800000C0802000C0804000C0806000C0808000C080A000C080C000C080E000C0A00000C0A02000C0A04000C0A06000C0A08000C0A0A000C0A0C000C0A0E000C0C00000C0C02000C0C04000C0C06000
310
C0C08000C0C0A000F0FBFF00A4A0A000808080000000FF0000FF000000FFFF00FF000000FF00FF00FFFF0000FFFFFF0000000000000000000000000000000000000000000000000000000000000000000000000000000000000000000000000000000000000000000000000000000000000000000000000000000000000000
310
000000000000000000000000000000000000000000000000000000000000000000000000000000000000000000000000000000000000000000000000000000000000000000000000000000000000000000000000000000000000000000000000000000000000000000000000000000000000F9F9F9F9F9F9F9F9F9F9F9F9F9
310
F9F9F9F9F9F9F9F9F9F9F9F9F9F9FF00000000F9FF000000000000000000FFFFFFFFFFFFFFFFFFFFFFFFF9FAFAFAFF00000000F9FF000000000000000000FFFFFFFFFFFFFFFFFFFFFFFFFFFFFFFFFF00000000F9FD000000000000000000FFFFFFFFFFFFFFFFFFFFFFFFFFFFFFFFFF00000000F9FF000000000000000000FF
310
FFFFFFFFFFFFFFFFFFFFFFFFFFFFFFFF00000000F9FD000000000000000000FFFFFFFFFFFFFFFFFFFFFFFFFFFFFFFFFF00000000F9FF00000000000000000000000000000000000000000000000000FF00000000F9FD00000000000000000000000000000000000000000000000000FF00000000F9FF000000000000000000
310
00000000000000000000000000000000FF00000000F9FD00000000000000000000000000000000000000000000000000FF00000000F9FF00000000000000000000000000000000000000000000000000FF00000000F9FD00000000000000000000000000000000000000000000000000FF00000000F9FD0000000000000000
310
0000000000000000000000000000000000FF00000000F9FF00000000000000000000000000000000000000000000000000FF00000000F9FD00000000000000000000000000000000000000000000000000FF00000000F9FF00000000000000000000000000000000000000000000000000FF00000000F9FD00000000000000
310
000000000000000000000000000000000000FF00000000F9FF00000000000000000000000000000000000000000000000000FF00000000F9FFFFFFFFFFFFFFFFFFFFFFFFFFFFFFFFFFFFFFFFFFFFFFFFFFFFFF00000000F9FFFFFFF9F9F9F9F9F9F9F9F9F9F9F9F9F9F9F9F9F9F9F9F9F9F9F9000000000000000000000000
310
00000000000000000000000000000000000000000000000000000000000000000000000000000000000000000000000000000000000000000000000000000000000000000000000000000000000000000000000000000000000000000000000000000000000000000000000000000000000000000000000000000000000000
310
0000000000000000000000000000000000000000000000000000000000000000000000000000000000000000000000000000000000000000
102
{BLKREFS
331
11089
102
}
1001
AcDbDynamicBlockGUID
1000
{F6CDC941-D62D-4A6E-9887-6FCBBC0762EB}
1001
AcDbBlockRepETag
1070
     1
1071
      148
1001
ACAD
1000
DesignCenter Data
1002
{
1070
     1
1070
     4
1002
}
  0
BLOCK_RECORD
  5
12004
330
1
100
AcDbSymbolTableRecord
100
AcDbBlockTableRecord
  2
*D2
340
0
  0
BLOCK_RECORD
  5
12010
330
1
100
AcDbSymbolTableRecord
100
AcDbBlockTableRecord
  2
*D3
340
0
  0
BLOCK_RECORD
  5
1201C
330
1
100
AcDbSymbolTableRecord
100
AcDbBlockTableRecord
  2
*D4
340
0
  0
BLOCK_RECORD
  5
1217C
330
1
100
AcDbSymbolTableRecord
100
AcDbBlockTableRecord
  2
*D5
340
0
  0
BLOCK_RECORD
  5
12192
330
1
100
AcDbSymbolTableRecord
100
AcDbBlockTableRecord
  2
*D6
340
0
  0
ENDTAB
  0
ENDSEC
  0
SECTION
  2
BLOCKS
  0
BLOCK
  5
20
330
1F
100
AcDbEntity
  8
0
100
AcDbBlockBegin
  2
*Model_Space
 70
     0
 10
0.0
 20
0.0
 30
0.0
  3
*Model_Space
  1

  0
ENDBLK
  5
21
330
1F
100
AcDbEntity
  8
0
100
AcDbBlockEnd
  0
BLOCK
  5
1C
330
1B
100
AcDbEntity
 67
     1
  8
0
100
AcDbBlockBegin
  2
*Paper_Space
 70
     0
 10
0.0
 20
0.0
 30
0.0
  3
*Paper_Space
  1

  0
ENDBLK
  5
1D
330
1B
100
AcDbEntity
 67
     1
  8
0
100
AcDbBlockEnd
  0
BLOCK
  5
24
330
23
100
AcDbEntity
 67
     1
  8
0
100
AcDbBlockBegin
  2
*Paper_Space0
 70
     0
 10
0.0
 20
0.0
 30
0.0
  3
*Paper_Space0
  1

  0
ENDBLK
  5
25
330
23
100
AcDbEntity
 67
     1
  8
0
100
AcDbBlockEnd
  0
BLOCK
  5
10FEA
330
10FE8
100
AcDbEntity
  8
0
100
AcDbBlockBegin
  2
A4图框-NEW
 70
     0
 10
0.0
 20
0.0
 30
0.0
  3
A4图框-NEW
  1

  0
MTEXT
  5
1241D
102
{ACAD_XDICTIONARY
360
124C2
102
}
330
10FE8
100
AcDbEntity
  8
图框
 62
     3
100
AcDbMText
 10
967.6594956750133
 20
499.7664151964293
 30
0.0
 40
2.985513575034151
 41
15.50176341157864
 71
     5
 72
     5
  1
BQ LUO
  7
Romans字体
 73
     1
 44
1.0
1001
AcDbBlockRepETag
1070
     1
1071
        0
1005
1241D
1001
ACAD
1000
MTEXTBEGIN
1070
    73
1070
     1
1070
    44
1040
1.0
1070
    74
1070
     0
1000
MTEXTEND
1000
ACAD_MTEXT_DEFINED_HEIGHT_BEGIN
1070
    46
1040
6.292658374511018
1000
ACAD_MTEXT_DEFINED_HEIGHT_END
  0
MTEXT
  5
1241E
330
10FE8
100
AcDbEntity
  8
图框
 62
     3
100
AcDbMText
 10
983.041569333247
 20
499.7664151964293
 30
0.0
 40
2.487927979195124
 41
15.26238390489051
 71
     5
 72
     5
  1
{\W0.7;18.10.2010}
  7
Romans字体
 73
     1
 44
1.0
1001
AcDbBlockRepETag
1070
     1
1071
        1
1005
1241E
1001
ACAD
1000
MTEXTBEGIN
1070
    73
1070
     1
1070
    44
1040
1.0
1070
    74
1070
     0
1000
MTEXTEND
1000
ACAD_MTEXT_DEFINED_HEIGHT_BEGIN
1070
    46
1040
6.292658374511042
1000
ACAD_MTEXT_DEFINED_HEIGHT_END
  0
MTEXT
  5
1241F
330
10FE8
100
AcDbEntity
  8
图框
 62
     3
100
AcDbMText
 10
1012.477254728976
 20
487.1810984474071
 30
0.0
 40
2.985513575034151
 41
17.64876416884615
 71
     5
 72
     5
  1
YY LIN
  7
Romans字体
 73
     1
 44
1.0
1001
AcDbBlockRepETag
1070
     1
1071
        2
1005
1241F
1001
ACAD
1000
MTEXTBEGIN
1070
    73
1070
     1
1070
    44
1040
1.0
1070
    74
1070
     0
1000
MTEXTEND
1000
ACAD_MTEXT_DEFINED_HEIGHT_BEGIN
1070
    46
1040
6.292658374511455
1000
ACAD_MTEXT_DEFINED_HEIGHT_END
  0
MTEXT
  5
12420
330
10FE8
100
AcDbEntity
  8
图框
 62
     3
100
AcDbMText
 10
1028.977802139886
 20
487.1810984474071
 30
0.0
 40
2.487927979195124
 41
15.35233065297276
 71
     5
 72
     5
  1
{\W0.7;18.10.2010}
  7
Romans字体
 73
     1
 44
1.0
1001
AcDbBlockRepETag
1070
     1
1071
        3
1005
12420
1001
ACAD
1000
MTEXTBEGIN
1070
    73
1070
     1
1070
    44
1040
1.0
1070
    74
1070
     0
1000
MTEXTEND
1000
ACAD_MTEXT_DEFINED_HEIGHT_BEGIN
1070
    46
1040
6.292658374511495
1000
ACAD_MTEXT_DEFINED_HEIGHT_END
  0
MTEXT
  5
12421
330
10FE8
100
AcDbEntity
  8
图框
 62
     3
100
AcDbMText
 10
1063.722665487208
 20
525.4145966538831
 30
0.0
 40
2.985513575034151
 41
32.4973914334545
 71
     5
 72
     5
  1
-
  7
Romans字体
 73
     1
 44
1.0
1001
AcDbBlockRepETag
1070
     1
1071
        4
1005
12421
1001
ACAD
1000
MTEXTBEGIN
1070
    73
1070
     1
1070
    44
1040
1.0
1070
    74
1070
     0
1000
MTEXTEND
1000
ACAD_MTEXT_DEFINED_HEIGHT_BEGIN
1070
    46
1040
11.82914190181707
1000
ACAD_MTEXT_DEFINED_HEIGHT_END
  0
MTEXT
  5
12422
330
10FE8
100
AcDbEntity
  8
图框
 62
     3
100
AcDbMText
 10
1063.727338552349
 20
513.5854547520641
 30
0.0
 40
2.985513575034151
 41
32.48804530317308
 71
     5
 72
     5
  1
-
  7
Romans字体
 73
     1
 44
1.0
1001
AcDbBlockRepETag
1070
     1
1071
        5
1005
12422
1001
ACAD
1000
MTEXTBEGIN
1070
    73
1070
     1
1070
    44
1040
1.0
1070
    74
1070
     0
1000
MTEXTEND
1000
ACAD_MTEXT_DEFINED_HEIGHT_BEGIN
1070
    46
1040
11.82914190182139
1000
ACAD_MTEXT_DEFINED_HEIGHT_END
  0
MTEXT
  5
12423
330
10FE8
100
AcDbEntity
  8
图框
 62
     3
100
AcDbMText
 10
1110.122306614152
 20
526.8006839312707
 30
0.0
 40
2.985513575034151
 41
33.61239199242139
 71
     5
 72
     5
  1
-
  7
Romans字体
 73
     1
 44
1.0
1001
AcDbBlockRepETag
1070
     1
1071
        6
1005
12423
1001
ACAD
1000
MTEXTBEGIN
1070
    73
1070
     1
1070
    44
1040
1.0
1070
    74
1070
     0
1000
MTEXTEND
1000
ACAD_MTEXT_DEFINED_HEIGHT_BEGIN
1070
    46
1040
9.05696734704178
1000
ACAD_MTEXT_DEFINED_HEIGHT_END
  0
MTEXT
  5
12424
330
10FE8
100
AcDbEntity
  8
图框
 62
     3
100
AcDbMText
 10
1110.122306614152
 20
500.2775205517162
 30
0.0
 40
2.985513575034151
 41
33.61239199242139
 71
     5
 72
     5
  1
-
  7
Romans字体
 73
     1
 44
1.0
1001
AcDbBlockRepETag
1070
     1
1071
        7
1005
12424
1001
ACAD
1000
MTEXTBEGIN
1070
    73
1070
     1
1070
    44
1040
1.0
1070
    74
1070
     0
1000
MTEXTEND
1000
ACAD_MTEXT_DEFINED_HEIGHT_BEGIN
1070
    46
1040
8.871557304763419
1000
ACAD_MTEXT_DEFINED_HEIGHT_END
  0
MTEXT
  5
12425
330
10FE8
100
AcDbEntity
  8
图框
 62
     3
100
AcDbMText
 10
967.6594956750133
 20
493.4737568219182
 30
0.0
 40
2.985513575034151
 41
15.50176341157864
 71
     5
 72
     5
  1
P RAO
  7
Romans字体
 73
     1
 44
1.0
1001
AcDbBlockRepETag
1070
     1
1071
        8
1005
12425
1001
ACAD
1000
MTEXTBEGIN
1070
    73
1070
     1
1070
    44
1040
1.0
1070
    74
1070
     0
1000
MTEXTEND
1000
ACAD_MTEXT_DEFINED_HEIGHT_BEGIN
1070
    46
1040
6.292658374510335
1000
ACAD_MTEXT_DEFINED_HEIGHT_END
  0
MTEXT
  5
12426
330
10FE8
100
AcDbEntity
  8
图框
 62
     3
100
AcDbMText
 10
983.041569333247
 20
493.2441970450405
 30
0.0
 40
2.487927979195124
 41
15.26238390489051
 71
     5
 72
     5
  1
{\W0.7;18.10.2010}
  7
Romans字体
 73
     1
 44
1.0
1001
AcDbBlockRepETag
1070
     1
1071
        9
1005
12426
1001
ACAD
1000
MTEXTBEGIN
1070
    73
1070
     1
1070
    44
1040
1.0
1070
    74
1070
     0
1000
MTEXTEND
1000
ACAD_MTEXT_DEFINED_HEIGHT_BEGIN
1070
    46
1040
6.751777928266487
1000
ACAD_MTEXT_DEFINED_HEIGHT_END
  0
MTEXT
  5
12427
330
10FE8
100
AcDbEntity
  8
图框
 62
     3
100
AcDbMText
 10
1012.477254728976
 20
499.7664151964291
 30
0.0
 40
2.985513575034151
 41
17.64876416884615
 71
     5
 72
     5
  1
-
  7
Romans字体
 73
     1
 44
1.0
1001
AcDbBlockRepETag
1070
     1
1071
       10
1005
12427
1001
ACAD
1000
MTEXTBEGIN
1070
    73
1070
     1
1070
    44
1040
1.0
1070
    74
1070
     0
1000
MTEXTEND
1000
ACAD_MTEXT_DEFINED_HEIGHT_BEGIN
1070
    46
1040
6.292658374511397
1000
ACAD_MTEXT_DEFINED_HEIGHT_END
  0
MTEXT
  5
12428
330
10FE8
100
AcDbEntity
  8
图框
 62
     3
100
AcDbMText
 10
1028.977802139886
 20
499.7664151964289
 30
0.0
 40
2.487927979195124
 41
15.35233065297265
 71
     5
 72
     5
  1
-
  7
Romans字体
 73
     1
 44
1.0
1001
AcDbBlockRepETag
1070
     1
1071
       11
1005
12428
1001
ACAD
1000
MTEXTBEGIN
1070
    73
1070
     1
1070
    44
1040
1.0
1070
    74
1070
     0
1000
MTEXTEND
1000
ACAD_MTEXT_DEFINED_HEIGHT_BEGIN
1070
    46
1040
6.292658374511382
1000
ACAD_MTEXT_DEFINED_HEIGHT_END
  0
MTEXT
  5
12429
330
10FE8
100
AcDbEntity
  8
图框
 62
     3
100
AcDbMText
 10
967.6594956750133
 20
487.1810984474071
 30
0.0
 40
2.985513575034151
 41
15.50176341157863
 71
     5
 72
     5
  1
-
  7
Romans字体
 73
     1
 44
1.0
1001
AcDbBlockRepETag
1070
     1
1071
       12
1005
12429
1001
ACAD
1000
MTEXTBEGIN
1070
    73
1070
     1
1070
    44
1040
1.0
1070
    74
1070
     0
1000
MTEXTEND
1000
ACAD_MTEXT_DEFINED_HEIGHT_BEGIN
1070
    46
1040
6.292658374511478
1000
ACAD_MTEXT_DEFINED_HEIGHT_END
  0
MTEXT
  5
1242A
330
10FE8
100
AcDbEntity
  8
图框
 62
     3
100
AcDbMText
 10
983.041569333247
 20
487.1810984474071
 30
0.0
 40
2.487927979195124
 41
15.26238390489062
 71
     5
 72
     5
  1
-
  7
Romans字体
 73
     1
 44
1.0
1001
AcDbBlockRepETag
1070
     1
1071
       13
1005
1242A
1001
ACAD
1000
MTEXTBEGIN
1070
    73
1070
     1
1070
    44
1040
1.0
1070
    74
1070
     0
1000
MTEXTEND
1000
ACAD_MTEXT_DEFINED_HEIGHT_BEGIN
1070
    46
1040
6.292658374511495
1000
ACAD_MTEXT_DEFINED_HEIGHT_END
  0
MTEXT
  5
1242B
330
10FE8
100
AcDbEntity
  8
图框
 62
     3
100
AcDbMText
 10
1074.556686986741
 20
495.8417418993361
 30
0.0
 40
2.985513575034151
 41
10.82934843438978
 71
     5
 72
     5
  1
-
  7
Romans字体
 73
     1
 44
1.0
1001
AcDbBlockRepETag
1070
     1
1071
       14
1005
1242B
1001
ACAD
1000
MTEXTBEGIN
1070
    73
1070
     1
1070
    44
1040
1.0
1070
    74
1070
     0
1000
MTEXTEND
1000
ACAD_MTEXT_DEFINED_HEIGHT_BEGIN
1070
    46
1040
7.886094601210427
1000
ACAD_MTEXT_DEFINED_HEIGHT_END
  0
LINE
  5
1242C
330
10FE8
100
AcDbEntity
  8
图框
370
    -3
100
AcDbLine
 10
1036.653967466372
 20
499.7847891999413
 30
0.0
 11
1079.971361203936
 21
499.7847891999413
 31
0.0
1001
AcDbBlockRepETag
1070
     1
1071
       15
1005
1242C
  0
MTEXT
  5
1242D
330
10FE8
100
AcDbEntity
  8
图框
 62
     1
370
    20
100
AcDbMText
 10
1108.26336443907
 20
491.5162596080882
 30
0.0
 40
2.699054613030988
 41
82.30831305643079
 71
     5
 72
     5
  1
{\fSimHei|b0|i0|c134|p2;厦门唯恩电气有限公司}
 73
     1
 44
1.0
1001
AcDbBlockRepETag
1070
     1
1071
       16
1005
1242D
1001
ACAD
1000
MTEXTBEGIN
1070
    73
1070
     1
1070
    44
1040
1.0
1070
    74
1070
     0
1000
MTEXTEND
  0
MTEXT
  5
1242E
330
10FE8
100
AcDbEntity
  8
图框
 62
     3
370
    20
100
AcDbMText
 10
1108.435451459908
 20
487.298967726064
 30
0.0
 40
1.652482416141417
 41
68.08558693693567
 71
     5
 72
     5
  1
{\fArial Narrow|b0|i0|c0|p34;XIAMEN WAIN ELECTRICAL CO.LTD}
  7
工程字
 73
     1
 44
1.0
1001
AcDbBlockRepETag
1070
     1
1071
       17
1005
1242E
1001
ACAD
1000
MTEXTBEGIN
1070
    73
1070
     1
1070
    44
1040
1.0
1070
    74
1070
     0
1000
MTEXTEND
  0
MTEXT
  5
1242F
330
10FE8
100
AcDbEntity
  8
图框
 62
     1
370
    20
100
AcDbMText
 10
1085.711816899387
 20
491.0944802995856
 30
0.0
 40
2.005930044038334
 41
5.047240019334847
 71
     1
 72
     5
  1
{\fArial|b0|i0|c0|p34;A}
  7
Chinese
 73
     1
 44
1.0
1001
AcDbBlockRepETag
1070
     1
1071
       18
1005
1242F
1001
ACAD
1000
MTEXTBEGIN
1070
    73
1070
     1
1070
    44
1040
1.0
1070
    74
1070
     0
1000
MTEXTEND
  0
MTEXT
  5
12430
330
10FE8
100
AcDbEntity
  8
图框
 62
     1
370
    20
100
AcDbMText
 10
1088.213485935716
 20
491.0944802995856
 30
0.0
 40
2.005930044038334
 41
5.047240019334847
 71
     1
 72
     5
  1
{\fArial|b0|i0|c0|p34;I}
  7
Chinese
 73
     1
 44
1.0
1001
AcDbBlockRepETag
1070
     1
1071
       19
1005
12430
1001
ACAD
1000
MTEXTBEGIN
1070
    73
1070
     1
1070
    44
1040
1.0
1070
    74
1070
     0
1000
MTEXTEND
  0
MTEXT
  5
12431
330
10FE8
100
AcDbEntity
  8
图框
 62
     1
370
    20
100
AcDbMText
 10
1089.142375222864
 20
491.0822866326808
 30
0.0
 40
2.005930044038334
 41
5.047240019334847
 71
     1
 72
     5
  1
{\fArial|b0|i0|c0|p34;N}
  7
Chinese
 73
     1
 44
1.0
1001
AcDbBlockRepETag
1070
     1
1071
       20
1005
12431
1001
ACAD
1000
MTEXTBEGIN
1070
    73
1070
     1
1070
    44
1040
1.0
1070
    74
1070
     0
1000
MTEXTEND
  0
MTEXT
  5
12432
330
10FE8
100
AcDbEntity
  8
图框
100
AcDbMText
 10
1069.142012769545
 20
487.9667319294409
 30
0.0
 40
2.252848170144607
 41
21.65869686878327
 71
     5
 72
     5
  1
{\W0.5;\C1;All Dimensions in mm\POriginal Size DIN A 4}
  7
Romans字体
 73
     1
 44
1.0
1001
AcDbBlockRepETag
1070
     1
1071
       21
1005
12432
1001
ACAD
1000
MTEXTBEGIN
1070
    73
1070
     1
1070
    44
1040
1.0
1070
    74
1070
     0
1000
MTEXTEND
1000
ACAD_MTEXT_DEFINED_HEIGHT_BEGIN
1070
    46
1040
7.863925338579296
1000
ACAD_MTEXT_DEFINED_HEIGHT_END
  0
MTEXT
  5
12433
330
10FE8
100
AcDbEntity
  8
图框
  6
ByBlock
 62
     6
370
    18
100
AcDbMText
 10
1127.40434942308
 20
508.7896535755975
 30
0.0
 40
2.651776162684904
 41
2.557913877927211
 71
     1
 72
     5
  1
A
  7
Romans字体
 11
0.0000000000000001
 21
1.0
 31
0.0
 73
     1
 44
1.0
1001
AcDbBlockRepETag
1070
     1
1071
       22
1005
12433
1001
ACAD
1000
MTEXTBEGIN
1070
    73
1070
     1
1070
    44
1040
1.0
1070
    74
1070
     0
1000
MTEXTEND
  0
MTEXT
  5
12434
330
10FE8
100
AcDbEntity
  8
图框
 62
     6
100
AcDbMText
 10
1127.40434942308
 20
556.3746573232886
 30
0.0
 40
2.651776162684904
 41
2.557913877927211
 71
     1
 72
     5
  1
B
  7
Romans字体
 11
0.0000000000000001
 21
1.0
 31
0.0
 73
     1
 44
1.0
1001
AcDbBlockRepETag
1070
     1
1071
       23
1005
12434
1001
ACAD
1000
MTEXTBEGIN
1070
    73
1070
     1
1070
    44
1040
1.0
1070
    74
1070
     0
1000
MTEXTEND
  0
MTEXT
  5
12435
330
10FE8
100
AcDbEntity
  8
图框
 62
     6
100
AcDbMText
 10
1127.40434942308
 20
607.5539372630998
 30
0.0
 40
2.651776162684904
 41
2.557913877927211
 71
     1
 72
     5
  1
C
  7
Romans字体
 11
0.0000000000000001
 21
1.0
 31
0.0
 73
     1
 44
1.0
1001
AcDbBlockRepETag
1070
     1
1071
       24
1005
12435
1001
ACAD
1000
MTEXTBEGIN
1070
    73
1070
     1
1070
    44
1040
1.0
1070
    74
1070
     0
1000
MTEXTEND
  0
MTEXT
  5
12436
330
10FE8
100
AcDbEntity
  8
图框
 62
     6
100
AcDbMText
 10
1127.40434942308
 20
658.7332172029115
 30
0.0
 40
2.651776162684904
 41
2.557913877927211
 71
     1
 72
     5
  1
D
  7
Romans字体
 11
0.0000000000000001
 21
1.0
 31
0.0
 73
     1
 44
1.0
1001
AcDbBlockRepETag
1070
     1
1071
       25
1005
12436
1001
ACAD
1000
MTEXTBEGIN
1070
    73
1070
     1
1070
    44
1040
1.0
1070
    74
1070
     0
1000
MTEXTEND
  0
LINE
  5
12437
330
10FE8
100
AcDbEntity
  8
图框
 62
     6
100
AcDbLine
 10
1130.411601781241
 20
634.0726090796082
 30
0.0
 11
1126.928502610363
 21
634.0726090796082
 31
0.0
1001
AcDbBlockRepETag
1070
     1
1071
       26
1005
12437
  0
LINE
  5
12438
330
10FE8
100
AcDbEntity
  8
图框
 62
     6
100
AcDbLine
 10
1130.411601781241
 20
582.89332913979
 30
0.0
 11
1126.928502610363
 21
582.89332913979
 31
0.0
1001
AcDbBlockRepETag
1070
     1
1071
       27
1005
12438
  0
MTEXT
  5
12439
330
10FE8
100
AcDbEntity
  8
图框
 62
     6
100
AcDbMText
 10
1105.329704038389
 20
483.6164543011163
 30
0.0
 40
2.651776162684904
 41
2.557913877927211
 71
     1
 72
     5
  1
6
  7
Romans字体
 73
     1
 44
1.0
1001
AcDbBlockRepETag
1070
     1
1071
       28
1005
12439
1001
ACAD
1000
MTEXTBEGIN
1070
    73
1070
     1
1070
    44
1040
1.0
1070
    74
1070
     0
1000
MTEXTEND
  0
LINE
  5
1243A
330
10FE8
100
AcDbEntity
  8
图框
 62
     6
100
AcDbLine
 10
1081.088565155284
 20
484.0347692601515
 30
0.0
 11
1081.088565155284
 21
480.5347692601475
 31
0.0
1001
AcDbBlockRepETag
1070
     1
1071
       29
1005
1243A
  0
MTEXT
  5
1243B
330
10FE8
100
AcDbEntity
  8
图框
 62
     6
100
AcDbMText
 10
1055.900596365941
 20
483.520053108993
 30
0.0
 40
2.651776162684904
 41
2.557913877927211
 71
     1
 72
     5
  1
5
  7
Romans字体
 73
     1
 44
1.0
1001
AcDbBlockRepETag
1070
     1
1071
       30
1005
1243B
1001
ACAD
1000
MTEXTBEGIN
1070
    73
1070
     1
1070
    44
1040
1.0
1070
    74
1070
     0
1000
MTEXTEND
  0
LINE
  5
1243C
330
10FE8
100
AcDbEntity
  8
图框
 62
     6
100
AcDbLine
 10
1031.553386436349
 20
484.0347692601515
 30
0.0
 11
1031.553386436349
 21
480.5347692601475
 31
0.0
1001
AcDbBlockRepETag
1070
     1
1071
       31
1005
1243C
  0
MTEXT
  5
1243D
330
10FE8
100
AcDbEntity
  8
图框
 62
     6
100
AcDbMText
 10
1006.383180575197
 20
483.5687958215896
 30
0.0
 40
2.651776162684904
 41
2.557913877927211
 71
     1
 72
     5
  1
4
  7
Romans字体
 73
     1
 44
1.0
1001
AcDbBlockRepETag
1070
     1
1071
       32
1005
1243D
1001
ACAD
1000
MTEXTBEGIN
1070
    73
1070
     1
1070
    44
1040
1.0
1070
    74
1070
     0
1000
MTEXTEND
  0
LINE
  5
1243E
330
10FE8
100
AcDbEntity
  8
图框
 62
     6
100
AcDbLine
 10
982.0182077173887
 20
484.0347692601515
 30
0.0
 11
982.0182077173887
 21
480.5347692601475
 31
0.0
1001
AcDbBlockRepETag
1070
     1
1071
       33
1005
1243E
  0
MTEXT
  5
1243F
330
10FE8
100
AcDbEntity
  8
图框
 62
     6
100
AcDbMText
 10
956.8302389280352
 20
483.5989680297948
 30
0.0
 40
2.651776162684904
 41
2.557913877927211
 71
     1
 72
     5
  1
3
  7
Romans字体
 73
     1
 44
1.0
1001
AcDbBlockRepETag
1070
     1
1071
       34
1005
1243F
1001
ACAD
1000
MTEXTBEGIN
1070
    73
1070
     1
1070
    44
1040
1.0
1070
    74
1070
     0
1000
MTEXTEND
  0
LINE
  5
12440
330
10FE8
100
AcDbEntity
  8
图框
 62
     6
100
AcDbLine
 10
932.4830289984245
 20
484.0347692601515
 30
0.0
 11
932.4830289984245
 21
480.5347692601475
 31
0.0
1001
AcDbBlockRepETag
1070
     1
1071
       35
1005
12440
  0
MTEXT
  5
12441
330
10FE8
100
AcDbEntity
  8
图框
 62
     6
100
AcDbMText
 10
906.0252349826365
 20
483.6475250013156
 30
0.0
 40
2.651776162684904
 41
2.557913877927211
 71
     1
 72
     5
  1
2
  7
Romans字体
 73
     1
 44
1.0
1001
AcDbBlockRepETag
1070
     1
1071
       36
1005
12441
1001
ACAD
1000
MTEXTBEGIN
1070
    73
1070
     1
1070
    44
1040
1.0
1070
    74
1070
     0
1000
MTEXTEND
  0
LINE
  5
12442
330
10FE8
100
AcDbEntity
  8
图框
 62
     6
100
AcDbLine
 10
882.9478502794648
 20
484.0347692601515
 30
0.0
 11
882.9478502794648
 21
480.5347692601475
 31
0.0
1001
AcDbBlockRepETag
1070
     1
1071
       37
1005
12442
  0
MTEXT
  5
12443
330
10FE8
100
AcDbEntity
  8
图框
 62
     6
100
AcDbMText
 10
857.7598814901191
 20
483.651829494754
 30
0.0
 40
2.651776162684904
 41
2.557913877927211
 71
     1
 72
     5
  1
1
  7
Romans字体
 73
     1
 44
1.0
1001
AcDbBlockRepETag
1070
     1
1071
       38
1005
12443
1001
ACAD
1000
MTEXTBEGIN
1070
    73
1070
     1
1070
    44
1040
1.0
1070
    74
1070
     0
1000
MTEXTEND
  0
LINE
  5
12444
330
10FE8
100
AcDbEntity
  8
图框
370
    50
100
AcDbLine
 10
836.8548209370597
 20
484.0347692601515
 30
0.0
 11
1126.928502610363
 21
484.0347692601515
 31
0.0
1001
AcDbBlockRepETag
1070
     1
1071
       39
1005
12444
  0
LINE
  5
12445
330
10FE8
100
AcDbEntity
  8
图框
370
    50
100
AcDbLine
 10
836.9128518455362
 20
484.0178684310246
 30
0.0
 11
836.9128518455394
 21
675.0207195125422
 31
0.0
1001
AcDbBlockRepETag
1070
     1
1071
       40
1005
12445
  0
MTEXT
  5
12446
330
10FE8
100
AcDbEntity
  8
图框
 62
     6
100
AcDbMText
 10
833.8475685789031
 20
658.7332172029115
 30
0.0
 40
2.651776162684904
 41
2.557913877927211
 71
     1
 72
     5
  1
D
  7
Romans字体
 11
0.0000000000000001
 21
1.0
 31
0.0
 73
     1
 44
1.0
1001
AcDbBlockRepETag
1070
     1
1071
       41
1005
12446
1001
ACAD
1000
MTEXTBEGIN
1070
    73
1070
     1
1070
    44
1040
1.0
1070
    74
1070
     0
1000
MTEXTEND
  0
LINE
  5
12447
330
10FE8
100
AcDbEntity
  8
图框
 62
     6
100
AcDbLine
 10
836.9128518455386
 20
634.0726090796082
 30
0.0
 11
833.4128518455365
 21
634.0726090796082
 31
0.0
1001
AcDbBlockRepETag
1070
     1
1071
       42
1005
12447
  0
MTEXT
  5
12448
330
10FE8
100
AcDbEntity
  8
图框
 62
     6
100
AcDbMText
 10
833.9039177480142
 20
607.5539372630998
 30
0.0
 40
2.651776162684904
 41
2.557913877927211
 71
     1
 72
     5
  1
C
  7
Romans字体
 11
0.0000000000000001
 21
1.0
 31
0.0
 73
     1
 44
1.0
1001
AcDbBlockRepETag
1070
     1
1071
       43
1005
12448
1001
ACAD
1000
MTEXTBEGIN
1070
    73
1070
     1
1070
    44
1040
1.0
1070
    74
1070
     0
1000
MTEXTEND
  0
LINE
  5
12449
330
10FE8
100
AcDbEntity
  8
图框
 62
     6
100
AcDbLine
 10
836.9128518455378
 20
582.89332913979
 30
0.0
 11
833.4128518455365
 21
582.89332913979
 31
0.0
1001
AcDbBlockRepETag
1070
     1
1071
       44
1005
12449
  0
MTEXT
  5
1244A
330
10FE8
100
AcDbEntity
  8
图框
 62
     6
100
AcDbMText
 10
833.9039177480142
 20
556.3746573232886
 30
0.0
 40
2.651776162684904
 41
2.557913877927211
 71
     1
 72
     5
  1
B
  7
Romans字体
 11
0.0000000000000001
 21
1.0
 31
0.0
 73
     1
 44
1.0
1001
AcDbBlockRepETag
1070
     1
1071
       45
1005
1244A
1001
ACAD
1000
MTEXTBEGIN
1070
    73
1070
     1
1070
    44
1040
1.0
1070
    74
1070
     0
1000
MTEXTEND
  0
LINE
  5
1244B
330
10FE8
100
AcDbEntity
  8
图框
 62
     6
100
AcDbLine
 10
836.9128518455367
 20
531.714049199969
 30
0.0
 11
833.4128518455365
 21
531.714049199969
 31
0.0
1001
AcDbBlockRepETag
1070
     1
1071
       46
1005
1244B
  0
MTEXT
  5
1244C
330
10FE8
100
AcDbEntity
  8
图框
 62
     6
100
AcDbMText
 10
833.9039177480142
 20
508.7896535755975
 30
0.0
 40
2.651776162684904
 41
2.557913877927211
 71
     1
 72
     5
  1
A
  7
Romans字体
 11
0.0000000000000001
 21
1.0
 31
0.0
 73
     1
 44
1.0
1001
AcDbBlockRepETag
1070
     1
1071
       47
1005
1244C
1001
ACAD
1000
MTEXTBEGIN
1070
    73
1070
     1
1070
    44
1040
1.0
1070
    74
1070
     0
1000
MTEXTEND
  0
LINE
  5
1244D
330
10FE8
100
AcDbEntity
  8
图框
370
    -3
100
AcDbLine
 10
836.9128518455394
 20
675.0207195125422
 30
0.0
 11
836.9128518455394
 21
684.5021384922564
 31
0.0
1001
AcDbBlockRepETag
1070
     1
1071
       48
1005
1244D
  0
LINE
  5
1244E
330
10FE8
100
AcDbEntity
  8
图框
370
    -3
100
AcDbLine
 10
842.6237321475781
 20
675.5347692601515
 30
0.0
 11
842.6237321475781
 21
685.0161882398658
 31
0.0
1001
AcDbBlockRepETag
1070
     1
1071
       49
1005
1244E
  0
LINE
  5
1244F
330
10FE8
100
AcDbEntity
  8
图框
370
    -3
100
AcDbLine
 10
848.3346124496179
 20
675.5347692601515
 30
0.0
 11
848.3346124496179
 21
685.0161882398658
 31
0.0
1001
AcDbBlockRepETag
1070
     1
1071
       50
1005
1244F
  0
LINE
  5
12450
330
10FE8
100
AcDbEntity
  8
图框
370
    -3
100
AcDbLine
 10
854.0454927516588
 20
675.5347692601515
 30
0.0
 11
854.0454927516588
 21
685.0161882398658
 31
0.0
1001
AcDbBlockRepETag
1070
     1
1071
       51
1005
12450
  0
LINE
  5
12451
330
10FE8
100
AcDbEntity
  8
图框
370
    -3
100
AcDbLine
 10
861.5351874539182
 20
675.5347692601515
 30
0.0
 11
861.5351874539182
 21
686.7901958362482
 31
0.0
1001
AcDbBlockRepETag
1070
     1
1071
       52
1005
12451
  0
MTEXT
  5
12452
330
10FE8
100
AcDbEntity
  8
图框
 62
     6
100
AcDbMText
 10
1105.329704038389
 20
678.859919059449
 30
0.0
 40
2.651776162684904
 41
2.557913877927211
 71
     1
 72
     5
  1
6
  7
Romans字体
 73
     1
 44
1.0
1001
AcDbBlockRepETag
1070
     1
1071
       53
1005
12452
1001
ACAD
1000
MTEXTBEGIN
1070
    73
1070
     1
1070
    44
1040
1.0
1070
    74
1070
     0
1000
MTEXTEND
  0
LINE
  5
12453
330
10FE8
100
AcDbEntity
  8
图框
 62
     6
100
AcDbLine
 10
1081.088565155284
 20
679.0347692601516
 30
0.0
 11
1081.088565155284
 21
675.5347692601515
 31
0.0
1001
AcDbBlockRepETag
1070
     1
1071
       54
1005
12453
  0
MTEXT
  5
12454
330
10FE8
100
AcDbEntity
  8
图框
 62
     6
100
AcDbMText
 10
1055.900596365941
 20
678.859919059449
 30
0.0
 40
2.651776162684904
 41
2.557913877927211
 71
     1
 72
     5
  1
5
  7
Romans字体
 73
     1
 44
1.0
1001
AcDbBlockRepETag
1070
     1
1071
       55
1005
12454
1001
ACAD
1000
MTEXTBEGIN
1070
    73
1070
     1
1070
    44
1040
1.0
1070
    74
1070
     0
1000
MTEXTEND
  0
LINE
  5
12455
330
10FE8
100
AcDbEntity
  8
图框
 62
     6
100
AcDbLine
 10
1031.553386436349
 20
679.0347692601516
 30
0.0
 11
1031.553386436349
 21
675.5347692601515
 31
0.0
1001
AcDbBlockRepETag
1070
     1
1071
       56
1005
12455
  0
MTEXT
  5
12456
330
10FE8
100
AcDbEntity
  8
图框
 62
     6
100
AcDbMText
 10
1006.36541764698
 20
678.7312083656147
 30
0.0
 40
2.651776162684904
 41
2.557913877927211
 71
     1
 72
     5
  1
4
  7
Romans字体
 73
     1
 44
1.0
1001
AcDbBlockRepETag
1070
     1
1071
       57
1005
12456
1001
ACAD
1000
MTEXTBEGIN
1070
    73
1070
     1
1070
    44
1040
1.0
1070
    74
1070
     0
1000
MTEXTEND
  0
LINE
  5
12457
330
10FE8
100
AcDbEntity
  8
图框
 62
     6
100
AcDbLine
 10
982.0182077173887
 20
679.0347692601516
 30
0.0
 11
982.0182077173887
 21
675.5347692601515
 31
0.0
1001
AcDbBlockRepETag
1070
     1
1071
       58
1005
12457
  0
MTEXT
  5
12458
330
10FE8
100
AcDbEntity
  8
图框
 62
     6
100
AcDbMText
 10
956.8302389280352
 20
678.859919059449
 30
0.0
 40
2.651776162684904
 41
2.557913877927211
 71
     1
 72
     5
  1
3
  7
Romans字体
 73
     1
 44
1.0
1001
AcDbBlockRepETag
1070
     1
1071
       59
1005
12458
1001
ACAD
1000
MTEXTBEGIN
1070
    73
1070
     1
1070
    44
1040
1.0
1070
    74
1070
     0
1000
MTEXTEND
  0
LINE
  5
12459
330
10FE8
100
AcDbEntity
  8
图框
 62
     6
100
AcDbLine
 10
932.4830289984245
 20
679.0347692601516
 30
0.0
 11
932.4830289984245
 21
675.5347692601515
 31
0.0
1001
AcDbBlockRepETag
1070
     1
1071
       60
1005
12459
  0
MTEXT
  5
1245A
330
10FE8
100
AcDbEntity
  8
图框
 62
     6
100
AcDbMText
 10
907.295060209082
 20
678.859919059449
 30
0.0
 40
2.651776162684904
 41
2.557913877927211
 71
     1
 72
     5
  1
2
  7
Romans字体
 73
     1
 44
1.0
1001
AcDbBlockRepETag
1070
     1
1071
       61
1005
1245A
1001
ACAD
1000
MTEXTBEGIN
1070
    73
1070
     1
1070
    44
1040
1.0
1070
    74
1070
     0
1000
MTEXTEND
  0
LINE
  5
1245B
330
10FE8
100
AcDbEntity
  8
图框
 62
     6
100
AcDbLine
 10
882.9478502794648
 20
678.7962435131815
 30
0.0
 11
882.9478502794648
 21
675.5347692601515
 31
0.0
1001
AcDbBlockRepETag
1070
     1
1071
       62
1005
1245B
  0
MTEXT
  5
1245C
330
10FE8
100
AcDbEntity
  8
图框
 62
     6
100
AcDbMText
 10
862.6286629643733
 20
678.859919059449
 30
0.0
 40
2.651776162684904
 41
2.557913877927211
 71
     1
 72
     5
  1
1
  7
Romans字体
 73
     1
 44
1.0
1001
AcDbBlockRepETag
1070
     1
1071
       63
1005
1245C
1001
ACAD
1000
MTEXTBEGIN
1070
    73
1070
     1
1070
    44
1040
1.0
1070
    74
1070
     0
1000
MTEXTEND
  0
LINE
  5
1245D
330
10FE8
100
AcDbEntity
  8
图框
370
    -3
100
AcDbLine
 10
836.9128518455394
 20
675.0207195125422
 30
0.0
 11
836.9128518455394
 21
686.7901958362482
 31
0.0
1001
AcDbBlockRepETag
1070
     1
1071
       64
1005
1245D
  0
LINE
  5
1245E
330
10FE8
100
AcDbEntity
  8
图框
370
    50
100
AcDbLine
 10
836.9128518455394
 20
675.5347692601515
 30
0.0
 11
1126.928502610363
 21
675.5347692601515
 31
0.0
1001
AcDbBlockRepETag
1070
     1
1071
       65
1005
1245E
  0
LINE
  5
1245F
330
10FE8
100
AcDbEntity
  8
图框
370
    -3
100
AcDbLine
 10
842.6237321475781
 20
675.5347692601515
 30
0.0
 11
842.6237321475781
 21
686.7901958362482
 31
0.0
1001
AcDbBlockRepETag
1070
     1
1071
       66
1005
1245F
  0
LINE
  5
12460
330
10FE8
100
AcDbEntity
  8
图框
370
    -3
100
AcDbLine
 10
848.3346124496179
 20
675.5347692601515
 30
0.0
 11
848.3346124496179
 21
686.7901958362482
 31
0.0
1001
AcDbBlockRepETag
1070
     1
1071
       67
1005
12460
  0
MTEXT
  5
12461
102
{ACAD_XDICTIONARY
360
124C4
102
}
330
10FE8
100
AcDbEntity
  8
图框
100
AcDbMText
 10
857.7903401027889
 20
686.7901958362482
 30
0.0
 40
1.958998408821398
 41
11.25542657609672
 71
     4
 72
     5
  1
{\W2.08073; }档案员{\H0.7x;\P\Fromans|c134;\W1.0325; \W0.75;Filing Clerk\fFangSong_GB2312|b0|i0|c134|p49; }
 11
-0.0000000000000002
 21
-1.0
 31
0.0
 73
     1
 44
1.0
1001
AcDbBlockRepETag
1070
     1
1071
       68
1005
12461
1001
ACAD
1000
MTEXTBEGIN
1070
    73
1070
     1
1070
    44
1040
1.0
1070
    74
1070
     0
1000
MTEXTEND
1000
ACAD_MTEXT_DEFINED_HEIGHT_BEGIN
1070
    46
1040
7.489694702258906
1000
ACAD_MTEXT_DEFINED_HEIGHT_END
  0
MTEXT
  5
12462
102
{ACAD_XDICTIONARY
360
124C6
102
}
330
10FE8
100
AcDbEntity
  8
图框
100
AcDbMText
 10
845.479172298598
 20
686.7901958362482
 30
0.0
 40
1.958998408821398
 41
11.25542657609672
 71
     4
 72
     5
  1
{\W0.524929; }日期{\Fromans|c134;/Date}
 11
-0.0000000000000002
 21
-1.0
 31
0.0
 73
     1
 44
1.0
1001
AcDbBlockRepETag
1070
     1
1071
       69
1005
12462
1001
ACAD
1000
MTEXTBEGIN
1070
    73
1070
     1
1070
    44
1040
1.0
1070
    74
1070
     0
1000
MTEXTEND
1000
ACAD_MTEXT_DEFINED_HEIGHT_BEGIN
1070
    46
1040
5.710880302039671
1000
ACAD_MTEXT_DEFINED_HEIGHT_END
  0
LINE
  5
12463
330
10FE8
100
AcDbEntity
  8
图框
370
    -3
100
AcDbLine
 10
854.0454927516588
 20
675.5347692601515
 30
0.0
 11
854.0454927516588
 21
686.7901958362482
 31
0.0
1001
AcDbBlockRepETag
1070
     1
1071
       70
1005
12463
  0
LINE
  5
12464
330
10FE8
100
AcDbEntity
  8
图框
370
    -3
100
AcDbLine
 10
1036.653967466372
 20
531.3291676047914
 30
0.0
 11
1036.653967466372
 21
484.0126019753161
 31
0.0
1001
AcDbBlockRepETag
1070
     1
1071
       71
1005
12464
  0
LINE
  5
12465
330
10FE8
100
AcDbEntity
  8
图框
370
    -3
100
AcDbLine
 10
1047.483315900763
 20
507.6708838011533
 30
0.0
 11
1047.483315900763
 21
491.8986945987308
 31
0.0
1001
AcDbBlockRepETag
1070
     1
1071
       72
1005
12465
  0
LINE
  5
12466
330
10FE8
100
AcDbEntity
  8
图框
370
    -3
100
AcDbLine
 10
1058.312664335153
 20
507.6708838011533
 30
0.0
 11
1058.312664335153
 21
484.0347692601515
 31
0.0
1001
AcDbBlockRepETag
1070
     1
1071
       73
1005
12466
  0
LINE
  5
12467
330
10FE8
100
AcDbEntity
  8
图框
370
    25
100
AcDbLine
 10
1048.474135214456
 20
488.1095628329926
 30
0.0
 11
1054.946420288459
 21
488.1095628329926
 31
0.0
1001
AcDbBlockRepETag
1070
     1
1071
       74
1005
12467
  0
LINE
  5
12468
330
10FE8
100
AcDbEntity
  8
图框
370
    25
100
AcDbLine
 10
1054.232527365989
 20
487.0761716842634
 30
0.0
 11
1049.156490914508
 21
486.4576273751
 31
0.0
1001
AcDbBlockRepETag
1070
     1
1071
       75
1005
12468
  0
LINE
  5
12469
330
10FE8
100
AcDbEntity
  8
图框
370
    25
100
AcDbLine
 10
1054.232527365989
 20
489.1429539817209
 30
0.0
 11
1049.156490914508
 21
489.7614982908846
 31
0.0
1001
AcDbBlockRepETag
1070
     1
1071
       76
1005
12469
  0
LINE
  5
1246A
330
10FE8
100
AcDbEntity
  8
图框
370
    25
100
AcDbLine
 10
1049.156490914508
 20
489.7614982908846
 30
0.0
 11
1049.156490914508
 21
486.4576273751
 31
0.0
1001
AcDbBlockRepETag
1070
     1
1071
       77
1005
1246A
  0
LINE
  5
1246B
330
10FE8
100
AcDbEntity
  8
图框
370
    25
100
AcDbLine
 10
1054.232527365989
 20
489.1429539817209
 30
0.0
 11
1054.232527365989
 21
487.0761716842634
 31
0.0
1001
AcDbBlockRepETag
1070
     1
1071
       78
1005
1246B
  0
CIRCLE
  5
1246C
330
10FE8
100
AcDbEntity
  8
图框
370
    25
100
AcDbCircle
 10
1042.502700458579
 20
488.1095628329926
 30
0.0
 40
1.651935457891863
1001
AcDbBlockRepETag
1070
     1
1071
       79
1005
1246C
  0
CIRCLE
  5
1246D
330
10FE8
100
AcDbEntity
  8
图框
370
    25
100
AcDbCircle
 10
1042.502700458579
 20
488.1095628329926
 30
0.0
 40
1.033391148728775
1001
AcDbBlockRepETag
1070
     1
1071
       80
1005
1246D
  0
LINE
  5
1246E
330
10FE8
100
AcDbEntity
  8
图框
370
    25
100
AcDbLine
 10
1040.136872078216
 20
488.1095628329926
 30
0.0
 11
1044.868528838943
 21
488.1095628329926
 31
0.0
1001
AcDbBlockRepETag
1070
     1
1071
       81
1005
1246E
  0
LINE
  5
1246F
330
10FE8
100
AcDbEntity
  8
图框
370
    25
100
AcDbLine
 10
1042.502700458579
 20
490.475391213355
 30
0.0
 11
1042.502700458579
 21
485.743734452629
 31
0.0
1001
AcDbBlockRepETag
1070
     1
1071
       82
1005
1246F
  0
LINE
  5
12470
330
10FE8
100
AcDbEntity
  8
图框
370
    -3
100
AcDbLine
 10
1069.142012769546
 20
507.6708838011533
 30
0.0
 11
1069.142012769546
 21
491.8986945987308
 31
0.0
1001
AcDbBlockRepETag
1070
     1
1071
       83
1005
12470
  0
MTEXT
  5
12471
330
10FE8
100
AcDbEntity
  8
图框
100
AcDbMText
 10
1086.643735910939
 20
526.8006839312707
 30
0.0
 40
2.154898249703542
 41
13.34474941400573
 71
     5
 72
     5
  1
图号{\Ftxt|c134;\P\Fromans|c134;\W0.65;Drawing No.}
 73
     1
 44
1.0
1001
AcDbBlockRepETag
1070
     1
1071
       84
1005
12471
1001
ACAD
1000
MTEXTBEGIN
1070
    73
1070
     1
1070
    44
1040
1.0
1070
    74
1070
     0
1000
MTEXTEND
1000
ACAD_MTEXT_DEFINED_HEIGHT_BEGIN
1070
    46
1040
9.056967347041775
1000
ACAD_MTEXT_DEFINED_HEIGHT_END
  0
LINE
  5
12472
330
10FE8
100
AcDbEntity
  8
图框
370
    -3
100
AcDbLine
 10
1093.316110617942
 20
531.3291676047914
 30
0.0
 11
1093.316110617942
 21
495.8417418993347
 31
0.0
1001
AcDbBlockRepETag
1070
     1
1071
       85
1005
12472
  0
LINE
  5
12473
330
10FE8
100
AcDbEntity
  8
图框
370
    -3
100
AcDbLine
 10
1047.473969770481
 20
531.3291676047914
 30
0.0
 11
1047.473969770481
 21
507.6708838011533
 31
0.0
1001
AcDbBlockRepETag
1070
     1
1071
       86
1005
12473
  0
MTEXT
  5
12474
330
10FE8
100
AcDbEntity
  8
图框
100
AcDbMText
 10
1063.72733855235
 20
503.7278365005473
 30
0.0
 40
2.252848170144607
 41
10.82934843439208
 71
     5
 72
     5
  1
重量\P{\Fromans|c134;Weight}
 73
     1
 44
1.0
1001
AcDbBlockRepETag
1070
     1
1071
       87
1005
12474
1001
ACAD
1000
MTEXTBEGIN
1070
    73
1070
     1
1070
    44
1040
1.0
1070
    74
1070
     0
1000
MTEXTEND
1000
ACAD_MTEXT_DEFINED_HEIGHT_BEGIN
1070
    46
1040
7.886094601212128
1000
ACAD_MTEXT_DEFINED_HEIGHT_END
  0
LINE
  5
12475
330
10FE8
100
AcDbEntity
  8
图框
370
    -3
100
AcDbLine
 10
1036.653967466372
 20
519.5000257029746
 30
0.0
 11
1079.971361203936
 21
519.5000257029746
 31
0.0
1001
AcDbBlockRepETag
1070
     1
1071
       88
1005
12475
  0
MTEXT
  5
12476
330
10FE8
100
AcDbEntity
  8
图框
100
AcDbMText
 10
1074.556686986741
 20
503.7278365005473
 30
0.0
 40
2.252848170144607
 41
10.82934843438984
 71
     5
 72
     5
  1
数量\P{\Fromans|c134;Qty.}
 73
     1
 44
1.0
1001
AcDbBlockRepETag
1070
     1
1071
       89
1005
12476
1001
ACAD
1000
MTEXTBEGIN
1070
    73
1070
     1
1070
    44
1040
1.0
1070
    74
1070
     0
1000
MTEXTEND
1000
ACAD_MTEXT_DEFINED_HEIGHT_BEGIN
1070
    46
1040
7.886094601212141
1000
ACAD_MTEXT_DEFINED_HEIGHT_END
  0
LINE
  5
12477
330
10FE8
100
AcDbEntity
  8
图框
370
    -3
100
AcDbLine
 10
1079.971361203936
 20
495.8417418993347
 30
0.0
 11
1126.928502610363
 21
495.8417418993342
 31
0.0
1001
AcDbBlockRepETag
1070
     1
1071
       90
1005
12477
  0
LINE
  5
12478
330
10FE8
100
AcDbEntity
  8
图框
370
    -3
100
AcDbLine
 10
1079.971361203936
 20
504.7132992040975
 30
0.0
 11
1126.928502610363
 21
504.7132992040975
 31
0.0
1001
AcDbBlockRepETag
1070
     1
1071
       91
1005
12478
  0
MTEXT
  5
12479
330
10FE8
100
AcDbEntity
  8
图框
100
AcDbMText
 10
1052.893317052817
 20
503.7278365005473
 30
0.0
 40
2.252848170144607
 41
10.83869456467139
 71
     5
 72
     5
  1
版本\P{\Fromans|c134;REV.}
 73
     1
 44
1.0
1001
AcDbBlockRepETag
1070
     1
1071
       92
1005
12479
1001
ACAD
1000
MTEXTBEGIN
1070
    73
1070
     1
1070
    44
1040
1.0
1070
    74
1070
     0
1000
MTEXTEND
1000
ACAD_MTEXT_DEFINED_HEIGHT_BEGIN
1070
    46
1040
7.886094601212101
1000
ACAD_MTEXT_DEFINED_HEIGHT_END
  0
MTEXT
  5
1247A
330
10FE8
100
AcDbEntity
  8
图框
100
AcDbMText
 10
1042.068641683568
 20
503.7278365005473
 30
0.0
 40
2.252848170144607
 41
10.8293484343908
 71
     5
 72
     5
  1
比例\P{\Fromans|c134;Scale}
 73
     1
 44
1.0
1001
AcDbBlockRepETag
1070
     1
1071
       93
1005
1247A
1001
ACAD
1000
MTEXTBEGIN
1070
    73
1070
     1
1070
    44
1040
1.0
1070
    74
1070
     0
1000
MTEXTEND
1000
ACAD_MTEXT_DEFINED_HEIGHT_BEGIN
1070
    46
1040
7.886094601212136
1000
ACAD_MTEXT_DEFINED_HEIGHT_END
  0
LINE
  5
1247B
330
10FE8
100
AcDbEntity
  8
图框
370
    -3
100
AcDbLine
 10
1036.653967466372
 20
507.6708838011533
 30
0.0
 11
1079.971361203936
 21
507.6708838011533
 31
0.0
1001
AcDbBlockRepETag
1070
     1
1071
       94
1005
1247B
  0
LINE
  5
1247C
330
10FE8
100
AcDbEntity
  8
图框
370
    -3
100
AcDbLine
 10
1036.653967466372
 20
491.8986945987308
 30
0.0
 11
1079.971361203936
 21
491.8986945987308
 31
0.0
1001
AcDbBlockRepETag
1070
     1
1071
       95
1005
1247C
  0
LINE
  5
1247D
330
10FE8
100
AcDbEntity
  8
图框
370
    -3
100
AcDbLine
 10
1079.971361203936
 20
531.3291676047914
 30
0.0
 11
1079.971361203936
 21
484.0125999975168
 31
0.0
1001
AcDbBlockRepETag
1070
     1
1071
       96
1005
1247D
  0
MTEXT
  5
1247E
330
10FE8
100
AcDbEntity
  8
图框
100
AcDbMText
 10
1042.063968618426
 20
525.4145966538832
 30
0.0
 40
2.252848170144607
 41
10.82000230410933
 71
     5
 72
     5
  1
表面处理\P{\Fromans|c134;Finish}
 73
     1
 44
1.0
1001
AcDbBlockRepETag
1070
     1
1071
       97
1005
1247E
1001
ACAD
1000
MTEXTBEGIN
1070
    73
1070
     1
1070
    44
1040
1.0
1070
    74
1070
     0
1000
MTEXTEND
1000
ACAD_MTEXT_DEFINED_HEIGHT_BEGIN
1070
    46
1040
11.82914190181708
1000
ACAD_MTEXT_DEFINED_HEIGHT_END
  0
MTEXT
  5
1247F
330
10FE8
100
AcDbEntity
  8
图框
100
AcDbMText
 10
1042.063968618426
 20
513.5854547520639
 30
0.0
 40
2.252848170144607
 41
10.82000230410933
 71
     5
 72
     5
  1
材料\P{\Fromans|c134;Material}
 73
     1
 44
1.0
1001
AcDbBlockRepETag
1070
     1
1071
       98
1005
1247F
1001
ACAD
1000
MTEXTBEGIN
1070
    73
1070
     1
1070
    44
1040
1.0
1070
    74
1070
     0
1000
MTEXTEND
1000
ACAD_MTEXT_DEFINED_HEIGHT_BEGIN
1070
    46
1040
11.8291419018212
1000
ACAD_MTEXT_DEFINED_HEIGHT_END
  0
LINE
  5
12480
330
10FE8
100
AcDbEntity
  8
图框
370
    -3
100
AcDbLine
 10
1079.971361203936
 20
522.27220025775
 30
0.0
 11
1126.928502610363
 21
522.27220025775
 31
0.0
1001
AcDbBlockRepETag
1070
     1
1071
       99
1005
12480
  0
LINE
  5
12481
330
10FE8
100
AcDbEntity
  8
图框
370
    -3
100
AcDbLine
 10
1079.971361203936
 20
513.5854547520641
 30
0.0
 11
1126.928502610363
 21
513.5854547520639
 31
0.0
1001
AcDbBlockRepETag
1070
     1
1071
      100
1005
12481
  0
MTEXT
  5
12482
330
10FE8
100
AcDbEntity
  8
图框
100
AcDbMText
 10
1086.643735910939
 20
517.9288275049072
 30
0.0
 40
1.958998408821398
 41
13.34474941400573
 71
     5
 72
     5
  1
产品代号\P{\Fromans|c134;Part Code}
 73
     1
 44
1.0
1001
AcDbBlockRepETag
1070
     1
1071
      101
1005
12482
1001
ACAD
1000
MTEXTBEGIN
1070
    73
1070
     1
1070
    44
1040
1.0
1070
    74
1070
     0
1000
MTEXTEND
1000
ACAD_MTEXT_DEFINED_HEIGHT_BEGIN
1070
    46
1040
8.686745505685811
1000
ACAD_MTEXT_DEFINED_HEIGHT_END
  0
LINE
  5
12483
330
10FE8
100
AcDbEntity
  8
图框
370
    -3
100
AcDbLine
 10
946.9285026103634
 20
525.7982263931411
 30
0.0
 11
1036.653967466372
 21
525.7982263931411
 31
0.0
1001
AcDbBlockRepETag
1070
     1
1071
      102
1005
12483
  0
LINE
  5
12484
330
10FE8
100
AcDbEntity
  8
图框
370
    -3
100
AcDbLine
 10
946.9285026103634
 20
520.2672851814959
 30
0.0
 11
1036.653967466372
 21
520.2672851814959
 31
0.0
1001
AcDbBlockRepETag
1070
     1
1071
      103
1005
12484
  0
LINE
  5
12485
330
10FE8
100
AcDbEntity
  8
图框
370
    35
100
AcDbLine
 10
946.9285026103634
 20
531.3291676047914
 30
0.0
 11
1126.928502610363
 21
531.3291676047914
 31
0.0
1001
AcDbBlockRepETag
1070
     1
1071
      104
1005
12485
  0
LINE
  5
12486
330
10FE8
100
AcDbEntity
  8
图框
370
    -3
100
AcDbLine
 10
990.6727612856927
 20
509.2054027581959
 30
0.0
 11
990.6727612856927
 21
484.0347692601515
 31
0.0
1001
AcDbBlockRepETag
1070
     1
1071
      105
1005
12486
  0
MTEXT
  5
12487
102
{ACAD_XDICTIONARY
360
124C8
102
}
330
10FE8
100
AcDbEntity
  8
图框
100
AcDbMText
 10
997.1628169651232
 20
499.816589978722
 30
0.0
 40
2.252848170144607
 41
12.98011135886052
 71
     5
 72
     5
  1
{\f仿宋_GB2312|b0|i0|c134|p49;标准化}\PStand.
  7
Romans字体
 73
     1
 44
1.0
1001
AcDbBlockRepETag
1070
     1
1071
      106
1005
12487
1001
ACAD
1000
MTEXTBEGIN
1070
    73
1070
     1
1070
    44
1040
1.0
1070
    74
1070
     0
1000
MTEXTEND
1000
ACAD_MTEXT_DEFINED_HEIGHT_BEGIN
1070
    46
1040
6.19230880992475
1000
ACAD_MTEXT_DEFINED_HEIGHT_END
  0
LINE
  5
12488
330
10FE8
100
AcDbEntity
  8
图框
370
    -3
100
AcDbLine
 10
975.4103773808022
 20
509.2054027581959
 30
0.0
 11
975.4103773808022
 21
484.0347692601515
 31
0.0
1001
AcDbBlockRepETag
1070
     1
1071
      107
1005
12488
  0
MTEXT
  5
12489
330
10FE8
100
AcDbEntity
  8
图框
100
AcDbMText
 10
984.5089229802068
 20
511.9708733640202
 30
0.0
 40
2.448748011026752
 41
38.287899328693
 71
     5
 72
     5
  1
  变更描述{\Fromans|c134;/Description}
 73
     1
 44
1.0
1001
AcDbBlockRepETag
1070
     1
1071
      108
1005
12489
1001
ACAD
1000
MTEXTBEGIN
1070
    73
1070
     1
1070
    44
1040
1.0
1070
    74
1070
     0
1000
MTEXTEND
1000
ACAD_MTEXT_DEFINED_HEIGHT_BEGIN
1070
    46
1040
5.530941211648832
1000
ACAD_MTEXT_DEFINED_HEIGHT_END
  0
MTEXT
  5
1248A
102
{ACAD_XDICTIONARY
360
124CA
102
}
330
10FE8
100
AcDbEntity
  8
图框
100
AcDbMText
 10
1012.466086049227
 20
511.9708733640202
 30
0.0
 40
1.958998408821398
 41
17.6264268093469
 71
     5
 72
     5
  1
签名\P{\Fromans|c134;Signature} 
 73
     1
 44
1.0
1001
AcDbBlockRepETag
1070
     1
1071
      109
1005
1248A
1001
ACAD
1000
MTEXTBEGIN
1070
    73
1070
     1
1070
    44
1040
1.0
1070
    74
1070
     0
1000
MTEXTEND
1000
ACAD_MTEXT_DEFINED_HEIGHT_BEGIN
1070
    46
1040
5.530941211648825
1000
ACAD_MTEXT_DEFINED_HEIGHT_END
  0
MTEXT
  5
1248B
102
{ACAD_XDICTIONARY
360
124CC
102
}
330
10FE8
100
AcDbEntity
  8
图框
100
AcDbMText
 10
960.7558556394856
 20
511.9708733640202
 30
0.0
 40
1.958998408821398
 41
9.218235352749283
 71
     5
 72
     5
  1
处数\P{\Fromans|c134;Number }
 73
     1
 44
1.0
1001
AcDbBlockRepETag
1070
     1
1071
      110
1005
1248B
1001
ACAD
1000
MTEXTBEGIN
1070
    73
1070
     1
1070
    44
1040
1.0
1070
    74
1070
     0
1000
MTEXTEND
1000
ACAD_MTEXT_DEFINED_HEIGHT_BEGIN
1070
    46
1040
5.530941211648841
1000
ACAD_MTEXT_DEFINED_HEIGHT_END
  0
LINE
  5
1248C
330
10FE8
100
AcDbEntity
  8
图框
370
    -3
100
AcDbLine
 10
946.9285026103634
 20
514.7363439698449
 30
0.0
 11
1036.653967466372
 21
514.7363439698449
 31
0.0
1001
AcDbBlockRepETag
1070
     1
1071
      111
1005
1248C
  0
LINE
  5
1248D
330
10FE8
100
AcDbEntity
  8
图框
370
    -3
100
AcDbLine
 10
946.9285026103634
 20
509.2054027581959
 30
0.0
 11
1036.653967466372
 21
509.2054027581959
 31
0.0
1001
AcDbBlockRepETag
1070
     1
1071
      112
1005
1248D
  0
LINE
  5
1248E
330
10FE8
100
AcDbEntity
  8
图框
370
    -3
100
AcDbLine
 10
946.9285026103634
 20
502.9127443836848
 30
0.0
 11
1036.653967466372
 21
502.9127443836848
 31
0.0
1001
AcDbBlockRepETag
1070
     1
1071
      113
1005
1248E
  0
LINE
  5
1248F
330
10FE8
100
AcDbEntity
  8
图框
370
    -3
100
AcDbLine
 10
946.9285026103634
 20
496.620086009173
 30
0.0
 11
1036.653967466372
 21
496.620086009173
 31
0.0
1001
AcDbBlockRepETag
1070
     1
1071
      114
1005
1248F
  0
LINE
  5
12490
330
10FE8
100
AcDbEntity
  8
图框
370
    35
380
     1
100
AcDbLine
 10
946.9285026103634
 20
531.3291676047914
 30
0.0
 11
946.9285026103634
 21
484.0347692601515
 31
0.0
1001
AcDbBlockRepETag
1070
     1
1071
      115
1005
12490
  0
LINE
  5
12491
330
10FE8
100
AcDbEntity
  8
图框
370
    -3
100
AcDbLine
 10
1021.301636813399
 20
531.3291676047914
 30
0.0
 11
1021.301636813399
 21
484.0347692601515
 31
0.0
1001
AcDbBlockRepETag
1070
     1
1071
      116
1005
12491
  0
LINE
  5
12492
330
10FE8
100
AcDbEntity
  8
图框
370
    -3
100
AcDbLine
 10
1003.652872644553
 20
531.3291676047914
 30
0.0
 11
1003.652872644553
 21
484.0347692601515
 31
0.0
1001
AcDbBlockRepETag
1070
     1
1071
      117
1005
12492
  0
LINE
  5
12493
330
10FE8
100
AcDbEntity
  8
图框
370
    -3
100
AcDbLine
 10
965.3649733158603
 20
531.3291676047914
 30
0.0
 11
965.3649733158603
 21
509.2054027581959
 31
0.0
1001
AcDbBlockRepETag
1070
     1
1071
      118
1005
12493
  0
LINE
  5
12494
330
10FE8
100
AcDbEntity
  8
图框
370
    -3
100
AcDbLine
 10
956.1467379631109
 20
531.3291676047914
 30
0.0
 11
956.1467379631109
 21
509.2054027581959
 31
0.0
1001
AcDbBlockRepETag
1070
     1
1071
      119
1005
12494
  0
MTEXT
  5
12495
102
{ACAD_XDICTIONARY
360
124CE
102
}
330
10FE8
100
AcDbEntity
  8
图框
100
AcDbMText
 10
951.537620286737
 20
511.9708733640202
 30
0.0
 40
1.958998408821398
 41
9.218235352747692
 71
     5
 72
     5
  1
标记\P{\Fromans|c134;Mark}
 73
     1
 44
1.0
1001
AcDbBlockRepETag
1070
     1
1071
      120
1005
12495
1001
ACAD
1000
MTEXTBEGIN
1070
    73
1070
     1
1070
    44
1040
1.0
1070
    74
1070
     0
1000
MTEXTEND
1000
ACAD_MTEXT_DEFINED_HEIGHT_BEGIN
1070
    46
1040
5.530941211648832
1000
ACAD_MTEXT_DEFINED_HEIGHT_END
  0
MTEXT
  5
12496
102
{ACAD_XDICTIONARY
360
124D0
102
}
330
10FE8
100
AcDbEntity
  8
图框
100
AcDbMText
 10
953.4185582897936
 20
493.4737568219182
 30
0.0
 40
2.252848170144607
 41
12.98011135886041
 71
     5
 72
     5
  1
审核\P{\Fromans|c134;Checked}
 73
     1
 44
1.0
1001
AcDbBlockRepETag
1070
     1
1071
      121
1005
12496
1001
ACAD
1000
MTEXTBEGIN
1070
    73
1070
     1
1070
    44
1040
1.0
1070
    74
1070
     0
1000
MTEXTEND
1000
ACAD_MTEXT_DEFINED_HEIGHT_BEGIN
1070
    46
1040
6.292658374510382
1000
ACAD_MTEXT_DEFINED_HEIGHT_END
  0
MTEXT
  5
12497
102
{ACAD_XDICTIONARY
360
124D2
102
}
330
10FE8
100
AcDbEntity
  8
图框
100
AcDbMText
 10
953.4185582897936
 20
499.8775635376777
 30
0.0
 40
2.252848170144607
 41
12.98011135886041
 71
     5
 72
     5
  1
绘图\P{\Fromans|c134;Drawn\Ftxt|c134; }
 73
     1
 44
1.0
1001
AcDbBlockRepETag
1070
     1
1071
      122
1005
12497
1001
ACAD
1000
MTEXTBEGIN
1070
    73
1070
     1
1070
    44
1040
1.0
1070
    74
1070
     0
1000
MTEXTEND
1000
ACAD_MTEXT_DEFINED_HEIGHT_BEGIN
1070
    46
1040
6.070361692014189
1000
ACAD_MTEXT_DEFINED_HEIGHT_END
  0
ARC
  5
12498
330
10FE8
100
AcDbEntity
  8
图框
 62
     4
370
    35
100
AcDbCircle
 10
1086.900627017421
 20
490.0179944151195
 30
0.0
 40
4.063310408393665
100
AcDbArc
 50
18.95237904564806
 51
161.0476209543519
1001
AcDbBlockRepETag
1070
     1
1071
      123
1005
12498
  0
ARC
  5
12499
330
10FE8
100
AcDbEntity
  8
图框
 62
     4
370
    35
100
AcDbCircle
 10
1086.900627017421
 20
490.0179944151195
 30
0.0
 40
4.063310408393665
100
AcDbArc
 50
198.952379045648
 51
341.0476209543519
1001
AcDbBlockRepETag
1070
     1
1071
      124
1005
12499
  0
LINE
  5
1249A
330
10FE8
100
AcDbEntity
  8
图框
 62
     4
370
    35
100
AcDbLine
 10
1083.057593369548
 20
488.6983035966752
 30
0.0
 11
1090.74366066529
 21
488.6983035966752
 31
0.0
1001
AcDbBlockRepETag
1070
     1
1071
      125
1005
1249A
  0
LINE
  5
1249B
330
10FE8
100
AcDbEntity
  8
图框
 62
     4
370
    35
100
AcDbLine
 10
1083.057593369548
 20
491.3376852335652
 30
0.0
 11
1090.74366066529
 21
491.3376852335652
 31
0.0
1001
AcDbBlockRepETag
1070
     1
1071
      126
1005
1249B
  0
MTEXT
  5
1249C
330
10FE8
100
AcDbEntity
  8
图框
 62
     1
370
    20
100
AcDbMText
 10
1083.034582879669
 20
491.0506288081688
 30
0.0
 40
2.005930044038334
 41
5.047240019334847
 71
     1
 72
     5
  1
{\fArial|b0|i0|c0|p34;W}
  7
Chinese
 73
     1
 44
1.0
1001
AcDbBlockRepETag
1070
     1
1071
      127
1005
1249C
1001
ACAD
1000
MTEXTBEGIN
1070
    73
1070
     1
1070
    44
1040
1.0
1070
    74
1070
     0
1000
MTEXTEND
  0
LINE
  5
1249D
330
10FE8
100
AcDbEntity
  8
图框
370
    -3
100
AcDbLine
 10
946.9285026103634
 20
490.327427634663
 30
0.0
 11
1036.653967466372
 21
490.327427634663
 31
0.0
1001
AcDbBlockRepETag
1070
     1
1071
      128
1005
1249D
  0
LINE
  5
1249E
330
10FE8
100
AcDbEntity
  8
图框
370
    -3
100
AcDbLine
 10
959.9086139692238
 20
509.2054027581959
 30
0.0
 11
959.9086139692238
 21
484.0347692601515
 31
0.0
1001
AcDbBlockRepETag
1070
     1
1071
      129
1005
1249E
  0
MTEXT
  5
1249F
330
10FE8
100
AcDbEntity
  8
图框
100
AcDbMText
 10
967.6594956750129
 20
506.0590735709403
 30
0.0
 40
2.252848170144607
 41
15.50176341157869
 71
     5
 72
     5
  1
姓名{\Fromans|c134;/Name\Ftxt|c134; }
 73
     1
 44
1.0
1001
AcDbBlockRepETag
1070
     1
1071
      130
1005
1249F
1001
ACAD
1000
MTEXTBEGIN
1070
    73
1070
     1
1070
    44
1040
1.0
1070
    74
1070
     0
1000
MTEXTEND
1000
ACAD_MTEXT_DEFINED_HEIGHT_BEGIN
1070
    46
1040
6.292658374511246
1000
ACAD_MTEXT_DEFINED_HEIGHT_END
  0
MTEXT
  5
124A0
330
10FE8
100
AcDbEntity
  8
图框
100
AcDbMText
 10
983.0415693332477
 20
506.0590735709403
 30
0.0
 40
2.252848170144607
 41
15.26238390489042
 71
     5
 72
     5
  1
日期{\Fromans|c134;/Date}
 73
     1
 44
1.0
1001
AcDbBlockRepETag
1070
     1
1071
      131
1005
124A0
1001
ACAD
1000
MTEXTBEGIN
1070
    73
1070
     1
1070
    44
1040
1.0
1070
    74
1070
     0
1000
MTEXTEND
1000
ACAD_MTEXT_DEFINED_HEIGHT_BEGIN
1070
    46
1040
6.2926583745112
1000
ACAD_MTEXT_DEFINED_HEIGHT_END
  0
LINE
  5
124A1
330
10FE8
100
AcDbEntity
  8
图框
370
    -3
100
AcDbLine
 10
946.9285026103634
 20
509.2054027581959
 30
0.0
 11
959.9086139692238
 21
502.9127443836848
 31
0.0
1001
AcDbBlockRepETag
1070
     1
1071
      132
1005
124A1
  0
MTEXT
  5
124A2
330
10FE8
100
AcDbEntity
  8
图框
100
AcDbMText
 10
1012.931405110086
 20
506.0185715840725
 30
0.0
 40
2.252848170144607
 41
16.93492221063566
 71
     5
 72
     5
  1
姓名{\Fromans|c134;/Name}
 73
     1
 44
1.0
1001
AcDbBlockRepETag
1070
     1
1071
      133
1005
124A2
1001
ACAD
1000
MTEXTBEGIN
1070
    73
1070
     1
1070
    44
1040
1.0
1070
    74
1070
     0
1000
MTEXTEND
  0
MTEXT
  5
124A3
330
10FE8
100
AcDbEntity
  8
图框
100
AcDbMText
 10
1028.977802139886
 20
506.0590735709403
 30
0.0
 40
2.252848170144607
 41
15.35233065297283
 71
     5
 72
     5
  1
日期{\Fromans|c134;/Date}
 73
     1
 44
1.0
1001
AcDbBlockRepETag
1070
     1
1071
      134
1005
124A3
1001
ACAD
1000
MTEXTBEGIN
1070
    73
1070
     1
1070
    44
1040
1.0
1070
    74
1070
     0
1000
MTEXTEND
1000
ACAD_MTEXT_DEFINED_HEIGHT_BEGIN
1070
    46
1040
6.292658374511256
1000
ACAD_MTEXT_DEFINED_HEIGHT_END
  0
LINE
  5
124A4
330
10FE8
100
AcDbEntity
  8
图框
370
    -3
100
AcDbLine
 10
1003.652872644553
 20
502.9127443836848
 30
0.0
 11
990.6727612856927
 21
509.2054027581959
 31
0.0
1001
AcDbBlockRepETag
1070
     1
1071
      135
1005
124A4
  0
MTEXT
  5
124A5
102
{ACAD_XDICTIONARY
360
124D4
102
}
330
10FE8
100
AcDbEntity
  8
图框
100
AcDbMText
 10
997.1628169651232
 20
487.1810984474071
 30
0.0
 40
2.252848170144607
 41
12.98011135886052
 71
     5
 72
     5
  1
批准\P{\Fromans|c134;Approved}
 73
     1
 44
1.0
1001
AcDbBlockRepETag
1070
     1
1071
      136
1005
124A5
1001
ACAD
1000
MTEXTBEGIN
1070
    73
1070
     1
1070
    44
1040
1.0
1070
    74
1070
     0
1000
MTEXTEND
1000
ACAD_MTEXT_DEFINED_HEIGHT_BEGIN
1070
    46
1040
6.292658374511517
1000
ACAD_MTEXT_DEFINED_HEIGHT_END
  0
MTEXT
  5
124A6
102
{ACAD_XDICTIONARY
360
124D6
102
}
330
10FE8
100
AcDbEntity
  8
图框
100
AcDbMText
 10
953.4185582897936
 20
487.1810984474071
 30
0.0
 40
2.252848170144607
 41
12.98011135886041
 71
     5
 72
     5
  1
工艺\P{\Fromans|c134;Process}
 73
     1
 44
1.0
1001
AcDbBlockRepETag
1070
     1
1071
      137
1005
124A6
1001
ACAD
1000
MTEXTBEGIN
1070
    73
1070
     1
1070
    44
1040
1.0
1070
    74
1070
     0
1000
MTEXTEND
1000
ACAD_MTEXT_DEFINED_HEIGHT_BEGIN
1070
    46
1040
6.292658374511495
1000
ACAD_MTEXT_DEFINED_HEIGHT_END
  0
MTEXT
  5
124A7
102
{ACAD_XDICTIONARY
360
124D8
102
}
330
10FE8
100
AcDbEntity
  8
图框
100
AcDbMText
 10
1028.977802139886
 20
511.8287965307664
 30
0.0
 40
1.958998408821398
 41
15.3523306529728
 71
     5
 72
     5
  1
日期\P{\Fromans|c134;Date}
 73
     1
 44
1.0
1001
AcDbBlockRepETag
1070
     1
1071
      138
1005
124A7
1001
ACAD
1000
MTEXTBEGIN
1070
    73
1070
     1
1070
    44
1040
1.0
1070
    74
1070
     0
1000
MTEXTEND
1000
ACAD_MTEXT_DEFINED_HEIGHT_BEGIN
1070
    46
1040
5.246787545140668
1000
ACAD_MTEXT_DEFINED_HEIGHT_END
  0
MTEXT
  5
124A8
330
10FE8
100
AcDbEntity
  8
图框
100
AcDbMText
 10
1086.643735910939
 20
509.1493769780809
 30
0.0
 40
2.154898249703542
 41
13.34474941400573
 71
     5
 72
     5
  1
产品料号\P{\Fromans|c134;Part No.}
 73
     1
 44
1.0
1001
AcDbBlockRepETag
1070
     1
1071
      139
1005
124A8
1001
ACAD
1000
MTEXTBEGIN
1070
    73
1070
     1
1070
    44
1040
1.0
1070
    74
1070
     0
1000
MTEXTEND
1000
ACAD_MTEXT_DEFINED_HEIGHT_BEGIN
1070
    46
1040
8.87215554796615
1000
ACAD_MTEXT_DEFINED_HEIGHT_END
  0
MTEXT
  5
124A9
330
10FE8
100
AcDbEntity
  8
图框
100
AcDbMText
 10
1086.643735910939
 20
500.2775205517163
 30
0.0
 40
1.958998408821398
 41
13.34474941400573
 71
     5
 72
     5
  1
产品名称\P{\Fromans|c134;Part Name}
 73
     1
 44
1.0
1001
AcDbBlockRepETag
1070
     1
1071
      140
1005
124A9
1001
ACAD
1000
MTEXTBEGIN
1070
    73
1070
     1
1070
    44
1040
1.0
1070
    74
1070
     0
1000
MTEXTEND
1000
ACAD_MTEXT_DEFINED_HEIGHT_BEGIN
1070
    46
1040
8.871557304763321
1000
ACAD_MTEXT_DEFINED_HEIGHT_END
  0
LINE
  5
124AA
330
10FE8
100
AcDbEntity
  8
图框
 62
     1
370
    18
100
AcDbLine
 10
833.4128518455365
 20
690.5347692601515
 30
0.0
 11
833.4128518455365
 21
480.5347692601515
 31
0.0
1001
AcDbBlockRepETag
1070
     1
1071
      141
1005
124AA
  0
LINE
  5
124AB
330
10FE8
100
AcDbEntity
  8
图框
 62
     1
370
    18
100
AcDbLine
 10
833.4128518455365
 20
480.5347692601515
 30
0.0
 11
1130.411601781236
 21
480.5347692601515
 31
0.0
1001
AcDbBlockRepETag
1070
     1
1071
      142
1005
124AB
  0
LINE
  5
124AC
330
10FE8
100
AcDbEntity
  8
图框
 62
     1
370
    18
100
AcDbLine
 10
833.4128518455365
 20
690.5347692601515
 30
0.0
 11
1130.411601781236
 21
690.5347692601515
 31
0.0
1001
AcDbBlockRepETag
1070
     1
1071
      143
1005
124AC
  0
LINE
  5
124AD
330
10FE8
100
AcDbEntity
  8
图框
 62
     1
370
    18
100
AcDbLine
 10
1130.411601781236
 20
480.5347692601515
 30
0.0
 11
1130.411601781236
 21
690.5347692601515
 31
0.0
1001
AcDbBlockRepETag
1070
     1
1071
      144
1005
124AD
  0
LINE
  5
124AE
330
10FE8
100
AcDbEntity
  8
图框
370
    18
100
AcDbLine
 10
836.9128518455394
 20
686.7901958362482
 30
0.0
 11
861.5351874539182
 21
686.7901958362482
 31
0.0
1001
AcDbBlockRepETag
1070
     1
1071
      145
1005
124AE
  0
LINE
  5
124AF
330
10FE8
100
AcDbEntity
  8
图框
370
    50
100
AcDbLine
 10
1126.928502610363
 20
484.3410054693078
 30
0.0
 11
1126.928502610363
 21
675.5347692601515
 31
0.0
1001
AcDbBlockRepETag
1070
     1
1071
      146
1005
124AF
  0
MTEXT
  5
124B0
330
10FE8
100
AcDbEntity
  8
图框
 62
     3
100
AcDbMText
 10
1052.897990117958
 20
495.8417418993364
 30
0.0
 40
2.985513575034151
 41
10.82934843439114
 71
     5
 72
     5
  1
V1.0
  7
Romans字体
 73
     1
 44
1.0
1001
AcDbBlockRepETag
1070
     1
1071
      147
1005
124B0
1001
ACAD
1000
MTEXTBEGIN
1070
    73
1070
     1
1070
    44
1040
1.0
1070
    74
1070
     0
1000
MTEXTEND
1000
ACAD_MTEXT_DEFINED_HEIGHT_BEGIN
1070
    46
1040
7.886094601211307
1000
ACAD_MTEXT_DEFINED_HEIGHT_END
  0
ENDBLK
  5
1107F
330
10FE8
100
AcDbEntity
  8
0
100
AcDbBlockEnd
  0
BLOCK
  5
12005
330
12004
100
AcDbEntity
  8
0
100
AcDbBlockBegin
  2
*D2
 70
     1
 10
0.0
 20
0.0
 30
0.0
  3
*D2
  1

  0
LINE
  5
120BC
330
12004
100
AcDbEntity
  8
DIM
 62
     6
370
    -2
100
AcDbLine
 10
434.7587778594041
 20
300.9386712191587
 30
0.0
 11
434.7587778594041
 21
319.4599634925105
 31
0.0
  0
LINE
  5
120BD
330
12004
100
AcDbEntity
  8
DIM
 62
     6
370
    -2
100
AcDbLine
 10
468.958781859404
 20
300.9386712191587
 30
0.0
 11
468.958781859404
 21
319.4599634925105
 31
0.0
  0
LINE
  5
120BE
330
12004
100
AcDbEntity
  8
DIM
 62
     1
370
    -2
100
AcDbLine
 10
437.758777859404
 20
318.2599634925105
 30
0.0
 11
465.9587818594044
 21
318.2599634925105
 31
0.0
  0
SOLID
  5
120BF
330
12004
100
AcDbEntity
  8
DIM
 62
     1
100
AcDbTrace
 10
437.758777859404
 20
318.7599634925105
 30
0.0
 11
437.758777859404
 21
317.7599634925105
 31
0.0
 12
434.7587778594041
 22
318.2599634925105
 32
0.0
 13
434.7587778594041
 23
318.2599634925105
 33
0.0
  0
SOLID
  5
120C0
330
12004
100
AcDbEntity
  8
DIM
 62
     1
100
AcDbTrace
 10
465.9587818594044
 20
318.7599634925105
 30
0.0
 11
465.9587818594044
 21
317.7599634925105
 31
0.0
 12
468.958781859404
 22
318.2599634925105
 32
0.0
 13
468.958781859404
 23
318.2599634925105
 33
0.0
  0
MTEXT
  5
120C1
330
12004
100
AcDbEntity
  8
DIM
 62
     4
100
AcDbMText
 10
451.8587798594043
 20
320.8099634925105
 30
0.0
 40
3.5
 41
0.0
 71
     5
 72
     1
  1
\A1;34.2
  7
Romans字体
 73
     1
 44
1.0
1001
ACAD
1000
MTEXTBEGIN
1070
    73
1070
     1
1070
    44
1040
1.0
1070
    74
1070
     0
1000
MTEXTEND
  0
POINT
  5
120C2
330
12004
100
AcDbEntity
  8
Defpoints
 62
     0
100
AcDbPoint
 10
434.7587778594041
 20
300.7386712191587
 30
0.0
  0
POINT
  5
120C3
330
12004
100
AcDbEntity
  8
Defpoints
 62
     0
100
AcDbPoint
 10
468.958781859404
 20
300.7386712191587
 30
0.0
  0
POINT
  5
120C4
330
12004
100
AcDbEntity
  8
Defpoints
 62
     0
100
AcDbPoint
 10
468.958781859404
 20
318.2599634925105
 30
0.0
  0
ENDBLK
  5
12006
330
12004
100
AcDbEntity
  8
0
100
AcDbBlockEnd
  0
BLOCK
  5
12011
330
12010
100
AcDbEntity
  8
0
100
AcDbBlockBegin
  2
*D3
 70
     1
 10
0.0
 20
0.0
 30
0.0
  3
*D3
  1

  0
LINE
  5
120C5
330
12010
100
AcDbEntity
  8
DIM
 62
     6
370
    -2
100
AcDbLine
 10
465.8113753648859
 20
353.896855076639
 30
0.0
 11
477.9512645790857
 21
353.896855076639
 31
0.0
  0
LINE
  5
120C6
330
12010
100
AcDbEntity
  8
DIM
 62
     6
370
    -2
100
AcDbLine
 10
465.6469252088601
 20
339.296855076639
 30
0.0
 11
477.9512645790857
 21
339.296855076639
 31
0.0
  0
LINE
  5
120C7
330
12010
100
AcDbEntity
  8
DIM
 62
     1
370
    -2
100
AcDbLine
 10
476.7512645790858
 20
350.8968550766391
 30
0.0
 11
476.7512645790858
 21
342.296855076639
 31
0.0
  0
SOLID
  5
120C8
330
12010
100
AcDbEntity
  8
DIM
 62
     1
100
AcDbTrace
 10
476.2512645790858
 20
350.8968550766391
 30
0.0
 11
477.2512645790857
 21
350.8968550766391
 31
0.0
 12
476.7512645790858
 22
353.896855076639
 32
0.0
 13
476.7512645790858
 23
353.896855076639
 33
0.0
  0
SOLID
  5
120C9
330
12010
100
AcDbEntity
  8
DIM
 62
     1
100
AcDbTrace
 10
476.2512645790858
 20
342.296855076639
 30
0.0
 11
477.2512645790857
 21
342.296855076639
 31
0.0
 12
476.7512645790858
 22
339.296855076639
 32
0.0
 13
476.7512645790858
 23
339.296855076639
 33
0.0
  0
MTEXT
  5
120CA
330
12010
100
AcDbEntity
  8
DIM
 62
     4
100
AcDbMText
 10
474.2012645790858
 20
346.5968550766391
 30
0.0
 40
3.5
 41
0.0
 71
     5
 72
     1
  1
\A1;14.6
  7
Romans字体
 11
0.0000000000000001
 21
1.0
 31
0.0
 73
     1
 44
1.0
1001
ACAD
1000
MTEXTBEGIN
1070
    73
1070
     1
1070
    44
1040
1.0
1070
    74
1070
     0
1000
MTEXTEND
  0
POINT
  5
120CB
330
12010
100
AcDbEntity
  8
Defpoints
 62
     0
100
AcDbPoint
 10
465.6113753648859
 20
353.896855076639
 30
0.0
  0
POINT
  5
120CC
330
12010
100
AcDbEntity
  8
Defpoints
 62
     0
100
AcDbPoint
 10
465.4469252088601
 20
339.296855076639
 30
0.0
  0
POINT
  5
120CD
330
12010
100
AcDbEntity
  8
Defpoints
 62
     0
100
AcDbPoint
 10
476.7512645790858
 20
339.296855076639
 30
0.0
  0
ENDBLK
  5
12012
330
12010
100
AcDbEntity
  8
0
100
AcDbBlockEnd
  0
BLOCK
  5
1201D
330
1201C
100
AcDbEntity
  8
0
100
AcDbBlockBegin
  2
*D4
 70
     1
 10
0.0
 20
0.0
 30
0.0
  3
*D4
  1

  0
LINE
  5
12188
330
1201C
100
AcDbEntity
  8
DIM
 62
     6
370
    -2
100
AcDbLine
 10
504.2078792274914
 20
312.4386712191583
 30
0.0
 11
515.4516806236032
 21
312.4386712191583
 31
0.0
  0
LINE
  5
12189
330
1201C
100
AcDbEntity
  8
DIM
 62
     6
370
    -2
100
AcDbLine
 10
503.2876750117914
 20
268.7386712191584
 30
0.0
 11
515.4516806236032
 21
268.7386712191584
 31
0.0
  0
LINE
  5
1218A
330
1201C
100
AcDbEntity
  8
DIM
 62
     1
370
    -2
100
AcDbLine
 10
514.2516806236033
 20
309.4386712191583
 30
0.0
 11
514.2516806236033
 21
271.7386712191584
 31
0.0
  0
SOLID
  5
1218B
330
1201C
100
AcDbEntity
  8
DIM
 62
     1
100
AcDbTrace
 10
513.7516806236033
 20
309.4386712191583
 30
0.0
 11
514.7516806236033
 21
309.4386712191583
 31
0.0
 12
514.2516806236033
 22
312.4386712191583
 32
0.0
 13
514.2516806236033
 23
312.4386712191583
 33
0.0
  0
SOLID
  5
1218C
330
1201C
100
AcDbEntity
  8
DIM
 62
     1
100
AcDbTrace
 10
513.7516806236033
 20
271.7386712191584
 30
0.0
 11
514.7516806236033
 21
271.7386712191584
 31
0.0
 12
514.2516806236033
 22
268.7386712191584
 32
0.0
 13
514.2516806236033
 23
268.7386712191584
 33
0.0
  0
MTEXT
  5
1218D
330
1201C
100
AcDbEntity
  8
DIM
 62
     4
100
AcDbMText
 10
511.7016806236032
 20
290.5886712191584
 30
0.0
 40
3.5
 41
0.0
 71
     5
 72
     1
  1
\A1;43.7
  7
Romans字体
 11
0.0000000000000001
 21
1.0
 31
0.0
 73
     1
 44
1.0
1001
ACAD
1000
MTEXTBEGIN
1070
    73
1070
     1
1070
    44
1040
1.0
1070
    74
1070
     0
1000
MTEXTEND
  0
POINT
  5
1218E
330
1201C
100
AcDbEntity
  8
Defpoints
 62
     0
100
AcDbPoint
 10
504.0078792274914
 20
312.4386712191583
 30
0.0
  0
POINT
  5
1218F
330
1201C
100
AcDbEntity
  8
Defpoints
 62
     0
100
AcDbPoint
 10
503.0876750117911
 20
268.7386712191584
 30
0.0
  0
POINT
  5
12190
330
1201C
100
AcDbEntity
  8
Defpoints
 62
     0
100
AcDbPoint
 10
514.2516806236033
 20
268.7386712191584
 30
0.0
  0
ENDBLK
  5
1201E
330
1201C
100
AcDbEntity
  8
0
100
AcDbBlockEnd
  0
BLOCK
  5
1217D
330
1217C
100
AcDbEntity
  8
0
100
AcDbBlockBegin
  2
*D5
 70
     1
 10
0.0
 20
0.0
 30
0.0
  3
*D5
  1

  0
LINE
  5
1217F
330
1217C
100
AcDbEntity
  8
0
 62
     6
370
    -2
100
AcDbLine
 10
510.0297799255474
 20
312.3386712191583
 30
0.0
 11
529.3091624237509
 21
312.3386712191583
 31
0.0
  0
LINE
  5
12180
330
1217C
100
AcDbEntity
  8
0
 62
     6
370
    -2
100
AcDbLine
 10
510.0297799255474
 20
268.7386712191584
 30
0.0
 11
529.3091624237509
 21
268.7386712191584
 31
0.0
  0
LINE
  5
12181
330
1217C
100
AcDbEntity
  8
0
 62
     1
370
    -2
100
AcDbLine
 10
528.1091624237508
 20
309.3386712191583
 30
0.0
 11
528.1091624237508
 21
271.7386712191584
 31
0.0
  0
SOLID
  5
12182
330
1217C
100
AcDbEntity
  8
0
 62
     1
100
AcDbTrace
 10
527.6091624237507
 20
309.3386712191583
 30
0.0
 11
528.6091624237508
 21
309.3386712191583
 31
0.0
 12
528.1091624237508
 22
312.3386712191583
 32
0.0
 13
528.1091624237508
 23
312.3386712191583
 33
0.0
  0
SOLID
  5
12183
330
1217C
100
AcDbEntity
  8
0
 62
     1
100
AcDbTrace
 10
527.6091624237507
 20
271.7386712191584
 30
0.0
 11
528.6091624237508
 21
271.7386712191584
 31
0.0
 12
528.1091624237508
 22
268.7386712191584
 32
0.0
 13
528.1091624237508
 23
268.7386712191584
 33
0.0
  0
MTEXT
  5
12184
330
1217C
100
AcDbEntity
  8
0
 62
     4
100
AcDbMText
 10
525.5591624237506
 20
290.5386712191583
 30
0.0
 40
3.5
 41
0.0
 71
     5
 72
     1
  1
\A1;43.6
  7
Romans字体
 11
0.0000000000000001
 21
1.0
 31
0.0
 73
     1
 44
1.0
1001
ACAD
1000
MTEXTBEGIN
1070
    73
1070
     1
1070
    44
1040
1.0
1070
    74
1070
     0
1000
MTEXTEND
  0
POINT
  5
12185
330
1217C
100
AcDbEntity
  8
Defpoints
 62
     0
100
AcDbPoint
 10
509.8297799255474
 20
312.3386712191583
 30
0.0
  0
POINT
  5
12186
330
1217C
100
AcDbEntity
  8
Defpoints
 62
     0
100
AcDbPoint
 10
509.8297799255474
 20
268.7386712191584
 30
0.0
  0
POINT
  5
12187
330
1217C
100
AcDbEntity
  8
Defpoints
 62
     0
100
AcDbPoint
 10
528.1091624237508
 20
268.7386712191584
 30
0.0
  0
ENDBLK
  5
1217E
330
1217C
100
AcDbEntity
  8
0
100
AcDbBlockEnd
  0
BLOCK
  5
12193
330
12192
100
AcDbEntity
  8
0
100
AcDbBlockBegin
  2
*D6
 70
     1
 10
0.0
 20
0.0
 30
0.0
  3
*D6
  1

  0
LINE
  5
12195
330
12192
100
AcDbEntity
  8
DIM
 62
     6
370
    -2
100
AcDbLine
 10
504.2078792274914
 20
312.4386712191583
 30
0.0
 11
516.7485125651948
 21
312.4386712191583
 31
0.0
  0
LINE
  5
12196
330
12192
100
AcDbEntity
  8
DIM
 62
     6
370
    -2
100
AcDbLine
 10
500.1796806587917
 20
268.7386712191584
 30
0.0
 11
516.7485125651948
 21
268.7386712191584
 31
0.0
  0
LINE
  5
12197
330
12192
100
AcDbEntity
  8
DIM
 62
     1
370
    -2
100
AcDbLine
 10
515.5485125651948
 20
309.4386712191583
 30
0.0
 11
515.5485125651948
 21
271.7386712191584
 31
0.0
  0
SOLID
  5
12198
330
12192
100
AcDbEntity
  8
DIM
 62
     1
100
AcDbTrace
 10
515.0485125651949
 20
309.4386712191583
 30
0.0
 11
516.0485125651947
 21
309.4386712191583
 31
0.0
 12
515.5485125651948
 22
312.4386712191583
 32
0.0
 13
515.5485125651948
 23
312.4386712191583
 33
0.0
  0
SOLID
  5
12199
330
12192
100
AcDbEntity
  8
DIM
 62
     1
100
AcDbTrace
 10
515.0485125651949
 20
271.7386712191584
 30
0.0
 11
516.0485125651947
 21
271.7386712191584
 31
0.0
 12
515.5485125651948
 22
268.7386712191584
 32
0.0
 13
515.5485125651948
 23
268.7386712191584
 33
0.0
  0
MTEXT
  5
1219A
330
12192
100
AcDbEntity
  8
DIM
 62
     4
100
AcDbMText
 10
512.9985125651947
 20
290.5886712191584
 30
0.0
 40
3.5
 41
0.0
 71
     5
 72
     1
  1
\A1;43.7
  7
Romans字体
 11
0.0000000000000001
 21
1.0
 31
0.0
 73
     1
 44
1.0
1001
ACAD
1000
MTEXTBEGIN
1070
    73
1070
     1
1070
    44
1040
1.0
1070
    74
1070
     0
1000
MTEXTEND
  0
POINT
  5
1219B
330
12192
100
AcDbEntity
  8
Defpoints
 62
     0
100
AcDbPoint
 10
504.0078792274914
 20
312.4386712191583
 30
0.0
  0
POINT
  5
1219C
330
12192
100
AcDbEntity
  8
Defpoints
 62
     0
100
AcDbPoint
 10
499.9796806587916
 20
268.7386712191584
 30
0.0
  0
POINT
  5
1219D
330
12192
100
AcDbEntity
  8
Defpoints
 62
     0
100
AcDbPoint
 10
515.5485125651948
 20
268.7386712191584
 30
0.0
  0
ENDBLK
  5
12194
330
12192
100
AcDbEntity
  8
0
100
AcDbBlockEnd
  0
ENDSEC
  0
SECTION
  2
ENTITIES
  0
HATCH
  5
28AE
330
1F
100
AcDbEntity
  8
图层 1
 62
     7
100
AcDbHatch
 10
0.0
 20
0.0
 30
0.0
210
0.0
220
0.0
230
1.0
  2
SOLID
 70
     1
 71
     0
 91
        1
 92
        1
 93
        2
 72
     4
 94
        3
 73
     0
 74
     0
 95
       17
 96
       13
 40
0.0
 40
0.0
 40
0.0
 40
0.0
 40
0.3527780104152769
 40
0.3527780104152769
 40
0.3527780104152769
 40
0.7055560208305538
 40
0.7055560208305538
 40
0.7055560208305538
 40
1.058334031245828
 40
1.058334031245828
 40
1.058334031245828
 40
1.411112041661104
 40
1.411112041661104
 40
1.411112041661104
 40
1.411112041661104
 10
11.07013262565829
 20
29.50312817963231
 10
11.07013262565829
 20
29.50312817963231
 10
10.9431807732774
 20
29.50312817963231
 10
10.9431807732774
 20
29.50312817963231
 10
10.9431807732774
 20
29.50312817963231
 10
10.85843136843155
 20
29.22786486877117
 10
10.85843136843155
 20
29.22786486877117
 10
10.85843136843155
 20
29.22786486877117
 10
10.90080607085448
 20
29.2068497724476
 10
10.90080607085448
 20
29.2068497724476
 10
10.94455881238059
 20
29.31571486159919
 10
11.00346998404173
 20
29.40907701083995
 10
11.07013262565829
 20
29.50312817963231
 72
     1
 10
11.07013262565829
 20
29.50312817963231
 11
11.07013262565829
 21
29.50312817963231
 97
        0
 75
     0
 76
     1
 98
        0
  0
HATCH
  5
2C65
330
1F
100
AcDbEntity
  8
图层 1
 62
     7
100
AcDbHatch
 10
0.0
 20
0.0
 30
0.0
210
0.0
220
0.0
230
1.0
  2
SOLID
 70
     1
 71
     0
 91
        1
 92
        1
 93
        2
 72
     4
 94
        3
 73
     0
 74
     0
 95
       47
 96
       43
 40
0.0
 40
0.0
 40
0.0
 40
0.0
 40
0.3527780104152769
 40
0.3527780104152769
 40
0.3527780104152769
 40
0.7055560208305538
 40
0.7055560208305538
 40
0.7055560208305538
 40
1.058334031245828
 40
1.058334031245828
 40
1.058334031245828
 40
1.411112041661104
 40
1.411112041661104
 40
1.411112041661104
 40
1.763890052076384
 40
1.763890052076384
 40
1.763890052076384
 40
2.116668062491659
 40
2.116668062491659
 40
2.116668062491659
 40
2.469446072906936
 40
2.469446072906936
 40
2.469446072906936
 40
2.822224083322215
 40
2.822224083322215
 40
2.822224083322215
 40
3.175002093737492
 40
3.175002093737492
 40
3.175002093737492
 40
3.527780104152768
 40
3.527780104152768
 40
3.527780104152768
 40
3.880558114568044
 40
3.880558114568044
 40
3.880558114568044
 40
4.233336124983321
 40
4.233336124983321
 40
4.233336124983321
 40
4.586114135398599
 40
4.586114135398599
 40
4.586114135398599
 40
4.938892145813873
 40
4.938892145813873
 40
4.938892145813873
 40
4.938892145813873
 10
162.8986914070121
 20
257.4895347631509
 10
162.8986914070121
 20
257.4895347631509
 10
162.9200510131114
 20
257.4471600607279
 10
162.9200510131114
 20
257.4471600607279
 10
162.9200510131114
 20
257.4471600607279
 10
162.9200510131114
 20
257.404785358305
 10
162.9200510131114
 20
257.404785358305
 10
162.9200510131114
 20
257.404785358305
 10
162.8986914070121
 20
257.36258291077
 10
162.8986914070121
 20
257.36258291077
 10
162.8986914070121
 20
257.36258291077
 10
162.8986914070121
 20
257.320208208347
 10
162.8986914070121
 20
257.320208208347
 10
162.8986914070121
 20
257.320208208347
 10
162.8563167045891
 20
257.2990208571356
 10
162.8563167045891
 20
257.2990208571356
 10
162.8563167045891
 20
257.2990208571356
 10
162.8139420021662
 20
257.2563016449369
 10
162.8139420021662
 20
257.2563016449369
 10
162.8139420021662
 20
257.2563016449369
 10
162.7295371070961
 20
257.2563016449369
 10
162.7295371070961
 20
257.2563016449369
 10
162.7295371070961
 20
257.2563016449369
 10
162.6658027985738
 20
257.2778335059241
 10
162.6658027985738
 20
257.2778335059241
 10
162.6658027985738
 20
257.2778335059241
 10
162.6237726059267
 20
257.2990208571356
 10
162.6237726059267
 20
257.2990208571356
 10
162.6237726059267
 20
257.2990208571356
 10
162.5813979035038
 20
257.3413955595585
 10
162.5813979035038
 20
257.3413955595585
 10
162.5813979035038
 20
257.3413955595585
 10
162.5813979035038
 20
257.4895347631509
 10
162.5813979035038
 20
257.4895347631509
 10
162.5813979035038
 20
257.4895347631509
 10
162.6447877022503
 20
257.5525800521216
 10
162.6447877022503
 20
257.5525800521216
 10
162.6447877022503
 20
257.5525800521216
 10
162.7081775009967
 20
257.5525800521216
 10
162.7081775009967
 20
257.5525800521216
 10
162.8749202324821
 20
257.5424170137356
 10
162.7918933765152
 20
257.5939212252171
 10
162.8986914070121
 20
257.4895347631509
 72
     1
 10
162.8986914070121
 20
257.4895347631509
 11
162.8986914070121
 21
257.4895347631509
 97
        0
 75
     0
 76
     1
 98
        0
  0
HATCH
  5
2EE7
330
1F
100
AcDbEntity
  8
图层 1
 62
     7
100
AcDbHatch
 10
0.0
 20
0.0
 30
0.0
210
0.0
220
0.0
230
1.0
  2
SOLID
 70
     1
 71
     0
 91
        1
 92
        1
 93
        2
 72
     4
 94
        3
 73
     0
 74
     0
 95
       56
 96
       52
 40
0.0
 40
0.0
 40
0.0
 40
0.0
 40
0.3527780104152769
 40
0.3527780104152769
 40
0.3527780104152769
 40
0.7055560208305538
 40
0.7055560208305538
 40
0.7055560208305538
 40
1.058334031245828
 40
1.058334031245828
 40
1.058334031245828
 40
1.411112041661104
 40
1.411112041661104
 40
1.411112041661104
 40
1.763890052076384
 40
1.763890052076384
 40
1.763890052076384
 40
2.116668062491659
 40
2.116668062491659
 40
2.116668062491659
 40
2.469446072906936
 40
2.469446072906936
 40
2.469446072906936
 40
2.822224083322215
 40
2.822224083322215
 40
2.822224083322215
 40
3.175002093737492
 40
3.175002093737492
 40
3.175002093737492
 40
3.527780104152768
 40
3.527780104152768
 40
3.527780104152768
 40
3.880558114568044
 40
3.880558114568044
 40
3.880558114568044
 40
4.233336124983321
 40
4.233336124983321
 40
4.233336124983321
 40
4.586114135398599
 40
4.586114135398599
 40
4.586114135398599
 40
4.938892145813873
 40
4.938892145813873
 40
4.938892145813873
 40
5.291670156229153
 40
5.291670156229153
 40
5.291670156229153
 40
5.64444816664443
 40
5.64444816664443
 40
5.64444816664443
 40
5.997226177059705
 40
5.997226177059705
 40
5.997226177059705
 40
5.997226177059705
 10
185.4837187788815
 20
241.4451977396596
 10
185.4837187788815
 20
241.4451977396596
 10
185.4837187788815
 20
241.4028230372367
 10
185.4837187788815
 20
241.4028230372367
 10
185.4837187788815
 20
241.4028230372367
 10
185.5047338752051
 20
241.3604483348137
 10
185.5047338752051
 20
241.3604483348137
 10
185.4520238795082
 20
241.2782827532863
 10
185.4671823096433
 20
241.1897437409066
 10
185.335579575289
 20
241.2119646214456
 10
185.335579575289
 20
241.2119646214456
 10
185.2932048728662
 20
241.2119646214456
 10
185.2932048728662
 20
241.2119646214456
 10
185.2932048728662
 20
241.2119646214456
 10
185.2294705643439
 20
241.2334964824328
 10
185.2294705643439
 20
241.2334964824328
 10
185.2294705643439
 20
241.2334964824328
 10
185.1660807655974
 20
241.2543393238685
 10
185.1660807655974
 20
241.2543393238685
 10
185.1660807655974
 20
241.2543393238685
 10
185.1450656692739
 20
241.2758711848558
 10
185.1450656692739
 20
241.2758711848558
 10
185.1450656692739
 20
241.2758711848558
 10
185.1450656692739
 20
241.2967140262914
 10
185.1450656692739
 20
241.2967140262914
 10
185.1450656692739
 20
241.2967140262914
 10
185.1237060631745
 20
241.3604483348137
 10
185.1237060631745
 20
241.3604483348137
 10
185.1237060631745
 20
241.3604483348137
 10
185.1237060631745
 20
241.4028230372367
 10
185.1237060631745
 20
241.4028230372367
 10
185.1237060631745
 20
241.4028230372367
 10
185.1660807655974
 20
241.4875724420825
 10
185.1660807655974
 20
241.4875724420825
 10
185.1660807655974
 20
241.4875724420825
 10
185.2084554680203
 20
241.5085875384061
 10
185.2084554680203
 20
241.5085875384061
 10
185.2084554680203
 20
241.5085875384061
 10
185.2718452667668
 20
241.5297748896175
 10
185.2718452667668
 20
241.5297748896175
 10
185.2718452667668
 20
241.5297748896175
 10
185.3565946716127
 20
241.5297748896175
 10
185.3565946716127
 20
241.5297748896175
 10
185.3565946716127
 20
241.5297748896175
 10
185.4199844703592
 20
241.5085875384061
 10
185.4199844703592
 20
241.5085875384061
 10
185.4199844703592
 20
241.5085875384061
 10
185.4623591727821
 20
241.4875724420825
 10
185.4623591727821
 20
241.4875724420825
 10
185.4623591727821
 20
241.4875724420825
 10
185.4837187788815
 20
241.4451977396596
 10
185.4837187788815
 20
241.4451977396596
 72
     1
 10
185.4837187788815
 20
241.4451977396596
 11
185.4837187788815
 21
241.4451977396596
 97
        0
 75
     0
 76
     1
 98
        0
  0
HATCH
  5
2F93
330
1F
100
AcDbEntity
  8
图层 1
 62
     7
100
AcDbHatch
 10
0.0
 20
0.0
 30
0.0
210
0.0
220
0.0
230
1.0
  2
SOLID
 70
     1
 71
     0
 91
        1
 92
        1
 93
        2
 72
     4
 94
        3
 73
     0
 74
     0
 95
       38
 96
       34
 40
0.0
 40
0.0
 40
0.0
 40
0.0
 40
0.3527780104152769
 40
0.3527780104152769
 40
0.3527780104152769
 40
0.7055560208305538
 40
0.7055560208305538
 40
0.7055560208305538
 40
1.058334031245828
 40
1.058334031245828
 40
1.058334031245828
 40
1.411112041661104
 40
1.411112041661104
 40
1.411112041661104
 40
1.763890052076384
 40
1.763890052076384
 40
1.763890052076384
 40
2.116668062491659
 40
2.116668062491659
 40
2.116668062491659
 40
2.469446072906936
 40
2.469446072906936
 40
2.469446072906936
 40
2.822224083322215
 40
2.822224083322215
 40
2.822224083322215
 40
3.175002093737492
 40
3.175002093737492
 40
3.175002093737492
 40
3.527780104152768
 40
3.527780104152768
 40
3.527780104152768
 40
3.880558114568044
 40
3.880558114568044
 40
3.880558114568044
 40
3.880558114568044
 10
185.907121293335
 20
220.1937677098971
 10
185.9005756075949
 20
220.0449394867532
 10
185.9329595265197
 20
220.1136691870245
 10
185.864746590912
 20
219.9817219428946
 10
185.864746590912
 20
219.9817219428946
 10
185.822371888489
 20
219.9605345916831
 10
185.822371888489
 20
219.9605345916831
 10
185.822371888489
 20
219.9605345916831
 10
185.6528730787974
 20
219.9605345916831
 10
185.6528730787974
 20
219.9605345916831
 10
185.6528730787974
 20
219.9605345916831
 10
185.5894832800509
 20
220.002909294106
 10
185.5894832800509
 20
220.002909294106
 10
185.5894832800509
 20
220.002909294106
 10
185.5681236739515
 20
220.0240966453175
 10
185.5681236739515
 20
220.0240966453175
 10
185.5681236739515
 20
220.0240966453175
 10
185.5681236739515
 20
220.045283996529
 10
185.5681236739515
 20
220.045283996529
 10
185.5681236739515
 20
220.045283996529
 10
185.547108577628
 20
220.0876586989519
 10
185.547108577628
 20
220.0876586989519
 10
185.547108577628
 20
220.0876586989519
 10
185.547108577628
 20
220.1513930074742
 10
185.547108577628
 20
220.1513930074742
 10
185.547108577628
 20
220.1513930074742
 10
185.5894832800509
 20
220.23614241232
 10
185.5894832800509
 20
220.23614241232
 10
185.5894832800509
 20
220.23614241232
 10
185.6318579824738
 20
220.2573297635315
 10
185.6318579824738
 20
220.2573297635315
 10
185.7055830744942
 20
220.2566407439799
 10
185.8416644359337
 20
220.3310548555519
 10
185.907121293335
 20
220.1937677098971
 72
     1
 10
185.907121293335
 20
220.1937677098971
 11
185.907121293335
 21
220.1937677098971
 97
        0
 75
     0
 76
     1
 98
        0
  0
HATCH
  5
2FDE
330
1F
100
AcDbEntity
  8
图层 1
 62
     7
100
AcDbHatch
 10
0.0
 20
0.0
 30
0.0
210
0.0
220
0.0
230
1.0
  2
SOLID
 70
     1
 71
     0
 91
        1
 92
        1
 93
        2
 72
     4
 94
        3
 73
     0
 74
     0
 95
       50
 96
       46
 40
0.0
 40
0.0
 40
0.0
 40
0.0
 40
0.3527780104152769
 40
0.3527780104152769
 40
0.3527780104152769
 40
0.7055560208305538
 40
0.7055560208305538
 40
0.7055560208305538
 40
1.058334031245828
 40
1.058334031245828
 40
1.058334031245828
 40
1.411112041661104
 40
1.411112041661104
 40
1.411112041661104
 40
1.763890052076384
 40
1.763890052076384
 40
1.763890052076384
 40
2.116668062491659
 40
2.116668062491659
 40
2.116668062491659
 40
2.469446072906936
 40
2.469446072906936
 40
2.469446072906936
 40
2.822224083322215
 40
2.822224083322215
 40
2.822224083322215
 40
3.175002093737492
 40
3.175002093737492
 40
3.175002093737492
 40
3.527780104152768
 40
3.527780104152768
 40
3.527780104152768
 40
3.880558114568044
 40
3.880558114568044
 40
3.880558114568044
 40
4.233336124983321
 40
4.233336124983321
 40
4.233336124983321
 40
4.586114135398599
 40
4.586114135398599
 40
4.586114135398599
 40
4.938892145813873
 40
4.938892145813873
 40
4.938892145813873
 40
5.291670156229153
 40
5.291670156229153
 40
5.291670156229153
 40
5.291670156229153
 10
180.9117295442905
 20
208.9327766684477
 10
180.9117295442905
 20
208.9327766684477
 10
180.9117295442905
 20
208.7637946234197
 10
180.9117295442905
 20
208.7637946234197
 10
181.2273004989198
 20
208.6749111012643
 10
181.3833634273555
 20
208.6776671794706
 10
181.6948002646751
 20
208.5097186637701
 10
181.9542161258496
 20
208.4294478860095
 10
182.1388733656765
 20
208.2134402565853
 10
182.3297317814676
 20
208.02292635057
 10
182.3297317814676
 20
208.02292635057
 10
182.435496282637
 20
208.065301052993
 10
182.435496282637
 20
208.065301052993
 10
182.288390608372
 20
208.2733849575739
 10
182.3752070718726
 20
208.2134402565853
 10
182.1605774815516
 20
208.3824223016133
 10
182.1605774815516
 20
208.3824223016133
 10
182.1182027791287
 20
208.4247970040363
 10
182.1182027791287
 20
208.4247970040363
 10
182.1182027791287
 20
208.4247970040363
 10
182.0968431730294
 20
208.467516216235
 10
182.0968431730294
 20
208.467516216235
 10
182.0968431730294
 20
208.467516216235
 10
182.0544684706064
 20
208.4883590576707
 10
182.0544684706064
 20
208.4883590576707
 10
182.0544684706064
 20
208.4883590576707
 10
181.9910786718599
 20
208.5305615052057
 10
181.9910786718599
 20
208.5305615052057
 10
181.9910786718599
 20
208.5305615052057
 10
181.948703969437
 20
208.552093366193
 10
181.948703969437
 20
208.552093366193
 10
181.948703969437
 20
208.552093366193
 10
181.9063292670141
 20
208.5729362076286
 10
181.9063292670141
 20
208.5729362076286
 10
181.9063292670141
 20
208.5729362076286
 10
181.8639545645911
 20
208.6156554198274
 10
181.8639545645911
 20
208.6156554198274
 10
181.8639545645911
 20
208.6156554198274
 10
181.821924371944
 20
208.6368427710388
 10
181.821924371944
 20
208.6368427710388
 10
181.6637943848536
 20
208.6742220817127
 10
181.5452830219797
 20
208.8092699138248
 10
181.3771622513911
 20
208.8061693258427
 10
181.2803550043924
 20
208.8573290275484
 10
181.0126709085988
 20
208.8971199066528
 10
180.9117295442905
 20
208.9327766684477
 72
     1
 10
180.9117295442905
 20
208.9327766684477
 11
180.9117295442905
 21
208.9327766684477
 97
        0
 75
     0
 76
     1
 98
        0
  0
HATCH
  5
35C8
330
1F
100
AcDbEntity
  8
图层 1
 62
     7
100
AcDbHatch
 10
0.0
 20
0.0
 30
0.0
210
0.0
220
0.0
230
1.0
  2
SOLID
 70
     1
 71
     0
 91
        1
 92
        1
 93
        2
 72
     4
 94
        3
 73
     0
 74
     0
 95
       38
 96
       34
 40
0.0
 40
0.0
 40
0.0
 40
0.0
 40
0.3527780104152769
 40
0.3527780104152769
 40
0.3527780104152769
 40
0.7055560208305538
 40
0.7055560208305538
 40
0.7055560208305538
 40
1.058334031245828
 40
1.058334031245828
 40
1.058334031245828
 40
1.411112041661104
 40
1.411112041661104
 40
1.411112041661104
 40
1.763890052076384
 40
1.763890052076384
 40
1.763890052076384
 40
2.116668062491659
 40
2.116668062491659
 40
2.116668062491659
 40
2.469446072906936
 40
2.469446072906936
 40
2.469446072906936
 40
2.822224083322215
 40
2.822224083322215
 40
2.822224083322215
 40
3.175002093737492
 40
3.175002093737492
 40
3.175002093737492
 40
3.527780104152768
 40
3.527780104152768
 40
3.527780104152768
 40
3.880558114568044
 40
3.880558114568044
 40
3.880558114568044
 40
3.880558114568044
 10
189.145513185819
 20
166.8326485368285
 10
189.207869455238
 20
166.740492171803
 10
189.1317327947871
 20
166.6833035490209
 10
189.103138483396
 20
166.6209472796017
 10
189.103138483396
 20
166.6209472796017
 10
189.0607637809731
 20
166.5997599283903
 10
189.0607637809731
 20
166.5997599283903
 10
189.0607637809731
 20
166.5997599283903
 10
188.9973739822266
 20
166.5785725771788
 10
188.9973739822266
 20
166.5785725771788
 10
188.9973739822266
 20
166.5785725771788
 10
188.9549992798037
 20
166.5997599283903
 10
188.9549992798037
 20
166.5997599283903
 10
188.9549992798037
 20
166.5997599283903
 10
188.8916094810572
 20
166.5997599283903
 10
188.8916094810572
 20
166.5997599283903
 10
188.8916094810572
 20
166.5997599283903
 10
188.8492347786343
 20
166.6209472796017
 10
188.8492347786343
 20
166.6209472796017
 10
188.8492347786343
 20
166.6209472796017
 10
188.8278751725349
 20
166.6633219820247
 10
188.8278751725349
 20
166.6633219820247
 10
188.8278751725349
 20
166.6633219820247
 10
188.8068600762114
 20
166.6845093332361
 10
188.8068600762114
 20
166.6845093332361
 10
188.8068600762114
 20
166.6845093332361
 10
188.8068600762114
 20
166.8326485368285
 10
188.8068600762114
 20
166.8326485368285
 10
188.8068600762114
 20
166.8326485368285
 10
188.8702498749578
 20
166.896038335575
 10
188.8702498749578
 20
166.896038335575
 10
189.0228677056355
 20
166.8819134347673
 10
189.0686875058164
 20
166.9411691162043
 10
189.145513185819
 20
166.8326485368285
 72
     1
 10
189.145513185819
 20
166.8326485368285
 11
189.145513185819
 21
166.8326485368285
 97
        0
 75
     0
 76
     1
 98
        0
  0
HATCH
  5
35D8
330
1F
100
AcDbEntity
  8
图层 1
 62
     7
100
AcDbHatch
 10
0.0
 20
0.0
 30
0.0
210
0.0
220
0.0
230
1.0
  2
SOLID
 70
     1
 71
     0
 91
        1
 92
        1
 93
        2
 72
     4
 94
        3
 73
     0
 74
     0
 95
       68
 96
       64
 40
0.0
 40
0.0
 40
0.0
 40
0.0
 40
0.3527780104152769
 40
0.3527780104152769
 40
0.3527780104152769
 40
0.7055560208305538
 40
0.7055560208305538
 40
0.7055560208305538
 40
1.058334031245828
 40
1.058334031245828
 40
1.058334031245828
 40
1.411112041661104
 40
1.411112041661104
 40
1.411112041661104
 40
1.763890052076384
 40
1.763890052076384
 40
1.763890052076384
 40
2.116668062491659
 40
2.116668062491659
 40
2.116668062491659
 40
2.469446072906936
 40
2.469446072906936
 40
2.469446072906936
 40
2.822224083322215
 40
2.822224083322215
 40
2.822224083322215
 40
3.175002093737492
 40
3.175002093737492
 40
3.175002093737492
 40
3.527780104152768
 40
3.527780104152768
 40
3.527780104152768
 40
3.880558114568044
 40
3.880558114568044
 40
3.880558114568044
 40
4.233336124983321
 40
4.233336124983321
 40
4.233336124983321
 40
4.586114135398599
 40
4.586114135398599
 40
4.586114135398599
 40
4.938892145813873
 40
4.938892145813873
 40
4.938892145813873
 40
5.291670156229153
 40
5.291670156229153
 40
5.291670156229153
 40
5.64444816664443
 40
5.64444816664443
 40
5.64444816664443
 40
5.997226177059705
 40
5.997226177059705
 40
5.997226177059705
 40
6.350004187474984
 40
6.350004187474984
 40
6.350004187474984
 40
6.702782197890257
 40
6.702782197890257
 40
6.702782197890257
 40
7.055560208305537
 40
7.055560208305537
 40
7.055560208305537
 40
7.408338218720808
 40
7.408338218720808
 40
7.408338218720808
 40
7.408338218720808
 10
174.7732543591544
 20
135.4846705078077
 10
174.7732543591544
 20
135.4846705078077
 10
174.7732543591544
 20
135.3789060066383
 10
174.7732543591544
 20
135.3789060066383
 10
174.7732543591544
 20
135.3789060066383
 10
174.8156290615773
 20
135.3789060066383
 10
174.8156290615773
 20
135.3789060066383
 10
174.8156290615773
 20
135.3789060066383
 10
174.8580037640002
 20
135.3578909103147
 10
174.8580037640002
 20
135.3578909103147
 10
174.8580037640002
 20
135.3578909103147
 10
174.9213935627468
 20
135.3578909103147
 10
174.9213935627468
 20
135.3578909103147
 10
174.9213935627468
 20
135.3578909103147
 10
174.9637682651697
 20
135.3365313042154
 10
174.9637682651697
 20
135.3365313042154
 10
174.9637682651697
 20
135.3365313042154
 10
174.9847833614933
 20
135.3365313042154
 10
174.9847833614933
 20
135.3365313042154
 10
174.9847833614933
 20
135.3365313042154
 10
175.0271580639162
 20
135.3155162078918
 10
175.0271580639162
 20
135.3155162078918
 10
175.0271580639162
 20
135.3155162078918
 10
175.0485176700155
 20
135.2941566017924
 10
175.0485176700155
 20
135.2941566017924
 10
175.0485176700155
 20
135.2941566017924
 10
175.0695327663391
 20
135.2941566017924
 10
175.0695327663391
 20
135.2941566017924
 10
175.0695327663391
 20
135.2941566017924
 10
175.0908923724385
 20
135.2731415054689
 10
175.0908923724385
 20
135.2731415054689
 10
175.0908923724385
 20
135.2731415054689
 10
175.1332670748614
 20
135.2731415054689
 10
175.1332670748614
 20
135.2731415054689
 10
175.1332670748614
 20
135.2731415054689
 10
175.154282171185
 20
135.2517818993695
 10
175.154282171185
 20
135.2517818993695
 10
175.154282171185
 20
135.2517818993695
 10
175.154282171185
 20
135.3578909103147
 10
175.154282171185
 20
135.3578909103147
 10
175.154282171185
 20
135.3578909103147
 10
175.1332670748614
 20
135.3789060066383
 10
175.1332670748614
 20
135.3789060066383
 10
175.1332670748614
 20
135.3789060066383
 10
175.0908923724385
 20
135.3789060066383
 10
175.0908923724385
 20
135.3789060066383
 10
175.0908923724385
 20
135.3789060066383
 10
175.0908923724385
 20
135.3999211029619
 10
175.0908923724385
 20
135.3999211029619
 10
175.0908923724385
 20
135.3999211029619
 10
175.0695327663391
 20
135.3999211029619
 10
175.0695327663391
 20
135.3999211029619
 10
175.0695327663391
 20
135.3999211029619
 10
175.0271580639162
 20
135.4212807090612
 10
175.0271580639162
 20
135.4212807090612
 10
175.0271580639162
 20
135.4212807090612
 10
175.0061429675926
 20
135.4212807090612
 10
175.0061429675926
 20
135.4212807090612
 10
175.0061429675926
 20
135.4212807090612
 10
174.9637682651697
 20
135.4422958053848
 10
174.9637682651697
 20
135.4422958053848
 10
174.8996894468716
 20
135.4498750204523
 10
174.8394002361073
 20
135.4860485469109
 10
174.7732543591544
 20
135.4846705078077
 72
     1
 10
174.7732543591544
 20
135.4846705078077
 11
174.7732543591544
 21
135.4846705078077
 97
        0
 75
     0
 76
     1
 98
        0
  0
HATCH
  5
3807
330
1F
100
AcDbEntity
  8
图层 1
 62
     7
100
AcDbHatch
 10
0.0
 20
0.0
 30
0.0
210
0.0
220
0.0
230
1.0
  2
SOLID
 70
     1
 71
     0
 91
        1
 92
        1
 93
        2
 72
     4
 94
        3
 73
     0
 74
     0
 95
       29
 96
       25
 40
0.0
 40
0.0
 40
0.0
 40
0.0
 40
0.3527780104152769
 40
0.3527780104152769
 40
0.3527780104152769
 40
0.7055560208305538
 40
0.7055560208305538
 40
0.7055560208305538
 40
1.058334031245828
 40
1.058334031245828
 40
1.058334031245828
 40
1.411112041661104
 40
1.411112041661104
 40
1.411112041661104
 40
1.763890052076384
 40
1.763890052076384
 40
1.763890052076384
 40
2.116668062491659
 40
2.116668062491659
 40
2.116668062491659
 40
2.469446072906936
 40
2.469446072906936
 40
2.469446072906936
 40
2.822224083322215
 40
2.822224083322215
 40
2.822224083322215
 40
2.822224083322215
 10
175.4929352807925
 20
164.0174869039101
 10
175.4929352807925
 20
164.0174869039101
 10
175.5139503771161
 20
163.9751122014871
 10
175.5139503771161
 20
163.9751122014871
 10
175.5139503771161
 20
163.9751122014871
 10
175.5139503771161
 20
163.9327374990642
 10
175.5139503771161
 20
163.9327374990642
 10
175.5139503771161
 20
163.9327374990642
 10
175.4929352807925
 20
163.8903627966413
 10
175.4929352807925
 20
163.8903627966413
 10
175.4929352807925
 20
163.8903627966413
 10
175.471920184469
 20
163.8691754454298
 10
175.471920184469
 20
163.8691754454298
 10
175.471920184469
 20
163.8691754454298
 10
175.4505605783696
 20
163.8269729978948
 10
175.4505605783696
 20
163.8269729978948
 10
175.3571984291289
 20
163.7715069239916
 10
175.272449024283
 20
163.8195660377152
 10
175.1966568736079
 20
163.8691754454298
 10
175.208370205985
 20
163.9930267098286
 10
175.1563492298397
 20
164.0216210212197
 10
175.2600466723544
 20
164.0596893514451
 10
175.3330827448232
 20
164.1094710140476
 10
175.4357466580104
 20
164.0753645462439
 10
175.4929352807925
 20
164.0174869039101
 72
     1
 10
175.4929352807925
 20
164.0174869039101
 11
175.4929352807925
 21
164.0174869039101
 97
        0
 75
     0
 76
     1
 98
        0
  0
HATCH
  5
3895
330
1F
100
AcDbEntity
  8
图层 1
 62
     7
100
AcDbHatch
 10
0.0
 20
0.0
 30
0.0
210
0.0
220
0.0
230
1.0
  2
SOLID
 70
     1
 71
     0
 91
        1
 92
        1
 93
        2
 72
     4
 94
        3
 73
     0
 74
     0
 95
       11
 96
        7
 40
0.0
 40
0.0
 40
0.0
 40
0.0
 40
0.3527780104152769
 40
0.3527780104152769
 40
0.3527780104152769
 40
0.7055560208305538
 40
0.7055560208305538
 40
0.7055560208305538
 40
0.7055560208305538
 10
174.9213935627468
 20
174.5369206529582
 10
174.9213935627468
 20
174.5369206529582
 10
174.9213935627468
 20
174.3043765542958
 10
174.9213935627468
 20
174.3043765542958
 10
174.9213935627468
 20
174.3043765542958
 10
174.9213935627468
 20
174.5369206529582
 10
174.9213935627468
 20
174.5369206529582
 72
     1
 10
174.9213935627468
 20
174.5369206529582
 11
174.9213935627468
 21
174.5369206529582
 97
        0
 75
     0
 76
     1
 98
        0
  0
HATCH
  5
3943
330
1F
100
AcDbEntity
  8
图层 1
 62
     7
100
AcDbHatch
 10
0.0
 20
0.0
 30
0.0
210
0.0
220
0.0
230
1.0
  2
SOLID
 70
     1
 71
     0
 91
        1
 92
        1
 93
        2
 72
     4
 94
        3
 73
     0
 74
     0
 95
      131
 96
      127
 40
0.0
 40
0.0
 40
0.0
 40
0.0
 40
0.3527780104152769
 40
0.3527780104152769
 40
0.3527780104152769
 40
0.7055560208305538
 40
0.7055560208305538
 40
0.7055560208305538
 40
1.058334031245828
 40
1.058334031245828
 40
1.058334031245828
 40
1.411112041661104
 40
1.411112041661104
 40
1.411112041661104
 40
1.763890052076384
 40
1.763890052076384
 40
1.763890052076384
 40
2.116668062491659
 40
2.116668062491659
 40
2.116668062491659
 40
2.469446072906936
 40
2.469446072906936
 40
2.469446072906936
 40
2.822224083322215
 40
2.822224083322215
 40
2.822224083322215
 40
3.175002093737492
 40
3.175002093737492
 40
3.175002093737492
 40
3.527780104152768
 40
3.527780104152768
 40
3.527780104152768
 40
3.880558114568044
 40
3.880558114568044
 40
3.880558114568044
 40
4.233336124983321
 40
4.233336124983321
 40
4.233336124983321
 40
4.586114135398599
 40
4.586114135398599
 40
4.586114135398599
 40
4.938892145813873
 40
4.938892145813873
 40
4.938892145813873
 40
5.291670156229153
 40
5.291670156229153
 40
5.291670156229153
 40
5.64444816664443
 40
5.64444816664443
 40
5.64444816664443
 40
5.997226177059705
 40
5.997226177059705
 40
5.997226177059705
 40
6.350004187474984
 40
6.350004187474984
 40
6.350004187474984
 40
6.702782197890257
 40
6.702782197890257
 40
6.702782197890257
 40
7.055560208305537
 40
7.055560208305537
 40
7.055560208305537
 40
7.408338218720808
 40
7.408338218720808
 40
7.408338218720808
 40
7.76111622913609
 40
7.76111622913609
 40
7.76111622913609
 40
8.113894239551369
 40
8.113894239551369
 40
8.113894239551369
 40
8.466672249966642
 40
8.466672249966642
 40
8.466672249966642
 40
8.819450260381922
 40
8.819450260381922
 40
8.819450260381922
 40
9.172228270797198
 40
9.172228270797198
 40
9.172228270797198
 40
9.525006281212476
 40
9.525006281212476
 40
9.525006281212476
 40
9.877784291627751
 40
9.877784291627751
 40
9.877784291627751
 40
10.23056230204303
 40
10.23056230204303
 40
10.23056230204303
 40
10.58334031245831
 40
10.58334031245831
 40
10.58334031245831
 40
10.93611832287358
 40
10.93611832287358
 40
10.93611832287358
 40
11.28889633328886
 40
11.28889633328886
 40
11.28889633328886
 40
11.64167434370414
 40
11.64167434370414
 40
11.64167434370414
 40
11.99445235411941
 40
11.99445235411941
 40
11.99445235411941
 40
12.34723036453469
 40
12.34723036453469
 40
12.34723036453469
 40
12.70000837494997
 40
12.70000837494997
 40
12.70000837494997
 40
13.05278638536524
 40
13.05278638536524
 40
13.05278638536524
 40
13.40556439578052
 40
13.40556439578052
 40
13.40556439578052
 40
13.7583424061958
 40
13.7583424061958
 40
13.7583424061958
 40
14.11112041661107
 40
14.11112041661107
 40
14.11112041661107
 40
14.46389842702635
 40
14.46389842702635
 40
14.46389842702635
 40
14.81667643744163
 40
14.81667643744163
 40
14.81667643744163
 40
14.81667643744163
 10
173.3972823146245
 20
126.8274843518258
 10
173.3972823146245
 20
126.8274843518258
 10
173.3972823146245
 20
126.7217198506564
 10
173.3972823146245
 20
126.7217198506564
 10
173.3972823146245
 20
126.7217198506564
 10
173.4186419207238
 20
126.7217198506564
 10
173.4186419207238
 20
126.7217198506564
 10
173.4186419207238
 20
126.7217198506564
 10
173.4820317194703
 20
126.7007047543328
 10
173.4820317194703
 20
126.7007047543328
 10
173.4820317194703
 20
126.7007047543328
 10
173.5244064218933
 20
126.6793451482334
 10
173.5244064218933
 20
126.6793451482334
 10
173.5244064218933
 20
126.6793451482334
 10
173.5877962206398
 20
126.6793451482334
 10
173.5877962206398
 20
126.6793451482334
 10
173.5877962206398
 20
126.6793451482334
 10
173.6301709230627
 20
126.6583300519099
 10
173.6301709230627
 20
126.6583300519099
 10
173.7955356154449
 20
126.5911506456296
 10
173.759706598762
 20
126.6380039751379
 10
173.9478089363468
 20
126.5525655507404
 10
173.9478089363468
 20
126.5525655507404
 10
173.9688240326703
 20
126.4464565397952
 10
173.9688240326703
 20
126.4464565397952
 10
173.9688240326703
 20
126.4464565397952
 10
174.0325583411926
 20
126.5101908483175
 10
174.0325583411926
 20
126.5101908483175
 10
174.0325583411926
 20
126.5101908483175
 10
174.0749330436156
 20
126.5101908483175
 10
174.0749330436156
 20
126.5101908483175
 10
174.0749330436156
 20
126.5101908483175
 10
174.1593379386856
 20
126.4678161458946
 10
174.1593379386856
 20
126.4678161458946
 10
174.1593379386856
 20
126.4678161458946
 10
174.180697544785
 20
126.4464565397952
 10
174.180697544785
 20
126.4464565397952
 10
174.2464989119621
 20
126.3982251711837
 10
174.3298702777047
 20
126.3716979184474
 10
174.3922265471239
 20
126.3196769423022
 10
174.608234176548
 20
126.2059887162895
 10
174.7749769080334
 20
126.0278771622029
 10
174.9637682651697
 20
125.8749148217494
 10
174.9637682651697
 20
125.8749148217494
 10
175.0061429675926
 20
125.9172895241723
 10
175.0061429675926
 20
125.9172895241723
 10
174.961356696739
 20
125.9631093243532
 10
174.782211613325
 20
126.1246844092016
 10
174.7308796567315
 20
126.1501781326105
 10
174.7308796567315
 20
126.1501781326105
 10
174.6885049543085
 20
126.1925528350335
 10
174.6885049543085
 20
126.1925528350335
 10
174.6885049543085
 20
126.1925528350335
 10
174.667489857985
 20
126.2349275374564
 10
174.667489857985
 20
126.2349275374564
 10
174.667489857985
 20
126.2349275374564
 10
174.625115155562
 20
126.2559426337799
 10
174.625115155562
 20
126.2559426337799
 10
174.625115155562
 20
126.2559426337799
 10
174.5827404531391
 20
126.2983173362029
 10
174.5827404531391
 20
126.2983173362029
 10
174.5827404531391
 20
126.2983173362029
 10
174.5403657507162
 20
126.3196769423022
 10
174.5403657507162
 20
126.3196769423022
 10
174.5403657507162
 20
126.3196769423022
 10
174.4979910482932
 20
126.3620516447252
 10
174.4979910482932
 20
126.3620516447252
 10
174.4735308542117
 20
126.3875453681341
 10
174.3247026310678
 20
126.4695386947736
 10
174.2864620459544
 20
126.4888312422181
 10
174.2864620459544
 20
126.4888312422181
 10
174.2654469496308
 20
126.5101908483175
 10
174.2654469496308
 20
126.5101908483175
 10
174.2654469496308
 20
126.5101908483175
 10
174.2230722472079
 20
126.5312059446411
 10
174.2230722472079
 20
126.5312059446411
 10
174.2230722472079
 20
126.5312059446411
 10
174.2017126411085
 20
126.5525655507404
 10
174.2017126411085
 20
126.5525655507404
 10
174.2017126411085
 20
126.5525655507404
 10
174.1383228423621
 20
126.573580647064
 10
174.1383228423621
 20
126.573580647064
 10
174.1383228423621
 20
126.573580647064
 10
174.1169632362627
 20
126.5945957433876
 10
174.1169632362627
 20
126.5945957433876
 10
174.1169632362627
 20
126.5945957433876
 10
174.0959481399391
 20
126.7007047543328
 10
174.0959481399391
 20
126.7007047543328
 10
174.0959481399391
 20
126.7007047543328
 10
174.0325583411926
 20
126.6369704458105
 10
174.0325583411926
 20
126.6369704458105
 10
174.0325583411926
 20
126.6369704458105
 10
173.9901836387697
 20
126.6369704458105
 10
173.9901836387697
 20
126.6369704458105
 10
173.9901836387697
 20
126.6369704458105
 10
173.9054342339239
 20
126.6793451482334
 10
173.9054342339239
 20
126.6793451482334
 10
173.9054342339239
 20
126.6793451482334
 10
173.8420444351773
 20
126.7007047543328
 10
173.8420444351773
 20
126.7007047543328
 10
173.8420444351773
 20
126.7007047543328
 10
173.7996697327544
 20
126.7217198506564
 10
173.7996697327544
 20
126.7217198506564
 10
173.7996697327544
 20
126.7217198506564
 10
173.7572950303315
 20
126.7217198506564
 10
173.7572950303315
 20
126.7217198506564
 10
173.7572950303315
 20
126.7217198506564
 10
173.6725456254856
 20
126.7640945530793
 10
173.6725456254856
 20
126.7640945530793
 10
173.6725456254856
 20
126.7640945530793
 10
173.6515305291621
 20
126.7640945530793
 10
173.6515305291621
 20
126.7640945530793
 10
173.6515305291621
 20
126.7640945530793
 10
173.5667811243162
 20
126.7851096494029
 10
173.5667811243162
 20
126.7851096494029
 10
173.5667811243162
 20
126.7851096494029
 10
173.5033913255697
 20
126.8064692555022
 10
173.5033913255697
 20
126.8064692555022
 10
173.5033913255697
 20
126.8064692555022
 10
173.4396570170474
 20
126.8064692555022
 10
173.4396570170474
 20
126.8064692555022
 10
173.4396570170474
 20
126.8064692555022
 10
173.4186419207238
 20
126.8274843518258
 10
173.4186419207238
 20
126.8274843518258
 10
173.4186419207238
 20
126.8274843518258
 10
173.3972823146245
 20
126.8274843518258
 10
173.3972823146245
 20
126.8274843518258
 72
     1
 10
173.3972823146245
 20
126.8274843518258
 11
173.3972823146245
 21
126.8274843518258
 97
        0
 75
     0
 76
     1
 98
        0
  0
HATCH
  5
4842
330
1F
100
AcDbEntity
  8
图层 1
 62
     7
100
AcDbHatch
 10
0.0
 20
0.0
 30
0.0
210
0.0
220
0.0
230
1.0
  2
SOLID
 70
     1
 71
     0
 91
        1
 92
        1
 93
        2
 72
     4
 94
        3
 73
     0
 74
     0
 95
       47
 96
       43
 40
0.0
 40
0.0
 40
0.0
 40
0.0
 40
0.3527780104152769
 40
0.3527780104152769
 40
0.3527780104152769
 40
0.7055560208305538
 40
0.7055560208305538
 40
0.7055560208305538
 40
1.058334031245828
 40
1.058334031245828
 40
1.058334031245828
 40
1.411112041661104
 40
1.411112041661104
 40
1.411112041661104
 40
1.763890052076384
 40
1.763890052076384
 40
1.763890052076384
 40
2.116668062491659
 40
2.116668062491659
 40
2.116668062491659
 40
2.469446072906936
 40
2.469446072906936
 40
2.469446072906936
 40
2.822224083322215
 40
2.822224083322215
 40
2.822224083322215
 40
3.175002093737492
 40
3.175002093737492
 40
3.175002093737492
 40
3.527780104152768
 40
3.527780104152768
 40
3.527780104152768
 40
3.880558114568044
 40
3.880558114568044
 40
3.880558114568044
 40
4.233336124983321
 40
4.233336124983321
 40
4.233336124983321
 40
4.586114135398599
 40
4.586114135398599
 40
4.586114135398599
 40
4.938892145813873
 40
4.938892145813873
 40
4.938892145813873
 40
4.938892145813873
 10
180.1920486226523
 20
255.6479577566324
 10
180.1920486226523
 20
255.6479577566324
 10
180.2130637189759
 20
255.6055830542095
 10
180.2130637189759
 20
255.6055830542095
 10
180.2130637189759
 20
255.6055830542095
 10
180.2130637189759
 20
255.5210059042515
 10
180.2130637189759
 20
255.5210059042515
 10
180.2130637189759
 20
255.5210059042515
 10
180.1920486226523
 20
255.4786312018286
 10
180.1920486226523
 20
255.4786312018286
 10
180.1920486226523
 20
255.4786312018286
 10
180.1496739202294
 20
255.4359119896299
 10
180.1496739202294
 20
255.4359119896299
 10
180.1496739202294
 20
255.4359119896299
 10
180.1283143141301
 20
255.4147246384184
 10
180.1283143141301
 20
255.4147246384184
 10
180.1283143141301
 20
255.4147246384184
 10
180.0225498129606
 20
255.4147246384184
 10
180.0225498129606
 20
255.4147246384184
 10
180.0225498129606
 20
255.4147246384184
 10
179.9591600142141
 20
255.4359119896299
 10
179.9591600142141
 20
255.4359119896299
 10
179.9591600142141
 20
255.4359119896299
 10
179.9167853117912
 20
255.4570993408414
 10
179.9167853117912
 20
255.4570993408414
 10
179.9167853117912
 20
255.4570993408414
 10
179.8957702154676
 20
255.4786312018286
 10
179.8957702154676
 20
255.4786312018286
 10
179.8957702154676
 20
255.4786312018286
 10
179.8744106093683
 20
255.4994740432643
 10
179.8744106093683
 20
255.4994740432643
 10
179.8744106093683
 20
255.4994740432643
 10
179.8744106093683
 20
255.6479577566324
 10
179.8744106093683
 20
255.6479577566324
 10
179.9608825630931
 20
255.7323626517025
 10
180.045631967939
 20
255.7085914771726
 10
180.1496739202294
 20
255.7115198102668
 10
180.1496739202294
 20
255.7115198102668
 10
180.170689016553
 20
255.6688005980681
 10
180.170689016553
 20
255.6688005980681
 10
180.170689016553
 20
255.6688005980681
 10
180.1920486226523
 20
255.6479577566324
 10
180.1920486226523
 20
255.6479577566324
 72
     1
 10
180.1920486226523
 20
255.6479577566324
 11
180.1920486226523
 21
255.6479577566324
 97
        0
 75
     0
 76
     1
 98
        0
  0
MTEXT
  5
65A0
330
1F
100
AcDbEntity
  8
图框
 62
     3
100
AcDbMText
 10
652.3064215351515
 20
221.9674786344378
 30
0.0
 40
2.985513575034151
 41
33.61239199242137
 71
     5
 72
     5
  1
HMK-002-MC
  7
Romans字体
 73
     1
 44
1.0
1001
ACAD
1000
MTEXTBEGIN
1070
    73
1070
     1
1070
    44
1040
1.0
1070
    74
1070
     0
1000
MTEXTEND
1000
ACAD_MTEXT_DEFINED_HEIGHT_BEGIN
1070
    46
1040
8.686745505685866
1000
ACAD_MTEXT_DEFINED_HEIGHT_END
  0
MTEXT
  5
65A1
330
1F
100
AcDbEntity
  8
图框
 62
     3
100
AcDbMText
 10
652.3064215351515
 20
213.1880281076118
 30
0.0
 40
2.985513575034151
 41
33.61239199242137
 71
     5
 72
     5
  1
1290020100001
  7
Romans字体
 73
     1
 44
1.0
1001
ACAD
1000
MTEXTBEGIN
1070
    73
1070
     1
1070
    44
1040
1.0
1070
    74
1070
     0
1000
MTEXTEND
1000
ACAD_MTEXT_DEFINED_HEIGHT_BEGIN
1070
    46
1040
8.872155547966105
1000
ACAD_MTEXT_DEFINED_HEIGHT_END
  0
MTEXT
  5
65A3
330
1F
100
AcDbEntity
  8
图框
 62
     3
100
AcDbMText
 10
584.2527566045665
 20
199.8803930288668
 30
0.0
 40
2.985513575034151
 41
10.82934843439047
 71
     5
 72
     5
  1
1:1 
  7
Romans字体
 73
     1
 44
1.0
1001
ACAD
1000
MTEXTBEGIN
1070
    73
1070
     1
1070
    44
1040
1.0
1070
    74
1070
     0
1000
MTEXTEND
1000
ACAD_MTEXT_DEFINED_HEIGHT_BEGIN
1070
    46
1040
7.886094601210496
1000
ACAD_MTEXT_DEFINED_HEIGHT_END
  0
MTEXT
  5
65A4
330
1F
100
AcDbEntity
  8
图框
 62
     3
100
AcDbMText
 10
595.0821050389572
 20
199.8803930288669
 30
0.0
 40
2.985513575034151
 41
10.82934843439126
 71
     5
 72
     5
  1
V1.0 
  7
Romans字体
 73
     1
 44
1.0
1001
ACAD
1000
MTEXTBEGIN
1070
    73
1070
     1
1070
    44
1040
1.0
1070
    74
1070
     0
1000
MTEXTEND
1000
ACAD_MTEXT_DEFINED_HEIGHT_BEGIN
1070
    46
1040
7.886094601210459
1000
ACAD_MTEXT_DEFINED_HEIGHT_END
  0
MTEXT
  5
65B2
330
1F
100
AcDbEntity
  8
图框
 62
     3
100
AcDbMText
 10
605.9114534733492
 20
199.8803930288669
 30
0.0
 40
2.985513575034151
 41
10.82934843439217
 71
     5
 72
     5
  1
11.1g
  7
Romans字体
 73
     1
 44
1.0
1001
ACAD
1000
MTEXTBEGIN
1070
    73
1070
     1
1070
    44
1040
1.0
1070
    74
1070
     0
1000
MTEXTEND
1000
ACAD_MTEXT_DEFINED_HEIGHT_BEGIN
1070
    46
1040
7.886094601210402
1000
ACAD_MTEXT_DEFINED_HEIGHT_END
  0
MTEXT
  5
6E00
102
{ACAD_XDICTIONARY
360
124BE
102
}
330
1F
100
AcDbEntity
  8
打标文字
 62
     3
100
AcDbMText
 10
569.7875236196565
 20
324.2279756403526
 30
0.0
 40
1.912985285738284
 41
55.18345123699972
 71
     1
 72
     5
  3
\A1;{\f仿宋_GB2312|b0|i0|c134|p49;技术参数}:\P{\f仿宋_GB2312|b0|i0|c134|p49;插芯：}\P- {\f仿宋_GB2312|b0|i0|c134|p49;插针数}: 2\P- {\f仿宋_GB2312|b0|i0|c134|p49;额定电流}: 40A\P- {\f仿宋_GB2312|b0|i0|c134|p49;额定电压}: 1000V\P- {\f仿宋_GB2312|b0|i0|c134|p49;额定脉冲电压}: 8kV\P- {\f仿宋
  3
_GB2312|b0|i0|c134|p49;污染等级}: 3\P- {\f仿宋_GB2312|b0|i0|c134|p49;绝缘阻抗}: {\f仿宋_GB2312|b0|i0|c134|p49;≥}10{\H0.7x;\S10^ ;}\U+03A9\P- {\f仿宋_GB2312|b0|i0|c134|p49;材料}: {\f仿宋_GB2312|b0|i0|c134|p49;聚碳酸酯}\P- {\f仿宋_GB2312|b0|i0|c134|p49;颜色}: RAL 7032{\f仿宋_GB231
  3
2|b0|i0|c134|p49;（浅灰色）}\P- {\f仿宋_GB2312|b0|i0|c134|p49;温度范围}: -40{\f仿宋_GB2312|b0|i0|c134|p49;℃} - +125{\f仿宋_GB2312|b0|i0|c134|p49;℃}\P- {\f仿宋_GB2312|b0|i0|c134|p49;依据}UL 94{\f仿宋_GB2312|b0|i0|c134|p49;的阻燃等级}: V0\P- {\f仿宋_GB2312|b0|i0|c134|p49;可插拔次数}: 
  3
{\f仿宋_GB2312|b0|i0|c134|p49;≥}500\P{\f仿宋_GB2312|b0|i0|c134|p49;插针：}\P- {\f仿宋_GB2312|b0|i0|c134|p49;接线方式}: {\f仿宋_GB2312|b0|i0|c134|p49;冷压连接}\P- {\f仿宋_GB2312|b0|i0|c134|p49;材料}: {\f仿宋_GB2312|b0|i0|c134|p49;铜合金}\P- {\f仿宋_GB2312|b0|i0|c134|p49;表面处理}: {\f
  3
仿宋_GB2312|b0|i0|c134|p49;镀银}\P- {\f仿宋_GB2312|b0|i0|c134|p49;接触电阻}: \U+22641m\U+03A9\P- {\f仿宋_GB2312|b0|i0|c134|p49;线径范围}: 1.5-10mm{\H0.7x;\S2^ ;}(16-8 AWG)\P- {\f仿宋_GB2312|b0|i0|c134|p49;工具：}\P   {\f仿宋_GB2312|b0|i0|c134|p49;·} {\f仿宋_GB2312|b0|i0|c134|
  1
p49;冷压钳}: \P    TL02-0G(1.5-6mm{\H0.7x;\S2^ ;})\P    TL02-3G(4/6/10mm{\H0.7x;\S2^ ;})\P   {\f仿宋_GB2312|b0|i0|c134|p49;·} {\f仿宋_GB2312|b0|i0|c134|p49;退针器}: TL06G
  7
Romans字体
 73
     1
 44
1.0
1001
ACAD
1000
MTEXTBEGIN
1070
    73
1070
     1
1070
    44
1040
1.0
1070
    74
1070
     0
1000
MTEXTEND
1000
ACAD_MTEXT_DEFINED_HEIGHT_BEGIN
1070
    46
1040
8.294818561909686
1000
ACAD_MTEXT_DEFINED_HEIGHT_END
  0
MTEXT
  5
7228
102
{ACAD_XDICTIONARY
360
124C0
102
}
330
1F
100
AcDbEntity
  8
打标文字
 62
     3
100
AcDbMText
 10
615.4785658800781
 20
324.4029607961731
 30
0.0
 40
1.912985285738284
 41
67.09538717665188
 71
     1
 72
     5
  3
\A1;Technical specification:\PInserts:\P- No. of contact: 2\P- Rated current: 40A\P- Rated voltage: 1000V\P- Rated impulse voltage: 8kV\P- Pollution degree: 3\P- Insulation resistance: {\fSimSun|b0|i0|c134|p2;≥}10{\H0.7x;\S10^ ;}\U+03A9\P- Material: p
  3
olycarbonate\P- Colour: RAL 7032(light grey) \P- Temperature range: -40{\fSimSun|b0|i0|c0|p2;\U+2103} - +125{\fSimSun|b0|i0|c0|p2;\U+2103}\P- Flammability acc.to UL 94: V0\P- Mating cycles: {\fSimSun|b0|i0|c134|p2;≥}500\PContacts:\P- Terminal: crimp 
  3
terminal\P- Material: copper alloy\P- Surface: hard-silver plated\P- Contact resistance: {\fFangSong_GB2312|b0|i0|c134|p49;≤}1m\U+03A9\P- Wire gauge: 1.5-10mm{\H0.7x;\S2^ ;\H1.4286x;(16-8 AWG)}\P- Tools:\P   {\fISOCPEUR|b0|i0|c0|p34;\U+00B7} Crimp con
  1
tact tool: \P    TL02-0G(1.5-6mm{\H0.7x;\S2^ ;\H1.4286x;)\P    TL02-3G(4/6/10mm\H0.7x;\S2^ ;\H1.4286x;)\P}   {\fISOCPEUR|b0|i0|c0|p34;\U+00B7} Contact removal tool: TL06G
  7
Romans字体
 73
     1
 44
1.0
1001
ACAD
1000
MTEXTBEGIN
1070
    73
1070
     1
1070
    44
1040
1.0
1070
    74
1070
     0
1000
MTEXTEND
1000
ACAD_MTEXT_DEFINED_HEIGHT_BEGIN
1070
    46
1040
8.294818561909686
1000
ACAD_MTEXT_DEFINED_HEIGHT_END
  0
INSERT
  5
11089
330
1F
100
AcDbEntity
  8
DIM
100
AcDbBlockReference
  2
A4图框-NEW
 10
-457.8158850790006
 20
-295.9613488704692
 30
0.0
  0
LINE
  5
11E1D
330
1F
100
AcDbEntity
  8
0
100
AcDbLine
 10
491.8078792274918
 20
312.4386712191583
 30
0.0
 11
504.0078792274914
 21
312.4386712191583
 31
0.0
  0
LINE
  5
11E1E
330
1F
100
AcDbEntity
  8
0
100
AcDbLine
 10
505.2078792274916
 20
311.2386712191584
 30
0.0
 11
504.0078792274914
 21
312.4386712191583
 31
0.0
  0
LINE
  5
11E1F
330
1F
100
AcDbEntity
  8
0
100
AcDbLine
 10
490.6078792274917
 20
303.9386712191584
 30
0.0
 11
505.2078792274916
 21
303.9386712191584
 31
0.0
  0
LINE
  5
11E20
330
1F
100
AcDbEntity
  8
0
100
AcDbLine
 10
502.4078792274915
 20
300.7386712191585
 30
0.0
 11
493.4078792274915
 21
300.7386712191585
 31
0.0
  0
LINE
  5
11E21
330
1F
100
AcDbEntity
  8
0
100
AcDbLine
 10
490.6078792274917
 20
300.4386712191585
 30
0.0
 11
493.4078792274915
 21
300.4386712191585
 31
0.0
  0
LINE
  5
11E22
330
1F
100
AcDbEntity
  8
0
100
AcDbLine
 10
502.4078792274915
 20
300.4386712191585
 30
0.0
 11
505.2078792274916
 21
300.4386712191585
 31
0.0
  0
LINE
  5
11E23
330
1F
100
AcDbEntity
  8
0
100
AcDbLine
 10
501.4078792274913
 20
297.2386712191585
 30
0.0
 11
494.4078792274915
 21
297.2386712191585
 31
0.0
  0
LINE
  5
11E24
330
1F
100
AcDbEntity
  8
0
100
AcDbLine
 10
505.2078792274916
 20
295.2386712191584
 30
0.0
 11
499.9796806587916
 21
295.2386712191584
 31
0.0
  0
LINE
  5
11E25
330
1F
100
AcDbEntity
  8
0
100
AcDbLine
 10
495.8360787960915
 20
295.2386712191584
 30
0.0
 11
490.6078792274917
 21
295.2386712191584
 31
0.0
  0
LINE
  5
11E26
330
1F
100
AcDbEntity
  8
0
100
AcDbLine
 10
504.2078792274915
 20
294.2386712191584
 30
0.0
 11
501.7117314663916
 21
294.2386712191584
 31
0.0
  0
LINE
  5
11E27
330
1F
100
AcDbEntity
  8
0
100
AcDbLine
 10
494.1040279885918
 20
294.2386712191584
 30
0.0
 11
491.6078792274918
 21
294.2386712191584
 31
0.0
  0
LINE
  5
11E28
330
1F
100
AcDbEntity
  8
0
100
AcDbLine
 10
493.4078792274915
 20
298.2386712191584
 30
0.0
 11
494.4078792274915
 21
297.2386712191585
 31
0.0
  0
LINE
  5
11E29
330
1F
100
AcDbEntity
  8
0
100
AcDbLine
 10
505.2078792274916
 20
269.7386712191585
 30
0.0
 11
504.2078792274915
 21
268.7386712191584
 31
0.0
  0
LINE
  5
11E2A
330
1F
100
AcDbEntity
  8
0
100
AcDbLine
 10
505.2078792274916
 20
311.2386712191584
 30
0.0
 11
505.2078792274916
 21
269.7386712191585
 31
0.0
  0
LINE
  5
11E2B
330
1F
100
AcDbEntity
  8
0
100
AcDbLine
 10
504.2078792274915
 20
294.2386712191584
 30
0.0
 11
504.2078792274915
 21
268.7386712191584
 31
0.0
  0
LINE
  5
11E2C
330
1F
100
AcDbEntity
  8
0
100
AcDbLine
 10
503.0876750117911
 20
268.7386712191584
 30
0.0
 11
503.0876750117911
 21
294.2386712191584
 31
0.0
  0
LINE
  5
11E2D
330
1F
100
AcDbEntity
  8
0
100
AcDbLine
 10
502.4078792274915
 20
300.7386712191585
 30
0.0
 11
502.4078792274915
 21
298.2386712191584
 31
0.0
  0
LINE
  5
11E2E
330
1F
100
AcDbEntity
  8
0
100
AcDbLine
 10
502.1028673412913
 20
268.7386712191584
 30
0.0
 11
502.1028673412913
 21
294.2386712191584
 31
0.0
  0
LINE
  5
11E2F
330
1F
100
AcDbEntity
  8
0
100
AcDbLine
 10
501.9492959997917
 20
268.7386712191584
 30
0.0
 11
501.9492959997917
 21
294.2386712191584
 31
0.0
  0
LINE
  5
11E30
330
1F
100
AcDbEntity
  8
0
100
AcDbLine
 10
499.9796806587916
 20
268.7386712191584
 30
0.0
 11
499.9796806587916
 21
295.2386712191584
 31
0.0
  0
LINE
  5
11E31
330
1F
100
AcDbEntity
  8
0
100
AcDbLine
 10
495.8360787960915
 20
295.2386712191584
 30
0.0
 11
495.8360787960915
 21
268.7386712191584
 31
0.0
  0
LINE
  5
11E32
330
1F
100
AcDbEntity
  8
0
100
AcDbLine
 10
493.8664634551916
 20
294.2386712191584
 30
0.0
 11
493.8664634551916
 21
268.7386712191584
 31
0.0
  0
LINE
  5
11E33
330
1F
100
AcDbEntity
  8
0
100
AcDbLine
 10
493.7128921135914
 20
268.7386712191584
 30
0.0
 11
493.7128921135914
 21
294.2386712191584
 31
0.0
  0
LINE
  5
11E34
330
1F
100
AcDbEntity
  8
0
100
AcDbLine
 10
493.4078792274915
 20
300.7386712191585
 30
0.0
 11
493.4078792274915
 21
298.2386712191584
 31
0.0
  0
LINE
  5
11E35
330
1F
100
AcDbEntity
  8
0
100
AcDbLine
 10
492.7280844430915
 20
268.7386712191584
 30
0.0
 11
492.7280844430915
 21
294.2386712191584
 31
0.0
  0
LINE
  5
11E36
330
1F
100
AcDbEntity
  8
0
100
AcDbLine
 10
491.6078792274918
 20
268.7386712191584
 30
0.0
 11
491.6078792274918
 21
294.2386712191584
 31
0.0
  0
LINE
  5
11E37
330
1F
100
AcDbEntity
  8
0
100
AcDbLine
 10
490.6078792274917
 20
311.2386712191584
 30
0.0
 11
490.6078792274917
 21
269.7386712191585
 31
0.0
  0
LINE
  5
11E38
330
1F
100
AcDbEntity
  8
0
100
AcDbLine
 10
504.2078792274915
 20
268.7386712191584
 30
0.0
 11
491.6078792274918
 21
268.7386712191584
 31
0.0
  0
LINE
  5
11E39
330
1F
100
AcDbEntity
  8
0
100
AcDbLine
 10
491.6078792274918
 20
268.7386712191584
 30
0.0
 11
490.6078792274917
 21
269.7386712191585
 31
0.0
  0
LINE
  5
11E3A
330
1F
100
AcDbEntity
  8
0
100
AcDbLine
 10
501.4078792274913
 20
297.2386712191585
 30
0.0
 11
502.4078792274915
 21
298.2386712191584
 31
0.0
  0
LINE
  5
11E3B
330
1F
100
AcDbEntity
  8
0
100
AcDbLine
 10
491.8078792274918
 20
312.4386712191583
 30
0.0
 11
490.6078792274917
 21
311.2386712191584
 31
0.0
  0
ARC
  5
11E3C
330
1F
100
AcDbEntity
  8
0
100
AcDbCircle
 10
504.2078792274915
 20
295.2386712191584
 30
0.0
 40
1.0
100
AcDbArc
 50
270.0
 51
0.0
  0
ARC
  5
11E3D
330
1F
100
AcDbEntity
  8
0
100
AcDbCircle
 10
491.6078792274918
 20
295.2386712191584
 30
0.0
 40
1.0
100
AcDbArc
 50
180.0
 51
270.0
  0
SPLINE
  5
11E3E
330
1F
100
AcDbEntity
  8
0
100
AcDbSpline
210
0.0
220
0.0
230
1.0
 70
     8
 71
     3
 72
    13
 73
     9
 74
     0
 42
0.0000000001
 43
0.0000000001
 40
0.0
 40
0.0
 40
0.0
 40
0.0
 40
0.0829116189
 40
0.1854833659
 40
0.3033883337
 40
0.4322089877000001
 40
0.7098514556000001
 40
1.0
 40
1.0
 40
1.0
 40
1.0
 10
501.7117314663916
 20
294.2386712191584
 30
0.0
 10
501.6560308496915
 20
294.2386712191584
 30
0.0
 10
501.5323351610915
 20
294.2673433569583
 30
0.0
 10
501.3451381526916
 20
294.3477125560583
 30
0.0
 10
501.1384800181914
 20
294.4596259486587
 30
0.0
 10
500.8379506247917
 20
294.6434530522584
 30
0.0
 10
500.4502762346914
 20
294.9059470981585
 30
0.0
 10
500.1388353245917
 20
295.1261318757585
 30
0.0
 10
499.9796806587916
 20
295.2386712191584
 30
0.0
  0
SPLINE
  5
11E3F
330
1F
100
AcDbEntity
  8
0
100
AcDbSpline
210
0.0
220
0.0
230
1.0
 70
     8
 71
     3
 72
    13
 73
     9
 74
     0
 42
0.0000000001
 43
0.0000000001
 40
0.0
 40
0.0
 40
0.0
 40
0.0
 40
0.2902520192
 40
0.567947923
 40
0.6967598947
 40
0.8146252691
 40
0.9171397737999999
 40
1.0
 40
1.0
 40
1.0
 40
1.0
 10
495.8360787960915
 20
295.2386712191584
 30
0.0
 10
495.6768673012913
 20
295.1260916915584
 30
0.0
 10
495.3653399993915
 20
294.9058463142585
 30
0.0
 10
494.9775800214918
 20
294.6433002043583
 30
0.0
 10
494.677038223291
 20
294.4594860872584
 30
0.0
 10
494.4704344855913
 20
294.3476212819584
 30
0.0
 10
494.2833189537916
 20
294.2673116066584
 30
0.0
 10
494.1596941037913
 20
294.2386712191584
 30
0.0
 10
494.1040279885918
 20
294.2386712191584
 30
0.0
  0
LINE
  5
11E40
330
1F
100
AcDbEntity
  8
0
100
AcDbLine
 10
444.3587798581642
 20
303.3386712181782
 30
0.0
 11
449.3587798581438
 21
303.3386712181782
 31
0.0
  0
LINE
  5
11E41
330
1F
100
AcDbEntity
  8
0
100
AcDbLine
 10
434.7587778594041
 20
343.0968550766387
 30
0.0
 11
434.7587778594041
 21
350.0968550766387
 31
0.0
  0
LINE
  5
11E42
330
1F
100
AcDbEntity
  8
0
100
AcDbLine
 10
436.7087798594043
 20
353.896855076639
 30
0.0
 11
436.7087798594043
 21
339.296855076639
 31
0.0
  0
LINE
  5
11E43
330
1F
100
AcDbEntity
  8
0
100
AcDbLine
 10
437.7087798594041
 20
352.8968550766388
 30
0.0
 11
437.7087798594041
 21
350.4007056101384
 31
0.0
  0
LINE
  5
11E44
330
1F
100
AcDbEntity
  8
0
100
AcDbLine
 10
437.7087798594041
 20
342.793003543039
 30
0.0
 11
437.7087798594041
 21
340.296855076639
 31
0.0
  0
LINE
  5
11E45
330
1F
100
AcDbEntity
  8
0
100
AcDbLine
 10
439.1242904874038
 20
345.1968550766387
 30
0.0
 11
439.1242904874038
 21
347.9968550766387
 31
0.0
  0
LINE
  5
11E46
330
1F
100
AcDbEntity
  8
0
100
AcDbLine
 10
439.6242421493043
 20
345.1968550766387
 30
0.0
 11
439.6242421493043
 21
347.9968550766387
 31
0.0
  0
LINE
  5
11E47
330
1F
100
AcDbEntity
  8
0
100
AcDbLine
 10
439.8282065353042
 20
347.9968550766387
 30
0.0
 11
439.8282065353042
 21
345.1968550766387
 31
0.0
  0
LINE
  5
11E48
330
1F
100
AcDbEntity
  8
0
100
AcDbLine
 10
440.0587778594043
 20
352.8968550766388
 30
0.0
 11
440.0587778594043
 21
351.7766495082386
 31
0.0
  0
LINE
  5
11E49
330
1F
100
AcDbEntity
  8
0
100
AcDbLine
 10
440.0587778594043
 20
340.296855076639
 30
0.0
 11
440.0587778594043
 21
341.4170596449389
 31
0.0
  0
LINE
  5
11E4A
330
1F
100
AcDbEntity
  8
0
100
AcDbLine
 10
443.1087818594041
 20
351.9813474486385
 30
0.0
 11
443.1087818594041
 21
351.2774316004387
 31
0.0
  0
LINE
  5
11E4B
330
1F
100
AcDbEntity
  8
0
100
AcDbLine
 10
443.1087818594041
 20
341.212362704539
 30
0.0
 11
443.1087818594041
 21
341.9162785527387
 31
0.0
  0
LINE
  5
11E4C
330
1F
100
AcDbEntity
  8
0
100
AcDbLine
 10
443.858781859404
 20
339.296855076639
 30
0.0
 11
443.858781859404
 21
340.496855076639
 31
0.0
  0
LINE
  5
11E4D
330
1F
100
AcDbEntity
  8
0
100
AcDbLine
 10
443.858781859404
 20
352.6968550766385
 30
0.0
 11
443.858781859404
 21
353.896855076639
 31
0.0
  0
LINE
  5
11E4E
330
1F
100
AcDbEntity
  8
0
100
AcDbLine
 10
444.0587798594041
 20
340.3968550766391
 30
0.0
 11
444.0587798594041
 21
339.296855076639
 31
0.0
  0
LINE
  5
11E4F
330
1F
100
AcDbEntity
  8
0
100
AcDbLine
 10
444.0587798594041
 20
352.796855076639
 30
0.0
 11
444.0587798594041
 21
353.896855076639
 31
0.0
  0
LINE
  5
11E50
330
1F
100
AcDbEntity
  8
0
100
AcDbLine
 10
444.3587798594043
 20
352.796855076639
 30
0.0
 11
444.3587798594043
 21
352.6968550766385
 31
0.0
  0
LINE
  5
11E51
330
1F
100
AcDbEntity
  8
0
100
AcDbLine
 10
444.3587798594043
 20
340.3968550766391
 30
0.0
 11
444.3587798594043
 21
340.496855076639
 31
0.0
  0
LINE
  5
11E52
330
1F
100
AcDbEntity
  8
0
100
AcDbLine
 10
444.5587818594042
 20
352.796855076639
 30
0.0
 11
444.5587818594042
 21
352.6968550766385
 31
0.0
  0
LINE
  5
11E53
330
1F
100
AcDbEntity
  8
0
100
AcDbLine
 10
444.5587818594042
 20
340.496855076639
 30
0.0
 11
444.5587818594042
 21
340.3968550766391
 31
0.0
  0
LINE
  5
11E54
330
1F
100
AcDbEntity
  8
0
100
AcDbLine
 10
436.7087798594043
 20
339.296855076639
 30
0.0
 11
467.0087798594045
 21
339.296855076639
 31
0.0
  0
LINE
  5
11E55
330
1F
100
AcDbEntity
  8
0
100
AcDbLine
 10
443.858781859404
 20
340.0968550766388
 30
0.0
 11
459.8587818594038
 21
340.0968550766388
 31
0.0
  0
LINE
  5
11E56
330
1F
100
AcDbEntity
  8
0
100
AcDbLine
 10
465.3560771508041
 20
342.5554383043385
 30
0.0
 11
464.4851332137044
 21
342.4018669627388
 31
0.0
  0
LINE
  5
11E57
330
1F
100
AcDbEntity
  8
0
100
AcDbLine
 10
437.7087798594041
 20
340.296855076639
 30
0.0
 11
443.858781859404
 21
340.296855076639
 31
0.0
  0
LINE
  5
11E58
330
1F
100
AcDbEntity
  8
0
100
AcDbLine
 10
459.8587818594038
 20
340.296855076639
 30
0.0
 11
466.0087798594044
 21
340.296855076639
 31
0.0
  0
LINE
  5
11E59
330
1F
100
AcDbEntity
  8
0
100
AcDbLine
 10
443.858781859404
 20
340.3968550766391
 30
0.0
 11
459.8587818594038
 21
340.3968550766391
 31
0.0
  0
LINE
  5
11E5A
330
1F
100
AcDbEntity
  8
0
100
AcDbLine
 10
459.8587818594038
 20
340.496855076639
 30
0.0
 11
443.858781859404
 21
340.496855076639
 31
0.0
  0
LINE
  5
11E5B
330
1F
100
AcDbEntity
  8
0
100
AcDbLine
 10
460.6087818594041
 20
341.212362704539
 30
0.0
 11
443.1087818594041
 21
341.212362704539
 31
0.0
  0
LINE
  5
11E5C
330
1F
100
AcDbEntity
  8
0
100
AcDbLine
 10
439.232426891804
 20
342.4018672472387
 30
0.0
 11
438.3614817946043
 21
342.5554391460385
 31
0.0
  0
LINE
  5
11E5D
330
1F
100
AcDbEntity
  8
0
100
AcDbLine
 10
460.6087818594041
 20
341.7123133667387
 30
0.0
 11
443.1087818594041
 21
341.7123133667387
 31
0.0
  0
LINE
  5
11E5E
330
1F
100
AcDbEntity
  8
0
100
AcDbLine
 10
451.3537972226044
 20
341.7403379302387
 30
0.0
 11
452.3637664962044
 21
341.7403379302387
 31
0.0
  0
LINE
  5
11E5F
330
1F
100
AcDbEntity
  8
0
100
AcDbLine
 10
443.1087818594041
 20
341.9162797524387
 30
0.0
 11
450.9464453252043
 21
341.916278552439
 31
0.0
  0
LINE
  5
11E60
330
1F
100
AcDbEntity
  8
0
100
AcDbLine
 10
452.7711183936043
 20
341.916278552439
 30
0.0
 11
460.6087818594041
 21
341.9162797524387
 31
0.0
  0
LINE
  5
11E61
330
1F
100
AcDbEntity
  8
0
100
AcDbLine
 10
467.0087798594045
 20
342.0968550766388
 30
0.0
 11
468.958781859404
 21
342.0968550766388
 31
0.0
  0
LINE
  5
11E62
330
1F
100
AcDbEntity
  8
0
100
AcDbLine
 10
449.1587818594044
 20
340.3968550766391
 30
0.0
 11
449.1587818594044
 21
340.496855076639
 31
0.0
  0
LINE
  5
11E63
330
1F
100
AcDbEntity
  8
0
100
AcDbLine
 10
449.1587818594044
 20
352.6968550766385
 30
0.0
 11
449.1587818594044
 21
352.796855076639
 31
0.0
  0
LINE
  5
11E64
330
1F
100
AcDbEntity
  8
0
100
AcDbLine
 10
434.7587778594041
 20
343.0968550766387
 30
0.0
 11
436.7087798594043
 21
343.0968550766387
 31
0.0
  0
LINE
  5
11E65
330
1F
100
AcDbEntity
  8
0
100
AcDbLine
 10
467.0087798594045
 20
343.0968550766387
 30
0.0
 11
468.958781859404
 21
343.0968550766387
 31
0.0
  0
LINE
  5
11E66
330
1F
100
AcDbEntity
  8
0
100
AcDbLine
 10
434.7587778594041
 20
344.0968550766386
 30
0.0
 11
436.7087798594043
 21
344.0968550766386
 31
0.0
  0
LINE
  5
11E67
330
1F
100
AcDbEntity
  8
0
100
AcDbLine
 10
450.9464453252043
 20
341.916278552439
 30
0.0
 11
451.0538086457041
 21
341.7444904366389
 31
0.0
  0
LINE
  5
11E68
330
1F
100
AcDbEntity
  8
0
100
AcDbLine
 10
449.3587798594044
 20
352.796855076639
 30
0.0
 11
449.3587798594044
 21
352.6968550766385
 31
0.0
  0
LINE
  5
11E69
330
1F
100
AcDbEntity
  8
0
100
AcDbLine
 10
449.3587798594044
 20
340.3968550766391
 30
0.0
 11
449.3587798594044
 21
340.496855076639
 31
0.0
  0
LINE
  5
11E6A
330
1F
100
AcDbEntity
  8
0
100
AcDbLine
 10
464.5932722314041
 20
345.1968550766387
 30
0.0
 11
463.8893543841042
 21
345.1968550766387
 31
0.0
  0
LINE
  5
11E6B
330
1F
100
AcDbEntity
  8
0
100
AcDbLine
 10
439.1242904874038
 20
345.1968550766387
 30
0.0
 11
439.8282073351039
 21
345.1968550766387
 31
0.0
  0
LINE
  5
11E6C
330
1F
100
AcDbEntity
  8
0
100
AcDbLine
 10
450.9464453252043
 20
341.916278552439
 30
0.0
 11
450.9464453252043
 21
349.2692721997386
 31
0.0
  0
LINE
  5
11E6D
330
1F
100
AcDbEntity
  8
0
100
AcDbLine
 10
451.0538086457041
 20
349.2299967950389
 30
0.0
 11
451.0538086457041
 21
341.7444904366389
 31
0.0
  0
LINE
  5
11E6E
330
1F
100
AcDbEntity
  8
0
100
AcDbLine
 10
451.3537972226044
 20
349.1483881038389
 30
0.0
 11
451.3537972226044
 21
341.7403379302387
 31
0.0
  0
LINE
  5
11E6F
330
1F
100
AcDbEntity
  8
0
100
AcDbLine
 10
452.3637664962044
 20
341.7403379302387
 30
0.0
 11
452.3637664962044
 21
349.1483881038389
 31
0.0
  0
LINE
  5
11E70
330
1F
100
AcDbEntity
  8
0
100
AcDbLine
 10
452.6637550731042
 20
341.7444904366389
 30
0.0
 11
452.6637550731042
 21
349.2299967950389
 31
0.0
  0
LINE
  5
11E71
330
1F
100
AcDbEntity
  8
0
100
AcDbLine
 10
452.7711183936043
 20
341.916278552439
 30
0.0
 11
452.7711183936043
 21
349.2692721997386
 31
0.0
  0
LINE
  5
11E72
330
1F
100
AcDbEntity
  8
0
100
AcDbLine
 10
464.5932722314041
 20
347.9968550766387
 30
0.0
 11
463.8893543835041
 21
347.9968550766387
 31
0.0
  0
LINE
  5
11E73
330
1F
100
AcDbEntity
  8
0
100
AcDbLine
 10
439.1242904874038
 20
347.9968550766387
 30
0.0
 11
439.8282073351039
 21
347.9968550766387
 31
0.0
  0
LINE
  5
11E74
330
1F
100
AcDbEntity
  8
0
100
AcDbLine
 10
454.3587798594042
 20
352.796855076639
 30
0.0
 11
454.3587798594042
 21
352.6968550766385
 31
0.0
  0
LINE
  5
11E75
330
1F
100
AcDbEntity
  8
0
100
AcDbLine
 10
454.3587798594042
 20
340.3968550766391
 30
0.0
 11
454.3587798594042
 21
340.496855076639
 31
0.0
  0
LINE
  5
11E76
330
1F
100
AcDbEntity
  8
0
100
AcDbLine
 10
454.5587778594041
 20
352.796855076639
 30
0.0
 11
454.5587778594041
 21
352.6968550766385
 31
0.0
  0
LINE
  5
11E77
330
1F
100
AcDbEntity
  8
0
100
AcDbLine
 10
454.5587778594041
 20
340.496855076639
 30
0.0
 11
454.5587778594041
 21
340.3968550766391
 31
0.0
  0
LINE
  5
11E78
330
1F
100
AcDbEntity
  8
0
100
AcDbLine
 10
436.7087798594043
 20
349.0968550766387
 30
0.0
 11
434.7587778594041
 21
349.0968550766387
 31
0.0
  0
LINE
  5
11E79
330
1F
100
AcDbEntity
  8
0
100
AcDbLine
 10
452.7711183936043
 20
341.916278552439
 30
0.0
 11
452.6637550731042
 21
341.7444904366389
 31
0.0
  0
LINE
  5
11E7A
330
1F
100
AcDbEntity
  8
0
100
AcDbLine
 10
468.958781859404
 20
350.0968550766387
 30
0.0
 11
467.0087798594045
 21
350.0968550766387
 31
0.0
  0
LINE
  5
11E7B
330
1F
100
AcDbEntity
  8
0
100
AcDbLine
 10
436.7087798594043
 20
350.0968550766387
 30
0.0
 11
434.7587778594041
 21
350.0968550766387
 31
0.0
  0
LINE
  5
11E7C
330
1F
100
AcDbEntity
  8
0
100
AcDbLine
 10
468.958781859404
 20
351.0968550766387
 30
0.0
 11
467.0087798594045
 21
351.0968550766387
 31
0.0
  0
LINE
  5
11E7D
330
1F
100
AcDbEntity
  8
0
100
AcDbLine
 10
460.6087818594041
 20
351.2774304007388
 30
0.0
 11
454.8193169496043
 21
351.2774316008389
 31
0.0
  0
LINE
  5
11E7E
330
1F
100
AcDbEntity
  8
0
100
AcDbLine
 10
448.898246766504
 20
351.2774316013387
 30
0.0
 11
443.1087818594041
 21
351.2774304007388
 31
0.0
  0
LINE
  5
11E7F
330
1F
100
AcDbEntity
  8
0
100
AcDbLine
 10
448.8441468836041
 20
351.4743175351385
 30
0.0
 11
454.8734168417044
 21
351.4743175351385
 31
0.0
  0
LINE
  5
11E80
330
1F
100
AcDbEntity
  8
0
100
AcDbLine
 10
443.1087818594041
 20
351.4813967865388
 30
0.0
 11
460.6087818594041
 21
351.4813967865388
 31
0.0
  0
LINE
  5
11E81
330
1F
100
AcDbEntity
  8
0
100
AcDbLine
 10
443.1087818594041
 20
351.9813474486385
 30
0.0
 11
460.6087818594041
 21
351.9813474486385
 31
0.0
  0
LINE
  5
11E82
330
1F
100
AcDbEntity
  8
0
100
AcDbLine
 10
438.3614817946043
 20
350.6382700072389
 30
0.0
 11
439.232426891804
 21
350.7918419059387
 31
0.0
  0
LINE
  5
11E83
330
1F
100
AcDbEntity
  8
0
100
AcDbLine
 10
443.858781859404
 20
352.6968550766385
 30
0.0
 11
459.8587818594038
 21
352.6968550766385
 31
0.0
  0
LINE
  5
11E84
330
1F
100
AcDbEntity
  8
0
100
AcDbLine
 10
459.8587818594038
 20
352.796855076639
 30
0.0
 11
443.858781859404
 21
352.796855076639
 31
0.0
  0
LINE
  5
11E85
330
1F
100
AcDbEntity
  8
0
100
AcDbLine
 10
466.0087798594044
 20
352.8968550766388
 30
0.0
 11
459.8587818594038
 21
352.8968550766388
 31
0.0
  0
LINE
  5
11E86
330
1F
100
AcDbEntity
  8
0
100
AcDbLine
 10
443.858781859404
 20
352.8968550766388
 30
0.0
 11
437.7087798594041
 21
352.8968550766388
 31
0.0
  0
LINE
  5
11E87
330
1F
100
AcDbEntity
  8
0
100
AcDbLine
 10
459.8587818594038
 20
353.0968550766387
 30
0.0
 11
443.858781859404
 21
353.0968550766387
 31
0.0
  0
LINE
  5
11E88
330
1F
100
AcDbEntity
  8
0
100
AcDbLine
 10
464.4851332137044
 20
350.7918421904387
 30
0.0
 11
465.3560771508041
 21
350.6382708489385
 31
0.0
  0
LINE
  5
11E89
330
1F
100
AcDbEntity
  8
0
100
AcDbLine
 10
459.1587778594043
 20
340.3968550766391
 30
0.0
 11
459.1587778594043
 21
340.496855076639
 31
0.0
  0
LINE
  5
11E8A
330
1F
100
AcDbEntity
  8
0
100
AcDbLine
 10
459.1587778594043
 20
352.6968550766385
 30
0.0
 11
459.1587778594043
 21
352.796855076639
 31
0.0
  0
LINE
  5
11E8B
330
1F
100
AcDbEntity
  8
0
100
AcDbLine
 10
459.358779859404
 20
352.796855076639
 30
0.0
 11
459.358779859404
 21
352.6968550766385
 31
0.0
  0
LINE
  5
11E8C
330
1F
100
AcDbEntity
  8
0
100
AcDbLine
 10
459.358779859404
 20
340.3968550766391
 30
0.0
 11
459.358779859404
 21
340.496855076639
 31
0.0
  0
LINE
  5
11E8D
330
1F
100
AcDbEntity
  8
0
100
AcDbLine
 10
459.6587798594041
 20
339.296855076639
 30
0.0
 11
459.6587798594041
 21
340.3968550766391
 31
0.0
  0
LINE
  5
11E8E
330
1F
100
AcDbEntity
  8
0
100
AcDbLine
 10
459.6587798594041
 20
352.796855076639
 30
0.0
 11
459.6587798594041
 21
353.896855076639
 31
0.0
  0
LINE
  5
11E8F
330
1F
100
AcDbEntity
  8
0
100
AcDbLine
 10
459.8587818594038
 20
339.296855076639
 30
0.0
 11
459.8587818594038
 21
340.496855076639
 31
0.0
  0
LINE
  5
11E90
330
1F
100
AcDbEntity
  8
0
100
AcDbLine
 10
459.8587818594038
 20
352.6968550766385
 30
0.0
 11
459.8587818594038
 21
353.896855076639
 31
0.0
  0
LINE
  5
11E91
330
1F
100
AcDbEntity
  8
0
100
AcDbLine
 10
436.7087798594043
 20
353.896855076639
 30
0.0
 11
467.0087798594045
 21
353.896855076639
 31
0.0
  0
LINE
  5
11E92
330
1F
100
AcDbEntity
  8
0
100
AcDbLine
 10
460.6087818594041
 20
351.9813474486385
 30
0.0
 11
460.6087818594041
 21
351.2774316004387
 31
0.0
  0
LINE
  5
11E93
330
1F
100
AcDbEntity
  8
0
100
AcDbLine
 10
460.6087818594041
 20
341.212362704539
 30
0.0
 11
460.6087818594041
 21
341.9162785527387
 31
0.0
  0
LINE
  5
11E94
330
1F
100
AcDbEntity
  8
0
100
AcDbLine
 10
463.6587818594043
 20
352.8968550766388
 30
0.0
 11
463.6587818594043
 21
351.7766498609388
 31
0.0
  0
LINE
  5
11E95
330
1F
100
AcDbEntity
  8
0
100
AcDbLine
 10
463.6587818594043
 20
340.296855076639
 30
0.0
 11
463.6587818594043
 21
341.4170592922387
 31
0.0
  0
LINE
  5
11E96
330
1F
100
AcDbEntity
  8
0
100
AcDbLine
 10
463.8893571835041
 20
345.1968550766387
 30
0.0
 11
463.8893543835041
 21
347.9968550766387
 31
0.0
  0
LINE
  5
11E97
330
1F
100
AcDbEntity
  8
0
100
AcDbLine
 10
464.0933195697042
 20
347.9968550766387
 30
0.0
 11
464.0933195697042
 21
345.1968550766387
 31
0.0
  0
LINE
  5
11E98
330
1F
100
AcDbEntity
  8
0
100
AcDbLine
 10
464.5932722314041
 20
347.9968550766387
 30
0.0
 11
464.5932722314041
 21
345.1968550766387
 31
0.0
  0
LINE
  5
11E99
330
1F
100
AcDbEntity
  8
0
100
AcDbLine
 10
466.0087798594044
 20
340.296855076639
 30
0.0
 11
466.0087798594044
 21
342.7930028377385
 31
0.0
  0
LINE
  5
11E9A
330
1F
100
AcDbEntity
  8
0
100
AcDbLine
 10
466.0087798594044
 20
350.400706315439
 30
0.0
 11
466.0087798594044
 21
352.8968550766388
 31
0.0
  0
LINE
  5
11E9B
330
1F
100
AcDbEntity
  8
0
100
AcDbLine
 10
467.0087798594045
 20
339.296855076639
 30
0.0
 11
467.0087798594045
 21
353.896855076639
 31
0.0
  0
LINE
  5
11E9C
330
1F
100
AcDbEntity
  8
0
100
AcDbLine
 10
468.958781859404
 20
342.0968550766388
 30
0.0
 11
468.958781859404
 21
351.0968550766387
 31
0.0
  0
LINE
  5
11E9D
330
1F
100
AcDbEntity
  8
0
100
AcDbLine
 10
436.7087778594038
 20
303.9386712191586
 30
0.0
 11
438.958777859404
 21
312.3386712191587
 31
0.0
  0
LINE
  5
11E9E
330
1F
100
AcDbEntity
  8
0
100
AcDbLine
 10
434.7587778594041
 20
297.2386712191587
 30
0.0
 11
434.7587778594041
 21
300.7386712191587
 31
0.0
  0
LINE
  5
11E9F
330
1F
100
AcDbEntity
  8
0
100
AcDbLine
 10
436.6087798594043
 20
300.7386712191587
 30
0.0
 11
436.6087798594043
 21
300.4386712191587
 31
0.0
  0
LINE
  5
11EA0
330
1F
100
AcDbEntity
  8
0
100
AcDbLine
 10
436.7087798594043
 20
268.7386712191584
 30
0.0
 11
436.7087778594038
 21
303.9386712191586
 31
0.0
  0
LINE
  5
11EA1
330
1F
100
AcDbEntity
  8
0
100
AcDbLine
 10
438.3614817946043
 20
268.7386712191584
 30
0.0
 11
438.3614817946043
 21
294.2386712191587
 31
0.0
  0
LINE
  5
11EA2
330
1F
100
AcDbEntity
  8
0
100
AcDbLine
 10
439.232426891804
 20
268.7386712191584
 30
0.0
 11
439.232426891804
 21
294.2386712191587
 31
0.0
  0
LINE
  5
11EA3
330
1F
100
AcDbEntity
  8
0
100
AcDbLine
 10
440.0587778594043
 20
294.2386712191587
 30
0.0
 11
440.0587778594043
 21
268.7386712191584
 31
0.0
  0
LINE
  5
11EA4
330
1F
100
AcDbEntity
  8
0
100
AcDbLine
 10
441.0587778594043
 20
295.2386712191587
 30
0.0
 11
441.0587778594043
 21
269.7386712191585
 31
0.0
  0
LINE
  5
11EA5
330
1F
100
AcDbEntity
  8
0
100
AcDbLine
 10
442.208779859404
 20
300.4386712191587
 30
0.0
 11
442.208779859404
 21
289.2386712191584
 31
0.0
  0
LINE
  5
11EA6
330
1F
100
AcDbEntity
  8
0
100
AcDbLine
 10
442.3587798594041
 20
291.8386712191587
 30
0.0
 11
442.3587798594041
 21
300.4386712191587
 31
0.0
  0
LINE
  5
11EA7
330
1F
100
AcDbEntity
  8
0
100
AcDbLine
 10
443.858781859404
 20
268.7386712191584
 30
0.0
 11
443.858781859404
 21
289.2386712191584
 31
0.0
  0
LINE
  5
11EA8
330
1F
100
AcDbEntity
  8
0
100
AcDbLine
 10
436.7087798594043
 20
268.7386712191584
 30
0.0
 11
467.0087798594045
 21
268.7386712191584
 31
0.0
  0
LINE
  5
11EA9
330
1F
100
AcDbEntity
  8
0
100
AcDbLine
 10
444.3587798594043
 20
312.3386712191587
 30
0.0
 11
444.3587798594043
 21
292.0886712191586
 31
0.0
  0
LINE
  5
11EAA
330
1F
100
AcDbEntity
  8
0
100
AcDbLine
 10
444.5587818594042
 20
292.1386712191585
 30
0.0
 11
444.5587818594042
 21
295.2386712191587
 31
0.0
  0
LINE
  5
11EAB
330
1F
100
AcDbEntity
  8
0
100
AcDbLine
 10
462.6587818594043
 20
269.7386712191585
 30
0.0
 11
459.8587818594038
 21
269.7386712191585
 31
0.0
  0
LINE
  5
11EAC
330
1F
100
AcDbEntity
  8
0
100
AcDbLine
 10
443.858781859404
 20
269.7386712191585
 30
0.0
 11
441.0587778594043
 21
269.7386712191585
 31
0.0
  0
LINE
  5
11EAD
330
1F
100
AcDbEntity
  8
0
100
AcDbLine
 10
449.1587818594044
 20
292.1386712191585
 30
0.0
 11
449.1587818594044
 21
295.2386712191587
 31
0.0
  0
LINE
  5
11EAE
330
1F
100
AcDbEntity
  8
0
100
AcDbLine
 10
449.3587798594044
 20
312.3386712191587
 30
0.0
 11
449.3587798594044
 21
292.0886712191586
 31
0.0
  0
LINE
  5
11EAF
330
1F
100
AcDbEntity
  8
0
100
AcDbLine
 10
454.3587798594042
 20
312.3386712191587
 30
0.0
 11
454.3587798594042
 21
292.0886712191586
 31
0.0
  0
LINE
  5
11EB0
330
1F
100
AcDbEntity
  8
0
100
AcDbLine
 10
454.5587778594041
 20
292.1386712191585
 30
0.0
 11
454.5587778594041
 21
295.2386712191587
 31
0.0
  0
LINE
  5
11EB1
330
1F
100
AcDbEntity
  8
0
100
AcDbLine
 10
456.8087798594041
 20
303.7386712191587
 30
0.0
 11
456.8087798594041
 21
303.4386712191588
 31
0.0
  0
LINE
  5
11EB2
330
1F
100
AcDbEntity
  8
0
100
AcDbLine
 10
459.1587778594043
 20
292.1386712191585
 30
0.0
 11
459.1587778594043
 21
295.2386712191587
 31
0.0
  0
LINE
  5
11EB3
330
1F
100
AcDbEntity
  8
0
100
AcDbLine
 10
459.358779859404
 20
312.3386712191587
 30
0.0
 11
459.358779859404
 21
292.0886712191586
 31
0.0
  0
LINE
  5
11EB4
330
1F
100
AcDbEntity
  8
0
100
AcDbLine
 10
459.8587818594038
 20
268.7386712191584
 30
0.0
 11
459.8587818594038
 21
289.2386712191584
 31
0.0
  0
LINE
  5
11EB5
330
1F
100
AcDbEntity
  8
0
100
AcDbLine
 10
461.3587798594043
 20
291.8386712191587
 30
0.0
 11
461.3587798594043
 21
300.4386712191587
 31
0.0
  0
LINE
  5
11EB6
330
1F
100
AcDbEntity
  8
0
100
AcDbLine
 10
461.5087798594044
 20
300.4386712191587
 30
0.0
 11
461.5087798594044
 21
289.2386712191584
 31
0.0
  0
LINE
  5
11EB7
330
1F
100
AcDbEntity
  8
0
100
AcDbLine
 10
462.6587818594043
 20
269.7386712191585
 30
0.0
 11
462.6587818594043
 21
295.2386712191587
 31
0.0
  0
LINE
  5
11EB8
330
1F
100
AcDbEntity
  8
0
100
AcDbLine
 10
463.6587818594043
 20
268.7386712191584
 30
0.0
 11
463.6587818594043
 21
294.2386712191587
 31
0.0
  0
LINE
  5
11EB9
330
1F
100
AcDbEntity
  8
0
100
AcDbLine
 10
464.4851332137044
 20
268.7386712191584
 30
0.0
 11
464.4851332137044
 21
294.2386712191587
 31
0.0
  0
LINE
  5
11EBA
330
1F
100
AcDbEntity
  8
0
100
AcDbLine
 10
465.3560771508041
 20
294.2386712191587
 30
0.0
 11
465.3560771508041
 21
268.7386712191584
 31
0.0
  0
LINE
  5
11EBB
330
1F
100
AcDbEntity
  8
0
100
AcDbLine
 10
442.208779859404
 20
289.2386712191584
 30
0.0
 11
443.858781859404
 21
289.2386712191584
 31
0.0
  0
LINE
  5
11EBC
330
1F
100
AcDbEntity
  8
0
100
AcDbLine
 10
459.8587818594038
 20
289.2386712191584
 30
0.0
 11
461.5087798594044
 21
289.2386712191584
 31
0.0
  0
LINE
  5
11EBD
330
1F
100
AcDbEntity
  8
0
100
AcDbLine
 10
444.0587798594041
 20
290.1386712191585
 30
0.0
 11
459.6587798594041
 21
290.1386712191585
 31
0.0
  0
LINE
  5
11EBE
330
1F
100
AcDbEntity
  8
0
100
AcDbLine
 10
467.0087818594041
 20
303.9386712191586
 30
0.0
 11
467.0087798594045
 21
268.7386712191584
 31
0.0
  0
LINE
  5
11EBF
330
1F
100
AcDbEntity
  8
0
100
AcDbLine
 10
467.1087798594043
 20
300.7386712191587
 30
0.0
 11
467.1087798594043
 21
300.4386712191587
 31
0.0
  0
LINE
  5
11EC0
330
1F
100
AcDbEntity
  8
0
100
AcDbLine
 10
459.358779859404
 20
292.0886712191586
 30
0.0
 11
454.3587798594042
 21
292.0886712191586
 31
0.0
  0
LINE
  5
11EC1
330
1F
100
AcDbEntity
  8
0
100
AcDbLine
 10
449.3587798594044
 20
292.0886712191586
 30
0.0
 11
444.3587798594043
 21
292.0886712191586
 31
0.0
  0
LINE
  5
11EC2
330
1F
100
AcDbEntity
  8
0
100
AcDbLine
 10
459.1587778594043
 20
292.1386712191585
 30
0.0
 11
454.5587778594041
 21
292.1386712191585
 31
0.0
  0
LINE
  5
11EC3
330
1F
100
AcDbEntity
  8
0
100
AcDbLine
 10
449.1587818594044
 20
292.1386712191585
 30
0.0
 11
444.5587818594042
 21
292.1386712191585
 31
0.0
  0
LINE
  5
11EC4
330
1F
100
AcDbEntity
  8
0
100
AcDbLine
 10
468.958781859404
 20
300.7386712191587
 30
0.0
 11
468.958781859404
 21
297.2386712191587
 31
0.0
  0
LINE
  5
11EC5
330
1F
100
AcDbEntity
  8
0
100
AcDbLine
 10
444.5587818594042
 20
293.1386712191586
 30
0.0
 11
449.1587818594044
 21
293.1386712191586
 31
0.0
  0
LINE
  5
11EC6
330
1F
100
AcDbEntity
  8
0
100
AcDbLine
 10
454.5587778594041
 20
293.1386712191586
 30
0.0
 11
459.1587778594043
 21
293.1386712191586
 31
0.0
  0
LINE
  5
11EC7
330
1F
100
AcDbEntity
  8
0
100
AcDbLine
 10
466.0087798594044
 20
294.2386712191587
 30
0.0
 11
463.6587818594043
 21
294.2386712191587
 31
0.0
  0
LINE
  5
11EC8
330
1F
100
AcDbEntity
  8
0
100
AcDbLine
 10
440.0587778594043
 20
294.2386712191587
 30
0.0
 11
437.7087798594041
 21
294.2386712191587
 31
0.0
  0
LINE
  5
11EC9
330
1F
100
AcDbEntity
  8
0
100
AcDbLine
 10
467.0087798594045
 20
295.2386712191587
 30
0.0
 11
462.6587818594043
 21
295.2386712191587
 31
0.0
  0
LINE
  5
11ECA
330
1F
100
AcDbEntity
  8
0
100
AcDbLine
 10
441.0587778594043
 20
295.2386712191587
 30
0.0
 11
436.7087798594043
 21
295.2386712191587
 31
0.0
  0
LINE
  5
11ECB
330
1F
100
AcDbEntity
  8
0
100
AcDbLine
 10
444.5587818594042
 20
295.2386712191587
 30
0.0
 11
449.1587818594044
 21
295.2386712191587
 31
0.0
  0
LINE
  5
11ECC
330
1F
100
AcDbEntity
  8
0
100
AcDbLine
 10
454.5587778594041
 20
295.2386712191587
 30
0.0
 11
459.1587778594043
 21
295.2386712191587
 31
0.0
  0
LINE
  5
11ECD
330
1F
100
AcDbEntity
  8
0
100
AcDbLine
 10
468.958781859404
 20
297.2386712191587
 30
0.0
 11
467.0087798594045
 21
297.2386712191587
 31
0.0
  0
LINE
  5
11ECE
330
1F
100
AcDbEntity
  8
0
100
AcDbLine
 10
436.7087798594043
 20
297.2386712191587
 30
0.0
 11
434.7587778594041
 21
297.2386712191587
 31
0.0
  0
LINE
  5
11ECF
330
1F
100
AcDbEntity
  8
0
100
AcDbLine
 10
468.958781859404
 20
298.2386712191587
 30
0.0
 11
467.0087798594045
 21
298.2386712191587
 31
0.0
  0
LINE
  5
11ED0
330
1F
100
AcDbEntity
  8
0
100
AcDbLine
 10
436.7087798594043
 20
298.2386712191587
 30
0.0
 11
434.7587778594041
 21
298.2386712191587
 31
0.0
  0
LINE
  5
11ED1
330
1F
100
AcDbEntity
  8
0
100
AcDbLine
 10
467.0087818594041
 20
303.9386712191586
 30
0.0
 11
464.7587818594042
 21
312.3386712191587
 31
0.0
  0
LINE
  5
11ED2
330
1F
100
AcDbEntity
  8
0
100
AcDbLine
 10
436.6087798594043
 20
300.4386712191587
 30
0.0
 11
442.3587798594041
 21
300.4386712191587
 31
0.0
  0
LINE
  5
11ED3
330
1F
100
AcDbEntity
  8
0
100
AcDbLine
 10
461.3587798594043
 20
300.4386712191587
 30
0.0
 11
467.1087798594043
 21
300.4386712191587
 31
0.0
  0
LINE
  5
11ED4
330
1F
100
AcDbEntity
  8
0
100
AcDbLine
 10
468.958781859404
 20
300.7386712191587
 30
0.0
 11
467.1087798594043
 21
300.7386712191587
 31
0.0
  0
LINE
  5
11ED5
330
1F
100
AcDbEntity
  8
0
100
AcDbLine
 10
436.6087798594043
 20
300.7386712191587
 30
0.0
 11
434.7587778594041
 21
300.7386712191587
 31
0.0
  0
LINE
  5
11ED6
330
1F
100
AcDbEntity
  8
0
100
AcDbLine
 10
444.3587798594043
 20
303.4386712191588
 30
0.0
 11
449.3587798594044
 21
303.4386712191588
 31
0.0
  0
LINE
  5
11ED7
330
1F
100
AcDbEntity
  8
0
100
AcDbLine
 10
454.3587798594042
 20
303.4386712191588
 30
0.0
 11
459.358779859404
 21
303.4386712191588
 31
0.0
  0
LINE
  5
11ED8
330
1F
100
AcDbEntity
  8
0
100
AcDbLine
 10
459.358779859404
 20
303.7386712191587
 30
0.0
 11
454.3587798594042
 21
303.7386712191587
 31
0.0
  0
LINE
  5
11ED9
330
1F
100
AcDbEntity
  8
0
100
AcDbLine
 10
449.3587798594044
 20
303.7386712191587
 30
0.0
 11
444.3587798594043
 21
303.7386712191587
 31
0.0
  0
LINE
  5
11EDA
330
1F
100
AcDbEntity
  8
0
100
AcDbLine
 10
438.6373492880038
 20
311.1386712191584
 30
0.0
 11
444.3587798594043
 21
311.1386712191584
 31
0.0
  0
LINE
  5
11EDB
330
1F
100
AcDbEntity
  8
0
100
AcDbLine
 10
449.3587798594044
 20
311.1386712191584
 30
0.0
 11
454.3587798594042
 21
311.1386712191584
 31
0.0
  0
LINE
  5
11EDC
330
1F
100
AcDbEntity
  8
0
100
AcDbLine
 10
459.358779859404
 20
311.1386712191584
 30
0.0
 11
465.080210430804
 21
311.1386712191584
 31
0.0
  0
LINE
  5
11EDD
330
1F
100
AcDbEntity
  8
0
100
AcDbLine
 10
438.958777859404
 20
312.3386712191587
 30
0.0
 11
464.7587818594042
 21
312.3386712191587
 31
0.0
  0
ARC
  5
11EDE
330
1F
100
AcDbEntity
  8
0
100
AcDbCircle
 10
443.1087818594041
 20
345.1968550766387
 30
0.0
 40
3.984491771999996
100
AcDbArc
 50
180.0
 51
270.0
  0
ARC
  5
11EDF
330
1F
100
AcDbEntity
  8
0
100
AcDbCircle
 10
443.1087818594041
 20
345.1968550766387
 30
0.0
 40
3.484540509999998
100
AcDbArc
 50
180.0
 51
270.0
  0
ARC
  5
11EE0
330
1F
100
AcDbEntity
  8
0
100
AcDbCircle
 10
443.1087818594041
 20
345.1968550766387
 30
0.0
 40
3.280575324099997
100
AcDbArc
 50
180.0
 51
270.0
  0
ARC
  5
11EE1
330
1F
100
AcDbEntity
  8
0
100
AcDbCircle
 10
438.7087798594044
 20
344.5250543505388
 30
0.0
 40
2.0
100
AcDbArc
 50
180.0
 51
259.9999502710101
  0
ARC
  5
11EE2
330
1F
100
AcDbEntity
  8
0
100
AcDbCircle
 10
441.0587778594043
 20
340.296855076639
 30
0.0
 40
1.0
100
AcDbArc
 50
180.0
 51
270.0
  0
ARC
  5
11EE3
330
1F
100
AcDbEntity
  8
0
100
AcDbCircle
 10
439.0587778594043
 20
341.4170596449389
 30
0.0
 40
1.0
100
AcDbArc
 50
0.0
 51
79.99995027101005
  0
ARC
  5
11EE4
330
1F
100
AcDbEntity
  8
0
100
AcDbCircle
 10
443.1087818594041
 20
347.9968550766387
 30
0.0
 40
3.984491771999996
100
AcDbArc
 50
90.0
 51
180.0
  0
CIRCLE
  5
11EE5
330
1F
100
AcDbEntity
  8
0
100
AcDbCircle
 10
445.1087818594039
 20
346.5968550766386
 30
0.0
 40
3.649999999999999
  0
ARC
  5
11EE6
330
1F
100
AcDbEntity
  8
0
100
AcDbCircle
 10
443.1087818594041
 20
347.9968550766387
 30
0.0
 40
3.484540509999998
100
AcDbArc
 50
90.0
 51
180.0
  0
ARC
  5
11EE7
330
1F
100
AcDbEntity
  8
0
100
AcDbCircle
 10
443.1087818594041
 20
347.9968550766387
 30
0.0
 40
3.280575324099997
100
AcDbArc
 50
90.0
 51
180.0
  0
ARC
  5
11EE8
330
1F
100
AcDbEntity
  8
0
100
AcDbCircle
 10
451.8587730109043
 20
352.1967942198388
 30
0.0
 40
3.099990846399998
100
AcDbArc
 50
193.4771574578952
 51
197.2516731024913
  0
CIRCLE
  5
11EE9
330
1F
100
AcDbEntity
  8
0
100
AcDbCircle
 10
445.1087818594039
 20
346.5968550766386
 30
0.0
 40
2.049999999999998
  0
ARC
  5
11EEA
330
1F
100
AcDbEntity
  8
0
100
AcDbCircle
 10
438.7087798594044
 20
348.6686548026384
 30
0.0
 40
2.0
100
AcDbArc
 50
100.0000497289899
 51
180.0
  0
ARC
  5
11EEB
330
1F
100
AcDbEntity
  8
0
100
AcDbCircle
 10
441.0587778594043
 20
352.8968550766388
 30
0.0
 40
1.0
100
AcDbArc
 50
90.0
 51
180.0
  0
ARC
  5
11EEC
330
1F
100
AcDbEntity
  8
0
100
AcDbCircle
 10
439.0587778594043
 20
351.7766495082386
 30
0.0
 40
1.0
100
AcDbArc
 50
280.00004972899
 51
0.0
  0
ARC
  5
11EED
330
1F
100
AcDbEntity
  8
0
100
AcDbCircle
 10
448.8946348059043
 20
350.6756422403385
 30
0.0
 40
0.603997771
100
AcDbArc
 50
17.30808654279607
 51
32.73403059490112
  0
ARC
  5
11EEE
330
1F
100
AcDbEntity
  8
0
100
AcDbCircle
 10
448.8982070123041
 20
350.677349983639
 30
0.0
 40
0.6000816189
100
AcDbArc
 50
35.35286133259552
 51
89.99620427689881
  0
ARC
  5
11EEF
330
1F
100
AcDbEntity
  8
0
100
AcDbCircle
 10
448.8441004684045
 20
350.874244360139
 30
0.0
 40
0.6000757843
100
AcDbArc
 50
13.47909128689713
 51
89.99556822251348
  0
ARC
  5
11EF0
330
1F
100
AcDbEntity
  8
0
100
AcDbCircle
 10
448.9008581187043
 20
350.6794634593387
 30
0.0
 40
0.596696517
100
AcDbArc
 50
32.7485129728051
 51
35.33463624861262
  0
ARC
  5
11EF1
330
1F
100
AcDbEntity
  8
0
100
AcDbCircle
 10
460.6087818594041
 20
345.1968550766387
 30
0.0
 40
3.984491771999996
100
AcDbArc
 50
270.0
 51
0.0
  0
ARC
  5
11EF2
330
1F
100
AcDbEntity
  8
0
100
AcDbCircle
 10
460.6087818594041
 20
345.1968550766387
 30
0.0
 40
3.484540509999998
100
AcDbArc
 50
270.0
 51
0.0
  0
ARC
  5
11EF3
330
1F
100
AcDbEntity
  8
0
100
AcDbCircle
 10
460.6087818594041
 20
345.1968550766387
 30
0.0
 40
3.280575324099997
100
AcDbArc
 50
270.0
 51
0.0
  0
ARC
  5
11EF4
330
1F
100
AcDbEntity
  8
0
100
AcDbCircle
 10
465.0087798594044
 20
344.5250536452389
 30
0.0
 40
2.0
100
AcDbArc
 50
280.0000272288043
 51
0.0
  0
ARC
  5
11EF5
330
1F
100
AcDbEntity
  8
0
100
AcDbCircle
 10
462.6587818594043
 20
340.296855076639
 30
0.0
 40
1.0
100
AcDbArc
 50
270.0
 51
0.0
  0
ARC
  5
11EF6
330
1F
100
AcDbEntity
  8
0
100
AcDbCircle
 10
464.6587818594043
 20
341.4170592922387
 30
0.0
 40
1.0
100
AcDbArc
 50
100.0000272288042
 51
180.0
  0
ARC
  5
11EF7
330
1F
100
AcDbEntity
  8
0
100
AcDbCircle
 10
460.6087818594041
 20
347.9968550766387
 30
0.0
 40
3.984491771999996
100
AcDbArc
 50
0.0
 51
90.0
  0
CIRCLE
  5
11EF8
330
1F
100
AcDbEntity
  8
0
100
AcDbCircle
 10
458.608781859404
 20
346.5968550766386
 30
0.0
 40
3.649999999999999
  0
ARC
  5
11EF9
330
1F
100
AcDbEntity
  8
0
100
AcDbCircle
 10
460.6087818594041
 20
347.9968550766387
 30
0.0
 40
3.484540509999998
100
AcDbArc
 50
0.0
 51
90.0
  0
ARC
  5
11EFA
330
1F
100
AcDbEntity
  8
0
100
AcDbCircle
 10
460.6087818594041
 20
347.9968550766387
 30
0.0
 40
3.280575324099997
100
AcDbArc
 50
0.0
 51
90.0
  0
ARC
  5
11EFB
330
1F
100
AcDbEntity
  8
0
100
AcDbCircle
 10
451.8587958546041
 20
352.1967929048387
 30
0.0
 40
3.0999855412
100
AcDbArc
 50
342.7483218978967
 51
346.5228440361004
  0
ARC
  5
11EFC
330
1F
100
AcDbEntity
  8
0
100
AcDbCircle
 10
451.858781859404
 20
351.5968550766387
 30
0.0
 40
2.5
100
AcDbArc
 50
193.4793852937992
 51
346.5206146032985
  0
CIRCLE
  5
11EFD
330
1F
100
AcDbEntity
  8
0
100
AcDbCircle
 10
458.608781859404
 20
346.5968550766386
 30
0.0
 40
2.049999999999998
  0
ARC
  5
11EFE
330
1F
100
AcDbEntity
  8
0
100
AcDbCircle
 10
465.0087798594044
 20
348.6686555079385
 30
0.0
 40
2.0
100
AcDbArc
 50
0.0
 51
79.99997277119573
  0
ARC
  5
11EFF
330
1F
100
AcDbEntity
  8
0
100
AcDbCircle
 10
462.6587818594043
 20
352.8968550766388
 30
0.0
 40
1.0
100
AcDbArc
 50
0.0
 51
90.0
  0
ARC
  5
11F00
330
1F
100
AcDbEntity
  8
0
100
AcDbCircle
 10
464.6587818594043
 20
351.7766498609388
 30
0.0
 40
1.0
100
AcDbArc
 50
180.0
 51
259.9999727711958
  0
ARC
  5
11F01
330
1F
100
AcDbEntity
  8
0
100
AcDbCircle
 10
454.8229290533043
 20
350.6756421816388
 30
0.0
 40
0.6039979261
100
AcDbArc
 50
147.2659723202878
 51
162.6919142620011
  0
ARC
  5
11F02
330
1F
100
AcDbEntity
  8
0
100
AcDbCircle
 10
454.8193567024044
 20
350.6773499765388
 30
0.0
 40
0.6000816256000002
100
AcDbArc
 50
90.00379559808875
 51
144.6471378914875
  0
ARC
  5
11F03
330
1F
100
AcDbEntity
  8
0
100
AcDbCircle
 10
454.8734632630043
 20
350.8742443494387
 30
0.0
 40
0.6000757972000002
100
AcDbArc
 50
90.00443236599315
 51
166.5209084275967
  0
ARC
  5
11F04
330
1F
100
AcDbEntity
  8
0
100
AcDbCircle
 10
454.8167054993038
 20
350.6794635428385
 30
0.0
 40
0.5966963923000001
100
AcDbArc
 50
144.6653646954108
 51
147.2514889401125
  0
ARC
  5
11F05
330
1F
100
AcDbEntity
  8
0
100
AcDbCircle
 10
444.0587798594041
 20
291.8386712191587
 30
0.0
 40
1.7
100
AcDbArc
 50
180.0
 51
270.0
  0
ARC
  5
11F06
330
1F
100
AcDbEntity
  8
0
100
AcDbCircle
 10
459.6587798594041
 20
291.8386712191587
 30
0.0
 40
1.7
100
AcDbArc
 50
270.0
 51
0.0
  0
ARC
  5
11F07
330
1F
100
AcDbEntity
  8
0
100
AcDbCircle
 10
466.0087798594044
 20
295.2386712191587
 30
0.0
 40
1.0
100
AcDbArc
 50
270.0
 51
0.0
  0
ARC
  5
11F08
330
1F
100
AcDbEntity
  8
0
100
AcDbCircle
 10
437.7087798594041
 20
295.2386712191587
 30
0.0
 40
1.0
100
AcDbArc
 50
180.0
 51
270.0
  0
LINE
  5
11F09
330
1F
100
AcDbEntity
  8
0
100
AcDbLine
 10
466.0087798594044
 20
352.8968550766388
 30
0.0
 11
467.0087798594045
 21
353.896855076639
 31
0.0
  0
LINE
  5
11F0A
330
1F
100
AcDbEntity
  8
0
100
AcDbLine
 10
466.0087798594044
 20
340.296855076639
 30
0.0
 11
467.0087798594045
 21
339.296855076639
 31
0.0
  0
LINE
  5
11F0B
330
1F
100
AcDbEntity
  8
0
100
AcDbLine
 10
437.7087798594041
 20
340.296855076639
 30
0.0
 11
436.7087798594043
 21
339.296855076639
 31
0.0
  0
LINE
  5
11F0C
330
1F
100
AcDbEntity
  8
0
100
AcDbLine
 10
437.7087798594041
 20
352.8968550766388
 30
0.0
 11
436.7087798594043
 21
353.896855076639
 31
0.0
  0
LINE
  5
11F0D
330
1F
100
AcDbEntity
  8
0
100
AcDbLine
 10
463.6587818594043
 20
294.2386712191587
 30
0.0
 11
462.6587818594043
 21
295.2386712191587
 31
0.0
  0
LINE
  5
11F0E
330
1F
100
AcDbEntity
  8
0
100
AcDbLine
 10
441.0587778594043
 20
295.2386712191587
 30
0.0
 11
440.0587778594043
 21
294.2386712191587
 31
0.0
  0
ELLIPSE
  5
11F0F
330
1F
100
AcDbEntity
  8
0
100
AcDbEllipse
 10
452.3637664962044
 20
341.7445269926389
 30
0.0
 11
0.3
 21
0.0
 31
0.0
210
0.0
220
0.0
230
1.0
 40
0.0139635414
 41
-1.5707963268
 42
-0.0087266463
  0
ELLIPSE
  5
11F10
330
1F
100
AcDbEntity
  8
0
100
AcDbEllipse
 10
451.3537972226044
 20
341.7445269926389
 30
0.0
 11
0.3
 21
0.0
 31
0.0
210
0.0
220
0.0
230
1.0
 40
0.0139635414
 41
-3.1328660073
 42
-1.5707963268
  0
ELLIPSE
  5
11F11
330
1F
100
AcDbEntity
  8
0
100
AcDbEllipse
 10
462.6587818594043
 20
268.7386712191584
 30
0.0
 11
1.0
 21
0.0
 31
0.0
210
0.0
220
0.0
230
1.0
 40
1.0
 41
0.0
 42
1.5707963268
  0
ELLIPSE
  5
11F12
330
1F
100
AcDbEntity
  8
0
100
AcDbEllipse
 10
441.0587778594043
 20
268.7386712191584
 30
0.0
 11
1.0
 21
0.0
 31
0.0
210
0.0
220
0.0
230
1.0
 40
1.0
 41
1.5707963268
 42
3.1415926536
  0
MTEXT
  5
11F13
330
1F
100
AcDbEntity
  8
打标文字
100
AcDbMText
 10
464.8173586681945
 20
346.1598286239512
 30
0.0
 40
2.0
 41
2.371951884948201
 71
     1
 72
     5
  1
2
  7
打标文字
 11
0.0000000000000003
 21
1.0
 31
0.0
 73
     1
 44
1.0
1001
ACAD
1000
MTEXTBEGIN
1070
    73
1070
     1
1070
    44
1040
1.0
1070
    74
1070
     0
1000
MTEXTEND
  0
MTEXT
  5
11F14
330
1F
100
AcDbEntity
  8
打标文字
100
AcDbMText
 10
436.9154383037014
 20
346.3761678760887
 30
0.0
 40
2.0
 41
2.371951884948201
 71
     1
 72
     5
  1
1
  7
打标文字
 11
0.0000000000000003
 21
1.0
 31
0.0
 73
     1
 44
1.0
1001
ACAD
1000
MTEXTBEGIN
1070
    73
1070
     1
1070
    44
1040
1.0
1070
    74
1070
     0
1000
MTEXTEND
  0
LINE
  5
11F16
330
1F
100
AcDbEntity
  8
0
  6
Continuous
 62
     7
100
AcDbLine
 10
410.0854691763556
 20
199.0661057055341
 30
0.0
 11
395.260862105764
 21
217.5134337134509
 31
0.0
  0
LINE
  5
11F17
330
1F
100
AcDbEntity
  8
0
  6
Continuous
 62
     7
100
AcDbLine
 10
410.1546912721164
 20
199.0673587981333
 30
0.0
 11
406.8671739483429
 21
203.1582537617707
 31
0.0
  0
LINE
  5
11F18
330
1F
100
AcDbEntity
  8
0
  6
Continuous
 62
     7
100
AcDbLine
 10
403.994188527343
 20
206.733316774915
 30
0.0
 11
401.12120310643
 21
210.3083797880894
 31
0.0
  0
LINE
  5
11F19
330
1F
100
AcDbEntity
  8
0
  6
Continuous
 62
     7
100
AcDbLine
 10
398.2482176854306
 20
213.8834428012337
 30
0.0
 11
394.9607003617455
 21
217.9743377649009
 31
0.0
  0
LINE
  5
11F1A
330
1F
100
AcDbEntity
  8
0
  6
Continuous
 62
     7
100
AcDbLine
 10
395.260862105764
 20
217.5134337134509
 30
0.0
 11
394.9607003617455
 21
217.9743377649009
 31
0.0
  0
LINE
  5
11F1B
330
1F
100
AcDbEntity
  8
0
  6
Continuous
 62
     7
100
AcDbLine
 10
398.3636875096471
 20
213.6523642292388
 30
0.0
 11
398.2482176854306
 21
213.8834428012337
 31
0.0
  0
LINE
  5
11F1C
330
1F
100
AcDbEntity
  8
0
  6
Continuous
 62
     7
100
AcDbLine
 10
401.2366729305596
 20
210.0773012160648
 30
0.0
 11
401.12120310643
 21
210.3083797880894
 31
0.0
  0
LINE
  5
11F1D
330
1F
100
AcDbEntity
  8
0
  6
Continuous
 62
     7
100
AcDbLine
 10
404.1096583515597
 20
206.5022382029204
 30
0.0
 11
403.994188527343
 21
206.733316774915
 31
0.0
  0
LINE
  5
11F1E
330
1F
100
AcDbEntity
  8
0
  6
Continuous
 62
     7
100
AcDbLine
 10
406.9826437724715
 20
202.9271751897459
 30
0.0
 11
406.8671739483429
 21
203.1582537617707
 31
0.0
  0
LINE
  5
11F1F
330
1F
100
AcDbEntity
  8
0
  6
Continuous
 62
     7
100
AcDbLine
 10
397.2082625114315
 20
222.9878720506052
 30
0.0
 11
394.9607003617455
 21
217.9743377649009
 31
0.0
  0
LINE
  5
11F20
330
1F
100
AcDbEntity
  8
0
  6
Continuous
 62
     7
100
AcDbLine
 10
402.3719010590128
 20
217.9936698013718
 30
0.0
 11
405.0918690308032
 21
214.6090174387864
 31
0.0
  0
LINE
  5
11F21
330
1F
100
AcDbEntity
  8
0
  6
Continuous
 62
     7
100
AcDbLine
 10
408.1178719009256
 20
210.8435437750534
 30
0.0
 11
410.8378398727155
 21
207.4588914124676
 31
0.0
  0
LINE
  5
11F22
330
1F
100
AcDbEntity
  8
0
  6
Continuous
 62
     7
100
AcDbLine
 10
410.9776612755345
 20
207.6103323045739
 30
0.0
 11
408.2449418496882
 21
211.0108522213879
 31
0.0
  0
LINE
  5
11F23
330
1F
100
AcDbEntity
  8
0
  6
Continuous
 62
     7
100
AcDbLine
 10
405.2316904336221
 20
214.7604583308928
 30
0.0
 11
402.4989710078051
 21
218.1609782476186
 31
0.0
  0
LINE
  5
11F24
330
1F
100
AcDbEntity
  8
0
  6
Continuous
 62
     7
100
AcDbLine
 10
419.3671746189075
 20
202.7305847588953
 30
0.0
 11
423.3032479938451
 21
204.9162472366437
 31
0.0
  0
LINE
  5
11F25
330
1F
100
AcDbEntity
  8
0
  6
Continuous
 62
     7
100
AcDbLine
 10
421.5607205156858
 20
204.8096326630325
 30
0.0
 11
424.3722014978176
 21
206.3708201470797
 31
0.0
  0
LINE
  5
11F26
330
1F
100
AcDbEntity
  8
0
  6
Continuous
 62
     7
100
AcDbLine
 10
418.6841224917911
 20
203.5805557952508
 30
0.0
 11
414.6185564608268
 21
201.3229873308544
 31
0.0
  0
LINE
  5
11F27
330
1F
100
AcDbEntity
  8
0
  6
Continuous
 62
     7
100
AcDbLine
 10
424.4593306289703
 20
207.6484651917064
 30
0.0
 11
423.6891493706997
 21
207.2207911834349
 31
0.0
  0
LINE
  5
11F28
330
1F
100
AcDbEntity
  8
0
  6
Continuous
 62
     7
100
AcDbLine
 10
418.3865314362142
 20
204.2763000753979
 30
0.0
 11
416.2498061612308
 21
203.0897977381999
 31
0.0
  0
LINE
  5
11F29
330
1F
100
AcDbEntity
  8
0
  6
Continuous
 62
     7
100
AcDbLine
 10
410.1546912721164
 20
199.0673587981333
 30
0.0
 11
414.6185564608268
 21
201.3229873308544
 31
0.0
  0
LINE
  5
11F2A
330
1F
100
AcDbEntity
  8
0
  6
Continuous
 62
     7
100
AcDbLine
 10
398.8395122118356
 20
224.7546824579506
 30
0.0
 11
402.0859868866271
 21
220.7148598230671
 31
0.0
  0
LINE
  5
11F2B
330
1F
100
AcDbEntity
  8
0
  6
Continuous
 62
     7
100
AcDbLine
 10
416.2498050119821
 20
203.0897991681769
 30
0.0
 11
413.0033314863511
 21
207.1296203730535
 31
0.0
  0
LINE
  5
11F2C
330
1F
100
AcDbEntity
  8
0
  6
Continuous
 62
     7
100
AcDbLine
 10
399.1536558447142
 20
226.8717811321252
 30
0.0
 11
399.9170805932341
 21
225.921796644894
 31
0.0
  0
LINE
  5
11F2D
330
1F
100
AcDbEntity
  8
0
  6
Continuous
 62
     7
100
AcDbLine
 10
418.3041688639489
 20
204.0533595038167
 30
0.0
 11
419.3671746189075
 21
202.7305847588953
 31
0.0
  0
LINE
  5
11F2E
330
1F
100
AcDbEntity
  8
0
  6
Continuous
 62
     7
100
AcDbLine
 10
418.3865305584121
 20
204.2763016561151
 30
0.0
 11
418.4439902667984
 21
204.204800395835
 31
0.0
  0
LINE
  5
11F2F
330
1F
100
AcDbEntity
  8
0
  6
Continuous
 62
     7
100
AcDbLine
 10
399.1536558447142
 20
226.8717811321252
 30
0.0
 11
400.3188342021416
 21
228.1337885658301
 31
0.0
  0
LINE
  5
11F30
330
1F
100
AcDbEntity
  8
0
  6
Continuous
 62
     7
100
AcDbLine
 10
420.4402550522821
 20
206.2039086681158
 30
0.0
 11
423.2517360343845
 21
207.7650961522512
 31
0.0
  0
LINE
  5
11F31
330
1F
100
AcDbEntity
  8
0
  6
Continuous
 62
     7
100
AcDbLine
 10
418.6733759954021
 20
205.7147746304615
 30
0.0
 11
421.6131731236232
 21
207.3472147968476
 31
0.0
  0
LINE
  5
11F32
330
1F
100
AcDbEntity
  8
0
  6
Continuous
 62
     7
100
AcDbLine
 10
423.9431038972305
 20
208.6410022297964
 30
0.0
 11
426.8829004631434
 21
210.2734420839684
 31
0.0
  0
LINE
  5
11F33
330
1F
100
AcDbEntity
  8
0
  6
Continuous
 62
     7
100
AcDbLine
 10
419.1271464505938
 20
207.2468277033995
 30
0.0
 11
420.530721801269
 21
208.0262191644962
 31
0.0
  0
LINE
  5
11F34
330
1F
100
AcDbEntity
  8
0
  6
Continuous
 62
     7
100
AcDbLine
 10
420.0220996155533
 20
208.4187327612324
 30
0.0
 11
419.4353042076166
 21
208.9935185766698
 31
0.0
  0
LINE
  5
11F35
330
1F
100
AcDbEntity
  8
0
  6
Continuous
 62
     7
100
AcDbLine
 10
400.3188342021416
 20
228.1337885658301
 30
0.0
 11
401.0822589506316
 21
227.1838040786868
 31
0.0
  0
LINE
  5
11F36
330
1F
100
AcDbEntity
  8
0
  6
Continuous
 62
     7
100
AcDbLine
 10
401.2630843443591
 20
227.3796564901101
 30
0.0
 11
403.7625805113624
 21
224.2693530987328
 31
0.0
  0
LINE
  5
11F37
330
1F
100
AcDbEntity
  8
0
  6
Continuous
 62
     7
100
AcDbLine
 10
416.1738798283111
 20
208.8250780218088
 30
0.0
 11
418.6733759954021
 21
205.7147746304615
 31
0.0
  0
LINE
  5
11F38
330
1F
100
AcDbEntity
  8
0
  6
Continuous
 62
     7
100
AcDbLine
 10
419.4118875128728
 20
205.3868681978597
 30
0.0
 11
420.5323529763052
 21
203.9925921926885
 31
0.0
  0
LINE
  5
11F39
330
1F
100
AcDbEntity
  8
0
  6
Continuous
 62
     7
100
AcDbLine
 10
414.7994462877687
 20
211.7497166872507
 30
0.0
 11
412.1943965836496
 21
214.9913679594012
 31
0.0
  0
LINE
  5
11F3A
330
1F
100
AcDbEntity
  8
0
  6
Continuous
 62
     7
100
AcDbLine
 10
409.0534754458562
 20
218.8998427135697
 30
0.0
 11
406.448428040177
 21
222.1414911256483
 31
0.0
  0
LINE
  5
11F3B
330
1F
100
AcDbEntity
  8
0
  6
Continuous
 62
     7
100
AcDbLine
 10
401.3472017415208
 20
228.9508290361745
 30
0.0
 11
402.1782495336799
 21
227.9166963175897
 31
0.0
  0
LINE
  5
11F3C
330
1F
100
AcDbEntity
  8
0
  6
Continuous
 62
     7
100
AcDbLine
 10
402.8660489679269
 20
227.4816843578609
 30
0.0
 11
404.2023720001813
 21
225.8188012079641
 31
0.0
  0
LINE
  5
11F3D
330
1F
100
AcDbEntity
  8
0
  6
Continuous
 62
     7
100
AcDbLine
 10
417.7768444518783
 20
208.9271058895591
 30
0.0
 11
419.1271464505938
 21
207.2468277033995
 31
0.0
  0
LINE
  5
11F3E
330
1F
100
AcDbEntity
  8
0
  6
Continuous
 62
     7
100
AcDbLine
 10
415.1415375555217
 20
212.3877112354577
 30
0.0
 11
412.4983909682147
 21
215.6767692076295
 31
0.0
  0
LINE
  5
11F3F
330
1F
100
AcDbEntity
  8
0
  6
Continuous
 62
     7
100
AcDbLine
 10
409.3955690119312
 20
219.5378344017623
 30
0.0
 11
406.7524224246541
 21
222.8268923738461
 31
0.0
  0
LINE
  5
11F40
330
1F
100
AcDbEntity
  8
0
  6
Continuous
 62
     7
100
AcDbLine
 10
404.9251726271665
 20
227.0495217585155
 30
0.0
 11
404.5110833617382
 21
227.720208380967
 31
0.0
  0
LINE
  5
11F41
330
1F
100
AcDbEntity
  8
0
  6
Continuous
 62
     7
100
AcDbLine
 10
401.2630843443591
 20
227.3796564901101
 30
0.0
 11
397.2082625114315
 21
222.9878720506052
 31
0.0
  0
LINE
  5
11F42
330
1F
100
AcDbEntity
  8
0
  6
Continuous
 62
     7
100
AcDbLine
 10
404.1282068832707
 20
228.9962880173784
 30
0.0
 11
416.3374235203018
 21
242.2201194237612
 31
0.0
  0
LINE
  5
11F43
330
1F
100
AcDbEntity
  8
0
  6
Continuous
 62
     7
100
AcDbLine
 10
404.5110833617382
 20
227.720208380967
 30
0.0
 11
416.3959026070755
 21
240.5926842053772
 31
0.0
  0
LINE
  5
11F44
330
1F
100
AcDbEntity
  8
0
  6
Continuous
 62
     7
100
AcDbLine
 10
400.3188342021416
 20
228.1337885658301
 30
0.0
 11
401.3472017415208
 21
228.9508290361745
 31
0.0
  0
LINE
  5
11F45
330
1F
100
AcDbEntity
  8
0
  6
Continuous
 62
     7
100
AcDbLine
 10
416.5537716642933
 20
242.3893752342942
 30
0.0
 11
416.3373163305314
 21
242.2199995439088
 31
0.0
  0
LINE
  5
11F46
330
1F
100
AcDbEntity
  8
0
  6
Continuous
 62
     7
100
AcDbLine
 10
418.4067317821968
 20
209.2768760721746
 30
0.0
 11
417.7768444518783
 21
208.9271058895591
 31
0.0
  0
LINE
  5
11F47
330
1F
100
AcDbEntity
  8
0
  6
Continuous
 62
     7
100
AcDbLine
 10
413.0033314863511
 20
207.1296203730535
 30
0.0
 11
413.3833984406961
 21
207.3406677805057
 31
0.0
  0
LINE
  5
11F48
330
1F
100
AcDbEntity
  8
0
  6
Continuous
 62
     7
100
AcDbLine
 10
420.4402550522821
 20
206.2039086681158
 30
0.0
 11
421.5607205156858
 21
204.8096326630325
 31
0.0
  0
LINE
  5
11F49
330
1F
100
AcDbEntity
  8
0
  6
Continuous
 62
     7
100
AcDbLine
 10
407.2184937675721
 20
223.3316953473686
 30
0.0
 11
409.8616403548795
 21
220.0426373751973
 31
0.0
  0
LINE
  5
11F4A
330
1F
100
AcDbEntity
  8
0
  6
Continuous
 62
     7
100
AcDbLine
 10
412.9644623111625
 20
216.1815721810642
 30
0.0
 11
415.6076088984399
 21
212.8925142089806
 31
0.0
  0
LINE
  5
11F4B
330
1F
100
AcDbEntity
  8
0
  6
Continuous
 62
     7
100
AcDbLine
 10
407.1268767687493
 20
223.4999394465958
 30
0.0
 11
409.9998621896618
 21
219.9248764334215
 31
0.0
  0
LINE
  5
11F4C
330
1F
100
AcDbEntity
  8
0
  6
Continuous
 62
     7
100
AcDbLine
 10
412.8728476106624
 20
216.3498134202774
 30
0.0
 11
415.7458330315746
 21
212.7747504071028
 31
0.0
  0
LINE
  5
11F4D
330
1F
100
AcDbEntity
  8
0
  6
Continuous
 62
     7
100
AcDbLine
 10
416.8270512756345
 20
213.544612424708
 30
0.0
 11
407.8633367622559
 21
224.6988090257042
 31
0.0
  0
LINE
  5
11F4E
330
1F
100
AcDbEntity
  8
0
  6
Continuous
 62
     7
100
AcDbLine
 10
408.3131737194197
 20
224.9485990231202
 30
0.0
 11
417.2768882327977
 21
213.7944024221239
 31
0.0
  0
LINE
  5
11F4F
330
1F
100
AcDbEntity
  8
0
  6
Continuous
 62
     7
100
AcDbLine
 10
408.3906619808741
 20
224.9717921152231
 30
0.0
 11
417.3543764942526
 21
213.8175955142272
 31
0.0
  0
LINE
  5
11F50
330
1F
100
AcDbEntity
  8
0
  6
Continuous
 62
     7
100
AcDbLine
 10
418.3095200900361
 20
212.6761617859671
 30
0.0
 11
417.3614337519394
 21
213.8559340103581
 31
0.0
  0
LINE
  5
11F51
330
1F
100
AcDbEntity
  8
0
  6
Continuous
 62
     7
100
AcDbLine
 10
408.1678804048393
 20
225.2961356524147
 30
0.0
 11
407.2197963651821
 21
226.4759050167334
 31
0.0
  0
LINE
  5
11F52
330
1F
100
AcDbEntity
  8
0
  6
Continuous
 62
     7
100
AcDbLine
 10
406.448428040177
 20
222.1414911256483
 30
0.0
 11
406.7524224246541
 21
222.8268923738461
 31
0.0
  0
LINE
  5
11F53
330
1F
100
AcDbEntity
  8
0
  6
Continuous
 62
     7
100
AcDbLine
 10
418.3769554968357
 20
240.2656682678358
 30
0.0
 11
417.754410502266
 21
239.5660076035538
 31
0.0
  0
LINE
  5
11F54
330
1F
100
AcDbEntity
  8
0
  6
Continuous
 62
     7
100
AcDbLine
 10
419.9513848468046
 20
241.1399332589526
 30
0.0
 11
417.6756703074683
 21
238.5823222262883
 31
0.0
  0
LINE
  5
11F55
330
1F
100
AcDbEntity
  8
0
  6
Continuous
 62
     7
100
AcDbLine
 10
416.8099918725918
 20
239.9219975829554
 30
0.0
 11
404.9251726271665
 21
227.0495217585155
 31
0.0
  0
LINE
  5
11F56
330
1F
100
AcDbEntity
  8
0
  6
Continuous
 62
     7
100
AcDbLine
 10
415.8924198755943
 20
238.4803197011132
 30
0.0
 11
404.0962406590614
 21
225.7038501014819
 31
0.0
  0
LINE
  5
11F57
330
1F
100
AcDbEntity
  8
0
  6
Continuous
 62
     7
100
AcDbLine
 10
415.6473997567871
 20
237.1418289231732
 30
0.0
 11
403.7625805113624
 21
224.2693530987328
 31
0.0
  0
LINE
  5
11F58
330
1F
100
AcDbEntity
  8
0
  6
Continuous
 62
     7
100
AcDbLine
 10
416.1011702119782
 20
238.6738819961113
 30
0.0
 11
415.8905696622253
 21
238.4776213245186
 31
0.0
  0
LINE
  5
11F59
330
1F
100
AcDbEntity
  8
0
  6
Continuous
 62
     7
100
AcDbLine
 10
416.8395262909609
 20
239.1086462587615
 30
0.0
 11
416.7310573439094
 21
239.0236520685697
 31
0.0
  0
LINE
  5
11F5A
330
1F
100
AcDbEntity
  8
0
  6
Continuous
 62
     7
100
AcDbLine
 10
401.4023794518505
 20
227.4856685195724
 30
0.0
 11
401.2630843443591
 21
227.3796564901101
 31
0.0
  0
LINE
  5
11F5B
330
1F
100
AcDbEntity
  8
0
  6
Continuous
 62
     7
100
AcDbLine
 10
433.9640637118773
 20
220.7244935947807
 30
0.0
 11
436.2939944855731
 21
222.0182810277598
 31
0.0
  0
LINE
  5
11F5C
330
1F
100
AcDbEntity
  8
0
  6
Continuous
 62
     7
100
AcDbLine
 10
417.0115450357172
 20
211.4709259451864
 30
0.0
 11
417.3916119900622
 21
211.6819733526385
 31
0.0
  0
LINE
  5
11F5D
330
1F
100
AcDbEntity
  8
0
  6
Continuous
 62
     7
100
AcDbLine
 10
424.3722014978176
 20
206.3708201470797
 30
0.0
 11
423.2517360343845
 21
207.7650961522512
 31
0.0
  0
LINE
  5
11F5E
330
1F
100
AcDbEntity
  8
0
  6
Continuous
 62
     7
100
AcDbLine
 10
405.6652970724702
 20
230.6611140354902
 30
0.0
 11
405.2832751164581
 21
231.1364915139225
 31
0.0
  0
LINE
  5
11F5F
330
1F
100
AcDbEntity
  8
0
  6
Continuous
 62
     7
100
AcDbLine
 10
409.3955690119312
 20
219.5378344017623
 30
0.0
 11
409.1672649314133
 21
219.0230883745181
 31
0.0
  0
LINE
  5
11F60
330
1F
100
AcDbEntity
  8
0
  6
Continuous
 62
     7
100
AcDbLine
 10
401.9997973240177
 20
220.8221117134283
 30
0.0
 11
407.2197963651821
 21
226.4759050167334
 31
0.0
  0
LINE
  5
11F61
330
1F
100
AcDbEntity
  8
0
  6
Continuous
 62
     7
100
AcDbLine
 10
406.0942004360807
 20
225.0561653952297
 30
0.0
 11
402.0859868866271
 21
220.7148598230671
 31
0.0
  0
LINE
  5
11F62
330
1F
100
AcDbEntity
  8
0
  6
Continuous
 62
     7
100
AcDbLine
 10
407.3728138143927
 20
226.2854943661747
 30
0.0
 11
406.4818349496666
 21
225.3204730512642
 31
0.0
  0
LINE
  5
11F63
330
1F
100
AcDbEntity
  8
0
  6
Continuous
 62
     7
100
AcDbLine
 10
408.1678804048393
 20
225.2961356524147
 30
0.0
 11
417.2562715925206
 21
235.1397936358349
 31
0.0
  0
LINE
  5
11F64
330
1F
100
AcDbEntity
  8
0
  6
Continuous
 62
     7
100
AcDbLine
 10
418.3970983711398
 20
236.0192816054659
 30
0.0
 11
408.8426358406286
 21
225.6708206485535
 31
0.0
  0
LINE
  5
11F65
330
1F
100
AcDbEntity
  8
0
  6
Continuous
 62
     7
100
AcDbLine
 10
398.2482176854306
 20
213.8834428012337
 30
0.0
 11
407.1268767687493
 21
223.4999394465958
 31
0.0
  0
LINE
  5
11F66
330
1F
100
AcDbEntity
  8
0
  6
Continuous
 62
     7
100
AcDbLine
 10
407.2184937675721
 20
223.3316953473686
 30
0.0
 11
406.7524224246541
 21
222.8268923738461
 31
0.0
  0
LINE
  5
11F67
330
1F
100
AcDbEntity
  8
0
  6
Continuous
 62
     7
100
AcDbLine
 10
402.3156714393492
 20
217.9624460517131
 30
0.0
 11
406.7020695521365
 21
222.7133642186003
 31
0.0
  0
LINE
  5
11F68
330
1F
100
AcDbEntity
  8
0
  6
Continuous
 62
     7
100
AcDbLine
 10
398.3636875096471
 20
213.6523642292388
 30
0.0
 11
402.3719010590128
 21
217.9936698013718
 31
0.0
  0
LINE
  5
11F69
330
1F
100
AcDbEntity
  8
0
  6
Continuous
 62
     7
100
AcDbLine
 10
418.2846391318419
 20
235.9568341060605
 30
0.0
 11
417.2562715925206
 21
235.1397936358349
 31
0.0
  0
LINE
  5
11F6A
330
1F
100
AcDbEntity
  8
0
  6
Continuous
 62
     7
100
AcDbLine
 10
406.304022390192
 20
225.2217328893809
 30
0.0
 11
406.0942004360807
 21
225.0561653952297
 31
0.0
  0
LINE
  5
11F6B
330
1F
100
AcDbEntity
  8
0
  6
Continuous
 62
     7
100
AcDbLine
 10
416.8270512756345
 20
213.544612424708
 30
0.0
 11
417.2768882327977
 21
213.7944024221239
 31
0.0
  0
LINE
  5
11F6C
330
1F
100
AcDbEntity
  8
0
  6
Continuous
 62
     7
100
AcDbLine
 10
415.6076088984399
 20
212.8925142089806
 30
0.0
 11
415.637747031025
 21
212.9092496149074
 31
0.0
  0
LINE
  5
11F6D
330
1F
100
AcDbEntity
  8
0
  6
Continuous
 62
     7
100
AcDbLine
 10
434.5282981288772
 20
223.5356401914786
 30
0.0
 11
432.9538687789081
 21
222.6613752003617
 31
0.0
  0
LINE
  5
11F6E
330
1F
100
AcDbEntity
  8
0
  6
Continuous
 62
     7
100
AcDbLine
 10
434.0696955084291
 20
223.689453201206
 30
0.0
 11
432.4952661584301
 21
222.8151882101775
 31
0.0
  0
LINE
  5
11F6F
330
1F
100
AcDbEntity
  8
0
  6
Continuous
 62
     7
100
AcDbLine
 10
436.7465957722087
 20
225.7337741738932
 30
0.0
 11
436.1167090041988
 21
225.3840043034923
 31
0.0
  0
LINE
  5
11F70
330
1F
100
AcDbEntity
  8
0
  6
Continuous
 62
     7
100
AcDbLine
 10
429.6616636972155
 20
221.7995817139693
 30
0.0
 11
430.2915510275329
 21
222.1493518965848
 31
0.0
  0
LINE
  5
11F71
330
1F
100
AcDbEntity
  8
0
  6
Continuous
 62
     7
100
AcDbLine
 10
408.0616422812621
 20
210.8123200253945
 30
0.0
 11
408.1178719009256
 21
210.8435437750534
 31
0.0
  0
LINE
  5
11F72
330
1F
100
AcDbEntity
  8
0
  6
Continuous
 62
     7
100
AcDbLine
 10
426.8607510657814
 20
210.7725545463122
 30
0.0
 11
426.4467886988516
 21
211.2876777821966
 31
0.0
  0
LINE
  5
11F73
330
1F
100
AcDbEntity
  8
0
  6
Continuous
 62
     7
100
AcDbLine
 10
424.4684263512731
 20
206.1782546703486
 30
0.0
 11
424.3722014978176
 21
206.3708201470797
 31
0.0
  0
LINE
  5
11F74
330
1F
100
AcDbEntity
  8
0
  6
Continuous
 62
     7
100
AcDbLine
 10
425.4101294167173
 20
239.6381684161086
 30
0.0
 11
425.46579606026
 21
239.6984610893413
 31
0.0
  0
LINE
  5
11F75
330
1F
100
AcDbEntity
  8
0
  6
Continuous
 62
     7
100
AcDbLine
 10
423.9129345916794
 20
239.7364494487084
 30
0.0
 11
419.7479365802839
 21
235.2617508676333
 31
0.0
  0
LINE
  5
11F76
330
1F
100
AcDbEntity
  8
0
  6
Continuous
 62
     7
100
AcDbLine
 10
412.9946004437472
 20
216.1983075869911
 30
0.0
 11
412.9644623111625
 21
216.1815721810642
 31
0.0
  0
LINE
  5
11F77
330
1F
100
AcDbEntity
  8
0
  6
Continuous
 62
     7
100
AcDbLine
 10
434.5631245539357
 20
228.4508249239278
 30
0.0
 11
434.4506653146376
 21
228.3883774245224
 31
0.0
  0
LINE
  5
11F78
330
1F
100
AcDbEntity
  8
0
  6
Continuous
 62
     7
100
AcDbLine
 10
427.4781924789419
 20
224.5166324640039
 30
0.0
 11
427.59065171824
 21
224.5790799634093
 31
0.0
  0
LINE
  5
11F79
330
1F
100
AcDbEntity
  8
0
  6
Continuous
 62
     7
100
AcDbLine
 10
412.1943965836496
 20
214.9913679594012
 30
0.0
 11
412.4983909682147
 21
215.6767692076295
 31
0.0
  0
LINE
  5
11F7A
330
1F
100
AcDbEntity
  8
0
  6
Continuous
 62
     7
100
AcDbLine
 10
409.8616403548795
 20
220.0426373751973
 30
0.0
 11
409.3955690119312
 21
219.5378344017623
 31
0.0
  0
LINE
  5
11F7B
330
1F
100
AcDbEntity
  8
0
  6
Continuous
 62
     7
100
AcDbLine
 10
401.12120310643
 20
210.3083797880894
 30
0.0
 11
409.9998621896618
 21
219.9248764334215
 31
0.0
  0
LINE
  5
11F7C
330
1F
100
AcDbEntity
  8
0
  6
Continuous
 62
     7
100
AcDbLine
 10
415.1415375555217
 20
212.3877112354577
 30
0.0
 11
414.913228908879
 21
211.8729549131861
 31
0.0
  0
LINE
  5
11F7D
330
1F
100
AcDbEntity
  8
0
  6
Continuous
 62
     7
100
AcDbLine
 10
409.8616403548795
 20
220.0426373751973
 30
0.0
 11
409.8917784874648
 21
220.0593727811241
 31
0.0
  0
LINE
  5
11F7E
330
1F
100
AcDbEntity
  8
0
  6
Continuous
 62
     7
100
AcDbLine
 10
425.077250224526
 20
229.9355002127411
 30
0.0
 11
428.3111036811886
 21
231.7312269397016
 31
0.0
  0
LINE
  5
11F7F
330
1F
100
AcDbEntity
  8
0
  6
Continuous
 62
     7
100
AcDbLine
 10
415.6473997567871
 20
237.1418289231732
 30
0.0
 11
417.2562715925206
 21
235.1397936358349
 31
0.0
  0
LINE
  5
11F80
330
1F
100
AcDbEntity
  8
0
  6
Continuous
 62
     7
100
AcDbLine
 10
426.4498249395625
 20
223.6995919936598
 30
0.0
 11
428.0586990737059
 21
221.6975538463372
 31
0.0
  0
LINE
  5
11F81
330
1F
100
AcDbEntity
  8
0
  6
Continuous
 62
     7
100
AcDbLine
 10
425.2707098120851
 20
228.3893657287338
 30
0.0
 11
428.3111036811886
 21
231.7312269397016
 31
0.0
  0
LINE
  5
11F82
330
1F
100
AcDbEntity
  8
0
  6
Continuous
 62
     7
100
AcDbLine
 10
403.994188527343
 20
206.733316774915
 30
0.0
 11
412.8728476106624
 21
216.3498134202774
 31
0.0
  0
LINE
  5
11F83
330
1F
100
AcDbEntity
  8
0
  6
Continuous
 62
     7
100
AcDbLine
 10
412.9644623111625
 20
216.1815721810642
 30
0.0
 11
412.4983909682147
 21
215.6767692076295
 31
0.0
  0
LINE
  5
11F84
330
1F
100
AcDbEntity
  8
0
  6
Continuous
 62
     7
100
AcDbLine
 10
408.0616422812621
 20
210.8123200253945
 30
0.0
 11
412.448033529572
 21
215.563230757356
 31
0.0
  0
LINE
  5
11F85
330
1F
100
AcDbEntity
  8
0
  6
Continuous
 62
     7
100
AcDbLine
 10
404.1096583515597
 20
206.5022382029204
 30
0.0
 11
408.1178719009256
 21
210.8435437750534
 31
0.0
  0
LINE
  5
11F86
330
1F
100
AcDbEntity
  8
0
  6
Continuous
 62
     7
100
AcDbLine
 10
424.9556858013018
 20
230.2513645221209
 30
0.0
 11
428.279667304627
 21
232.0971384588514
 31
0.0
  0
LINE
  5
11F87
330
1F
100
AcDbEntity
  8
0
  6
Continuous
 62
     7
100
AcDbLine
 10
402.3156714393492
 20
217.9624460517131
 30
0.0
 11
402.3719010590128
 21
217.9936698013718
 31
0.0
  0
LINE
  5
11F88
330
1F
100
AcDbEntity
  8
0
  6
Continuous
 62
     7
100
AcDbLine
 10
427.699341904896
 20
232.8192792177632
 30
0.0
 11
424.459556053697
 21
231.020258291029
 31
0.0
  0
LINE
  5
11F89
330
1F
100
AcDbEntity
  8
0
  6
Continuous
 62
     7
100
AcDbLine
 10
427.4223657916206
 20
232.9105591787966
 30
0.0
 11
424.3082407216324
 21
231.1813164366046
 31
0.0
  0
LINE
  5
11F8A
330
1F
100
AcDbEntity
  8
0
  6
Continuous
 62
     7
100
AcDbLine
 10
431.9069188608898
 20
221.2912085856427
 30
0.0
 11
431.320123453042
 21
221.8659944011098
 31
0.0
  0
LINE
  5
11F8B
330
1F
100
AcDbEntity
  8
0
  6
Continuous
 62
     7
100
AcDbLine
 10
416.1011702119782
 20
238.6738819961113
 30
0.0
 11
418.2846391318419
 21
235.9568341060605
 31
0.0
  0
LINE
  5
11F8C
330
1F
100
AcDbEntity
  8
0
  6
Continuous
 62
     7
100
AcDbLine
 10
427.4781924789419
 20
224.5166324640039
 30
0.0
 11
429.6616636972155
 21
221.7995817139693
 31
0.0
  0
LINE
  5
11F8D
330
1F
100
AcDbEntity
  8
0
  6
Continuous
 62
     7
100
AcDbLine
 10
427.59065171824
 20
224.5790799634093
 30
0.0
 11
418.3970983711398
 21
236.0192816054659
 31
0.0
  0
LINE
  5
11F8E
330
1F
100
AcDbEntity
  8
0
  6
Continuous
 62
     7
100
AcDbLine
 10
428.4239267490743
 20
224.2662288221035
 30
0.0
 11
418.3684777757644
 21
236.778949368125
 31
0.0
  0
LINE
  5
11F8F
330
1F
100
AcDbEntity
  8
0
  6
Continuous
 62
     7
100
AcDbLine
 10
428.553073514216
 20
224.3048837882494
 30
0.0
 11
418.4976245408766
 21
236.8176043343587
 31
0.0
  0
LINE
  5
11F90
330
1F
100
AcDbEntity
  8
0
  6
Continuous
 62
     7
100
AcDbLine
 10
416.8099918725918
 20
239.9219975829554
 30
0.0
 11
416.3959026070755
 21
240.5926842053772
 31
0.0
  0
LINE
  5
11F91
330
1F
100
AcDbEntity
  8
0
  6
Continuous
 62
     7
100
AcDbLine
 10
415.6076088984399
 20
212.8925142089806
 30
0.0
 11
415.1415375555217
 21
212.3877112354577
 31
0.0
  0
LINE
  5
11F92
330
1F
100
AcDbEntity
  8
0
  6
Continuous
 62
     7
100
AcDbLine
 10
406.8671739483429
 20
203.1582537617707
 30
0.0
 11
415.7458330315746
 21
212.7747504071028
 31
0.0
  0
LINE
  5
11F93
330
1F
100
AcDbEntity
  8
0
  6
Continuous
 62
     7
100
AcDbLine
 10
407.2486319001867
 20
223.3484307532076
 30
0.0
 11
407.2184937675721
 21
223.3316953473686
 31
0.0
  0
LINE
  5
11F94
330
1F
100
AcDbEntity
  8
0
  6
Continuous
 62
     7
100
AcDbLine
 10
401.9997973240177
 20
220.8221117134283
 30
0.0
 11
402.3798642783626
 21
221.0331591208806
 31
0.0
  0
LINE
  5
11F95
330
1F
100
AcDbEntity
  8
0
  6
Continuous
 62
     7
100
AcDbLine
 10
408.3131737194197
 20
224.9485990231202
 30
0.0
 11
407.8633367622559
 21
224.6988090257042
 31
0.0
  0
LINE
  5
11F96
330
1F
100
AcDbEntity
  8
0
  6
Continuous
 62
     7
100
AcDbLine
 10
408.8426358406286
 20
225.6708206485535
 30
0.0
 11
408.1678804048393
 21
225.2961356524147
 31
0.0
  0
LINE
  5
11F97
330
1F
100
AcDbEntity
  8
0
  6
Continuous
 62
     7
100
AcDbLine
 10
406.7539255910999
 20
225.4715622837943
 30
0.0
 11
406.3040886339353
 21
225.2217722863786
 31
0.0
  0
LINE
  5
11F98
330
1F
100
AcDbEntity
  8
0
  6
Continuous
 62
     7
100
AcDbLine
 10
417.3614337519394
 20
213.8559340103581
 30
0.0
 11
426.4498249395625
 21
223.6995919936598
 31
0.0
  0
LINE
  5
11F99
330
1F
100
AcDbEntity
  8
0
  6
Continuous
 62
     7
100
AcDbLine
 10
417.0115450357172
 20
211.4709259451864
 30
0.0
 11
413.0033314863511
 21
207.1296203730535
 31
0.0
  0
LINE
  5
11F9A
330
1F
100
AcDbEntity
  8
0
  6
Continuous
 62
     7
100
AcDbLine
 10
413.0895210489605
 20
207.0223684826918
 30
0.0
 11
418.3095200900361
 21
212.6761617859671
 31
0.0
  0
LINE
  5
11F9B
330
1F
100
AcDbEntity
  8
0
  6
Continuous
 62
     7
100
AcDbLine
 10
416.1738798283111
 20
208.8250780218088
 30
0.0
 11
428.0586990737059
 21
221.6975538463372
 31
0.0
  0
LINE
  5
11F9C
330
1F
100
AcDbEntity
  8
0
  6
Continuous
 62
     7
100
AcDbLine
 10
427.4781924789419
 20
224.5166324640039
 30
0.0
 11
426.4498249395625
 21
223.6995919936598
 31
0.0
  0
LINE
  5
11F9D
330
1F
100
AcDbEntity
  8
0
  6
Continuous
 62
     7
100
AcDbLine
 10
428.279667304627
 20
232.0971384588514
 30
0.0
 11
427.699341904896
 21
232.8192792177632
 31
0.0
  0
LINE
  5
11F9E
330
1F
100
AcDbEntity
  8
0
  6
Continuous
 62
     7
100
AcDbLine
 10
423.9129345916794
 20
239.7364494487084
 30
0.0
 11
433.9683835649886
 21
227.223728902687
 31
0.0
  0
LINE
  5
11F9F
330
1F
100
AcDbEntity
  8
0
  6
Continuous
 62
     7
100
AcDbLine
 10
425.3695712068354
 20
239.8910265659849
 30
0.0
 11
425.46579606026
 21
239.6984610893413
 31
0.0
  0
LINE
  5
11FA0
330
1F
100
AcDbEntity
  8
0
  6
Continuous
 62
     7
100
AcDbLine
 10
417.7768444518783
 20
208.9271058895591
 30
0.0
 11
429.6616636972155
 21
221.7995817139693
 31
0.0
  0
LINE
  5
11FA1
330
1F
100
AcDbEntity
  8
0
  6
Continuous
 62
     7
100
AcDbLine
 10
430.2915510275329
 20
222.1493518965848
 30
0.0
 11
418.4067317821968
 21
209.2768760721746
 31
0.0
  0
LINE
  5
11FA2
330
1F
100
AcDbEntity
  8
0
  6
Continuous
 62
     7
100
AcDbLine
 10
431.320123453042
 20
221.8659944011098
 30
0.0
 11
419.4353042076166
 21
208.9935185766698
 31
0.0
  0
LINE
  5
11FA3
330
1F
100
AcDbEntity
  8
0
  6
Continuous
 62
     7
100
AcDbLine
 10
433.9683835649886
 20
227.223728902687
 30
0.0
 11
430.0784637585151
 21
223.0445627683431
 31
0.0
  0
LINE
  5
11FA4
330
1F
100
AcDbEntity
  8
0
  6
Continuous
 62
     7
100
AcDbLine
 10
436.008240057701
 20
225.2990101139802
 30
0.0
 11
436.1167090041988
 21
225.3840043034923
 31
0.0
  0
LINE
  5
11FA5
330
1F
100
AcDbEntity
  8
0
  6
Continuous
 62
     7
100
AcDbLine
 10
425.3695712068354
 20
239.8910265659849
 30
0.0
 11
425.2571119675072
 21
239.8285790666673
 31
0.0
  0
LINE
  5
11FA6
330
1F
100
AcDbEntity
  8
0
  6
Continuous
 62
     7
100
AcDbLine
 10
418.2846391318419
 20
235.9568341060605
 30
0.0
 11
418.3970983711398
 21
236.0192816054659
 31
0.0
  0
LINE
  5
11FA7
330
1F
100
AcDbEntity
  8
0
  6
Continuous
 62
     7
100
AcDbLine
 10
404.2696239220025
 20
228.2610755987044
 30
0.0
 11
402.8660489679269
 21
227.4816843578609
 31
0.0
  0
LINE
  5
11FA8
330
1F
100
AcDbEntity
  8
0
  6
Continuous
 62
     7
100
AcDbLine
 10
404.1268486245121
 20
228.9987340519254
 30
0.0
 11
401.4027978285659
 21
227.48609568241
 31
0.0
  0
LINE
  5
11FA9
330
1F
100
AcDbEntity
  8
0
  6
Continuous
 62
     7
100
AcDbLine
 10
405.2832751164581
 20
231.1364915139225
 30
0.0
 11
401.3472017415208
 21
228.9508290361745
 31
0.0
  0
LINE
  5
11FAA
330
1F
100
AcDbEntity
  8
0
  6
Continuous
 62
     7
100
AcDbLine
 10
420.9408486032621
 20
243.1164476062939
 30
0.0
 11
421.527643031211
 21
242.5416624464002
 31
0.0
  0
LINE
  5
11FAB
330
1F
100
AcDbEntity
  8
0
  6
Continuous
 62
     7
100
AcDbLine
 10
424.4238369367032
 20
240.1414302078851
 30
0.0
 11
434.4792859100131
 21
227.6287096618638
 31
0.0
  0
LINE
  5
11FAC
330
1F
100
AcDbEntity
  8
0
  6
Continuous
 62
     7
100
AcDbLine
 10
425.2571119675072
 20
239.8285790666673
 30
0.0
 11
434.4506653146376
 21
228.3883774245224
 31
0.0
  0
LINE
  5
11FAD
330
1F
100
AcDbEntity
  8
0
  6
Continuous
 62
     7
100
AcDbLine
 10
436.7465957722087
 20
225.7337741738932
 30
0.0
 11
434.5631245539357
 21
228.4508249239278
 31
0.0
  0
LINE
  5
11FAE
330
1F
100
AcDbEntity
  8
0
  6
Continuous
 62
     7
100
AcDbLine
 10
425.3695712068354
 20
239.8910265659849
 30
0.0
 11
423.1861022868836
 21
242.608074456005
 31
0.0
  0
LINE
  5
11FAF
330
1F
100
AcDbEntity
  8
0
  6
Continuous
 62
     7
100
AcDbLine
 10
436.037774291752
 20
224.4856590869071
 30
0.0
 11
436.451863910556
 21
223.8149714609602
 31
0.0
  0
LINE
  5
11FB0
330
1F
100
AcDbEntity
  8
0
  6
Continuous
 62
     7
100
AcDbLine
 10
436.7465957722087
 20
225.7337741738932
 30
0.0
 11
436.7534366879679
 21
225.7093423041881
 31
0.0
  0
LINE
  5
11FB1
330
1F
100
AcDbEntity
  8
0
  6
Continuous
 62
     7
100
AcDbLine
 10
431.9069188608898
 20
221.2912085856427
 30
0.0
 11
420.0220996155533
 21
208.4187327612324
 31
0.0
  0
LINE
  5
11FB2
330
1F
100
AcDbEntity
  8
0
  6
Continuous
 62
     7
100
AcDbLine
 10
436.1167090041988
 20
225.3840043034923
 30
0.0
 11
435.9531935948459
 21
225.2069003770873
 31
0.0
  0
LINE
  5
11FB3
330
1F
100
AcDbEntity
  8
0
  6
Continuous
 62
     7
100
AcDbLine
 10
436.7465957722087
 20
225.7337741738932
 30
0.0
 11
435.9079422729172
 21
224.8254265859279
 31
0.0
  0
LINE
  5
11FB4
330
1F
100
AcDbEntity
  8
0
  6
Continuous
 62
     7
100
AcDbLine
 10
436.7541935798165
 20
225.7094676894286
 30
0.0
 11
435.9135306573561
 21
224.7989436904669
 31
0.0
  0
LINE
  5
11FB5
330
1F
100
AcDbEntity
  8
0
  6
Continuous
 62
     7
100
AcDbLine
 10
414.6185564608268
 20
201.3229873308544
 30
0.0
 11
418.6733759954021
 21
205.7147746304615
 31
0.0
  0
LINE
  5
11FB6
330
1F
100
AcDbEntity
  8
0
  6
Continuous
 62
     7
100
AcDbLine
 10
418.3865305584121
 20
204.2763016561151
 30
0.0
 11
419.4118875128728
 21
205.3868681978597
 31
0.0
  0
LINE
  5
11FB7
330
1F
100
AcDbEntity
  8
0
  6
Continuous
 62
     7
100
AcDbLine
 10
418.3041688639489
 20
204.0533595038167
 30
0.0
 11
418.4439902667984
 21
204.204800395835
 31
0.0
  0
LINE
  5
11FB8
330
1F
100
AcDbEntity
  8
0
  6
Continuous
 62
     7
100
AcDbLine
 10
433.9640637118773
 20
220.7244935947807
 30
0.0
 11
421.6131731236232
 21
207.3472147968476
 31
0.0
  0
LINE
  5
11FB9
330
1F
100
AcDbEntity
  8
0
  6
Continuous
 62
     7
100
AcDbLine
 10
436.2939944855731
 20
222.0182810277598
 30
0.0
 11
436.5104498187815
 21
222.1876567174658
 31
0.0
  0
LINE
  5
11FBA
330
1F
100
AcDbEntity
  8
0
  6
Continuous
 62
     7
100
AcDbLine
 10
423.1861022868836
 20
242.608074456005
 30
0.0
 11
422.5562157172626
 21
242.2583046957606
 31
0.0
  0
LINE
  5
11FBB
330
1F
100
AcDbEntity
  8
0
  6
Continuous
 62
     7
100
AcDbLine
 10
416.1011702119782
 20
238.6738819961113
 30
0.0
 11
416.7310573439094
 21
239.0236520685697
 31
0.0
  0
LINE
  5
11FBC
330
1F
100
AcDbEntity
  8
0
  6
Continuous
 62
     7
100
AcDbLine
 10
418.3769554968357
 20
240.2656682678358
 30
0.0
 11
419.9513848468046
 21
241.1399332589526
 31
0.0
  0
LINE
  5
11FBD
330
1F
100
AcDbEntity
  8
0
  6
Continuous
 62
     7
100
AcDbLine
 10
418.3194661314659
 20
240.8720181235506
 30
0.0
 11
419.8938954814348
 21
241.7462831146676
 31
0.0
  0
LINE
  5
11FBE
330
1F
100
AcDbEntity
  8
0
  6
Continuous
 62
     7
100
AcDbLine
 10
423.9431038972305
 20
208.6410022297964
 30
0.0
 11
436.2939944855731
 21
222.0182810277598
 31
0.0
  0
LINE
  5
11FBF
330
1F
100
AcDbEntity
  8
0
  6
Continuous
 62
     7
100
AcDbLine
 10
424.3011259930303
 20
208.9637054324714
 30
0.0
 11
436.5103426295068
 21
222.1875368381748
 31
0.0
  0
LINE
  5
11FC0
330
1F
100
AcDbEntity
  8
0
  6
Continuous
 62
     7
100
AcDbLine
 10
419.3671746189075
 20
202.7305847588953
 30
0.0
 11
420.5323529763052
 21
203.9925921926885
 31
0.0
  0
LINE
  5
11FC1
330
1F
100
AcDbEntity
  8
0
  6
Continuous
 62
     7
100
AcDbLine
 10
423.8638069805054
 20
207.0034521199514
 30
0.0
 11
426.8829004631434
 21
210.2734420839684
 31
0.0
  0
LINE
  5
11FC2
330
1F
100
AcDbEntity
  8
0
  6
Continuous
 62
     7
100
AcDbLine
 10
423.3032479938451
 20
204.9162472366437
 30
0.0
 11
424.4684263512731
 21
206.1782546703486
 31
0.0
  0
LINE
  5
11FC3
330
1F
100
AcDbEntity
  8
0
  6
Continuous
 62
     7
100
AcDbLine
 10
419.4118875128728
 20
205.3868681978597
 30
0.0
 11
420.4402550522821
 21
206.2039086681158
 31
0.0
  0
LINE
  5
11FC4
330
1F
100
AcDbEntity
  8
0
  6
Continuous
 62
     7
100
AcDbLine
 10
418.8837032311297
 20
243.6831631076614
 30
0.0
 11
416.5537716642933
 21
242.3893752342942
 31
0.0
  0
LINE
  5
11FC5
330
1F
100
AcDbEntity
  8
0
  6
Continuous
 62
     7
100
AcDbLine
 10
421.5607205156858
 20
204.8096326630325
 30
0.0
 11
420.5323529763052
 21
203.9925921926885
 31
0.0
  0
ARC
  5
11FC6
330
1F
100
AcDbEntity
  8
0
  6
Continuous
 62
     7
100
AcDbCircle
 10
432.5374651438458
 20
227.5719941099748
 30
0.0
 40
5.277241918223617
100
AcDbArc
 50
218.7864237444682
 51
219.4198292368736
  0
ARC
  5
11FC7
330
1F
100
AcDbEntity
  8
0
  6
Continuous
 62
     7
100
AcDbCircle
 10
422.228269819308
 20
239.8156308635036
 30
0.0
 40
4.786007729006588
100
AcDbArc
 50
218.2690198325766
 51
218.7861067544608
  0
ARC
  5
11FC8
330
1F
100
AcDbEntity
  8
0
  6
Continuous
 62
     7
100
AcDbCircle
 10
415.6431667089836
 20
212.4815346234833
 30
0.0
 40
2.09586924066432
100
AcDbArc
 50
38.1326784747786
 51
38.78555446337144
  0
ARC
  5
11FC9
330
1F
100
AcDbEntity
  8
0
  6
Continuous
 62
     7
100
AcDbCircle
 10
406.8365493901863
 20
223.7228929466089
 30
0.0
 40
1.99374398505216
100
AcDbArc
 50
38.78567892487144
 51
39.85800852948429
  0
SPLINE
  5
11FCA
330
1F
100
AcDbEntity
  8
0
  6
Continuous
 62
     7
100
AcDbSpline
210
0.0
220
0.0
230
1.0
 70
     8
 71
     3
 72
    11
 73
     7
 74
     0
 42
0.0000000001
 43
0.0000000001
 40
0.0
 40
0.0
 40
0.0
 40
0.0
 40
0.2633399272
 40
0.5228309598000001
 40
0.7692697400000002
 40
1.0
 40
1.0
 40
1.0
 40
1.0
 10
417.3543764942526
 20
213.8175955142271
 30
0.0
 10
417.4643713495266
 20
213.680720980893
 30
0.0
 10
417.6482204163325
 20
213.3793488165663
 30
0.0
 10
417.799490898879
 20
212.8833627539371
 30
0.0
 10
417.810933988215
 20
212.3854947868677
 30
0.0
 10
417.7114301183554
 20
212.0741663595311
 30
0.0
 10
417.6353504026756
 20
211.9404431548213
 30
0.0
  0
SPLINE
  5
11FCB
330
1F
100
AcDbEntity
  8
0
  6
Continuous
 62
     7
100
AcDbSpline
210
0.0
220
0.0
230
1.0
 70
     8
 71
     3
 72
     9
 73
     5
 74
     0
 42
0.0000000001
 43
0.0000000001
 40
0.0
 40
0.0
 40
0.0
 40
0.0
 40
0.2524532109
 40
1.0
 40
1.0
 40
1.0
 40
1.0
 10
408.367017168552
 20
225.0006579708996
 30
0.0
 10
408.3487568338044
 20
225.0225293808398
 30
0.0
 10
408.2745767422498
 20
225.1075983538475
 30
0.0
 10
408.1930395705603
 20
225.1863024083869
 30
0.0
 10
408.128381861352
 20
225.2405007973912
 30
0.0
  0
SPLINE
  5
11FCC
330
1F
100
AcDbEntity
  8
0
  6
Continuous
 62
     7
100
AcDbSpline
210
0.0
220
0.0
230
1.0
 70
     8
 71
     3
 72
    11
 73
     7
 74
     0
 42
0.0000000001
 43
0.0000000001
 40
0.0
 40
0.0
 40
0.0
 40
0.0
 40
0.2675285582
 40
0.5213099124000001
 40
0.7637071152
 40
1.0
 40
1.0
 40
1.0
 40
1.0
 10
408.128381861352
 20
225.2405007973912
 30
0.0
 10
408.0274381390728
 20
225.3251154118056
 30
0.0
 10
407.8116776308077
 20
225.4692529520327
 30
0.0
 10
407.4517571058716
 20
225.593551224284
 30
0.0
 10
407.0850473156452
 20
225.6045101802488
 30
0.0
 10
406.855634639529
 20
225.5280403088965
 30
0.0
 10
406.7539255910999
 20
225.4715622837943
 30
0.0
  0
SPLINE
  5
11FCD
330
1F
100
AcDbEntity
  8
0
  6
Continuous
 62
     7
100
AcDbSpline
210
0.0
220
0.0
230
1.0
 70
     8
 71
     3
 72
    12
 73
     8
 74
     0
 42
0.0000000001
 43
0.0000000001
 40
0.0
 40
0.0
 40
0.0
 40
0.0
 40
0.2849761026
 40
0.5471008807
 40
0.7823111470000002
 40
0.8924744657999998
 40
1.0
 40
1.0
 40
1.0
 40
1.0
 10
407.8633367622557
 20
224.6988090257042
 30
0.0
 10
407.7576367353966
 20
224.8303391942474
 30
0.0
 10
407.5232025114178
 20
225.0599572583706
 30
0.0
 10
407.1115883935231
 20
225.2861434393193
 30
0.0
 10
406.7467684442558
 20
225.345808164405
 30
0.0
 10
406.4801707237085
 20
225.3021673458259
 30
0.0
 10
406.3596757414376
 20
225.2526561283537
 30
0.0
 10
406.3040205637425
 20
225.2217361775759
 30
0.0
  0
SPLINE
  5
11FCE
330
1F
100
AcDbEntity
  8
0
  6
Continuous
 62
     7
100
AcDbSpline
210
0.0
220
0.0
230
1.0
 70
     8
 71
     3
 72
    13
 73
     9
 74
     0
 42
0.0000000001
 43
0.0000000001
 40
0.0
 40
0.0
 40
0.0
 40
0.0
 40
0.1043974847
 40
0.215094837
 40
0.3331683425
 40
0.458546568
 40
0.7252645179
 40
1.0
 40
1.0
 40
1.0
 40
1.0
 10
417.0115450357172
 20
211.4709259451864
 30
0.0
 10
417.0644920734392
 20
211.5282730069829
 30
0.0
 10
417.1580732817139
 20
211.6614764703976
 30
0.0
 10
417.2504345477248
 20
211.894840228315
 30
0.0
 10
417.2957982483086
 20
212.1574216187654
 30
0.0
 10
417.2920004533699
 20
212.5405301071864
 30
0.0
 10
417.1646164213894
 20
213.0307617220896
 30
0.0
 10
416.9557185881139
 20
213.3845024058044
 30
0.0
 10
416.8270512756345
 20
213.544612424708
 30
0.0
  0
SPLINE
  5
11FCF
330
1F
100
AcDbEntity
  8
0
  6
Continuous
 62
     7
100
AcDbSpline
210
0.0
220
0.0
230
1.0
 70
     8
 71
     3
 72
    12
 73
     8
 74
     0
 42
0.0000000001
 43
0.0000000001
 40
0.0
 40
0.0
 40
0.0
 40
0.0
 40
0.1075252
 40
0.2176889462
 40
0.4529006633
 40
0.7150255354999999
 40
1.0
 40
1.0
 40
1.0
 40
1.0
 10
406.7539248676377
 20
225.4715635862409
 30
0.0
 10
406.8095804016172
 20
225.5024768890002
 30
0.0
 10
406.9300744845127
 20
225.5519753634927
 30
0.0
 10
407.1966645746599
 20
225.5955951316437
 30
0.0
 10
407.5614658377266
 20
225.5359160948161
 30
0.0
 10
407.973056858378
 20
225.3097314583163
 30
0.0
 10
408.207478814119
 20
225.0801228185977
 30
0.0
 10
408.3131737194197
 20
224.9485990231202
 30
0.0
  0
SPLINE
  5
11FD0
330
1F
100
AcDbEntity
  8
0
  6
Continuous
 62
     7
100
AcDbSpline
210
0.0
220
0.0
230
1.0
 70
     8
 71
     3
 72
    12
 73
     8
 74
     0
 42
0.0000000001
 43
0.0000000001
 40
0.0
 40
0.0
 40
0.0
 40
0.0
 40
0.2706845267
 40
0.5353099486000003
 40
0.6612229360000002
 40
0.7810089641
 40
1.0
 40
1.0
 40
1.0
 40
1.0
 10
417.2917417598311
 20
213.7757016048207
 30
0.0
 10
417.4057608774137
 20
213.6304605566662
 30
0.0
 10
417.5947406463028
 20
213.3128305955016
 30
0.0
 10
417.7234525124679
 20
212.8747789741068
 30
0.0
 10
417.7487436325899
 20
212.5261929748407
 30
0.0
 10
417.7230679416186
 20
212.2096964347321
 30
0.0
 10
417.6450491996333
 20
211.9841312099421
 30
0.0
 10
417.5656632176083
 20
211.8575844433469
 30
0.0
  0
SPLINE
  5
11FD1
330
1F
100
AcDbEntity
  8
0
  6
Continuous
 62
     7
100
AcDbSpline
210
0.0
220
0.0
230
1.0
 70
     8
 71
     3
 72
     8
 73
     4
 74
     0
 42
0.0000000001
 43
0.0000000001
 40
0.0
 40
0.0
 40
0.0
 40
0.0
 40
1.0
 40
1.0
 40
1.0
 40
1.0
 10
417.3543671771748
 20
213.8175880273614
 30
0.0
 10
417.3531515351617
 20
213.8191046621548
 30
0.0
 10
417.3512255185554
 20
213.8200762841413
 30
0.0
 10
417.3493375439225
 20
213.8205383642838
 30
0.0
  0
SPLINE
  5
11FD2
330
1F
100
AcDbEntity
  8
0
  6
Continuous
 62
     7
100
AcDbSpline
210
0.0
220
0.0
230
1.0
 70
     8
 71
     3
 72
    10
 73
     6
 74
     0
 42
0.0000000001
 43
0.0000000001
 40
0.0
 40
0.0
 40
0.0
 40
0.0
 40
0.1424716464
 40
0.35650603
 40
1.0
 40
1.0
 40
1.0
 40
1.0
 10
417.3493375439225
 20
213.8205383642838
 30
0.0
 10
417.3457429830794
 20
213.8214181298709
 30
0.0
 10
417.3362074927124
 20
213.8205447229295
 30
0.0
 10
417.3114729688908
 20
213.812881837624
 30
0.0
 10
417.2915010264826
 20
213.802516762424
 30
0.0
 10
417.2768882321761
 20
213.794402422796
 30
0.0
  0
SPLINE
  5
11FD3
330
1F
100
AcDbEntity
  8
0
  6
Continuous
 62
     7
100
AcDbSpline
210
0.0
220
0.0
230
1.0
 70
     8
 71
     3
 72
    10
 73
     6
 74
     0
 42
0.0000000001
 43
0.0000000001
 40
0.0
 40
0.0
 40
0.0
 40
0.0
 40
0.1155839078
 40
0.3141575839
 40
1.0
 40
1.0
 40
1.0
 40
1.0
 10
408.3906526637965
 20
224.9717846283574
 30
0.0
 10
408.3886398835881
 20
224.9742957727665
 30
0.0
 10
408.3788465243064
 20
224.9763479260198
 30
0.0
 10
408.352293033299
 20
224.9691216188652
 30
0.0
 10
408.3298686727649
 20
224.9578695650416
 30
0.0
 10
408.3131737194197
 20
224.9485990231202
 30
0.0
  0
SPLINE
  5
11FD4
330
1F
100
AcDbEntity
  8
0
  6
Continuous
 62
     7
100
AcDbSpline
210
0.0
220
0.0
230
1.0
 70
     8
 71
     3
 72
    13
 73
     9
 74
     0
 42
0.0000000001
 43
0.0000000001
 40
0.0
 40
0.0
 40
0.0
 40
0.0
 40
0.283466294
 40
0.5511298849
 40
0.6749653557000001
 40
0.7907196402
 40
0.8986671256000001
 40
1.0
 40
1.0
 40
1.0
 40
1.0
 10
420.9408486032621
 20
243.1164476062939
 30
0.0
 10
420.7878510616279
 20
243.2663139176544
 30
0.0
 10
420.4557160713314
 20
243.5243643960598
 30
0.0
 10
419.9841384859871
 20
243.7349249209226
 30
0.0
 10
419.6069707623935
 20
243.8105984692533
 30
0.0
 10
419.3430943435897
 20
243.8190093911212
 30
0.0
 10
419.0990449750159
 20
243.7797076967183
 30
0.0
 10
418.9506366653358
 20
243.7203305793365
 30
0.0
 10
418.8837032311297
 20
243.6831631076614
 30
0.0
  0
SPLINE
  5
11FD5
330
1F
100
AcDbEntity
  8
0
  6
Continuous
 62
     7
100
AcDbSpline
210
0.0
220
0.0
230
1.0
 70
     8
 71
     3
 72
     9
 73
     5
 74
     0
 42
0.0000000001
 43
0.0000000001
 40
0.0
 40
0.0
 40
0.0
 40
0.0
 40
0.2563413708
 40
1.0
 40
1.0
 40
1.0
 40
1.0
 10
434.0696960604386
 20
223.6894526804962
 30
0.0
 10
434.0979404888789
 20
223.7051365341411
 30
0.0
 10
434.2059153104925
 20
223.770196932171
 30
0.0
 10
434.3043146602305
 20
223.8512806820284
 30
0.0
 10
434.3691819523151
 20
223.9189294638094
 30
0.0
  0
SPLINE
  5
11FD6
330
1F
100
AcDbEntity
  8
0
  6
Continuous
 62
     7
100
AcDbSpline
210
0.0
220
0.0
230
1.0
 70
     8
 71
     3
 72
    15
 73
    11
 74
     0
 42
0.0000000001
 43
0.0000000001
 40
0.0
 40
0.0
 40
0.0
 40
0.0
 40
0.1449942298
 40
0.2904305747
 40
0.4327499761000002
 40
0.5685499521000003
 40
0.6948072929000002
 40
0.8091830145000001
 40
0.9105727191999999
 40
1.0
 40
1.0
 40
1.0
 40
1.0
 10
428.5530742698422
 20
224.3048840623301
 30
0.0
 10
428.6896689558806
 20
224.1349094500223
 30
0.0
 10
428.9866005129414
 20
223.8125465122329
 30
0.0
 10
429.4870425109457
 20
223.3937520424905
 30
0.0
 10
430.02661202142
 20
223.0515236081689
 30
0.0
 10
430.5824248594595
 20
222.7994528682981
 30
0.0
 10
431.1301426598181
 20
222.6466323505419
 30
0.0
 10
431.6452984340013
 20
222.5969929054155
 30
0.0
 10
432.1051085762213
 20
222.6479633043595
 30
0.0
 10
432.3776873653861
 20
222.7498970461256
 30
0.0
 10
432.4952666183173
 20
222.8151876382698
 30
0.0
  0
SPLINE
  5
11FD7
330
1F
100
AcDbEntity
  8
0
  6
Continuous
 62
     7
100
AcDbSpline
210
0.0
220
0.0
230
1.0
 70
     8
 71
     3
 72
    14
 73
    10
 74
     0
 42
0.0000000001
 43
0.0000000001
 40
0.0
 40
0.0
 40
0.0
 40
0.0
 40
0.0910161486
 40
0.1884942289
 40
0.2961333208
 40
0.4159199096
 40
0.5477778642
 40
0.6905165749
 40
1.0
 40
1.0
 40
1.0
 40
1.0
 10
417.9814008837015
 20
239.9502318123071
 30
0.0
 10
417.9133851509067
 20
239.8737137651858
 30
0.0
 10
417.7925092848997
 20
239.6963836261374
 30
0.0
 10
417.6759955664961
 20
239.3812733902424
 30
0.0
 10
417.6265775388402
 20
239.0165581863031
 30
0.0
 10
417.6488392842291
 20
238.6109667957216
 30
0.0
 10
417.7460541424649
 20
238.1762557537924
 30
0.0
 10
417.9807466315126
 20
237.5608816101308
 30
0.0
 10
418.2551143087422
 20
237.1247048606314
 30
0.0
 10
418.4707207151895
 20
236.851394922729
 30
0.0
  0
SPLINE
  5
11FD8
330
1F
100
AcDbEntity
  8
0
  6
Continuous
 62
     7
100
AcDbSpline
210
0.0
220
0.0
230
1.0
 70
     8
 71
     3
 72
    11
 73
     7
 74
     0
 42
0.0000000001
 43
0.0000000001
 40
0.0
 40
0.0
 40
0.0
 40
0.0
 40
0.259569702
 40
0.5012257427000001
 40
0.7392890916
 40
1.0
 40
1.0
 40
1.0
 40
1.0
 10
426.8617140077993
 20
210.7713625914671
 30
0.0
 10
426.8914172912961
 20
210.734512609993
 30
0.0
 10
426.9422279924985
 20
210.6574290214603
 30
0.0
 10
426.9824422373702
 20
210.5258983730492
 30
0.0
 10
426.9664719792597
 20
210.3873507260106
 30
0.0
 10
426.9151488706098
 20
210.3083704102661
 30
0.0
 10
426.8829004631433
 20
210.2734420839683
 30
0.0
  0
SPLINE
  5
11FD9
330
1F
100
AcDbEntity
  8
0
  6
Continuous
 62
     7
100
AcDbSpline
210
0.0
220
0.0
230
1.0
 70
     8
 71
     3
 72
    11
 73
     7
 74
     0
 42
0.0000000001
 43
0.0000000001
 40
0.0
 40
0.0
 40
0.0
 40
0.0
 40
0.2901607472
 40
0.5526022805000002
 40
0.7859813125000003
 40
1.0
 40
1.0
 40
1.0
 40
1.0
 10
436.037774291752
 20
224.4856590869071
 30
0.0
 10
435.9936407680491
 20
224.5571407346035
 30
0.0
 10
435.9231333474181
 20
224.7025536385274
 30
0.0
 10
435.8768159001805
 20
224.9282448636861
 30
0.0
 10
435.8998734245147
 20
225.1367364368876
 30
0.0
 10
435.9662238168261
 20
225.2534678514653
 30
0.0
 10
436.0082318068381
 20
225.2990177279498
 30
0.0
  0
SPLINE
  5
11FDA
330
1F
100
AcDbEntity
  8
0
  6
Continuous
 62
     7
100
AcDbSpline
210
0.0
220
0.0
230
1.0
 70
     8
 71
     3
 72
    11
 73
     7
 74
     0
 42
0.0000000001
 43
0.0000000001
 40
0.0
 40
0.0
 40
0.0
 40
0.0
 40
0.2084618625
 40
0.4477169627000002
 40
0.7159258710000001
 40
1.0
 40
1.0
 40
1.0
 40
1.0
 10
422.5562157172626
 20
242.2583046957606
 30
0.0
 10
422.4875128763597
 20
242.2201546901822
 30
0.0
 10
422.3175150009867
 20
242.177299484469
 30
0.0
 10
422.0458085477623
 20
242.2148484259136
 30
0.0
 10
421.7703120137555
 20
242.337588680263
 30
0.0
 10
421.6041445480532
 20
242.4667266009191
 30
0.0
 10
421.527643031211
 20
242.5416624464001
 30
0.0
  0
SPLINE
  5
11FDB
330
1F
100
AcDbEntity
  8
0
  6
Continuous
 62
     7
100
AcDbSpline
210
0.0
220
0.0
230
1.0
 70
     8
 71
     3
 72
    12
 73
     8
 74
     0
 42
0.0000000001
 43
0.0000000001
 40
0.0
 40
0.0
 40
0.0
 40
0.0
 40
0.1061490191
 40
0.2149353601
 40
0.4480337270000005
 40
0.710152837
 40
1.0
 40
1.0
 40
1.0
 40
1.0
 10
436.5104484248351
 20
222.187658004633
 30
0.0
 10
436.5522174548384
 20
222.232889092285
 30
0.0
 10
436.6268297965175
 20
222.3342343695081
 30
0.0
 10
436.7334758590041
 20
222.5730771178799
 30
0.0
 10
436.7741743260392
 20
222.9296388806392
 30
0.0
 10
436.6811361383168
 20
223.3808308216819
 30
0.0
 10
436.5401816460493
 20
223.6719260677109
 30
0.0
 10
436.451863910556
 20
223.8149714609601
 30
0.0
  0
SPLINE
  5
11FDC
330
1F
100
AcDbEntity
  8
0
  6
Continuous
 62
     7
100
AcDbSpline
210
0.0
220
0.0
230
1.0
 70
     8
 71
     3
 72
    17
 73
    13
 74
     0
 42
0.0000000001
 43
0.0000000001
 40
0.0
 40
0.0
 40
0.0
 40
0.0
 40
0.0489099623
 40
0.1000802162
 40
0.1542878316
 40
0.211903518
 40
0.3369409393
 40
0.4726370343000001
 40
0.6132639427000001
 40
0.7519747067
 40
0.8823508119999999
 40
1.0
 40
1.0
 40
1.0
 40
1.0
 10
424.9887633643685
 20
228.744686932769
 30
0.0
 10
425.029779778733
 20
228.8143936688517
 30
0.0
 10
425.0979235575425
 20
228.9668402679907
 30
0.0
 10
425.1527935860988
 20
229.2175430244996
 30
0.0
 10
425.161688152627
 20
229.4882958751045
 30
0.0
 10
425.1111147930606
 20
229.8781088207366
 30
0.0
 10
424.9297769263668
 20
230.3792974497155
 30
0.0
 10
424.5651198097847
 20
230.9395141627039
 30
0.0
 10
424.0788200055225
 20
231.4303589876257
 30
0.0
 10
423.5117284025383
 20
231.8099556073253
 30
0.0
 10
422.9119771904644
 20
232.0463128579391
 30
0.0
 10
422.4978406537116
 20
232.096112872849
 30
0.0
 10
422.3035512899143
 20
232.086090024934
 30
0.0
  0
SPLINE
  5
11FDD
330
1F
100
AcDbEntity
  8
0
  6
Continuous
 62
     7
100
AcDbSpline
210
0.0
220
0.0
230
1.0
 70
     8
 71
     3
 72
    11
 73
     7
 74
     0
 42
0.0000000001
 43
0.0000000001
 40
0.0
 40
0.0
 40
0.0
 40
0.0
 40
0.2084618673
 40
0.4477169637000002
 40
0.7159258663000001
 40
1.0
 40
1.0
 40
1.0
 40
1.0
 10
430.2915510275329
 20
222.1493518965848
 30
0.0
 10
430.3602538480252
 20
222.187501890894
 30
0.0
 10
430.530251663105
 20
222.2303570952194
 30
0.0
 10
430.8019580322322
 20
222.192808207306
 30
0.0
 10
431.0774544986196
 20
222.070068044297
 30
0.0
 10
431.2436219395332
 20
221.9409302036491
 30
0.0
 10
431.320123453042
 20
221.8659944011097
 30
0.0
  0
SPLINE
  5
11FDE
330
1F
100
AcDbEntity
  8
0
  6
Continuous
 62
     7
100
AcDbSpline
210
0.0
220
0.0
230
1.0
 70
     8
 71
     3
 72
    11
 73
     7
 74
     0
 42
0.0000000001
 43
0.0000000001
 40
0.0
 40
0.0
 40
0.0
 40
0.0
 40
0.2901607555
 40
0.552602296
 40
0.7859813252
 40
1.0
 40
1.0
 40
1.0
 40
1.0
 10
416.8099918725918
 20
239.9219975829554
 30
0.0
 10
416.8541254356409
 20
239.8505159174394
 30
0.0
 10
416.9246329257281
 20
239.7051029701173
 30
0.0
 10
416.9709504467318
 20
239.4794116620918
 30
0.0
 10
416.9478929542548
 20
239.2709200019635
 30
0.0
 10
416.8815425459887
 20
239.1541885367964
 30
0.0
 10
416.8395345419118
 20
239.1086386448227
 30
0.0
  0
SPLINE
  5
11FDF
330
1F
100
AcDbEntity
  8
0
  6
Continuous
 62
     7
100
AcDbSpline
210
0.0
220
0.0
230
1.0
 70
     8
 71
     3
 72
     9
 73
     5
 74
     0
 42
0.0000000001
 43
0.0000000001
 40
0.0
 40
0.0
 40
0.0
 40
0.0
 40
0.2594306634
 40
1.0
 40
1.0
 40
1.0
 40
1.0
 10
404.5110833617377
 20
227.7202083809669
 30
0.0
 10
404.4841260542086
 20
227.7638702361403
 30
0.0
 10
404.3855927376277
 20
227.9353603829052
 30
0.0
 10
404.3090131365262
 20
228.1199923525419
 30
0.0
 10
404.2696239220025
 20
228.2610755987044
 30
0.0
  0
SPLINE
  5
11FE0
330
1F
100
AcDbEntity
  8
0
  6
Continuous
 62
     7
100
AcDbSpline
210
0.0
220
0.0
230
1.0
 70
     8
 71
     3
 72
    12
 73
     8
 74
     0
 42
0.0000000001
 43
0.0000000001
 40
0.0
 40
0.0
 40
0.0
 40
0.0
 40
0.1061490123
 40
0.2149353479
 40
0.4480337119000001
 40
0.7101528289
 40
1.0
 40
1.0
 40
1.0
 40
1.0
 10
416.3373177244775
 20
242.2199982567414
 30
0.0
 10
416.2955486805826
 20
242.1747671539538
 30
0.0
 10
416.2209363166992
 20
242.0734218384432
 30
0.0
 10
416.1142902406031
 20
241.8345789902147
 30
0.0
 10
416.0735918257469
 20
241.4780170742154
 30
0.0
 10
416.1666301615015
 20
241.0268249674133
 30
0.0
 10
416.3075847926536
 20
240.7357296343821
 30
0.0
 10
416.3959026070755
 20
240.5926842053772
 30
0.0
  0
SPLINE
  5
11FE1
330
1F
100
AcDbEntity
  8
0
  6
Continuous
 62
     7
100
AcDbSpline
210
0.0
220
0.0
230
1.0
 70
     8
 71
     3
 72
     9
 73
     5
 74
     0
 42
0.0000000001
 43
0.0000000001
 40
0.0
 40
0.0
 40
0.0
 40
0.0
 40
0.4030638305
 40
1.0
 40
1.0
 40
1.0
 40
1.0
 10
404.1283892821983
 20
228.9964868090387
 30
0.0
 10
404.1183623587186
 20
228.9855757204696
 30
0.0
 10
404.1052274403113
 20
228.9488923714458
 30
0.0
 10
404.1062251243789
 20
228.9120658553174
 30
0.0
 10
404.1078475740308
 20
228.8901796063651
 30
0.0
  0
SPLINE
  5
11FE2
330
1F
100
AcDbEntity
  8
0
  6
Continuous
 62
     7
100
AcDbSpline
210
0.0
220
0.0
230
1.0
 70
     8
 71
     3
 72
    10
 73
     6
 74
     0
 42
0.0000000001
 43
0.0000000001
 40
0.0
 40
0.0
 40
0.0
 40
0.0
 40
0.1552906118
 40
0.3695838246
 40
1.0
 40
1.0
 40
1.0
 40
1.0
 10
404.1078475740308
 20
228.8901796063651
 30
0.0
 10
404.1103359451331
 20
228.8566123951144
 30
0.0
 10
404.1242378442206
 20
228.7774347736954
 30
0.0
 10
404.1781763015631
 20
228.567530337947
 30
0.0
 10
404.2328795804744
 20
228.3926855087675
 30
0.0
 10
404.2696239220025
 20
228.2610755987044
 30
0.0
  0
SPLINE
  5
11FE3
330
1F
100
AcDbEntity
  8
0
  6
Continuous
 62
     7
100
AcDbSpline
210
0.0
220
0.0
230
1.0
 70
     8
 71
     3
 72
     9
 73
     5
 74
     0
 42
0.0000000001
 43
0.0000000001
 40
0.0
 40
0.0
 40
0.0
 40
0.0
 40
0.2472651981
 40
1.0
 40
1.0
 40
1.0
 40
1.0
 10
420.530721801269
 20
208.0262191644962
 30
0.0
 10
420.4851472840307
 20
208.0533205458887
 30
0.0
 10
420.304280322536
 20
208.1686378436262
 30
0.0
 10
420.1374127069339
 20
208.3057797142771
 30
0.0
 10
420.0220996155533
 20
208.4187327612323
 30
0.0
  0
SPLINE
  5
11FE4
330
1F
100
AcDbEntity
  8
0
  6
Continuous
 62
     7
100
AcDbSpline
210
0.0
220
0.0
230
1.0
 70
     8
 71
     3
 72
    12
 73
     8
 74
     0
 42
0.0000000001
 43
0.0000000001
 40
0.0
 40
0.0
 40
0.0
 40
0.0
 40
0.1125724826
 40
0.2350500761
 40
0.4924361039000001
 40
0.7507595295999999
 40
1.0
 40
1.0
 40
1.0
 40
1.0
 10
404.0973174661948
 20
225.7050209257017
 30
0.0
 10
404.0589247060013
 20
225.6634828806919
 30
0.0
 10
403.9898535616107
 20
225.5664395493299
 30
0.0
 10
403.8809939271612
 20
225.3435744176041
 30
0.0
 10
403.7930892448089
 20
225.0326892492658
 30
0.0
 10
403.7472489374563
 20
224.6500833026042
 30
0.0
 10
403.7514824272053
 20
224.3940941583151
 30
0.0
 10
403.7625805113624
 20
224.2693530987327
 30
0.0
  0
SPLINE
  5
11FE5
330
1F
100
AcDbEntity
  8
0
  6
Continuous
 62
     7
100
AcDbSpline
210
0.0
220
0.0
230
1.0
 70
     8
 71
     3
 72
    12
 73
     8
 74
     0
 42
0.0000000001
 43
0.0000000001
 40
0.0
 40
0.0
 40
0.0
 40
0.0
 40
0.2355565461
 40
0.4964483173
 40
0.7666882880000001
 40
0.8928377204
 40
1.0
 40
1.0
 40
1.0
 40
1.0
 10
416.1738798283111
 20
208.8250780218087
 30
0.0
 10
416.2992407092914
 20
208.7997557735429
 30
0.0
 10
416.5672431190015
 20
208.7643974839946
 30
0.0
 10
416.9839472869953
 20
208.7548858225543
 30
0.0
 10
417.3409116618405
 20
208.7885860600589
 30
0.0
 10
417.6071021169692
 20
208.8523321395866
 30
0.0
 10
417.7259780101889
 20
208.8988602593417
 30
0.0
 10
417.7768444518783
 20
208.927105889559
 30
0.0
  0
SPLINE
  5
11FE6
330
1F
100
AcDbEntity
  8
0
  6
Continuous
 62
     7
100
AcDbSpline
210
0.0
220
0.0
230
1.0
 70
     8
 71
     3
 72
    12
 73
     8
 74
     0
 42
0.0000000001
 43
0.0000000001
 40
0.0
 40
0.0
 40
0.0
 40
0.0
 40
0.2293596169
 40
0.4864838442
 40
0.7575633412000001
 40
0.8870621762999999
 40
1.0
 40
1.0
 40
1.0
 40
1.0
 10
419.1271464505937
 20
207.2468277033995
 30
0.0
 10
419.1286339590211
 20
207.1226055132135
 30
0.0
 10
419.1106720924666
 20
206.8587004220144
 30
0.0
 10
419.0322856375651
 20
206.4551749194766
 30
0.0
 10
418.9184876966796
 20
206.1155327839379
 30
0.0
 10
418.791421359332
 20
205.8676450429143
 30
0.0
 10
418.7148725317943
 20
205.7597196271179
 30
0.0
 10
418.6733759954018
 20
205.7147746304615
 30
0.0
  0
SPLINE
  5
11FE7
330
1F
100
AcDbEntity
  8
0
  6
Continuous
 62
     7
100
AcDbSpline
210
0.0
220
0.0
230
1.0
 70
     8
 71
     3
 72
    13
 73
     9
 74
     0
 42
0.0000000001
 43
0.0000000001
 40
0.0
 40
0.0
 40
0.0
 40
0.0
 40
0.3810818223
 40
0.6727100539000001
 40
0.7848294518000002
 40
0.8759381950999999
 40
0.9471885711
 40
1.0
 40
1.0
 40
1.0
 40
1.0
 10
420.530721801269
 20
208.0262191644962
 30
0.0
 10
420.6705545044202
 20
207.9430661296079
 30
0.0
 10
420.909671888359
 20
207.7835097844701
 30
0.0
 10
421.1833314197081
 20
207.5902480673567
 30
0.0
 10
421.3591604529216
 20
207.4731265569975
 30
0.0
 10
421.459231147558
 20
207.4119737140541
 30
0.0
 10
421.5408087542948
 20
207.3697497886429
 30
0.0
 10
421.5910321470444
 20
207.351468450339
 30
0.0
 10
421.6131731236229
 20
207.3472147968476
 30
0.0
  0
SPLINE
  5
11FE8
330
1F
100
AcDbEntity
  8
0
  6
Continuous
 62
     7
100
AcDbSpline
210
0.0
220
0.0
230
1.0
 70
     8
 71
     3
 72
     9
 73
     5
 74
     0
 42
0.0000000001
 43
0.0000000001
 40
0.0
 40
0.0
 40
0.0
 40
0.0
 40
0.2507821501
 40
1.0
 40
1.0
 40
1.0
 40
1.0
 10
423.9431038972304
 20
208.6410022297964
 30
0.0
 10
423.975437348076
 20
208.6652629511678
 30
0.0
 10
424.1021874835976
 20
208.7648684640594
 30
0.0
 10
424.2200534657637
 20
208.8758334321582
 30
0.0
 10
424.3019452205711
 20
208.9645915047823
 30
0.0
  0
SPLINE
  5
11FE9
330
1F
100
AcDbEntity
  8
0
  6
Continuous
 62
     7
100
AcDbSpline
210
0.0
220
0.0
230
1.0
 70
     8
 71
     3
 72
     9
 73
     5
 74
     0
 42
0.0000000001
 43
0.0000000001
 40
0.0
 40
0.0
 40
0.0
 40
0.0
 40
0.5291626515
 40
1.0
 40
1.0
 40
1.0
 40
1.0
 10
426.3129959764045
 20
211.142522072963
 30
0.0
 10
426.4219029511925
 20
211.0978844710864
 30
0.0
 10
426.6212414861402
 20
210.9970992123869
 30
0.0
 10
426.7959909232303
 20
210.8528988448156
 30
0.0
 10
426.8617140077993
 20
210.7713625914671
 30
0.0
  0
SPLINE
  5
11FEA
330
1F
100
AcDbEntity
  8
0
  6
Continuous
 62
     7
100
AcDbSpline
210
0.0
220
0.0
230
1.0
 70
     8
 71
     3
 72
     9
 73
     5
 74
     0
 42
0.0000000001
 43
0.0000000001
 40
0.0
 40
0.0
 40
0.0
 40
0.0
 40
0.2384061109
 40
1.0
 40
1.0
 40
1.0
 40
1.0
 10
405.0569983031182
 20
226.734969957085
 30
0.0
 10
405.0510709748832
 20
226.7614912045162
 30
0.0
 10
405.0208271510705
 20
226.8715159460654
 30
0.0
 10
404.9707795555065
 20
226.9756537324013
 30
0.0
 10
404.9251726271665
 20
227.0495217585154
 30
0.0
  0
SPLINE
  5
11FEB
330
1F
100
AcDbEntity
  8
0
  6
Continuous
 62
     7
100
AcDbSpline
210
0.0
220
0.0
230
1.0
 70
     8
 71
     3
 72
    12
 73
     8
 74
     0
 42
0.0000000001
 43
0.0000000001
 40
0.0
 40
0.0
 40
0.0
 40
0.0
 40
0.2447762264
 40
0.5002364130000001
 40
0.7580799714000001
 40
0.8829344545999997
 40
1.0
 40
1.0
 40
1.0
 40
1.0
 10
402.8660489679268
 20
227.4816843578609
 30
0.0
 10
402.7507762655885
 20
227.5225228214448
 30
0.0
 10
402.5083222626281
 20
227.5876165758824
 30
0.0
 10
402.1310388558438
 20
227.631972559153
 30
0.0
 10
401.8100646346248
 20
227.6167026105786
 30
0.0
 10
401.5662249249256
 20
227.5602354640699
 30
0.0
 10
401.4534333144764
 20
227.5142269231494
 30
0.0
 10
401.4023128133596
 20
227.4858111462521
 30
0.0
  0
SPLINE
  5
11FEC
330
1F
100
AcDbEntity
  8
0
  6
Continuous
 62
     7
100
AcDbSpline
210
0.0
220
0.0
230
1.0
 70
     8
 71
     3
 72
    13
 73
     9
 74
     0
 42
0.0000000001
 43
0.0000000001
 40
0.0
 40
0.0
 40
0.0
 40
0.0
 40
0.2834662989
 40
0.5511298843
 40
0.6749653524000001
 40
0.7907196358000002
 40
0.8986671223999998
 40
1.0
 40
1.0
 40
1.0
 40
1.0
 10
431.9069188608898
 20
221.2912085856427
 30
0.0
 10
432.0599163958299
 20
221.141342360255
 30
0.0
 10
432.392051336579
 20
220.883292041484
 30
0.0
 10
432.8636288061557
 20
220.672731673831
 30
0.0
 10
433.2407964133623
 20
220.5970582098559
 30
0.0
 10
433.504672746119
 20
220.5886473247552
 30
0.0
 10
433.7487220347557
 20
220.6279490290466
 30
0.0
 10
433.8971302969983
 20
220.6873261338091
 30
0.0
 10
433.9640637118773
 20
220.7244935947806
 30
0.0
  0
SPLINE
  5
11FED
330
1F
100
AcDbEntity
  8
0
  6
Continuous
 62
     7
100
AcDbSpline
210
0.0
220
0.0
230
1.0
 70
     8
 71
     3
 72
    14
 73
    10
 74
     0
 42
0.0000000001
 43
0.0000000001
 40
0.0
 40
0.0
 40
0.0
 40
0.0
 40
0.1001268328
 40
0.207751483
 40
0.3242312577
 40
0.4494393652000002
 40
0.5820681686000003
 40
0.7199674902
 40
1.0
 40
1.0
 40
1.0
 40
1.0
 10
419.8938954814344
 20
241.7462831146676
 30
0.0
 10
420.0444125292531
 20
241.8298637373497
 30
0.0
 10
420.3827326633311
 20
241.9589345824216
 30
0.0
 10
420.9406481845411
 20
242.0258458194793
 30
0.0
 10
421.542702689096
 20
241.9729082774794
 30
0.0
 10
422.1666175898291
 20
241.8035332997459
 30
0.0
 10
422.7902165411051
 20
241.5246795641873
 30
0.0
 10
423.5932298649348
 20
241.0195757994216
 30
0.0
 10
424.1222128185204
 20
240.5167628569753
 30
0.0
 10
424.4238369367032
 20
240.1414302078851
 30
0.0
  0
SPLINE
  5
11FEE
330
1F
100
AcDbEntity
  8
0
  6
Continuous
 62
     7
100
AcDbSpline
210
0.0
220
0.0
230
1.0
 70
     8
 71
     3
 72
    11
 73
     7
 74
     0
 42
0.0000000001
 43
0.0000000001
 40
0.0
 40
0.0
 40
0.0
 40
0.0
 40
0.2840741337
 40
0.5522830363
 40
0.7915381327
 40
1.0
 40
1.0
 40
1.0
 40
1.0
 10
419.4353042076166
 20
208.9935185766698
 30
0.0
 10
419.3588026941072
 20
209.0684543792088
 30
0.0
 10
419.1926352532826
 20
209.1975922198862
 30
0.0
 10
418.917138786807
 20
209.3203323828656
 30
0.0
 10
418.6454324177677
 20
209.3578812708094
 30
0.0
 10
418.4754346026887
 20
209.3150260664839
 30
0.0
 10
418.4067317821963
 20
209.2768760721746
 30
0.0
  0
SPLINE
  5
11FEF
330
1F
100
AcDbEntity
  8
0
  6
Continuous
 62
     7
100
AcDbSpline
210
0.0
220
0.0
230
1.0
 70
     8
 71
     3
 72
     9
 73
     5
 74
     0
 42
0.0000000001
 43
0.0000000001
 40
0.0
 40
0.0
 40
0.0
 40
0.0
 40
0.2483935152
 40
1.0
 40
1.0
 40
1.0
 40
1.0
 10
417.9813982451178
 20
239.9502342508649
 30
0.0
 10
418.0093033585743
 20
239.9816281187173
 30
0.0
 10
418.1270220687951
 20
240.1031698895505
 30
0.0
 10
418.265839214909
 20
240.2039693846506
 30
0.0
 10
418.3769538700486
 20
240.2656702497701
 30
0.0
  0
SPLINE
  5
11FF0
330
1F
100
AcDbEntity
  8
0
  6
Continuous
 62
     7
100
AcDbSpline
210
0.0
220
0.0
230
1.0
 70
     8
 71
     3
 72
    15
 73
    11
 74
     0
 42
0.0000000001
 43
0.0000000001
 40
0.0
 40
0.0
 40
0.0
 40
0.0
 40
0.2969000753
 40
0.4338566736000001
 40
0.4987390746
 40
0.5611199864000001
 40
0.6785763216000003
 40
0.7882918691000002
 40
0.8938757061
 40
1.0
 40
1.0
 40
1.0
 40
1.0
 10
418.3684777757644
 20
236.778949368125
 30
0.0
 10
418.0805113953613
 20
237.1372867087632
 30
0.0
 10
417.7228014976217
 20
237.7208538527209
 30
0.0
 10
417.4882125138131
 20
238.4602018573459
 30
0.0
 10
417.4201941010266
 20
238.8643109703961
 30
0.0
 10
417.3947191437529
 20
239.2428326631491
 30
0.0
 10
417.4360022989183
 20
239.6935904340946
 30
0.0
 10
417.6120495629005
 20
240.1845040285361
 30
0.0
 10
417.909259247664
 20
240.5923477379383
 30
0.0
 10
418.1758100903548
 20
240.7922473497766
 30
0.0
 10
418.3194661314656
 20
240.8720181235506
 30
0.0
  0
SPLINE
  5
11FF1
330
1F
100
AcDbEntity
  8
0
  6
Continuous
 62
     7
100
AcDbSpline
210
0.0
220
0.0
230
1.0
 70
     8
 71
     3
 72
    14
 73
    10
 74
     0
 42
0.0000000001
 43
0.0000000001
 40
0.0
 40
0.0
 40
0.0
 40
0.0
 40
0.1002082068
 40
0.20782692
 40
0.3242091833
 40
0.4492651095000002
 40
0.5817461586000002
 40
0.7195751803000002
 40
1.0
 40
1.0
 40
1.0
 40
1.0
 10
432.9538687789081
 20
222.6613752003616
 30
0.0
 10
432.8049251167914
 20
222.5786682631632
 30
0.0
 10
432.4705690527473
 20
222.4505370921025
 30
0.0
 10
431.9192807822012
 20
222.3823839855552
 30
0.0
 10
431.3242285738952
 20
222.4317020987963
 30
0.0
 10
430.7070278358897
 20
222.5952858848199
 30
0.0
 10
430.0891916032067
 20
222.866522810881
 30
0.0
 10
429.2911671411281
 20
223.3599909194583
 30
0.0
 10
428.763459292046
 20
223.8526532273524
 30
0.0
 10
428.4607226394489
 20
224.2209565369375
 30
0.0
  0
SPLINE
  5
11FF2
330
1F
100
AcDbEntity
  8
0
  6
Continuous
 62
     7
100
AcDbSpline
210
0.0
220
0.0
230
1.0
 70
     8
 71
     3
 72
    11
 73
     7
 74
     0
 42
0.0000000001
 43
0.0000000001
 40
0.0
 40
0.0
 40
0.0
 40
0.0
 40
0.2243303523
 40
0.491724052
 40
0.7634294504000004
 40
1.0
 40
1.0
 40
1.0
 40
1.0
 10
424.4238369367032
 20
240.1414302078851
 30
0.0
 10
424.3810954371537
 20
240.1176962550152
 30
0.0
 10
424.2909388529009
 20
240.0594032295684
 30
0.0
 10
424.1574988222466
 20
239.9599122670459
 30
0.0
 10
424.0281701757557
 20
239.8509224640555
 30
0.0
 10
423.9480612174229
 20
239.7741880172166
 30
0.0
 10
423.9129345916794
 20
239.7364494487083
 30
0.0
  0
SPLINE
  5
11FF3
330
1F
100
AcDbEntity
  8
0
  6
Continuous
 62
     7
100
AcDbSpline
210
0.0
220
0.0
230
1.0
 70
     8
 71
     3
 72
    11
 73
     7
 74
     0
 42
0.0000000001
 43
0.0000000001
 40
0.0
 40
0.0
 40
0.0
 40
0.0
 40
0.2243303518
 40
0.4917240512000002
 40
0.7634294499
 40
1.0
 40
1.0
 40
1.0
 40
1.0
 10
434.4792859100131
 20
227.6287096618638
 30
0.0
 10
434.4365444106402
 20
227.604975709054
 30
0.0
 10
434.3463878265323
 20
227.5466826837551
 30
0.0
 10
434.2129477958187
 20
227.4471917214083
 30
0.0
 10
434.0836191495951
 20
227.3382019179198
 30
0.0
 10
434.0035101905828
 20
227.2614674716352
 30
0.0
 10
433.968383564663
 20
227.2237289030668
 30
0.0
  0
SPLINE
  5
11FF4
330
1F
100
AcDbEntity
  8
0
  6
Continuous
 62
     7
100
AcDbSpline
210
0.0
220
0.0
230
1.0
 70
     8
 71
     3
 72
    11
 73
     7
 74
     0
 42
0.0000000001
 43
0.0000000001
 40
0.0
 40
0.0
 40
0.0
 40
0.0
 40
0.2853475875
 40
0.5478054687000001
 40
0.7833236159000001
 40
1.0
 40
1.0
 40
1.0
 40
1.0
 10
434.5282981288772
 20
223.5356401914786
 30
0.0
 10
434.4972139693438
 20
223.5743205004828
 30
0.0
 10
434.4283223168726
 20
223.6418808868207
 30
0.0
 10
434.3070930442356
 20
223.7082711550558
 30
0.0
 10
434.1816254158826
 20
223.7292844905909
 30
0.0
 10
434.1026379038849
 20
223.7077458692637
 30
0.0
 10
434.0697058151394
 20
223.689434869599
 30
0.0
  0
SPLINE
  5
11FF5
330
1F
100
AcDbEntity
  8
0
  6
Continuous
 62
     7
100
AcDbSpline
210
0.0
220
0.0
230
1.0
 70
     8
 71
     3
 72
    11
 73
     7
 74
     0
 42
0.0000000001
 43
0.0000000001
 40
0.0
 40
0.0
 40
0.0
 40
0.0
 40
0.2853475876
 40
0.5478054693
 40
0.7833236165000002
 40
1.0
 40
1.0
 40
1.0
 40
1.0
 10
432.9538687789081
 20
222.6613752003616
 30
0.0
 10
432.9227846193751
 20
222.7000555093662
 30
0.0
 10
432.8538929667849
 20
222.7676158957621
 30
0.0
 10
432.7326636941179
 20
222.8340061640848
 30
0.0
 10
432.6071960658258
 20
222.8550194994441
 30
0.0
 10
432.5282085538855
 20
222.833480878235
 30
0.0
 10
432.4952764653167
 20
222.8151698786299
 30
0.0
  0
SPLINE
  5
11FF6
330
1F
100
AcDbEntity
  8
0
  6
Continuous
 62
     7
100
AcDbSpline
210
0.0
220
0.0
230
1.0
 70
     8
 71
     3
 72
    12
 73
     8
 74
     0
 42
0.0000000001
 43
0.0000000001
 40
0.0
 40
0.0
 40
0.0
 40
0.0
 40
0.389061883
 40
0.6857270662000003
 40
0.7971257478
 40
0.8845767770999998
 40
1.0
 40
1.0
 40
1.0
 40
1.0
 10
428.4239267490743
 20
224.2662288221034
 30
0.0
 10
428.4397334701385
 20
224.2750061291621
 30
0.0
 10
428.468061980537
 20
224.2896783631778
 30
0.0
 10
428.502281376009
 20
224.3039770065294
 30
0.0
 10
428.5248032929906
 20
224.3096323682752
 30
0.0
 10
428.5389964818346
 20
224.3114051126824
 30
0.0
 10
428.5497023018074
 20
224.3090558528557
 30
0.0
 10
428.5530580870291
 20
224.3048713895199
 30
0.0
  0
SPLINE
  5
11FF7
330
1F
100
AcDbEntity
  8
0
  6
Continuous
 62
     7
100
AcDbSpline
210
0.0
220
0.0
230
1.0
 70
     8
 71
     3
 72
    12
 73
     8
 74
     0
 42
0.0000000001
 43
0.0000000001
 40
0.0
 40
0.0
 40
0.0
 40
0.0
 40
0.3890618814
 40
0.6857270636
 40
0.7971257456
 40
0.8845767756
 40
1.0
 40
1.0
 40
1.0
 40
1.0
 10
418.3684777757644
 20
236.778949368125
 30
0.0
 10
418.3842844966528
 20
236.7877266751233
 30
0.0
 10
418.412613006875
 20
236.8023989090791
 30
0.0
 10
418.4468324020839
 20
236.8166975523409
 30
0.0
 10
418.4693543189473
 20
236.8223529141447
 30
0.0
 10
418.4835475079368
 20
236.8241256587
 30
0.0
 10
418.4942533279388
 20
236.8217763990791
 30
0.0
 10
418.4976091133941
 20
236.8175919359213
 30
0.0
  0
SPLINE
  5
11FF8
330
1F
100
AcDbEntity
  8
0
  6
Continuous
 62
     7
100
AcDbSpline
210
0.0
220
0.0
230
1.0
 70
     8
 71
     3
 72
    11
 73
     7
 74
     0
 42
0.0000000001
 43
0.0000000001
 40
0.0
 40
0.0
 40
0.0
 40
0.0
 40
0.27497886
 40
0.5421150089
 40
0.7853919274
 40
1.0
 40
1.0
 40
1.0
 40
1.0
 10
418.3194661314656
 20
240.8720181235506
 30
0.0
 10
418.356979656901
 20
240.8253375359925
 30
0.0
 10
418.4180677899638
 20
240.7221890421558
 30
0.0
 10
418.4621612051103
 20
240.5545531675606
 30
0.0
 10
418.4539590898971
 20
240.3938453398151
 30
0.0
 10
418.4080241136491
 20
240.3005854052751
 30
0.0
 10
418.3769554968357
 20
240.2656682678358
 30
0.0
  0
SPLINE
  5
11FF9
330
1F
100
AcDbEntity
  8
0
  6
Continuous
 62
     7
100
AcDbSpline
210
0.0
220
0.0
230
1.0
 70
     8
 71
     3
 72
    11
 73
     7
 74
     0
 42
0.0000000001
 43
0.0000000001
 40
0.0
 40
0.0
 40
0.0
 40
0.0
 40
0.2749788601
 40
0.5421150092
 40
0.7853919274
 40
1.0
 40
1.0
 40
1.0
 40
1.0
 10
419.8938954814344
 20
241.7462831146676
 30
0.0
 10
419.9314090069002
 20
241.6996025270213
 30
0.0
 10
419.9924971400226
 20
241.5964540330087
 30
0.0
 10
420.0365905550815
 20
241.4288181583833
 30
0.0
 10
420.0283884399856
 20
241.2681103305801
 30
0.0
 10
419.9824534633844
 20
241.1748503962138
 30
0.0
 10
419.9513848465706
 20
241.1399332587745
 30
0.0
  0
SPLINE
  5
11FFA
330
1F
100
AcDbEntity
  8
0
  6
Continuous
 62
     7
100
AcDbSpline
210
0.0
220
0.0
230
1.0
 70
     8
 71
     3
 72
    15
 73
    11
 74
     0
 42
0.0000000001
 43
0.0000000001
 40
0.0
 40
0.0
 40
0.0
 40
0.0
 40
0.2969000801
 40
0.4338566806000001
 40
0.4987390829000001
 40
0.5611199951
 40
0.678576332
 40
0.7882918807000002
 40
0.8938757201999999
 40
1.0
 40
1.0
 40
1.0
 40
1.0
 10
434.4792859100131
 20
227.6287096618638
 30
0.0
 10
434.7672522933494
 20
227.2703723175126
 30
0.0
 10
435.1249621949484
 20
226.6868051674079
 30
0.0
 10
435.3595511762967
 20
225.947457152423
 30
0.0
 10
435.4275695893049
 20
225.5433480369937
 30
0.0
 10
435.4530445434874
 20
225.1648263360224
 30
0.0
 10
435.4117613593555
 20
224.7140685953646
 30
0.0
 10
435.2357141802029
 20
224.2231548748993
 30
0.0
 10
434.9385041655041
 20
223.8153116230146
 30
0.0
 10
434.6719541500171
 20
223.6154109541325
 30
0.0
 10
434.5282981288772
 20
223.5356401914786
 30
0.0
  0
SPLINE
  5
11FFB
330
1F
100
AcDbEntity
  8
0
  6
Continuous
 62
     7
100
AcDbSpline
210
0.0
220
0.0
230
1.0
 70
     8
 71
     3
 72
    14
 73
    10
 74
     0
 42
0.0000000001
 43
0.0000000001
 40
0.0
 40
0.0
 40
0.0
 40
0.0
 40
0.1001279072
 40
0.2077522067
 40
0.3242317535
 40
0.4494394209000001
 40
0.582067731
 40
0.7199667060000003
 40
1.0
 40
1.0
 40
1.0
 40
1.0
 10
419.9513832200175
 20
241.1399352408871
 30
0.0
 10
420.0830156665928
 20
241.2130294319261
 30
0.0
 10
420.3788872862116
 20
241.3259034204031
 30
0.0
 10
420.8667992227508
 20
241.3844193962716
 30
0.0
 10
421.3933098950475
 20
241.33812340131
 30
0.0
 10
421.9389377687993
 20
241.1900010893719
 30
0.0
 10
422.4842893847323
 20
240.9461371895154
 30
0.0
 10
423.1865455258986
 20
240.5044116056636
 30
0.0
 10
423.6491551280217
 20
240.0646880681977
 30
0.0
 10
423.9129339248354
 20
239.7364490825419
 30
0.0
  0
SPLINE
  5
11FFC
330
1F
100
AcDbEntity
  8
0
  6
Continuous
 62
     7
100
AcDbSpline
210
0.0
220
0.0
230
1.0
 70
     8
 71
     3
 72
    13
 73
     9
 74
     0
 42
0.0000000001
 43
0.0000000001
 40
0.0
 40
0.0
 40
0.0
 40
0.0
 40
0.2924110486
 40
0.5574021205000001
 40
0.6777523011
 40
0.7902746092
 40
0.8967432613999999
 40
1.0
 40
1.0
 40
1.0
 40
1.0
 10
433.9683828982335
 20
227.2237285365507
 30
0.0
 10
434.1888086996704
 20
226.9494368105821
 30
0.0
 10
434.5520214355063
 20
226.3769987901369
 30
0.0
 10
434.7976307649656
 20
225.5847545500411
 30
0.0
 10
434.8204472878101
 20
224.9828048988558
 30
0.0
 10
434.7545967012826
 20
224.5766095641537
 30
0.0
 10
434.607035533734
 20
224.2142026337563
 30
0.0
 10
434.455191033366
 20
224.0086101202912
 30
0.0
 10
434.3691834146134
 20
223.9189280903613
 30
0.0
  0
ELLIPSE
  5
11FFD
330
1F
100
AcDbEntity
  8
0
  6
Continuous
 62
     7
100
AcDbEllipse
 10
429.0870666130278
 20
222.5145943165633
 30
0.0
 11
1.032695883623655
 21
0.8115940951340048
 31
0.0
210
0.0
220
0.0
230
0.9999999999999998
 40
0.6983553786000001
 41
-3.1340082726
 42
-1.5632119458
  0
ELLIPSE
  5
11FFE
330
1F
100
AcDbEntity
  8
0
  6
Continuous
 62
     7
100
AcDbEllipse
 10
416.6757672961668
 20
237.9588693935174
 30
0.0
 11
1.032695883623655
 21
0.8115940951340048
 31
0.0
210
0.0
220
0.0
230
0.9999999999999998
 40
0.6983553786000001
 41
1.798810747499999
 42
3.149177034599996
  0
ELLIPSE
  5
11FFF
330
1F
100
AcDbEntity
  8
0
  6
Continuous
 62
     7
100
AcDbEllipse
 10
428.1374904078983
 20
231.944389584425
 30
0.0
 11
-0.1341678020305188
 21
0.2443774847265018
 31
0.0
210
0.0
220
0.0
230
1.0
 40
0.7311787073999999
 41
-2.8958022351
 42
-1.333732554599998
  0
ELLIPSE
  5
12000
330
1F
100
AcDbEntity
  8
0
  6
Continuous
 62
     7
100
AcDbEllipse
 10
427.5571650081672
 20
232.6665303433371
 30
0.0
 11
-0.1341678020305188
 21
0.2443774847265018
 31
0.0
210
0.0
220
0.0
230
1.0
 40
0.7311787073999999
 41
-1.333732554599998
 42
0.0022096392
  0
DIMENSION
  5
12001
330
1F
100
AcDbEntity
  8
DIM
100
AcDbDimension
  2
*D2
 10
468.958781859404
 20
318.2599634925105
 30
0.0
 11
451.8587798594043
 21
320.8099634925105
 31
0.0
 70
    32
 71
     5
 42
34.20000400000026
  3
01
100
AcDbAlignedDimension
 13
434.7587778594041
 23
300.7386712191587
 33
0.0
 14
468.958781859404
 24
300.7386712191587
 34
0.0
100
AcDbRotatedDimension
  0
DIMENSION
  5
12002
330
1F
100
AcDbEntity
  8
DIM
100
AcDbDimension
  2
*D3
 10
476.7512645790858
 20
339.296855076639
 30
0.0
 11
474.2012645790858
 21
346.5968550766391
 31
0.0
 70
    32
 71
     5
 42
14.59999999999996
  3
01
100
AcDbAlignedDimension
 13
465.6113753648859
 23
353.896855076639
 33
0.0
 14
465.4469252088601
 24
339.296855076639
 34
0.0
 50
90.0
100
AcDbRotatedDimension
  0
DIMENSION
  5
12191
330
1F
100
AcDbEntity
  8
DIM
100
AcDbDimension
  2
*D6
 10
515.5485125651948
 20
268.7386712191584
 30
0.0
 11
512.9985125651947
 21
290.5886712191584
 31
0.0
 70
    32
 71
     5
 42
43.69999999999993
  3
01
100
AcDbAlignedDimension
 13
504.0078792274914
 23
312.4386712191583
 33
0.0
 14
499.9796806587916
 24
268.7386712191584
 34
0.0
 50
90.0
100
AcDbRotatedDimension
  0
ENDSEC
  0
SECTION
  2
OBJECTS
  0
DICTIONARY
  5
C
330
0
100
AcDbDictionary
281
     1
  3
ACAD_COLOR
350
4FFE
  3
ACAD_GROUP
350
D
  3
ACAD_LAYOUT
350
1A
  3
ACAD_MATERIAL
350
4FE5
  3
ACAD_MLEADERSTYLE
350
5022
  3
ACAD_MLINESTYLE
350
17
  3
ACAD_PLOTSETTINGS
350
19
  3
ACAD_PLOTSTYLENAME
350
E
  3
ACAD_RENDER_PLOT_SETTINGS
350
6537
  3
ACAD_SCALELIST
350
5000
  3
ACAD_TABLESTYLE
350
4FE3
  3
ACAD_VISUALSTYLE
350
2A
  3
ACDB_RECOMPOSE_DATA
350
50EC
  3
AcDbVariableDictionary
350
5108
  3
ASE_INDEX_DICTIONARY
350
11ACE
  3
DWGPROPS
350
124DA
  0
DICTIONARY
  5
50EE
330
8
100
AcDbDictionary
280
     1
281
     1
  0
DICTIONARY
  5
50B8
330
2
100
AcDbDictionary
280
     1
281
     1
  3
ACAD_LAYERFILTERS
360
11B10
  3
ACAD_LAYERSTATES
360
50B9
  3
ACLYDICTIONARY
360
11B0F
  0
DICTIONARY
  5
50D0
330
10
100
AcDbDictionary
280
     1
281
     1
  3
ADSK_XREC_LAYER_RECONCILED
360
50D1
  0
DICTIONARY
  5
50D2
330
3B
100
AcDbDictionary
280
     1
281
     1
  3
ADSK_XREC_LAYER_RECONCILED
360
50D3
  0
DICTIONARY
  5
50AF
330
50AE
100
AcDbDictionary
280
     1
281
     1
  3
ADSK_XREC_LAYER_RECONCILED
360
50D4
  0
DICTIONARY
  5
67C0
330
1F
100
AcDbDictionary
280
     1
281
     1
  3
ACAD_SORTENTS
360
67C1
  0
DICTIONARY
  5
124B1
330
10FE8
100
AcDbDictionary
280
     1
281
     1
  0
DICTIONARY
  5
124C2
330
1241D
100
AcDbDictionary
280
     1
281
     1
  3
ACAD_MTEXT_2008_RT
360
124C3
  3
ACAD_MTEXT_RT
360
124FC
  0
DICTIONARY
  5
124C4
330
12461
100
AcDbDictionary
280
     1
281
     1
  3
ACAD_MTEXT_2008_RT
360
124C5
  3
ACAD_MTEXT_RT
360
124FD
  0
DICTIONARY
  5
124C6
330
12462
100
AcDbDictionary
280
     1
281
     1
  3
ACAD_MTEXT_2008_RT
360
124C7
  3
ACAD_MTEXT_RT
360
124FE
  0
DICTIONARY
  5
124C8
330
12487
100
AcDbDictionary
280
     1
281
     1
  3
ACAD_MTEXT_2008_RT
360
124C9
  3
ACAD_MTEXT_RT
360
124FF
  0
DICTIONARY
  5
124CA
330
1248A
100
AcDbDictionary
280
     1
281
     1
  3
ACAD_MTEXT_2008_RT
360
124CB
  3
ACAD_MTEXT_RT
360
12500
  0
DICTIONARY
  5
124CC
330
1248B
100
AcDbDictionary
280
     1
281
     1
  3
ACAD_MTEXT_2008_RT
360
124CD
  3
ACAD_MTEXT_RT
360
12501
  0
DICTIONARY
  5
124CE
330
12495
100
AcDbDictionary
280
     1
281
     1
  3
ACAD_MTEXT_2008_RT
360
124CF
  3
ACAD_MTEXT_RT
360
12502
  0
DICTIONARY
  5
124D0
330
12496
100
AcDbDictionary
280
     1
281
     1
  3
ACAD_MTEXT_2008_RT
360
124D1
  3
ACAD_MTEXT_RT
360
12503
  0
DICTIONARY
  5
124D2
330
12497
100
AcDbDictionary
280
     1
281
     1
  3
ACAD_MTEXT_2008_RT
360
124D3
  3
ACAD_MTEXT_RT
360
12504
  0
DICTIONARY
  5
124D4
330
124A5
100
AcDbDictionary
280
     1
281
     1
  3
ACAD_MTEXT_2008_RT
360
124D5
  3
ACAD_MTEXT_RT
360
12505
  0
DICTIONARY
  5
124D6
330
124A6
100
AcDbDictionary
280
     1
281
     1
  3
ACAD_MTEXT_2008_RT
360
124D7
  3
ACAD_MTEXT_RT
360
12506
  0
DICTIONARY
  5
124D8
330
124A7
100
AcDbDictionary
280
     1
281
     1
  3
ACAD_MTEXT_2008_RT
360
124D9
  3
ACAD_MTEXT_RT
360
12507
  0
DICTIONARY
  5
124BE
330
6E00
100
AcDbDictionary
280
     1
281
     1
  3
ACAD_MTEXT_2008_RT
360
124BF
  3
ACAD_MTEXT_RT
360
124E2
  0
DICTIONARY
  5
124C0
330
7228
100
AcDbDictionary
280
     1
281
     1
  3
ACAD_MTEXT_2008_RT
360
124C1
  3
ACAD_MTEXT_RT
360
124E3
  0
DICTIONARY
  5
4FFE
102
{ACAD_REACTORS
330
C
102
}
330
C
100
AcDbDictionary
281
     1
  0
DICTIONARY
  5
D
102
{ACAD_REACTORS
330
C
102
}
330
C
100
AcDbDictionary
281
     1
  0
DICTIONARY
  5
1A
102
{ACAD_REACTORS
330
C
102
}
330
C
100
AcDbDictionary
281
     1
  3
Layout1
350
1E
  3
Layout2
350
26
  3
Model
350
22
  0
DICTIONARY
  5
4FE5
102
{ACAD_REACTORS
330
C
102
}
330
C
100
AcDbDictionary
281
     1
  3
ByBlock
350
4FEE
  3
ByLayer
350
4FE6
  3
Global
350
4FF6
  0
DICTIONARY
  5
5022
102
{ACAD_REACTORS
330
C
102
}
330
C
100
AcDbDictionary
281
     1
  3
Standard
350
5023
  0
DICTIONARY
  5
17
102
{ACAD_REACTORS
330
C
102
}
330
C
100
AcDbDictionary
281
     1
  3
Standard
350
18
  0
DICTIONARY
  5
19
102
{ACAD_REACTORS
330
C
102
}
330
C
100
AcDbDictionary
281
     1
  0
ACDBDICTIONARYWDFLT
  5
E
102
{ACAD_REACTORS
330
C
102
}
330
C
100
AcDbDictionary
281
     1
  3
Normal
350
F
100
AcDbDictionaryWithDefault
340
F
  0
DICTIONARY
  5
6537
102
{ACAD_REACTORS
330
C
102
}
330
C
100
AcDbDictionary
281
     1
  3
{1DC63513-1B1A-422F-9880-65CFD2B8D533}
350
6538
  0
DICTIONARY
  5
5000
102
{ACAD_REACTORS
330
C
102
}
330
C
100
AcDbDictionary
281
     1
  3
A0
350
5001
  3
A1
350
5002
  3
A2
350
5003
  3
A3
350
5004
  3
A4
350
5005
  3
A5
350
5006
  3
A6
350
5007
  3
A7
350
5008
  3
A8
350
5009
  3
A9
350
500A
  3
B0
350
500B
  3
B1
350
500C
  3
B2
350
500D
  3
B3
350
500E
  3
B4
350
500F
  3
B5
350
5010
  3
B6
350
5011
  3
B7
350
5012
  3
B8
350
5013
  3
B9
350
5014
  3
C0
350
5015
  3
C1
350
5016
  3
C2
350
5017
  3
C3
350
5018
  3
C4
350
5019
  3
C5
350
501A
  3
C6
350
501B
  3
C7
350
501C
  3
C8
350
501D
  3
C9
350
501E
  3
D0
350
501F
  3
D1
350
5020
  3
D2
350
5021
  0
DICTIONARY
  5
4FE3
102
{ACAD_REACTORS
330
C
102
}
330
C
100
AcDbDictionary
281
     1
  3
Standard
350
4FFF
  0
DICTIONARY
  5
2A
102
{ACAD_REACTORS
330
C
102
}
330
C
100
AcDbDictionary
281
     1
  3
2dWireframe
350
2F
  3
3D Hidden
350
31
  3
3dWireframe
350
30
  3
Basic
350
32
  3
Brighten
350
36
  3
ColorChange
350
3A
  3
Conceptual
350
34
  3
Dim
350
35
  3
Facepattern
350
39
  3
Flat
350
2B
  3
FlatWithEdges
350
2C
  3
Gouraud
350
2D
  3
GouraudWithEdges
350
2E
  3
Linepattern
350
38
  3
Realistic
350
33
  3
Thicken
350
37
  0
XRECORD
  5
50EC
102
{ACAD_REACTORS
330
C
102
}
330
C
100
AcDbXrecord
280
     1
 90
        1
330
4FFF
330
6E00
330
7228
330
1241D
330
12461
330
12462
330
12487
330
1248A
330
1248B
330
12495
330
12496
330
12497
330
124A5
330
124A6
330
124A7
  0
DICTIONARY
  5
5108
102
{ACAD_REACTORS
330
C
102
}
330
C
100
AcDbDictionary
281
     1
  3
CANNOSCALE
350
510B
  3
CMLEADERSTYLE
350
510A
  3
CTABLESTYLE
350
5109
  3
DIMASSOC
350
510E
  3
INDEXCTL
350
510D
  3
SORTENTS
350
510C
  0
DICTIONARY
  5
11ACE
102
{ACAD_REACTORS
330
C
102
}
330
C
100
AcDbDictionary
281
     1
  3
ASEBlockHierarchyIndexRecord
350
11ACF
1001
DCO15
1040
1901610418.781
  0
XRECORD
  5
124DA
102
{ACAD_REACTORS
330
C
102
}
330
C
100
AcDbXrecord
280
     1
  1
DWGPROPS COOKIE
  2

  3

  4

  6

  7

  8
yl.gao
  9

300
=
301
=
302
=
303
=
304
=
305
=
306
=
307
=
308
=
309
=
 40
0.8715155671296296
 41
2456524.383632987
 42
2460316.701227025
  1

 90
        0
  0
DICTIONARY
  5
11B10
102
{ACAD_REACTORS
330
50B8
102
}
330
50B8
100
AcDbDictionary
281
     1
  0
DICTIONARY
  5
50B9
102
{ACAD_REACTORS
330
50B8
102
}
330
50B8
100
AcDbDictionary
281
     1
  0
DICTIONARY
  5
11B0F
102
{ACAD_REACTORS
330
50B8
102
}
330
50B8
100
AcDbDictionary
281
     1
1001
ACAD
1000
<All
  0
XRECORD
  5
50D1
102
{ACAD_REACTORS
330
50D0
102
}
330
50D0
100
AcDbXrecord
280
     1
290
     1
  0
XRECORD
  5
50D3
102
{ACAD_REACTORS
330
50D2
102
}
330
50D2
100
AcDbXrecord
280
     1
290
     1
  0
XRECORD
  5
50D4
102
{ACAD_REACTORS
330
50AF
102
}
330
50AF
100
AcDbXrecord
280
     1
290
     1
  0
SORTENTSTABLE
  5
67C1
102
{ACAD_REACTORS
330
67C0
102
}
330
67C0
100
AcDbSortentsTable
330
1F
331
7228
  5
99F4
331
65A3
  5
65A4
331
4842
  5
4E94
331
65A1
  5
65A2
331
65B2
  5
65B3
331
35D8
  5
3807
331
2FDE
  5
35C8
331
28AE
  5
2A38
331
2F93
  5
2FDE
331
2C65
  5
2EE7
331
65A4
  5
65A5
331
6E00
  5
99F3
331
3895
  5
3943
331
2EE7
  5
2F93
331
35C8
  5
35D8
331
65A0
  5
65A1
331
3807
  5
3895
331
3943
  5
4842
  0
XRECORD
  5
124C3
102
{ACAD_REACTORS
330
124C2
102
}
330
124C2
100
AcDbXrecord
280
     1
 40
1527.0
  1
\pxqc;BQ LUO
  0
XRECORD
  5
124FC
102
{ACAD_REACTORS
330
124C2
102
}
330
124C2
100
AcDbXrecord
280
     1
 40
1527.0
  1
\pxqc;BQ LUO
  0
XRECORD
  5
124C5
102
{ACAD_REACTORS
330
124C4
102
}
330
124C4
100
AcDbXrecord
280
     1
 40
1262561.0
  1
\pxqc;档案员{\H0.7x;\P\Fromans|c134;Filing Clerk\fFangSong_GB2312|b0|i0|c134|p49; }
  0
XRECORD
  5
124FD
102
{ACAD_REACTORS
330
124C4
102
}
330
124C4
100
AcDbXrecord
280
     1
 40
448513.0
  1
\pxqc;档案员{\H0.7x;\P\Fromans|c134;Filing Clerk\fFangSong_GB2312|b0|i0|c134|p49; }
  0
XRECORD
  5
124C7
102
{ACAD_REACTORS
330
124C6
102
}
330
124C6
100
AcDbXrecord
280
     1
 40
650528.0
  1
\pxqc;日期{\Fromans|c134;/Date}
  0
XRECORD
  5
124FE
102
{ACAD_REACTORS
330
124C6
102
}
330
124C6
100
AcDbXrecord
280
     1
 40
58584.0
  1
\pxqc;日期{\Fromans|c134;/Date}
  0
XRECORD
  5
124C9
102
{ACAD_REACTORS
330
124C8
102
}
330
124C8
100
AcDbXrecord
280
     1
 40
2318748.0
  1
\pxsm0.7;{\f仿宋_GB2312|b0|i0|c134|p49;标准化}\PStand.
  0
XRECORD
  5
124FF
102
{ACAD_REACTORS
330
124C8
102
}
330
124C8
100
AcDbXrecord
280
     1
 40
55334.0
  1
\pxsm0.7;{\f仿宋_GB2312|b0|i0|c134|p49;标准化}\PStand.
  0
XRECORD
  5
124CB
102
{ACAD_REACTORS
330
124CA
102
}
330
124CA
100
AcDbXrecord
280
     1
 40
118135.0
  1
\pxsm0.7;签名\P{\Fromans|c134;Signature} 
  0
XRECORD
  5
12500
102
{ACAD_REACTORS
330
124CA
102
}
330
124CA
100
AcDbXrecord
280
     1
 40
48353.0
  1
\pxsm0.7;签名\P{\Fromans|c134;Signature} 
  0
XRECORD
  5
124CD
102
{ACAD_REACTORS
330
124CC
102
}
330
124CC
100
AcDbXrecord
280
     1
 40
108939.0
  1
\pxsm0.7,qc;处数\P{\Fromans|c134;Number }
  0
XRECORD
  5
12501
102
{ACAD_REACTORS
330
124CC
102
}
330
124CC
100
AcDbXrecord
280
     1
 40
38427.0
  1
\pxsm0.7,qc;处数\P{\Fromans|c134;Number }
  0
XRECORD
  5
124CF
102
{ACAD_REACTORS
330
124CE
102
}
330
124CE
100
AcDbXrecord
280
     1
 40
125762.0
  1
\pxsm0.7;标记\P{\Fromans|c134;Mark}
  0
XRECORD
  5
12502
102
{ACAD_REACTORS
330
124CE
102
}
330
124CE
100
AcDbXrecord
280
     1
 40
31190.0
  1
\pxsm0.7;标记\P{\Fromans|c134;Mark}
  0
XRECORD
  5
124D1
102
{ACAD_REACTORS
330
124D0
102
}
330
124D0
100
AcDbXrecord
280
     1
 40
111973.0
  1
\pxsm0.7;审核\P{\Fromans|c134;Checked}
  0
XRECORD
  5
12503
102
{ACAD_REACTORS
330
124D0
102
}
330
124D0
100
AcDbXrecord
280
     1
 40
39355.0
  1
\pxsm0.7;审核\P{\Fromans|c134;Checked}
  0
XRECORD
  5
124D3
102
{ACAD_REACTORS
330
124D2
102
}
330
124D2
100
AcDbXrecord
280
     1
 40
137968.0
  1
\pxsm0.7;绘图\P{\Fromans|c134;Drawn\Ftxt|c134; }
  0
XRECORD
  5
12504
102
{ACAD_REACTORS
330
124D2
102
}
330
124D2
100
AcDbXrecord
280
     1
 40
66730.0
  1
\pxsm0.7;绘图\P{\Fromans|c134;Drawn\Ftxt|c134; }
  0
XRECORD
  5
124D5
102
{ACAD_REACTORS
330
124D4
102
}
330
124D4
100
AcDbXrecord
280
     1
 40
106320.0
  1
\pxsm0.7;批准\P{\Fromans|c134;Approved}
  0
XRECORD
  5
12505
102
{ACAD_REACTORS
330
124D4
102
}
330
124D4
100
AcDbXrecord
280
     1
 40
43787.0
  1
\pxsm0.7;批准\P{\Fromans|c134;Approved}
  0
XRECORD
  5
124D7
102
{ACAD_REACTORS
330
124D6
102
}
330
124D6
100
AcDbXrecord
280
     1
 40
127283.0
  1
\pxsm0.7;工艺\P{\Fromans|c134;Process}
  0
XRECORD
  5
12506
102
{ACAD_REACTORS
330
124D6
102
}
330
124D6
100
AcDbXrecord
280
     1
 40
40691.0
  1
\pxsm0.7;工艺\P{\Fromans|c134;Process}
  0
XRECORD
  5
124D9
102
{ACAD_REACTORS
330
124D8
102
}
330
124D8
100
AcDbXrecord
280
     1
 40
106220.0
  1
\pxsm0.7;日期\P{\Fromans|c134;Date}
  0
XRECORD
  5
12507
102
{ACAD_REACTORS
330
124D8
102
}
330
124D8
100
AcDbXrecord
280
     1
 40
30977.0
  1
\pxsm0.7;日期\P{\Fromans|c134;Date}
  0
XRECORD
  5
124BF
102
{ACAD_REACTORS
330
124BE
102
}
330
124BE
100
AcDbXrecord
280
     1
 40
3016615307.0
  1
\A1;\pxql;{\f仿宋_GB2312|b0|i0|c134|p49;技术参数}:\P{\f仿宋_GB2312|b0|i0|c134|p49;插芯：}\P- {\f仿宋_GB2312|b0|i0|c134|p49;插针数}: 2\P- {\f仿宋_GB2312|b0|i0|c134|p49;额定电流}: 40A\P- {\f仿宋_GB2312|b0|i0|c134|p49;额定电压}: 1000V\P- {\f仿宋_GB2312|b0|i0|c134|p49;额定脉冲电压}: 8kV\P-
  1
 {\f仿宋_GB2312|b0|i0|c134|p49;污染等级}: 3\P- {\f仿宋_GB2312|b0|i0|c134|p49;绝缘阻抗}: {\f仿宋_GB2312|b0|i0|c134|p49;≥}10{\H0.7x;\S10^ ;}Ω\P- {\f仿宋_GB2312|b0|i0|c134|p49;材料}: {\f仿宋_GB2312|b0|i0|c134|p49;聚碳酸酯}\P- {\f仿宋_GB2312|b0|i0|c134|p49;颜色}: RAL 7032{\f仿宋_GB231
  1
2|b0|i0|c134|p49;（浅灰色）}\P- {\f仿宋_GB2312|b0|i0|c134|p49;温度范围}: -40{\f仿宋_GB2312|b0|i0|c134|p49;℃} - +125{\f仿宋_GB2312|b0|i0|c134|p49;℃}\P- {\f仿宋_GB2312|b0|i0|c134|p49;依据}UL 94{\f仿宋_GB2312|b0|i0|c134|p49;的阻燃等级}: V0\P\pq*;- {\f仿宋_GB2312|b0|i0|c134|p49;可插拔
  1
次数}: {\f仿宋_GB2312|b0|i0|c134|p49;≥}500\P\pql;{\f仿宋_GB2312|b0|i0|c134|p49;插针：}\P- {\f仿宋_GB2312|b0|i0|c134|p49;接线方式}: {\f仿宋_GB2312|b0|i0|c134|p49;冷压连接}\P- {\f仿宋_GB2312|b0|i0|c134|p49;材料}: {\f仿宋_GB2312|b0|i0|c134|p49;铜合金}\P- {\f仿宋_GB2312|b0|i0|c134|p49;
  1
表面处理}: {\f仿宋_GB2312|b0|i0|c134|p49;镀银}\P- {\f仿宋_GB2312|b0|i0|c134|p49;接触电阻}: ≤1mΩ\P- {\f仿宋_GB2312|b0|i0|c134|p49;线径范围}: 1.5-10mm{\H0.7x;\S2^ ;}(16-8 AWG)\P- {\f仿宋_GB2312|b0|i0|c134|p49;工具：}\P   {\f仿宋_GB2312|b0|i0|c134|p49;·} {\f仿宋_GB2312|b0|i0|c134|p4
  1
9;冷压钳}: \P    TL02-0G(1.5-6mm{\H0.7x;\S2^ ;})\P    TL02-3G(4/6/10mm{\H0.7x;\S2^ ;})\P   {\f仿宋_GB2312|b0|i0|c134|p49;·} {\f仿宋_GB2312|b0|i0|c134|p49;退针器}: TL06G
  0
XRECORD
  5
124E2
102
{ACAD_REACTORS
330
124BE
102
}
330
124BE
100
AcDbXrecord
280
     1
 40
60300693.0
  1
\A1;\pxql;{\f仿宋_GB2312|b0|i0|c134|p49;技术参数}:\P{\f仿宋_GB2312|b0|i0|c134|p49;插芯：}\P- {\f仿宋_GB2312|b0|i0|c134|p49;插针数}: 2\P- {\f仿宋_GB2312|b0|i0|c134|p49;额定电流}: 40A\P- {\f仿宋_GB2312|b0|i0|c134|p49;额定电压}: 1000V\P- {\f仿宋_GB2312|b0|i0|c134|p49;额定脉冲电压}: 8kV\P-
  1
 {\f仿宋_GB2312|b0|i0|c134|p49;污染等级}: 3\P- {\f仿宋_GB2312|b0|i0|c134|p49;绝缘阻抗}: {\f仿宋_GB2312|b0|i0|c134|p49;≥}10{\H0.7x;\S10^ ;}Ω\P- {\f仿宋_GB2312|b0|i0|c134|p49;材料}: {\f仿宋_GB2312|b0|i0|c134|p49;聚碳酸酯}\P- {\f仿宋_GB2312|b0|i0|c134|p49;颜色}: RAL 7032{\f仿宋_GB231
  1
2|b0|i0|c134|p49;（浅灰色）}\P- {\f仿宋_GB2312|b0|i0|c134|p49;温度范围}: -40{\f仿宋_GB2312|b0|i0|c134|p49;℃} - +125{\f仿宋_GB2312|b0|i0|c134|p49;℃}\P- {\f仿宋_GB2312|b0|i0|c134|p49;依据}UL 94{\f仿宋_GB2312|b0|i0|c134|p49;的阻燃等级}: V0\P\pq*;- {\f仿宋_GB2312|b0|i0|c134|p49;可插拔
  1
次数}: {\f仿宋_GB2312|b0|i0|c134|p49;≥}500\P\pql;{\f仿宋_GB2312|b0|i0|c134|p49;插针：}\P- {\f仿宋_GB2312|b0|i0|c134|p49;接线方式}: {\f仿宋_GB2312|b0|i0|c134|p49;冷压连接}\P- {\f仿宋_GB2312|b0|i0|c134|p49;材料}: {\f仿宋_GB2312|b0|i0|c134|p49;铜合金}\P- {\f仿宋_GB2312|b0|i0|c134|p49;
  1
表面处理}: {\f仿宋_GB2312|b0|i0|c134|p49;镀银}\P- {\f仿宋_GB2312|b0|i0|c134|p49;接触电阻}: ≤1mΩ\P- {\f仿宋_GB2312|b0|i0|c134|p49;线径范围}: 1.5-10mm{\H0.7x;\S2^ ;}(16-8 AWG)\P- {\f仿宋_GB2312|b0|i0|c134|p49;工具：}\P   {\f仿宋_GB2312|b0|i0|c134|p49;·} {\f仿宋_GB2312|b0|i0|c134|p4
  1
9;冷压钳}: \P    TL02-0G(1.5-6mm{\H0.7x;\S2^ ;})\P    TL02-3G(4/6/10mm{\H0.7x;\S2^ ;})\P   {\f仿宋_GB2312|b0|i0|c134|p49;·} {\f仿宋_GB2312|b0|i0|c134|p49;退针器}: TL06G
  0
XRECORD
  5
124C1
102
{ACAD_REACTORS
330
124C0
102
}
330
124C0
100
AcDbXrecord
280
     1
 40
49414916.0
  1
\A1;\pxql;Technical specification:\PInserts:\P- No. of contact: 2\P- Rated current: 40A\P- Rated voltage: 1000V\P- Rated impulse voltage: 8kV\P- Pollution degree: 3\P- Insulation resistance: {\fFangSong_GB2312|b0|i0|c134|p49;≥}10{\H0.7x;\S10^ ;}Ω\P- M
  1
aterial: polycarbonate\P- Colour: RAL 7032(light grey) \P- Temperature range: -40{\fArial|b0|i0|c0|p34;℃} - +125{\fArial|b0|i0|c0|p34;℃}\P- Flammability acc.to UL 94: V0\P- Mating cycles: {\fFangSong_GB2312|b0|i0|c134|p49;≥}500\PContacts:\P- Terminal
  1
: crimp terminal\P- Material: copper alloy\P- Surface: hard-silver plated\P- Contact resistance: {\fFangSong_GB2312|b0|i0|c134|p49;≤}1mΩ\P- Wire gauge: 1.5-10mm{\H0.7x;\S2^ ;\H1.4286x;(16-8 AWG)}\P- Tools:\P   {\fISOCPEUR|b0|i0|c0|p34;·} Crimp contact
  1
 tool: \P    TL02-0G(1.5-6mm{\H0.7x;\S2^ ;\H1.4286x;)\P    TL02-3G(4/6/10mm\H0.7x;\S2^ ;\H1.4286x;)\P}   {\fISOCPEUR|b0|i0|c0|p34;·} Contact removal tool: TL06G
  0
XRECORD
  5
124E3
102
{ACAD_REACTORS
330
124C0
102
}
330
124C0
100
AcDbXrecord
280
     1
 40
33630765.0
  1
\A1;\pxql;Technical specification:\PInserts:\P- No. of contact: 2\P- Rated current: 40A\P- Rated voltage: 1000V\P- Rated impulse voltage: 8kV\P- Pollution degree: 3\P- Insulation resistance: {\fFangSong_GB2312|b0|i0|c134|p49;≥}10{\H0.7x;\S10^ ;}Ω\P- M
  1
aterial: polycarbonate\P- Colour: RAL 7032(light grey) \P- Temperature range: -40{\fArial|b0|i0|c0|p34;℃} - +125{\fArial|b0|i0|c0|p34;℃}\P- Flammability acc.to UL 94: V0\P- Mating cycles: {\fFangSong_GB2312|b0|i0|c134|p49;≥}500\PContacts:\P- Terminal
  1
: crimp terminal\P- Material: copper alloy\P- Surface: hard-silver plated\P- Contact resistance: {\fFangSong_GB2312|b0|i0|c134|p49;≤}1mΩ\P- Wire gauge: 1.5-10mm{\H0.7x;\S2^ ;\H1.4286x;(16-8 AWG)}\P- Tools:\P   {\fISOCPEUR|b0|i0|c0|p34;·} Crimp contact
  1
 tool: \P    TL02-0G(1.5-6mm{\H0.7x;\S2^ ;\H1.4286x;)\P    TL02-3G(4/6/10mm\H0.7x;\S2^ ;\H1.4286x;)\P}   {\fISOCPEUR|b0|i0|c0|p34;·} Contact removal tool: TL06G
  0
LAYOUT
  5
1E
102
{ACAD_XDICTIONARY
360
124DB
102
}
102
{ACAD_REACTORS
330
1A
102
}
330
1A
100
AcDbPlotSettings
  1

  2
none_device
  4

  6

 40
0.0
 41
0.0
 42
0.0
 43
0.0
 44
0.0
 45
0.0
 46
0.0
 47
0.0
 48
0.0
 49
0.0
140
0.0
141
0.0
142
1.0
143
1.0
 70
   688
 72
     0
 73
     0
 74
     5
  7

 75
    16
147
1.0
148
0.0
149
0.0
100
AcDbLayout
  1
Layout1
 70
     1
 71
     1
 10
0.0
 20
0.0
 11
12.0
 21
9.0
 12
0.0
 22
0.0
 32
0.0
 14
1.000000000000000E+20
 24
1.000000000000000E+20
 34
1.000000000000000E+20
 15
-1.000000000000000E+20
 25
-1.000000000000000E+20
 35
-1.000000000000000E+20
146
0.0
 13
0.0
 23
0.0
 33
0.0
 16
1.0
 26
0.0
 36
0.0
 17
0.0
 27
1.0
 37
0.0
 76
     0
330
1B
  0
LAYOUT
  5
26
102
{ACAD_XDICTIONARY
360
124DF
102
}
102
{ACAD_REACTORS
330
1A
102
}
330
1A
100
AcDbPlotSettings
  1

  2
none_device
  4

  6

 40
0.0
 41
0.0
 42
0.0
 43
0.0
 44
0.0
 45
0.0
 46
0.0
 47
0.0
 48
0.0
 49
0.0
140
0.0
141
0.0
142
1.0
143
1.0
 70
   688
 72
     0
 73
     0
 74
     5
  7

 75
    16
147
1.0
148
0.0
149
0.0
100
AcDbLayout
  1
Layout2
 70
     1
 71
     2
 10
0.0
 20
0.0
 11
0.0
 21
0.0
 12
0.0
 22
0.0
 32
0.0
 14
0.0
 24
0.0
 34
0.0
 15
0.0
 25
0.0
 35
0.0
146
0.0
 13
0.0
 23
0.0
 33
0.0
 16
1.0
 26
0.0
 36
0.0
 17
0.0
 27
1.0
 37
0.0
 76
     0
330
23
  0
LAYOUT
  5
22
102
{ACAD_XDICTIONARY
360
124DD
102
}
102
{ACAD_REACTORS
330
1A
102
}
330
1A
100
AcDbPlotSettings
  1

  2
Adobe PDF Converter.pc3
  4
A4
  6

 40
3.174999952316281
 41
3.174999952316281
 42
3.17498779296875
 43
3.175003051757812
 44
297.0318298339844
 45
209.9733276367186
 46
0.0000000000000076
 47
1.630241740247063
 48
246.9897427644609
 49
39.36804549891383
140
544.952097801264
141
244.7492402188181
142
1.0
143
1.025046328645055
 70
  3764
 72
     1
 73
     0
 74
     4
  7
monochrome.ctb
 75
     0
147
0.9755656618192436
148
-246.9897427644609
149
-39.36804549891383
100
AcDbLayout
  1
Model
 70
     1
 71
     0
 10
0.0
 20
0.0
 11
12.0
 21
9.0
 12
0.0
 22
0.0
 32
0.0
 14
1.000000000000000E+20
 24
1.000000000000000E+20
 34
1.000000000000000E+20
 15
-1.000000000000000E+20
 25
-1.000000000000000E+20
 35
-1.000000000000000E+20
146
0.0
 13
0.0
 23
0.0
 33
0.0
 16
1.0
 26
0.0
 36
0.0
 17
0.0
 27
1.0
 37
0.0
 76
     0
330
1F
331
29
1001
ACAD_PSEXT
1000
Adobe PDF Converter.pc3
1000
Adobe PDF Converter
1000
桌面\*.pdf
1000

1070
     0
  0
MATERIAL
  5
4FEE
102
{ACAD_XDICTIONARY
360
4FEF
102
}
102
{ACAD_REACTORS
330
4FE5
102
}
330
4FE5
100
AcDbMaterial
  1
ByBlock
 72
     0
 43
0.0208333333333333
 43
0.0
 43
0.0
 43
0.0
 43
0.0
 43
0.0208333333333333
 43
0.0
 43
0.0
 43
0.0
 43
0.0
 43
1.0
 43
0.0
 43
0.0
 43
0.0
 43
0.0
 43
1.0
 77
     0
 47
0.0208333333333333
 47
0.0
 47
0.0
 47
0.0
 47
0.0
 47
0.0208333333333333
 47
0.0
 47
0.0
 47
0.0
 47
0.0
 47
1.0
 47
0.0
 47
0.0
 47
0.0
 47
0.0
 47
1.0
171
     0
 49
0.0208333333333333
 49
0.0
 49
0.0
 49
0.0
 49
0.0
 49
0.0208333333333333
 49
0.0
 49
0.0
 49
0.0
 49
0.0
 49
1.0
 49
0.0
 49
0.0
 49
0.0
 49
0.0
 49
1.0
175
     0
142
0.0208333333333333
142
0.0
142
0.0
142
0.0
142
0.0
142
0.0208333333333333
142
0.0
142
0.0
142
0.0
142
0.0
142
1.0
142
0.0
142
0.0
142
0.0
142
0.0
142
1.0
179
     0
144
0.0208333333333333
144
0.0
144
0.0
144
0.0
144
0.0
144
0.0208333333333333
144
0.0
144
0.0
144
0.0
144
0.0
144
1.0
144
0.0
144
0.0
144
0.0
144
0.0
144
1.0
147
0.0208333333333333
147
0.0
147
0.0
147
0.0
147
0.0
147
0.0208333333333333
147
0.0
147
0.0
147
0.0
147
0.0
147
1.0
147
0.0
147
0.0
147
0.0
147
0.0
147
1.0
  0
MATERIAL
  5
4FE6
102
{ACAD_XDICTIONARY
360
4FE7
102
}
102
{ACAD_REACTORS
330
4FE5
102
}
330
4FE5
100
AcDbMaterial
  1
ByLayer
 72
     0
 43
0.0208333333333333
 43
0.0
 43
0.0
 43
0.0
 43
0.0
 43
0.0208333333333333
 43
0.0
 43
0.0
 43
0.0
 43
0.0
 43
1.0
 43
0.0
 43
0.0
 43
0.0
 43
0.0
 43
1.0
 77
     0
 47
0.0208333333333333
 47
0.0
 47
0.0
 47
0.0
 47
0.0
 47
0.0208333333333333
 47
0.0
 47
0.0
 47
0.0
 47
0.0
 47
1.0
 47
0.0
 47
0.0
 47
0.0
 47
0.0
 47
1.0
171
     0
 49
0.0208333333333333
 49
0.0
 49
0.0
 49
0.0
 49
0.0
 49
0.0208333333333333
 49
0.0
 49
0.0
 49
0.0
 49
0.0
 49
1.0
 49
0.0
 49
0.0
 49
0.0
 49
0.0
 49
1.0
175
     0
142
0.0208333333333333
142
0.0
142
0.0
142
0.0
142
0.0
142
0.0208333333333333
142
0.0
142
0.0
142
0.0
142
0.0
142
1.0
142
0.0
142
0.0
142
0.0
142
0.0
142
1.0
179
     0
144
0.0208333333333333
144
0.0
144
0.0
144
0.0
144
0.0
144
0.0208333333333333
144
0.0
144
0.0
144
0.0
144
0.0
144
1.0
144
0.0
144
0.0
144
0.0
144
0.0
144
1.0
147
0.0208333333333333
147
0.0
147
0.0
147
0.0
147
0.0
147
0.0208333333333333
147
0.0
147
0.0
147
0.0
147
0.0
147
1.0
147
0.0
147
0.0
147
0.0
147
0.0
147
1.0
  0
MATERIAL
  5
4FF6
102
{ACAD_XDICTIONARY
360
4FF7
102
}
102
{ACAD_REACTORS
330
4FE5
102
}
330
4FE5
100
AcDbMaterial
  1
Global
 72
     0
 43
0.0208333333333333
 43
0.0
 43
0.0
 43
0.0
 43
0.0
 43
0.0208333333333333
 43
0.0
 43
0.0
 43
0.0
 43
0.0
 43
1.0
 43
0.0
 43
0.0
 43
0.0
 43
0.0
 43
1.0
 77
     0
 47
0.0208333333333333
 47
0.0
 47
0.0
 47
0.0
 47
0.0
 47
0.0208333333333333
 47
0.0
 47
0.0
 47
0.0
 47
0.0
 47
1.0
 47
0.0
 47
0.0
 47
0.0
 47
0.0
 47
1.0
171
     0
 49
0.0208333333333333
 49
0.0
 49
0.0
 49
0.0
 49
0.0
 49
0.0208333333333333
 49
0.0
 49
0.0
 49
0.0
 49
0.0
 49
1.0
 49
0.0
 49
0.0
 49
0.0
 49
0.0
 49
1.0
175
     0
142
0.0208333333333333
142
0.0
142
0.0
142
0.0
142
0.0
142
0.0208333333333333
142
0.0
142
0.0
142
0.0
142
0.0
142
1.0
142
0.0
142
0.0
142
0.0
142
0.0
142
1.0
179
     0
144
0.0208333333333333
144
0.0
144
0.0
144
0.0
144
0.0
144
0.0208333333333333
144
0.0
144
0.0
144
0.0
144
0.0
144
1.0
144
0.0
144
0.0
144
0.0
144
0.0
144
1.0
147
0.0208333333333333
147
0.0
147
0.0
147
0.0
147
0.0
147
0.0208333333333333
147
0.0
147
0.0
147
0.0
147
0.0
147
1.0
147
0.0
147
0.0
147
0.0
147
0.0
147
1.0
  0
MLEADERSTYLE
  5
5023
102
{ACAD_REACTORS
330
5022
102
}
330
5022
100
AcDbMLeaderStyle
170
     2
171
     1
172
     0
 90
        2
 40
0.0
 41
0.0
173
     1
 91
-1056964608
340
14
 92
       -2
290
     1
 42
0.09
291
     1
 43
0.36
  3
Standard
 44
0.18
300

342
11
174
     1
178
     6
175
     1
176
     0
 93
-1056964608
 45
0.18
292
     0
297
     0
 46
0.18
 94
-1056964608
 47
1.0
 49
1.0
140
1.0
293
     1
141
0.0
294
     1
177
     0
142
1.0
295
     0
296
     0
143
0.125
1001
ACAD_MLEADERVER
1070
     2
  0
MLINESTYLE
  5
18
102
{ACAD_REACTORS
330
17
102
}
330
17
100
AcDbMlineStyle
  2
STANDARD
 70
     0
  3

 62
   256
 51
90.0
 52
90.0
 71
     2
 49
0.5
 62
   256
  6
BYLAYER
 49
-0.5
 62
   256
  6
BYLAYER
  0
ACDBPLACEHOLDER
  5
F
102
{ACAD_REACTORS
330
E
102
}
330
E
  0
MENTALRAYRENDERSETTINGS
  5
6538
102
{ACAD_REACTORS
330
6537
102
}
330
6537
100
AcDbRenderSettings
 90
        2
  1
中
290
     1
290
     1
290
     1
290
     1
  1

  1
渲染质量好于“低级”。包括纹理过滤并且强制双面处于激活状态。处理中等级反锯齿和 5 反射/折射的光线跟踪深度。
 90
        0
100
AcDbMentalRayRenderSettings
 90
        2
 90
        0
 90
        1
 70
     2
 40
3.0
 40
3.0
 40
0.0500000007450581
 40
0.0500000007450581
 40
0.0500000007450581
 40
0.0500000007450581
 70
     0
290
     0
290
     1
 90
        5
 90
        5
 90
        5
290
     0
 90
      500
290
     0
 40
1.0
 90
    10000
 90
        5
 90
        5
 90
        5
290
     0
 90
      200
290
     0
290
     0
290
     0
 40
0.1
 40
1.0
 40
1500.0
 70
     0
 70
     0
 40
10.0
 70
     0
 70
     0
290
     0
  1

 90
       32
 70
     0
 90
     1048
290
     0
 40
1.0
  0
SCALE
  5
5001
102
{ACAD_REACTORS
330
5000
102
}
330
5000
100
AcDbScale
 70
     0
300
1:1
140
1.0
141
1.0
290
     1
  0
SCALE
  5
5002
102
{ACAD_REACTORS
330
5000
102
}
330
5000
100
AcDbScale
 70
     0
300
1:2
140
1.0
141
2.0
290
     0
  0
SCALE
  5
5003
102
{ACAD_REACTORS
330
5000
102
}
330
5000
100
AcDbScale
 70
     0
300
1:4
140
1.0
141
4.0
290
     0
  0
SCALE
  5
5004
102
{ACAD_REACTORS
330
5000
102
}
330
5000
100
AcDbScale
 70
     0
300
1:5
140
1.0
141
5.0
290
     0
  0
SCALE
  5
5005
102
{ACAD_REACTORS
330
5000
102
}
330
5000
100
AcDbScale
 70
     0
300
1:8
140
1.0
141
8.0
290
     0
  0
SCALE
  5
5006
102
{ACAD_REACTORS
330
5000
102
}
330
5000
100
AcDbScale
 70
     0
300
1:10
140
1.0
141
10.0
290
     0
  0
SCALE
  5
5007
102
{ACAD_REACTORS
330
5000
102
}
330
5000
100
AcDbScale
 70
     0
300
1:16
140
1.0
141
16.0
290
     0
  0
SCALE
  5
5008
102
{ACAD_REACTORS
330
5000
102
}
330
5000
100
AcDbScale
 70
     0
300
1:20
140
1.0
141
20.0
290
     0
  0
SCALE
  5
5009
102
{ACAD_REACTORS
330
5000
102
}
330
5000
100
AcDbScale
 70
     0
300
1:30
140
1.0
141
30.0
290
     0
  0
SCALE
  5
500A
102
{ACAD_REACTORS
330
5000
102
}
330
5000
100
AcDbScale
 70
     0
300
1:40
140
1.0
141
40.0
290
     0
  0
SCALE
  5
500B
102
{ACAD_REACTORS
330
5000
102
}
330
5000
100
AcDbScale
 70
     0
300
1:50
140
1.0
141
50.0
290
     0
  0
SCALE
  5
500C
102
{ACAD_REACTORS
330
5000
102
}
330
5000
100
AcDbScale
 70
     0
300
1:100
140
1.0
141
100.0
290
     0
  0
SCALE
  5
500D
102
{ACAD_REACTORS
330
5000
102
}
330
5000
100
AcDbScale
 70
     0
300
2:1
140
2.0
141
1.0
290
     0
  0
SCALE
  5
500E
102
{ACAD_REACTORS
330
5000
102
}
330
5000
100
AcDbScale
 70
     0
300
4:1
140
4.0
141
1.0
290
     0
  0
SCALE
  5
500F
102
{ACAD_REACTORS
330
5000
102
}
330
5000
100
AcDbScale
 70
     0
300
8:1
140
8.0
141
1.0
290
     0
  0
SCALE
  5
5010
102
{ACAD_REACTORS
330
5000
102
}
330
5000
100
AcDbScale
 70
     0
300
10:1
140
10.0
141
1.0
290
     0
  0
SCALE
  5
5011
102
{ACAD_REACTORS
330
5000
102
}
330
5000
100
AcDbScale
 70
     0
300
100:1
140
100.0
141
1.0
290
     0
  0
SCALE
  5
5012
102
{ACAD_REACTORS
330
5000
102
}
330
5000
100
AcDbScale
 70
     0
300
1/128" = 1'-0"
140
0.0078125
141
12.0
290
     0
  0
SCALE
  5
5013
102
{ACAD_REACTORS
330
5000
102
}
330
5000
100
AcDbScale
 70
     0
300
1/64" = 1'-0"
140
0.015625
141
12.0
290
     0
  0
SCALE
  5
5014
102
{ACAD_REACTORS
330
5000
102
}
330
5000
100
AcDbScale
 70
     0
300
1/32" = 1'-0"
140
0.03125
141
12.0
290
     0
  0
SCALE
  5
5015
102
{ACAD_REACTORS
330
5000
102
}
330
5000
100
AcDbScale
 70
     0
300
1/16" = 1'-0"
140
0.0625
141
12.0
290
     0
  0
SCALE
  5
5016
102
{ACAD_REACTORS
330
5000
102
}
330
5000
100
AcDbScale
 70
     0
300
3/32" = 1'-0"
140
0.09375
141
12.0
290
     0
  0
SCALE
  5
5017
102
{ACAD_REACTORS
330
5000
102
}
330
5000
100
AcDbScale
 70
     0
300
1/8" = 1'-0"
140
0.125
141
12.0
290
     0
  0
SCALE
  5
5018
102
{ACAD_REACTORS
330
5000
102
}
330
5000
100
AcDbScale
 70
     0
300
3/16" = 1'-0"
140
0.1875
141
12.0
290
     0
  0
SCALE
  5
5019
102
{ACAD_REACTORS
330
5000
102
}
330
5000
100
AcDbScale
 70
     0
300
1/4" = 1'-0"
140
0.25
141
12.0
290
     0
  0
SCALE
  5
501A
102
{ACAD_REACTORS
330
5000
102
}
330
5000
100
AcDbScale
 70
     0
300
3/8" = 1'-0"
140
0.375
141
12.0
290
     0
  0
SCALE
  5
501B
102
{ACAD_REACTORS
330
5000
102
}
330
5000
100
AcDbScale
 70
     0
300
1/2" = 1'-0"
140
0.5
141
12.0
290
     0
  0
SCALE
  5
501C
102
{ACAD_REACTORS
330
5000
102
}
330
5000
100
AcDbScale
 70
     0
300
3/4" = 1'-0"
140
0.75
141
12.0
290
     0
  0
SCALE
  5
501D
102
{ACAD_REACTORS
330
5000
102
}
330
5000
100
AcDbScale
 70
     0
300
1" = 1'-0"
140
1.0
141
12.0
290
     0
  0
SCALE
  5
501E
102
{ACAD_REACTORS
330
5000
102
}
330
5000
100
AcDbScale
 70
     0
300
1-1/2" = 1'-0"
140
1.5
141
12.0
290
     0
  0
SCALE
  5
501F
102
{ACAD_REACTORS
330
5000
102
}
330
5000
100
AcDbScale
 70
     0
300
3" = 1'-0"
140
3.0
141
12.0
290
     0
  0
SCALE
  5
5020
102
{ACAD_REACTORS
330
5000
102
}
330
5000
100
AcDbScale
 70
     0
300
6" = 1'-0"
140
6.0
141
12.0
290
     0
  0
SCALE
  5
5021
102
{ACAD_REACTORS
330
5000
102
}
330
5000
100
AcDbScale
 70
     0
300
1'-0" = 1'-0"
140
12.0
141
12.0
290
     0
  0
TABLESTYLE
  5
4FFF
102
{ACAD_XDICTIONARY
360
50D6
102
}
102
{ACAD_REACTORS
330
4FE3
102
}
330
4FE3
100
AcDbTableStyle
  3
Standard
 70
     0
 71
     0
 40
0.06
 41
0.06
280
     0
281
     0
  7
Standard
140
0.18
170
     2
 62
     0
 63
     7
283
     0
274
    -2
284
     1
 64
     0
275
    -2
285
     1
 65
     0
276
    -2
286
     1
 66
     0
277
    -2
287
     1
 67
     0
278
    -2
288
     1
 68
     0
279
    -2
289
     1
 69
     0
  7
Standard
140
0.25
170
     5
 62
     0
 63
     7
283
     0
274
    -2
284
     1
 64
     0
275
    -2
285
     1
 65
     0
276
    -2
286
     1
 66
     0
277
    -2
287
     1
 67
     0
278
    -2
288
     1
 68
     0
279
    -2
289
     1
 69
     0
  7
Standard
140
0.18
170
     5
 62
     0
 63
     7
283
     0
274
    -2
284
     1
 64
     0
275
    -2
285
     1
 65
     0
276
    -2
286
     1
 66
     0
277
    -2
287
     1
 67
     0
278
    -2
288
     1
 68
     0
279
    -2
289
     1
 69
     0
  0
VISUALSTYLE
  5
2F
102
{ACAD_REACTORS
330
2A
102
}
330
2A
100
AcDbVisualStyle
  2
2dWireframe
 70
     4
 71
     0
 72
     2
 73
     0
 90
        0
 40
-0.6
 41
-30.0
 62
     5
 63
     7
 74
     1
 91
        4
 64
     7
 65
   257
 75
     1
175
     1
 42
1.0
 92
        0
 66
   257
 43
1.0
 76
     1
 77
     6
 78
     2
 67
     7
 79
     5
170
     0
171
     0
290
     0
174
     0
 93
        1
 44
0.0
173
     0
291
     0
 45
0.0
1001
ACAD
1000
AcDbSavedByObjectVersion
1070
     0
1000
AcDbSavedByObjectVersion
1070
     0
1000
AcDbSavedByObjectVersion
1070
     0
1000
AcDbSavedByObjectVersion
1070
     0
1000
AcDbSavedByObjectVersion
1070
     0
1000
AcDbSavedByObjectVersion
1070
     0
1000
AcDbSavedByObjectVersion
1070
     0
1000
AcDbSavedByObjectVersion
1070
     0
1000
AcDbSavedByObjectVersion
1070
     0
1000
AcDbSavedByObjectVersion
1070
     0
1000
AcDbSavedByObjectVersion
1070
     0
1000
AcDbSavedByObjectVersion
1070
     0
1000
AcDbSavedByObjectVersion
1070
     0
1000
AcDbSavedByObjectVersion
1070
     0
1000
AcDbSavedByObjectVersion
1070
     0
1000
AcDbSavedByObjectVersion
1070
     0
1000
AcDbSavedByObjectVersion
1070
     0
1000
AcDbSavedByObjectVersion
1070
     0
1000
AcDbSavedByObjectVersion
1070
     0
1000
AcDbSavedByObjectVersion
1070
     0
1000
AcDbSavedByObjectVersion
1070
     0
1000
AcDbSavedByObjectVersion
1070
     0
1000
AcDbSavedByObjectVersion
1070
     0
1000
AcDbSavedByObjectVersion
1070
     0
1000
AcDbSavedByObjectVersion
1070
     0
1000
AcDbSavedByObjectVersion
1070
     0
1000
AcDbSavedByObjectVersion
1070
     0
1000
AcDbSavedByObjectVersion
1070
     0
1000
AcDbSavedByObjectVersion
1070
     0
1000
AcDbSavedByObjectVersion
1070
     0
1000
AcDbSavedByObjectVersion
1070
     0
1000
AcDbSavedByObjectVersion
1070
     0
1000
AcDbSavedByObjectVersion
1070
     0
1000
AcDbSavedByObjectVersion
1070
     0
1000
AcDbSavedByObjectVersion
1070
     0
1000
AcDbSavedByObjectVersion
1070
     0
1000
AcDbSavedByObjectVersion
1070
     0
1000
AcDbSavedByObjectVersion
1070
     0
1000
AcDbSavedByObjectVersion
1070
     0
1000
AcDbSavedByObjectVersion
1070
     0
1000
AcDbSavedByObjectVersion
1070
     0
1000
AcDbSavedByObjectVersion
1070
     0
  0
VISUALSTYLE
  5
31
102
{ACAD_REACTORS
330
2A
102
}
330
2A
100
AcDbVisualStyle
  2
3D Hidden
 70
     6
 71
     1
 72
     2
 73
     2
 90
        0
 40
-0.6
 41
-30.0
 62
     5
 63
     7
 74
     2
 91
        2
 64
     7
 65
   257
 75
     2
175
     1
 42
40.0
 92
        0
 66
   257
 43
1.0
 76
     1
 77
     6
 78
     2
 67
     7
 79
     3
170
     0
171
     0
290
     0
174
     0
 93
        1
 44
0.0
173
     0
291
     0
 45
0.0
1001
ACAD
1000
AcDbSavedByObjectVersion
1070
     0
1000
AcDbSavedByObjectVersion
1070
     0
1000
AcDbSavedByObjectVersion
1070
     0
1000
AcDbSavedByObjectVersion
1070
     0
1000
AcDbSavedByObjectVersion
1070
     0
1000
AcDbSavedByObjectVersion
1070
     0
1000
AcDbSavedByObjectVersion
1070
     0
1000
AcDbSavedByObjectVersion
1070
     0
1000
AcDbSavedByObjectVersion
1070
     0
1000
AcDbSavedByObjectVersion
1070
     0
1000
AcDbSavedByObjectVersion
1070
     0
1000
AcDbSavedByObjectVersion
1070
     0
1000
AcDbSavedByObjectVersion
1070
     0
1000
AcDbSavedByObjectVersion
1070
     0
1000
AcDbSavedByObjectVersion
1070
     0
1000
AcDbSavedByObjectVersion
1070
     0
1000
AcDbSavedByObjectVersion
1070
     0
1000
AcDbSavedByObjectVersion
1070
     0
1000
AcDbSavedByObjectVersion
1070
     0
1000
AcDbSavedByObjectVersion
1070
     0
1000
AcDbSavedByObjectVersion
1070
     0
1000
AcDbSavedByObjectVersion
1070
     0
1000
AcDbSavedByObjectVersion
1070
     0
1000
AcDbSavedByObjectVersion
1070
     0
1000
AcDbSavedByObjectVersion
1070
     0
1000
AcDbSavedByObjectVersion
1070
     0
1000
AcDbSavedByObjectVersion
1070
     0
1000
AcDbSavedByObjectVersion
1070
     0
1000
AcDbSavedByObjectVersion
1070
     0
1000
AcDbSavedByObjectVersion
1070
     0
1000
AcDbSavedByObjectVersion
1070
     0
1000
AcDbSavedByObjectVersion
1070
     0
1000
AcDbSavedByObjectVersion
1070
     0
1000
AcDbSavedByObjectVersion
1070
     0
1000
AcDbSavedByObjectVersion
1070
     0
1000
AcDbSavedByObjectVersion
1070
     0
1000
AcDbSavedByObjectVersion
1070
     0
1000
AcDbSavedByObjectVersion
1070
     0
1000
AcDbSavedByObjectVersion
1070
     0
1000
AcDbSavedByObjectVersion
1070
     0
1000
AcDbSavedByObjectVersion
1070
     0
1000
AcDbSavedByObjectVersion
1070
     0
  0
VISUALSTYLE
  5
30
102
{ACAD_REACTORS
330
2A
102
}
330
2A
100
AcDbVisualStyle
  2
3dWireframe
 70
     5
 71
     0
 72
     2
 73
     0
 90
        0
 40
-0.6
 41
-30.0
 62
     5
 63
     7
 74
     1
 91
        4
 64
     7
 65
   257
 75
     1
175
     1
 42
1.0
 92
        0
 66
   257
 43
1.0
 76
     1
 77
     6
 78
     2
 67
     7
 79
     5
170
     0
171
     0
290
     0
174
     0
 93
        1
 44
0.0
173
     0
291
     0
 45
0.0
1001
ACAD
1000
AcDbSavedByObjectVersion
1070
     0
1000
AcDbSavedByObjectVersion
1070
     0
1000
AcDbSavedByObjectVersion
1070
     0
1000
AcDbSavedByObjectVersion
1070
     0
1000
AcDbSavedByObjectVersion
1070
     0
1000
AcDbSavedByObjectVersion
1070
     0
1000
AcDbSavedByObjectVersion
1070
     0
1000
AcDbSavedByObjectVersion
1070
     0
1000
AcDbSavedByObjectVersion
1070
     0
1000
AcDbSavedByObjectVersion
1070
     0
1000
AcDbSavedByObjectVersion
1070
     0
1000
AcDbSavedByObjectVersion
1070
     0
1000
AcDbSavedByObjectVersion
1070
     0
1000
AcDbSavedByObjectVersion
1070
     0
1000
AcDbSavedByObjectVersion
1070
     0
1000
AcDbSavedByObjectVersion
1070
     0
1000
AcDbSavedByObjectVersion
1070
     0
1000
AcDbSavedByObjectVersion
1070
     0
1000
AcDbSavedByObjectVersion
1070
     0
1000
AcDbSavedByObjectVersion
1070
     0
1000
AcDbSavedByObjectVersion
1070
     0
1000
AcDbSavedByObjectVersion
1070
     0
1000
AcDbSavedByObjectVersion
1070
     0
1000
AcDbSavedByObjectVersion
1070
     0
1000
AcDbSavedByObjectVersion
1070
     0
1000
AcDbSavedByObjectVersion
1070
     0
1000
AcDbSavedByObjectVersion
1070
     0
1000
AcDbSavedByObjectVersion
1070
     0
1000
AcDbSavedByObjectVersion
1070
     0
1000
AcDbSavedByObjectVersion
1070
     0
1000
AcDbSavedByObjectVersion
1070
     0
1000
AcDbSavedByObjectVersion
1070
     0
1000
AcDbSavedByObjectVersion
1070
     0
1000
AcDbSavedByObjectVersion
1070
     0
1000
AcDbSavedByObjectVersion
1070
     0
1000
AcDbSavedByObjectVersion
1070
     0
1000
AcDbSavedByObjectVersion
1070
     0
1000
AcDbSavedByObjectVersion
1070
     0
1000
AcDbSavedByObjectVersion
1070
     0
1000
AcDbSavedByObjectVersion
1070
     0
1000
AcDbSavedByObjectVersion
1070
     0
1000
AcDbSavedByObjectVersion
1070
     0
  0
VISUALSTYLE
  5
32
102
{ACAD_REACTORS
330
2A
102
}
330
2A
100
AcDbVisualStyle
  2
Basic
 70
     7
 71
     1
 72
     0
 73
     1
 90
        0
 40
-0.6
 41
-30.0
 62
     5
 63
     7
 74
     0
 91
        4
 64
     7
 65
   257
 75
     1
175
     1
 42
1.0
 92
        8
 66
     7
 43
1.0
 76
     1
 77
     6
 78
     2
 67
     7
 79
     5
170
     0
171
     0
290
     0
174
     0
 93
        1
 44
0.0
173
     0
291
     1
 45
0.0
1001
ACAD
1000
AcDbSavedByObjectVersion
1070
     0
1000
AcDbSavedByObjectVersion
1070
     0
1000
AcDbSavedByObjectVersion
1070
     0
1000
AcDbSavedByObjectVersion
1070
     0
1000
AcDbSavedByObjectVersion
1070
     0
1000
AcDbSavedByObjectVersion
1070
     0
1000
AcDbSavedByObjectVersion
1070
     0
1000
AcDbSavedByObjectVersion
1070
     0
1000
AcDbSavedByObjectVersion
1070
     0
1000
AcDbSavedByObjectVersion
1070
     0
1000
AcDbSavedByObjectVersion
1070
     0
1000
AcDbSavedByObjectVersion
1070
     0
1000
AcDbSavedByObjectVersion
1070
     0
1000
AcDbSavedByObjectVersion
1070
     0
1000
AcDbSavedByObjectVersion
1070
     0
1000
AcDbSavedByObjectVersion
1070
     0
1000
AcDbSavedByObjectVersion
1070
     0
1000
AcDbSavedByObjectVersion
1070
     0
1000
AcDbSavedByObjectVersion
1070
     0
1000
AcDbSavedByObjectVersion
1070
     0
1000
AcDbSavedByObjectVersion
1070
     0
1000
AcDbSavedByObjectVersion
1070
     0
1000
AcDbSavedByObjectVersion
1070
     0
1000
AcDbSavedByObjectVersion
1070
     0
1000
AcDbSavedByObjectVersion
1070
     0
1000
AcDbSavedByObjectVersion
1070
     0
1000
AcDbSavedByObjectVersion
1070
     0
1000
AcDbSavedByObjectVersion
1070
     0
1000
AcDbSavedByObjectVersion
1070
     0
1000
AcDbSavedByObjectVersion
1070
     0
1000
AcDbSavedByObjectVersion
1070
     0
1000
AcDbSavedByObjectVersion
1070
     0
1000
AcDbSavedByObjectVersion
1070
     0
1000
AcDbSavedByObjectVersion
1070
     0
1000
AcDbSavedByObjectVersion
1070
     0
1000
AcDbSavedByObjectVersion
1070
     0
1000
AcDbSavedByObjectVersion
1070
     0
1000
AcDbSavedByObjectVersion
1070
     0
1000
AcDbSavedByObjectVersion
1070
     0
1000
AcDbSavedByObjectVersion
1070
     0
1000
AcDbSavedByObjectVersion
1070
     0
1000
AcDbSavedByObjectVersion
1070
     0
  0
VISUALSTYLE
  5
36
102
{ACAD_REACTORS
330
2A
102
}
330
2A
100
AcDbVisualStyle
  2
Brighten
 70
    12
 71
     2
 72
     2
 73
     0
 90
        0
 40
-0.6
 41
-30.0
 62
     5
 63
     7
 74
     1
 91
        4
 64
     7
 65
   257
 75
     1
175
     1
 42
1.0
 92
        8
 66
     7
 43
1.0
 76
     1
 77
     6
 78
     2
 67
     7
 79
     5
170
     0
171
     0
290
     0
174
     0
 93
        1
 44
50.0
173
     0
291
     1
 45
0.0
1001
ACAD
1000
AcDbSavedByObjectVersion
1070
     0
1000
AcDbSavedByObjectVersion
1070
     0
1000
AcDbSavedByObjectVersion
1070
     0
1000
AcDbSavedByObjectVersion
1070
     0
1000
AcDbSavedByObjectVersion
1070
     0
1000
AcDbSavedByObjectVersion
1070
     0
1000
AcDbSavedByObjectVersion
1070
     0
1000
AcDbSavedByObjectVersion
1070
     0
1000
AcDbSavedByObjectVersion
1070
     0
1000
AcDbSavedByObjectVersion
1070
     0
1000
AcDbSavedByObjectVersion
1070
     0
1000
AcDbSavedByObjectVersion
1070
     0
1000
AcDbSavedByObjectVersion
1070
     0
1000
AcDbSavedByObjectVersion
1070
     0
1000
AcDbSavedByObjectVersion
1070
     0
1000
AcDbSavedByObjectVersion
1070
     0
1000
AcDbSavedByObjectVersion
1070
     0
1000
AcDbSavedByObjectVersion
1070
     0
1000
AcDbSavedByObjectVersion
1070
     0
1000
AcDbSavedByObjectVersion
1070
     0
1000
AcDbSavedByObjectVersion
1070
     0
1000
AcDbSavedByObjectVersion
1070
     0
1000
AcDbSavedByObjectVersion
1070
     0
1000
AcDbSavedByObjectVersion
1070
     0
1000
AcDbSavedByObjectVersion
1070
     0
1000
AcDbSavedByObjectVersion
1070
     0
1000
AcDbSavedByObjectVersion
1070
     0
1000
AcDbSavedByObjectVersion
1070
     0
1000
AcDbSavedByObjectVersion
1070
     0
1000
AcDbSavedByObjectVersion
1070
     0
1000
AcDbSavedByObjectVersion
1070
     0
1000
AcDbSavedByObjectVersion
1070
     0
1000
AcDbSavedByObjectVersion
1070
     0
1000
AcDbSavedByObjectVersion
1070
     0
1000
AcDbSavedByObjectVersion
1070
     0
1000
AcDbSavedByObjectVersion
1070
     0
1000
AcDbSavedByObjectVersion
1070
     0
1000
AcDbSavedByObjectVersion
1070
     0
1000
AcDbSavedByObjectVersion
1070
     0
1000
AcDbSavedByObjectVersion
1070
     0
1000
AcDbSavedByObjectVersion
1070
     0
1000
AcDbSavedByObjectVersion
1070
     0
  0
VISUALSTYLE
  5
3A
102
{ACAD_REACTORS
330
2A
102
}
330
2A
100
AcDbVisualStyle
  2
ColorChange
 70
    16
 71
     2
 72
     2
 73
     3
 90
        0
 40
-0.6
 41
-30.0
 62
     5
 63
     8
 74
     1
 91
        4
 64
     7
 65
   257
 75
     1
175
     1
 42
1.0
 92
        8
 66
     8
 43
1.0
 76
     1
 77
     6
 78
     2
 67
     7
 79
     5
170
     0
171
     0
290
     0
174
     0
 93
        1
 44
0.0
173
     0
291
     1
 45
0.0
1001
ACAD
1000
AcDbSavedByObjectVersion
1070
     0
1000
AcDbSavedByObjectVersion
1070
     0
1000
AcDbSavedByObjectVersion
1070
     0
1000
AcDbSavedByObjectVersion
1070
     0
1000
AcDbSavedByObjectVersion
1070
     0
1000
AcDbSavedByObjectVersion
1070
     0
1000
AcDbSavedByObjectVersion
1070
     0
1000
AcDbSavedByObjectVersion
1070
     0
1000
AcDbSavedByObjectVersion
1070
     0
1000
AcDbSavedByObjectVersion
1070
     0
1000
AcDbSavedByObjectVersion
1070
     0
1000
AcDbSavedByObjectVersion
1070
     0
1000
AcDbSavedByObjectVersion
1070
     0
1000
AcDbSavedByObjectVersion
1070
     0
1000
AcDbSavedByObjectVersion
1070
     0
1000
AcDbSavedByObjectVersion
1070
     0
1000
AcDbSavedByObjectVersion
1070
     0
1000
AcDbSavedByObjectVersion
1070
     0
1000
AcDbSavedByObjectVersion
1070
     0
1000
AcDbSavedByObjectVersion
1070
     0
1000
AcDbSavedByObjectVersion
1070
     0
1000
AcDbSavedByObjectVersion
1070
     0
1000
AcDbSavedByObjectVersion
1070
     0
1000
AcDbSavedByObjectVersion
1070
     0
1000
AcDbSavedByObjectVersion
1070
     0
1000
AcDbSavedByObjectVersion
1070
     0
1000
AcDbSavedByObjectVersion
1070
     0
1000
AcDbSavedByObjectVersion
1070
     0
1000
AcDbSavedByObjectVersion
1070
     0
1000
AcDbSavedByObjectVersion
1070
     0
1000
AcDbSavedByObjectVersion
1070
     0
1000
AcDbSavedByObjectVersion
1070
     0
1000
AcDbSavedByObjectVersion
1070
     0
1000
AcDbSavedByObjectVersion
1070
     0
1000
AcDbSavedByObjectVersion
1070
     0
1000
AcDbSavedByObjectVersion
1070
     0
1000
AcDbSavedByObjectVersion
1070
     0
1000
AcDbSavedByObjectVersion
1070
     0
1000
AcDbSavedByObjectVersion
1070
     0
1000
AcDbSavedByObjectVersion
1070
     0
1000
AcDbSavedByObjectVersion
1070
     0
1000
AcDbSavedByObjectVersion
1070
     0
  0
VISUALSTYLE
  5
34
102
{ACAD_REACTORS
330
2A
102
}
330
2A
100
AcDbVisualStyle
  2
Conceptual
 70
     9
 71
     3
 72
     2
 73
     0
 90
        0
 40
-0.6
 41
-30.0
 62
     5
 63
     7
 74
     2
 91
        2
 64
     7
 65
   257
 75
     1
175
     1
 42
40.0
 92
        8
 66
     7
 43
1.0
 76
     1
 77
     6
 78
     2
 67
     7
 79
     3
170
     0
171
     0
290
     0
174
     0
 93
        1
 44
0.0
173
     0
291
     0
 45
0.0
1001
ACAD
1000
AcDbSavedByObjectVersion
1070
     0
1000
AcDbSavedByObjectVersion
1070
     0
1000
AcDbSavedByObjectVersion
1070
     0
1000
AcDbSavedByObjectVersion
1070
     0
1000
AcDbSavedByObjectVersion
1070
     0
1000
AcDbSavedByObjectVersion
1070
     0
1000
AcDbSavedByObjectVersion
1070
     0
1000
AcDbSavedByObjectVersion
1070
     0
1000
AcDbSavedByObjectVersion
1070
     0
1000
AcDbSavedByObjectVersion
1070
     0
1000
AcDbSavedByObjectVersion
1070
     0
1000
AcDbSavedByObjectVersion
1070
     0
1000
AcDbSavedByObjectVersion
1070
     0
1000
AcDbSavedByObjectVersion
1070
     0
1000
AcDbSavedByObjectVersion
1070
     0
1000
AcDbSavedByObjectVersion
1070
     0
1000
AcDbSavedByObjectVersion
1070
     0
1000
AcDbSavedByObjectVersion
1070
     0
1000
AcDbSavedByObjectVersion
1070
     0
1000
AcDbSavedByObjectVersion
1070
     0
1000
AcDbSavedByObjectVersion
1070
     0
1000
AcDbSavedByObjectVersion
1070
     0
1000
AcDbSavedByObjectVersion
1070
     0
1000
AcDbSavedByObjectVersion
1070
     0
1000
AcDbSavedByObjectVersion
1070
     0
1000
AcDbSavedByObjectVersion
1070
     0
1000
AcDbSavedByObjectVersion
1070
     0
1000
AcDbSavedByObjectVersion
1070
     0
1000
AcDbSavedByObjectVersion
1070
     0
1000
AcDbSavedByObjectVersion
1070
     0
1000
AcDbSavedByObjectVersion
1070
     0
1000
AcDbSavedByObjectVersion
1070
     0
1000
AcDbSavedByObjectVersion
1070
     0
1000
AcDbSavedByObjectVersion
1070
     0
1000
AcDbSavedByObjectVersion
1070
     0
1000
AcDbSavedByObjectVersion
1070
     0
1000
AcDbSavedByObjectVersion
1070
     0
1000
AcDbSavedByObjectVersion
1070
     0
1000
AcDbSavedByObjectVersion
1070
     0
1000
AcDbSavedByObjectVersion
1070
     0
1000
AcDbSavedByObjectVersion
1070
     0
1000
AcDbSavedByObjectVersion
1070
     0
  0
VISUALSTYLE
  5
35
102
{ACAD_REACTORS
330
2A
102
}
330
2A
100
AcDbVisualStyle
  2
Dim
 70
    11
 71
     2
 72
     2
 73
     0
 90
        0
 40
-0.6
 41
-30.0
 62
     5
 63
     7
 74
     1
 91
        4
 64
     7
 65
   257
 75
     1
175
     1
 42
1.0
 92
        8
 66
     7
 43
1.0
 76
     1
 77
     6
 78
     2
 67
     7
 79
     5
170
     0
171
     0
290
     0
174
     0
 93
        1
 44
-50.0
173
     0
291
     1
 45
0.0
1001
ACAD
1000
AcDbSavedByObjectVersion
1070
     0
1000
AcDbSavedByObjectVersion
1070
     0
1000
AcDbSavedByObjectVersion
1070
     0
1000
AcDbSavedByObjectVersion
1070
     0
1000
AcDbSavedByObjectVersion
1070
     0
1000
AcDbSavedByObjectVersion
1070
     0
1000
AcDbSavedByObjectVersion
1070
     0
1000
AcDbSavedByObjectVersion
1070
     0
1000
AcDbSavedByObjectVersion
1070
     0
1000
AcDbSavedByObjectVersion
1070
     0
1000
AcDbSavedByObjectVersion
1070
     0
1000
AcDbSavedByObjectVersion
1070
     0
1000
AcDbSavedByObjectVersion
1070
     0
1000
AcDbSavedByObjectVersion
1070
     0
1000
AcDbSavedByObjectVersion
1070
     0
1000
AcDbSavedByObjectVersion
1070
     0
1000
AcDbSavedByObjectVersion
1070
     0
1000
AcDbSavedByObjectVersion
1070
     0
1000
AcDbSavedByObjectVersion
1070
     0
1000
AcDbSavedByObjectVersion
1070
     0
1000
AcDbSavedByObjectVersion
1070
     0
1000
AcDbSavedByObjectVersion
1070
     0
1000
AcDbSavedByObjectVersion
1070
     0
1000
AcDbSavedByObjectVersion
1070
     0
1000
AcDbSavedByObjectVersion
1070
     0
1000
AcDbSavedByObjectVersion
1070
     0
1000
AcDbSavedByObjectVersion
1070
     0
1000
AcDbSavedByObjectVersion
1070
     0
1000
AcDbSavedByObjectVersion
1070
     0
1000
AcDbSavedByObjectVersion
1070
     0
1000
AcDbSavedByObjectVersion
1070
     0
1000
AcDbSavedByObjectVersion
1070
     0
1000
AcDbSavedByObjectVersion
1070
     0
1000
AcDbSavedByObjectVersion
1070
     0
1000
AcDbSavedByObjectVersion
1070
     0
1000
AcDbSavedByObjectVersion
1070
     0
1000
AcDbSavedByObjectVersion
1070
     0
1000
AcDbSavedByObjectVersion
1070
     0
1000
AcDbSavedByObjectVersion
1070
     0
1000
AcDbSavedByObjectVersion
1070
     0
1000
AcDbSavedByObjectVersion
1070
     0
1000
AcDbSavedByObjectVersion
1070
     0
  0
VISUALSTYLE
  5
39
102
{ACAD_REACTORS
330
2A
102
}
330
2A
100
AcDbVisualStyle
  2
Facepattern
 70
    15
 71
     2
 72
     2
 73
     0
 90
        0
 40
-0.6
 41
-30.0
 62
     5
 63
     7
 74
     1
 91
        4
 64
     7
 65
   257
 75
     1
175
     1
 42
1.0
 92
        8
 66
     7
 43
1.0
 76
     1
 77
     6
 78
     2
 67
     7
 79
     5
170
     0
171
     0
290
     0
174
     0
 93
        1
 44
0.0
173
     0
291
     1
 45
0.0
1001
ACAD
1000
AcDbSavedByObjectVersion
1070
     0
1000
AcDbSavedByObjectVersion
1070
     0
1000
AcDbSavedByObjectVersion
1070
     0
1000
AcDbSavedByObjectVersion
1070
     0
1000
AcDbSavedByObjectVersion
1070
     0
1000
AcDbSavedByObjectVersion
1070
     0
1000
AcDbSavedByObjectVersion
1070
     0
1000
AcDbSavedByObjectVersion
1070
     0
1000
AcDbSavedByObjectVersion
1070
     0
1000
AcDbSavedByObjectVersion
1070
     0
1000
AcDbSavedByObjectVersion
1070
     0
1000
AcDbSavedByObjectVersion
1070
     0
1000
AcDbSavedByObjectVersion
1070
     0
1000
AcDbSavedByObjectVersion
1070
     0
1000
AcDbSavedByObjectVersion
1070
     0
1000
AcDbSavedByObjectVersion
1070
     0
1000
AcDbSavedByObjectVersion
1070
     0
1000
AcDbSavedByObjectVersion
1070
     0
1000
AcDbSavedByObjectVersion
1070
     0
1000
AcDbSavedByObjectVersion
1070
     0
1000
AcDbSavedByObjectVersion
1070
     0
1000
AcDbSavedByObjectVersion
1070
     0
1000
AcDbSavedByObjectVersion
1070
     0
1000
AcDbSavedByObjectVersion
1070
     0
1000
AcDbSavedByObjectVersion
1070
     0
1000
AcDbSavedByObjectVersion
1070
     0
1000
AcDbSavedByObjectVersion
1070
     0
1000
AcDbSavedByObjectVersion
1070
     0
1000
AcDbSavedByObjectVersion
1070
     0
1000
AcDbSavedByObjectVersion
1070
     0
1000
AcDbSavedByObjectVersion
1070
     0
1000
AcDbSavedByObjectVersion
1070
     0
1000
AcDbSavedByObjectVersion
1070
     0
1000
AcDbSavedByObjectVersion
1070
     0
1000
AcDbSavedByObjectVersion
1070
     0
1000
AcDbSavedByObjectVersion
1070
     0
1000
AcDbSavedByObjectVersion
1070
     0
1000
AcDbSavedByObjectVersion
1070
     0
1000
AcDbSavedByObjectVersion
1070
     0
1000
AcDbSavedByObjectVersion
1070
     0
1000
AcDbSavedByObjectVersion
1070
     0
1000
AcDbSavedByObjectVersion
1070
     0
  0
VISUALSTYLE
  5
2B
102
{ACAD_REACTORS
330
2A
102
}
330
2A
100
AcDbVisualStyle
  2
Flat
 70
     0
 71
     2
 72
     1
 73
     1
 90
        2
 40
-0.6
 41
30.0
 62
     5
 63
     7
 74
     0
 91
        4
 64
     7
 65
   257
 75
     1
175
     1
 42
1.0
 92
        8
 66
     7
 43
1.0
 76
     1
 77
     6
 78
     2
 67
     7
 79
     5
170
     0
171
     0
290
     0
174
     0
 93
       13
 44
0.0
173
     0
291
     1
 45
0.0
1001
ACAD
1000
AcDbSavedByObjectVersion
1070
     0
1000
AcDbSavedByObjectVersion
1070
     0
1000
AcDbSavedByObjectVersion
1070
     0
1000
AcDbSavedByObjectVersion
1070
     0
1000
AcDbSavedByObjectVersion
1070
     0
1000
AcDbSavedByObjectVersion
1070
     0
1000
AcDbSavedByObjectVersion
1070
     0
1000
AcDbSavedByObjectVersion
1070
     0
1000
AcDbSavedByObjectVersion
1070
     0
1000
AcDbSavedByObjectVersion
1070
     0
1000
AcDbSavedByObjectVersion
1070
     0
1000
AcDbSavedByObjectVersion
1070
     0
1000
AcDbSavedByObjectVersion
1070
     0
1000
AcDbSavedByObjectVersion
1070
     0
1000
AcDbSavedByObjectVersion
1070
     0
1000
AcDbSavedByObjectVersion
1070
     0
1000
AcDbSavedByObjectVersion
1070
     0
1000
AcDbSavedByObjectVersion
1070
     0
1000
AcDbSavedByObjectVersion
1070
     0
1000
AcDbSavedByObjectVersion
1070
     0
1000
AcDbSavedByObjectVersion
1070
     0
1000
AcDbSavedByObjectVersion
1070
     0
1000
AcDbSavedByObjectVersion
1070
     0
1000
AcDbSavedByObjectVersion
1070
     0
1000
AcDbSavedByObjectVersion
1070
     0
1000
AcDbSavedByObjectVersion
1070
     0
1000
AcDbSavedByObjectVersion
1070
     0
1000
AcDbSavedByObjectVersion
1070
     0
1000
AcDbSavedByObjectVersion
1070
     0
1000
AcDbSavedByObjectVersion
1070
     0
1000
AcDbSavedByObjectVersion
1070
     0
1000
AcDbSavedByObjectVersion
1070
     0
1000
AcDbSavedByObjectVersion
1070
     0
1000
AcDbSavedByObjectVersion
1070
     0
1000
AcDbSavedByObjectVersion
1070
     0
1000
AcDbSavedByObjectVersion
1070
     0
1000
AcDbSavedByObjectVersion
1070
     0
1000
AcDbSavedByObjectVersion
1070
     0
1000
AcDbSavedByObjectVersion
1070
     0
1000
AcDbSavedByObjectVersion
1070
     0
1000
AcDbSavedByObjectVersion
1070
     0
1000
AcDbSavedByObjectVersion
1070
     0
  0
VISUALSTYLE
  5
2C
102
{ACAD_REACTORS
330
2A
102
}
330
2A
100
AcDbVisualStyle
  2
FlatWithEdges
 70
     1
 71
     2
 72
     1
 73
     1
 90
        2
 40
-0.6
 41
30.0
 62
     5
 63
     7
 74
     1
 91
        4
 64
     7
 65
   257
 75
     1
175
     1
 42
1.0
 92
        0
 66
   257
 43
1.0
 76
     1
 77
     6
 78
     2
 67
     7
 79
     5
170
     0
171
     0
290
     0
174
     0
 93
       13
 44
0.0
173
     0
291
     1
 45
0.0
1001
ACAD
1000
AcDbSavedByObjectVersion
1070
     0
1000
AcDbSavedByObjectVersion
1070
     0
1000
AcDbSavedByObjectVersion
1070
     0
1000
AcDbSavedByObjectVersion
1070
     0
1000
AcDbSavedByObjectVersion
1070
     0
1000
AcDbSavedByObjectVersion
1070
     0
1000
AcDbSavedByObjectVersion
1070
     0
1000
AcDbSavedByObjectVersion
1070
     0
1000
AcDbSavedByObjectVersion
1070
     0
1000
AcDbSavedByObjectVersion
1070
     0
1000
AcDbSavedByObjectVersion
1070
     0
1000
AcDbSavedByObjectVersion
1070
     0
1000
AcDbSavedByObjectVersion
1070
     0
1000
AcDbSavedByObjectVersion
1070
     0
1000
AcDbSavedByObjectVersion
1070
     0
1000
AcDbSavedByObjectVersion
1070
     0
1000
AcDbSavedByObjectVersion
1070
     0
1000
AcDbSavedByObjectVersion
1070
     0
1000
AcDbSavedByObjectVersion
1070
     0
1000
AcDbSavedByObjectVersion
1070
     0
1000
AcDbSavedByObjectVersion
1070
     0
1000
AcDbSavedByObjectVersion
1070
     0
1000
AcDbSavedByObjectVersion
1070
     0
1000
AcDbSavedByObjectVersion
1070
     0
1000
AcDbSavedByObjectVersion
1070
     0
1000
AcDbSavedByObjectVersion
1070
     0
1000
AcDbSavedByObjectVersion
1070
     0
1000
AcDbSavedByObjectVersion
1070
     0
1000
AcDbSavedByObjectVersion
1070
     0
1000
AcDbSavedByObjectVersion
1070
     0
1000
AcDbSavedByObjectVersion
1070
     0
1000
AcDbSavedByObjectVersion
1070
     0
1000
AcDbSavedByObjectVersion
1070
     0
1000
AcDbSavedByObjectVersion
1070
     0
1000
AcDbSavedByObjectVersion
1070
     0
1000
AcDbSavedByObjectVersion
1070
     0
1000
AcDbSavedByObjectVersion
1070
     0
1000
AcDbSavedByObjectVersion
1070
     0
1000
AcDbSavedByObjectVersion
1070
     0
1000
AcDbSavedByObjectVersion
1070
     0
1000
AcDbSavedByObjectVersion
1070
     0
1000
AcDbSavedByObjectVersion
1070
     0
  0
VISUALSTYLE
  5
2D
102
{ACAD_REACTORS
330
2A
102
}
330
2A
100
AcDbVisualStyle
  2
Gouraud
 70
     2
 71
     2
 72
     2
 73
     1
 90
        2
 40
-0.6
 41
30.0
 62
     5
 63
     7
 74
     0
 91
        4
 64
     7
 65
   257
 75
     1
175
     1
 42
1.0
 92
        0
 66
     7
 43
1.0
 76
     1
 77
     6
 78
     2
 67
     7
 79
     5
170
     0
171
     0
290
     0
174
     0
 93
       13
 44
0.0
173
     0
291
     1
 45
0.0
1001
ACAD
1000
AcDbSavedByObjectVersion
1070
     0
1000
AcDbSavedByObjectVersion
1070
     0
1000
AcDbSavedByObjectVersion
1070
     0
1000
AcDbSavedByObjectVersion
1070
     0
1000
AcDbSavedByObjectVersion
1070
     0
1000
AcDbSavedByObjectVersion
1070
     0
1000
AcDbSavedByObjectVersion
1070
     0
1000
AcDbSavedByObjectVersion
1070
     0
1000
AcDbSavedByObjectVersion
1070
     0
1000
AcDbSavedByObjectVersion
1070
     0
1000
AcDbSavedByObjectVersion
1070
     0
1000
AcDbSavedByObjectVersion
1070
     0
1000
AcDbSavedByObjectVersion
1070
     0
1000
AcDbSavedByObjectVersion
1070
     0
1000
AcDbSavedByObjectVersion
1070
     0
1000
AcDbSavedByObjectVersion
1070
     0
1000
AcDbSavedByObjectVersion
1070
     0
1000
AcDbSavedByObjectVersion
1070
     0
1000
AcDbSavedByObjectVersion
1070
     0
1000
AcDbSavedByObjectVersion
1070
     0
1000
AcDbSavedByObjectVersion
1070
     0
1000
AcDbSavedByObjectVersion
1070
     0
1000
AcDbSavedByObjectVersion
1070
     0
1000
AcDbSavedByObjectVersion
1070
     0
1000
AcDbSavedByObjectVersion
1070
     0
1000
AcDbSavedByObjectVersion
1070
     0
1000
AcDbSavedByObjectVersion
1070
     0
1000
AcDbSavedByObjectVersion
1070
     0
1000
AcDbSavedByObjectVersion
1070
     0
1000
AcDbSavedByObjectVersion
1070
     0
1000
AcDbSavedByObjectVersion
1070
     0
1000
AcDbSavedByObjectVersion
1070
     0
1000
AcDbSavedByObjectVersion
1070
     0
1000
AcDbSavedByObjectVersion
1070
     0
1000
AcDbSavedByObjectVersion
1070
     0
1000
AcDbSavedByObjectVersion
1070
     0
1000
AcDbSavedByObjectVersion
1070
     0
1000
AcDbSavedByObjectVersion
1070
     0
1000
AcDbSavedByObjectVersion
1070
     0
1000
AcDbSavedByObjectVersion
1070
     0
1000
AcDbSavedByObjectVersion
1070
     0
1000
AcDbSavedByObjectVersion
1070
     0
  0
VISUALSTYLE
  5
2E
102
{ACAD_REACTORS
330
2A
102
}
330
2A
100
AcDbVisualStyle
  2
GouraudWithEdges
 70
     3
 71
     2
 72
     2
 73
     1
 90
        2
 40
-0.6
 41
30.0
 62
     5
 63
     7
 74
     1
 91
        4
 64
     7
 65
   257
 75
     1
175
     1
 42
1.0
 92
        0
 66
   257
 43
1.0
 76
     1
 77
     6
 78
     2
 67
     7
 79
     5
170
     0
171
     0
290
     0
174
     0
 93
       13
 44
0.0
173
     0
291
     1
 45
0.0
1001
ACAD
1000
AcDbSavedByObjectVersion
1070
     0
1000
AcDbSavedByObjectVersion
1070
     0
1000
AcDbSavedByObjectVersion
1070
     0
1000
AcDbSavedByObjectVersion
1070
     0
1000
AcDbSavedByObjectVersion
1070
     0
1000
AcDbSavedByObjectVersion
1070
     0
1000
AcDbSavedByObjectVersion
1070
     0
1000
AcDbSavedByObjectVersion
1070
     0
1000
AcDbSavedByObjectVersion
1070
     0
1000
AcDbSavedByObjectVersion
1070
     0
1000
AcDbSavedByObjectVersion
1070
     0
1000
AcDbSavedByObjectVersion
1070
     0
1000
AcDbSavedByObjectVersion
1070
     0
1000
AcDbSavedByObjectVersion
1070
     0
1000
AcDbSavedByObjectVersion
1070
     0
1000
AcDbSavedByObjectVersion
1070
     0
1000
AcDbSavedByObjectVersion
1070
     0
1000
AcDbSavedByObjectVersion
1070
     0
1000
AcDbSavedByObjectVersion
1070
     0
1000
AcDbSavedByObjectVersion
1070
     0
1000
AcDbSavedByObjectVersion
1070
     0
1000
AcDbSavedByObjectVersion
1070
     0
1000
AcDbSavedByObjectVersion
1070
     0
1000
AcDbSavedByObjectVersion
1070
     0
1000
AcDbSavedByObjectVersion
1070
     0
1000
AcDbSavedByObjectVersion
1070
     0
1000
AcDbSavedByObjectVersion
1070
     0
1000
AcDbSavedByObjectVersion
1070
     0
1000
AcDbSavedByObjectVersion
1070
     0
1000
AcDbSavedByObjectVersion
1070
     0
1000
AcDbSavedByObjectVersion
1070
     0
1000
AcDbSavedByObjectVersion
1070
     0
1000
AcDbSavedByObjectVersion
1070
     0
1000
AcDbSavedByObjectVersion
1070
     0
1000
AcDbSavedByObjectVersion
1070
     0
1000
AcDbSavedByObjectVersion
1070
     0
1000
AcDbSavedByObjectVersion
1070
     0
1000
AcDbSavedByObjectVersion
1070
     0
1000
AcDbSavedByObjectVersion
1070
     0
1000
AcDbSavedByObjectVersion
1070
     0
1000
AcDbSavedByObjectVersion
1070
     0
1000
AcDbSavedByObjectVersion
1070
     0
  0
VISUALSTYLE
  5
38
102
{ACAD_REACTORS
330
2A
102
}
330
2A
100
AcDbVisualStyle
  2
Linepattern
 70
    14
 71
     2
 72
     2
 73
     0
 90
        0
 40
-0.6
 41
-30.0
 62
     5
 63
     7
 74
     1
 91
        4
 64
     7
 65
   257
 75
     7
175
     7
 42
1.0
 92
        8
 66
     7
 43
1.0
 76
     1
 77
     6
 78
     2
 67
     7
 79
     5
170
     0
171
     0
290
     0
174
     0
 93
        1
 44
0.0
173
     0
291
     1
 45
0.0
1001
ACAD
1000
AcDbSavedByObjectVersion
1070
     0
1000
AcDbSavedByObjectVersion
1070
     0
1000
AcDbSavedByObjectVersion
1070
     0
1000
AcDbSavedByObjectVersion
1070
     0
1000
AcDbSavedByObjectVersion
1070
     0
1000
AcDbSavedByObjectVersion
1070
     0
1000
AcDbSavedByObjectVersion
1070
     0
1000
AcDbSavedByObjectVersion
1070
     0
1000
AcDbSavedByObjectVersion
1070
     0
1000
AcDbSavedByObjectVersion
1070
     0
1000
AcDbSavedByObjectVersion
1070
     0
1000
AcDbSavedByObjectVersion
1070
     0
1000
AcDbSavedByObjectVersion
1070
     0
1000
AcDbSavedByObjectVersion
1070
     0
1000
AcDbSavedByObjectVersion
1070
     0
1000
AcDbSavedByObjectVersion
1070
     0
1000
AcDbSavedByObjectVersion
1070
     0
1000
AcDbSavedByObjectVersion
1070
     0
1000
AcDbSavedByObjectVersion
1070
     0
1000
AcDbSavedByObjectVersion
1070
     0
1000
AcDbSavedByObjectVersion
1070
     0
1000
AcDbSavedByObjectVersion
1070
     0
1000
AcDbSavedByObjectVersion
1070
     0
1000
AcDbSavedByObjectVersion
1070
     0
1000
AcDbSavedByObjectVersion
1070
     0
1000
AcDbSavedByObjectVersion
1070
     0
1000
AcDbSavedByObjectVersion
1070
     0
1000
AcDbSavedByObjectVersion
1070
     0
1000
AcDbSavedByObjectVersion
1070
     0
1000
AcDbSavedByObjectVersion
1070
     0
1000
AcDbSavedByObjectVersion
1070
     0
1000
AcDbSavedByObjectVersion
1070
     0
1000
AcDbSavedByObjectVersion
1070
     0
1000
AcDbSavedByObjectVersion
1070
     0
1000
AcDbSavedByObjectVersion
1070
     0
1000
AcDbSavedByObjectVersion
1070
     0
1000
AcDbSavedByObjectVersion
1070
     0
1000
AcDbSavedByObjectVersion
1070
     0
1000
AcDbSavedByObjectVersion
1070
     0
1000
AcDbSavedByObjectVersion
1070
     0
1000
AcDbSavedByObjectVersion
1070
     0
1000
AcDbSavedByObjectVersion
1070
     0
  0
VISUALSTYLE
  5
33
102
{ACAD_REACTORS
330
2A
102
}
330
2A
100
AcDbVisualStyle
  2
Realistic
 70
     8
 71
     2
 72
     2
 73
     0
 90
        0
 40
-0.6
 41
-30.0
 62
     5
 63
     7
 74
     1
 91
        0
 64
     7
 65
   257
 75
     1
175
     1
 42
1.0
 92
        8
 66
     8
 43
1.0
 76
     1
 77
     6
 78
     2
 67
     7
 79
     5
170
     0
171
     0
290
     0
174
     0
 93
       13
 44
0.0
173
     0
291
     0
 45
0.0
1001
ACAD
1000
AcDbSavedByObjectVersion
1070
     0
1000
AcDbSavedByObjectVersion
1070
     0
1000
AcDbSavedByObjectVersion
1070
     0
1000
AcDbSavedByObjectVersion
1070
     0
1000
AcDbSavedByObjectVersion
1070
     0
1000
AcDbSavedByObjectVersion
1070
     0
1000
AcDbSavedByObjectVersion
1070
     0
1000
AcDbSavedByObjectVersion
1070
     0
1000
AcDbSavedByObjectVersion
1070
     0
1000
AcDbSavedByObjectVersion
1070
     0
1000
AcDbSavedByObjectVersion
1070
     0
1000
AcDbSavedByObjectVersion
1070
     0
1000
AcDbSavedByObjectVersion
1070
     0
1000
AcDbSavedByObjectVersion
1070
     0
1000
AcDbSavedByObjectVersion
1070
     0
1000
AcDbSavedByObjectVersion
1070
     0
1000
AcDbSavedByObjectVersion
1070
     0
1000
AcDbSavedByObjectVersion
1070
     0
1000
AcDbSavedByObjectVersion
1070
     0
1000
AcDbSavedByObjectVersion
1070
     0
1000
AcDbSavedByObjectVersion
1070
     0
1000
AcDbSavedByObjectVersion
1070
     0
1000
AcDbSavedByObjectVersion
1070
     0
1000
AcDbSavedByObjectVersion
1070
     0
1000
AcDbSavedByObjectVersion
1070
     0
1000
AcDbSavedByObjectVersion
1070
     0
1000
AcDbSavedByObjectVersion
1070
     0
1000
AcDbSavedByObjectVersion
1070
     0
1000
AcDbSavedByObjectVersion
1070
     0
1000
AcDbSavedByObjectVersion
1070
     0
1000
AcDbSavedByObjectVersion
1070
     0
1000
AcDbSavedByObjectVersion
1070
     0
1000
AcDbSavedByObjectVersion
1070
     0
1000
AcDbSavedByObjectVersion
1070
     0
1000
AcDbSavedByObjectVersion
1070
     0
1000
AcDbSavedByObjectVersion
1070
     0
1000
AcDbSavedByObjectVersion
1070
     0
1000
AcDbSavedByObjectVersion
1070
     0
1000
AcDbSavedByObjectVersion
1070
     0
1000
AcDbSavedByObjectVersion
1070
     0
1000
AcDbSavedByObjectVersion
1070
     0
1000
AcDbSavedByObjectVersion
1070
     0
  0
VISUALSTYLE
  5
37
102
{ACAD_REACTORS
330
2A
102
}
330
2A
100
AcDbVisualStyle
  2
Thicken
 70
    13
 71
     2
 72
     2
 73
     0
 90
        0
 40
-0.6
 41
-30.0
 62
     5
 63
     7
 74
     1
 91
        4
 64
     7
 65
   257
 75
     1
175
     1
 42
1.0
 92
       12
 66
     7
 43
1.0
 76
     1
 77
     6
 78
     2
 67
     7
 79
     5
170
     0
171
     0
290
     0
174
     0
 93
        1
 44
0.0
173
     0
291
     1
 45
0.0
1001
ACAD
1000
AcDbSavedByObjectVersion
1070
     0
1000
AcDbSavedByObjectVersion
1070
     0
1000
AcDbSavedByObjectVersion
1070
     0
1000
AcDbSavedByObjectVersion
1070
     0
1000
AcDbSavedByObjectVersion
1070
     0
1000
AcDbSavedByObjectVersion
1070
     0
1000
AcDbSavedByObjectVersion
1070
     0
1000
AcDbSavedByObjectVersion
1070
     0
1000
AcDbSavedByObjectVersion
1070
     0
1000
AcDbSavedByObjectVersion
1070
     0
1000
AcDbSavedByObjectVersion
1070
     0
1000
AcDbSavedByObjectVersion
1070
     0
1000
AcDbSavedByObjectVersion
1070
     0
1000
AcDbSavedByObjectVersion
1070
     0
1000
AcDbSavedByObjectVersion
1070
     0
1000
AcDbSavedByObjectVersion
1070
     0
1000
AcDbSavedByObjectVersion
1070
     0
1000
AcDbSavedByObjectVersion
1070
     0
1000
AcDbSavedByObjectVersion
1070
     0
1000
AcDbSavedByObjectVersion
1070
     0
1000
AcDbSavedByObjectVersion
1070
     0
1000
AcDbSavedByObjectVersion
1070
     0
1000
AcDbSavedByObjectVersion
1070
     0
1000
AcDbSavedByObjectVersion
1070
     0
1000
AcDbSavedByObjectVersion
1070
     0
1000
AcDbSavedByObjectVersion
1070
     0
1000
AcDbSavedByObjectVersion
1070
     0
1000
AcDbSavedByObjectVersion
1070
     0
1000
AcDbSavedByObjectVersion
1070
     0
1000
AcDbSavedByObjectVersion
1070
     0
1000
AcDbSavedByObjectVersion
1070
     0
1000
AcDbSavedByObjectVersion
1070
     0
1000
AcDbSavedByObjectVersion
1070
     0
1000
AcDbSavedByObjectVersion
1070
     0
1000
AcDbSavedByObjectVersion
1070
     0
1000
AcDbSavedByObjectVersion
1070
     0
1000
AcDbSavedByObjectVersion
1070
     0
1000
AcDbSavedByObjectVersion
1070
     0
1000
AcDbSavedByObjectVersion
1070
     0
1000
AcDbSavedByObjectVersion
1070
     0
1000
AcDbSavedByObjectVersion
1070
     0
1000
AcDbSavedByObjectVersion
1070
     0
  0
DICTIONARYVAR
  5
510B
102
{ACAD_REACTORS
330
5108
102
}
330
5108
100
DictionaryVariables
280
     0
  1
1:1
  0
DICTIONARYVAR
  5
510A
102
{ACAD_REACTORS
330
5108
102
}
330
5108
100
DictionaryVariables
280
     0
  1
STANDARD
  0
DICTIONARYVAR
  5
5109
102
{ACAD_REACTORS
330
5108
102
}
330
5108
100
DictionaryVariables
280
     0
  1
STANDARD
  0
DICTIONARYVAR
  5
510E
102
{ACAD_REACTORS
330
5108
102
}
330
5108
100
DictionaryVariables
280
     0
  1
1
  0
DICTIONARYVAR
  5
510D
102
{ACAD_REACTORS
330
5108
102
}
330
5108
100
DictionaryVariables
280
     0
  1
0
  0
DICTIONARYVAR
  5
510C
102
{ACAD_REACTORS
330
5108
102
}
330
5108
100
DictionaryVariables
280
     0
  1
127
  0
XRECORD
  5
11ACF
102
{ACAD_REACTORS
330
11ACE
102
}
330
11ACE
100
AcDbXrecord
280
     1
330
11089
  0
DICTIONARY
  5
124DB
330
1E
100
AcDbDictionary
280
     1
281
     1
  3
ACAD_XREC_ROUNDTRIP
360
124DC
  0
DICTIONARY
  5
124DF
330
26
100
AcDbDictionary
280
     1
281
     1
  3
ACAD_XREC_ROUNDTRIP
360
124E0
  0
DICTIONARY
  5
124DD
330
22
100
AcDbDictionary
280
     1
281
     1
  3
ACAD_XREC_ROUNDTRIP
360
124DE
  0
DICTIONARY
  5
4FEF
330
4FEE
100
AcDbDictionary
280
     1
281
     1
  3
ACAD_XREC_ROUNDTRIP
360
7C2C
  3
BUMPTILE
360
4FF1
  3
DIFFUSETILE
360
4FF0
  3
OPACITYTILE
360
4FF4
  3
REFLECTIONTILE
360
4FF3
  3
REFRACTIONTILE
360
4FF5
  3
SPECULARTILE
360
4FF2
  0
DICTIONARY
  5
4FE7
330
4FE6
100
AcDbDictionary
280
     1
281
     1
  3
ACAD_XREC_ROUNDTRIP
360
7C2B
  3
BUMPTILE
360
4FE9
  3
DIFFUSETILE
360
4FE8
  3
OPACITYTILE
360
4FEC
  3
REFLECTIONTILE
360
4FEB
  3
REFRACTIONTILE
360
4FED
  3
SPECULARTILE
360
4FEA
  0
DICTIONARY
  5
4FF7
330
4FF6
100
AcDbDictionary
280
     1
281
     1
  3
ACAD_XREC_ROUNDTRIP
360
7C2D
  3
BUMPTILE
360
4FF9
  3
DIFFUSETILE
360
4FF8
  3
OPACITYTILE
360
4FFC
  3
REFLECTIONTILE
360
4FFB
  3
REFRACTIONTILE
360
4FFD
  3
SPECULARTILE
360
4FFA
  0
DICTIONARY
  5
50D6
330
4FFF
100
AcDbDictionary
280
     1
281
     1
  3
ACAD_ROUNDTRIP_2008_TABLESTYLE_CELLSTYLEMAP
360
124BD
  3
ACAD_XREC_ROUNDTRIP
360
124E1
  0
XRECORD
  5
124DC
102
{ACAD_REACTORS
330
124DB
102
}
330
124DB
100
AcDbXrecord
280
     1
102
SHADEPLOT
 70
     0
102
SHADEPLOTRESLEVEL
 70
     2
102
SHADEPLOTCUSTOMDPI
 70
   300
  0
XRECORD
  5
124E0
102
{ACAD_REACTORS
330
124DF
102
}
330
124DF
100
AcDbXrecord
280
     1
102
SHADEPLOT
 70
     0
102
SHADEPLOTRESLEVEL
 70
     2
102
SHADEPLOTCUSTOMDPI
 70
   300
  0
XRECORD
  5
124DE
102
{ACAD_REACTORS
330
124DD
102
}
330
124DD
100
AcDbXrecord
280
     1
102
SHADEPLOT
 70
     1
102
SHADEPLOTRESLEVEL
 70
     2
102
SHADEPLOTCUSTOMDPI
 70
   300
  0
XRECORD
  5
7C2C
102
{ACAD_REACTORS
330
4FEF
102
}
330
4FEF
100
AcDbXrecord
280
     1
102
MATERIAL
148
0.0
149
0.0
149
0.0
 93
        0
 94
      127
282
     0
 72
     0
 77
     0
171
     0
175
     0
179
     0
273
     0
  0
XRECORD
  5
4FF1
102
{ACAD_REACTORS
330
4FEF
102
}
330
4FEF
100
AcDbXrecord
280
     1
270
     1
271
     1
  0
XRECORD
  5
4FF0
102
{ACAD_REACTORS
330
4FEF
102
}
330
4FEF
100
AcDbXrecord
280
     1
270
     1
271
     1
  0
XRECORD
  5
4FF4
102
{ACAD_REACTORS
330
4FEF
102
}
330
4FEF
100
AcDbXrecord
280
     1
270
     1
271
     1
  0
XRECORD
  5
4FF3
102
{ACAD_REACTORS
330
4FEF
102
}
330
4FEF
100
AcDbXrecord
280
     1
270
     1
271
     1
  0
XRECORD
  5
4FF5
102
{ACAD_REACTORS
330
4FEF
102
}
330
4FEF
100
AcDbXrecord
280
     1
270
     1
271
     1
  0
XRECORD
  5
4FF2
102
{ACAD_REACTORS
330
4FEF
102
}
330
4FEF
100
AcDbXrecord
280
     1
270
     1
271
     1
  0
XRECORD
  5
7C2B
102
{ACAD_REACTORS
330
4FE7
102
}
330
4FE7
100
AcDbXrecord
280
     1
102
MATERIAL
148
0.0
149
0.0
149
0.0
 93
        0
 94
      127
282
     0
 72
     0
 77
     0
171
     0
175
     0
179
     0
273
     0
  0
XRECORD
  5
4FE9
102
{ACAD_REACTORS
330
4FE7
102
}
330
4FE7
100
AcDbXrecord
280
     1
270
     1
271
     1
  0
XRECORD
  5
4FE8
102
{ACAD_REACTORS
330
4FE7
102
}
330
4FE7
100
AcDbXrecord
280
     1
270
     1
271
     1
  0
XRECORD
  5
4FEC
102
{ACAD_REACTORS
330
4FE7
102
}
330
4FE7
100
AcDbXrecord
280
     1
270
     1
271
     1
  0
XRECORD
  5
4FEB
102
{ACAD_REACTORS
330
4FE7
102
}
330
4FE7
100
AcDbXrecord
280
     1
270
     1
271
     1
  0
XRECORD
  5
4FED
102
{ACAD_REACTORS
330
4FE7
102
}
330
4FE7
100
AcDbXrecord
280
     1
270
     1
271
     1
  0
XRECORD
  5
4FEA
102
{ACAD_REACTORS
330
4FE7
102
}
330
4FE7
100
AcDbXrecord
280
     1
270
     1
271
     1
  0
XRECORD
  5
7C2D
102
{ACAD_REACTORS
330
4FF7
102
}
330
4FF7
100
AcDbXrecord
280
     1
102
MATERIAL
148
0.0
149
0.0
149
0.0
 93
        0
 94
      127
282
     0
 72
     0
 77
     0
171
     0
175
     0
179
     0
273
     0
  0
XRECORD
  5
4FF9
102
{ACAD_REACTORS
330
4FF7
102
}
330
4FF7
100
AcDbXrecord
280
     1
270
     1
271
     1
  0
XRECORD
  5
4FF8
102
{ACAD_REACTORS
330
4FF7
102
}
330
4FF7
100
AcDbXrecord
280
     1
270
     1
271
     1
  0
XRECORD
  5
4FFC
102
{ACAD_REACTORS
330
4FF7
102
}
330
4FF7
100
AcDbXrecord
280
     1
270
     1
271
     1
  0
XRECORD
  5
4FFB
102
{ACAD_REACTORS
330
4FF7
102
}
330
4FF7
100
AcDbXrecord
280
     1
270
     1
271
     1
  0
XRECORD
  5
4FFD
102
{ACAD_REACTORS
330
4FF7
102
}
330
4FF7
100
AcDbXrecord
280
     1
270
     1
271
     1
  0
XRECORD
  5
4FFA
102
{ACAD_REACTORS
330
4FF7
102
}
330
4FF7
100
AcDbXrecord
280
     1
270
     1
271
     1
  0
CELLSTYLEMAP
  5
124BD
102
{ACAD_REACTORS
330
50D6
102
}
330
50D6
100
AcDbCellStyleMap
 90
        3
300
CELLSTYLE
  1
TABLEFORMAT_BEGIN
 90
        5
170
     1
 91
        0
 92
    32768
 62
   257
 93
        1
300
CONTENTFORMAT
  1
CONTENTFORMAT_BEGIN
 90
        0
 91
        0
 92
      512
 93
        0
300

 40
0.0
140
1.0
 94
        5
 62
     0
340
11
144
0.25
309
CONTENTFORMAT_END
171
     1
301
MARGIN
  1
CELLMARGIN_BEGIN
 40
0.06
 40
0.06
 40
0.06
 40
0.06
 40
0.18
 40
0.18
309
CELLMARGIN_END
 94
        6
 95
        1
302
GRIDFORMAT
  1
GRIDFORMAT_BEGIN
 90
        0
 91
        1
 62
     0
 92
       -2
340
0
 93
        0
 40
0.045
309
GRIDFORMAT_END
 95
        2
302
GRIDFORMAT
  1
GRIDFORMAT_BEGIN
 90
        0
 91
        1
 62
     0
 92
       -2
340
0
 93
        0
 40
0.045
309
GRIDFORMAT_END
 95
        4
302
GRIDFORMAT
  1
GRIDFORMAT_BEGIN
 90
        0
 91
        1
 62
     0
 92
       -2
340
0
 93
        0
 40
0.045
309
GRIDFORMAT_END
 95
        8
302
GRIDFORMAT
  1
GRIDFORMAT_BEGIN
 90
        0
 91
        1
 62
     0
 92
       -2
340
0
 93
        0
 40
0.045
309
GRIDFORMAT_END
 95
       16
302
GRIDFORMAT
  1
GRIDFORMAT_BEGIN
 90
        0
 91
        1
 62
     0
 92
       -2
340
0
 93
        0
 40
0.045
309
GRIDFORMAT_END
 95
       32
302
GRIDFORMAT
  1
GRIDFORMAT_BEGIN
 90
        0
 91
        1
 62
     0
 92
       -2
340
0
 93
        0
 40
0.045
309
GRIDFORMAT_END
309
TABLEFORMAT_END
  1
CELLSTYLE_BEGIN
 90
        1
 91
        1
300
_TITLE
309
CELLSTYLE_END
300
CELLSTYLE
  1
TABLEFORMAT_BEGIN
 90
        5
170
     1
 91
        0
 92
        0
 62
   257
 93
        1
300
CONTENTFORMAT
  1
CONTENTFORMAT_BEGIN
 90
        0
 91
        0
 92
      512
 93
        0
300

 40
0.0
140
1.0
 94
        5
 62
     0
340
11
144
0.18
309
CONTENTFORMAT_END
171
     1
301
MARGIN
  1
CELLMARGIN_BEGIN
 40
0.06
 40
0.06
 40
0.06
 40
0.06
 40
0.18
 40
0.18
309
CELLMARGIN_END
 94
        6
 95
        1
302
GRIDFORMAT
  1
GRIDFORMAT_BEGIN
 90
        0
 91
        1
 62
     0
 92
       -2
340
0
 93
        0
 40
0.045
309
GRIDFORMAT_END
 95
        2
302
GRIDFORMAT
  1
GRIDFORMAT_BEGIN
 90
        0
 91
        1
 62
     0
 92
       -2
340
0
 93
        0
 40
0.045
309
GRIDFORMAT_END
 95
        4
302
GRIDFORMAT
  1
GRIDFORMAT_BEGIN
 90
        0
 91
        1
 62
     0
 92
       -2
340
0
 93
        0
 40
0.045
309
GRIDFORMAT_END
 95
        8
302
GRIDFORMAT
  1
GRIDFORMAT_BEGIN
 90
        0
 91
        1
 62
     0
 92
       -2
340
0
 93
        0
 40
0.045
309
GRIDFORMAT_END
 95
       16
302
GRIDFORMAT
  1
GRIDFORMAT_BEGIN
 90
        0
 91
        1
 62
     0
 92
       -2
340
0
 93
        0
 40
0.045
309
GRIDFORMAT_END
 95
       32
302
GRIDFORMAT
  1
GRIDFORMAT_BEGIN
 90
        0
 91
        1
 62
     0
 92
       -2
340
0
 93
        0
 40
0.045
309
GRIDFORMAT_END
309
TABLEFORMAT_END
  1
CELLSTYLE_BEGIN
 90
        2
 91
        1
300
_HEADER
309
CELLSTYLE_END
300
CELLSTYLE
  1
TABLEFORMAT_BEGIN
 90
        5
170
     1
 91
        0
 92
        0
 62
   257
 93
        1
300
CONTENTFORMAT
  1
CONTENTFORMAT_BEGIN
 90
        0
 91
        0
 92
      512
 93
        0
300

 40
0.0
140
1.0
 94
        2
 62
     0
340
11
144
0.18
309
CONTENTFORMAT_END
171
     1
301
MARGIN
  1
CELLMARGIN_BEGIN
 40
0.06
 40
0.06
 40
0.06
 40
0.06
 40
0.18
 40
0.18
309
CELLMARGIN_END
 94
        6
 95
        1
302
GRIDFORMAT
  1
GRIDFORMAT_BEGIN
 90
        0
 91
        1
 62
     0
 92
       -2
340
0
 93
        0
 40
0.045
309
GRIDFORMAT_END
 95
        2
302
GRIDFORMAT
  1
GRIDFORMAT_BEGIN
 90
        0
 91
        1
 62
     0
 92
       -2
340
0
 93
        0
 40
0.045
309
GRIDFORMAT_END
 95
        4
302
GRIDFORMAT
  1
GRIDFORMAT_BEGIN
 90
        0
 91
        1
 62
     0
 92
       -2
340
0
 93
        0
 40
0.045
309
GRIDFORMAT_END
 95
        8
302
GRIDFORMAT
  1
GRIDFORMAT_BEGIN
 90
        0
 91
        1
 62
     0
 92
       -2
340
0
 93
        0
 40
0.045
309
GRIDFORMAT_END
 95
       16
302
GRIDFORMAT
  1
GRIDFORMAT_BEGIN
 90
        0
 91
        1
 62
     0
 92
       -2
340
0
 93
        0
 40
0.045
309
GRIDFORMAT_END
 95
       32
302
GRIDFORMAT
  1
GRIDFORMAT_BEGIN
 90
        0
 91
        1
 62
     0
 92
       -2
340
0
 93
        0
 40
0.045
309
GRIDFORMAT_END
309
TABLEFORMAT_END
  1
CELLSTYLE_BEGIN
 90
        3
 91
        2
300
_DATA
309
CELLSTYLE_END
  0
XRECORD
  5
124E1
102
{ACAD_REACTORS
330
50D6
102
}
330
50D6
100
AcDbXrecord
280
     1
102
ACAD_ROUNDTRIP_PRE2007_TABLESTYLE
 90
      512
 91
        0
  1

 92
      512
 93
        0
  2

 94
      512
 95
        0
  3

  0
ENDSEC
  0
EOF
