  0
SECTION
  2
HEADER
  9
$ACADVER
  1
AC1015
  9
$ACADMAINTVER
 70
    20
  9
$DWGCODEPAGE
  3
ANSI_936
  9
$INSBASE
 10
0.0
 20
0.0
 30
0.0
  9
$EXTMIN
 10
375.5610728789352
 20
184.5544033008315
 30
-0.000000000000013
  9
$EXTMAX
 10
672.6292329231717
 20
394.5886679085512
 30
0.0000000000000023
  9
$LIMMIN
 10
0.0
 20
0.0
  9
$LIMMAX
 10
12.0
 20
9.0
  9
$ORTHOMODE
 70
     1
  9
$REGENMODE
 70
     1
  9
$FILLMODE
 70
     1
  9
$QTEXTMODE
 70
     0
  9
$MIRRTEXT
 70
     1
  9
$LTSCALE
 40
1.0
  9
$ATTMODE
 70
     1
  9
$TEXTSIZE
 40
0.2
  9
$TRACEWID
 40
0.05
  9
$TEXTSTYLE
  7
Standard
  9
$CLAYER
  8
0
  9
$CELTYPE
  6
ByLayer
  9
$CECOLOR
 62
   256
  9
$CELTSCALE
 40
1.0
  9
$DISPSILH
 70
     0
  9
$DIMSCALE
 40
1.0
  9
$DIMASZ
 40
3.0
  9
$DIMEXO
 40
0.2
  9
$DIMDLI
 40
0.2
  9
$DIMRND
 40
0.0
  9
$DIMDLE
 40
0.0
  9
$DIMEXE
 40
1.199999999999999
  9
$DIMTP
 40
0.0
  9
$DIMTM
 40
0.0
  9
$DIMTXT
 40
3.5
  9
$DIMCEN
 40
0.0
  9
$DIMTSZ
 40
0.0
  9
$DIMTOL
 70
     0
  9
$DIMLIM
 70
     0
  9
$DIMTIH
 70
     0
  9
$DIMTOH
 70
     0
  9
$DIMSE1
 70
     0
  9
$DIMSE2
 70
     0
  9
$DIMTAD
 70
     1
  9
$DIMZIN
 70
     8
  9
$DIMBLK
  1

  9
$DIMASO
 70
     1
  9
$DIMSHO
 70
     1
  9
$DIMPOST
  1

  9
$DIMAPOST
  1

  9
$DIMALT
 70
     0
  9
$DIMALTD
 70
     2
  9
$DIMALTF
 40
25.4
  9
$DIMLFAC
 40
1.0
  9
$DIMTOFL
 70
     0
  9
$DIMTVP
 40
0.0
  9
$DIMTIX
 70
     0
  9
$DIMSOXD
 70
     0
  9
$DIMSAH
 70
     0
  9
$DIMBLK1
  1

  9
$DIMBLK2
  1

  9
$DIMSTYLE
  2
01
  9
$DIMCLRD
 70
     1
  9
$DIMCLRE
 70
     6
  9
$DIMCLRT
 70
     4
  9
$DIMTFAC
 40
1.0
  9
$DIMGAP
 40
0.8
  9
$DIMJUST
 70
     0
  9
$DIMSD1
 70
     0
  9
$DIMSD2
 70
     0
  9
$DIMTOLJ
 70
     1
  9
$DIMTZIN
 70
     0
  9
$DIMALTZ
 70
     0
  9
$DIMALTTZ
 70
     0
  9
$DIMUPT
 70
     0
  9
$DIMDEC
 70
     1
  9
$DIMTDEC
 70
     1
  9
$DIMALTU
 70
     2
  9
$DIMALTTD
 70
     2
  9
$DIMTXSTY
  7
Romans字体
  9
$DIMAUNIT
 70
     0
  9
$DIMADEC
 70
     2
  9
$DIMALTRND
 40
0.0
  9
$DIMAZIN
 70
     2
  9
$DIMDSEP
 70
    46
  9
$DIMATFIT
 70
     3
  9
$DIMFRAC
 70
     0
  9
$DIMLDRBLK
  1

  9
$DIMLUNIT
 70
     2
  9
$DIMLWD
 70
    -2
  9
$DIMLWE
 70
    -2
  9
$DIMTMOVE
 70
     0
  9
$LUNITS
 70
     2
  9
$LUPREC
 70
     4
  9
$SKETCHINC
 40
0.1
  9
$FILLETRAD
 40
0.5
  9
$AUNITS
 70
     0
  9
$AUPREC
 70
     0
  9
$MENU
  1
.
  9
$ELEVATION
 40
0.0
  9
$PELEVATION
 40
0.0
  9
$THICKNESS
 40
0.0
  9
$LIMCHECK
 70
     0
  9
$CHAMFERA
 40
0.5
  9
$CHAMFERB
 40
0.5
  9
$CHAMFERC
 40
1.0
  9
$CHAMFERD
 40
0.0
  9
$SKPOLY
 70
     0
  9
$TDCREATE
 40
2456524.383632987
  9
$TDUCREATE
 40
2456524.050299653
  9
$TDUPDATE
 40
2460291.591375382
  9
$TDUUPDATE
 40
2460291.258042049
  9
$TDINDWG
 40
0.9034990162
  9
$TDUSRTIMER
 40
0.9034798958
  9
$USRTIMER
 70
     1
  9
$ANGBASE
 50
0.0
  9
$ANGDIR
 70
     0
  9
$PDMODE
 70
     0
  9
$PDSIZE
 40
0.0
  9
$PLINEWID
 40
0.0
  9
$SPLFRAME
 70
     0
  9
$SPLINETYPE
 70
     6
  9
$SPLINESEGS
 70
     8
  9
$HANDSEED
  5
1E5F9
  9
$SURFTAB1
 70
     6
  9
$SURFTAB2
 70
     6
  9
$SURFTYPE
 70
     6
  9
$SURFU
 70
     6
  9
$SURFV
 70
     6
  9
$UCSBASE
  2

  9
$UCSNAME
  2

  9
$UCSORG
 10
0.0
 20
0.0
 30
0.0
  9
$UCSXDIR
 10
1.0
 20
0.0
 30
0.0
  9
$UCSYDIR
 10
0.0
 20
1.0
 30
0.0
  9
$UCSORTHOREF
  2

  9
$UCSORTHOVIEW
 70
     0
  9
$UCSORGTOP
 10
0.0
 20
0.0
 30
0.0
  9
$UCSORGBOTTOM
 10
0.0
 20
0.0
 30
0.0
  9
$UCSORGLEFT
 10
0.0
 20
0.0
 30
0.0
  9
$UCSORGRIGHT
 10
0.0
 20
0.0
 30
0.0
  9
$UCSORGFRONT
 10
0.0
 20
0.0
 30
0.0
  9
$UCSORGBACK
 10
0.0
 20
0.0
 30
0.0
  9
$PUCSBASE
  2

  9
$PUCSNAME
  2

  9
$PUCSORG
 10
0.0
 20
0.0
 30
0.0
  9
$PUCSXDIR
 10
1.0
 20
0.0
 30
0.0
  9
$PUCSYDIR
 10
0.0
 20
1.0
 30
0.0
  9
$PUCSORTHOREF
  2

  9
$PUCSORTHOVIEW
 70
     0
  9
$PUCSORGTOP
 10
0.0
 20
0.0
 30
0.0
  9
$PUCSORGBOTTOM
 10
0.0
 20
0.0
 30
0.0
  9
$PUCSORGLEFT
 10
0.0
 20
0.0
 30
0.0
  9
$PUCSORGRIGHT
 10
0.0
 20
0.0
 30
0.0
  9
$PUCSORGFRONT
 10
0.0
 20
0.0
 30
0.0
  9
$PUCSORGBACK
 10
0.0
 20
0.0
 30
0.0
  9
$USERI1
 70
     0
  9
$USERI2
 70
     0
  9
$USERI3
 70
     0
  9
$USERI4
 70
     0
  9
$USERI5
 70
     0
  9
$USERR1
 40
0.0
  9
$USERR2
 40
0.0
  9
$USERR3
 40
0.0
  9
$USERR4
 40
0.0
  9
$USERR5
 40
0.0
  9
$WORLDVIEW
 70
     1
  9
$SHADEDGE
 70
     3
  9
$SHADEDIF
 70
    70
  9
$TILEMODE
 70
     1
  9
$MAXACTVP
 70
    64
  9
$PINSBASE
 10
0.0
 20
0.0
 30
0.0
  9
$PLIMCHECK
 70
     0
  9
$PEXTMIN
 10
1.000000000000000E+20
 20
1.000000000000000E+20
 30
1.000000000000000E+20
  9
$PEXTMAX
 10
-1.000000000000000E+20
 20
-1.000000000000000E+20
 30
-1.000000000000000E+20
  9
$PLIMMIN
 10
0.0
 20
0.0
  9
$PLIMMAX
 10
12.0
 20
9.0
  9
$UNITMODE
 70
     0
  9
$VISRETAIN
 70
     1
  9
$PLINEGEN
 70
     0
  9
$PSLTSCALE
 70
     1
  9
$TREEDEPTH
 70
  3020
  9
$CMLSTYLE
  2
Standard
  9
$CMLJUST
 70
     0
  9
$CMLSCALE
 40
1.0
  9
$PROXYGRAPHICS
 70
     1
  9
$MEASUREMENT
 70
     0
  9
$CELWEIGHT
370
    -1
  9
$ENDCAPS
280
     0
  9
$JOINSTYLE
280
     0
  9
$LWDISPLAY
290
     0
  9
$INSUNITS
 70
     4
  9
$HYPERLINKBASE
  1

  9
$STYLESHEET
  1
monochrome.ctb
  9
$XEDIT
290
     1
  9
$CEPSNTYPE
380
     0
  9
$PSTYLEMODE
290
     1
  9
$FINGERPRINTGUID
  2
{4A02065B-8BB3-4A96-9036-502DC906C165}
  9
$VERSIONGUID
  2
{E9A27C4B-AA8D-4564-B178-4C5ADD4C3FBA}
  9
$EXTNAMES
290
     1
  9
$PSVPSCALE
 40
0.0
  9
$OLESTARTUP
290
     0
  0
ENDSEC
  0
SECTION
  2
CLASSES
  0
CLASS
  1
ACDBDICTIONARYWDFLT
  2
AcDbDictionaryWithDefault
  3
ObjectDBX Classes
 90
        0
280
     0
281
     0
  0
CLASS
  1
VISUALSTYLE
  2
AcDbVisualStyle
  3
ObjectDBX Classes
 90
     4095
280
     0
281
     0
  0
CLASS
  1
MATERIAL
  2
AcDbMaterial
  3
ObjectDBX Classes
 90
     1153
280
     0
281
     0
  0
CLASS
  1
TABLESTYLE
  2
AcDbTableStyle
  3
ObjectDBX Classes
 90
     4095
280
     0
281
     0
  0
CLASS
  1
SCALE
  2
AcDbScale
  3
ObjectDBX Classes
 90
     1153
280
     0
281
     0
  0
CLASS
  1
MLEADERSTYLE
  2
AcDbMLeaderStyle
  3
ACDB_MLEADERSTYLE_CLASS
 90
     4095
280
     0
281
     0
  0
CLASS
  1
CELLSTYLEMAP
  2
AcDbCellStyleMap
  3
ObjectDBX Classes
 90
     1152
280
     0
281
     0
  0
CLASS
  1
DICTIONARYVAR
  2
AcDbDictionaryVar
  3
ObjectDBX Classes
 90
        0
280
     0
281
     0
  0
CLASS
  1
SORTENTSTABLE
  2
AcDbSortentsTable
  3
ObjectDBX Classes
 90
        0
280
     0
281
     0
  0
CLASS
  1
ACAD_EVALUATION_GRAPH
  2
AcDbEvalGraph
  3
ObjectDBX Classes
 90
    33921
280
     0
281
     0
  0
CLASS
  1
ACAECUSTOBJ
  2
AcAeEditorObj
  3
AcAeEditorObj
 90
    33792
280
     0
281
     0
  0
CLASS
  1
ACDB_DYNAMICBLOCKPURGEPREVENTER_VERSION
  2
AcDbDynamicBlockPurgePreventer
  3
ObjectDBX Classes
 90
    33921
280
     0
281
     0
  0
CLASS
  1
MENTALRAYRENDERSETTINGS
  2
AcDbMentalRayRenderSettings
  3
SCENEOE
 90
     1024
280
     0
281
     0
  0
CLASS
  1
ACDB_BLOCKREPRESENTATION_DATA
  2
AcDbBlockRepresentationData
  3
ObjectDBX Classes
 90
    33921
280
     0
281
     0
  0
CLASS
  1
DIMASSOC
  2
AcDbDimAssoc
  3
"AcDbDimAssoc|Product Desc:     AcDim ARX App For Dimension|Company:          Autodesk, Inc.|WEB Address:      www.autodesk.com"
 90
    32768
280
     0
281
     0
  0
CLASS
  1
ACDBPLACEHOLDER
  2
AcDbPlaceHolder
  3
ObjectDBX Classes
 90
        0
280
     0
281
     0
  0
CLASS
  1
LAYOUT
  2
AcDbLayout
  3
ObjectDBX Classes
 90
        0
280
     0
281
     0
  0
ENDSEC
  0
SECTION
  2
TABLES
  0
TABLE
  2
VPORT
  5
8
102
{ACAD_XDICTIONARY
360
50EE
102
}
330
0
100
AcDbSymbolTable
 70
     1
  0
VPORT
  5
29
330
8
100
AcDbSymbolTableRecord
100
AcDbViewportTableRecord
  2
*Active
 70
     0
 10
0.0
 20
0.0
 11
1.0
 21
1.0
 12
355.6236536145717
 22
227.9296228379438
 13
0.0
 23
0.0
 14
0.5
 24
0.5
 15
0.5
 25
0.5
 16
0.0
 26
0.0
 36
1.0
 17
104.9654968719086
 27
148.5022307685978
 37
0.0
 40
538.7798168863763
 41
2.262390670553935
 42
50.0
 43
0.0
 44
0.0
 50
0.0
 51
0.0
 71
     0
 72
   100
 73
     1
 74
     3
 75
     0
 76
     0
 77
     0
 78
     0
281
     0
 65
     1
110
0.0
120
0.0
130
0.0
111
1.0
121
0.0
131
0.0
112
0.0
122
1.0
132
0.0
 79
     0
146
0.0
  0
ENDTAB
  0
TABLE
  2
LTYPE
  5
5
330
0
100
AcDbSymbolTable
 70
     1
  0
LTYPE
  5
14
330
5
100
AcDbSymbolTableRecord
100
AcDbLinetypeTableRecord
  2
ByBlock
 70
     0
  3

 72
    65
 73
     0
 40
0.0
  0
LTYPE
  5
15
330
5
100
AcDbSymbolTableRecord
100
AcDbLinetypeTableRecord
  2
ByLayer
 70
     0
  3

 72
    65
 73
     0
 40
0.0
  0
LTYPE
  5
16
330
5
100
AcDbSymbolTableRecord
100
AcDbLinetypeTableRecord
  2
Continuous
 70
     0
  3
Solid line
 72
    65
 73
     0
 40
0.0
  0
ENDTAB
  0
TABLE
  2
LAYER
  5
2
102
{ACAD_XDICTIONARY
360
50B8
102
}
330
0
100
AcDbSymbolTable
 70
     7
  0
LAYER
  5
10
102
{ACAD_XDICTIONARY
360
50D0
102
}
330
2
100
AcDbSymbolTableRecord
100
AcDbLayerTableRecord
  2
0
 70
     0
 62
     7
  6
Continuous
370
    30
390
F
  0
LAYER
  5
3B
102
{ACAD_XDICTIONARY
360
50D2
102
}
330
2
100
AcDbSymbolTableRecord
100
AcDbLayerTableRecord
  2
图层 1
 70
     0
 62
     7
  6
Continuous
370
    -3
390
F
  0
LAYER
  5
50AE
102
{ACAD_XDICTIONARY
360
50AF
102
}
330
2
100
AcDbSymbolTableRecord
100
AcDbLayerTableRecord
  2
图框
 70
     0
 62
     7
  6
Continuous
370
    20
390
F
  0
LAYER
  5
5141
330
2
100
AcDbSymbolTableRecord
100
AcDbLayerTableRecord
  2
Defpoints
 70
     0
 62
     7
  6
Continuous
290
     0
370
    -3
390
F
  0
LAYER
  5
5144
330
2
100
AcDbSymbolTableRecord
100
AcDbLayerTableRecord
  2
DIM
 70
     0
 62
     3
  6
Continuous
370
    15
390
F
1001
AcAecLayerStandard
1000

1000

  0
LAYER
  5
52F3
330
2
100
AcDbSymbolTableRecord
100
AcDbLayerTableRecord
  2
打标文字
 70
     0
 62
     3
  6
Continuous
370
    20
390
F
  0
LAYER
  5
1DD06
330
2
100
AcDbSymbolTableRecord
100
AcDbLayerTableRecord
  2
模刻
 70
     0
 62
     1
  6
Continuous
370
    20
390
F
1001
AcAecLayerStandard
1000

1000

  0
ENDTAB
  0
TABLE
  2
STYLE
  5
3
330
0
100
AcDbSymbolTable
 70
     6
  0
STYLE
  5
11
330
3
100
AcDbSymbolTableRecord
100
AcDbTextStyleTableRecord
  2
Standard
 70
     0
 40
0.0
 41
0.75
 50
0.0
 71
     0
 42
0.2
  3

  4

1001
ACAD
1000
仿宋_GB2312
1071
    34353
  0
STYLE
  5
FD48
330
3
100
AcDbSymbolTableRecord
100
AcDbTextStyleTableRecord
  2
Romans字体
 70
     0
 40
0.0
 41
0.75
 50
0.0
 71
     0
 42
0.2
  3
romans.shx
  4

  0
STYLE
  5
11080
330
3
100
AcDbSymbolTableRecord
100
AcDbTextStyleTableRecord
  2
工程字
 70
     0
 40
0.0
 41
1.0
 50
0.0
 71
     0
 42
3.5
  3
gbenor.shx
  4
gbcbig.shx
  0
STYLE
  5
11081
330
3
100
AcDbSymbolTableRecord
100
AcDbTextStyleTableRecord
  2
Chinese
 70
     0
 40
0.0
 41
1.0
 50
0.0
 71
     0
 42
2.5
  3
PMingLiU.ttf
  4

1001
ACAD
1000
PMingLiU
1071
    34834
  0
STYLE
  5
1DD07
330
3
100
AcDbSymbolTableRecord
100
AcDbTextStyleTableRecord
  2
数字
 70
     0
 40
1.199999999999999
 41
0.75
 50
0.0
 71
     0
 42
0.2
  3
romans.shx
  4

  0
ENDTAB
  0
TABLE
  2
VIEW
  5
6
330
0
100
AcDbSymbolTable
 70
     0
  0
ENDTAB
  0
TABLE
  2
UCS
  5
7
330
0
100
AcDbSymbolTable
 70
     0
  0
ENDTAB
  0
TABLE
  2
APPID
  5
9
330
0
100
AcDbSymbolTable
 70
    17
  0
APPID
  5
12
330
9
100
AcDbSymbolTableRecord
100
AcDbRegAppTableRecord
  2
ACAD
 70
     0
  0
APPID
  5
5024
330
9
100
AcDbSymbolTableRecord
100
AcDbRegAppTableRecord
  2
ACAD_MLEADERVER
 70
     0
  0
APPID
  5
50B5
330
9
100
AcDbSymbolTableRecord
100
AcDbRegAppTableRecord
  2
AcDbDynamicBlockGUID
 70
     0
  0
APPID
  5
50B6
330
9
100
AcDbSymbolTableRecord
100
AcDbRegAppTableRecord
  2
AcDbBlockRepETag
 70
     0
  0
APPID
  5
50B7
330
9
100
AcDbSymbolTableRecord
100
AcDbRegAppTableRecord
  2
ACAD_PSEXT
 70
     0
  0
APPID
  5
50CF
330
9
100
AcDbSymbolTableRecord
100
AcDbRegAppTableRecord
  2
AcadAnnoPO
 70
     0
  0
APPID
  5
5146
330
9
100
AcDbSymbolTableRecord
100
AcDbRegAppTableRecord
  2
AcAecLayerStandard
 70
     0
  0
APPID
  5
5147
330
9
100
AcDbSymbolTableRecord
100
AcDbRegAppTableRecord
  2
ACAD_DSTYLE_DIMJAG
 70
     0
  0
APPID
  5
5148
330
9
100
AcDbSymbolTableRecord
100
AcDbRegAppTableRecord
  2
ACAD_DSTYLE_DIMTALN
 70
     0
  0
APPID
  5
52AD
330
9
100
AcDbSymbolTableRecord
100
AcDbRegAppTableRecord
  2
ACAUTHENVIRON
 70
     0
  0
APPID
  5
52B0
330
9
100
AcDbSymbolTableRecord
100
AcDbRegAppTableRecord
  2
AcDbDynamicBlockTrueName
 70
     0
  0
APPID
  5
67C6
330
9
100
AcDbSymbolTableRecord
100
AcDbRegAppTableRecord
  2
ACAD_EXEMPT_FROM_CAD_STANDARDS
 70
     0
  0
APPID
  5
6838
330
9
100
AcDbSymbolTableRecord
100
AcDbRegAppTableRecord
  2
ACAD_NAV_VCDISPLAY
 70
     0
  0
APPID
  5
70A9
330
9
100
AcDbSymbolTableRecord
100
AcDbRegAppTableRecord
  2
DCO15
 70
     0
  0
APPID
  5
8725
330
9
100
AcDbSymbolTableRecord
100
AcDbRegAppTableRecord
  2
AcDbBlockRepBTag
 70
     0
  0
APPID
  5
FE64
330
9
100
AcDbSymbolTableRecord
100
AcDbRegAppTableRecord
  2
ACAD_DSTYLE_DIMRADIAL_EXTENSION
 70
     0
  0
APPID
  5
FF93
330
9
100
AcDbSymbolTableRecord
100
AcDbRegAppTableRecord
  2
ACAD_DSTYLE_DIMBREAK
 70
     0
  0
ENDTAB
  0
TABLE
  2
DIMSTYLE
  5
A
330
0
100
AcDbSymbolTable
 70
     3
100
AcDbDimStyleTable
 71
     2
340
5145
340
27
  0
DIMSTYLE
105
27
330
A
100
AcDbSymbolTableRecord
100
AcDbDimStyleTableRecord
  2
Standard
 70
     0
340
11
  0
DIMSTYLE
105
5145
102
{ACAD_REACTORS
330
1DFFF
330
1E000
102
}
330
A
100
AcDbSymbolTableRecord
100
AcDbDimStyleTableRecord
  2
01
 70
     0
 41
3.0
 42
0.2
 43
0.2
 44
1.199999999999999
 73
     0
 74
     0
 77
     1
 78
     8
 79
     2
140
3.5
141
0.0
147
0.8
176
     1
177
     6
178
     4
179
     2
271
     1
272
     1
340
FD48
1001
ACAD_DSTYLE_DIMJAG
1070
   388
1040
1.5
1001
ACAD_DSTYLE_DIMTALN
1070
   392
1070
     0
  0
ENDTAB
  0
TABLE
  2
BLOCK_RECORD
  5
1
330
0
100
AcDbSymbolTable
 70
     5
  0
BLOCK_RECORD
  5
1F
102
{ACAD_XDICTIONARY
360
67C0
102
}
330
1
100
AcDbSymbolTableRecord
100
AcDbBlockTableRecord
  2
*Model_Space
340
22
  0
BLOCK_RECORD
  5
1B
330
1
100
AcDbSymbolTableRecord
100
AcDbBlockTableRecord
  2
*Paper_Space
340
1E
  0
BLOCK_RECORD
  5
23
330
1
100
AcDbSymbolTableRecord
100
AcDbBlockTableRecord
  2
*Paper_Space0
340
26
  0
BLOCK_RECORD
  5
10FE8
102
{ACAD_XDICTIONARY
360
11E34
102
}
330
1
100
AcDbSymbolTableRecord
100
AcDbBlockTableRecord
  2
A4图框-NEW
340
0
310
2800000020000000200000000100080000000000000400000000000000000000000000000000000000000000000080000080000000808000800000008000800080800000C0C0C000C0DCC000F0CAA6000020400000206000002080000020A0000020C0000020E00000400000004020000040400000406000004080000040A0
310
000040C0000040E00000600000006020000060400000606000006080000060A0000060C0000060E00000800000008020000080400000806000008080000080A0000080C0000080E00000A0000000A0200000A0400000A0600000A0800000A0A00000A0C00000A0E00000C0000000C0200000C0400000C0600000C0800000C0
310
A00000C0C00000C0E00000E0000000E0200000E0400000E0600000E0800000E0A00000E0C00000E0E00040000000400020004000400040006000400080004000A0004000C0004000E00040200000402020004020400040206000402080004020A0004020C0004020E000404000004040200040404000404060004040800040
310
40A0004040C0004040E00040600000406020004060400040606000406080004060A0004060C0004060E00040800000408020004080400040806000408080004080A0004080C0004080E00040A0000040A0200040A0400040A0600040A0800040A0A00040A0C00040A0E00040C0000040C0200040C0400040C0600040C08000
310
40C0A00040C0C00040C0E00040E0000040E0200040E0400040E0600040E0800040E0A00040E0C00040E0E00080000000800020008000400080006000800080008000A0008000C0008000E00080200000802020008020400080206000802080008020A0008020C0008020E00080400000804020008040400080406000804080
310
008040A0008040C0008040E00080600000806020008060400080606000806080008060A0008060C0008060E00080800000808020008080400080806000808080008080A0008080C0008080E00080A0000080A0200080A0400080A0600080A0800080A0A00080A0C00080A0E00080C0000080C0200080C0400080C0600080C0
310
800080C0A00080C0C00080C0E00080E0000080E0200080E0400080E0600080E0800080E0A00080E0C00080E0E000C0000000C0002000C0004000C0006000C0008000C000A000C000C000C000E000C0200000C0202000C0204000C0206000C0208000C020A000C020C000C020E000C0400000C0402000C0404000C0406000C0
310
408000C040A000C040C000C040E000C0600000C0602000C0604000C0606000C0608000C060A000C060C000C060E000C0800000C0802000C0804000C0806000C0808000C080A000C080C000C080E000C0A00000C0A02000C0A04000C0A06000C0A08000C0A0A000C0A0C000C0A0E000C0C00000C0C02000C0C04000C0C06000
310
C0C08000C0C0A000F0FBFF00A4A0A000808080000000FF0000FF000000FFFF00FF000000FF00FF00FFFF0000FFFFFF0000000000000000000000000000000000000000000000000000000000000000000000000000000000000000000000000000000000000000000000000000000000000000000000000000000000000000
310
000000000000000000000000000000000000000000000000000000000000000000000000000000000000000000000000000000000000000000000000000000000000000000000000000000000000000000000000000000000000000000000000000000000000000000000000000000000000F9F9F9F9F9F9F9F9F9F9F9F9F9
310
F9F9F9F9F9F9F9F9F9F9F9F9F9F9FF00000000F9FF000000000000000000FFFFFFFFFFFFFFFFFFFFFFFFF9FAFAFAFF00000000F9FF000000000000000000FFFFFFFFFFFFFFFFFFFFFFFFFFFFFFFFFF00000000F9FD000000000000000000FFFFFFFFFFFFFFFFFFFFFFFFFFFFFFFFFF00000000F9FF000000000000000000FF
310
FFFFFFFFFFFFFFFFFFFFFFFFFFFFFFFF00000000F9FD000000000000000000FFFFFFFFFFFFFFFFFFFFFFFFFFFFFFFFFF00000000F9FF00000000000000000000000000000000000000000000000000FF00000000F9FD00000000000000000000000000000000000000000000000000FF00000000F9FF000000000000000000
310
00000000000000000000000000000000FF00000000F9FD00000000000000000000000000000000000000000000000000FF00000000F9FF00000000000000000000000000000000000000000000000000FF00000000F9FD00000000000000000000000000000000000000000000000000FF00000000F9FD0000000000000000
310
0000000000000000000000000000000000FF00000000F9FF00000000000000000000000000000000000000000000000000FF00000000F9FD00000000000000000000000000000000000000000000000000FF00000000F9FF00000000000000000000000000000000000000000000000000FF00000000F9FD00000000000000
310
000000000000000000000000000000000000FF00000000F9FF00000000000000000000000000000000000000000000000000FF00000000F9FFFFFFFFFFFFFFFFFFFFFFFFFFFFFFFFFFFFFFFFFFFFFFFFFFFFFF00000000F9FFFFFFF9F9F9F9F9F9F9F9F9F9F9F9F9F9F9F9F9F9F9F9F9F9F9F9000000000000000000000000
310
00000000000000000000000000000000000000000000000000000000000000000000000000000000000000000000000000000000000000000000000000000000000000000000000000000000000000000000000000000000000000000000000000000000000000000000000000000000000000000000000000000000000000
310
0000000000000000000000000000000000000000000000000000000000000000000000000000000000000000000000000000000000000000
102
{BLKREFS
331
11089
102
}
1001
AcDbDynamicBlockGUID
1000
{395242E0-DD1F-4F63-91E6-8EBA9DD1FAE8}
1001
AcDbBlockRepETag
1070
     1
1071
      149
1001
ACAD
1000
DesignCenter Data
1002
{
1070
     1
1070
     4
1002
}
  0
BLOCK_RECORD
  5
1E001
330
1
100
AcDbSymbolTableRecord
100
AcDbBlockTableRecord
  2
*D2
340
0
  0
BLOCK_RECORD
  5
1E00D
330
1
100
AcDbSymbolTableRecord
100
AcDbBlockTableRecord
  2
*D3
340
0
  0
ENDTAB
  0
ENDSEC
  0
SECTION
  2
BLOCKS
  0
BLOCK
  5
20
330
1F
100
AcDbEntity
  8
0
100
AcDbBlockBegin
  2
*Model_Space
 70
     0
 10
0.0
 20
0.0
 30
0.0
  3
*Model_Space
  1

  0
ENDBLK
  5
21
330
1F
100
AcDbEntity
  8
0
100
AcDbBlockEnd
  0
BLOCK
  5
1C
330
1B
100
AcDbEntity
 67
     1
  8
0
100
AcDbBlockBegin
  2
*Paper_Space
 70
     0
 10
0.0
 20
0.0
 30
0.0
  3
*Paper_Space
  1

  0
ENDBLK
  5
1D
330
1B
100
AcDbEntity
 67
     1
  8
0
100
AcDbBlockEnd
  0
BLOCK
  5
24
330
23
100
AcDbEntity
 67
     1
  8
0
100
AcDbBlockBegin
  2
*Paper_Space0
 70
     0
 10
0.0
 20
0.0
 30
0.0
  3
*Paper_Space0
  1

  0
ENDBLK
  5
25
330
23
100
AcDbEntity
 67
     1
  8
0
100
AcDbBlockEnd
  0
BLOCK
  5
10FEA
330
10FE8
100
AcDbEntity
  8
0
100
AcDbBlockBegin
  2
A4图框-NEW
 70
     0
 10
0.0
 20
0.0
 30
0.0
  3
A4图框-NEW
  1

  0
MTEXT
  5
11DA0
102
{ACAD_XDICTIONARY
360
1E5CB
102
}
330
10FE8
100
AcDbEntity
  8
图框
 62
     3
100
AcDbMText
 10
967.6594956750133
 20
499.7664151964293
 30
0.0
 40
2.985513575034151
 41
15.50176341157864
 71
     5
 72
     5
  1
BQ LUO
  7
Romans字体
 73
     1
 44
1.0
1001
AcDbBlockRepETag
1070
     1
1071
        0
1005
11DA0
1001
ACAD
1000
MTEXTBEGIN
1070
    73
1070
     1
1070
    44
1040
1.0
1070
    74
1070
     0
1000
MTEXTEND
1000
ACAD_MTEXT_DEFINED_HEIGHT_BEGIN
1070
    46
1040
6.292658374511018
1000
ACAD_MTEXT_DEFINED_HEIGHT_END
  0
MTEXT
  5
11DA1
330
10FE8
100
AcDbEntity
  8
图框
 62
     3
100
AcDbMText
 10
983.041569333247
 20
499.7664151964293
 30
0.0
 40
2.487927979195124
 41
15.26238390489051
 71
     5
 72
     5
  1
{\W0.7;18.10.2010}
  7
Romans字体
 73
     1
 44
1.0
1001
AcDbBlockRepETag
1070
     1
1071
        1
1005
11DA1
1001
ACAD
1000
MTEXTBEGIN
1070
    73
1070
     1
1070
    44
1040
1.0
1070
    74
1070
     0
1000
MTEXTEND
1000
ACAD_MTEXT_DEFINED_HEIGHT_BEGIN
1070
    46
1040
6.292658374511042
1000
ACAD_MTEXT_DEFINED_HEIGHT_END
  0
MTEXT
  5
11DA2
330
10FE8
100
AcDbEntity
  8
图框
 62
     3
100
AcDbMText
 10
1012.477254728976
 20
487.1810984474071
 30
0.0
 40
2.985513575034151
 41
17.64876416884615
 71
     5
 72
     5
  1
YY LIN
  7
Romans字体
 73
     1
 44
1.0
1001
AcDbBlockRepETag
1070
     1
1071
        2
1005
11DA2
1001
ACAD
1000
MTEXTBEGIN
1070
    73
1070
     1
1070
    44
1040
1.0
1070
    74
1070
     0
1000
MTEXTEND
1000
ACAD_MTEXT_DEFINED_HEIGHT_BEGIN
1070
    46
1040
6.292658374511455
1000
ACAD_MTEXT_DEFINED_HEIGHT_END
  0
MTEXT
  5
11DA3
330
10FE8
100
AcDbEntity
  8
图框
 62
     3
100
AcDbMText
 10
1028.977802139886
 20
487.1810984474071
 30
0.0
 40
2.487927979195124
 41
15.35233065297276
 71
     5
 72
     5
  1
{\W0.7;18.10.2010}
  7
Romans字体
 73
     1
 44
1.0
1001
AcDbBlockRepETag
1070
     1
1071
        3
1005
11DA3
1001
ACAD
1000
MTEXTBEGIN
1070
    73
1070
     1
1070
    44
1040
1.0
1070
    74
1070
     0
1000
MTEXTEND
1000
ACAD_MTEXT_DEFINED_HEIGHT_BEGIN
1070
    46
1040
6.292658374511495
1000
ACAD_MTEXT_DEFINED_HEIGHT_END
  0
MTEXT
  5
11DA4
330
10FE8
100
AcDbEntity
  8
图框
 62
     3
100
AcDbMText
 10
1063.722665487208
 20
525.4145966538831
 30
0.0
 40
2.985513575034151
 41
32.4973914334545
 71
     5
 72
     5
  1
-
  7
Romans字体
 73
     1
 44
1.0
1001
AcDbBlockRepETag
1070
     1
1071
        4
1005
11DA4
1001
ACAD
1000
MTEXTBEGIN
1070
    73
1070
     1
1070
    44
1040
1.0
1070
    74
1070
     0
1000
MTEXTEND
1000
ACAD_MTEXT_DEFINED_HEIGHT_BEGIN
1070
    46
1040
11.82914190181707
1000
ACAD_MTEXT_DEFINED_HEIGHT_END
  0
MTEXT
  5
11DA5
330
10FE8
100
AcDbEntity
  8
图框
 62
     3
100
AcDbMText
 10
1063.727338552349
 20
513.5854547520641
 30
0.0
 40
2.985513575034151
 41
32.48804530317308
 71
     5
 72
     5
  1
-
  7
Romans字体
 73
     1
 44
1.0
1001
AcDbBlockRepETag
1070
     1
1071
        5
1005
11DA5
1001
ACAD
1000
MTEXTBEGIN
1070
    73
1070
     1
1070
    44
1040
1.0
1070
    74
1070
     0
1000
MTEXTEND
1000
ACAD_MTEXT_DEFINED_HEIGHT_BEGIN
1070
    46
1040
11.82914190182139
1000
ACAD_MTEXT_DEFINED_HEIGHT_END
  0
MTEXT
  5
11DA6
330
10FE8
100
AcDbEntity
  8
图框
 62
     3
100
AcDbMText
 10
1110.122306614152
 20
526.8006839312707
 30
0.0
 40
2.985513575034151
 41
33.61239199242139
 71
     5
 72
     5
  1
-
  7
Romans字体
 73
     1
 44
1.0
1001
AcDbBlockRepETag
1070
     1
1071
        6
1005
11DA6
1001
ACAD
1000
MTEXTBEGIN
1070
    73
1070
     1
1070
    44
1040
1.0
1070
    74
1070
     0
1000
MTEXTEND
1000
ACAD_MTEXT_DEFINED_HEIGHT_BEGIN
1070
    46
1040
9.05696734704178
1000
ACAD_MTEXT_DEFINED_HEIGHT_END
  0
MTEXT
  5
11DA7
330
10FE8
100
AcDbEntity
  8
图框
 62
     3
100
AcDbMText
 10
1110.122306614152
 20
500.2775205517162
 30
0.0
 40
2.985513575034151
 41
33.61239199242139
 71
     5
 72
     5
  1
-
  7
Romans字体
 73
     1
 44
1.0
1001
AcDbBlockRepETag
1070
     1
1071
        7
1005
11DA7
1001
ACAD
1000
MTEXTBEGIN
1070
    73
1070
     1
1070
    44
1040
1.0
1070
    74
1070
     0
1000
MTEXTEND
1000
ACAD_MTEXT_DEFINED_HEIGHT_BEGIN
1070
    46
1040
8.871557304763419
1000
ACAD_MTEXT_DEFINED_HEIGHT_END
  0
MTEXT
  5
11DA8
330
10FE8
100
AcDbEntity
  8
图框
 62
     3
100
AcDbMText
 10
967.6594956750133
 20
493.4737568219182
 30
0.0
 40
2.985513575034151
 41
15.50176341157864
 71
     5
 72
     5
  1
P RAO
  7
Romans字体
 73
     1
 44
1.0
1001
AcDbBlockRepETag
1070
     1
1071
        8
1005
11DA8
1001
ACAD
1000
MTEXTBEGIN
1070
    73
1070
     1
1070
    44
1040
1.0
1070
    74
1070
     0
1000
MTEXTEND
1000
ACAD_MTEXT_DEFINED_HEIGHT_BEGIN
1070
    46
1040
6.292658374510335
1000
ACAD_MTEXT_DEFINED_HEIGHT_END
  0
MTEXT
  5
11DA9
330
10FE8
100
AcDbEntity
  8
图框
 62
     3
100
AcDbMText
 10
983.041569333247
 20
493.2441970450405
 30
0.0
 40
2.487927979195124
 41
15.26238390489051
 71
     5
 72
     5
  1
{\W0.7;18.10.2010}
  7
Romans字体
 73
     1
 44
1.0
1001
AcDbBlockRepETag
1070
     1
1071
        9
1005
11DA9
1001
ACAD
1000
MTEXTBEGIN
1070
    73
1070
     1
1070
    44
1040
1.0
1070
    74
1070
     0
1000
MTEXTEND
1000
ACAD_MTEXT_DEFINED_HEIGHT_BEGIN
1070
    46
1040
6.751777928266487
1000
ACAD_MTEXT_DEFINED_HEIGHT_END
  0
MTEXT
  5
11DAA
330
10FE8
100
AcDbEntity
  8
图框
 62
     3
100
AcDbMText
 10
1012.477254728976
 20
499.7664151964291
 30
0.0
 40
2.985513575034151
 41
17.64876416884615
 71
     5
 72
     5
  1
-
  7
Romans字体
 73
     1
 44
1.0
1001
AcDbBlockRepETag
1070
     1
1071
       10
1005
11DAA
1001
ACAD
1000
MTEXTBEGIN
1070
    73
1070
     1
1070
    44
1040
1.0
1070
    74
1070
     0
1000
MTEXTEND
1000
ACAD_MTEXT_DEFINED_HEIGHT_BEGIN
1070
    46
1040
6.292658374511397
1000
ACAD_MTEXT_DEFINED_HEIGHT_END
  0
MTEXT
  5
11DAB
330
10FE8
100
AcDbEntity
  8
图框
 62
     3
100
AcDbMText
 10
1028.977802139886
 20
499.7664151964289
 30
0.0
 40
2.487927979195124
 41
15.35233065297265
 71
     5
 72
     5
  1
-
  7
Romans字体
 73
     1
 44
1.0
1001
AcDbBlockRepETag
1070
     1
1071
       11
1005
11DAB
1001
ACAD
1000
MTEXTBEGIN
1070
    73
1070
     1
1070
    44
1040
1.0
1070
    74
1070
     0
1000
MTEXTEND
1000
ACAD_MTEXT_DEFINED_HEIGHT_BEGIN
1070
    46
1040
6.292658374511382
1000
ACAD_MTEXT_DEFINED_HEIGHT_END
  0
MTEXT
  5
11DAC
330
10FE8
100
AcDbEntity
  8
图框
 62
     3
100
AcDbMText
 10
967.6594956750133
 20
487.1810984474071
 30
0.0
 40
2.985513575034151
 41
15.50176341157863
 71
     5
 72
     5
  1
-
  7
Romans字体
 73
     1
 44
1.0
1001
AcDbBlockRepETag
1070
     1
1071
       12
1005
11DAC
1001
ACAD
1000
MTEXTBEGIN
1070
    73
1070
     1
1070
    44
1040
1.0
1070
    74
1070
     0
1000
MTEXTEND
1000
ACAD_MTEXT_DEFINED_HEIGHT_BEGIN
1070
    46
1040
6.292658374511478
1000
ACAD_MTEXT_DEFINED_HEIGHT_END
  0
MTEXT
  5
11DAD
330
10FE8
100
AcDbEntity
  8
图框
 62
     3
100
AcDbMText
 10
983.041569333247
 20
487.1810984474071
 30
0.0
 40
2.487927979195124
 41
15.26238390489062
 71
     5
 72
     5
  1
-
  7
Romans字体
 73
     1
 44
1.0
1001
AcDbBlockRepETag
1070
     1
1071
       13
1005
11DAD
1001
ACAD
1000
MTEXTBEGIN
1070
    73
1070
     1
1070
    44
1040
1.0
1070
    74
1070
     0
1000
MTEXTEND
1000
ACAD_MTEXT_DEFINED_HEIGHT_BEGIN
1070
    46
1040
6.292658374511495
1000
ACAD_MTEXT_DEFINED_HEIGHT_END
  0
MTEXT
  5
11DAE
330
10FE8
100
AcDbEntity
  8
图框
 62
     3
100
AcDbMText
 10
1074.556686986741
 20
495.8417418993361
 30
0.0
 40
2.985513575034151
 41
10.82934843438978
 71
     5
 72
     5
  1
-
  7
Romans字体
 73
     1
 44
1.0
1001
AcDbBlockRepETag
1070
     1
1071
       14
1005
11DAE
1001
ACAD
1000
MTEXTBEGIN
1070
    73
1070
     1
1070
    44
1040
1.0
1070
    74
1070
     0
1000
MTEXTEND
1000
ACAD_MTEXT_DEFINED_HEIGHT_BEGIN
1070
    46
1040
7.886094601210427
1000
ACAD_MTEXT_DEFINED_HEIGHT_END
  0
LINE
  5
11DAF
330
10FE8
100
AcDbEntity
  8
图框
370
    -3
100
AcDbLine
 10
1036.653967466372
 20
499.7847891999413
 30
0.0
 11
1079.971361203936
 21
499.7847891999413
 31
0.0
1001
AcDbBlockRepETag
1070
     1
1071
       15
1005
11DAF
  0
MTEXT
  5
11DB0
330
10FE8
100
AcDbEntity
  8
图框
 62
     1
370
    20
100
AcDbMText
 10
1108.26336443907
 20
491.5162596080882
 30
0.0
 40
2.699054613030988
 41
82.30831305643079
 71
     5
 72
     5
  1
{\fSimHei|b0|i0|c134|p2;厦门唯恩电气有限公司}
 73
     1
 44
1.0
1001
AcDbBlockRepETag
1070
     1
1071
       16
1005
11DB0
1001
ACAD
1000
MTEXTBEGIN
1070
    73
1070
     1
1070
    44
1040
1.0
1070
    74
1070
     0
1000
MTEXTEND
  0
MTEXT
  5
11DB1
330
10FE8
100
AcDbEntity
  8
图框
 62
     3
370
    20
100
AcDbMText
 10
1108.435451459908
 20
487.298967726064
 30
0.0
 40
1.652482416141417
 41
68.08558693693567
 71
     5
 72
     5
  1
{\fArial Narrow|b0|i0|c0|p34;XIAMEN WAIN ELECTRICAL CO.LTD}
  7
工程字
 73
     1
 44
1.0
1001
AcDbBlockRepETag
1070
     1
1071
       17
1005
11DB1
1001
ACAD
1000
MTEXTBEGIN
1070
    73
1070
     1
1070
    44
1040
1.0
1070
    74
1070
     0
1000
MTEXTEND
  0
MTEXT
  5
11DB2
330
10FE8
100
AcDbEntity
  8
图框
 62
     1
370
    20
100
AcDbMText
 10
1085.711816899387
 20
491.0944802995856
 30
0.0
 40
2.005930044038334
 41
5.047240019334847
 71
     1
 72
     5
  1
{\fArial|b0|i0|c0|p34;A}
  7
Chinese
 73
     1
 44
1.0
1001
AcDbBlockRepETag
1070
     1
1071
       18
1005
11DB2
1001
ACAD
1000
MTEXTBEGIN
1070
    73
1070
     1
1070
    44
1040
1.0
1070
    74
1070
     0
1000
MTEXTEND
  0
MTEXT
  5
11DB3
330
10FE8
100
AcDbEntity
  8
图框
 62
     1
370
    20
100
AcDbMText
 10
1088.213485935716
 20
491.0944802995856
 30
0.0
 40
2.005930044038334
 41
5.047240019334847
 71
     1
 72
     5
  1
{\fArial|b0|i0|c0|p34;I}
  7
Chinese
 73
     1
 44
1.0
1001
AcDbBlockRepETag
1070
     1
1071
       19
1005
11DB3
1001
ACAD
1000
MTEXTBEGIN
1070
    73
1070
     1
1070
    44
1040
1.0
1070
    74
1070
     0
1000
MTEXTEND
  0
MTEXT
  5
11DB4
330
10FE8
100
AcDbEntity
  8
图框
 62
     1
370
    20
100
AcDbMText
 10
1089.142375222864
 20
491.0822866326808
 30
0.0
 40
2.005930044038334
 41
5.047240019334847
 71
     1
 72
     5
  1
{\fArial|b0|i0|c0|p34;N}
  7
Chinese
 73
     1
 44
1.0
1001
AcDbBlockRepETag
1070
     1
1071
       20
1005
11DB4
1001
ACAD
1000
MTEXTBEGIN
1070
    73
1070
     1
1070
    44
1040
1.0
1070
    74
1070
     0
1000
MTEXTEND
  0
MTEXT
  5
11DB5
330
10FE8
100
AcDbEntity
  8
图框
100
AcDbMText
 10
1069.142012769545
 20
487.9667319294409
 30
0.0
 40
2.252848170144607
 41
21.65869686878327
 71
     5
 72
     5
  1
{\W0.5;\C1;All Dimensions in mm\POriginal Size DIN A 4}
  7
Romans字体
 73
     1
 44
1.0
1001
AcDbBlockRepETag
1070
     1
1071
       21
1005
11DB5
1001
ACAD
1000
MTEXTBEGIN
1070
    73
1070
     1
1070
    44
1040
1.0
1070
    74
1070
     0
1000
MTEXTEND
1000
ACAD_MTEXT_DEFINED_HEIGHT_BEGIN
1070
    46
1040
7.863925338579296
1000
ACAD_MTEXT_DEFINED_HEIGHT_END
  0
MTEXT
  5
11DB6
330
10FE8
100
AcDbEntity
  8
图框
  6
ByBlock
 62
     6
370
    18
100
AcDbMText
 10
1127.40434942308
 20
508.7896535755975
 30
0.0
 40
2.651776162684904
 41
2.557913877927211
 71
     1
 72
     5
  1
A
  7
Romans字体
 11
0.0000000000000001
 21
1.0
 31
0.0
 73
     1
 44
1.0
1001
AcDbBlockRepETag
1070
     1
1071
       22
1005
11DB6
1001
ACAD
1000
MTEXTBEGIN
1070
    73
1070
     1
1070
    44
1040
1.0
1070
    74
1070
     0
1000
MTEXTEND
  0
MTEXT
  5
11DB7
330
10FE8
100
AcDbEntity
  8
图框
 62
     6
100
AcDbMText
 10
1127.40434942308
 20
556.3746573232886
 30
0.0
 40
2.651776162684904
 41
2.557913877927211
 71
     1
 72
     5
  1
B
  7
Romans字体
 11
0.0000000000000001
 21
1.0
 31
0.0
 73
     1
 44
1.0
1001
AcDbBlockRepETag
1070
     1
1071
       23
1005
11DB7
1001
ACAD
1000
MTEXTBEGIN
1070
    73
1070
     1
1070
    44
1040
1.0
1070
    74
1070
     0
1000
MTEXTEND
  0
MTEXT
  5
11DB8
330
10FE8
100
AcDbEntity
  8
图框
 62
     6
100
AcDbMText
 10
1127.40434942308
 20
607.5539372630998
 30
0.0
 40
2.651776162684904
 41
2.557913877927211
 71
     1
 72
     5
  1
C
  7
Romans字体
 11
0.0000000000000001
 21
1.0
 31
0.0
 73
     1
 44
1.0
1001
AcDbBlockRepETag
1070
     1
1071
       24
1005
11DB8
1001
ACAD
1000
MTEXTBEGIN
1070
    73
1070
     1
1070
    44
1040
1.0
1070
    74
1070
     0
1000
MTEXTEND
  0
MTEXT
  5
11DB9
330
10FE8
100
AcDbEntity
  8
图框
 62
     6
100
AcDbMText
 10
1127.40434942308
 20
658.7332172029115
 30
0.0
 40
2.651776162684904
 41
2.557913877927211
 71
     1
 72
     5
  1
D
  7
Romans字体
 11
0.0000000000000001
 21
1.0
 31
0.0
 73
     1
 44
1.0
1001
AcDbBlockRepETag
1070
     1
1071
       25
1005
11DB9
1001
ACAD
1000
MTEXTBEGIN
1070
    73
1070
     1
1070
    44
1040
1.0
1070
    74
1070
     0
1000
MTEXTEND
  0
LINE
  5
11DBA
330
10FE8
100
AcDbEntity
  8
图框
 62
     6
100
AcDbLine
 10
1130.411601781241
 20
634.0726090796082
 30
0.0
 11
1126.928502610363
 21
634.0726090796082
 31
0.0
1001
AcDbBlockRepETag
1070
     1
1071
       26
1005
11DBA
  0
LINE
  5
11DBB
330
10FE8
100
AcDbEntity
  8
图框
 62
     6
100
AcDbLine
 10
1130.411601781241
 20
582.89332913979
 30
0.0
 11
1126.928502610363
 21
582.89332913979
 31
0.0
1001
AcDbBlockRepETag
1070
     1
1071
       27
1005
11DBB
  0
MTEXT
  5
11DBC
330
10FE8
100
AcDbEntity
  8
图框
 62
     6
100
AcDbMText
 10
1105.329704038389
 20
483.6164543011163
 30
0.0
 40
2.651776162684904
 41
2.557913877927211
 71
     1
 72
     5
  1
6
  7
Romans字体
 73
     1
 44
1.0
1001
AcDbBlockRepETag
1070
     1
1071
       28
1005
11DBC
1001
ACAD
1000
MTEXTBEGIN
1070
    73
1070
     1
1070
    44
1040
1.0
1070
    74
1070
     0
1000
MTEXTEND
  0
LINE
  5
11DBD
330
10FE8
100
AcDbEntity
  8
图框
 62
     6
100
AcDbLine
 10
1081.088565155284
 20
484.0347692601515
 30
0.0
 11
1081.088565155284
 21
480.5347692601475
 31
0.0
1001
AcDbBlockRepETag
1070
     1
1071
       29
1005
11DBD
  0
MTEXT
  5
11DBE
330
10FE8
100
AcDbEntity
  8
图框
 62
     6
100
AcDbMText
 10
1055.900596365941
 20
483.520053108993
 30
0.0
 40
2.651776162684904
 41
2.557913877927211
 71
     1
 72
     5
  1
5
  7
Romans字体
 73
     1
 44
1.0
1001
AcDbBlockRepETag
1070
     1
1071
       30
1005
11DBE
1001
ACAD
1000
MTEXTBEGIN
1070
    73
1070
     1
1070
    44
1040
1.0
1070
    74
1070
     0
1000
MTEXTEND
  0
LINE
  5
11DBF
330
10FE8
100
AcDbEntity
  8
图框
 62
     6
100
AcDbLine
 10
1031.553386436349
 20
484.0347692601515
 30
0.0
 11
1031.553386436349
 21
480.5347692601475
 31
0.0
1001
AcDbBlockRepETag
1070
     1
1071
       31
1005
11DBF
  0
MTEXT
  5
11DC0
330
10FE8
100
AcDbEntity
  8
图框
 62
     6
100
AcDbMText
 10
1006.383180575197
 20
483.5687958215896
 30
0.0
 40
2.651776162684904
 41
2.557913877927211
 71
     1
 72
     5
  1
4
  7
Romans字体
 73
     1
 44
1.0
1001
AcDbBlockRepETag
1070
     1
1071
       32
1005
11DC0
1001
ACAD
1000
MTEXTBEGIN
1070
    73
1070
     1
1070
    44
1040
1.0
1070
    74
1070
     0
1000
MTEXTEND
  0
LINE
  5
11DC1
330
10FE8
100
AcDbEntity
  8
图框
 62
     6
100
AcDbLine
 10
982.0182077173887
 20
484.0347692601515
 30
0.0
 11
982.0182077173887
 21
480.5347692601475
 31
0.0
1001
AcDbBlockRepETag
1070
     1
1071
       33
1005
11DC1
  0
MTEXT
  5
11DC2
330
10FE8
100
AcDbEntity
  8
图框
 62
     6
100
AcDbMText
 10
956.8302389280352
 20
483.5989680297948
 30
0.0
 40
2.651776162684904
 41
2.557913877927211
 71
     1
 72
     5
  1
3
  7
Romans字体
 73
     1
 44
1.0
1001
AcDbBlockRepETag
1070
     1
1071
       34
1005
11DC2
1001
ACAD
1000
MTEXTBEGIN
1070
    73
1070
     1
1070
    44
1040
1.0
1070
    74
1070
     0
1000
MTEXTEND
  0
LINE
  5
11DC3
330
10FE8
100
AcDbEntity
  8
图框
 62
     6
100
AcDbLine
 10
932.4830289984245
 20
484.0347692601515
 30
0.0
 11
932.4830289984245
 21
480.5347692601475
 31
0.0
1001
AcDbBlockRepETag
1070
     1
1071
       35
1005
11DC3
  0
MTEXT
  5
11DC4
330
10FE8
100
AcDbEntity
  8
图框
 62
     6
100
AcDbMText
 10
906.0252349826365
 20
483.6475250013156
 30
0.0
 40
2.651776162684904
 41
2.557913877927211
 71
     1
 72
     5
  1
2
  7
Romans字体
 73
     1
 44
1.0
1001
AcDbBlockRepETag
1070
     1
1071
       36
1005
11DC4
1001
ACAD
1000
MTEXTBEGIN
1070
    73
1070
     1
1070
    44
1040
1.0
1070
    74
1070
     0
1000
MTEXTEND
  0
LINE
  5
11DC5
330
10FE8
100
AcDbEntity
  8
图框
 62
     6
100
AcDbLine
 10
882.9478502794648
 20
484.0347692601515
 30
0.0
 11
882.9478502794648
 21
480.5347692601475
 31
0.0
1001
AcDbBlockRepETag
1070
     1
1071
       37
1005
11DC5
  0
MTEXT
  5
11DC6
330
10FE8
100
AcDbEntity
  8
图框
 62
     6
100
AcDbMText
 10
857.7598814901191
 20
483.651829494754
 30
0.0
 40
2.651776162684904
 41
2.557913877927211
 71
     1
 72
     5
  1
1
  7
Romans字体
 73
     1
 44
1.0
1001
AcDbBlockRepETag
1070
     1
1071
       38
1005
11DC6
1001
ACAD
1000
MTEXTBEGIN
1070
    73
1070
     1
1070
    44
1040
1.0
1070
    74
1070
     0
1000
MTEXTEND
  0
LINE
  5
11DC7
330
10FE8
100
AcDbEntity
  8
图框
370
    50
100
AcDbLine
 10
836.8548209370597
 20
484.0347692601515
 30
0.0
 11
1126.928502610363
 21
484.0347692601515
 31
0.0
1001
AcDbBlockRepETag
1070
     1
1071
       39
1005
11DC7
  0
LINE
  5
11DC8
330
10FE8
100
AcDbEntity
  8
图框
370
    50
100
AcDbLine
 10
836.9128518455362
 20
484.0178684310246
 30
0.0
 11
836.9128518455394
 21
675.0207195125422
 31
0.0
1001
AcDbBlockRepETag
1070
     1
1071
       40
1005
11DC8
  0
MTEXT
  5
11DC9
330
10FE8
100
AcDbEntity
  8
图框
 62
     6
100
AcDbMText
 10
833.8475685789031
 20
658.7332172029115
 30
0.0
 40
2.651776162684904
 41
2.557913877927211
 71
     1
 72
     5
  1
D
  7
Romans字体
 11
0.0000000000000001
 21
1.0
 31
0.0
 73
     1
 44
1.0
1001
AcDbBlockRepETag
1070
     1
1071
       41
1005
11DC9
1001
ACAD
1000
MTEXTBEGIN
1070
    73
1070
     1
1070
    44
1040
1.0
1070
    74
1070
     0
1000
MTEXTEND
  0
LINE
  5
11DCA
330
10FE8
100
AcDbEntity
  8
图框
 62
     6
100
AcDbLine
 10
836.9128518455386
 20
634.0726090796082
 30
0.0
 11
833.4128518455365
 21
634.0726090796082
 31
0.0
1001
AcDbBlockRepETag
1070
     1
1071
       42
1005
11DCA
  0
MTEXT
  5
11DCB
330
10FE8
100
AcDbEntity
  8
图框
 62
     6
100
AcDbMText
 10
833.9039177480142
 20
607.5539372630998
 30
0.0
 40
2.651776162684904
 41
2.557913877927211
 71
     1
 72
     5
  1
C
  7
Romans字体
 11
0.0000000000000001
 21
1.0
 31
0.0
 73
     1
 44
1.0
1001
AcDbBlockRepETag
1070
     1
1071
       43
1005
11DCB
1001
ACAD
1000
MTEXTBEGIN
1070
    73
1070
     1
1070
    44
1040
1.0
1070
    74
1070
     0
1000
MTEXTEND
  0
LINE
  5
11DCC
330
10FE8
100
AcDbEntity
  8
图框
 62
     6
100
AcDbLine
 10
836.9128518455378
 20
582.89332913979
 30
0.0
 11
833.4128518455365
 21
582.89332913979
 31
0.0
1001
AcDbBlockRepETag
1070
     1
1071
       44
1005
11DCC
  0
MTEXT
  5
11DCD
330
10FE8
100
AcDbEntity
  8
图框
 62
     6
100
AcDbMText
 10
833.9039177480142
 20
556.3746573232886
 30
0.0
 40
2.651776162684904
 41
2.557913877927211
 71
     1
 72
     5
  1
B
  7
Romans字体
 11
0.0000000000000001
 21
1.0
 31
0.0
 73
     1
 44
1.0
1001
AcDbBlockRepETag
1070
     1
1071
       45
1005
11DCD
1001
ACAD
1000
MTEXTBEGIN
1070
    73
1070
     1
1070
    44
1040
1.0
1070
    74
1070
     0
1000
MTEXTEND
  0
LINE
  5
11DCE
330
10FE8
100
AcDbEntity
  8
图框
 62
     6
100
AcDbLine
 10
836.9128518455367
 20
531.714049199969
 30
0.0
 11
833.4128518455365
 21
531.714049199969
 31
0.0
1001
AcDbBlockRepETag
1070
     1
1071
       46
1005
11DCE
  0
MTEXT
  5
11DCF
330
10FE8
100
AcDbEntity
  8
图框
 62
     6
100
AcDbMText
 10
833.9039177480142
 20
508.7896535755975
 30
0.0
 40
2.651776162684904
 41
2.557913877927211
 71
     1
 72
     5
  1
A
  7
Romans字体
 11
0.0000000000000001
 21
1.0
 31
0.0
 73
     1
 44
1.0
1001
AcDbBlockRepETag
1070
     1
1071
       47
1005
11DCF
1001
ACAD
1000
MTEXTBEGIN
1070
    73
1070
     1
1070
    44
1040
1.0
1070
    74
1070
     0
1000
MTEXTEND
  0
LINE
  5
11DD0
330
10FE8
100
AcDbEntity
  8
图框
370
    -3
100
AcDbLine
 10
836.9128518455394
 20
675.0207195125422
 30
0.0
 11
836.9128518455394
 21
684.5021384922564
 31
0.0
1001
AcDbBlockRepETag
1070
     1
1071
       48
1005
11DD0
  0
LINE
  5
11DD1
330
10FE8
100
AcDbEntity
  8
图框
370
    -3
100
AcDbLine
 10
842.6237321475781
 20
675.5347692601515
 30
0.0
 11
842.6237321475781
 21
685.0161882398658
 31
0.0
1001
AcDbBlockRepETag
1070
     1
1071
       49
1005
11DD1
  0
LINE
  5
11DD2
330
10FE8
100
AcDbEntity
  8
图框
370
    -3
100
AcDbLine
 10
848.3346124496179
 20
675.5347692601515
 30
0.0
 11
848.3346124496179
 21
685.0161882398658
 31
0.0
1001
AcDbBlockRepETag
1070
     1
1071
       50
1005
11DD2
  0
LINE
  5
11DD3
330
10FE8
100
AcDbEntity
  8
图框
370
    -3
100
AcDbLine
 10
854.0454927516588
 20
675.5347692601515
 30
0.0
 11
854.0454927516588
 21
685.0161882398658
 31
0.0
1001
AcDbBlockRepETag
1070
     1
1071
       51
1005
11DD3
  0
LINE
  5
11DD4
330
10FE8
100
AcDbEntity
  8
图框
370
    -3
100
AcDbLine
 10
861.5351874539182
 20
675.5347692601515
 30
0.0
 11
861.5351874539182
 21
686.7901958362482
 31
0.0
1001
AcDbBlockRepETag
1070
     1
1071
       52
1005
11DD4
  0
MTEXT
  5
11DD5
330
10FE8
100
AcDbEntity
  8
图框
 62
     6
100
AcDbMText
 10
1105.329704038389
 20
678.859919059449
 30
0.0
 40
2.651776162684904
 41
2.557913877927211
 71
     1
 72
     5
  1
6
  7
Romans字体
 73
     1
 44
1.0
1001
AcDbBlockRepETag
1070
     1
1071
       53
1005
11DD5
1001
ACAD
1000
MTEXTBEGIN
1070
    73
1070
     1
1070
    44
1040
1.0
1070
    74
1070
     0
1000
MTEXTEND
  0
LINE
  5
11DD6
330
10FE8
100
AcDbEntity
  8
图框
 62
     6
100
AcDbLine
 10
1081.088565155284
 20
679.0347692601516
 30
0.0
 11
1081.088565155284
 21
675.5347692601515
 31
0.0
1001
AcDbBlockRepETag
1070
     1
1071
       54
1005
11DD6
  0
MTEXT
  5
11DD7
330
10FE8
100
AcDbEntity
  8
图框
 62
     6
100
AcDbMText
 10
1055.900596365941
 20
678.859919059449
 30
0.0
 40
2.651776162684904
 41
2.557913877927211
 71
     1
 72
     5
  1
5
  7
Romans字体
 73
     1
 44
1.0
1001
AcDbBlockRepETag
1070
     1
1071
       55
1005
11DD7
1001
ACAD
1000
MTEXTBEGIN
1070
    73
1070
     1
1070
    44
1040
1.0
1070
    74
1070
     0
1000
MTEXTEND
  0
LINE
  5
11DD8
330
10FE8
100
AcDbEntity
  8
图框
 62
     6
100
AcDbLine
 10
1031.553386436349
 20
679.0347692601516
 30
0.0
 11
1031.553386436349
 21
675.5347692601515
 31
0.0
1001
AcDbBlockRepETag
1070
     1
1071
       56
1005
11DD8
  0
MTEXT
  5
11DD9
330
10FE8
100
AcDbEntity
  8
图框
 62
     6
100
AcDbMText
 10
1006.36541764698
 20
678.7312083656147
 30
0.0
 40
2.651776162684904
 41
2.557913877927211
 71
     1
 72
     5
  1
4
  7
Romans字体
 73
     1
 44
1.0
1001
AcDbBlockRepETag
1070
     1
1071
       57
1005
11DD9
1001
ACAD
1000
MTEXTBEGIN
1070
    73
1070
     1
1070
    44
1040
1.0
1070
    74
1070
     0
1000
MTEXTEND
  0
LINE
  5
11DDA
330
10FE8
100
AcDbEntity
  8
图框
 62
     6
100
AcDbLine
 10
982.0182077173887
 20
679.0347692601516
 30
0.0
 11
982.0182077173887
 21
675.5347692601515
 31
0.0
1001
AcDbBlockRepETag
1070
     1
1071
       58
1005
11DDA
  0
MTEXT
  5
11DDB
330
10FE8
100
AcDbEntity
  8
图框
 62
     6
100
AcDbMText
 10
956.8302389280352
 20
678.859919059449
 30
0.0
 40
2.651776162684904
 41
2.557913877927211
 71
     1
 72
     5
  1
3
  7
Romans字体
 73
     1
 44
1.0
1001
AcDbBlockRepETag
1070
     1
1071
       59
1005
11DDB
1001
ACAD
1000
MTEXTBEGIN
1070
    73
1070
     1
1070
    44
1040
1.0
1070
    74
1070
     0
1000
MTEXTEND
  0
LINE
  5
11DDC
330
10FE8
100
AcDbEntity
  8
图框
 62
     6
100
AcDbLine
 10
932.4830289984245
 20
679.0347692601516
 30
0.0
 11
932.4830289984245
 21
675.5347692601515
 31
0.0
1001
AcDbBlockRepETag
1070
     1
1071
       60
1005
11DDC
  0
MTEXT
  5
11DDD
330
10FE8
100
AcDbEntity
  8
图框
 62
     6
100
AcDbMText
 10
907.295060209082
 20
678.859919059449
 30
0.0
 40
2.651776162684904
 41
2.557913877927211
 71
     1
 72
     5
  1
2
  7
Romans字体
 73
     1
 44
1.0
1001
AcDbBlockRepETag
1070
     1
1071
       61
1005
11DDD
1001
ACAD
1000
MTEXTBEGIN
1070
    73
1070
     1
1070
    44
1040
1.0
1070
    74
1070
     0
1000
MTEXTEND
  0
LINE
  5
11DDE
330
10FE8
100
AcDbEntity
  8
图框
 62
     6
100
AcDbLine
 10
882.9478502794648
 20
678.7962435131815
 30
0.0
 11
882.9478502794648
 21
675.5347692601515
 31
0.0
1001
AcDbBlockRepETag
1070
     1
1071
       62
1005
11DDE
  0
MTEXT
  5
11DDF
330
10FE8
100
AcDbEntity
  8
图框
 62
     6
100
AcDbMText
 10
862.6286629643733
 20
678.859919059449
 30
0.0
 40
2.651776162684904
 41
2.557913877927211
 71
     1
 72
     5
  1
1
  7
Romans字体
 73
     1
 44
1.0
1001
AcDbBlockRepETag
1070
     1
1071
       63
1005
11DDF
1001
ACAD
1000
MTEXTBEGIN
1070
    73
1070
     1
1070
    44
1040
1.0
1070
    74
1070
     0
1000
MTEXTEND
  0
LINE
  5
11DE0
330
10FE8
100
AcDbEntity
  8
图框
370
    -3
100
AcDbLine
 10
836.9128518455394
 20
675.0207195125422
 30
0.0
 11
836.9128518455394
 21
686.7901958362482
 31
0.0
1001
AcDbBlockRepETag
1070
     1
1071
       64
1005
11DE0
  0
LINE
  5
11DE1
330
10FE8
100
AcDbEntity
  8
图框
370
    50
100
AcDbLine
 10
836.9128518455394
 20
675.5347692601515
 30
0.0
 11
1126.928502610363
 21
675.5347692601515
 31
0.0
1001
AcDbBlockRepETag
1070
     1
1071
       65
1005
11DE1
  0
LINE
  5
11DE2
330
10FE8
100
AcDbEntity
  8
图框
370
    -3
100
AcDbLine
 10
842.6237321475781
 20
675.5347692601515
 30
0.0
 11
842.6237321475781
 21
686.7901958362482
 31
0.0
1001
AcDbBlockRepETag
1070
     1
1071
       66
1005
11DE2
  0
LINE
  5
11DE3
330
10FE8
100
AcDbEntity
  8
图框
370
    -3
100
AcDbLine
 10
848.3346124496179
 20
675.5347692601515
 30
0.0
 11
848.3346124496179
 21
686.7901958362482
 31
0.0
1001
AcDbBlockRepETag
1070
     1
1071
       67
1005
11DE3
  0
MTEXT
  5
11DE4
102
{ACAD_XDICTIONARY
360
1E5CD
102
}
330
10FE8
100
AcDbEntity
  8
图框
100
AcDbMText
 10
857.7903401027889
 20
686.7901958362482
 30
0.0
 40
1.958998408821398
 41
11.25542657609672
 71
     4
 72
     5
  1
{\W2.08073; }档案员{\H0.7x;\P\Fromans|c134;\W1.0325; \W0.75;Filing Clerk\fFangSong_GB2312|b0|i0|c134|p49; }
 11
-0.0000000000000002
 21
-1.0
 31
0.0
 73
     1
 44
1.0
1001
AcDbBlockRepETag
1070
     1
1071
       68
1005
11DE4
1001
ACAD
1000
MTEXTBEGIN
1070
    73
1070
     1
1070
    44
1040
1.0
1070
    74
1070
     0
1000
MTEXTEND
1000
ACAD_MTEXT_DEFINED_HEIGHT_BEGIN
1070
    46
1040
7.489694702258906
1000
ACAD_MTEXT_DEFINED_HEIGHT_END
  0
MTEXT
  5
11DE5
102
{ACAD_XDICTIONARY
360
1E5CF
102
}
330
10FE8
100
AcDbEntity
  8
图框
100
AcDbMText
 10
845.479172298598
 20
686.7901958362482
 30
0.0
 40
1.958998408821398
 41
11.25542657609672
 71
     4
 72
     5
  1
{\W0.524929; }日期{\Fromans|c134;/Date}
 11
-0.0000000000000002
 21
-1.0
 31
0.0
 73
     1
 44
1.0
1001
AcDbBlockRepETag
1070
     1
1071
       69
1005
11DE5
1001
ACAD
1000
MTEXTBEGIN
1070
    73
1070
     1
1070
    44
1040
1.0
1070
    74
1070
     0
1000
MTEXTEND
1000
ACAD_MTEXT_DEFINED_HEIGHT_BEGIN
1070
    46
1040
5.710880302039671
1000
ACAD_MTEXT_DEFINED_HEIGHT_END
  0
LINE
  5
11DE6
330
10FE8
100
AcDbEntity
  8
图框
370
    -3
100
AcDbLine
 10
854.0454927516588
 20
675.5347692601515
 30
0.0
 11
854.0454927516588
 21
686.7901958362482
 31
0.0
1001
AcDbBlockRepETag
1070
     1
1071
       70
1005
11DE6
  0
LINE
  5
11DE7
330
10FE8
100
AcDbEntity
  8
图框
370
    -3
100
AcDbLine
 10
1036.653967466372
 20
531.3291676047914
 30
0.0
 11
1036.653967466372
 21
484.0126019753161
 31
0.0
1001
AcDbBlockRepETag
1070
     1
1071
       71
1005
11DE7
  0
LINE
  5
11DE8
330
10FE8
100
AcDbEntity
  8
图框
370
    -3
100
AcDbLine
 10
1047.483315900763
 20
507.6708838011533
 30
0.0
 11
1047.483315900763
 21
491.8986945987308
 31
0.0
1001
AcDbBlockRepETag
1070
     1
1071
       72
1005
11DE8
  0
LINE
  5
11DE9
330
10FE8
100
AcDbEntity
  8
图框
370
    -3
100
AcDbLine
 10
1058.312664335153
 20
507.6708838011533
 30
0.0
 11
1058.312664335153
 21
484.0347692601515
 31
0.0
1001
AcDbBlockRepETag
1070
     1
1071
       73
1005
11DE9
  0
LINE
  5
11DEA
330
10FE8
100
AcDbEntity
  8
图框
370
    25
100
AcDbLine
 10
1048.474135214456
 20
488.1095628329926
 30
0.0
 11
1054.946420288459
 21
488.1095628329926
 31
0.0
1001
AcDbBlockRepETag
1070
     1
1071
       74
1005
11DEA
  0
LINE
  5
11DEB
330
10FE8
100
AcDbEntity
  8
图框
370
    25
100
AcDbLine
 10
1054.232527365989
 20
487.0761716842634
 30
0.0
 11
1049.156490914508
 21
486.4576273751
 31
0.0
1001
AcDbBlockRepETag
1070
     1
1071
       75
1005
11DEB
  0
LINE
  5
11DEC
330
10FE8
100
AcDbEntity
  8
图框
370
    25
100
AcDbLine
 10
1054.232527365989
 20
489.1429539817209
 30
0.0
 11
1049.156490914508
 21
489.7614982908846
 31
0.0
1001
AcDbBlockRepETag
1070
     1
1071
       76
1005
11DEC
  0
LINE
  5
11DED
330
10FE8
100
AcDbEntity
  8
图框
370
    25
100
AcDbLine
 10
1049.156490914508
 20
489.7614982908846
 30
0.0
 11
1049.156490914508
 21
486.4576273751
 31
0.0
1001
AcDbBlockRepETag
1070
     1
1071
       77
1005
11DED
  0
LINE
  5
11DEE
330
10FE8
100
AcDbEntity
  8
图框
370
    25
100
AcDbLine
 10
1054.232527365989
 20
489.1429539817209
 30
0.0
 11
1054.232527365989
 21
487.0761716842634
 31
0.0
1001
AcDbBlockRepETag
1070
     1
1071
       78
1005
11DEE
  0
CIRCLE
  5
11DEF
330
10FE8
100
AcDbEntity
  8
图框
370
    25
100
AcDbCircle
 10
1042.502700458579
 20
488.1095628329926
 30
0.0
 40
1.651935457891863
1001
AcDbBlockRepETag
1070
     1
1071
       79
1005
11DEF
  0
CIRCLE
  5
11DF0
330
10FE8
100
AcDbEntity
  8
图框
370
    25
100
AcDbCircle
 10
1042.502700458579
 20
488.1095628329926
 30
0.0
 40
1.033391148728775
1001
AcDbBlockRepETag
1070
     1
1071
       80
1005
11DF0
  0
LINE
  5
11DF1
330
10FE8
100
AcDbEntity
  8
图框
370
    25
100
AcDbLine
 10
1040.136872078216
 20
488.1095628329926
 30
0.0
 11
1044.868528838943
 21
488.1095628329926
 31
0.0
1001
AcDbBlockRepETag
1070
     1
1071
       81
1005
11DF1
  0
LINE
  5
11DF2
330
10FE8
100
AcDbEntity
  8
图框
370
    25
100
AcDbLine
 10
1042.502700458579
 20
490.475391213355
 30
0.0
 11
1042.502700458579
 21
485.743734452629
 31
0.0
1001
AcDbBlockRepETag
1070
     1
1071
       82
1005
11DF2
  0
LINE
  5
11DF3
330
10FE8
100
AcDbEntity
  8
图框
370
    -3
100
AcDbLine
 10
1069.142012769546
 20
507.6708838011533
 30
0.0
 11
1069.142012769546
 21
491.8986945987308
 31
0.0
1001
AcDbBlockRepETag
1070
     1
1071
       83
1005
11DF3
  0
MTEXT
  5
11DF4
330
10FE8
100
AcDbEntity
  8
图框
100
AcDbMText
 10
1086.643735910939
 20
526.8006839312707
 30
0.0
 40
2.154898249703542
 41
13.34474941400573
 71
     5
 72
     5
  1
图号{\Ftxt|c134;\P\Fromans|c134;\W0.65;Drawing No.}
 73
     1
 44
1.0
1001
AcDbBlockRepETag
1070
     1
1071
       84
1005
11DF4
1001
ACAD
1000
MTEXTBEGIN
1070
    73
1070
     1
1070
    44
1040
1.0
1070
    74
1070
     0
1000
MTEXTEND
1000
ACAD_MTEXT_DEFINED_HEIGHT_BEGIN
1070
    46
1040
9.056967347041775
1000
ACAD_MTEXT_DEFINED_HEIGHT_END
  0
LINE
  5
11DF5
330
10FE8
100
AcDbEntity
  8
图框
370
    -3
100
AcDbLine
 10
1093.316110617942
 20
531.3291676047914
 30
0.0
 11
1093.316110617942
 21
495.8417418993347
 31
0.0
1001
AcDbBlockRepETag
1070
     1
1071
       85
1005
11DF5
  0
LINE
  5
11DF6
330
10FE8
100
AcDbEntity
  8
图框
370
    -3
100
AcDbLine
 10
1047.473969770481
 20
531.3291676047914
 30
0.0
 11
1047.473969770481
 21
507.6708838011533
 31
0.0
1001
AcDbBlockRepETag
1070
     1
1071
       86
1005
11DF6
  0
MTEXT
  5
11DF7
330
10FE8
100
AcDbEntity
  8
图框
100
AcDbMText
 10
1063.72733855235
 20
503.7278365005473
 30
0.0
 40
2.252848170144607
 41
10.82934843439208
 71
     5
 72
     5
  1
重量\P{\Fromans|c134;Weight}
 73
     1
 44
1.0
1001
AcDbBlockRepETag
1070
     1
1071
       87
1005
11DF7
1001
ACAD
1000
MTEXTBEGIN
1070
    73
1070
     1
1070
    44
1040
1.0
1070
    74
1070
     0
1000
MTEXTEND
1000
ACAD_MTEXT_DEFINED_HEIGHT_BEGIN
1070
    46
1040
7.886094601212128
1000
ACAD_MTEXT_DEFINED_HEIGHT_END
  0
LINE
  5
11DF8
330
10FE8
100
AcDbEntity
  8
图框
370
    -3
100
AcDbLine
 10
1036.653967466372
 20
519.5000257029746
 30
0.0
 11
1079.971361203936
 21
519.5000257029746
 31
0.0
1001
AcDbBlockRepETag
1070
     1
1071
       88
1005
11DF8
  0
MTEXT
  5
11DF9
330
10FE8
100
AcDbEntity
  8
图框
100
AcDbMText
 10
1074.556686986741
 20
503.7278365005473
 30
0.0
 40
2.252848170144607
 41
10.82934843438984
 71
     5
 72
     5
  1
数量\P{\Fromans|c134;Qty.}
 73
     1
 44
1.0
1001
AcDbBlockRepETag
1070
     1
1071
       89
1005
11DF9
1001
ACAD
1000
MTEXTBEGIN
1070
    73
1070
     1
1070
    44
1040
1.0
1070
    74
1070
     0
1000
MTEXTEND
1000
ACAD_MTEXT_DEFINED_HEIGHT_BEGIN
1070
    46
1040
7.886094601212141
1000
ACAD_MTEXT_DEFINED_HEIGHT_END
  0
LINE
  5
11DFA
330
10FE8
100
AcDbEntity
  8
图框
370
    -3
100
AcDbLine
 10
1079.971361203936
 20
495.8417418993347
 30
0.0
 11
1126.928502610363
 21
495.8417418993342
 31
0.0
1001
AcDbBlockRepETag
1070
     1
1071
       90
1005
11DFA
  0
LINE
  5
11DFB
330
10FE8
100
AcDbEntity
  8
图框
370
    -3
100
AcDbLine
 10
1079.971361203936
 20
504.7132992040975
 30
0.0
 11
1126.928502610363
 21
504.7132992040975
 31
0.0
1001
AcDbBlockRepETag
1070
     1
1071
       91
1005
11DFB
  0
MTEXT
  5
11DFC
330
10FE8
100
AcDbEntity
  8
图框
100
AcDbMText
 10
1052.893317052817
 20
503.7278365005473
 30
0.0
 40
2.252848170144607
 41
10.83869456467139
 71
     5
 72
     5
  1
版本\P{\Fromans|c134;REV.}
 73
     1
 44
1.0
1001
AcDbBlockRepETag
1070
     1
1071
       92
1005
11DFC
1001
ACAD
1000
MTEXTBEGIN
1070
    73
1070
     1
1070
    44
1040
1.0
1070
    74
1070
     0
1000
MTEXTEND
1000
ACAD_MTEXT_DEFINED_HEIGHT_BEGIN
1070
    46
1040
7.886094601212101
1000
ACAD_MTEXT_DEFINED_HEIGHT_END
  0
MTEXT
  5
11DFD
330
10FE8
100
AcDbEntity
  8
图框
100
AcDbMText
 10
1042.068641683568
 20
503.7278365005473
 30
0.0
 40
2.252848170144607
 41
10.8293484343908
 71
     5
 72
     5
  1
比例\P{\Fromans|c134;Scale}
 73
     1
 44
1.0
1001
AcDbBlockRepETag
1070
     1
1071
       93
1005
11DFD
1001
ACAD
1000
MTEXTBEGIN
1070
    73
1070
     1
1070
    44
1040
1.0
1070
    74
1070
     0
1000
MTEXTEND
1000
ACAD_MTEXT_DEFINED_HEIGHT_BEGIN
1070
    46
1040
7.886094601212136
1000
ACAD_MTEXT_DEFINED_HEIGHT_END
  0
LINE
  5
11DFE
330
10FE8
100
AcDbEntity
  8
图框
370
    -3
100
AcDbLine
 10
1036.653967466372
 20
507.6708838011533
 30
0.0
 11
1079.971361203936
 21
507.6708838011533
 31
0.0
1001
AcDbBlockRepETag
1070
     1
1071
       94
1005
11DFE
  0
LINE
  5
11DFF
330
10FE8
100
AcDbEntity
  8
图框
370
    -3
100
AcDbLine
 10
1036.653967466372
 20
491.8986945987308
 30
0.0
 11
1079.971361203936
 21
491.8986945987308
 31
0.0
1001
AcDbBlockRepETag
1070
     1
1071
       95
1005
11DFF
  0
LINE
  5
11E00
330
10FE8
100
AcDbEntity
  8
图框
370
    -3
100
AcDbLine
 10
1079.971361203936
 20
531.3291676047914
 30
0.0
 11
1079.971361203936
 21
484.0125999975168
 31
0.0
1001
AcDbBlockRepETag
1070
     1
1071
       96
1005
11E00
  0
MTEXT
  5
11E01
330
10FE8
100
AcDbEntity
  8
图框
100
AcDbMText
 10
1042.063968618426
 20
525.4145966538832
 30
0.0
 40
2.252848170144607
 41
10.82000230410933
 71
     5
 72
     5
  1
表面处理\P{\Fromans|c134;Finish}
 73
     1
 44
1.0
1001
AcDbBlockRepETag
1070
     1
1071
       97
1005
11E01
1001
ACAD
1000
MTEXTBEGIN
1070
    73
1070
     1
1070
    44
1040
1.0
1070
    74
1070
     0
1000
MTEXTEND
1000
ACAD_MTEXT_DEFINED_HEIGHT_BEGIN
1070
    46
1040
11.82914190181708
1000
ACAD_MTEXT_DEFINED_HEIGHT_END
  0
MTEXT
  5
11E02
330
10FE8
100
AcDbEntity
  8
图框
100
AcDbMText
 10
1042.063968618426
 20
513.5854547520639
 30
0.0
 40
2.252848170144607
 41
10.82000230410933
 71
     5
 72
     5
  1
材料\P{\Fromans|c134;Material}
 73
     1
 44
1.0
1001
AcDbBlockRepETag
1070
     1
1071
       98
1005
11E02
1001
ACAD
1000
MTEXTBEGIN
1070
    73
1070
     1
1070
    44
1040
1.0
1070
    74
1070
     0
1000
MTEXTEND
1000
ACAD_MTEXT_DEFINED_HEIGHT_BEGIN
1070
    46
1040
11.8291419018212
1000
ACAD_MTEXT_DEFINED_HEIGHT_END
  0
LINE
  5
11E03
330
10FE8
100
AcDbEntity
  8
图框
370
    -3
100
AcDbLine
 10
1079.971361203936
 20
522.27220025775
 30
0.0
 11
1126.928502610363
 21
522.27220025775
 31
0.0
1001
AcDbBlockRepETag
1070
     1
1071
       99
1005
11E03
  0
LINE
  5
11E04
330
10FE8
100
AcDbEntity
  8
图框
370
    -3
100
AcDbLine
 10
1079.971361203936
 20
513.5854547520641
 30
0.0
 11
1126.928502610363
 21
513.5854547520639
 31
0.0
1001
AcDbBlockRepETag
1070
     1
1071
      100
1005
11E04
  0
MTEXT
  5
11E05
330
10FE8
100
AcDbEntity
  8
图框
100
AcDbMText
 10
1086.643735910939
 20
517.9288275049072
 30
0.0
 40
1.958998408821398
 41
13.34474941400573
 71
     5
 72
     5
  1
产品代号\P{\Fromans|c134;Part Code}
 73
     1
 44
1.0
1001
AcDbBlockRepETag
1070
     1
1071
      101
1005
11E05
1001
ACAD
1000
MTEXTBEGIN
1070
    73
1070
     1
1070
    44
1040
1.0
1070
    74
1070
     0
1000
MTEXTEND
1000
ACAD_MTEXT_DEFINED_HEIGHT_BEGIN
1070
    46
1040
8.686745505685811
1000
ACAD_MTEXT_DEFINED_HEIGHT_END
  0
LINE
  5
11E06
330
10FE8
100
AcDbEntity
  8
图框
370
    -3
100
AcDbLine
 10
946.9285026103634
 20
525.7982263931411
 30
0.0
 11
1036.653967466372
 21
525.7982263931411
 31
0.0
1001
AcDbBlockRepETag
1070
     1
1071
      102
1005
11E06
  0
LINE
  5
11E07
330
10FE8
100
AcDbEntity
  8
图框
370
    -3
100
AcDbLine
 10
946.9285026103634
 20
520.2672851814959
 30
0.0
 11
1036.653967466372
 21
520.2672851814959
 31
0.0
1001
AcDbBlockRepETag
1070
     1
1071
      103
1005
11E07
  0
LINE
  5
11E08
330
10FE8
100
AcDbEntity
  8
图框
370
    35
100
AcDbLine
 10
946.9285026103634
 20
531.3291676047914
 30
0.0
 11
1126.928502610363
 21
531.3291676047914
 31
0.0
1001
AcDbBlockRepETag
1070
     1
1071
      104
1005
11E08
  0
LINE
  5
11E09
330
10FE8
100
AcDbEntity
  8
图框
370
    -3
100
AcDbLine
 10
990.6727612856927
 20
509.2054027581959
 30
0.0
 11
990.6727612856927
 21
484.0347692601515
 31
0.0
1001
AcDbBlockRepETag
1070
     1
1071
      105
1005
11E09
  0
MTEXT
  5
11E0A
102
{ACAD_XDICTIONARY
360
1E5D1
102
}
330
10FE8
100
AcDbEntity
  8
图框
100
AcDbMText
 10
997.1628169651232
 20
499.816589978722
 30
0.0
 40
2.252848170144607
 41
12.98011135886052
 71
     5
 72
     5
  1
{\fSimSun|b0|i0|c134|p2;标准化}\PStand.
  7
Romans字体
 73
     1
 44
1.0
1001
AcDbBlockRepETag
1070
     1
1071
      106
1005
11E0A
1001
ACAD
1000
MTEXTBEGIN
1070
    73
1070
     1
1070
    44
1040
1.0
1070
    74
1070
     0
1000
MTEXTEND
1000
ACAD_MTEXT_DEFINED_HEIGHT_BEGIN
1070
    46
1040
6.19230880992475
1000
ACAD_MTEXT_DEFINED_HEIGHT_END
  0
LINE
  5
11E0B
330
10FE8
100
AcDbEntity
  8
图框
370
    -3
100
AcDbLine
 10
975.4103773808022
 20
509.2054027581959
 30
0.0
 11
975.4103773808022
 21
484.0347692601515
 31
0.0
1001
AcDbBlockRepETag
1070
     1
1071
      107
1005
11E0B
  0
MTEXT
  5
11E0C
330
10FE8
100
AcDbEntity
  8
图框
100
AcDbMText
 10
984.5089229802068
 20
511.9708733640202
 30
0.0
 40
2.448748011026752
 41
38.287899328693
 71
     5
 72
     5
  1
  变更描述{\Fromans|c134;/Description}
 73
     1
 44
1.0
1001
AcDbBlockRepETag
1070
     1
1071
      108
1005
11E0C
1001
ACAD
1000
MTEXTBEGIN
1070
    73
1070
     1
1070
    44
1040
1.0
1070
    74
1070
     0
1000
MTEXTEND
1000
ACAD_MTEXT_DEFINED_HEIGHT_BEGIN
1070
    46
1040
5.530941211648832
1000
ACAD_MTEXT_DEFINED_HEIGHT_END
  0
MTEXT
  5
11E0D
102
{ACAD_XDICTIONARY
360
1E5D3
102
}
330
10FE8
100
AcDbEntity
  8
图框
100
AcDbMText
 10
1012.466086049227
 20
511.9708733640202
 30
0.0
 40
1.958998408821398
 41
17.6264268093469
 71
     5
 72
     5
  1
签名\P{\Fromans|c134;Signature} 
 73
     1
 44
1.0
1001
AcDbBlockRepETag
1070
     1
1071
      109
1005
11E0D
1001
ACAD
1000
MTEXTBEGIN
1070
    73
1070
     1
1070
    44
1040
1.0
1070
    74
1070
     0
1000
MTEXTEND
1000
ACAD_MTEXT_DEFINED_HEIGHT_BEGIN
1070
    46
1040
5.530941211648825
1000
ACAD_MTEXT_DEFINED_HEIGHT_END
  0
MTEXT
  5
11E0E
102
{ACAD_XDICTIONARY
360
1E5D5
102
}
330
10FE8
100
AcDbEntity
  8
图框
100
AcDbMText
 10
960.7558556394856
 20
511.9708733640202
 30
0.0
 40
1.958998408821398
 41
9.218235352749283
 71
     5
 72
     5
  1
处数\P{\Fromans|c134;Number }
 73
     1
 44
1.0
1001
AcDbBlockRepETag
1070
     1
1071
      110
1005
11E0E
1001
ACAD
1000
MTEXTBEGIN
1070
    73
1070
     1
1070
    44
1040
1.0
1070
    74
1070
     0
1000
MTEXTEND
1000
ACAD_MTEXT_DEFINED_HEIGHT_BEGIN
1070
    46
1040
5.530941211648841
1000
ACAD_MTEXT_DEFINED_HEIGHT_END
  0
LINE
  5
11E0F
330
10FE8
100
AcDbEntity
  8
图框
370
    -3
100
AcDbLine
 10
946.9285026103634
 20
514.7363439698449
 30
0.0
 11
1036.653967466372
 21
514.7363439698449
 31
0.0
1001
AcDbBlockRepETag
1070
     1
1071
      111
1005
11E0F
  0
LINE
  5
11E10
330
10FE8
100
AcDbEntity
  8
图框
370
    -3
100
AcDbLine
 10
946.9285026103634
 20
509.2054027581959
 30
0.0
 11
1036.653967466372
 21
509.2054027581959
 31
0.0
1001
AcDbBlockRepETag
1070
     1
1071
      112
1005
11E10
  0
LINE
  5
11E11
330
10FE8
100
AcDbEntity
  8
图框
370
    -3
100
AcDbLine
 10
946.9285026103634
 20
502.9127443836848
 30
0.0
 11
1036.653967466372
 21
502.9127443836848
 31
0.0
1001
AcDbBlockRepETag
1070
     1
1071
      113
1005
11E11
  0
LINE
  5
11E12
330
10FE8
100
AcDbEntity
  8
图框
370
    -3
100
AcDbLine
 10
946.9285026103634
 20
496.620086009173
 30
0.0
 11
1036.653967466372
 21
496.620086009173
 31
0.0
1001
AcDbBlockRepETag
1070
     1
1071
      114
1005
11E12
  0
LINE
  5
11E13
330
10FE8
100
AcDbEntity
  8
图框
370
    35
380
     1
100
AcDbLine
 10
946.9285026103634
 20
531.3291676047914
 30
0.0
 11
946.9285026103634
 21
484.0347692601515
 31
0.0
1001
AcDbBlockRepETag
1070
     1
1071
      115
1005
11E13
  0
LINE
  5
11E14
330
10FE8
100
AcDbEntity
  8
图框
370
    -3
100
AcDbLine
 10
1021.301636813399
 20
531.3291676047914
 30
0.0
 11
1021.301636813399
 21
484.0347692601515
 31
0.0
1001
AcDbBlockRepETag
1070
     1
1071
      116
1005
11E14
  0
LINE
  5
11E15
330
10FE8
100
AcDbEntity
  8
图框
370
    -3
100
AcDbLine
 10
1003.652872644553
 20
531.3291676047914
 30
0.0
 11
1003.652872644553
 21
484.0347692601515
 31
0.0
1001
AcDbBlockRepETag
1070
     1
1071
      117
1005
11E15
  0
LINE
  5
11E16
330
10FE8
100
AcDbEntity
  8
图框
370
    -3
100
AcDbLine
 10
965.3649733158603
 20
531.3291676047914
 30
0.0
 11
965.3649733158603
 21
509.2054027581959
 31
0.0
1001
AcDbBlockRepETag
1070
     1
1071
      118
1005
11E16
  0
LINE
  5
11E17
330
10FE8
100
AcDbEntity
  8
图框
370
    -3
100
AcDbLine
 10
956.1467379631109
 20
531.3291676047914
 30
0.0
 11
956.1467379631109
 21
509.2054027581959
 31
0.0
1001
AcDbBlockRepETag
1070
     1
1071
      119
1005
11E17
  0
MTEXT
  5
11E18
102
{ACAD_XDICTIONARY
360
1E5D7
102
}
330
10FE8
100
AcDbEntity
  8
图框
100
AcDbMText
 10
951.537620286737
 20
511.9708733640202
 30
0.0
 40
1.958998408821398
 41
9.218235352747692
 71
     5
 72
     5
  1
标记\P{\Fromans|c134;Mark}
 73
     1
 44
1.0
1001
AcDbBlockRepETag
1070
     1
1071
      120
1005
11E18
1001
ACAD
1000
MTEXTBEGIN
1070
    73
1070
     1
1070
    44
1040
1.0
1070
    74
1070
     0
1000
MTEXTEND
1000
ACAD_MTEXT_DEFINED_HEIGHT_BEGIN
1070
    46
1040
5.530941211648832
1000
ACAD_MTEXT_DEFINED_HEIGHT_END
  0
MTEXT
  5
11E19
102
{ACAD_XDICTIONARY
360
1E5D9
102
}
330
10FE8
100
AcDbEntity
  8
图框
100
AcDbMText
 10
953.4185582897936
 20
493.4737568219182
 30
0.0
 40
2.252848170144607
 41
12.98011135886041
 71
     5
 72
     5
  1
审核\P{\Fromans|c134;Checked}
 73
     1
 44
1.0
1001
AcDbBlockRepETag
1070
     1
1071
      121
1005
11E19
1001
ACAD
1000
MTEXTBEGIN
1070
    73
1070
     1
1070
    44
1040
1.0
1070
    74
1070
     0
1000
MTEXTEND
1000
ACAD_MTEXT_DEFINED_HEIGHT_BEGIN
1070
    46
1040
6.292658374510382
1000
ACAD_MTEXT_DEFINED_HEIGHT_END
  0
MTEXT
  5
11E1A
102
{ACAD_XDICTIONARY
360
1E5DB
102
}
330
10FE8
100
AcDbEntity
  8
图框
100
AcDbMText
 10
953.4185582897936
 20
499.8775635376777
 30
0.0
 40
2.252848170144607
 41
12.98011135886041
 71
     5
 72
     5
  1
绘图\P{\Fromans|c134;Drawn\Ftxt|c134; }
 73
     1
 44
1.0
1001
AcDbBlockRepETag
1070
     1
1071
      122
1005
11E1A
1001
ACAD
1000
MTEXTBEGIN
1070
    73
1070
     1
1070
    44
1040
1.0
1070
    74
1070
     0
1000
MTEXTEND
1000
ACAD_MTEXT_DEFINED_HEIGHT_BEGIN
1070
    46
1040
6.070361692014189
1000
ACAD_MTEXT_DEFINED_HEIGHT_END
  0
ARC
  5
11E1B
330
10FE8
100
AcDbEntity
  8
图框
 62
     4
370
    35
100
AcDbCircle
 10
1086.900627017421
 20
490.0179944151195
 30
0.0
 40
4.063310408393665
100
AcDbArc
 50
18.95237904564806
 51
161.0476209543519
1001
AcDbBlockRepETag
1070
     1
1071
      123
1005
11E1B
  0
ARC
  5
11E1C
330
10FE8
100
AcDbEntity
  8
图框
 62
     4
370
    35
100
AcDbCircle
 10
1086.900627017421
 20
490.0179944151195
 30
0.0
 40
4.063310408393665
100
AcDbArc
 50
198.952379045648
 51
341.0476209543519
1001
AcDbBlockRepETag
1070
     1
1071
      124
1005
11E1C
  0
LINE
  5
11E1D
330
10FE8
100
AcDbEntity
  8
图框
 62
     4
370
    35
100
AcDbLine
 10
1083.057593369548
 20
488.6983035966752
 30
0.0
 11
1090.74366066529
 21
488.6983035966752
 31
0.0
1001
AcDbBlockRepETag
1070
     1
1071
      125
1005
11E1D
  0
LINE
  5
11E1E
330
10FE8
100
AcDbEntity
  8
图框
 62
     4
370
    35
100
AcDbLine
 10
1083.057593369548
 20
491.3376852335652
 30
0.0
 11
1090.74366066529
 21
491.3376852335652
 31
0.0
1001
AcDbBlockRepETag
1070
     1
1071
      126
1005
11E1E
  0
MTEXT
  5
11E1F
330
10FE8
100
AcDbEntity
  8
图框
 62
     1
370
    20
100
AcDbMText
 10
1083.034582879669
 20
491.0506288081688
 30
0.0
 40
2.005930044038334
 41
5.047240019334847
 71
     1
 72
     5
  1
{\fArial|b0|i0|c0|p34;W}
  7
Chinese
 73
     1
 44
1.0
1001
AcDbBlockRepETag
1070
     1
1071
      127
1005
11E1F
1001
ACAD
1000
MTEXTBEGIN
1070
    73
1070
     1
1070
    44
1040
1.0
1070
    74
1070
     0
1000
MTEXTEND
  0
LINE
  5
11E20
330
10FE8
100
AcDbEntity
  8
图框
370
    -3
100
AcDbLine
 10
946.9285026103634
 20
490.327427634663
 30
0.0
 11
1036.653967466372
 21
490.327427634663
 31
0.0
1001
AcDbBlockRepETag
1070
     1
1071
      128
1005
11E20
  0
LINE
  5
11E21
330
10FE8
100
AcDbEntity
  8
图框
370
    -3
100
AcDbLine
 10
959.9086139692238
 20
509.2054027581959
 30
0.0
 11
959.9086139692238
 21
484.0347692601515
 31
0.0
1001
AcDbBlockRepETag
1070
     1
1071
      129
1005
11E21
  0
MTEXT
  5
11E22
330
10FE8
100
AcDbEntity
  8
图框
100
AcDbMText
 10
967.6594956750129
 20
506.0590735709403
 30
0.0
 40
2.252848170144607
 41
15.50176341157869
 71
     5
 72
     5
  1
姓名{\Fromans|c134;/Name\Ftxt|c134; }
 73
     1
 44
1.0
1001
AcDbBlockRepETag
1070
     1
1071
      130
1005
11E22
1001
ACAD
1000
MTEXTBEGIN
1070
    73
1070
     1
1070
    44
1040
1.0
1070
    74
1070
     0
1000
MTEXTEND
1000
ACAD_MTEXT_DEFINED_HEIGHT_BEGIN
1070
    46
1040
6.292658374511246
1000
ACAD_MTEXT_DEFINED_HEIGHT_END
  0
MTEXT
  5
11E23
330
10FE8
100
AcDbEntity
  8
图框
100
AcDbMText
 10
983.0415693332477
 20
506.0590735709403
 30
0.0
 40
2.252848170144607
 41
15.26238390489042
 71
     5
 72
     5
  1
日期{\Fromans|c134;/Date}
 73
     1
 44
1.0
1001
AcDbBlockRepETag
1070
     1
1071
      131
1005
11E23
1001
ACAD
1000
MTEXTBEGIN
1070
    73
1070
     1
1070
    44
1040
1.0
1070
    74
1070
     0
1000
MTEXTEND
1000
ACAD_MTEXT_DEFINED_HEIGHT_BEGIN
1070
    46
1040
6.2926583745112
1000
ACAD_MTEXT_DEFINED_HEIGHT_END
  0
LINE
  5
11E24
330
10FE8
100
AcDbEntity
  8
图框
370
    -3
100
AcDbLine
 10
946.9285026103634
 20
509.2054027581959
 30
0.0
 11
959.9086139692238
 21
502.9127443836848
 31
0.0
1001
AcDbBlockRepETag
1070
     1
1071
      132
1005
11E24
  0
MTEXT
  5
11E25
330
10FE8
100
AcDbEntity
  8
图框
100
AcDbMText
 10
1012.931405110086
 20
506.0185715840725
 30
0.0
 40
2.252848170144607
 41
16.93492221063566
 71
     5
 72
     5
  1
姓名{\Fromans|c134;/Name}
 73
     1
 44
1.0
1001
AcDbBlockRepETag
1070
     1
1071
      133
1005
11E25
1001
ACAD
1000
MTEXTBEGIN
1070
    73
1070
     1
1070
    44
1040
1.0
1070
    74
1070
     0
1000
MTEXTEND
  0
MTEXT
  5
11E26
330
10FE8
100
AcDbEntity
  8
图框
100
AcDbMText
 10
1028.977802139886
 20
506.0590735709403
 30
0.0
 40
2.252848170144607
 41
15.35233065297283
 71
     5
 72
     5
  1
日期{\Fromans|c134;/Date}
 73
     1
 44
1.0
1001
AcDbBlockRepETag
1070
     1
1071
      134
1005
11E26
1001
ACAD
1000
MTEXTBEGIN
1070
    73
1070
     1
1070
    44
1040
1.0
1070
    74
1070
     0
1000
MTEXTEND
1000
ACAD_MTEXT_DEFINED_HEIGHT_BEGIN
1070
    46
1040
6.292658374511256
1000
ACAD_MTEXT_DEFINED_HEIGHT_END
  0
LINE
  5
11E27
330
10FE8
100
AcDbEntity
  8
图框
370
    -3
100
AcDbLine
 10
1003.652872644553
 20
502.9127443836848
 30
0.0
 11
990.6727612856927
 21
509.2054027581959
 31
0.0
1001
AcDbBlockRepETag
1070
     1
1071
      135
1005
11E27
  0
MTEXT
  5
11E28
102
{ACAD_XDICTIONARY
360
1E5DD
102
}
330
10FE8
100
AcDbEntity
  8
图框
100
AcDbMText
 10
997.1628169651232
 20
487.1810984474071
 30
0.0
 40
2.252848170144607
 41
12.98011135886052
 71
     5
 72
     5
  1
批准\P{\Fromans|c134;Approved}
 73
     1
 44
1.0
1001
AcDbBlockRepETag
1070
     1
1071
      136
1005
11E28
1001
ACAD
1000
MTEXTBEGIN
1070
    73
1070
     1
1070
    44
1040
1.0
1070
    74
1070
     0
1000
MTEXTEND
1000
ACAD_MTEXT_DEFINED_HEIGHT_BEGIN
1070
    46
1040
6.292658374511517
1000
ACAD_MTEXT_DEFINED_HEIGHT_END
  0
MTEXT
  5
11E29
102
{ACAD_XDICTIONARY
360
1E5DF
102
}
330
10FE8
100
AcDbEntity
  8
图框
100
AcDbMText
 10
953.4185582897936
 20
487.1810984474071
 30
0.0
 40
2.252848170144607
 41
12.98011135886041
 71
     5
 72
     5
  1
工艺\P{\Fromans|c134;Process}
 73
     1
 44
1.0
1001
AcDbBlockRepETag
1070
     1
1071
      137
1005
11E29
1001
ACAD
1000
MTEXTBEGIN
1070
    73
1070
     1
1070
    44
1040
1.0
1070
    74
1070
     0
1000
MTEXTEND
1000
ACAD_MTEXT_DEFINED_HEIGHT_BEGIN
1070
    46
1040
6.292658374511495
1000
ACAD_MTEXT_DEFINED_HEIGHT_END
  0
MTEXT
  5
11E2A
102
{ACAD_XDICTIONARY
360
1E5E1
102
}
330
10FE8
100
AcDbEntity
  8
图框
100
AcDbMText
 10
1028.977802139886
 20
511.8287965307664
 30
0.0
 40
1.958998408821398
 41
15.3523306529728
 71
     5
 72
     5
  1
日期\P{\Fromans|c134;Date}
 73
     1
 44
1.0
1001
AcDbBlockRepETag
1070
     1
1071
      138
1005
11E2A
1001
ACAD
1000
MTEXTBEGIN
1070
    73
1070
     1
1070
    44
1040
1.0
1070
    74
1070
     0
1000
MTEXTEND
1000
ACAD_MTEXT_DEFINED_HEIGHT_BEGIN
1070
    46
1040
5.246787545140668
1000
ACAD_MTEXT_DEFINED_HEIGHT_END
  0
MTEXT
  5
11E2B
330
10FE8
100
AcDbEntity
  8
图框
100
AcDbMText
 10
1086.643735910939
 20
509.1493769780809
 30
0.0
 40
2.154898249703542
 41
13.34474941400573
 71
     5
 72
     5
  1
产品料号\P{\Fromans|c134;Part No.}
 73
     1
 44
1.0
1001
AcDbBlockRepETag
1070
     1
1071
      139
1005
11E2B
1001
ACAD
1000
MTEXTBEGIN
1070
    73
1070
     1
1070
    44
1040
1.0
1070
    74
1070
     0
1000
MTEXTEND
1000
ACAD_MTEXT_DEFINED_HEIGHT_BEGIN
1070
    46
1040
8.87215554796615
1000
ACAD_MTEXT_DEFINED_HEIGHT_END
  0
MTEXT
  5
11E2C
330
10FE8
100
AcDbEntity
  8
图框
100
AcDbMText
 10
1086.643735910939
 20
500.2775205517163
 30
0.0
 40
1.958998408821398
 41
13.34474941400573
 71
     5
 72
     5
  1
产品名称\P{\Fromans|c134;Part Name}
 73
     1
 44
1.0
1001
AcDbBlockRepETag
1070
     1
1071
      140
1005
11E2C
1001
ACAD
1000
MTEXTBEGIN
1070
    73
1070
     1
1070
    44
1040
1.0
1070
    74
1070
     0
1000
MTEXTEND
1000
ACAD_MTEXT_DEFINED_HEIGHT_BEGIN
1070
    46
1040
8.871557304763321
1000
ACAD_MTEXT_DEFINED_HEIGHT_END
  0
LINE
  5
11E2D
330
10FE8
100
AcDbEntity
  8
图框
 62
     1
370
    18
100
AcDbLine
 10
833.4128518455365
 20
690.5347692601515
 30
0.0
 11
833.4128518455365
 21
480.5347692601515
 31
0.0
1001
AcDbBlockRepETag
1070
     1
1071
      141
1005
11E2D
  0
LINE
  5
11E2E
330
10FE8
100
AcDbEntity
  8
图框
 62
     1
370
    18
100
AcDbLine
 10
833.4128518455365
 20
480.5347692601515
 30
0.0
 11
1130.411601781236
 21
480.5347692601515
 31
0.0
1001
AcDbBlockRepETag
1070
     1
1071
      142
1005
11E2E
  0
LINE
  5
11E2F
330
10FE8
100
AcDbEntity
  8
图框
 62
     1
370
    18
100
AcDbLine
 10
833.4128518455365
 20
690.5347692601515
 30
0.0
 11
1130.411601781236
 21
690.5347692601515
 31
0.0
1001
AcDbBlockRepETag
1070
     1
1071
      143
1005
11E2F
  0
LINE
  5
11E30
330
10FE8
100
AcDbEntity
  8
图框
 62
     1
370
    18
100
AcDbLine
 10
1130.411601781236
 20
480.5347692601515
 30
0.0
 11
1130.411601781236
 21
690.5347692601515
 31
0.0
1001
AcDbBlockRepETag
1070
     1
1071
      144
1005
11E30
  0
LINE
  5
11E31
330
10FE8
100
AcDbEntity
  8
图框
370
    18
100
AcDbLine
 10
836.9128518455394
 20
686.7901958362482
 30
0.0
 11
861.5351874539182
 21
686.7901958362482
 31
0.0
1001
AcDbBlockRepETag
1070
     1
1071
      145
1005
11E31
  0
LINE
  5
11E32
330
10FE8
100
AcDbEntity
  8
图框
370
    50
100
AcDbLine
 10
1126.928502610363
 20
484.3410054693078
 30
0.0
 11
1126.928502610363
 21
675.5347692601515
 31
0.0
1001
AcDbBlockRepETag
1070
     1
1071
      146
1005
11E32
  0
MTEXT
  5
11E33
330
10FE8
100
AcDbEntity
  8
图框
 62
     3
100
AcDbMText
 10
1052.897990117958
 20
495.8417418993364
 30
0.0
 40
2.985513575034151
 41
10.82934843439114
 71
     5
 72
     5
  1
V1.0
  7
Romans字体
 73
     1
 44
1.0
1001
AcDbBlockRepETag
1070
     1
1071
      147
1005
11E33
1001
ACAD
1000
MTEXTBEGIN
1070
    73
1070
     1
1070
    44
1040
1.0
1070
    74
1070
     0
1000
MTEXTEND
1000
ACAD_MTEXT_DEFINED_HEIGHT_BEGIN
1070
    46
1040
7.886094601211307
1000
ACAD_MTEXT_DEFINED_HEIGHT_END
  0
LINE
  5
11E37
330
10FE8
100
AcDbEntity
  8
图框
 62
     6
100
AcDbLine
 10
1126.911601781236
 20
531.714049199969
 30
0.0
 11
1130.411601781236
 21
531.714049199969
 31
0.0
1001
AcDbBlockRepETag
1070
     1
1071
      148
1005
11E37
  0
ENDBLK
  5
1107F
330
10FE8
100
AcDbEntity
  8
0
100
AcDbBlockEnd
  0
BLOCK
  5
1E002
330
1E001
100
AcDbEntity
  8
0
100
AcDbBlockBegin
  2
*D2
 70
     1
 10
0.0
 20
0.0
 30
0.0
  3
*D2
  1

  0
LINE
  5
1E0BC
330
1E001
100
AcDbEntity
  8
DIM
 62
     6
370
    -2
100
AcDbLine
 10
472.7724027796717
 20
295.8394058643356
 30
0.0
 11
472.7724027796717
 21
283.7072032086517
 31
0.0
  0
LINE
  5
1E0BD
330
1E001
100
AcDbEntity
  8
DIM
 62
     6
370
    -2
100
AcDbLine
 10
441.1724027793916
 20
295.8394058643356
 30
0.0
 11
441.1724027793916
 21
283.7072032086517
 31
0.0
  0
LINE
  5
1E0BE
330
1E001
100
AcDbEntity
  8
DIM
 62
     1
370
    -2
100
AcDbLine
 10
469.7724027796716
 20
284.9072032086517
 30
0.0
 11
444.1724027793917
 21
284.9072032086517
 31
0.0
  0
SOLID
  5
1E0BF
330
1E001
100
AcDbEntity
  8
DIM
 62
     1
100
AcDbTrace
 10
469.7724027796716
 20
285.4072032086516
 30
0.0
 11
469.7724027796716
 21
284.4072032086517
 31
0.0
 12
472.7724027796717
 22
284.9072032086517
 32
0.0
 13
472.7724027796717
 23
284.9072032086517
 33
0.0
  0
SOLID
  5
1E0C0
330
1E001
100
AcDbEntity
  8
DIM
 62
     1
100
AcDbTrace
 10
444.1724027793917
 20
285.4072032086516
 30
0.0
 11
444.1724027793917
 21
284.4072032086517
 31
0.0
 12
441.1724027793916
 22
284.9072032086517
 32
0.0
 13
441.1724027793916
 23
284.9072032086517
 33
0.0
  0
MTEXT
  5
1E0C1
330
1E001
100
AcDbEntity
  8
DIM
 62
     4
100
AcDbMText
 10
456.5838613146951
 20
287.4572032086517
 30
0.0
 40
3.5
 41
0.0
 71
     5
 72
     1
  1
\A1;31.6
  7
Romans字体
 73
     1
 44
1.0
1001
ACAD
1000
MTEXTBEGIN
1070
    73
1070
     1
1070
    44
1040
1.0
1070
    74
1070
     0
1000
MTEXTEND
  0
POINT
  5
1E0C2
330
1E001
100
AcDbEntity
  8
Defpoints
 62
     0
100
AcDbPoint
 10
472.7724027796717
 20
296.0394058643356
 30
0.0
  0
POINT
  5
1E0C3
330
1E001
100
AcDbEntity
  8
Defpoints
 62
     0
100
AcDbPoint
 10
441.1724027793916
 20
296.0394058643356
 30
0.0
  0
POINT
  5
1E0C4
330
1E001
100
AcDbEntity
  8
Defpoints
 62
     0
100
AcDbPoint
 10
441.1724027793916
 20
284.9072032086517
 30
0.0
  0
ENDBLK
  5
1E003
330
1E001
100
AcDbEntity
  8
0
100
AcDbBlockEnd
  0
BLOCK
  5
1E00E
330
1E00D
100
AcDbEntity
  8
0
100
AcDbBlockBegin
  2
*D3
 70
     1
 10
0.0
 20
0.0
 30
0.0
  3
*D3
  1

  0
LINE
  5
1E145
330
1E00D
100
AcDbEntity
  8
DIM
 62
     6
370
    -2
100
AcDbLine
 10
505.5506012859776
 20
314.4894058641855
 30
0.0
 11
493.3690718122703
 21
314.4894058641855
 31
0.0
  0
LINE
  5
1E146
330
1E00D
100
AcDbEntity
  8
DIM
 62
     6
370
    -2
100
AcDbLine
 10
505.5506012859776
 20
293.4894058652854
 30
0.0
 11
493.3690718122703
 21
293.4894058652854
 31
0.0
  0
LINE
  5
1E147
330
1E00D
100
AcDbEntity
  8
DIM
 62
     1
370
    -2
100
AcDbLine
 10
494.5690718122706
 20
311.4894058641855
 30
0.0
 11
494.5690718122706
 21
296.4894058652854
 31
0.0
  0
SOLID
  5
1E148
330
1E00D
100
AcDbEntity
  8
DIM
 62
     1
100
AcDbTrace
 10
494.0690718122706
 20
311.4894058641855
 30
0.0
 11
495.0690718122706
 21
311.4894058641855
 31
0.0
 12
494.5690718122706
 22
314.4894058641855
 32
0.0
 13
494.5690718122706
 23
314.4894058641855
 33
0.0
  0
SOLID
  5
1E149
330
1E00D
100
AcDbEntity
  8
DIM
 62
     1
100
AcDbTrace
 10
494.0690718122706
 20
296.4894058652854
 30
0.0
 11
495.0690718122706
 21
296.4894058652854
 31
0.0
 12
494.5690718122706
 22
293.4894058652854
 32
0.0
 13
494.5690718122706
 23
293.4894058652854
 33
0.0
  0
MTEXT
  5
1E14A
330
1E00D
100
AcDbEntity
  8
DIM
 62
     4
100
AcDbMText
 10
491.8635162567148
 20
303.8102882710144
 30
0.0
 40
3.5
 41
0.0
 71
     5
 72
     1
  1
\A1;{\fSimSun|b0|i0|c134|p2;□}21
  7
Romans字体
 11
0.0000000000000001
 21
1.0
 31
0.0
 73
     1
 44
1.0
1001
ACAD
1000
MTEXTBEGIN
1070
    73
1070
     1
1070
    44
1040
1.0
1070
    74
1070
     0
1000
MTEXTEND
  0
POINT
  5
1E14B
330
1E00D
100
AcDbEntity
  8
Defpoints
 62
     0
100
AcDbPoint
 10
505.7506012859776
 20
314.4894058641855
 30
0.0
  0
POINT
  5
1E14C
330
1E00D
100
AcDbEntity
  8
Defpoints
 62
     0
100
AcDbPoint
 10
505.7506012859776
 20
293.4894058652854
 30
0.0
  0
POINT
  5
1E14D
330
1E00D
100
AcDbEntity
  8
Defpoints
 62
     0
100
AcDbPoint
 10
494.5690718122706
 20
293.4894058652854
 30
0.0
  0
ENDBLK
  5
1E00F
330
1E00D
100
AcDbEntity
  8
0
100
AcDbBlockEnd
  0
ENDSEC
  0
SECTION
  2
ENTITIES
  0
HATCH
  5
28AE
330
1F
100
AcDbEntity
  8
图层 1
 62
     7
100
AcDbHatch
 10
0.0
 20
0.0
 30
0.0
210
0.0
220
0.0
230
1.0
  2
SOLID
 70
     1
 71
     0
 91
        1
 92
        1
 93
        2
 72
     4
 94
        3
 73
     0
 74
     0
 95
       17
 96
       13
 40
0.0
 40
0.0
 40
0.0
 40
0.0
 40
0.3527780104152769
 40
0.3527780104152769
 40
0.3527780104152769
 40
0.7055560208305538
 40
0.7055560208305538
 40
0.7055560208305538
 40
1.058334031245828
 40
1.058334031245828
 40
1.058334031245828
 40
1.411112041661104
 40
1.411112041661104
 40
1.411112041661104
 40
1.411112041661104
 10
11.07013262565829
 20
29.50312817963231
 10
11.07013262565829
 20
29.50312817963231
 10
10.9431807732774
 20
29.50312817963231
 10
10.9431807732774
 20
29.50312817963231
 10
10.9431807732774
 20
29.50312817963231
 10
10.85843136843155
 20
29.22786486877117
 10
10.85843136843155
 20
29.22786486877117
 10
10.85843136843155
 20
29.22786486877117
 10
10.90080607085448
 20
29.2068497724476
 10
10.90080607085448
 20
29.2068497724476
 10
10.94455881238059
 20
29.31571486159919
 10
11.00346998404173
 20
29.40907701083995
 10
11.07013262565829
 20
29.50312817963231
 72
     1
 10
11.07013262565829
 20
29.50312817963231
 11
11.07013262565829
 21
29.50312817963231
 97
        0
 75
     0
 76
     1
 98
        0
  0
HATCH
  5
2C65
330
1F
100
AcDbEntity
  8
图层 1
 62
     7
100
AcDbHatch
 10
0.0
 20
0.0
 30
0.0
210
0.0
220
0.0
230
1.0
  2
SOLID
 70
     1
 71
     0
 91
        1
 92
        1
 93
        2
 72
     4
 94
        3
 73
     0
 74
     0
 95
       47
 96
       43
 40
0.0
 40
0.0
 40
0.0
 40
0.0
 40
0.3527780104152769
 40
0.3527780104152769
 40
0.3527780104152769
 40
0.7055560208305538
 40
0.7055560208305538
 40
0.7055560208305538
 40
1.058334031245828
 40
1.058334031245828
 40
1.058334031245828
 40
1.411112041661104
 40
1.411112041661104
 40
1.411112041661104
 40
1.763890052076384
 40
1.763890052076384
 40
1.763890052076384
 40
2.116668062491659
 40
2.116668062491659
 40
2.116668062491659
 40
2.469446072906936
 40
2.469446072906936
 40
2.469446072906936
 40
2.822224083322215
 40
2.822224083322215
 40
2.822224083322215
 40
3.175002093737492
 40
3.175002093737492
 40
3.175002093737492
 40
3.527780104152768
 40
3.527780104152768
 40
3.527780104152768
 40
3.880558114568044
 40
3.880558114568044
 40
3.880558114568044
 40
4.233336124983321
 40
4.233336124983321
 40
4.233336124983321
 40
4.586114135398599
 40
4.586114135398599
 40
4.586114135398599
 40
4.938892145813873
 40
4.938892145813873
 40
4.938892145813873
 40
4.938892145813873
 10
162.8986914070121
 20
257.4895347631509
 10
162.8986914070121
 20
257.4895347631509
 10
162.9200510131114
 20
257.4471600607279
 10
162.9200510131114
 20
257.4471600607279
 10
162.9200510131114
 20
257.4471600607279
 10
162.9200510131114
 20
257.404785358305
 10
162.9200510131114
 20
257.404785358305
 10
162.9200510131114
 20
257.404785358305
 10
162.8986914070121
 20
257.36258291077
 10
162.8986914070121
 20
257.36258291077
 10
162.8986914070121
 20
257.36258291077
 10
162.8986914070121
 20
257.320208208347
 10
162.8986914070121
 20
257.320208208347
 10
162.8986914070121
 20
257.320208208347
 10
162.8563167045891
 20
257.2990208571356
 10
162.8563167045891
 20
257.2990208571356
 10
162.8563167045891
 20
257.2990208571356
 10
162.8139420021662
 20
257.2563016449369
 10
162.8139420021662
 20
257.2563016449369
 10
162.8139420021662
 20
257.2563016449369
 10
162.7295371070961
 20
257.2563016449369
 10
162.7295371070961
 20
257.2563016449369
 10
162.7295371070961
 20
257.2563016449369
 10
162.6658027985738
 20
257.2778335059241
 10
162.6658027985738
 20
257.2778335059241
 10
162.6658027985738
 20
257.2778335059241
 10
162.6237726059267
 20
257.2990208571356
 10
162.6237726059267
 20
257.2990208571356
 10
162.6237726059267
 20
257.2990208571356
 10
162.5813979035038
 20
257.3413955595585
 10
162.5813979035038
 20
257.3413955595585
 10
162.5813979035038
 20
257.3413955595585
 10
162.5813979035038
 20
257.4895347631509
 10
162.5813979035038
 20
257.4895347631509
 10
162.5813979035038
 20
257.4895347631509
 10
162.6447877022503
 20
257.5525800521216
 10
162.6447877022503
 20
257.5525800521216
 10
162.6447877022503
 20
257.5525800521216
 10
162.7081775009967
 20
257.5525800521216
 10
162.7081775009967
 20
257.5525800521216
 10
162.8749202324821
 20
257.5424170137356
 10
162.7918933765152
 20
257.5939212252171
 10
162.8986914070121
 20
257.4895347631509
 72
     1
 10
162.8986914070121
 20
257.4895347631509
 11
162.8986914070121
 21
257.4895347631509
 97
        0
 75
     0
 76
     1
 98
        0
  0
HATCH
  5
2EE7
330
1F
100
AcDbEntity
  8
图层 1
 62
     7
100
AcDbHatch
 10
0.0
 20
0.0
 30
0.0
210
0.0
220
0.0
230
1.0
  2
SOLID
 70
     1
 71
     0
 91
        1
 92
        1
 93
        2
 72
     4
 94
        3
 73
     0
 74
     0
 95
       56
 96
       52
 40
0.0
 40
0.0
 40
0.0
 40
0.0
 40
0.3527780104152769
 40
0.3527780104152769
 40
0.3527780104152769
 40
0.7055560208305538
 40
0.7055560208305538
 40
0.7055560208305538
 40
1.058334031245828
 40
1.058334031245828
 40
1.058334031245828
 40
1.411112041661104
 40
1.411112041661104
 40
1.411112041661104
 40
1.763890052076384
 40
1.763890052076384
 40
1.763890052076384
 40
2.116668062491659
 40
2.116668062491659
 40
2.116668062491659
 40
2.469446072906936
 40
2.469446072906936
 40
2.469446072906936
 40
2.822224083322215
 40
2.822224083322215
 40
2.822224083322215
 40
3.175002093737492
 40
3.175002093737492
 40
3.175002093737492
 40
3.527780104152768
 40
3.527780104152768
 40
3.527780104152768
 40
3.880558114568044
 40
3.880558114568044
 40
3.880558114568044
 40
4.233336124983321
 40
4.233336124983321
 40
4.233336124983321
 40
4.586114135398599
 40
4.586114135398599
 40
4.586114135398599
 40
4.938892145813873
 40
4.938892145813873
 40
4.938892145813873
 40
5.291670156229153
 40
5.291670156229153
 40
5.291670156229153
 40
5.64444816664443
 40
5.64444816664443
 40
5.64444816664443
 40
5.997226177059705
 40
5.997226177059705
 40
5.997226177059705
 40
5.997226177059705
 10
185.4837187788815
 20
241.4451977396596
 10
185.4837187788815
 20
241.4451977396596
 10
185.4837187788815
 20
241.4028230372367
 10
185.4837187788815
 20
241.4028230372367
 10
185.4837187788815
 20
241.4028230372367
 10
185.5047338752051
 20
241.3604483348137
 10
185.5047338752051
 20
241.3604483348137
 10
185.4520238795082
 20
241.2782827532863
 10
185.4671823096433
 20
241.1897437409066
 10
185.335579575289
 20
241.2119646214456
 10
185.335579575289
 20
241.2119646214456
 10
185.2932048728662
 20
241.2119646214456
 10
185.2932048728662
 20
241.2119646214456
 10
185.2932048728662
 20
241.2119646214456
 10
185.2294705643439
 20
241.2334964824328
 10
185.2294705643439
 20
241.2334964824328
 10
185.2294705643439
 20
241.2334964824328
 10
185.1660807655974
 20
241.2543393238685
 10
185.1660807655974
 20
241.2543393238685
 10
185.1660807655974
 20
241.2543393238685
 10
185.1450656692739
 20
241.2758711848558
 10
185.1450656692739
 20
241.2758711848558
 10
185.1450656692739
 20
241.2758711848558
 10
185.1450656692739
 20
241.2967140262914
 10
185.1450656692739
 20
241.2967140262914
 10
185.1450656692739
 20
241.2967140262914
 10
185.1237060631745
 20
241.3604483348137
 10
185.1237060631745
 20
241.3604483348137
 10
185.1237060631745
 20
241.3604483348137
 10
185.1237060631745
 20
241.4028230372367
 10
185.1237060631745
 20
241.4028230372367
 10
185.1237060631745
 20
241.4028230372367
 10
185.1660807655974
 20
241.4875724420825
 10
185.1660807655974
 20
241.4875724420825
 10
185.1660807655974
 20
241.4875724420825
 10
185.2084554680203
 20
241.5085875384061
 10
185.2084554680203
 20
241.5085875384061
 10
185.2084554680203
 20
241.5085875384061
 10
185.2718452667668
 20
241.5297748896175
 10
185.2718452667668
 20
241.5297748896175
 10
185.2718452667668
 20
241.5297748896175
 10
185.3565946716127
 20
241.5297748896175
 10
185.3565946716127
 20
241.5297748896175
 10
185.3565946716127
 20
241.5297748896175
 10
185.4199844703592
 20
241.5085875384061
 10
185.4199844703592
 20
241.5085875384061
 10
185.4199844703592
 20
241.5085875384061
 10
185.4623591727821
 20
241.4875724420825
 10
185.4623591727821
 20
241.4875724420825
 10
185.4623591727821
 20
241.4875724420825
 10
185.4837187788815
 20
241.4451977396596
 10
185.4837187788815
 20
241.4451977396596
 72
     1
 10
185.4837187788815
 20
241.4451977396596
 11
185.4837187788815
 21
241.4451977396596
 97
        0
 75
     0
 76
     1
 98
        0
  0
HATCH
  5
2F93
330
1F
100
AcDbEntity
  8
图层 1
 62
     7
100
AcDbHatch
 10
0.0
 20
0.0
 30
0.0
210
0.0
220
0.0
230
1.0
  2
SOLID
 70
     1
 71
     0
 91
        1
 92
        1
 93
        2
 72
     4
 94
        3
 73
     0
 74
     0
 95
       38
 96
       34
 40
0.0
 40
0.0
 40
0.0
 40
0.0
 40
0.3527780104152769
 40
0.3527780104152769
 40
0.3527780104152769
 40
0.7055560208305538
 40
0.7055560208305538
 40
0.7055560208305538
 40
1.058334031245828
 40
1.058334031245828
 40
1.058334031245828
 40
1.411112041661104
 40
1.411112041661104
 40
1.411112041661104
 40
1.763890052076384
 40
1.763890052076384
 40
1.763890052076384
 40
2.116668062491659
 40
2.116668062491659
 40
2.116668062491659
 40
2.469446072906936
 40
2.469446072906936
 40
2.469446072906936
 40
2.822224083322215
 40
2.822224083322215
 40
2.822224083322215
 40
3.175002093737492
 40
3.175002093737492
 40
3.175002093737492
 40
3.527780104152768
 40
3.527780104152768
 40
3.527780104152768
 40
3.880558114568044
 40
3.880558114568044
 40
3.880558114568044
 40
3.880558114568044
 10
185.907121293335
 20
220.1937677098971
 10
185.9005756075949
 20
220.0449394867532
 10
185.9329595265197
 20
220.1136691870245
 10
185.864746590912
 20
219.9817219428946
 10
185.864746590912
 20
219.9817219428946
 10
185.822371888489
 20
219.9605345916831
 10
185.822371888489
 20
219.9605345916831
 10
185.822371888489
 20
219.9605345916831
 10
185.6528730787974
 20
219.9605345916831
 10
185.6528730787974
 20
219.9605345916831
 10
185.6528730787974
 20
219.9605345916831
 10
185.5894832800509
 20
220.002909294106
 10
185.5894832800509
 20
220.002909294106
 10
185.5894832800509
 20
220.002909294106
 10
185.5681236739515
 20
220.0240966453175
 10
185.5681236739515
 20
220.0240966453175
 10
185.5681236739515
 20
220.0240966453175
 10
185.5681236739515
 20
220.045283996529
 10
185.5681236739515
 20
220.045283996529
 10
185.5681236739515
 20
220.045283996529
 10
185.547108577628
 20
220.0876586989519
 10
185.547108577628
 20
220.0876586989519
 10
185.547108577628
 20
220.0876586989519
 10
185.547108577628
 20
220.1513930074742
 10
185.547108577628
 20
220.1513930074742
 10
185.547108577628
 20
220.1513930074742
 10
185.5894832800509
 20
220.23614241232
 10
185.5894832800509
 20
220.23614241232
 10
185.5894832800509
 20
220.23614241232
 10
185.6318579824738
 20
220.2573297635315
 10
185.6318579824738
 20
220.2573297635315
 10
185.7055830744942
 20
220.2566407439799
 10
185.8416644359337
 20
220.3310548555519
 10
185.907121293335
 20
220.1937677098971
 72
     1
 10
185.907121293335
 20
220.1937677098971
 11
185.907121293335
 21
220.1937677098971
 97
        0
 75
     0
 76
     1
 98
        0
  0
HATCH
  5
2FDE
330
1F
100
AcDbEntity
  8
图层 1
 62
     7
100
AcDbHatch
 10
0.0
 20
0.0
 30
0.0
210
0.0
220
0.0
230
1.0
  2
SOLID
 70
     1
 71
     0
 91
        1
 92
        1
 93
        2
 72
     4
 94
        3
 73
     0
 74
     0
 95
       50
 96
       46
 40
0.0
 40
0.0
 40
0.0
 40
0.0
 40
0.3527780104152769
 40
0.3527780104152769
 40
0.3527780104152769
 40
0.7055560208305538
 40
0.7055560208305538
 40
0.7055560208305538
 40
1.058334031245828
 40
1.058334031245828
 40
1.058334031245828
 40
1.411112041661104
 40
1.411112041661104
 40
1.411112041661104
 40
1.763890052076384
 40
1.763890052076384
 40
1.763890052076384
 40
2.116668062491659
 40
2.116668062491659
 40
2.116668062491659
 40
2.469446072906936
 40
2.469446072906936
 40
2.469446072906936
 40
2.822224083322215
 40
2.822224083322215
 40
2.822224083322215
 40
3.175002093737492
 40
3.175002093737492
 40
3.175002093737492
 40
3.527780104152768
 40
3.527780104152768
 40
3.527780104152768
 40
3.880558114568044
 40
3.880558114568044
 40
3.880558114568044
 40
4.233336124983321
 40
4.233336124983321
 40
4.233336124983321
 40
4.586114135398599
 40
4.586114135398599
 40
4.586114135398599
 40
4.938892145813873
 40
4.938892145813873
 40
4.938892145813873
 40
5.291670156229153
 40
5.291670156229153
 40
5.291670156229153
 40
5.291670156229153
 10
180.9117295442905
 20
208.9327766684477
 10
180.9117295442905
 20
208.9327766684477
 10
180.9117295442905
 20
208.7637946234197
 10
180.9117295442905
 20
208.7637946234197
 10
181.2273004989198
 20
208.6749111012643
 10
181.3833634273555
 20
208.6776671794706
 10
181.6948002646751
 20
208.5097186637701
 10
181.9542161258496
 20
208.4294478860095
 10
182.1388733656765
 20
208.2134402565853
 10
182.3297317814676
 20
208.02292635057
 10
182.3297317814676
 20
208.02292635057
 10
182.435496282637
 20
208.065301052993
 10
182.435496282637
 20
208.065301052993
 10
182.288390608372
 20
208.2733849575739
 10
182.3752070718726
 20
208.2134402565853
 10
182.1605774815516
 20
208.3824223016133
 10
182.1605774815516
 20
208.3824223016133
 10
182.1182027791287
 20
208.4247970040363
 10
182.1182027791287
 20
208.4247970040363
 10
182.1182027791287
 20
208.4247970040363
 10
182.0968431730294
 20
208.467516216235
 10
182.0968431730294
 20
208.467516216235
 10
182.0968431730294
 20
208.467516216235
 10
182.0544684706064
 20
208.4883590576707
 10
182.0544684706064
 20
208.4883590576707
 10
182.0544684706064
 20
208.4883590576707
 10
181.9910786718599
 20
208.5305615052057
 10
181.9910786718599
 20
208.5305615052057
 10
181.9910786718599
 20
208.5305615052057
 10
181.948703969437
 20
208.552093366193
 10
181.948703969437
 20
208.552093366193
 10
181.948703969437
 20
208.552093366193
 10
181.9063292670141
 20
208.5729362076286
 10
181.9063292670141
 20
208.5729362076286
 10
181.9063292670141
 20
208.5729362076286
 10
181.8639545645911
 20
208.6156554198274
 10
181.8639545645911
 20
208.6156554198274
 10
181.8639545645911
 20
208.6156554198274
 10
181.821924371944
 20
208.6368427710388
 10
181.821924371944
 20
208.6368427710388
 10
181.6637943848536
 20
208.6742220817127
 10
181.5452830219797
 20
208.8092699138248
 10
181.3771622513911
 20
208.8061693258427
 10
181.2803550043924
 20
208.8573290275484
 10
181.0126709085988
 20
208.8971199066528
 10
180.9117295442905
 20
208.9327766684477
 72
     1
 10
180.9117295442905
 20
208.9327766684477
 11
180.9117295442905
 21
208.9327766684477
 97
        0
 75
     0
 76
     1
 98
        0
  0
HATCH
  5
35C8
330
1F
100
AcDbEntity
  8
图层 1
 62
     7
100
AcDbHatch
 10
0.0
 20
0.0
 30
0.0
210
0.0
220
0.0
230
1.0
  2
SOLID
 70
     1
 71
     0
 91
        1
 92
        1
 93
        2
 72
     4
 94
        3
 73
     0
 74
     0
 95
       38
 96
       34
 40
0.0
 40
0.0
 40
0.0
 40
0.0
 40
0.3527780104152769
 40
0.3527780104152769
 40
0.3527780104152769
 40
0.7055560208305538
 40
0.7055560208305538
 40
0.7055560208305538
 40
1.058334031245828
 40
1.058334031245828
 40
1.058334031245828
 40
1.411112041661104
 40
1.411112041661104
 40
1.411112041661104
 40
1.763890052076384
 40
1.763890052076384
 40
1.763890052076384
 40
2.116668062491659
 40
2.116668062491659
 40
2.116668062491659
 40
2.469446072906936
 40
2.469446072906936
 40
2.469446072906936
 40
2.822224083322215
 40
2.822224083322215
 40
2.822224083322215
 40
3.175002093737492
 40
3.175002093737492
 40
3.175002093737492
 40
3.527780104152768
 40
3.527780104152768
 40
3.527780104152768
 40
3.880558114568044
 40
3.880558114568044
 40
3.880558114568044
 40
3.880558114568044
 10
189.145513185819
 20
166.8326485368285
 10
189.207869455238
 20
166.740492171803
 10
189.1317327947871
 20
166.6833035490209
 10
189.103138483396
 20
166.6209472796017
 10
189.103138483396
 20
166.6209472796017
 10
189.0607637809731
 20
166.5997599283903
 10
189.0607637809731
 20
166.5997599283903
 10
189.0607637809731
 20
166.5997599283903
 10
188.9973739822266
 20
166.5785725771788
 10
188.9973739822266
 20
166.5785725771788
 10
188.9973739822266
 20
166.5785725771788
 10
188.9549992798037
 20
166.5997599283903
 10
188.9549992798037
 20
166.5997599283903
 10
188.9549992798037
 20
166.5997599283903
 10
188.8916094810572
 20
166.5997599283903
 10
188.8916094810572
 20
166.5997599283903
 10
188.8916094810572
 20
166.5997599283903
 10
188.8492347786343
 20
166.6209472796017
 10
188.8492347786343
 20
166.6209472796017
 10
188.8492347786343
 20
166.6209472796017
 10
188.8278751725349
 20
166.6633219820247
 10
188.8278751725349
 20
166.6633219820247
 10
188.8278751725349
 20
166.6633219820247
 10
188.8068600762114
 20
166.6845093332361
 10
188.8068600762114
 20
166.6845093332361
 10
188.8068600762114
 20
166.6845093332361
 10
188.8068600762114
 20
166.8326485368285
 10
188.8068600762114
 20
166.8326485368285
 10
188.8068600762114
 20
166.8326485368285
 10
188.8702498749578
 20
166.896038335575
 10
188.8702498749578
 20
166.896038335575
 10
189.0228677056355
 20
166.8819134347673
 10
189.0686875058164
 20
166.9411691162043
 10
189.145513185819
 20
166.8326485368285
 72
     1
 10
189.145513185819
 20
166.8326485368285
 11
189.145513185819
 21
166.8326485368285
 97
        0
 75
     0
 76
     1
 98
        0
  0
HATCH
  5
35D8
330
1F
100
AcDbEntity
  8
图层 1
 62
     7
100
AcDbHatch
 10
0.0
 20
0.0
 30
0.0
210
0.0
220
0.0
230
1.0
  2
SOLID
 70
     1
 71
     0
 91
        1
 92
        1
 93
        2
 72
     4
 94
        3
 73
     0
 74
     0
 95
       68
 96
       64
 40
0.0
 40
0.0
 40
0.0
 40
0.0
 40
0.3527780104152769
 40
0.3527780104152769
 40
0.3527780104152769
 40
0.7055560208305538
 40
0.7055560208305538
 40
0.7055560208305538
 40
1.058334031245828
 40
1.058334031245828
 40
1.058334031245828
 40
1.411112041661104
 40
1.411112041661104
 40
1.411112041661104
 40
1.763890052076384
 40
1.763890052076384
 40
1.763890052076384
 40
2.116668062491659
 40
2.116668062491659
 40
2.116668062491659
 40
2.469446072906936
 40
2.469446072906936
 40
2.469446072906936
 40
2.822224083322215
 40
2.822224083322215
 40
2.822224083322215
 40
3.175002093737492
 40
3.175002093737492
 40
3.175002093737492
 40
3.527780104152768
 40
3.527780104152768
 40
3.527780104152768
 40
3.880558114568044
 40
3.880558114568044
 40
3.880558114568044
 40
4.233336124983321
 40
4.233336124983321
 40
4.233336124983321
 40
4.586114135398599
 40
4.586114135398599
 40
4.586114135398599
 40
4.938892145813873
 40
4.938892145813873
 40
4.938892145813873
 40
5.291670156229153
 40
5.291670156229153
 40
5.291670156229153
 40
5.64444816664443
 40
5.64444816664443
 40
5.64444816664443
 40
5.997226177059705
 40
5.997226177059705
 40
5.997226177059705
 40
6.350004187474984
 40
6.350004187474984
 40
6.350004187474984
 40
6.702782197890257
 40
6.702782197890257
 40
6.702782197890257
 40
7.055560208305537
 40
7.055560208305537
 40
7.055560208305537
 40
7.408338218720808
 40
7.408338218720808
 40
7.408338218720808
 40
7.408338218720808
 10
174.7732543591544
 20
135.4846705078077
 10
174.7732543591544
 20
135.4846705078077
 10
174.7732543591544
 20
135.3789060066383
 10
174.7732543591544
 20
135.3789060066383
 10
174.7732543591544
 20
135.3789060066383
 10
174.8156290615773
 20
135.3789060066383
 10
174.8156290615773
 20
135.3789060066383
 10
174.8156290615773
 20
135.3789060066383
 10
174.8580037640002
 20
135.3578909103147
 10
174.8580037640002
 20
135.3578909103147
 10
174.8580037640002
 20
135.3578909103147
 10
174.9213935627468
 20
135.3578909103147
 10
174.9213935627468
 20
135.3578909103147
 10
174.9213935627468
 20
135.3578909103147
 10
174.9637682651697
 20
135.3365313042154
 10
174.9637682651697
 20
135.3365313042154
 10
174.9637682651697
 20
135.3365313042154
 10
174.9847833614933
 20
135.3365313042154
 10
174.9847833614933
 20
135.3365313042154
 10
174.9847833614933
 20
135.3365313042154
 10
175.0271580639162
 20
135.3155162078918
 10
175.0271580639162
 20
135.3155162078918
 10
175.0271580639162
 20
135.3155162078918
 10
175.0485176700155
 20
135.2941566017924
 10
175.0485176700155
 20
135.2941566017924
 10
175.0485176700155
 20
135.2941566017924
 10
175.0695327663391
 20
135.2941566017924
 10
175.0695327663391
 20
135.2941566017924
 10
175.0695327663391
 20
135.2941566017924
 10
175.0908923724385
 20
135.2731415054689
 10
175.0908923724385
 20
135.2731415054689
 10
175.0908923724385
 20
135.2731415054689
 10
175.1332670748614
 20
135.2731415054689
 10
175.1332670748614
 20
135.2731415054689
 10
175.1332670748614
 20
135.2731415054689
 10
175.154282171185
 20
135.2517818993695
 10
175.154282171185
 20
135.2517818993695
 10
175.154282171185
 20
135.2517818993695
 10
175.154282171185
 20
135.3578909103147
 10
175.154282171185
 20
135.3578909103147
 10
175.154282171185
 20
135.3578909103147
 10
175.1332670748614
 20
135.3789060066383
 10
175.1332670748614
 20
135.3789060066383
 10
175.1332670748614
 20
135.3789060066383
 10
175.0908923724385
 20
135.3789060066383
 10
175.0908923724385
 20
135.3789060066383
 10
175.0908923724385
 20
135.3789060066383
 10
175.0908923724385
 20
135.3999211029619
 10
175.0908923724385
 20
135.3999211029619
 10
175.0908923724385
 20
135.3999211029619
 10
175.0695327663391
 20
135.3999211029619
 10
175.0695327663391
 20
135.3999211029619
 10
175.0695327663391
 20
135.3999211029619
 10
175.0271580639162
 20
135.4212807090612
 10
175.0271580639162
 20
135.4212807090612
 10
175.0271580639162
 20
135.4212807090612
 10
175.0061429675926
 20
135.4212807090612
 10
175.0061429675926
 20
135.4212807090612
 10
175.0061429675926
 20
135.4212807090612
 10
174.9637682651697
 20
135.4422958053848
 10
174.9637682651697
 20
135.4422958053848
 10
174.8996894468716
 20
135.4498750204523
 10
174.8394002361073
 20
135.4860485469109
 10
174.7732543591544
 20
135.4846705078077
 72
     1
 10
174.7732543591544
 20
135.4846705078077
 11
174.7732543591544
 21
135.4846705078077
 97
        0
 75
     0
 76
     1
 98
        0
  0
HATCH
  5
3807
330
1F
100
AcDbEntity
  8
图层 1
 62
     7
100
AcDbHatch
 10
0.0
 20
0.0
 30
0.0
210
0.0
220
0.0
230
1.0
  2
SOLID
 70
     1
 71
     0
 91
        1
 92
        1
 93
        2
 72
     4
 94
        3
 73
     0
 74
     0
 95
       29
 96
       25
 40
0.0
 40
0.0
 40
0.0
 40
0.0
 40
0.3527780104152769
 40
0.3527780104152769
 40
0.3527780104152769
 40
0.7055560208305538
 40
0.7055560208305538
 40
0.7055560208305538
 40
1.058334031245828
 40
1.058334031245828
 40
1.058334031245828
 40
1.411112041661104
 40
1.411112041661104
 40
1.411112041661104
 40
1.763890052076384
 40
1.763890052076384
 40
1.763890052076384
 40
2.116668062491659
 40
2.116668062491659
 40
2.116668062491659
 40
2.469446072906936
 40
2.469446072906936
 40
2.469446072906936
 40
2.822224083322215
 40
2.822224083322215
 40
2.822224083322215
 40
2.822224083322215
 10
175.4929352807925
 20
164.0174869039101
 10
175.4929352807925
 20
164.0174869039101
 10
175.5139503771161
 20
163.9751122014871
 10
175.5139503771161
 20
163.9751122014871
 10
175.5139503771161
 20
163.9751122014871
 10
175.5139503771161
 20
163.9327374990642
 10
175.5139503771161
 20
163.9327374990642
 10
175.5139503771161
 20
163.9327374990642
 10
175.4929352807925
 20
163.8903627966413
 10
175.4929352807925
 20
163.8903627966413
 10
175.4929352807925
 20
163.8903627966413
 10
175.471920184469
 20
163.8691754454298
 10
175.471920184469
 20
163.8691754454298
 10
175.471920184469
 20
163.8691754454298
 10
175.4505605783696
 20
163.8269729978948
 10
175.4505605783696
 20
163.8269729978948
 10
175.3571984291289
 20
163.7715069239916
 10
175.272449024283
 20
163.8195660377152
 10
175.1966568736079
 20
163.8691754454298
 10
175.208370205985
 20
163.9930267098286
 10
175.1563492298397
 20
164.0216210212197
 10
175.2600466723544
 20
164.0596893514451
 10
175.3330827448232
 20
164.1094710140476
 10
175.4357466580104
 20
164.0753645462439
 10
175.4929352807925
 20
164.0174869039101
 72
     1
 10
175.4929352807925
 20
164.0174869039101
 11
175.4929352807925
 21
164.0174869039101
 97
        0
 75
     0
 76
     1
 98
        0
  0
HATCH
  5
3895
330
1F
100
AcDbEntity
  8
图层 1
 62
     7
100
AcDbHatch
 10
0.0
 20
0.0
 30
0.0
210
0.0
220
0.0
230
1.0
  2
SOLID
 70
     1
 71
     0
 91
        1
 92
        1
 93
        2
 72
     4
 94
        3
 73
     0
 74
     0
 95
       11
 96
        7
 40
0.0
 40
0.0
 40
0.0
 40
0.0
 40
0.3527780104152769
 40
0.3527780104152769
 40
0.3527780104152769
 40
0.7055560208305538
 40
0.7055560208305538
 40
0.7055560208305538
 40
0.7055560208305538
 10
174.9213935627468
 20
174.5369206529582
 10
174.9213935627468
 20
174.5369206529582
 10
174.9213935627468
 20
174.3043765542958
 10
174.9213935627468
 20
174.3043765542958
 10
174.9213935627468
 20
174.3043765542958
 10
174.9213935627468
 20
174.5369206529582
 10
174.9213935627468
 20
174.5369206529582
 72
     1
 10
174.9213935627468
 20
174.5369206529582
 11
174.9213935627468
 21
174.5369206529582
 97
        0
 75
     0
 76
     1
 98
        0
  0
HATCH
  5
3943
330
1F
100
AcDbEntity
  8
图层 1
 62
     7
100
AcDbHatch
 10
0.0
 20
0.0
 30
0.0
210
0.0
220
0.0
230
1.0
  2
SOLID
 70
     1
 71
     0
 91
        1
 92
        1
 93
        2
 72
     4
 94
        3
 73
     0
 74
     0
 95
      131
 96
      127
 40
0.0
 40
0.0
 40
0.0
 40
0.0
 40
0.3527780104152769
 40
0.3527780104152769
 40
0.3527780104152769
 40
0.7055560208305538
 40
0.7055560208305538
 40
0.7055560208305538
 40
1.058334031245828
 40
1.058334031245828
 40
1.058334031245828
 40
1.411112041661104
 40
1.411112041661104
 40
1.411112041661104
 40
1.763890052076384
 40
1.763890052076384
 40
1.763890052076384
 40
2.116668062491659
 40
2.116668062491659
 40
2.116668062491659
 40
2.469446072906936
 40
2.469446072906936
 40
2.469446072906936
 40
2.822224083322215
 40
2.822224083322215
 40
2.822224083322215
 40
3.175002093737492
 40
3.175002093737492
 40
3.175002093737492
 40
3.527780104152768
 40
3.527780104152768
 40
3.527780104152768
 40
3.880558114568044
 40
3.880558114568044
 40
3.880558114568044
 40
4.233336124983321
 40
4.233336124983321
 40
4.233336124983321
 40
4.586114135398599
 40
4.586114135398599
 40
4.586114135398599
 40
4.938892145813873
 40
4.938892145813873
 40
4.938892145813873
 40
5.291670156229153
 40
5.291670156229153
 40
5.291670156229153
 40
5.64444816664443
 40
5.64444816664443
 40
5.64444816664443
 40
5.997226177059705
 40
5.997226177059705
 40
5.997226177059705
 40
6.350004187474984
 40
6.350004187474984
 40
6.350004187474984
 40
6.702782197890257
 40
6.702782197890257
 40
6.702782197890257
 40
7.055560208305537
 40
7.055560208305537
 40
7.055560208305537
 40
7.408338218720808
 40
7.408338218720808
 40
7.408338218720808
 40
7.76111622913609
 40
7.76111622913609
 40
7.76111622913609
 40
8.113894239551369
 40
8.113894239551369
 40
8.113894239551369
 40
8.466672249966642
 40
8.466672249966642
 40
8.466672249966642
 40
8.819450260381922
 40
8.819450260381922
 40
8.819450260381922
 40
9.172228270797198
 40
9.172228270797198
 40
9.172228270797198
 40
9.525006281212476
 40
9.525006281212476
 40
9.525006281212476
 40
9.877784291627751
 40
9.877784291627751
 40
9.877784291627751
 40
10.23056230204303
 40
10.23056230204303
 40
10.23056230204303
 40
10.58334031245831
 40
10.58334031245831
 40
10.58334031245831
 40
10.93611832287358
 40
10.93611832287358
 40
10.93611832287358
 40
11.28889633328886
 40
11.28889633328886
 40
11.28889633328886
 40
11.64167434370414
 40
11.64167434370414
 40
11.64167434370414
 40
11.99445235411941
 40
11.99445235411941
 40
11.99445235411941
 40
12.34723036453469
 40
12.34723036453469
 40
12.34723036453469
 40
12.70000837494997
 40
12.70000837494997
 40
12.70000837494997
 40
13.05278638536524
 40
13.05278638536524
 40
13.05278638536524
 40
13.40556439578052
 40
13.40556439578052
 40
13.40556439578052
 40
13.7583424061958
 40
13.7583424061958
 40
13.7583424061958
 40
14.11112041661107
 40
14.11112041661107
 40
14.11112041661107
 40
14.46389842702635
 40
14.46389842702635
 40
14.46389842702635
 40
14.81667643744163
 40
14.81667643744163
 40
14.81667643744163
 40
14.81667643744163
 10
173.3972823146245
 20
126.8274843518258
 10
173.3972823146245
 20
126.8274843518258
 10
173.3972823146245
 20
126.7217198506564
 10
173.3972823146245
 20
126.7217198506564
 10
173.3972823146245
 20
126.7217198506564
 10
173.4186419207238
 20
126.7217198506564
 10
173.4186419207238
 20
126.7217198506564
 10
173.4186419207238
 20
126.7217198506564
 10
173.4820317194703
 20
126.7007047543328
 10
173.4820317194703
 20
126.7007047543328
 10
173.4820317194703
 20
126.7007047543328
 10
173.5244064218933
 20
126.6793451482334
 10
173.5244064218933
 20
126.6793451482334
 10
173.5244064218933
 20
126.6793451482334
 10
173.5877962206398
 20
126.6793451482334
 10
173.5877962206398
 20
126.6793451482334
 10
173.5877962206398
 20
126.6793451482334
 10
173.6301709230627
 20
126.6583300519099
 10
173.6301709230627
 20
126.6583300519099
 10
173.7955356154449
 20
126.5911506456296
 10
173.759706598762
 20
126.6380039751379
 10
173.9478089363468
 20
126.5525655507404
 10
173.9478089363468
 20
126.5525655507404
 10
173.9688240326703
 20
126.4464565397952
 10
173.9688240326703
 20
126.4464565397952
 10
173.9688240326703
 20
126.4464565397952
 10
174.0325583411926
 20
126.5101908483175
 10
174.0325583411926
 20
126.5101908483175
 10
174.0325583411926
 20
126.5101908483175
 10
174.0749330436156
 20
126.5101908483175
 10
174.0749330436156
 20
126.5101908483175
 10
174.0749330436156
 20
126.5101908483175
 10
174.1593379386856
 20
126.4678161458946
 10
174.1593379386856
 20
126.4678161458946
 10
174.1593379386856
 20
126.4678161458946
 10
174.180697544785
 20
126.4464565397952
 10
174.180697544785
 20
126.4464565397952
 10
174.2464989119621
 20
126.3982251711837
 10
174.3298702777047
 20
126.3716979184474
 10
174.3922265471239
 20
126.3196769423022
 10
174.608234176548
 20
126.2059887162895
 10
174.7749769080334
 20
126.0278771622029
 10
174.9637682651697
 20
125.8749148217494
 10
174.9637682651697
 20
125.8749148217494
 10
175.0061429675926
 20
125.9172895241723
 10
175.0061429675926
 20
125.9172895241723
 10
174.961356696739
 20
125.9631093243532
 10
174.782211613325
 20
126.1246844092016
 10
174.7308796567315
 20
126.1501781326105
 10
174.7308796567315
 20
126.1501781326105
 10
174.6885049543085
 20
126.1925528350335
 10
174.6885049543085
 20
126.1925528350335
 10
174.6885049543085
 20
126.1925528350335
 10
174.667489857985
 20
126.2349275374564
 10
174.667489857985
 20
126.2349275374564
 10
174.667489857985
 20
126.2349275374564
 10
174.625115155562
 20
126.2559426337799
 10
174.625115155562
 20
126.2559426337799
 10
174.625115155562
 20
126.2559426337799
 10
174.5827404531391
 20
126.2983173362029
 10
174.5827404531391
 20
126.2983173362029
 10
174.5827404531391
 20
126.2983173362029
 10
174.5403657507162
 20
126.3196769423022
 10
174.5403657507162
 20
126.3196769423022
 10
174.5403657507162
 20
126.3196769423022
 10
174.4979910482932
 20
126.3620516447252
 10
174.4979910482932
 20
126.3620516447252
 10
174.4735308542117
 20
126.3875453681341
 10
174.3247026310678
 20
126.4695386947736
 10
174.2864620459544
 20
126.4888312422181
 10
174.2864620459544
 20
126.4888312422181
 10
174.2654469496308
 20
126.5101908483175
 10
174.2654469496308
 20
126.5101908483175
 10
174.2654469496308
 20
126.5101908483175
 10
174.2230722472079
 20
126.5312059446411
 10
174.2230722472079
 20
126.5312059446411
 10
174.2230722472079
 20
126.5312059446411
 10
174.2017126411085
 20
126.5525655507404
 10
174.2017126411085
 20
126.5525655507404
 10
174.2017126411085
 20
126.5525655507404
 10
174.1383228423621
 20
126.573580647064
 10
174.1383228423621
 20
126.573580647064
 10
174.1383228423621
 20
126.573580647064
 10
174.1169632362627
 20
126.5945957433876
 10
174.1169632362627
 20
126.5945957433876
 10
174.1169632362627
 20
126.5945957433876
 10
174.0959481399391
 20
126.7007047543328
 10
174.0959481399391
 20
126.7007047543328
 10
174.0959481399391
 20
126.7007047543328
 10
174.0325583411926
 20
126.6369704458105
 10
174.0325583411926
 20
126.6369704458105
 10
174.0325583411926
 20
126.6369704458105
 10
173.9901836387697
 20
126.6369704458105
 10
173.9901836387697
 20
126.6369704458105
 10
173.9901836387697
 20
126.6369704458105
 10
173.9054342339239
 20
126.6793451482334
 10
173.9054342339239
 20
126.6793451482334
 10
173.9054342339239
 20
126.6793451482334
 10
173.8420444351773
 20
126.7007047543328
 10
173.8420444351773
 20
126.7007047543328
 10
173.8420444351773
 20
126.7007047543328
 10
173.7996697327544
 20
126.7217198506564
 10
173.7996697327544
 20
126.7217198506564
 10
173.7996697327544
 20
126.7217198506564
 10
173.7572950303315
 20
126.7217198506564
 10
173.7572950303315
 20
126.7217198506564
 10
173.7572950303315
 20
126.7217198506564
 10
173.6725456254856
 20
126.7640945530793
 10
173.6725456254856
 20
126.7640945530793
 10
173.6725456254856
 20
126.7640945530793
 10
173.6515305291621
 20
126.7640945530793
 10
173.6515305291621
 20
126.7640945530793
 10
173.6515305291621
 20
126.7640945530793
 10
173.5667811243162
 20
126.7851096494029
 10
173.5667811243162
 20
126.7851096494029
 10
173.5667811243162
 20
126.7851096494029
 10
173.5033913255697
 20
126.8064692555022
 10
173.5033913255697
 20
126.8064692555022
 10
173.5033913255697
 20
126.8064692555022
 10
173.4396570170474
 20
126.8064692555022
 10
173.4396570170474
 20
126.8064692555022
 10
173.4396570170474
 20
126.8064692555022
 10
173.4186419207238
 20
126.8274843518258
 10
173.4186419207238
 20
126.8274843518258
 10
173.4186419207238
 20
126.8274843518258
 10
173.3972823146245
 20
126.8274843518258
 10
173.3972823146245
 20
126.8274843518258
 72
     1
 10
173.3972823146245
 20
126.8274843518258
 11
173.3972823146245
 21
126.8274843518258
 97
        0
 75
     0
 76
     1
 98
        0
  0
HATCH
  5
4842
330
1F
100
AcDbEntity
  8
图层 1
 62
     7
100
AcDbHatch
 10
0.0
 20
0.0
 30
0.0
210
0.0
220
0.0
230
1.0
  2
SOLID
 70
     1
 71
     0
 91
        1
 92
        1
 93
        2
 72
     4
 94
        3
 73
     0
 74
     0
 95
       47
 96
       43
 40
0.0
 40
0.0
 40
0.0
 40
0.0
 40
0.3527780104152769
 40
0.3527780104152769
 40
0.3527780104152769
 40
0.7055560208305538
 40
0.7055560208305538
 40
0.7055560208305538
 40
1.058334031245828
 40
1.058334031245828
 40
1.058334031245828
 40
1.411112041661104
 40
1.411112041661104
 40
1.411112041661104
 40
1.763890052076384
 40
1.763890052076384
 40
1.763890052076384
 40
2.116668062491659
 40
2.116668062491659
 40
2.116668062491659
 40
2.469446072906936
 40
2.469446072906936
 40
2.469446072906936
 40
2.822224083322215
 40
2.822224083322215
 40
2.822224083322215
 40
3.175002093737492
 40
3.175002093737492
 40
3.175002093737492
 40
3.527780104152768
 40
3.527780104152768
 40
3.527780104152768
 40
3.880558114568044
 40
3.880558114568044
 40
3.880558114568044
 40
4.233336124983321
 40
4.233336124983321
 40
4.233336124983321
 40
4.586114135398599
 40
4.586114135398599
 40
4.586114135398599
 40
4.938892145813873
 40
4.938892145813873
 40
4.938892145813873
 40
4.938892145813873
 10
180.1920486226523
 20
255.6479577566324
 10
180.1920486226523
 20
255.6479577566324
 10
180.2130637189759
 20
255.6055830542095
 10
180.2130637189759
 20
255.6055830542095
 10
180.2130637189759
 20
255.6055830542095
 10
180.2130637189759
 20
255.5210059042515
 10
180.2130637189759
 20
255.5210059042515
 10
180.2130637189759
 20
255.5210059042515
 10
180.1920486226523
 20
255.4786312018286
 10
180.1920486226523
 20
255.4786312018286
 10
180.1920486226523
 20
255.4786312018286
 10
180.1496739202294
 20
255.4359119896299
 10
180.1496739202294
 20
255.4359119896299
 10
180.1496739202294
 20
255.4359119896299
 10
180.1283143141301
 20
255.4147246384184
 10
180.1283143141301
 20
255.4147246384184
 10
180.1283143141301
 20
255.4147246384184
 10
180.0225498129606
 20
255.4147246384184
 10
180.0225498129606
 20
255.4147246384184
 10
180.0225498129606
 20
255.4147246384184
 10
179.9591600142141
 20
255.4359119896299
 10
179.9591600142141
 20
255.4359119896299
 10
179.9591600142141
 20
255.4359119896299
 10
179.9167853117912
 20
255.4570993408414
 10
179.9167853117912
 20
255.4570993408414
 10
179.9167853117912
 20
255.4570993408414
 10
179.8957702154676
 20
255.4786312018286
 10
179.8957702154676
 20
255.4786312018286
 10
179.8957702154676
 20
255.4786312018286
 10
179.8744106093683
 20
255.4994740432643
 10
179.8744106093683
 20
255.4994740432643
 10
179.8744106093683
 20
255.4994740432643
 10
179.8744106093683
 20
255.6479577566324
 10
179.8744106093683
 20
255.6479577566324
 10
179.9608825630931
 20
255.7323626517025
 10
180.045631967939
 20
255.7085914771726
 10
180.1496739202294
 20
255.7115198102668
 10
180.1496739202294
 20
255.7115198102668
 10
180.170689016553
 20
255.6688005980681
 10
180.170689016553
 20
255.6688005980681
 10
180.170689016553
 20
255.6688005980681
 10
180.1920486226523
 20
255.6479577566324
 10
180.1920486226523
 20
255.6479577566324
 72
     1
 10
180.1920486226523
 20
255.6479577566324
 11
180.1920486226523
 21
255.6479577566324
 97
        0
 75
     0
 76
     1
 98
        0
  0
MTEXT
  5
65A0
330
1F
100
AcDbEntity
  8
图框
 62
     3
100
AcDbMText
 10
652.3064215351515
 20
221.9674786344378
 30
0.0
 40
2.985513575034151
 41
33.61239199242137
 71
     5
 72
     5
  1
HD-007-MC
  7
Romans字体
 73
     1
 44
1.0
1001
ACAD
1000
MTEXTBEGIN
1070
    73
1070
     1
1070
    44
1040
1.0
1070
    74
1070
     0
1000
MTEXTEND
1000
ACAD_MTEXT_DEFINED_HEIGHT_BEGIN
1070
    46
1040
8.686745505685866
1000
ACAD_MTEXT_DEFINED_HEIGHT_END
  0
MTEXT
  5
65A1
330
1F
100
AcDbEntity
  8
图框
 62
     3
100
AcDbMText
 10
652.3064215351515
 20
213.1880281076118
 30
0.0
 40
2.985513575034151
 41
33.61239199242137
 71
     5
 72
     5
  1
1250070100001
  7
Romans字体
 73
     1
 44
1.0
1001
ACAD
1000
MTEXTBEGIN
1070
    73
1070
     1
1070
    44
1040
1.0
1070
    74
1070
     0
1000
MTEXTEND
1000
ACAD_MTEXT_DEFINED_HEIGHT_BEGIN
1070
    46
1040
8.872155547966105
1000
ACAD_MTEXT_DEFINED_HEIGHT_END
  0
MTEXT
  5
65A3
330
1F
100
AcDbEntity
  8
图框
 62
     3
100
AcDbMText
 10
584.2527566045665
 20
199.8803930288668
 30
0.0
 40
2.985513575034151
 41
10.82934843439047
 71
     5
 72
     5
  1
1:1 
  7
Romans字体
 73
     1
 44
1.0
1001
ACAD
1000
MTEXTBEGIN
1070
    73
1070
     1
1070
    44
1040
1.0
1070
    74
1070
     0
1000
MTEXTEND
1000
ACAD_MTEXT_DEFINED_HEIGHT_BEGIN
1070
    46
1040
7.886094601210496
1000
ACAD_MTEXT_DEFINED_HEIGHT_END
  0
MTEXT
  5
65A4
330
1F
100
AcDbEntity
  8
图框
 62
     3
100
AcDbMText
 10
595.0821050389572
 20
199.8803930288669
 30
0.0
 40
2.985513575034151
 41
10.82934843439126
 71
     5
 72
     5
  1
V1.0 
  7
Romans字体
 73
     1
 44
1.0
1001
ACAD
1000
MTEXTBEGIN
1070
    73
1070
     1
1070
    44
1040
1.0
1070
    74
1070
     0
1000
MTEXTEND
1000
ACAD_MTEXT_DEFINED_HEIGHT_BEGIN
1070
    46
1040
7.886094601210459
1000
ACAD_MTEXT_DEFINED_HEIGHT_END
  0
MTEXT
  5
65B2
330
1F
100
AcDbEntity
  8
图框
 62
     3
100
AcDbMText
 10
605.9114534733492
 20
199.8803930288669
 30
0.0
 40
2.985513575034151
 41
10.82934843439217
 71
     5
 72
     5
  1
7.4g
  7
Romans字体
 73
     1
 44
1.0
1001
ACAD
1000
MTEXTBEGIN
1070
    73
1070
     1
1070
    44
1040
1.0
1070
    74
1070
     0
1000
MTEXTEND
1000
ACAD_MTEXT_DEFINED_HEIGHT_BEGIN
1070
    46
1040
7.886094601210402
1000
ACAD_MTEXT_DEFINED_HEIGHT_END
  0
MTEXT
  5
6E00
102
{ACAD_XDICTIONARY
360
1E5C7
102
}
330
1F
100
AcDbEntity
  8
打标文字
 62
     3
100
AcDbMText
 10
569.7875236196565
 20
331.5235317590027
 30
0.0
 40
1.912985285738284
 41
55.18345123699972
 71
     1
 72
     5
  3
\A1;技术参数:\P插芯：\P- 插针数: {\Fromans|c134;7+PE\P}- 额定电流: {\Fromans|c134;10A}\P- 额定电压: {\Fromans|c134;250V\Ftxt|c134;\P}- 额定脉冲电压: {\Fromans|c134;4kV}\P- 污染等级: {\Fromans|c134;3\Ftxt|c134;\P}- 依据UL/CSA的额定电压: {\Fromans|c134;600V\Ftxt|c134;\P}- 绝缘阻抗: ≥{\Froma
  3
ns|c134;10\H0.7x;\S10^ ;\H1.4286x;Ω\H0.99998x;\P}- 材料: 聚碳酸酯\P- 颜色: {\Fromans|c134;RAL 7032}（浅灰色）\P- 温度范围: {\Fromans|c134;-40}℃{\Fromans|c134; - +125}℃{\Fromans|c134;\P}- 依据UL 94的阻燃等级: {\Fromans|c134;V0}\P- 可插拔次数: ≥{\Fromans|c134;500\P}插针：\P- 接线方式: 冷压连
  1
接\P- 材料: 铜合金\P- 表面处理：\P   · 镀银\P   · 银金\P- 接触电阻: ≤{\Fromans|c134;3mΩ\P}- 线径范围: {\Fromans|c134;0.14-2.5mm\H0.7x;\S2^ ;\H1.4286x;(26-14 AWG)}\P- 工具：\P   · 冷压钳: {\Fromans|c134;TL02G\P}   · 退针器: {\Fromans|c134;TL00\P}适配外壳：匹配{\Fromans|c134;3A}(仅适用于塑料）外壳
 73
     1
 44
1.0
1001
ACAD
1000
MTEXTBEGIN
1070
    73
1070
     1
1070
    44
1040
1.0
1070
    74
1070
     0
1000
MTEXTEND
1000
ACAD_MTEXT_DEFINED_HEIGHT_BEGIN
1070
    46
1040
8.294818561909686
1000
ACAD_MTEXT_DEFINED_HEIGHT_END
  0
MTEXT
  5
7228
102
{ACAD_XDICTIONARY
360
1E5C9
102
}
330
1F
100
AcDbEntity
  8
打标文字
 62
     3
100
AcDbMText
 10
615.4785658800781
 20
331.6985169148231
 30
0.0
 40
1.912985285738284
 41
67.09538717665188
 71
     1
 72
     5
  3
\A1;Technical specification:\PInserts:\P- No. of contact: 7+PE\P- Rated current: 10A\P- Rated voltage: 250V\P- Rated impulse voltage: 4kV\P- Pollution degree: 3\P- Rated voltage acc.to UL/CSA: 600V\P- Insulation resistance: {\fSimSun|b0|i0|c134|p2;≥}
  3
10{\H0.7x;\S10^ ;}\U+03A9\P- Material: polycarbonate\P- Colour: RAL 7032(light grey) \P- Temperature range: -40{\fSimSun|b0|i0|c0|p2;\U+2103} - +125{\fSimSun|b0|i0|c0|p2;\U+2103}\P- Flammability acc.to UL 94: V0\P- Mating cycles: {\fSimSun|b0|i0|c134|
  3
p2;≥}500\PContacts:\P- Terminal: crimp terminal\P- Material: copper alloy\P- Surface:\P   {\fArial|b0|i0|c0|p34;\U+00B7} Hard-silver plated\P   {\fArial|b0|i0|c0|p34;\U+00B7} Hard-gold plated\P- Contact resistance: {\fFangSong_GB2312|b0|i0|c134|p49;≤
  1
}3m\U+03A9\P- Wire gauge: 0.14-2.5mm{\H0.7x;\S2^ ;}(26-14 AWG)\P- Tools:\P   {\fISOCPEUR|b0|i0|c0|p34;\U+00B7} Crimp contact tool: TL02G\P   {\fISOCPEUR|b0|i0|c0|p34;\U+00B7} Contact removal tool: TL00\PHood/Housings: size 3A(only for plastic)
  7
Romans字体
 73
     1
 44
1.0
1001
ACAD
1000
MTEXTBEGIN
1070
    73
1070
     1
1070
    44
1040
1.0
1070
    74
1070
     0
1000
MTEXTEND
1000
ACAD_MTEXT_DEFINED_HEIGHT_BEGIN
1070
    46
1040
8.294818561909686
1000
ACAD_MTEXT_DEFINED_HEIGHT_END
  0
INSERT
  5
11089
330
1F
100
AcDbEntity
  8
DIM
100
AcDbBlockReference
  2
A4图框-NEW
 10
-457.8158850790006
 20
-295.9613488704692
 30
0.0
  0
LINE
  5
1DE88
330
1F
100
AcDbEntity
  8
0
100
AcDbLine
 10
524.1946259372014
 20
295.7394058648954
 30
0.0
 11
524.1946259372014
 21
312.2394058645755
 31
0.0
  0
LINE
  5
1DE89
330
1F
100
AcDbEntity
  8
0
100
AcDbLine
 10
520.6946259382316
 20
315.7394058648153
 30
0.0
 11
504.1946259372815
 21
315.7394058648153
 31
0.0
  0
LINE
  5
1DE8A
330
1F
100
AcDbEntity
  8
0
100
AcDbLine
 10
522.6946259374616
 20
296.4394058644355
 30
0.0
 11
522.6946259374616
 21
311.5394058650355
 31
0.0
  0
LINE
  5
1DE8B
330
1F
100
AcDbEntity
  8
0
100
AcDbLine
 10
522.6446259384015
 20
311.5394058650355
 30
0.0
 11
522.6446259384015
 21
296.4394058644355
 31
0.0
  0
LINE
  5
1DE8C
330
1F
100
AcDbEntity
  8
0
100
AcDbLine
 10
504.9446259384215
 20
314.4894058641855
 30
0.0
 11
519.9446259383615
 21
314.4894058641855
 31
0.0
  0
LINE
  5
1DE8D
330
1F
100
AcDbEntity
  8
0
100
AcDbLine
 10
521.0446259380018
 20
298.3894058646054
 30
0.0
 11
521.0446259380018
 21
309.5894058648655
 31
0.0
  0
LINE
  5
1DE8E
330
1F
100
AcDbEntity
  8
0
100
AcDbLine
 10
518.0446259372518
 20
312.5894058643456
 30
0.0
 11
506.8446259382615
 21
312.5894058643456
 31
0.0
  0
LINE
  5
1DE8F
330
1F
100
AcDbEntity
  8
0
100
AcDbLine
 10
522.9442092419516
 20
311.5394058650355
 30
0.0
 11
522.6446259384015
 21
311.5394058650355
 31
0.0
  0
LINE
  5
1DE90
330
1F
100
AcDbEntity
  8
0
100
AcDbLine
 10
515.3446259372118
 20
305.9894058652355
 30
0.0
 11
515.3446259372118
 21
301.9894058642355
 31
0.0
  0
LINE
  5
1DE91
330
1F
100
AcDbEntity
  8
0
100
AcDbLine
 10
515.8446259379712
 20
306.4894058647254
 30
0.0
 11
521.0446259380018
 21
306.4894058647254
 31
0.0
  0
LINE
  5
1DE92
330
1F
100
AcDbEntity
  8
0
100
AcDbLine
 10
515.3446259372118
 20
303.7894058646855
 30
0.0
 11
521.0446259380018
 21
303.7894058646855
 31
0.0
  0
LINE
  5
1DE93
330
1F
100
AcDbEntity
  8
0
100
AcDbLine
 10
521.0446259380018
 20
301.4894058647454
 30
0.0
 11
515.8446259379712
 21
301.4894058647454
 31
0.0
  0
LINE
  5
1DE94
330
1F
100
AcDbEntity
  8
0
100
AcDbLine
 10
522.9442092419516
 20
296.4394058644355
 30
0.0
 11
522.6446259384015
 21
296.4394058644355
 31
0.0
  0
LINE
  5
1DE95
330
1F
100
AcDbEntity
  8
0
100
AcDbLine
 10
503.8446259375112
 20
309.5894058648655
 30
0.0
 11
503.8446259375112
 21
298.3894058646054
 31
0.0
  0
LINE
  5
1DE96
330
1F
100
AcDbEntity
  8
0
100
AcDbLine
 10
506.8446259382615
 20
295.3894058651254
 30
0.0
 11
518.0446259372518
 21
295.3894058651254
 31
0.0
  0
LINE
  5
1DE97
330
1F
100
AcDbEntity
  8
0
100
AcDbLine
 10
501.9446259376719
 20
296.4894058647653
 30
0.0
 11
501.9446259376719
 21
311.4894058647055
 31
0.0
  0
LINE
  5
1DE98
330
1F
100
AcDbEntity
  8
0
100
AcDbLine
 10
519.9446259383615
 20
293.4894058652854
 30
0.0
 11
504.9446259384215
 21
293.4894058652854
 31
0.0
  0
LINE
  5
1DE99
330
1F
100
AcDbEntity
  8
0
100
AcDbLine
 10
500.6946259383116
 20
312.2394058645755
 30
0.0
 11
500.6946259383116
 21
295.7394058648954
 31
0.0
  0
LINE
  5
1DE9A
330
1F
100
AcDbEntity
  8
0
100
AcDbLine
 10
504.1946259372815
 20
292.2394058646556
 30
0.0
 11
520.6946259382316
 21
292.2394058646556
 31
0.0
  0
LINE
  5
1DE9B
330
1F
100
AcDbEntity
  8
0
100
AcDbLine
 10
441.1724027793916
 20
314.4894058641857
 30
0.0
 11
441.1724027793916
 21
293.4894058640156
 31
0.0
  0
LINE
  5
1DE9C
330
1F
100
AcDbEntity
  8
0
100
AcDbLine
 10
443.0724027792317
 20
303.7894058646853
 30
0.0
 11
443.0724027792317
 21
301.4894058647458
 31
0.0
  0
LINE
  5
1DE9D
330
1F
100
AcDbEntity
  8
0
100
AcDbLine
 10
443.2724027792816
 20
301.4894058647458
 30
0.0
 11
443.2724027792816
 21
302.1894058642858
 31
0.0
  0
LINE
  5
1DE9E
330
1F
100
AcDbEntity
  8
0
100
AcDbLine
 10
445.4224027795016
 20
315.7394058635456
 30
0.0
 11
447.9224027794916
 21
315.7394058635456
 31
0.0
  0
LINE
  5
1DE9F
330
1F
100
AcDbEntity
  8
0
100
AcDbLine
 10
466.1724027792918
 20
314.4894058641857
 30
0.0
 11
464.6724027795515
 21
314.4894058641857
 31
0.0
  0
LINE
  5
1DEA0
330
1F
100
AcDbEntity
  8
0
100
AcDbLine
 10
441.1724027793916
 20
314.4894058641857
 30
0.0
 11
445.4224027795016
 21
314.4894058641857
 31
0.0
  0
LINE
  5
1DEA1
330
1F
100
AcDbEntity
  8
0
100
AcDbLine
 10
447.9224027794916
 20
314.4894058641857
 30
0.0
 11
456.7724027794818
 21
314.4894058641857
 31
0.0
  0
LINE
  5
1DEA2
330
1F
100
AcDbEntity
  8
0
100
AcDbLine
 10
445.4224027795016
 20
315.7394058635456
 30
0.0
 11
445.4224027795016
 21
292.2394058646556
 31
0.0
  0
LINE
  5
1DEA3
330
1F
100
AcDbEntity
  8
0
100
AcDbLine
 10
447.9224027794916
 20
313.5894058645958
 30
0.0
 11
456.7724027794818
 21
313.5894058645958
 31
0.0
  0
LINE
  5
1DEA4
330
1F
100
AcDbEntity
  8
0
100
AcDbLine
 10
447.9224027794916
 20
292.2394058646556
 30
0.0
 11
447.9224027794916
 21
315.7394058635456
 31
0.0
  0
LINE
  5
1DEA5
330
1F
100
AcDbEntity
  8
0
100
AcDbLine
 10
447.9224027794916
 20
312.2394058645759
 30
0.0
 11
445.4224027795016
 21
312.2394058645759
 31
0.0
  0
LINE
  5
1DEA6
330
1F
100
AcDbEntity
  8
0
100
AcDbLine
 10
456.7724027794818
 20
311.9394058638656
 30
0.0
 11
464.6724027795515
 21
311.9394058638656
 31
0.0
  0
LINE
  5
1DEA7
330
1F
100
AcDbEntity
  8
0
100
AcDbLine
 10
466.1724027792918
 20
311.9394058638656
 30
0.0
 11
472.7724027796717
 21
311.9394058638656
 31
0.0
  0
LINE
  5
1DEA8
330
1F
100
AcDbEntity
  8
0
100
AcDbLine
 10
464.6724027795515
 20
311.8885582845852
 30
0.0
 11
466.1724027792918
 21
311.8885582845852
 31
0.0
  0
LINE
  5
1DEA9
330
1F
100
AcDbEntity
  8
0
100
AcDbLine
 10
445.4224027795016
 20
311.5394058637654
 30
0.0
 11
441.1724027793916
 21
311.5394058637654
 31
0.0
  0
LINE
  5
1DEAA
330
1F
100
AcDbEntity
  8
0
100
AcDbLine
 10
456.7724027794818
 20
311.4894058647053
 30
0.0
 11
447.9224027794916
 21
311.4894058647053
 31
0.0
  0
LINE
  5
1DEAB
330
1F
100
AcDbEntity
  8
0
100
AcDbLine
 10
451.3724027794016
 20
303.7894058646853
 30
0.0
 11
451.3724027794016
 21
301.6544058636756
 31
0.0
  0
LINE
  5
1DEAC
330
1F
100
AcDbEntity
  8
0
100
AcDbLine
 10
447.9224027794916
 20
308.9894058647151
 30
0.0
 11
462.6724027790515
 21
308.9894058647151
 31
0.0
  0
LINE
  5
1DEAD
330
1F
100
AcDbEntity
  8
0
100
AcDbLine
 10
472.7724027796717
 20
308.9394058643853
 30
0.0
 11
462.6724027790515
 21
308.9394058643853
 31
0.0
  0
LINE
  5
1DEAE
330
1F
100
AcDbEntity
  8
0
100
AcDbLine
 10
462.6724027790515
 20
308.0894058638556
 30
0.0
 11
457.1467975844114
 21
308.0894058638556
 31
0.0
  0
LINE
  5
1DEAF
330
1F
100
AcDbEntity
  8
0
100
AcDbLine
 10
462.6724027790515
 20
306.5894058641159
 30
0.0
 11
459.8359499467616
 21
306.5894058641159
 31
0.0
  0
LINE
  5
1DEB0
330
1F
100
AcDbEntity
  8
0
100
AcDbLine
 10
453.2724027792416
 20
301.4894058647458
 30
0.0
 11
453.2724027792416
 21
303.7894058646853
 31
0.0
  0
LINE
  5
1DEB1
330
1F
100
AcDbEntity
  8
0
100
AcDbLine
 10
462.6724027790515
 20
305.9894058639658
 30
0.0
 11
472.7724027796717
 21
305.9894058639658
 31
0.0
  0
LINE
  5
1DEB2
330
1F
100
AcDbEntity
  8
0
100
AcDbLine
 10
459.1724027800816
 20
305.5394058635357
 30
0.0
 11
458.1724027798316
 21
305.5394058635357
 31
0.0
  0
LINE
  5
1DEB3
330
1F
100
AcDbEntity
  8
0
100
AcDbLine
 10
458.5124027792816
 20
304.4094058642057
 30
0.0
 11
458.1724027798316
 21
304.7494058649259
 31
0.0
  0
LINE
  5
1DEB4
330
1F
100
AcDbEntity
  8
0
100
AcDbLine
 10
459.0924024193816
 20
303.8294062241053
 30
0.0
 11
459.4324041765116
 21
303.4894044669755
 31
0.0
  0
LINE
  5
1DEB5
330
1F
100
AcDbEntity
  8
0
100
AcDbLine
 10
458.8324027793617
 20
303.5144058647757
 30
0.0
 11
459.1724027800816
 21
302.4394058646654
 31
0.0
  0
LINE
  5
1DEB6
330
1F
100
AcDbEntity
  8
0
100
AcDbLine
 10
458.5124027792816
 20
304.4644058646952
 30
0.0
 11
458.1724027798316
 21
305.5394058635357
 31
0.0
  0
LINE
  5
1DEB7
330
1F
100
AcDbEntity
  8
0
100
AcDbLine
 10
462.6724027790515
 20
304.9287456929353
 30
0.0
 11
472.7724027796717
 21
304.9287456929353
 31
0.0
  0
LINE
  5
1DEB8
330
1F
100
AcDbEntity
  8
0
100
AcDbLine
 10
457.1224027792516
 20
304.4894058642254
 30
0.0
 11
457.9124027804016
 21
304.4894058642254
 31
0.0
  0
LINE
  5
1DEB9
330
1F
100
AcDbEntity
  8
0
100
AcDbLine
 10
459.4324027795116
 20
304.4894058642254
 30
0.0
 11
460.2224027793917
 21
304.4894058642254
 31
0.0
  0
LINE
  5
1DEBA
330
1F
100
AcDbEntity
  8
0
100
AcDbLine
 10
458.8324027793617
 20
304.4644058646952
 30
0.0
 11
458.5124027792816
 21
304.4644058646952
 31
0.0
  0
LINE
  5
1DEBB
330
1F
100
AcDbEntity
  8
0
100
AcDbLine
 10
459.1474027792817
 20
304.1494058647758
 30
0.0
 11
459.0924027800618
 21
304.1494058647758
 31
0.0
  0
LINE
  5
1DEBC
330
1F
100
AcDbEntity
  8
0
100
AcDbLine
 10
458.2524027798517
 20
304.1494058647758
 30
0.0
 11
458.1974027793616
 21
304.1494058647758
 31
0.0
  0
LINE
  5
1DEBD
330
1F
100
AcDbEntity
  8
0
100
AcDbLine
 10
458.1974027793616
 20
303.829405864696
 30
0.0
 11
458.2524027798517
 21
303.829405864696
 31
0.0
  0
LINE
  5
1DEBE
330
1F
100
AcDbEntity
  8
0
100
AcDbLine
 10
459.0924027800618
 20
303.829405864696
 30
0.0
 11
459.1474027792817
 21
303.829405864696
 31
0.0
  0
LINE
  5
1DEBF
330
1F
100
AcDbEntity
  8
0
100
AcDbLine
 10
457.1224027792516
 20
304.4894058642254
 30
0.0
 11
458.1974027793616
 21
304.1494058647758
 31
0.0
  0
LINE
  5
1DEC0
330
1F
100
AcDbEntity
  8
0
100
AcDbLine
 10
460.2224027793917
 20
303.4894058639757
 30
0.0
 11
459.1474027792817
 21
303.829405864696
 31
0.0
  0
LINE
  5
1DEC1
330
1F
100
AcDbEntity
  8
0
100
AcDbLine
 10
458.2524031392615
 20
304.1494055040958
 30
0.0
 11
457.9124013834015
 21
304.4894072612257
 31
0.0
  0
LINE
  5
1DEC2
330
1F
100
AcDbEntity
  8
0
100
AcDbLine
 10
458.8324027793617
 20
303.5694058639955
 30
0.0
 11
459.1724027800816
 21
303.2294058645458
 31
0.0
  0
LINE
  5
1DEC3
330
1F
100
AcDbEntity
  8
0
100
AcDbLine
 10
456.7724027794818
 20
293.4894058640156
 30
0.0
 11
456.7724027794818
 21
298.9894062978254
 31
0.0
  0
LINE
  5
1DEC4
330
1F
100
AcDbEntity
  8
0
100
AcDbLine
 10
456.7724027794818
 20
314.4894058641857
 30
0.0
 11
456.7724027794818
 21
308.9894054303757
 31
0.0
  0
LINE
  5
1DEC5
330
1F
100
AcDbEntity
  8
0
100
AcDbLine
 10
457.1224027792516
 20
304.4894058642254
 30
0.0
 11
457.1224027792516
 21
303.4894058639757
 31
0.0
  0
LINE
  5
1DEC6
330
1F
100
AcDbEntity
  8
0
100
AcDbLine
 10
453.2724027792416
 20
303.7894058646853
 30
0.0
 11
447.9224027794916
 21
303.7894058646853
 31
0.0
  0
LINE
  5
1DEC7
330
1F
100
AcDbEntity
  8
0
100
AcDbLine
 10
445.4224027795016
 20
303.7894058646853
 30
0.0
 11
443.0724027792317
 21
303.7894058646853
 31
0.0
  0
LINE
  5
1DEC8
330
1F
100
AcDbEntity
  8
0
100
AcDbLine
 10
458.5124027792816
 20
303.5144058647757
 30
0.0
 11
458.8324027793617
 21
303.5144058647757
 31
0.0
  0
LINE
  5
1DEC9
330
1F
100
AcDbEntity
  8
0
100
AcDbLine
 10
460.2224027793917
 20
303.4894058639757
 30
0.0
 11
459.4324027795116
 21
303.4894058639757
 31
0.0
  0
LINE
  5
1DECA
330
1F
100
AcDbEntity
  8
0
100
AcDbLine
 10
457.9124027791316
 20
303.4894058639757
 30
0.0
 11
457.1224027792516
 21
303.4894058639757
 31
0.0
  0
LINE
  5
1DECB
330
1F
100
AcDbEntity
  8
0
100
AcDbLine
 10
462.6724027790515
 20
303.0500660365356
 30
0.0
 11
472.7724027796717
 21
303.0500660365356
 31
0.0
  0
LINE
  5
1DECC
330
1F
100
AcDbEntity
  8
0
100
AcDbLine
 10
458.1724027798316
 20
302.4394058646654
 30
0.0
 11
458.1724027798316
 21
303.2294058645458
 31
0.0
  0
LINE
  5
1DECD
330
1F
100
AcDbEntity
  8
0
100
AcDbLine
 10
458.1724027798316
 20
304.7494058649259
 30
0.0
 11
458.1724027798316
 21
305.5394058635357
 31
0.0
  0
LINE
  5
1DECE
330
1F
100
AcDbEntity
  8
0
100
AcDbLine
 10
458.1974027793616
 20
304.1494058647758
 30
0.0
 11
458.1974027793616
 21
303.829405864696
 31
0.0
  0
LINE
  5
1DECF
330
1F
100
AcDbEntity
  8
0
100
AcDbLine
 10
458.2524027798517
 20
303.829405864696
 30
0.0
 11
457.9124027791316
 21
303.4894058639757
 31
0.0
  0
LINE
  5
1DED0
330
1F
100
AcDbEntity
  8
0
100
AcDbLine
 10
458.8324024199517
 20
304.4094055035257
 30
0.0
 11
459.1724041770816
 21
304.7494072606556
 31
0.0
  0
LINE
  5
1DED1
330
1F
100
AcDbEntity
  8
0
100
AcDbLine
 10
458.5124031399614
 20
303.5694062246753
 30
0.0
 11
458.1724013828314
 21
303.2294044675455
 31
0.0
  0
LINE
  5
1DED2
330
1F
100
AcDbEntity
  8
0
100
AcDbLine
 10
459.0924027800618
 20
304.1494058647758
 30
0.0
 11
459.4324027795116
 21
304.4894058642254
 31
0.0
  0
LINE
  5
1DED3
330
1F
100
AcDbEntity
  8
0
100
AcDbLine
 10
459.1474027792817
 20
304.1494058647758
 30
0.0
 11
460.2224027793917
 21
304.4894058642254
 31
0.0
  0
LINE
  5
1DED4
330
1F
100
AcDbEntity
  8
0
100
AcDbLine
 10
458.1974027793616
 20
303.829405864696
 30
0.0
 11
457.1224027792516
 21
303.4894058639757
 31
0.0
  0
LINE
  5
1DED5
330
1F
100
AcDbEntity
  8
0
100
AcDbLine
 10
458.1724027798316
 20
302.4394058646654
 30
0.0
 11
459.1724027800816
 21
302.4394058646654
 31
0.0
  0
LINE
  5
1DED6
330
1F
100
AcDbEntity
  8
0
100
AcDbLine
 10
443.2724027792816
 20
302.1894058642858
 30
0.0
 11
445.4224027795016
 21
302.1894058642858
 31
0.0
  0
LINE
  5
1DED7
330
1F
100
AcDbEntity
  8
0
100
AcDbLine
 10
447.9224027794916
 20
302.1894058642858
 30
0.0
 11
451.3724027794016
 21
302.1894058642858
 31
0.0
  0
LINE
  5
1DED8
330
1F
100
AcDbEntity
  8
0
100
AcDbLine
 10
462.6724027790515
 20
301.9894058642354
 30
0.0
 11
472.7724027796717
 21
301.9894058642354
 31
0.0
  0
LINE
  5
1DED9
330
1F
100
AcDbEntity
  8
0
100
AcDbLine
 10
453.2724027792416
 20
301.6544058636756
 30
0.0
 11
451.3724027794016
 21
301.6544058636756
 31
0.0
  0
LINE
  5
1DEDA
330
1F
100
AcDbEntity
  8
0
100
AcDbLine
 10
453.2724027792416
 20
301.4894058647458
 30
0.0
 11
447.9224027794916
 21
301.4894058647458
 31
0.0
  0
LINE
  5
1DEDB
330
1F
100
AcDbEntity
  8
0
100
AcDbLine
 10
443.0724027792317
 20
301.4894058647458
 30
0.0
 11
445.4224027795016
 21
301.4894058647458
 31
0.0
  0
LINE
  5
1DEDC
330
1F
100
AcDbEntity
  8
0
100
AcDbLine
 10
459.8354253021416
 20
301.3894058640853
 30
0.0
 11
462.6724027790515
 21
301.3894058640853
 31
0.0
  0
LINE
  5
1DEDD
330
1F
100
AcDbEntity
  8
0
100
AcDbLine
 10
458.5124027792816
 20
304.4644058646952
 30
0.0
 11
458.5124027792816
 21
304.4094058642057
 31
0.0
  0
LINE
  5
1DEDE
330
1F
100
AcDbEntity
  8
0
100
AcDbLine
 10
458.5124027792816
 20
303.5694058639955
 30
0.0
 11
458.5124027792816
 21
303.5144058647757
 31
0.0
  0
LINE
  5
1DEDF
330
1F
100
AcDbEntity
  8
0
100
AcDbLine
 10
458.8324027793617
 20
303.5144058647757
 30
0.0
 11
458.8324027793617
 21
303.5694058639955
 31
0.0
  0
LINE
  5
1DEE0
330
1F
100
AcDbEntity
  8
0
100
AcDbLine
 10
458.8324027793617
 20
304.4094058642057
 30
0.0
 11
458.8324027793617
 21
304.4644058646952
 31
0.0
  0
LINE
  5
1DEE1
330
1F
100
AcDbEntity
  8
0
100
AcDbLine
 10
459.1474027792817
 20
303.829405864696
 30
0.0
 11
459.1474027792817
 21
304.1494058647758
 31
0.0
  0
LINE
  5
1DEE2
330
1F
100
AcDbEntity
  8
0
100
AcDbLine
 10
459.1724027800816
 20
305.5394058635357
 30
0.0
 11
459.1724027800816
 21
304.7494058636553
 31
0.0
  0
LINE
  5
1DEE3
330
1F
100
AcDbEntity
  8
0
100
AcDbLine
 10
459.1724027800816
 20
303.2294058632753
 30
0.0
 11
459.1724027800816
 21
302.4394058646654
 31
0.0
  0
LINE
  5
1DEE4
330
1F
100
AcDbEntity
  8
0
100
AcDbLine
 10
458.1724027798316
 20
302.4394058646654
 30
0.0
 11
458.5124027792816
 21
303.5144058647757
 31
0.0
  0
LINE
  5
1DEE5
330
1F
100
AcDbEntity
  8
0
100
AcDbLine
 10
459.1724027800816
 20
305.5394058635357
 30
0.0
 11
458.8324027793617
 21
304.4644058646952
 31
0.0
  0
LINE
  5
1DEE6
330
1F
100
AcDbEntity
  8
0
100
AcDbLine
 10
457.1467975844114
 20
299.8894058643455
 30
0.0
 11
462.6724027790515
 21
299.8894058643455
 31
0.0
  0
LINE
  5
1DEE7
330
1F
100
AcDbEntity
  8
0
100
AcDbLine
 10
460.2224027793917
 20
303.4894058639757
 30
0.0
 11
460.2224027793917
 21
304.4894058642254
 31
0.0
  0
LINE
  5
1DEE8
330
1F
100
AcDbEntity
  8
0
100
AcDbLine
 10
462.6724027790515
 20
299.0394058638159
 30
0.0
 11
472.7724027796717
 21
299.0394058638159
 31
0.0
  0
LINE
  5
1DEE9
330
1F
100
AcDbEntity
  8
0
100
AcDbLine
 10
447.9224027794916
 20
298.9894058647558
 30
0.0
 11
462.6724027790515
 21
298.9894058647558
 31
0.0
  0
LINE
  5
1DEEA
330
1F
100
AcDbEntity
  8
0
100
AcDbLine
 10
462.6724027790515
 20
308.9894058647151
 30
0.0
 11
462.6724027790515
 21
298.9894058647558
 31
0.0
  0
LINE
  5
1DEEB
330
1F
100
AcDbEntity
  8
0
100
AcDbLine
 10
447.9224027794916
 20
296.4894058647658
 30
0.0
 11
456.7724027794818
 21
296.4894058647658
 31
0.0
  0
LINE
  5
1DEEC
330
1F
100
AcDbEntity
  8
0
100
AcDbLine
 10
441.1724027793916
 20
296.4394058644357
 30
0.0
 11
445.4224027795016
 21
296.4394058644357
 31
0.0
  0
LINE
  5
1DEED
330
1F
100
AcDbEntity
  8
0
100
AcDbLine
 10
466.1724027792918
 20
296.0902534436153
 30
0.0
 11
464.6724027795515
 21
296.0902534436153
 31
0.0
  0
LINE
  5
1DEEE
330
1F
100
AcDbEntity
  8
0
100
AcDbLine
 10
472.7724027796717
 20
296.0394058643356
 30
0.0
 11
466.1724027792918
 21
296.0394058643356
 31
0.0
  0
LINE
  5
1DEEF
330
1F
100
AcDbEntity
  8
0
100
AcDbLine
 10
464.6724027795515
 20
296.0394058643356
 30
0.0
 11
456.7724027794818
 21
296.0394058643356
 31
0.0
  0
LINE
  5
1DEF0
330
1F
100
AcDbEntity
  8
0
100
AcDbLine
 10
464.6724027795515
 20
293.4894058640156
 30
0.0
 11
464.6724027795515
 21
296.0902534436153
 31
0.0
  0
LINE
  5
1DEF1
330
1F
100
AcDbEntity
  8
0
100
AcDbLine
 10
464.6724027795515
 20
311.8885582845852
 30
0.0
 11
464.6724027795515
 21
314.4894058641857
 31
0.0
  0
LINE
  5
1DEF2
330
1F
100
AcDbEntity
  8
0
100
AcDbLine
 10
445.4224027795016
 20
295.7394058636253
 30
0.0
 11
447.9224027794916
 21
295.7394058636253
 31
0.0
  0
LINE
  5
1DEF3
330
1F
100
AcDbEntity
  8
0
100
AcDbLine
 10
466.1724027792918
 20
314.4894058641857
 30
0.0
 11
466.1724027792918
 21
311.8885582845852
 31
0.0
  0
LINE
  5
1DEF4
330
1F
100
AcDbEntity
  8
0
100
AcDbLine
 10
466.1724027792918
 20
296.0902534436153
 30
0.0
 11
466.1724027792918
 21
293.4894058640156
 31
0.0
  0
LINE
  5
1DEF5
330
1F
100
AcDbEntity
  8
0
100
AcDbLine
 10
456.7724027794818
 20
294.3894058636054
 30
0.0
 11
447.9224027794916
 21
294.3894058636054
 31
0.0
  0
LINE
  5
1DEF6
330
1F
100
AcDbEntity
  8
0
100
AcDbLine
 10
466.1724027792918
 20
293.4894058640156
 30
0.0
 11
464.6724027795515
 21
293.4894058640156
 31
0.0
  0
LINE
  5
1DEF7
330
1F
100
AcDbEntity
  8
0
100
AcDbLine
 10
445.4224027795016
 20
293.4894058640156
 30
0.0
 11
441.1724027793916
 21
293.4894058640156
 31
0.0
  0
LINE
  5
1DEF8
330
1F
100
AcDbEntity
  8
0
100
AcDbLine
 10
447.9224027794916
 20
293.4894058640156
 30
0.0
 11
456.7724027794818
 21
293.4894058640156
 31
0.0
  0
LINE
  5
1DEF9
330
1F
100
AcDbEntity
  8
0
100
AcDbLine
 10
447.9224027794916
 20
292.2394058646556
 30
0.0
 11
445.4224027795016
 21
292.2394058646556
 31
0.0
  0
LINE
  5
1DEFA
330
1F
100
AcDbEntity
  8
0
100
AcDbLine
 10
472.7724027796717
 20
311.9394058638656
 30
0.0
 11
472.7724027796717
 21
296.0394058643356
 31
0.0
  0
ARC
  5
1DEFB
330
1F
100
AcDbEntity
  8
0
100
AcDbCircle
 10
520.6946259382316
 20
312.2394058645755
 30
0.0
 40
3.50000000024
100
AcDbArc
 50
0.0
 51
90.0
  0
ARC
  5
1DEFC
330
1F
100
AcDbEntity
  8
0
100
AcDbCircle
 10
519.9446259383615
 20
311.4894058647055
 30
0.0
 40
2.999999999479996
100
AcDbArc
 50
0.9549738737970743
 51
90.0
  0
ARC
  5
1DEFD
330
1F
100
AcDbEntity
  8
0
100
AcDbCircle
 10
518.0446259372518
 20
309.5894058648655
 30
0.0
 40
2.999999999479996
100
AcDbArc
 50
0.0
 51
90.0
  0
ARC
  5
1DEFE
330
1F
100
AcDbEntity
  8
0
100
AcDbCircle
 10
520.6946259382316
 20
312.2394058645755
 30
0.0
 40
2.0000000005
100
AcDbArc
 50
19.65528575440436
 51
70.33488622669882
  0
CIRCLE
  5
1DEFF
330
1F
100
AcDbEntity
  8
0
100
AcDbCircle
 10
517.5446259377617
 20
309.0894058653756
 30
0.0
 40
1.499999999739996
  0
CIRCLE
  5
1DF00
330
1F
100
AcDbEntity
  8
0
100
AcDbCircle
 10
517.5446259377617
 20
309.0894058653756
 30
0.0
 40
1.325000000489999
  0
ARC
  5
1DF01
330
1F
100
AcDbEntity
  8
0
100
AcDbCircle
 10
515.8446259379712
 20
305.9894058652355
 30
0.0
 40
0.4999999994900002
100
AcDbArc
 50
90.0
 51
180.0
  0
ARC
  5
1DF02
330
1F
100
AcDbEntity
  8
0
100
AcDbCircle
 10
520.6946259382316
 20
295.7394058648954
 30
0.0
 40
3.50000000024
100
AcDbArc
 50
270.0
 51
0.0
  0
ARC
  5
1DF03
330
1F
100
AcDbEntity
  8
0
100
AcDbCircle
 10
519.9446259383615
 20
296.4894058647653
 30
0.0
 40
2.999999999479996
100
AcDbArc
 50
270.0
 51
359.0450261261964
  0
ARC
  5
1DF04
330
1F
100
AcDbEntity
  8
0
100
AcDbCircle
 10
518.0446259372518
 20
298.3894058646054
 30
0.0
 40
2.999999999479996
100
AcDbArc
 50
270.0
 51
0.0
  0
ARC
  5
1DF05
330
1F
100
AcDbEntity
  8
0
100
AcDbCircle
 10
520.6946259382316
 20
295.7394058648954
 30
0.0
 40
2.0000000005
100
AcDbArc
 50
289.6654630467962
 51
340.3449429132982
  0
CIRCLE
  5
1DF06
330
1F
100
AcDbEntity
  8
0
100
AcDbCircle
 10
517.5446259377617
 20
298.8894058653654
 30
0.0
 40
1.499999999739996
  0
CIRCLE
  5
1DF07
330
1F
100
AcDbEntity
  8
0
100
AcDbCircle
 10
517.5446259377617
 20
298.8894058653654
 30
0.0
 40
1.325000000489999
  0
ARC
  5
1DF08
330
1F
100
AcDbEntity
  8
0
100
AcDbCircle
 10
515.8446259379712
 20
301.9894058642355
 30
0.0
 40
0.4999999994900002
100
AcDbArc
 50
180.0
 51
270.0
  0
ARC
  5
1DF09
330
1F
100
AcDbEntity
  8
0
100
AcDbCircle
 10
504.1946259372815
 20
312.2394058645755
 30
0.0
 40
3.50000000024
100
AcDbArc
 50
90.0
 51
180.0
  0
ARC
  5
1DF0A
330
1F
100
AcDbEntity
  8
0
100
AcDbCircle
 10
504.9446259384215
 20
311.4894058647055
 30
0.0
 40
2.999999999479996
100
AcDbArc
 50
90.0
 51
180.0
  0
ARC
  5
1DF0B
330
1F
100
AcDbEntity
  8
0
100
AcDbCircle
 10
506.8446259382615
 20
309.5894058648655
 30
0.0
 40
2.999999999479996
100
AcDbArc
 50
90.0
 51
180.0
  0
CIRCLE
  5
1DF0C
330
1F
100
AcDbEntity
  8
0
100
AcDbCircle
 10
512.4446259383915
 20
309.0894058653756
 30
0.0
 40
2.334999999789999
  0
ARC
  5
1DF0D
330
1F
100
AcDbEntity
  8
0
100
AcDbCircle
 10
504.1946259372815
 20
312.2394058645755
 30
0.0
 40
2.0000000005
100
AcDbArc
 50
109.6042263927011
 51
160.3960798243953
  0
CIRCLE
  5
1DF0E
330
1F
100
AcDbEntity
  8
0
100
AcDbCircle
 10
512.4446259383915
 20
309.0894058653756
 30
0.0
 40
1.899999999839996
  0
CIRCLE
  5
1DF0F
330
1F
100
AcDbEntity
  8
0
100
AcDbCircle
 10
512.4446259383915
 20
309.0894058653756
 30
0.0
 40
1.499999999739996
  0
CIRCLE
  5
1DF10
330
1F
100
AcDbEntity
  8
0
100
AcDbCircle
 10
507.3446259377517
 20
309.0894058653756
 30
0.0
 40
1.499999999739996
  0
CIRCLE
  5
1DF11
330
1F
100
AcDbEntity
  8
0
100
AcDbCircle
 10
507.3446259377517
 20
309.0894058653756
 30
0.0
 40
1.325000000489999
  0
CIRCLE
  5
1DF12
330
1F
100
AcDbEntity
  8
0
100
AcDbCircle
 10
512.4446259383915
 20
309.0894058653756
 30
0.0
 40
1.325000000489999
  0
ARC
  5
1DF13
330
1F
100
AcDbEntity
  8
0
100
AcDbCircle
 10
504.1946259372815
 20
295.7394058648954
 30
0.0
 40
3.50000000024
100
AcDbArc
 50
180.0
 51
270.0
  0
ARC
  5
1DF14
330
1F
100
AcDbEntity
  8
0
100
AcDbCircle
 10
504.9446259384215
 20
296.4894058647653
 30
0.0
 40
2.999999999479996
100
AcDbArc
 50
180.0
 51
270.0
  0
ARC
  5
1DF15
330
1F
100
AcDbEntity
  8
0
100
AcDbCircle
 10
506.8446259382615
 20
298.3894058646054
 30
0.0
 40
2.999999999479996
100
AcDbArc
 50
180.0
 51
270.0
  0
CIRCLE
  5
1DF16
330
1F
100
AcDbEntity
  8
0
100
AcDbCircle
 10
512.4446259383915
 20
298.8894058653654
 30
0.0
 40
2.334999999789999
  0
CIRCLE
  5
1DF17
330
1F
100
AcDbEntity
  8
0
100
AcDbCircle
 10
507.3446259377517
 20
303.9894058647355
 30
0.0
 40
2.334999999789999
  0
ARC
  5
1DF18
330
1F
100
AcDbEntity
  8
0
100
AcDbCircle
 10
504.1946259372815
 20
295.7394058648954
 30
0.0
 40
2.0000000005
100
AcDbArc
 50
199.6042263927039
 51
250.3960798243984
  0
CIRCLE
  5
1DF19
330
1F
100
AcDbEntity
  8
0
100
AcDbCircle
 10
512.4446259383915
 20
298.8894058653654
 30
0.0
 40
1.899999999839996
  0
CIRCLE
  5
1DF1A
330
1F
100
AcDbEntity
  8
0
100
AcDbCircle
 10
507.3446259377517
 20
303.9894058647355
 30
0.0
 40
1.899999999839996
  0
CIRCLE
  5
1DF1B
330
1F
100
AcDbEntity
  8
0
100
AcDbCircle
 10
512.4446259383915
 20
298.8894058653654
 30
0.0
 40
1.499999999739996
  0
CIRCLE
  5
1DF1C
330
1F
100
AcDbEntity
  8
0
100
AcDbCircle
 10
507.3446259377517
 20
303.9894058647355
 30
0.0
 40
1.499999999739996
  0
CIRCLE
  5
1DF1D
330
1F
100
AcDbEntity
  8
0
100
AcDbCircle
 10
507.3446259377517
 20
298.8894058653654
 30
0.0
 40
1.499999999739996
  0
CIRCLE
  5
1DF1E
330
1F
100
AcDbEntity
  8
0
100
AcDbCircle
 10
512.4446259383915
 20
303.9894058647355
 30
0.0
 40
1.499999999739996
  0
CIRCLE
  5
1DF1F
330
1F
100
AcDbEntity
  8
0
100
AcDbCircle
 10
507.3446259377517
 20
298.8894058653654
 30
0.0
 40
1.325000000489999
  0
CIRCLE
  5
1DF20
330
1F
100
AcDbEntity
  8
0
100
AcDbCircle
 10
512.4446259383915
 20
298.8894058653654
 30
0.0
 40
1.325000000489999
  0
CIRCLE
  5
1DF21
330
1F
100
AcDbEntity
  8
0
100
AcDbCircle
 10
507.3446259377517
 20
303.9894058647355
 30
0.0
 40
1.325000000489999
  0
CIRCLE
  5
1DF22
330
1F
100
AcDbEntity
  8
0
100
AcDbCircle
 10
512.4446259383915
 20
303.9894058647355
 30
0.0
 40
1.325000000489999
  0
ARC
  5
1DF23
330
1F
100
AcDbEntity
  8
0
100
AcDbCircle
 10
458.7724027799819
 20
303.9894058647358
 30
0.0
 40
4.70000000054
100
AcDbArc
 50
129.9599349251017
 51
230.0400613522013
  0
ARC
  5
1DF24
330
1F
100
AcDbEntity
  8
0
100
AcDbCircle
 10
458.7724027799819
 20
303.9894058647358
 30
0.0
 40
3.10000000014
100
AcDbArc
 50
150.8615089612991
 51
209.1383014379954
  0
CIRCLE
  5
1DF25
330
1F
100
AcDbEntity
  8
0
100
AcDbCircle
 10
458.6724027793218
 20
303.9894058647358
 30
0.0
 40
2.849999999759996
  0
ARC
  5
1DF26
330
1F
100
AcDbEntity
  8
0
100
AcDbCircle
 10
459.4324282417415
 20
303.2293804023157
 30
0.0
 40
0.26004570419
100
AcDbArc
 50
90.00561067589909
 51
179.9943895153941
  0
ARC
  5
1DF27
330
1F
100
AcDbEntity
  8
0
100
AcDbCircle
 10
457.9123773169015
 20
303.2293804023157
 30
0.0
 40
0.26004570419
100
AcDbArc
 50
0.0056106680988229
 51
89.99438952310006
  0
ARC
  5
1DF28
330
1F
100
AcDbEntity
  8
0
100
AcDbCircle
 10
459.4324282417415
 20
304.7494313258854
 30
0.0
 40
0.26004569149
100
AcDbArc
 50
180.005610676697
 51
269.9943895145996
  0
ARC
  5
1DF29
330
1F
100
AcDbEntity
  8
0
100
AcDbCircle
 10
457.9123773169015
 20
304.7494313258854
 30
0.0
 40
0.26004569149
100
AcDbArc
 50
270.0056106775992
 51
359.994389513603
  0
ARC
  5
1DF2A
330
1F
100
AcDbEntity
  8
0
100
AcDbCircle
 10
459.0924120472513
 20
303.5693965968056
 30
0.0
 40
0.26000972509
100
AcDbArc
 50
90.00204224969918
 51
179.9979577503008
  0
ARC
  5
1DF2B
330
1F
100
AcDbEntity
  8
0
100
AcDbCircle
 10
458.2523935113917
 20
303.5693965968056
 30
0.0
 40
0.26000972509
100
AcDbArc
 50
0.0020422499923185
 51
89.99795775000116
  0
ARC
  5
1DF2C
330
1F
100
AcDbEntity
  8
0
100
AcDbCircle
 10
458.2523935113917
 20
304.4094151313956
 30
0.0
 40
0.26000972509
100
AcDbArc
 50
270.0020422530017
 51
359.9979577469984
  0
ARC
  5
1DF2D
330
1F
100
AcDbEntity
  8
0
100
AcDbCircle
 10
459.0924120472513
 20
304.4094151313956
 30
0.0
 40
0.26000972509
100
AcDbArc
 50
180.002042253894
 51
269.9979577460994
  0
SPLINE
  5
1DF2E
330
1F
100
AcDbEntity
  8
0
100
AcDbSpline
210
0.0
220
0.0
230
1.0
 70
     8
 71
     3
 72
    11
 73
     7
 74
     0
 42
0.0000000001
 43
0.0000000001
 40
0.0
 40
0.0
 40
0.0
 40
0.0
 40
0.2500182941
 40
0.5000167036
 40
0.7500112667000001
 40
1.0
 40
1.0
 40
1.0
 40
1.0
 10
457.1467975844114
 20
308.0894058638556
 30
0.0
 10
457.0210885394117
 20
308.0894059044957
 30
0.0
 10
456.7691299793215
 20
308.0696755883558
 30
0.0
 10
456.4018776213718
 20
307.9759117067952
 30
0.0
 10
456.0572984197515
 20
307.8178234415653
 30
0.0
 10
455.8501632129916
 20
307.6726537255552
 30
0.0
 10
455.7538192400715
 20
307.5919266175154
 30
0.0
  0
SPLINE
  5
1DF2F
330
1F
100
AcDbEntity
  8
0
100
AcDbSpline
210
0.0
220
0.0
230
1.0
 70
     8
 71
     3
 72
    11
 73
     7
 74
     0
 42
0.0000000001
 43
0.0000000001
 40
0.0
 40
0.0
 40
0.0
 40
0.0
 40
0.2357426527
 40
0.4780029045000001
 40
0.7309776029
 40
1.0
 40
1.0
 40
1.0
 40
1.0
 10
455.7538171229817
 20
307.5919245156653
 30
0.0
 10
455.7943232205317
 20
307.4303244464354
 30
0.0
 10
455.8713839008014
 20
307.1013413947256
 30
0.0
 10
455.9671682672715
 20
306.5934901815755
 30
0.0
 10
456.0353120006816
 20
306.0572999610952
 30
0.0
 10
456.0571181864315
 20
305.6888191702456
 30
0.0
 10
456.0647156655216
 20
305.4988529461654
 30
0.0
  0
SPLINE
  5
1DF30
330
1F
100
AcDbEntity
  8
0
100
AcDbSpline
210
0.0
220
0.0
230
1.0
 70
     8
 71
     3
 72
    11
 73
     7
 74
     0
 42
0.0000000001
 43
0.0000000001
 40
0.0
 40
0.0
 40
0.0
 40
0.0
 40
0.2690788556
 40
0.5220555824000001
 40
0.7642961677
 40
1.0
 40
1.0
 40
1.0
 40
1.0
 10
456.0647189459317
 20
302.4799528981255
 30
0.0
 10
456.0570519394216
 20
302.2899497957852
 30
0.0
 10
456.0353089425218
 20
301.9214266250354
 30
0.0
 10
455.9671644331417
 20
301.3852076200057
 30
0.0
 10
455.8714093719218
 20
300.8773920748053
 30
0.0
 10
455.7943194156115
 20
300.5484585429357
 30
0.0
 10
455.7538191257718
 20
300.3868855348656
 30
0.0
  0
SPLINE
  5
1DF31
330
1F
100
AcDbEntity
  8
0
100
AcDbSpline
210
0.0
220
0.0
230
1.0
 70
     8
 71
     3
 72
    10
 73
     6
 74
     0
 42
0.0000000001
 43
0.0000000001
 40
0.0
 40
0.0
 40
0.0
 40
0.0
 40
0.2533564794
 40
0.5038033253
 40
1.0
 40
1.0
 40
1.0
 40
1.0
 10
457.8721789721016
 20
306.7241287772957
 30
0.0
 10
457.8016694953917
 20
306.8341064465956
 30
0.0
 10
457.6690490418116
 20
307.0576722796257
 30
0.0
 10
457.4244829307414
 20
307.5116846037557
 30
0.0
 10
457.2557448557216
 20
307.8579042681854
 30
0.0
 10
457.1467975844114
 20
308.0894058638556
 30
0.0
  0
SPLINE
  5
1DF32
330
1F
100
AcDbEntity
  8
0
100
AcDbSpline
210
0.0
220
0.0
230
1.0
 70
     8
 71
     3
 72
    11
 73
     7
 74
     0
 42
0.0000000001
 43
0.0000000001
 40
0.0
 40
0.0
 40
0.0
 40
0.0
 40
0.2499993088
 40
0.5000083961000003
 40
0.7500190752
 40
1.0
 40
1.0
 40
1.0
 40
1.0
 10
457.3228640115513
 20
301.4741071958259
 30
0.0
 10
457.1903195827117
 20
301.5112634893053
 30
0.0
 10
456.9315867321318
 20
301.6115042578357
 30
0.0
 10
456.5827411788715
 20
301.8379118454053
 30
0.0
 10
456.2875726112217
 20
302.1305661280154
 30
0.0
 10
456.1317381654616
 20
302.3597308563754
 30
0.0
 10
456.0647159715918
 20
302.4799550406157
 30
0.0
  0
SPLINE
  5
1DF33
330
1F
100
AcDbEntity
  8
0
100
AcDbSpline
210
0.0
220
0.0
230
1.0
 70
     8
 71
     3
 72
    11
 73
     7
 74
     0
 42
0.0000000001
 43
0.0000000001
 40
0.0
 40
0.0
 40
0.0
 40
0.0
 40
0.2499805318
 40
0.4999907518000001
 40
0.7500002824000001
 40
1.0
 40
1.0
 40
1.0
 40
1.0
 10
456.0647212268518
 20
305.4988655026552
 30
0.0
 10
456.1317410267718
 20
305.6190851517252
 30
0.0
 10
456.2875685980213
 20
305.8482421000654
 30
0.0
 10
456.5827270729815
 20
306.1408849818858
 30
0.0
 10
456.9315567855317
 20
306.3672893957256
 30
0.0
 10
457.1902787903118
 20
306.4675318127154
 30
0.0
 10
457.3228178191116
 20
306.5046900099251
 30
0.0
  0
SPLINE
  5
1DF34
330
1F
100
AcDbEntity
  8
0
100
AcDbSpline
210
0.0
220
0.0
230
1.0
 70
     8
 71
     3
 72
    10
 73
     6
 74
     0
 42
0.0000000001
 43
0.0000000001
 40
0.0
 40
0.0
 40
0.0
 40
0.0
 40
0.4962027393
 40
0.746653435
 40
1.0
 40
1.0
 40
1.0
 40
1.0
 10
457.1467975844114
 20
299.8894058643455
 30
0.0
 10
457.2557362324216
 20
300.1208745403454
 30
0.0
 10
457.4244595970317
 20
300.4670449363956
 30
0.0
 10
457.6689773185615
 20
300.9210007874353
 30
0.0
 10
457.8015975918017
 20
301.1445185535059
 30
0.0
 10
457.8720739507216
 20
301.2544891933556
 30
0.0
  0
SPLINE
  5
1DF35
330
1F
100
AcDbEntity
  8
0
100
AcDbSpline
210
0.0
220
0.0
230
1.0
 70
     8
 71
     3
 72
    11
 73
     7
 74
     0
 42
0.0000000001
 43
0.0000000001
 40
0.0
 40
0.0
 40
0.0
 40
0.0
 40
0.2499896823
 40
0.4999838785000001
 40
0.7499820283
 40
1.0
 40
1.0
 40
1.0
 40
1.0
 10
455.7538191308515
 20
300.3868854573952
 30
0.0
 10
455.8501633412618
 20
300.3061578350058
 30
0.0
 10
456.0572974101017
 20
300.1609854786654
 30
0.0
 10
456.4018789891616
 20
300.0029016216056
 30
0.0
 10
456.7691301469617
 20
299.9091355734259
 30
0.0
 10
457.0210886676816
 20
299.8894059062553
 30
0.0
 10
457.1467975844114
 20
299.8894058643455
 30
0.0
  0
CIRCLE
  5
1DF36
330
1F
100
AcDbEntity
  8
DIM
100
AcDbCircle
 10
509.4146650241079
 20
296.6644932260896
 30
0.0
 40
0.6120619120468584
  0
LINE
  5
1DF37
330
1F
100
AcDbEntity
  8
DIM
100
AcDbLine
 10
509.4146650241079
 20
296.128814982473
 30
0.0
 11
509.4146650241079
 21
297.2001714697063
 31
0.0
  0
LINE
  5
1DF38
330
1F
100
AcDbEntity
  8
DIM
100
AcDbLine
 10
509.1739341124077
 20
296.1859539812664
 30
0.0
 11
509.1739341124077
 21
297.143032470913
 31
0.0
  0
LINE
  5
1DF39
330
1F
100
AcDbEntity
  8
DIM
100
AcDbLine
 10
508.9332032007074
 20
296.4296620243891
 30
0.0
 11
508.9332032007074
 21
296.8993244277901
 31
0.0
  0
LINE
  5
1DF3A
330
1F
100
AcDbEntity
  8
DIM
100
AcDbLine
 10
510.026726936155
 20
296.6644932260896
 30
0.0
 11
509.4146650241079
 21
296.6644932260896
 31
0.0
  0
MTEXT
  5
1DF3B
330
1F
100
AcDbEntity
  8
模刻
 62
     3
100
AcDbMText
 10
513.4343151125814
 20
302.0926140505313
 30
0.0
 40
1.5
 41
13.65362491127166
 71
     1
 72
     5
  1
1
  7
数字
 11
0.0000000000000008
 21
1.0
 31
0.0
 73
     1
 44
1.0
1001
ACAD
1000
MTEXTBEGIN
1070
    73
1070
     1
1070
    44
1040
1.0
1070
    74
1070
     0
1000
MTEXTEND
  0
MTEXT
  5
1DF3C
330
1F
100
AcDbEntity
  8
模刻
 62
     3
100
AcDbMText
 10
515.1885735464942
 20
296.2400741680383
 30
0.0
 40
1.5
 41
13.65362491127166
 71
     1
 72
     5
  1
2
  7
数字
 11
0.0000000000000008
 21
1.0
 31
0.0
 73
     1
 44
1.0
1001
ACAD
1000
MTEXTBEGIN
1070
    73
1070
     1
1070
    44
1040
1.0
1070
    74
1070
     0
1000
MTEXTEND
  0
MTEXT
  5
1DF3D
330
1F
100
AcDbEntity
  8
模刻
 62
     3
100
AcDbMText
 10
508.4245010162269
 20
300.6002020714281
 30
0.0
 40
1.5
 41
13.65362491127166
 71
     1
 72
     5
  1
8
  7
数字
 11
0.0000000000000008
 21
1.0
 31
0.0
 73
     1
 44
1.0
1001
ACAD
1000
MTEXTBEGIN
1070
    73
1070
     1
1070
    44
1040
1.0
1070
    74
1070
     0
1000
MTEXTEND
  0
MTEXT
  5
1DF3E
330
1F
100
AcDbEntity
  8
模刻
 62
     3
100
AcDbMText
 10
508.3796930358333
 20
306.3849566570175
 30
0.0
 40
1.5
 41
13.65362491127166
 71
     1
 72
     5
  1
7
  7
数字
 11
0.0000000000000008
 21
1.0
 31
0.0
 73
     1
 44
1.0
1001
ACAD
1000
MTEXTBEGIN
1070
    73
1070
     1
1070
    44
1040
1.0
1070
    74
1070
     0
1000
MTEXTEND
  0
MTEXT
  5
1DF3F
330
1F
100
AcDbEntity
  8
模刻
 62
     3
100
AcDbMText
 10
508.2004598581468
 20
310.8019983745303
 30
0.0
 40
1.5
 41
13.65362491127166
 71
     1
 72
     5
  1
6
  7
数字
 11
0.0000000000000008
 21
1.0
 31
0.0
 73
     1
 44
1.0
1001
ACAD
1000
MTEXTBEGIN
1070
    73
1070
     1
1070
    44
1040
1.0
1070
    74
1070
     0
1000
MTEXTEND
  0
MTEXT
  5
1DF40
330
1F
100
AcDbEntity
  8
模刻
 62
     3
100
AcDbMText
 10
514.2341592762501
 20
311.0310463898053
 30
0.0
 40
1.5
 41
13.65362491127166
 71
     1
 72
     5
  1
5
  7
数字
 11
0.0000000000000008
 21
1.0
 31
0.0
 73
     1
 44
1.0
1001
ACAD
1000
MTEXTBEGIN
1070
    73
1070
     1
1070
    44
1040
1.0
1070
    74
1070
     0
1000
MTEXTEND
  0
MTEXT
  5
1DF41
330
1F
100
AcDbEntity
  8
模刻
 62
     3
100
AcDbMText
 10
518.857182960294
 20
307.0401651788762
 30
0.0
 40
1.5
 41
13.65362491127166
 71
     1
 72
     5
  1
4
  7
数字
 11
0.0000000000000008
 21
1.0
 31
0.0
 73
     1
 44
1.0
1001
ACAD
1000
MTEXTBEGIN
1070
    73
1070
     1
1070
    44
1040
1.0
1070
    74
1070
     0
1000
MTEXTEND
  0
MTEXT
  5
1DF42
330
1F
100
AcDbEntity
  8
模刻
 62
     3
100
AcDbMText
 10
518.857182960294
 20
300.1142757136904
 30
0.0
 40
1.5
 41
13.65362491127166
 71
     1
 72
     5
  1
3
  7
数字
 11
0.0000000000000008
 21
1.0
 31
0.0
 73
     1
 44
1.0
1001
ACAD
1000
MTEXTBEGIN
1070
    73
1070
     1
1070
    44
1040
1.0
1070
    74
1070
     0
1000
MTEXTEND
  0
LINE
  5
1DF43
330
1F
100
AcDbEntity
  8
0
100
AcDbLine
 10
403.2212113545151
 20
215.2922470128729
 30
0.0
 11
403.2212113545151
 21
212.883564883333
 31
0.0
  0
LINE
  5
1DF44
330
1F
100
AcDbEntity
  8
0
100
AcDbLine
 10
403.2212113545151
 20
209.617555213943
 30
0.0
 11
403.2212113545151
 21
207.208873083133
 31
0.0
  0
LINE
  5
1DF45
330
1F
100
AcDbEntity
  8
0
100
AcDbLine
 10
405.3425405294249
 20
203.534643568513
 30
0.0
 11
412.3429268092949
 21
199.4930600984829
 31
0.0
  0
LINE
  5
1DF46
330
1F
100
AcDbEntity
  8
0
100
AcDbLine
 10
406.0067568578348
 20
208.009356150693
 30
0.0
 11
407.1067614370948
 21
206.104102906343
 31
0.0
  0
LINE
  5
1DF47
330
1F
100
AcDbEntity
  8
0
100
AcDbLine
 10
417.3987224838151
 20
199.8808579360429
 30
0.0
 11
416.0853237542546
 21
200.639131890663
 31
0.0
  0
LINE
  5
1DF48
330
1F
100
AcDbEntity
  8
0
100
AcDbLine
 10
407.8567645598949
 20
206.537129791113
 30
0.0
 11
406.7567599806348
 21
208.442383035463
 31
0.0
  0
LINE
  5
1DF49
330
1F
100
AcDbEntity
  8
0
100
AcDbLine
 10
409.8287027788248
 20
205.398656485133
 30
0.0
 11
410.5787059016249
 21
204.099620183033
 31
0.0
  0
LINE
  5
1DF4A
330
1F
100
AcDbEntity
  8
0
100
AcDbLine
 10
406.7567599806348
 20
208.442383035463
 30
0.0
 11
406.7567599806348
 21
209.976329516713
 31
0.0
  0
LINE
  5
1DF4B
330
1F
100
AcDbEntity
  8
0
100
AcDbLine
 10
418.8306166266248
 20
231.285137876913
 30
0.0
 11
420.5983762191148
 21
232.305748261393
 31
0.0
  0
LINE
  5
1DF4C
330
1F
100
AcDbEntity
  8
0
100
AcDbLine
 10
422.3483683846054
 20
232.1324132842129
 30
0.0
 11
420.5806087921145
 21
231.111802899733
 31
0.0
  0
LINE
  5
1DF4D
330
1F
100
AcDbEntity
  8
0
100
AcDbLine
 10
403.2212113545151
 20
209.617555213943
 30
0.0
 11
406.0067568578348
 21
208.009356150693
 31
0.0
  0
LINE
  5
1DF4E
330
1F
100
AcDbEntity
  8
0
100
AcDbLine
 10
411.3287090244252
 20
204.532647067803
 30
0.0
 11
410.5787059016249
 21
205.831683371173
 31
0.0
  0
LINE
  5
1DF4F
330
1F
100
AcDbEntity
  8
0
100
AcDbLine
 10
407.8567645598949
 20
210.611435615053
 30
0.0
 11
407.1067614370948
 21
211.9104719171529
 31
0.0
  0
LINE
  5
1DF50
330
1F
100
AcDbEntity
  8
0
100
AcDbLine
 10
409.8287027788248
 20
209.472962309073
 30
0.0
 11
410.5787059016249
 21
208.1739260057029
 31
0.0
  0
LINE
  5
1DF51
330
1F
100
AcDbEntity
  8
0
100
AcDbLine
 10
408.5598303114948
 20
220.4973520128529
 30
0.0
 11
408.5598303114948
 21
219.762499836383
 31
0.0
  0
LINE
  5
1DF52
330
1F
100
AcDbEntity
  8
0
100
AcDbLine
 10
409.620515506605
 20
221.518056995823
 30
0.0
 11
409.620515506605
 21
219.394458659843
 31
0.0
  0
LINE
  5
1DF53
330
1F
100
AcDbEntity
  8
0
100
AcDbLine
 10
422.8839305303949
 20
231.823213329843
 30
0.0
 11
424.3838987026648
 21
232.689215188133
 31
0.0
  0
LINE
  5
1DF54
330
1F
100
AcDbEntity
  8
0
100
AcDbLine
 10
419.6613620276146
 20
229.356296856523
 30
0.0
 11
419.1663893409047
 21
229.070525948513
 31
0.0
  0
LINE
  5
1DF55
330
1F
100
AcDbEntity
  8
0
100
AcDbLine
 10
425.8838919866446
 20
232.540642350913
 30
0.0
 11
423.7626031088348
 21
231.315922957583
 31
0.0
  0
LINE
  5
1DF56
330
1F
100
AcDbEntity
  8
0
100
AcDbLine
 10
420.7355261149952
 20
229.543609932493
 30
0.0
 11
413.8030768265053
 21
225.541182360783
 31
0.0
  0
LINE
  5
1DF57
330
1F
100
AcDbEntity
  8
0
100
AcDbLine
 10
403.2212113545151
 20
212.883564883333
 30
0.0
 11
406.0067568578348
 21
211.275365818813
 31
0.0
  0
LINE
  5
1DF58
330
1F
100
AcDbEntity
  8
0
100
AcDbLine
 10
411.3287090244252
 20
208.6069528904729
 30
0.0
 11
410.5787059016249
 21
209.905989193843
 31
0.0
  0
LINE
  5
1DF59
330
1F
100
AcDbEntity
  8
0
100
AcDbLine
 10
409.620515506605
 20
221.518056995823
 30
0.0
 11
410.6811712631154
 21
222.130423226003
 31
0.0
  0
LINE
  5
1DF5A
330
1F
100
AcDbEntity
  8
0
100
AcDbLine
 10
413.3681417032348
 20
223.273415317713
 30
0.0
 11
411.0347933308251
 21
221.926264048343
 31
0.0
  0
LINE
  5
1DF5B
330
1F
100
AcDbEntity
  8
0
100
AcDbLine
 10
409.620515506605
 20
221.109735239443
 30
0.0
 11
408.5598303114948
 21
220.4973520128529
 31
0.0
  0
LINE
  5
1DF5C
330
1F
100
AcDbEntity
  8
0
100
AcDbLine
 10
421.6407603065552
 20
204.4536171814129
 30
0.0
 11
423.4798449227644
 21
203.391845202853
 31
0.0
  0
LINE
  5
1DF5D
330
1F
100
AcDbEntity
  8
0
100
AcDbLine
 10
403.8425472454453
 20
216.665604837653
 30
0.0
 11
409.620515506605
 21
220.001496456433
 31
0.0
  0
LINE
  5
1DF5E
330
1F
100
AcDbEntity
  8
0
100
AcDbLine
 10
411.9945699914053
 20
221.372149271383
 30
0.0
 11
415.1562086401748
 21
223.197511300103
 31
0.0
  0
LINE
  5
1DF5F
330
1F
100
AcDbEntity
  8
0
100
AcDbLine
 10
416.6562019254252
 20
223.048938462883
 30
0.0
 11
412.8732425698449
 21
220.864858897853
 31
0.0
  0
LINE
  5
1DF60
330
1F
100
AcDbEntity
  8
0
100
AcDbLine
 10
410.0094258552752
 20
219.211443416273
 30
0.0
 11
405.3425405294249
 21
216.517032001703
 31
0.0
  0
LINE
  5
1DF61
330
1F
100
AcDbEntity
  8
0
100
AcDbLine
 10
425.4597180039047
 20
203.636723648833
 30
0.0
 11
424.540500679275
 21
204.167422012123
 31
0.0
  0
LINE
  5
1DF62
330
1F
100
AcDbEntity
  8
0
100
AcDbLine
 10
408.7267279660148
 20
219.485471059733
 30
0.0
 11
408.5598303114948
 21
219.762499836383
 31
0.0
  0
LINE
  5
1DF63
330
1F
100
AcDbEntity
  8
0
100
AcDbLine
 10
413.3681417032348
 20
222.538575486913
 30
0.0
 11
413.3681417032348
 21
224.579831884453
 31
0.0
  0
LINE
  5
1DF64
330
1F
100
AcDbEntity
  8
0
100
AcDbLine
 10
414.4642559842047
 20
200.717845087313
 30
0.0
 11
414.4642559842047
 21
208.801219015783
 31
0.0
  0
LINE
  5
1DF65
330
1F
100
AcDbEntity
  8
0
100
AcDbLine
 10
412.3429268092949
 20
212.475448531673
 30
0.0
 11
405.3425405294249
 21
216.517032001703
 31
0.0
  0
LINE
  5
1DF66
330
1F
100
AcDbEntity
  8
0
100
AcDbLine
 10
417.3987224838151
 20
199.8808579360429
 30
0.0
 11
417.3987224838151
 21
201.397418474163
 31
0.0
  0
LINE
  5
1DF67
330
1F
100
AcDbEntity
  8
0
100
AcDbLine
 10
417.3987224838151
 20
214.903810360233
 30
0.0
 11
417.3987224838151
 21
217.027408696213
 31
0.0
  0
LINE
  5
1DF68
330
1F
100
AcDbEntity
  8
0
100
AcDbLine
 10
407.1067614370948
 20
211.9104719171529
 30
0.0
 11
406.0067568578348
 21
211.275365818813
 31
0.0
  0
LINE
  5
1DF69
330
1F
100
AcDbEntity
  8
0
100
AcDbLine
 10
407.128241707825
 20
211.873266775663
 30
0.0
 11
403.2212113545151
 21
209.617555213943
 31
0.0
  0
LINE
  5
1DF6A
330
1F
100
AcDbEntity
  8
0
100
AcDbLine
 10
432.2479192560249
 20
205.188023647573
 30
0.0
 11
430.8123455866646
 21
206.016833742553
 31
0.0
  0
LINE
  5
1DF6B
330
1F
100
AcDbEntity
  8
0
100
AcDbLine
 10
418.105724754085
 20
228.025302471273
 30
0.0
 11
418.105724754085
 21
229.682887080913
 31
0.0
  0
LINE
  5
1DF6C
330
1F
100
AcDbEntity
  8
0
100
AcDbLine
 10
418.4593782390551
 20
200.493224166223
 30
0.0
 11
418.4593782390551
 21
202.0097847056129
 31
0.0
  0
LINE
  5
1DF6D
330
1F
100
AcDbEntity
  8
0
100
AcDbLine
 10
418.4593782390551
 20
215.516176591683
 30
0.0
 11
418.4593782390551
 21
217.639774926393
 31
0.0
  0
LINE
  5
1DF6E
330
1F
100
AcDbEntity
  8
0
100
AcDbLine
 10
419.1663893409047
 20
228.637673801773
 30
0.0
 11
419.1663893409047
 21
229.070525948513
 31
0.0
  0
LINE
  5
1DF6F
330
1F
100
AcDbEntity
  8
0
100
AcDbLine
 10
418.4593782390551
 20
217.639774926393
 30
0.0
 11
417.3987224838151
 21
217.027408696213
 31
0.0
  0
LINE
  5
1DF70
330
1F
100
AcDbEntity
  8
0
100
AcDbLine
 10
406.7567599806348
 20
209.976329516713
 30
0.0
 11
407.8567645598949
 21
210.611435615053
 31
0.0
  0
LINE
  5
1DF71
330
1F
100
AcDbEntity
  8
0
100
AcDbLine
 10
432.2479192560249
 20
224.375830449683
 30
0.0
 11
434.0156788497846
 21
225.396440835433
 31
0.0
  0
LINE
  5
1DF72
330
1F
100
AcDbEntity
  8
0
100
AcDbLine
 10
417.009812133875
 20
215.169859947513
 30
0.0
 11
410.0094258552752
 21
219.211443416273
 31
0.0
  0
LINE
  5
1DF73
330
1F
100
AcDbEntity
  8
0
100
AcDbLine
 10
432.2479192560249
 20
206.412777273753
 30
0.0
 11
431.8730285033947
 21
206.6292156546929
 31
0.0
  0
LINE
  5
1DF74
330
1F
100
AcDbEntity
  8
0
100
AcDbLine
 10
409.5196069720747
 20
219.943237234623
 30
0.0
 11
408.5598303114948
 21
220.4973520128529
 31
0.0
  0
LINE
  5
1DF75
330
1F
100
AcDbEntity
  8
0
100
AcDbLine
 10
432.7428919427352
 20
206.698548180493
 30
0.0
 11
432.3680011901051
 21
206.9149865614329
 31
0.0
  0
LINE
  5
1DF76
330
1F
100
AcDbEntity
  8
0
100
AcDbLine
 10
423.4798449227644
 20
212.373371791453
 30
0.0
 11
421.6407603065552
 21
213.435143770013
 31
0.0
  0
LINE
  5
1DF77
330
1F
100
AcDbEntity
  8
0
100
AcDbLine
 10
419.6613620276146
 20
228.923444709783
 30
0.0
 11
419.6613620276146
 21
229.356296856523
 31
0.0
  0
LINE
  5
1DF78
330
1F
100
AcDbEntity
  8
0
100
AcDbLine
 10
434.3407603383048
 20
225.175863808973
 30
0.0
 11
436.4905378637348
 21
226.417031033263
 31
0.0
  0
LINE
  5
1DF79
330
1F
100
AcDbEntity
  8
0
100
AcDbLine
 10
412.3429268092949
 20
212.475448531673
 30
0.0
 11
417.009812133875
 21
215.169859947513
 31
0.0
  0
LINE
  5
1DF7A
330
1F
100
AcDbEntity
  8
0
100
AcDbLine
 10
418.4593782390551
 20
216.006762332633
 30
0.0
 11
423.6565882040252
 21
219.007354992853
 31
0.0
  0
LINE
  5
1DF7B
330
1F
100
AcDbEntity
  8
0
100
AcDbLine
 10
417.3987224838151
 20
214.903810360233
 30
0.0
 11
418.4593782390551
 21
215.516176591683
 31
0.0
  0
LINE
  5
1DF7C
330
1F
100
AcDbEntity
  8
0
100
AcDbLine
 10
406.7567664601748
 20
208.442371811203
 30
0.0
 11
406.0067568578348
 21
208.009356150693
 31
0.0
  0
LINE
  5
1DF7D
330
1F
100
AcDbEntity
  8
0
100
AcDbLine
 10
410.5787059016249
 20
209.905989193843
 30
0.0
 11
409.8287027788248
 21
209.472962309073
 31
0.0
  0
LINE
  5
1DF7E
330
1F
100
AcDbEntity
  8
0
100
AcDbLine
 10
417.3987224838151
 20
217.027408696213
 30
0.0
 11
409.620515506605
 21
221.518056995823
 31
0.0
  0
LINE
  5
1DF7F
330
1F
100
AcDbEntity
  8
0
100
AcDbLine
 10
422.7014160617946
 20
214.047510000193
 30
0.0
 11
424.540500679275
 21
212.985738021633
 31
0.0
  0
LINE
  5
1DF80
330
1F
100
AcDbEntity
  8
0
100
AcDbLine
 10
410.6811712631154
 20
222.130423226003
 30
0.0
 11
418.4593782390551
 21
217.639774926393
 31
0.0
  0
LINE
  5
1DF81
330
1F
100
AcDbEntity
  8
0
100
AcDbLine
 10
421.6767151241551
 20
204.881935456093
 30
0.0
 11
421.6767151241551
 21
212.965309385833
 31
0.0
  0
LINE
  5
1DF82
330
1F
100
AcDbEntity
  8
0
100
AcDbLine
 10
410.5787059016249
 20
208.1739260057029
 30
0.0
 11
411.3287090244252
 21
208.6069528904729
 31
0.0
  0
LINE
  5
1DF83
330
1F
100
AcDbEntity
  8
0
100
AcDbLine
 10
407.1067614370948
 20
206.104102906343
 30
0.0
 11
407.8567645598949
 21
206.537129791113
 31
0.0
  0
LINE
  5
1DF84
330
1F
100
AcDbEntity
  8
0
100
AcDbLine
 10
423.4798449227644
 20
203.391845202853
 30
0.0
 11
423.4798449227644
 21
212.373371791453
 31
0.0
  0
LINE
  5
1DF85
330
1F
100
AcDbEntity
  8
0
100
AcDbLine
 10
422.7014160617946
 20
214.047510000193
 30
0.0
 11
421.6407603065552
 21
213.435143770013
 31
0.0
  0
LINE
  5
1DF86
330
1F
100
AcDbEntity
  8
0
100
AcDbLine
 10
438.6118670399151
 20
222.742801518643
 30
0.0
 11
436.462077791115
 21
221.501627526523
 31
0.0
  0
LINE
  5
1DF87
330
1F
100
AcDbEntity
  8
0
100
AcDbLine
 10
425.777917380205
 20
215.333125478233
 30
0.0
 11
423.1262879489052
 21
213.8022156508029
 31
0.0
  0
LINE
  5
1DF88
330
1F
100
AcDbEntity
  8
0
100
AcDbLine
 10
421.6767151241551
 20
212.965309385833
 30
0.0
 11
414.4642559842047
 21
208.801219015783
 31
0.0
  0
LINE
  5
1DF89
330
1F
100
AcDbEntity
  8
0
100
AcDbLine
 10
436.4905628878148
 20
221.109839733773
 30
0.0
 11
434.722803294055
 21
220.089229349293
 31
0.0
  0
LINE
  5
1DF8A
330
1F
100
AcDbEntity
  8
0
100
AcDbLine
 10
413.3681417032348
 20
222.5385758412429
 30
0.0
 11
413.6915196112147
 21
222.351877742453
 31
0.0
  0
LINE
  5
1DF8B
330
1F
100
AcDbEntity
  8
0
100
AcDbLine
 10
433.6621387072352
 20
212.454774938273
 30
0.0
 11
433.1670390649748
 21
212.7406143843729
 31
0.0
  0
LINE
  5
1DF8C
330
1F
100
AcDbEntity
  8
0
100
AcDbLine
 10
424.540500679275
 20
212.985738021633
 30
0.0
 11
424.540500679275
 21
204.004211434303
 31
0.0
  0
LINE
  5
1DF8D
330
1F
100
AcDbEntity
  8
0
100
AcDbLine
 10
425.777917380205
 20
207.249751548493
 30
0.0
 11
425.777917380205
 21
215.333125478233
 31
0.0
  0
LINE
  5
1DF8E
330
1F
100
AcDbEntity
  8
0
100
AcDbLine
 10
410.5787059016249
 20
205.831683371173
 30
0.0
 11
409.8287027788248
 21
205.398656485133
 31
0.0
  0
LINE
  5
1DF8F
330
1F
100
AcDbEntity
  8
0
100
AcDbLine
 10
423.4798449227644
 20
212.373371791453
 30
0.0
 11
424.540500679275
 21
212.985738021633
 31
0.0
  0
LINE
  5
1DF90
330
1F
100
AcDbEntity
  8
0
100
AcDbLine
 10
437.9047632026651
 20
220.293301321133
 30
0.0
 11
436.4905628878148
 21
219.476817263223
 31
0.0
  0
LINE
  5
1DF91
330
1F
100
AcDbEntity
  8
0
100
AcDbLine
 10
423.6565882040252
 20
219.007354992853
 30
0.0
 11
416.6562019254252
 21
223.048938462883
 31
0.0
  0
LINE
  5
1DF92
330
1F
100
AcDbEntity
  8
0
100
AcDbLine
 10
410.5787059016249
 20
204.099620183033
 30
0.0
 11
411.3287090244252
 21
204.532647067803
 31
0.0
  0
LINE
  5
1DF93
330
1F
100
AcDbEntity
  8
0
100
AcDbLine
 10
433.6621387072352
 20
216.782355598563
 30
0.0
 11
428.5709925509648
 21
213.842998541043
 31
0.0
  0
LINE
  5
1DF94
330
1F
100
AcDbEntity
  8
0
100
AcDbLine
 10
433.6621387072352
 20
215.965867291233
 30
0.0
 11
428.5709925509648
 21
213.026510232443
 31
0.0
  0
LINE
  5
1DF95
330
1F
100
AcDbEntity
  8
0
100
AcDbLine
 10
437.9047632026651
 20
212.128277150833
 30
0.0
 11
437.2683644500646
 21
212.495693829003
 31
0.0
  0
LINE
  5
1DF96
330
1F
100
AcDbEntity
  8
0
100
AcDbLine
 10
428.5709925509648
 20
210.087101531643
 30
0.0
 11
433.6621387072352
 21
213.026458589163
 31
0.0
  0
LINE
  5
1DF97
330
1F
100
AcDbEntity
  8
0
100
AcDbLine
 10
414.4642559842047
 20
200.717845087313
 30
0.0
 11
421.6767151241551
 21
204.881935456093
 31
0.0
  0
LINE
  5
1DF98
330
1F
100
AcDbEntity
  8
0
100
AcDbLine
 10
424.540500679275
 20
206.535332948123
 30
0.0
 11
425.777917380205
 21
207.249751548493
 31
0.0
  0
LINE
  5
1DF99
330
1F
100
AcDbEntity
  8
0
100
AcDbLine
 10
433.6621387072352
 20
211.230139161743
 30
0.0
 11
428.5709925509648
 21
208.2907821042229
 31
0.0
  0
LINE
  5
1DF9A
330
1F
100
AcDbEntity
  8
0
100
AcDbLine
 10
413.8429200932753
 20
199.344487262533
 30
0.0
 11
422.1665072903651
 21
204.150083884493
 31
0.0
  0
LINE
  5
1DF9B
330
1F
100
AcDbEntity
  8
0
100
AcDbLine
 10
424.540500679275
 20
205.520701425193
 30
0.0
 11
425.1565814892749
 21
205.876393723713
 31
0.0
  0
LINE
  5
1DF9C
330
1F
100
AcDbEntity
  8
0
100
AcDbLine
 10
436.4905502284551
 20
212.0466252605429
 30
0.0
 11
437.2683644500646
 21
212.495693829003
 31
0.0
  0
LINE
  5
1DF9D
330
1F
100
AcDbEntity
  8
0
100
AcDbLine
 10
433.6621387072352
 20
208.045806542613
 30
0.0
 11
433.6621387072352
 21
207.229300598793
 31
0.0
  0
LINE
  5
1DF9E
330
1F
100
AcDbEntity
  8
0
100
AcDbLine
 10
436.4905628878148
 20
211.3117930916529
 30
0.0
 11
437.9047632026651
 21
212.128277150833
 31
0.0
  0
LINE
  5
1DF9F
330
1F
100
AcDbEntity
  8
0
100
AcDbLine
 10
424.6465528166748
 20
204.106194166583
 30
0.0
 11
424.540500679275
 21
204.044965302503
 31
0.0
  0
LINE
  5
1DFA0
330
1F
100
AcDbEntity
  8
0
100
AcDbLine
 10
424.540500679275
 20
204.004211434303
 30
0.0
 11
423.4798449227644
 21
203.391845202853
 31
0.0
  0
LINE
  5
1DFA1
330
1F
100
AcDbEntity
  8
0
100
AcDbLine
 10
418.4593782390551
 20
200.493224166223
 30
0.0
 11
417.3987224838151
 21
199.8808579360429
 31
0.0
  0
LINE
  5
1DFA2
330
1F
100
AcDbEntity
  8
0
100
AcDbLine
 10
421.0755814775549
 20
229.437968006363
 30
0.0
 11
422.2422984722848
 21
228.764378874753
 31
0.0
  0
LINE
  5
1DFA3
330
1F
100
AcDbEntity
  8
0
100
AcDbLine
 10
420.5806087921145
 20
229.887049273553
 30
0.0
 11
422.3837355363746
 21
228.846037113773
 31
0.0
  0
LINE
  5
1DFA4
330
1F
100
AcDbEntity
  8
0
100
AcDbLine
 10
420.5806087921145
 20
231.111802899733
 30
0.0
 11
432.2479192560249
 21
224.375830449683
 31
0.0
  0
LINE
  5
1DFA5
330
1F
100
AcDbEntity
  8
0
100
AcDbLine
 10
434.722803294055
 20
220.089229349293
 30
0.0
 11
434.722803294055
 21
206.616939466393
 31
0.0
  0
LINE
  5
1DFA6
330
1F
100
AcDbEntity
  8
0
100
AcDbLine
 10
433.4421670872352
 20
207.535152830623
 30
0.0
 11
426.5097133029451
 21
203.532722663033
 31
0.0
  0
LINE
  5
1DFA7
330
1F
100
AcDbEntity
  8
0
100
AcDbLine
 10
436.4905628878148
 20
209.270537048443
 30
0.0
 11
438.6118670399151
 21
210.495265261923
 31
0.0
  0
LINE
  5
1DFA8
330
1F
100
AcDbEntity
  8
0
100
AcDbLine
 10
432.2479192560249
 20
206.412777273753
 30
0.0
 11
432.7428919427352
 21
206.698548180493
 31
0.0
  0
LINE
  5
1DFA9
330
1F
100
AcDbEntity
  8
0
100
AcDbLine
 10
436.4905628878148
 20
208.255905526783
 30
0.0
 11
437.9905311489849
 21
209.121907437143
 31
0.0
  0
LINE
  5
1DFAA
330
1F
100
AcDbEntity
  8
0
100
AcDbLine
 10
422.3483683846054
 20
232.1324132842129
 30
0.0
 11
434.0156788497846
 21
225.396440835433
 31
0.0
  0
LINE
  5
1DFAB
330
1F
100
AcDbEntity
  8
0
100
AcDbLine
 10
436.4905628878148
 20
221.109839733773
 30
0.0
 11
436.4905628878148
 21
207.6375498521429
 31
0.0
  0
LINE
  5
1DFAC
330
1F
100
AcDbEntity
  8
0
100
AcDbLine
 10
437.2683644500646
 20
212.495693829003
 30
0.0
 11
437.2683644500646
 21
219.925878524103
 31
0.0
  0
LINE
  5
1DFAD
330
1F
100
AcDbEntity
  8
0
100
AcDbLine
 10
434.722803294055
 20
206.616939466393
 30
0.0
 11
436.4905628878148
 21
207.6375498521429
 31
0.0
  0
LINE
  5
1DFAE
330
1F
100
AcDbEntity
  8
0
100
AcDbLine
 10
433.9979114215148
 20
205.014688671663
 30
0.0
 11
435.7656710152745
 21
206.035299056143
 31
0.0
  0
LINE
  5
1DFAF
330
1F
100
AcDbEntity
  8
0
100
AcDbLine
 10
437.9047632026651
 20
212.128277150833
 30
0.0
 11
437.9047632026651
 21
220.293301321133
 31
0.0
  0
LINE
  5
1DFB0
330
1F
100
AcDbEntity
  8
0
100
AcDbLine
 10
438.6118670399151
 20
210.495265261923
 30
0.0
 11
438.6118670399151
 21
222.742801518643
 31
0.0
  0
LINE
  5
1DFB1
330
1F
100
AcDbEntity
  8
0
100
AcDbLine
 10
436.4905378637348
 20
226.417031033263
 30
0.0
 11
425.8838919866446
 21
232.540642350913
 31
0.0
  0
SPLINE
  5
1DFB2
330
1F
100
AcDbEntity
  8
0
100
AcDbSpline
210
0.0
220
0.0
230
1.0
 70
     8
 71
     3
 72
    12
 73
     8
 74
     0
 42
0.0000000001
 43
0.0000000001
 40
0.0
 40
0.0
 40
0.0
 40
0.0
 40
0.1081609639
 40
0.218367807
 40
0.4513466771
 40
0.7104437698999999
 40
1.0
 40
1.0
 40
1.0
 40
1.0
 10
433.292885418565
 20
207.378930641163
 30
0.0
 10
433.3109201208753
 20
207.389342919043
 30
0.0
 10
433.3456019057146
 20
207.413536060903
 30
0.0
 10
433.4077860168049
 20
207.474732966703
 30
0.0
 10
433.4694101302853
 20
207.575153620573
 30
0.0
 10
433.5122547461446
 20
207.7207291612729
 30
0.0
 10
433.5207126400749
 20
207.826738803203
 30
0.0
 10
433.5207126400749
 20
207.882488184973
 30
0.0
  0
SPLINE
  5
1DFB3
330
1F
100
AcDbEntity
  8
0
100
AcDbSpline
210
0.0
220
0.0
230
1.0
 70
     8
 71
     3
 72
    15
 73
    11
 74
     0
 42
0.0000000001
 43
0.0000000001
 40
0.0
 40
0.0
 40
0.0
 40
0.0
 40
0.1485543831
 40
0.2895087694
 40
0.4227318309000001
 40
0.5486389132000004
 40
0.6679995667
 40
0.7819385785000002
 40
0.8919877043000001
 40
1.0
 40
1.0
 40
1.0
 40
1.0
 10
418.105724754085
 20
229.682887080913
 30
0.0
 10
418.105724754085
 20
229.774019504693
 30
0.0
 10
418.1130912150949
 20
229.951743187853
 30
0.0
 10
418.1480477720548
 20
230.209117769623
 30
0.0
 10
418.2065000452952
 20
230.4480145283029
 30
0.0
 10
418.2879453764347
 20
230.666087109683
 30
0.0
 10
418.3917463829553
 20
230.861263548133
 30
0.0
 10
418.5171308921548
 20
231.0315393988429
 30
0.0
 10
418.6629004063048
 20
231.175021974463
 30
0.0
 10
418.7732390273851
 20
231.251995848963
 30
0.0
 10
418.8306231709352
 20
231.285126408813
 30
0.0
  0
SPLINE
  5
1DFB4
330
1F
100
AcDbEntity
  8
0
100
AcDbSpline
210
0.0
220
0.0
230
1.0
 70
     8
 71
     3
 72
    14
 73
    10
 74
     0
 42
0.0000000001
 43
0.0000000001
 40
0.0
 40
0.0
 40
0.0
 40
0.0
 40
0.2892720641
 40
0.4225549793
 40
0.5484985218000002
 40
0.6678874416000001
 40
0.7818682906000002
 40
0.8919528611
 40
1.0
 40
1.0
 40
1.0
 40
1.0
 10
420.5806087921145
 20
229.887049273553
 30
0.0
 10
420.4928203265948
 20
229.937732822173
 30
0.0
 10
420.3580348951251
 20
230.0018839041829
 30
0.0
 10
420.1731942068951
 20
230.055774077073
 30
0.0
 10
420.0419967425948
 20
230.077788575843
 30
0.0
 10
419.9157621474649
 20
230.082154461193
 30
0.0
 10
419.7956733731651
 20
230.068786754883
 30
0.0
 10
419.6830293706153
 20
230.037614842373
 30
0.0
 10
419.6134049429349
 20
230.005026063253
 30
0.0
 10
419.5806148688149
 20
229.9860948133329
 30
0.0
  0
SPLINE
  5
1DFB5
330
1F
100
AcDbEntity
  8
0
100
AcDbSpline
210
0.0
220
0.0
230
1.0
 70
     8
 71
     3
 72
    15
 73
    11
 74
     0
 42
0.0000000001
 43
0.0000000001
 40
0.0
 40
0.0
 40
0.0
 40
0.0
 40
0.1141555516
 40
0.2373276756
 40
0.3669773296
 40
0.5000011
 40
0.6330247168000001
 40
0.7626739247
 40
0.885845342
 40
1.0
 40
1.0
 40
1.0
 40
1.0
 10
433.6621387072352
 20
220.7015904816929
 30
0.0
 10
433.6621387072352
 20
220.813382630473
 30
0.0
 10
433.6416623842051
 20
221.046013912733
 30
0.0
 10
433.560033934305
 20
221.396963461023
 30
0.0
 10
433.4292698676646
 20
221.7524472090329
 30
0.0
 10
433.2542570985649
 20
222.099097828913
 30
0.0
 10
433.0415539285954
 20
222.423987265493
 30
0.0
 10
432.799077281215
 20
222.714971885453
 30
0.0
 10
432.535960168385
 20
222.9611359371929
 30
0.0
 10
432.3447338884044
 20
223.095182135953
 30
0.0
 10
432.2479192560249
 20
223.151076824773
 30
0.0
  0
SPLINE
  5
1DFB6
330
1F
100
AcDbEntity
  8
0
100
AcDbSpline
210
0.0
220
0.0
230
1.0
 70
     8
 71
     3
 72
    15
 73
    11
 74
     0
 42
0.0000000001
 43
0.0000000001
 40
0.0
 40
0.0
 40
0.0
 40
0.0
 40
0.1080122931
 40
0.2180614156
 40
0.3320004251
 40
0.4513610751
 40
0.5772681553
 40
0.7104912205
 40
0.8514456154999997
 40
1.0
 40
1.0
 40
1.0
 40
1.0
 10
435.7656642817349
 20
206.035310413753
 30
0.0
 10
435.8230484367147
 20
206.068440964713
 30
0.0
 10
435.9333870806548
 20
206.145414831593
 30
0.0
 10
436.0791566329048
 20
206.2888973945129
 30
0.0
 10
436.2045411700451
 20
206.459173249033
 30
0.0
 10
436.308342210855
 20
206.6543496938329
 30
0.0
 10
436.3897875623147
 20
206.872422295533
 30
0.0
 10
436.4482398571444
 20
207.1113190846929
 30
0.0
 10
436.4831964204546
 20
207.368693705833
 30
0.0
 10
436.4905628878148
 20
207.546417415663
 30
0.0
 10
436.4905628878148
 20
207.6375498521429
 30
0.0
  0
SPLINE
  5
1DFB7
330
1F
100
AcDbEntity
  8
0
100
AcDbSpline
210
0.0
220
0.0
230
1.0
 70
     8
 71
     3
 72
    15
 73
    11
 74
     0
 42
0.0000000001
 43
0.0000000001
 40
0.0
 40
0.0
 40
0.0
 40
0.0
 40
0.1080128005
 40
0.2180623534
 40
0.3320016528
 40
0.4513624097000001
 40
0.5772694025
 40
0.7104921973999999
 40
0.8514461633999999
 40
1.0
 40
1.0
 40
1.0
 40
1.0
 10
433.9979048772049
 20
205.014700138493
 30
0.0
 10
433.9405219985747
 20
204.981570308893
 30
0.0
 10
433.8186939376845
 20
204.9245028855629
 30
0.0
 10
433.6215542316349
 20
204.870005236113
 30
0.0
 10
433.4114039877245
 20
204.8465568552729
 30
0.0
 10
433.1904814234748
 20
204.8542492846429
 30
0.0
 10
432.9609083824951
 20
204.892749117473
 30
0.0
 10
432.7247977790253
 20
204.961572377083
 30
0.0
 10
432.4844328089048
 20
205.059981296343
 30
0.0
 10
432.3268402970652
 20
205.142459594683
 30
0.0
 10
432.2479192560249
 20
205.188023647573
 30
0.0
  0
SPLINE
  5
1DFB8
330
1F
100
AcDbEntity
  8
0
100
AcDbSpline
210
0.0
220
0.0
230
1.0
 70
     8
 71
     3
 72
    15
 73
    11
 74
     0
 42
0.0000000001
 43
0.0000000001
 40
0.0
 40
0.0
 40
0.0
 40
0.0
 40
0.1485538352
 40
0.2895077924
 40
0.4227305838000003
 40
0.5486375787
 40
0.6679983390000001
 40
0.7819376408
 40
0.8919871968
 40
1.0
 40
1.0
 40
1.0
 40
1.0
 10
422.3483683846054
 20
232.1324132842129
 30
0.0
 10
422.2694473537249
 20
232.177977332023
 30
0.0
 10
422.111854868555
 20
232.2604556214729
 30
0.0
 10
421.8714899352646
 20
232.358864526763
 30
0.0
 10
421.6353793698948
 20
232.427687790183
 30
0.0
 10
421.4058063568548
 20
232.4661876293629
 30
0.0
 10
421.184883815465
 20
232.473880086673
 30
0.0
 10
420.9747335880646
 20
232.450431726153
 30
0.0
 10
420.7775938909048
 20
232.395934117343
 30
0.0
 10
420.6557658325553
 20
232.338866716873
 30
0.0
 10
420.5983829526549
 20
232.3057369025129
 30
0.0
  0
SPLINE
  5
1DFB9
330
1F
100
AcDbEntity
  8
0
100
AcDbSpline
210
0.0
220
0.0
230
1.0
 70
     8
 71
     3
 72
    14
 73
    10
 74
     0
 42
0.0000000001
 43
0.0000000001
 40
0.0
 40
0.0
 40
0.0
 40
0.0
 40
0.1080466347
 40
0.2181307808
 40
0.3321113471
 40
0.4515001697
 40
0.5774438018
 40
0.7107269769000001
 40
1.0
 40
1.0
 40
1.0
 40
1.0
 10
433.2479131793247
 20
206.313731733973
 30
0.0
 10
433.2807039722653
 20
206.332663397913
 30
0.0
 10
433.3437404413148
 20
206.376666349023
 30
0.0
 10
433.427059982575
 20
206.458634902383
 30
0.0
 10
433.4986825355453
 20
206.555953606653
 30
0.0
 10
433.5580197409749
 20
206.667462145383
 30
0.0
 10
433.604553704295
 20
206.7920934760029
 30
0.0
 10
433.6503035327845
 20
206.979121100423
 30
0.0
 10
433.6621387072352
 20
207.127928755563
 30
0.0
 10
433.6621387072352
 20
207.229300598793
 30
0.0
  0
SPLINE
  5
1DFBA
330
1F
100
AcDbEntity
  8
0
100
AcDbSpline
210
0.0
220
0.0
230
1.0
 70
     8
 71
     3
 72
    15
 73
    11
 74
     0
 42
0.0000000001
 43
0.0000000001
 40
0.0
 40
0.0
 40
0.0
 40
0.0
 40
0.1141586713
 40
0.2373262256
 40
0.3669776069
 40
0.5000010721
 40
0.6330243883
 40
0.7626753341
 40
0.8858422026999999
 40
1.0
 40
1.0
 40
1.0
 40
1.0
 10
436.4905628878148
 20
221.109839733773
 30
0.0
 10
436.4905628878148
 20
221.305481284323
 30
0.0
 10
436.4547337964052
 20
221.712584250913
 30
0.0
 10
436.3118710506348
 20
222.326743092443
 30
0.0
 10
436.0830434653652
 20
222.948836953663
 30
0.0
 10
435.7767646570446
 20
223.555474307823
 30
0.0
 10
435.4045384215647
 20
224.1240358338929
 30
0.0
 10
434.9802018419953
 20
224.633249383663
 30
0.0
 10
434.5197558058147
 20
225.064046335123
 30
0.0
 10
434.1851090633745
 20
225.298622468713
 30
0.0
 10
434.0156788497846
 20
225.396440835433
 30
0.0
  0
SPLINE
  5
1DFBB
330
1F
100
AcDbEntity
  8
0
100
AcDbSpline
210
0.0
220
0.0
230
1.0
 70
     8
 71
     3
 72
     9
 73
     5
 74
     0
 42
0.0000000001
 43
0.0000000001
 40
0.0
 40
0.0
 40
0.0
 40
0.0
 40
0.2420641317
 40
1.0
 40
1.0
 40
1.0
 40
1.0
 10
433.5207126400749
 20
221.354778067873
 30
0.0
 10
433.5207126400749
 20
221.368403867393
 30
0.0
 10
433.5195930436348
 20
221.424691500563
 30
0.0
 10
433.5142029401152
 20
221.4808679795229
 30
0.0
 10
433.5081011425652
 20
221.5230936278629
 30
0.0
  0
SPLINE
  5
1DFBC
330
1F
100
AcDbEntity
  8
0
100
AcDbSpline
210
0.0
220
0.0
230
1.0
 70
     8
 71
     3
 72
     9
 73
     5
 74
     0
 42
0.0000000001
 43
0.0000000001
 40
0.0
 40
0.0
 40
0.0
 40
0.0
 40
0.2578131777
 40
1.0
 40
1.0
 40
1.0
 40
1.0
 10
432.8823601461447
 20
222.606911003023
 30
0.0
 10
432.8709586652649
 20
222.615890376733
 30
0.0
 10
432.8261676778851
 20
222.649987056063
 30
0.0
 10
432.7790740623948
 20
222.681106272463
 30
0.0
 10
432.7428919427352
 20
222.701995556313
 30
0.0
  0
SPLINE
  5
1DFBD
330
1F
100
AcDbEntity
  8
0
100
AcDbSpline
210
0.0
220
0.0
230
1.0
 70
     8
 71
     3
 72
    12
 73
     8
 74
     0
 42
0.0000000001
 43
0.0000000001
 40
0.0
 40
0.0
 40
0.0
 40
0.0
 40
0.2895552416
 40
0.5486519838000003
 40
0.7816312597000003
 40
0.8918385314
 40
1.0
 40
1.0
 40
1.0
 40
1.0
 10
421.0755814775549
 20
229.437968006363
 30
0.0
 10
421.0273022840445
 20
229.465841380893
 30
0.0
 10
420.9312686775351
 20
229.511519197843
 30
0.0
 10
420.7837781127246
 20
229.547200227573
 30
0.0
 10
420.6660023614849
 20
229.544041991573
 30
0.0
 10
420.5819142606751
 20
229.520787965183
 30
0.0
 10
420.5436223039848
 20
229.502849767633
 30
0.0
 10
420.5255880017245
 20
229.4924377221629
 30
0.0
  0
SPLINE
  5
1DFBE
330
1F
100
AcDbEntity
  8
0
100
AcDbSpline
210
0.0
220
0.0
230
1.0
 70
     8
 71
     3
 72
    11
 73
     7
 74
     0
 42
0.0000000001
 43
0.0000000001
 40
0.0
 40
0.0
 40
0.0
 40
0.0
 40
0.222967285
 40
0.4625702390999999
 40
0.7214329560000002
 40
1.0
 40
1.0
 40
1.0
 40
1.0
 10
433.4630793301449
 20
206.510374417903
 30
0.0
 10
433.4072212312951
 20
206.5044636689929
 30
0.0
 10
433.2898184485753
 20
206.504531215213
 30
0.0
 10
433.1102825770146
 20
206.537474337033
 30
0.0
 10
432.9248484762053
 20
206.602205562663
 30
0.0
 10
432.8036670561353
 20
206.663460446503
 30
0.0
 10
432.7428919427352
 20
206.698548180493
 30
0.0
  0
SPLINE
  5
1DFBF
330
1F
100
AcDbEntity
  8
0
100
AcDbSpline
210
0.0
220
0.0
230
1.0
 70
     8
 71
     3
 72
    14
 73
    10
 74
     0
 42
0.0000000001
 43
0.0000000001
 40
0.0
 40
0.0
 40
0.0
 40
0.0
 40
0.1080466347
 40
0.2181307808
 40
0.3321113471
 40
0.4515001697
 40
0.5774438018
 40
0.7107269769000001
 40
1.0
 40
1.0
 40
1.0
 40
1.0
 10
419.5806148688149
 20
229.9860948133329
 30
0.0
 10
419.5478240758751
 20
229.967163149393
 30
0.0
 10
419.4847876080951
 20
229.923160198283
 30
0.0
 10
419.4014680668351
 20
229.841191644923
 30
0.0
 10
419.3298455125948
 20
229.7438729406529
 30
0.0
 10
419.2705083071651
 20
229.632364401923
 30
0.0
 10
419.2239743451148
 20
229.507733071303
 30
0.0
 10
419.1782245166248
 20
229.320705448153
 30
0.0
 10
419.1663893409047
 20
229.171897791743
 30
0.0
 10
419.1663893409047
 20
229.070525948513
 30
0.0
  0
SPLINE
  5
1DFC0
330
1F
100
AcDbEntity
  8
0
100
AcDbSpline
210
0.0
220
0.0
230
1.0
 70
     8
 71
     3
 72
     9
 73
     5
 74
     0
 42
0.0000000001
 43
0.0000000001
 40
0.0
 40
0.0
 40
0.0
 40
0.0
 40
0.5126664797
 40
1.0
 40
1.0
 40
1.0
 40
1.0
 10
433.0830497473048
 20
207.327456088283
 30
0.0
 10
433.1203114063348
 20
207.326871089453
 30
0.0
 10
433.1935443993153
 20
207.3340710572729
 30
0.0
 10
433.2622066203851
 20
207.361218335973
 30
0.0
 10
433.292885418565
 20
207.378930641163
 30
0.0
  0
SPLINE
  5
1DFC1
330
1F
100
AcDbEntity
  8
0
100
AcDbSpline
210
0.0
220
0.0
230
1.0
 70
     8
 71
     3
 72
    14
 73
    10
 74
     0
 42
0.0000000001
 43
0.0000000001
 40
0.0
 40
0.0
 40
0.0
 40
0.0
 40
0.2892720641
 40
0.4225549793
 40
0.5484985218000002
 40
0.6678874416000001
 40
0.7818682906000002
 40
0.8919528611
 40
1.0
 40
1.0
 40
1.0
 40
1.0
 10
432.2479192560249
 20
206.412777273753
 30
0.0
 10
432.3357077228147
 20
206.362093725133
 30
0.0
 10
432.4704931530146
 20
206.297942643123
 30
0.0
 10
432.6553338412447
 20
206.244052470233
 30
0.0
 10
432.7865313055452
 20
206.222037971463
 30
0.0
 10
432.9127659006749
 20
206.217672086113
 30
0.0
 10
433.0328546749752
 20
206.231039792423
 30
0.0
 10
433.1454986775248
 20
206.262211704933
 30
0.0
 10
433.215123105205
 20
206.294800485323
 30
0.0
 10
433.2479131793247
 20
206.313731733973
 30
0.0
  0
SPLINE
  5
1DFC2
330
1F
100
AcDbEntity
  8
0
100
AcDbSpline
210
0.0
220
0.0
230
1.0
 70
     8
 71
     3
 72
     9
 73
     5
 74
     0
 42
0.0000000001
 43
0.0000000001
 40
0.0
 40
0.0
 40
0.0
 40
0.0
 40
0.4873340683
 40
1.0
 40
1.0
 40
1.0
 40
1.0
 10
420.5255880017245
 20
229.4924377221629
 30
0.0
 10
420.4949099464943
 20
229.474725844963
 30
0.0
 10
420.4370696913348
 20
229.428837977633
 30
0.0
 10
420.3942180549145
 20
229.369018508753
 30
0.0
 10
420.3760937820452
 20
229.336457630263
 30
0.0
  0
SPLINE
  5
1DFC3
330
1F
100
AcDbEntity
  8
0
100
AcDbSpline
210
0.0
220
0.0
230
1.0
 70
     8
 71
     3
 72
    11
 73
     7
 74
     0
 42
0.0000000001
 43
0.0000000001
 40
0.0
 40
0.0
 40
0.0
 40
0.0
 40
0.2785677583
 40
0.5374307745
 40
0.7770334825000002
 40
1.0
 40
1.0
 40
1.0
 40
1.0
 10
419.6613620276146
 20
229.356296856523
 30
0.0
 10
419.6613620276146
 20
229.426476007503
 30
0.0
 10
419.6689034590652
 20
229.562054434593
 30
0.0
 10
419.705561375335
 20
229.755017534823
 30
0.0
 10
419.7668007715253
 20
229.926977568093
 30
0.0
 10
419.8254453138749
 20
230.028688393373
 30
0.0
 10
419.8584942432048
 20
230.074108857523
 30
0.0
  0
SPLINE
  5
1DFC4
330
1F
100
AcDbEntity
  8
0
100
AcDbSpline
210
0.0
220
0.0
230
1.0
 70
     8
 71
     3
 72
    15
 73
    11
 74
     0
 42
0.0000000001
 43
0.0000000001
 40
0.0
 40
0.0
 40
0.0
 40
0.0
 40
0.1141577899
 40
0.2373246518
 40
0.3669755934
 40
0.4999989082
 40
0.6330223748
 40
0.7626737603000004
 40
0.8858413212999998
 40
1.0
 40
1.0
 40
1.0
 40
1.0
 10
432.2479192560249
 20
224.375830449683
 30
0.0
 10
432.4173494594552
 20
224.2780120893129
 30
0.0
 10
432.7519961828452
 20
224.043435973503
 30
0.0
 10
433.2124421999749
 20
223.612639048713
 30
0.0
 10
433.636778774465
 20
223.1034255205329
 30
0.0
 10
434.0090050162952
 20
222.534864007163
 30
0.0
 10
434.3152838373146
 20
221.928226651733
 30
0.0
 10
434.5441114390951
 20
221.306132774003
 30
0.0
 10
434.6869741988353
 20
220.691973903263
 30
0.0
 10
434.722803294055
 20
220.284870912543
 30
0.0
 10
434.722803294055
 20
220.089229349293
 30
0.0
  0
SPLINE
  5
1DFC5
330
1F
100
AcDbEntity
  8
0
100
AcDbSpline
210
0.0
220
0.0
230
1.0
 70
     8
 71
     3
 72
    15
 73
    11
 74
     0
 42
0.0000000001
 43
0.0000000001
 40
0.0
 40
0.0
 40
0.0
 40
0.0
 40
0.1080128005
 40
0.2180623534
 40
0.3320016528
 40
0.4513624097000001
 40
0.5772694025
 40
0.7104921973999999
 40
0.8514461633999999
 40
1.0
 40
1.0
 40
1.0
 40
1.0
 10
418.8306231709352
 20
231.285126408813
 30
0.0
 10
418.8880060495653
 20
231.318256238413
 30
0.0
 10
419.0098341104553
 20
231.375323661743
 30
0.0
 10
419.206973816505
 20
231.429821311193
 30
0.0
 10
419.4171240616851
 20
231.453269692033
 30
0.0
 10
419.6380466246647
 20
231.4455772626629
 30
0.0
 10
419.867619665645
 20
231.4070774298329
 30
0.0
 10
420.1037302691147
 20
231.338254170223
 30
0.0
 10
420.344095239235
 20
231.239845252233
 30
0.0
 10
420.5016877510748
 20
231.157366952623
 30
0.0
 10
420.5806087921145
 20
231.111802899733
 30
0.0
  0
SPLINE
  5
1DFC6
330
1F
100
AcDbEntity
  8
0
100
AcDbSpline
210
0.0
220
0.0
230
1.0
 70
     8
 71
     3
 72
    15
 73
    11
 74
     0
 42
0.0000000001
 43
0.0000000001
 40
0.0
 40
0.0
 40
0.0
 40
0.0
 40
0.1485543831
 40
0.2895087694
 40
0.4227318309000001
 40
0.5486389132000004
 40
0.6679995667
 40
0.7819385785000002
 40
0.8919877043000001
 40
1.0
 40
1.0
 40
1.0
 40
1.0
 10
434.722803294055
 20
206.616939466393
 30
0.0
 10
434.722803294055
 20
206.525807042613
 30
0.0
 10
434.7154368330449
 20
206.348083359453
 30
0.0
 10
434.6804802760849
 20
206.090708777683
 30
0.0
 10
434.6220280028453
 20
205.851812019003
 30
0.0
 10
434.5405826729748
 20
205.633739438893
 30
0.0
 10
434.4367816664551
 20
205.438562999173
 30
0.0
 10
434.3113971559851
 20
205.268287148463
 30
0.0
 10
434.1656276418349
 20
205.124804572843
 30
0.0
 10
434.0552890207548
 20
205.047830698343
 30
0.0
 10
433.9979048772049
 20
205.014700138493
 30
0.0
  0
SPLINE
  5
1DFC7
330
1F
100
AcDbEntity
  8
0
100
AcDbSpline
210
0.0
220
0.0
230
1.0
 70
     8
 71
     3
 72
    22
 73
    18
 74
     0
 42
0.0000000001
 43
0.0000000001
 40
0.0
 40
0.0
 40
0.0
 40
0.0
 40
0.0428185247
 40
0.0874067146
 40
0.1351965937
 40
0.1871114788
 40
0.2435659813
 40
0.3045314255
 40
0.3696363265
 40
0.4382537317000001
 40
0.5095607422000003
 40
0.5826052818000002
 40
0.7296237191000003
 40
0.8016216151
 40
0.8712288464
 40
0.9376188208
 40
1.0
 40
1.0
 40
1.0
 40
1.0
 10
413.4989660910647
 20
199.9402036530129
 30
0.0
 10
413.5507383840145
 20
199.9700930585629
 30
0.0
 10
413.6488869380348
 20
200.0452009258729
 30
0.0
 10
413.7669980556354
 20
200.194545453193
 30
0.0
 10
413.8552416764547
 20
200.377193408953
 30
0.0
 10
413.9124084112451
 20
200.588669234413
 30
0.0
 10
413.937847285945
 20
200.824532511733
 30
0.0
 10
413.9313407343153
 20
201.079922855663
 30
0.0
 10
413.8931893539247
 20
201.3495809091829
 30
0.0
 10
413.8242019607848
 20
201.627855054183
 30
0.0
 10
413.7258695806154
 20
201.908916539303
 30
0.0
 10
413.5581790574751
 20
202.279944166563
 30
0.0
 10
413.3433804954552
 20
202.629344347873
 30
0.0
 10
413.0895254189652
 20
202.942803693013
 30
0.0
 10
412.886589893925
 20
203.151174625013
 30
0.0
 10
412.6743005737753
 20
203.329765584823
 30
0.0
 10
412.5244185354651
 20
203.429965138043
 30
0.0
 10
412.4489932672153
 20
203.473510950113
 30
0.0
  0
SPLINE
  5
1DFC8
330
1F
100
AcDbEntity
  8
0
100
AcDbSpline
210
0.0
220
0.0
230
1.0
 70
     8
 71
     3
 72
    15
 73
    11
 74
     0
 42
0.0000000001
 43
0.0000000001
 40
0.0
 40
0.0
 40
0.0
 40
0.0
 40
0.1141555516
 40
0.2373276756
 40
0.3669773296
 40
0.5000011
 40
0.6330247168000001
 40
0.7626739247
 40
0.885845342
 40
1.0
 40
1.0
 40
1.0
 40
1.0
 10
438.6118670399151
 20
222.742801518643
 30
0.0
 10
438.6118670399151
 20
222.910489743083
 30
0.0
 10
438.5811525547349
 20
223.259436665203
 30
0.0
 10
438.4587098811548
 20
223.785860988273
 30
0.0
 10
438.2625637811951
 20
224.319086609653
 30
0.0
 10
438.0000446262751
 20
224.839062539473
 30
0.0
 10
437.6809898719548
 20
225.326396694343
 30
0.0
 10
437.317274900885
 20
225.762873624283
 30
0.0
 10
436.9225992322752
 20
226.132119703163
 30
0.0
 10
436.6357598110353
 20
226.333189000033
 30
0.0
 10
436.4905378637348
 20
226.417031033263
 30
0.0
  0
SPLINE
  5
1DFC9
330
1F
100
AcDbEntity
  8
0
100
AcDbSpline
210
0.0
220
0.0
230
1.0
 70
     8
 71
     3
 72
    14
 73
    10
 74
     0
 42
0.0000000001
 43
0.0000000001
 40
0.0
 40
0.0
 40
0.0
 40
0.0
 40
0.2892719185
 40
0.422552722
 40
0.5484967918
 40
0.6678875012
 40
0.7818686942000001
 40
0.8919534537999997
 40
1.0
 40
1.0
 40
1.0
 40
1.0
 10
425.8838919866446
 20
232.540642350913
 30
0.0
 10
425.7522159266548
 20
232.616663839713
 30
0.0
 10
425.5500498082549
 20
232.712886433653
 30
0.0
 10
425.2728045804251
 20
232.793721218643
 30
0.0
 10
425.0760189529152
 20
232.826745088333
 30
0.0
 10
424.8866755050848
 20
232.833303237523
 30
0.0
 10
424.7065493108553
 20
232.813259475223
 30
0.0
 10
424.5375892461844
 20
232.766514804933
 30
0.0
 10
424.4331533907952
 20
232.717643477733
 30
0.0
 10
424.383969807425
 20
232.689250249023
 30
0.0
  0
SPLINE
  5
1DFCA
330
1F
100
AcDbEntity
  8
0
100
AcDbSpline
210
0.0
220
0.0
230
1.0
 70
     8
 71
     3
 72
    22
 73
    18
 74
     0
 42
0.0000000001
 43
0.0000000001
 40
0.0
 40
0.0
 40
0.0
 40
0.0
 40
0.0428185247
 40
0.0874067146
 40
0.1351965937
 40
0.1871114788
 40
0.2435659813
 40
0.3045314255
 40
0.3696363265
 40
0.4382537317000001
 40
0.5095607422000003
 40
0.5826052818000002
 40
0.7296237191000003
 40
0.8016216151
 40
0.8712288464
 40
0.9376188208
 40
1.0
 40
1.0
 40
1.0
 40
1.0
 10
413.4989660910647
 20
208.268528308243
 30
0.0
 10
413.5507383840145
 20
208.298417712523
 30
0.0
 10
413.6488869380348
 20
208.373525579833
 30
0.0
 10
413.7669980556354
 20
208.522870108423
 30
0.0
 10
413.8552416764547
 20
208.705518064183
 30
0.0
 10
413.9124084112451
 20
208.916993889643
 30
0.0
 10
413.937847285945
 20
209.152857166963
 30
0.0
 10
413.9313407343153
 20
209.408247509623
 30
0.0
 10
413.8931893539247
 20
209.677905563143
 30
0.0
 10
413.8242019607848
 20
209.956179708143
 30
0.0
 10
413.7258695806154
 20
210.237241194533
 30
0.0
 10
413.5581790574751
 20
210.6082688205229
 30
0.0
 10
413.3433804954552
 20
210.957669001833
 30
0.0
 10
413.0895254189652
 20
211.2711283482429
 30
0.0
 10
412.886589893925
 20
211.479499278973
 30
0.0
 10
412.6743005737753
 20
211.658090240053
 30
0.0
 10
412.5244185354651
 20
211.7582897920029
 30
0.0
 10
412.4489932672153
 20
211.801835605343
 30
0.0
  0
SPLINE
  5
1DFCB
330
1F
100
AcDbEntity
  8
0
100
AcDbSpline
210
0.0
220
0.0
230
1.0
 70
     8
 71
     3
 72
    13
 73
     9
 74
     0
 42
0.0000000001
 43
0.0000000001
 40
0.0
 40
0.0
 40
0.0
 40
0.0
 40
0.2893776732
 40
0.5483149921
 40
0.6677431635000001
 40
0.781766851
 40
0.8919057343
 40
1.0
 40
1.0
 40
1.0
 40
1.0
 10
413.3681417032348
 20
224.579831884453
 30
0.0
 10
413.3681417032348
 20
224.686262522493
 30
0.0
 10
413.3841865543048
 20
224.888532133193
 30
0.0
 10
413.454452616465
 20
225.126483181293
 30
0.0
 10
413.5397628636749
 20
225.286855273553
 30
0.0
 10
413.6150029443351
 20
225.389005582333
 30
0.0
 10
413.702442783425
 20
225.475115501553
 30
0.0
 10
413.7686546944348
 20
225.521291028963
 30
0.0
 10
413.8030845811247
 20
225.541169013083
 30
0.0
  0
SPLINE
  5
1DFCC
330
1F
100
AcDbEntity
  8
0
100
AcDbSpline
210
0.0
220
0.0
230
1.0
 70
     8
 71
     3
 72
    14
 73
    10
 74
     0
 42
0.0000000001
 43
0.0000000001
 40
0.0
 40
0.0
 40
0.0
 40
0.0
 40
0.2892730351
 40
0.4225562198000001
 40
0.5484998505
 40
0.6678886668999999
 40
0.7818692291
 40
0.8919533701999997
 40
1.0
 40
1.0
 40
1.0
 40
1.0
 10
403.2212113545151
 20
215.2922470128729
 30
0.0
 10
403.2212113545151
 20
215.444304801213
 30
0.0
 10
403.2389641257148
 20
215.667516322023
 30
0.0
 10
403.307588889405
 20
215.948057796753
 30
0.0
 10
403.3773898547049
 20
216.135004810463
 30
0.0
 10
403.4663956914251
 20
216.302267620463
 30
0.0
 10
403.5738295456448
 20
216.448245674963
 30
0.0
 10
403.6988088829351
 20
216.571198498653
 30
0.0
 10
403.7933636074654
 20
216.637202906903
 30
0.0
 10
403.8425498006851
 20
216.665600400273
 30
0.0
  0
SPLINE
  5
1DFCD
330
1F
100
AcDbEntity
  8
0
100
AcDbSpline
210
0.0
220
0.0
230
1.0
 70
     8
 71
     3
 72
    15
 73
    11
 74
     0
 42
0.0000000001
 43
0.0000000001
 40
0.0
 40
0.0
 40
0.0
 40
0.0
 40
0.1141546703
 40
0.2373261017
 40
0.3669753162
 40
0.4999989361
 40
0.6330227034
 40
0.7626723508
 40
0.8858444606999999
 40
1.0
 40
1.0
 40
1.0
 40
1.0
 10
405.3425405294249
 20
203.534643568513
 30
0.0
 10
405.1973185668851
 20
203.618485610633
 30
0.0
 10
404.9104791177048
 20
203.8195549367129
 30
0.0
 10
404.5158034186151
 20
204.188801052423
 30
0.0
 10
404.1520884386548
 20
204.6252780217329
 30
0.0
 10
403.8330336919552
 20
205.112612193113
 30
0.0
 10
403.5705145548153
 20
205.632588121663
 30
0.0
 10
403.3743684853346
 20
206.165813716373
 30
0.0
 10
403.2519258282648
 20
206.692237992453
 30
0.0
 10
403.2212113545151
 20
207.041184876473
 30
0.0
 10
403.2212113545151
 20
207.208873083133
 30
0.0
  0
SPLINE
  5
1DFCE
330
1F
100
AcDbEntity
  8
0
100
AcDbSpline
210
0.0
220
0.0
230
1.0
 70
     8
 71
     3
 72
    13
 73
     9
 74
     0
 42
0.0000000001
 43
0.0000000001
 40
0.0
 40
0.0
 40
0.0
 40
0.0
 40
0.2893733859
 40
0.5483099552000003
 40
0.6677402976
 40
0.7817659674000002
 40
0.8919058054
 40
1.0
 40
1.0
 40
1.0
 40
1.0
 10
408.8427336699949
 20
209.7197011259829
 30
0.0
 10
408.7505666470652
 20
209.7729125778529
 30
0.0
 10
408.5673828922748
 20
209.860147832643
 30
0.0
 10
408.3261891950846
 20
209.9182683120329
 30
0.0
 10
408.1446541187352
 20
209.924575533353
 30
0.0
 10
408.018572303335
 20
209.910493946073
 30
0.0
 10
407.900282294805
 20
209.877826414253
 30
0.0
 10
407.8271896355553
 20
209.843574850803
 30
0.0
 10
407.7927608461449
 20
209.823698271303
 30
0.0
  0
SPLINE
  5
1DFCF
330
1F
100
AcDbEntity
  8
0
100
AcDbSpline
210
0.0
220
0.0
230
1.0
 70
     8
 71
     3
 72
    13
 73
     9
 74
     0
 42
0.0000000001
 43
0.0000000001
 40
0.0
 40
0.0
 40
0.0
 40
0.0
 40
0.2893733859
 40
0.5483099552000003
 40
0.6677402976
 40
0.7817659674000002
 40
0.8919058054
 40
1.0
 40
1.0
 40
1.0
 40
1.0
 10
408.8427336699949
 20
213.883863452963
 30
0.0
 10
408.7505666470652
 20
213.937074904833
 30
0.0
 10
408.5673828922748
 20
214.024310159623
 30
0.0
 10
408.3261891950846
 20
214.082430639013
 30
0.0
 10
408.1446541187352
 20
214.088737861603
 30
0.0
 10
408.018572303335
 20
214.074656273053
 30
0.0
 10
407.900282294805
 20
214.041988742503
 30
0.0
 10
407.8271896355553
 20
214.007737177783
 30
0.0
 10
407.7927608461449
 20
213.987860598283
 30
0.0
  0
SPLINE
  5
1DFD0
330
1F
100
AcDbEntity
  8
0
100
AcDbSpline
210
0.0
220
0.0
230
1.0
 70
     8
 71
     3
 72
    13
 73
     9
 74
     0
 42
0.0000000001
 43
0.0000000001
 40
0.0
 40
0.0
 40
0.0
 40
0.0
 40
0.2893733859
 40
0.5483099552000003
 40
0.6677402976
 40
0.7817659674000002
 40
0.8919058054
 40
1.0
 40
1.0
 40
1.0
 40
1.0
 10
412.4489932672153
 20
211.801835605343
 30
0.0
 10
412.3568262455551
 20
211.855047057213
 30
0.0
 10
412.1736424907648
 20
211.942282312003
 30
0.0
 10
411.9324487935749
 20
212.000402791393
 30
0.0
 10
411.7509137172253
 20
212.006710012713
 30
0.0
 10
411.624831901825
 20
211.992628425433
 30
0.0
 10
411.506541893295
 20
211.959960893613
 30
0.0
 10
411.4334492340454
 20
211.925709328893
 30
0.0
 10
411.3990204446348
 20
211.905832750663
 30
0.0
  0
SPLINE
  5
1DFD1
330
1F
100
AcDbEntity
  8
0
100
AcDbSpline
210
0.0
220
0.0
230
1.0
 70
     8
 71
     3
 72
    13
 73
     9
 74
     0
 42
0.0000000001
 43
0.0000000001
 40
0.0
 40
0.0
 40
0.0
 40
0.0
 40
0.2893733859
 40
0.5483099552000003
 40
0.6677402976
 40
0.7817659674000002
 40
0.8919058054
 40
1.0
 40
1.0
 40
1.0
 40
1.0
 10
412.4489932672153
 20
207.6376732783629
 30
0.0
 10
412.3568262455551
 20
207.6908847289629
 30
0.0
 10
412.1736424907648
 20
207.778119985023
 30
0.0
 10
411.9324487935749
 20
207.8362404631429
 30
0.0
 10
411.7509137172253
 20
207.842547685733
 30
0.0
 10
411.624831901825
 20
207.828466097183
 30
0.0
 10
411.506541893295
 20
207.7957985666329
 30
0.0
 10
411.4334492340454
 20
207.761547001913
 30
0.0
 10
411.3990204446348
 20
207.741670423683
 30
0.0
  0
SPLINE
  5
1DFD2
330
1F
100
AcDbEntity
  8
0
100
AcDbSpline
210
0.0
220
0.0
230
1.0
 70
     8
 71
     3
 72
    13
 73
     9
 74
     0
 42
0.0000000001
 43
0.0000000001
 40
0.0
 40
0.0
 40
0.0
 40
0.0
 40
0.2893733859
 40
0.5483099552000003
 40
0.6677402976
 40
0.7817659674000002
 40
0.8919058054
 40
1.0
 40
1.0
 40
1.0
 40
1.0
 10
412.4489932672153
 20
203.473510950113
 30
0.0
 10
412.3568262455551
 20
203.5267224019829
 30
0.0
 10
412.1736424907648
 20
203.6139576567729
 30
0.0
 10
411.9324487935749
 20
203.672078136163
 30
0.0
 10
411.7509137172253
 20
203.678385358753
 30
0.0
 10
411.624831901825
 20
203.664303770203
 30
0.0
 10
411.506541893295
 20
203.631636239653
 30
0.0
 10
411.4334492340454
 20
203.597384674933
 30
0.0
 10
411.3990204446348
 20
203.577508095433
 30
0.0
  0
SPLINE
  5
1DFD3
330
1F
100
AcDbEntity
  8
0
100
AcDbSpline
210
0.0
220
0.0
230
1.0
 70
     8
 71
     3
 72
    13
 73
     9
 74
     0
 42
0.0000000001
 43
0.0000000001
 40
0.0
 40
0.0
 40
0.0
 40
0.0
 40
0.2893733859
 40
0.5483099552000003
 40
0.6677402976
 40
0.7817659674000002
 40
0.8919058054
 40
1.0
 40
1.0
 40
1.0
 40
1.0
 10
408.8427336699949
 20
205.555538799003
 30
0.0
 10
408.7505666470652
 20
205.6087502496029
 30
0.0
 10
408.5673828922748
 20
205.695985505663
 30
0.0
 10
408.3261891950846
 20
205.754105983783
 30
0.0
 10
408.1446541187352
 20
205.760413206373
 30
0.0
 10
408.018572303335
 20
205.746331619093
 30
0.0
 10
407.900282294805
 20
205.713664087273
 30
0.0
 10
407.8271896355553
 20
205.679412522553
 30
0.0
 10
407.7927608461449
 20
205.659535944323
 30
0.0
  0
SPLINE
  5
1DFD4
330
1F
100
AcDbEntity
  8
0
100
AcDbSpline
210
0.0
220
0.0
230
1.0
 70
     8
 71
     3
 72
    13
 73
     9
 74
     0
 42
0.0000000001
 43
0.0000000001
 40
0.0
 40
0.0
 40
0.0
 40
0.0
 40
0.2893733859
 40
0.5483099552000003
 40
0.6677402976
 40
0.7817659674000002
 40
0.8919058054
 40
1.0
 40
1.0
 40
1.0
 40
1.0
 10
405.236474071505
 20
207.637566646623
 30
0.0
 10
405.1443070485751
 20
207.690778098493
 30
0.0
 10
404.9611232937848
 20
207.778013353283
 30
0.0
 10
404.7199295978646
 20
207.836133832673
 30
0.0
 10
404.5383945215152
 20
207.842441053993
 30
0.0
 10
404.4123127048449
 20
207.828359466713
 30
0.0
 10
404.2940226963152
 20
207.795691934893
 30
0.0
 10
404.2209300370648
 20
207.761440371443
 30
0.0
 10
404.1865012476553
 20
207.741563791943
 30
0.0
  0
SPLINE
  5
1DFD5
330
1F
100
AcDbEntity
  8
0
100
AcDbSpline
210
0.0
220
0.0
230
1.0
 70
     8
 71
     3
 72
    13
 73
     9
 74
     0
 42
0.0000000001
 43
0.0000000001
 40
0.0
 40
0.0
 40
0.0
 40
0.0
 40
0.2893733859
 40
0.5483099552000003
 40
0.6677402976
 40
0.7817659674000002
 40
0.8919058054
 40
1.0
 40
1.0
 40
1.0
 40
1.0
 10
405.236474071505
 20
215.9658913018529
 30
0.0
 10
405.1443070485751
 20
216.0191027524529
 30
0.0
 10
404.9611232937848
 20
216.106338008513
 30
0.0
 10
404.7199295978646
 20
216.164458486633
 30
0.0
 10
404.5383945215152
 20
216.170765709223
 30
0.0
 10
404.4123127048449
 20
216.156684120673
 30
0.0
 10
404.2940226963152
 20
216.124016590123
 30
0.0
 10
404.2209300370648
 20
216.089765025403
 30
0.0
 10
404.1865012476553
 20
216.069888447173
 30
0.0
  0
SPLINE
  5
1DFD6
330
1F
100
AcDbEntity
  8
0
100
AcDbSpline
210
0.0
220
0.0
230
1.0
 70
     8
 71
     3
 72
    22
 73
    18
 74
     0
 42
0.0000000001
 43
0.0000000001
 40
0.0
 40
0.0
 40
0.0
 40
0.0
 40
0.0428185247
 40
0.0874067146
 40
0.1351965937
 40
0.1871114788
 40
0.2435659813
 40
0.3045314255
 40
0.3696363265
 40
0.4382537317000001
 40
0.5095607422000003
 40
0.5826052818000002
 40
0.7296237191000003
 40
0.8016216151
 40
0.8712288464
 40
0.9376188208
 40
1.0
 40
1.0
 40
1.0
 40
1.0
 10
406.2864468940849
 20
212.432584003483
 30
0.0
 10
406.3382191870346
 20
212.462473409033
 30
0.0
 10
406.436367742325
 20
212.5375812763429
 30
0.0
 10
406.5544788599253
 20
212.686925804933
 30
0.0
 10
406.6427224794749
 20
212.869573760693
 30
0.0
 10
406.6998892142644
 20
213.081049586153
 30
0.0
 10
406.725328090235
 20
213.316912863473
 30
0.0
 10
406.7188215386051
 20
213.572303206133
 30
0.0
 10
406.6806701582144
 20
213.841961259653
 30
0.0
 10
406.6116827650748
 20
214.120235404653
 30
0.0
 10
406.5133503849047
 20
214.401296889773
 30
0.0
 10
406.3456598617652
 20
214.772324517033
 30
0.0
 10
406.1308612997454
 20
215.121724698343
 30
0.0
 10
405.8770062219853
 20
215.435184043483
 30
0.0
 10
405.674070698215
 20
215.643554975483
 30
0.0
 10
405.4617813780645
 20
215.822145935293
 30
0.0
 10
405.3118993384853
 20
215.922345488513
 30
0.0
 10
405.236474071505
 20
215.9658913018529
 30
0.0
  0
SPLINE
  5
1DFD7
330
1F
100
AcDbEntity
  8
0
100
AcDbSpline
210
0.0
220
0.0
230
1.0
 70
     8
 71
     3
 72
    22
 73
    18
 74
     0
 42
0.0000000001
 43
0.0000000001
 40
0.0
 40
0.0
 40
0.0
 40
0.0
 40
0.0428185247
 40
0.0874067146
 40
0.1351965937
 40
0.1871114788
 40
0.2435659813
 40
0.3045314255
 40
0.3696363265
 40
0.4382537317000001
 40
0.5095607422000003
 40
0.5826052818000002
 40
0.7296237191000003
 40
0.8016216151
 40
0.8712288464
 40
0.9376188208
 40
1.0
 40
1.0
 40
1.0
 40
1.0
 10
406.2864468940849
 20
204.1042593495229
 30
0.0
 10
406.3382191870346
 20
204.134148753803
 30
0.0
 10
406.436367742325
 20
204.209256621113
 30
0.0
 10
406.5544788599253
 20
204.3586011497029
 30
0.0
 10
406.6427224794749
 20
204.541249105463
 30
0.0
 10
406.6998892142644
 20
204.752724930923
 30
0.0
 10
406.725328090235
 20
204.9885882082429
 30
0.0
 10
406.7188215386051
 20
205.2439785509029
 30
0.0
 10
406.6806701582144
 20
205.513636604423
 30
0.0
 10
406.6116827650748
 20
205.791910749423
 30
0.0
 10
406.5133503849047
 20
206.072972235813
 30
0.0
 10
406.3456598617652
 20
206.443999861803
 30
0.0
 10
406.1308612997454
 20
206.7934000431129
 30
0.0
 10
405.8770062219853
 20
207.106859389523
 30
0.0
 10
405.674070698215
 20
207.315230320253
 30
0.0
 10
405.4617813780645
 20
207.493821281333
 30
0.0
 10
405.3118993384853
 20
207.594020833283
 30
0.0
 10
405.236474071505
 20
207.637566646623
 30
0.0
  0
SPLINE
  5
1DFD8
330
1F
100
AcDbEntity
  8
0
100
AcDbSpline
210
0.0
220
0.0
230
1.0
 70
     8
 71
     3
 72
    22
 73
    18
 74
     0
 42
0.0000000001
 43
0.0000000001
 40
0.0
 40
0.0
 40
0.0
 40
0.0
 40
0.0428185247
 40
0.0874067146
 40
0.1351965937
 40
0.1871114788
 40
0.2435659813
 40
0.3045314255
 40
0.3696363265
 40
0.4382537317000001
 40
0.5095607422000003
 40
0.5826052818000002
 40
0.7296237191000003
 40
0.8016216151
 40
0.8712288464
 40
0.9376188208
 40
1.0
 40
1.0
 40
1.0
 40
1.0
 10
409.8927064925748
 20
210.350556155863
 30
0.0
 10
409.9444787855246
 20
210.380445561413
 30
0.0
 10
410.042627340815
 20
210.4555534287229
 30
0.0
 10
410.1607384571448
 20
210.604897956043
 30
0.0
 10
410.2489820779648
 20
210.787545911803
 30
0.0
 10
410.3061488127552
 20
210.999021737263
 30
0.0
 10
410.3315876874551
 20
211.234885014583
 30
0.0
 10
410.325081137095
 20
211.490275358513
 30
0.0
 10
410.2869297567044
 20
211.759933412033
 30
0.0
 10
410.2179423635647
 20
212.038207557033
 30
0.0
 10
410.1196099833953
 20
212.319269042153
 30
0.0
 10
409.9519194602552
 20
212.6902966694129
 30
0.0
 10
409.7371208982353
 20
213.039696850723
 30
0.0
 10
409.483265820475
 20
213.353156195863
 30
0.0
 10
409.2803302967046
 20
213.561527126593
 30
0.0
 10
409.0680409765552
 20
213.740118087673
 30
0.0
 10
408.9181589369751
 20
213.8403176396229
 30
0.0
 10
408.8427336699949
 20
213.883863452963
 30
0.0
  0
SPLINE
  5
1DFD9
330
1F
100
AcDbEntity
  8
0
100
AcDbSpline
210
0.0
220
0.0
230
1.0
 70
     8
 71
     3
 72
    22
 73
    18
 74
     0
 42
0.0000000001
 43
0.0000000001
 40
0.0
 40
0.0
 40
0.0
 40
0.0
 40
0.0428185247
 40
0.0874067146
 40
0.1351965937
 40
0.1871114788
 40
0.2435659813
 40
0.3045314255
 40
0.3696363265
 40
0.4382537317000001
 40
0.5095607422000003
 40
0.5826052818000002
 40
0.7296237191000003
 40
0.8016216151
 40
0.8712288464
 40
0.9376188208
 40
1.0
 40
1.0
 40
1.0
 40
1.0
 10
409.8927064925748
 20
202.0222315019029
 30
0.0
 10
409.9444787855246
 20
202.052120906183
 30
0.0
 10
410.042627340815
 20
202.127228773493
 30
0.0
 10
410.1607384571448
 20
202.2765733020829
 30
0.0
 10
410.2489820779648
 20
202.459221257843
 30
0.0
 10
410.3061488127552
 20
202.670697083303
 30
0.0
 10
410.3315876874551
 20
202.906560360623
 30
0.0
 10
410.325081137095
 20
203.161950703283
 30
0.0
 10
410.2869297567044
 20
203.431608756803
 30
0.0
 10
410.2179423635647
 20
203.709882901803
 30
0.0
 10
410.1196099833953
 20
203.990944386923
 30
0.0
 10
409.9519194602552
 20
204.361972014183
 30
0.0
 10
409.7371208982353
 20
204.711372195493
 30
0.0
 10
409.483265820475
 20
205.024831540633
 30
0.0
 10
409.2803302967046
 20
205.233202472633
 30
0.0
 10
409.0680409765552
 20
205.411793433713
 30
0.0
 10
408.9181589369751
 20
205.511992985663
 30
0.0
 10
408.8427336699949
 20
205.555538799003
 30
0.0
  0
SPLINE
  5
1DFDA
330
1F
100
AcDbEntity
  8
0
100
AcDbSpline
210
0.0
220
0.0
230
1.0
 70
     8
 71
     3
 72
    22
 73
    18
 74
     0
 42
0.0000000001
 43
0.0000000001
 40
0.0
 40
0.0
 40
0.0
 40
0.0
 40
0.0428185247
 40
0.0874067146
 40
0.1351965937
 40
0.1871114788
 40
0.2435659813
 40
0.3045314255
 40
0.3696363265
 40
0.4382537317000001
 40
0.5095607422000003
 40
0.5826052818000002
 40
0.7296237191000003
 40
0.8016216151
 40
0.8712288464
 40
0.9376188208
 40
1.0
 40
1.0
 40
1.0
 40
1.0
 10
413.4989660910647
 20
204.1043659799929
 30
0.0
 10
413.5507383840145
 20
204.134255385543
 30
0.0
 10
413.6488869380348
 20
204.2093632528529
 30
0.0
 10
413.7669980556354
 20
204.358707781443
 30
0.0
 10
413.8552416764547
 20
204.541355737203
 30
0.0
 10
413.9124084112451
 20
204.7528315626629
 30
0.0
 10
413.937847285945
 20
204.988694839983
 30
0.0
 10
413.9313407343153
 20
205.244085182643
 30
0.0
 10
413.8931893539247
 20
205.513743236163
 30
0.0
 10
413.8242019607848
 20
205.792017381163
 30
0.0
 10
413.7258695806154
 20
206.073078866283
 30
0.0
 10
413.5581790574751
 20
206.4441064935429
 30
0.0
 10
413.3433804954552
 20
206.793506674853
 30
0.0
 10
413.0895254189652
 20
207.106966019993
 30
0.0
 10
412.886589893925
 20
207.315336951993
 30
0.0
 10
412.6743005737753
 20
207.493927911803
 30
0.0
 10
412.5244185354651
 20
207.594127465023
 30
0.0
 10
412.4489932672153
 20
207.6376732783629
 30
0.0
  0
SPLINE
  5
1DFDB
330
1F
100
AcDbEntity
  8
0
100
AcDbSpline
210
0.0
220
0.0
230
1.0
 70
     8
 71
     3
 72
    13
 73
     9
 74
     0
 42
0.0000000001
 43
0.0000000001
 40
0.0
 40
0.0
 40
0.0
 40
0.0
 40
0.1080947721
 40
0.2182340857
 40
0.3322580587
 40
0.4516863362
 40
0.7106233094
 40
1.0
 40
1.0
 40
1.0
 40
1.0
 10
426.5097055483249
 20
203.532736010733
 30
0.0
 10
426.4752764249051
 20
203.512858467303
 30
0.0
 10
426.4021828410948
 20
203.478606061843
 30
0.0
 10
426.2838923144049
 20
203.4459366377229
 30
0.0
 10
426.1578106602953
 20
203.4318518919529
 30
0.0
 10
425.976274068835
 20
203.438155912873
 30
0.0
 10
425.735075878385
 20
203.496275585813
 30
0.0
 10
425.5518873737948
 20
203.583510841873
 30
0.0
 10
425.4597180039047
 20
203.636723648833
 30
0.0
  0
SPLINE
  5
1DFDC
330
1F
100
AcDbEntity
  8
0
100
AcDbSpline
210
0.0
220
0.0
230
1.0
 70
     8
 71
     3
 72
    14
 73
    10
 74
     0
 42
0.0000000001
 43
0.0000000001
 40
0.0
 40
0.0
 40
0.0
 40
0.0
 40
0.1080466347
 40
0.2181307808
 40
0.3321113471
 40
0.4515001697
 40
0.5774438018
 40
0.7107269769000001
 40
1.0
 40
1.0
 40
1.0
 40
1.0
 10
437.9905287486852
 20
209.121911964693
 30
0.0
 10
438.0397149368252
 20
209.150309460603
 30
0.0
 10
438.1342696397653
 20
209.216313886633
 30
0.0
 10
438.2592489516548
 20
209.339266716673
 30
0.0
 10
438.3666827817448
 20
209.485244774983
 30
0.0
 10
438.4556885892551
 20
209.652507582443
 30
0.0
 10
438.5254895342348
 20
209.839454578373
 30
0.0
 10
438.5941142776052
 20
210.1199960137329
 30
0.0
 10
438.6118670399151
 20
210.343207496443
 30
0.0
 10
438.6118670399151
 20
210.495265261923
 30
0.0
  0
SPLINE
  5
1DFDD
330
1F
100
AcDbEntity
  8
0
100
AcDbSpline
210
0.0
220
0.0
230
1.0
 70
     8
 71
     3
 72
    22
 73
    18
 74
     0
 42
0.0000000001
 43
0.0000000001
 40
0.0
 40
0.0
 40
0.0
 40
0.0
 40
0.0428185247
 40
0.0874067146
 40
0.1351965937
 40
0.1871114788
 40
0.2435659813
 40
0.3045314255
 40
0.3696363265
 40
0.4382537317000001
 40
0.5095607422000003
 40
0.5826052818000002
 40
0.7296237191000003
 40
0.8016216151
 40
0.8712288464
 40
0.9376188208
 40
1.0
 40
1.0
 40
1.0
 40
1.0
 10
409.8927064925748
 20
206.186393828883
 30
0.0
 10
409.9444787855246
 20
206.216283233163
 30
0.0
 10
410.042627340815
 20
206.291391100473
 30
0.0
 10
410.1607384571448
 20
206.4407356290629
 30
0.0
 10
410.2489820779648
 20
206.623383584823
 30
0.0
 10
410.3061488127552
 20
206.8348594102829
 30
0.0
 10
410.3315876874551
 20
207.070722687603
 30
0.0
 10
410.325081137095
 20
207.326113030263
 30
0.0
 10
410.2869297567044
 20
207.595771083783
 30
0.0
 10
410.2179423635647
 20
207.874045228783
 30
0.0
 10
410.1196099833953
 20
208.155106715173
 30
0.0
 10
409.9519194602552
 20
208.526134341163
 30
0.0
 10
409.7371208982353
 20
208.875534522473
 30
0.0
 10
409.483265820475
 20
209.1889938688829
 30
0.0
 10
409.2803302967046
 20
209.397364799613
 30
0.0
 10
409.0680409765552
 20
209.575955760693
 30
0.0
 10
408.9181589369751
 20
209.676155312643
 30
0.0
 10
408.8427336699949
 20
209.7197011259829
 30
0.0
  0
SPLINE
  5
1DFDE
330
1F
100
AcDbEntity
  8
0
100
AcDbSpline
210
0.0
220
0.0
230
1.0
 70
     8
 71
     3
 72
    14
 73
    10
 74
     0
 42
0.0000000001
 43
0.0000000001
 40
0.0
 40
0.0
 40
0.0
 40
0.0
 40
0.1080471438
 40
0.2181317193
 40
0.3321125723
 40
0.4515014985000001
 40
0.5774450423000001
 40
0.7107279479000001
 40
1.0
 40
1.0
 40
1.0
 40
1.0
 10
413.8429175380351
 20
199.344491699913
 30
0.0
 10
413.7937324268547
 20
199.3160948326529
 30
0.0
 10
413.6892957802547
 20
199.2672116906429
 30
0.0
 10
413.5203297834149
 20
199.2204538466429
 30
0.0
 10
413.3401966308554
 20
199.2004023106729
 30
0.0
 10
413.1508447553048
 20
199.206951160923
 30
0.0
 10
412.9540485842553
 20
199.2399729186029
 30
0.0
 10
412.6767875969953
 20
199.3208081760329
 30
0.0
 10
412.4746094872548
 20
199.4170347895229
 30
0.0
 10
412.3429268092949
 20
199.4930600984829
 30
0.0
  0
SPLINE
  5
1DFDF
330
1F
100
AcDbEntity
  8
0
100
AcDbSpline
210
0.0
220
0.0
230
1.0
 70
     8
 71
     3
 72
    22
 73
    18
 74
     0
 42
0.0000000001
 43
0.0000000001
 40
0.0
 40
0.0
 40
0.0
 40
0.0
 40
0.0428185247
 40
0.0874067146
 40
0.1351965937
 40
0.1871114788
 40
0.2435659813
 40
0.3045314255
 40
0.3696363265
 40
0.4382537317000001
 40
0.5095607422000003
 40
0.5826052818000002
 40
0.7296237191000003
 40
0.8016216151
 40
0.8712288464
 40
0.9376188208
 40
1.0
 40
1.0
 40
1.0
 40
1.0
 10
411.3990204446348
 20
207.741670423683
 30
0.0
 10
411.3472481516851
 20
207.711781018133
 30
0.0
 10
411.2490995963947
 20
207.636673150823
 30
0.0
 10
411.1309884787953
 20
207.487328623503
 30
0.0
 10
411.0427448592449
 20
207.304680667743
 30
0.0
 10
410.9855781244553
 20
207.093204842283
 30
0.0
 10
410.9601392484846
 20
206.857341563693
 30
0.0
 10
410.9666458001154
 20
206.601951221033
 30
0.0
 10
411.0047971805052
 20
206.332293167513
 30
0.0
 10
411.073784573645
 20
206.0540190225129
 30
0.0
 10
411.1721169538149
 20
205.772957537393
 30
0.0
 10
411.3398074769553
 20
205.401929910133
 30
0.0
 10
411.5546060389752
 20
205.0525297288229
 30
0.0
 10
411.8084611167351
 20
204.739070383683
 30
0.0
 10
412.0113966405048
 20
204.530699451683
 30
0.0
 10
412.2236859606553
 20
204.3521084918729
 30
0.0
 10
412.3735680002353
 20
204.251908938653
 30
0.0
 10
412.4489932672153
 20
204.208363126583
 30
0.0
  0
SPLINE
  5
1DFE0
330
1F
100
AcDbEntity
  8
0
100
AcDbSpline
210
0.0
220
0.0
230
1.0
 70
     8
 71
     3
 72
    22
 73
    18
 74
     0
 42
0.0000000001
 43
0.0000000001
 40
0.0
 40
0.0
 40
0.0
 40
0.0
 40
0.0428185247
 40
0.0874067146
 40
0.1351965937
 40
0.1871114788
 40
0.2435659813
 40
0.3045314255
 40
0.3696363265
 40
0.4382537317000001
 40
0.5095607422000003
 40
0.5826052818000002
 40
0.7296237191000003
 40
0.8016216151
 40
0.8712288464
 40
0.9376188208
 40
1.0
 40
1.0
 40
1.0
 40
1.0
 10
404.1865012476553
 20
207.741563791943
 30
0.0
 10
404.1347289547052
 20
207.7116743876629
 30
0.0
 10
404.0365804006849
 20
207.636566520353
 30
0.0
 10
403.9184692830851
 20
207.4872219917629
 30
0.0
 10
403.830225662265
 20
207.304574036003
 30
0.0
 10
403.7730589274753
 20
207.093098210543
 30
0.0
 10
403.7476200527748
 20
206.857234933223
 30
0.0
 10
403.7541266044053
 20
206.6018445905629
 30
0.0
 10
403.792277984795
 20
206.332186537043
 30
0.0
 10
403.8612653779351
 20
206.053912392043
 30
0.0
 10
403.9595977581051
 20
205.772850905653
 30
0.0
 10
404.1272882812451
 20
205.401823279663
 30
0.0
 10
404.3420868432653
 20
205.052423098353
 30
0.0
 10
404.5959419197544
 20
204.738963751943
 30
0.0
 10
404.7988774447948
 20
204.530592821213
 30
0.0
 10
405.0111667649453
 20
204.352001860133
 30
0.0
 10
405.1610488045246
 20
204.251802308183
 30
0.0
 10
405.236474071505
 20
204.2082564948429
 30
0.0
  0
SPLINE
  5
1DFE1
330
1F
100
AcDbEntity
  8
0
100
AcDbSpline
210
0.0
220
0.0
230
1.0
 70
     8
 71
     3
 72
    15
 73
    11
 74
     0
 42
0.0000000001
 43
0.0000000001
 40
0.0
 40
0.0
 40
0.0
 40
0.0
 40
0.1141546703
 40
0.2373261017
 40
0.3669753162
 40
0.4999989361
 40
0.6330227034
 40
0.7626723508
 40
0.8858444606999999
 40
1.0
 40
1.0
 40
1.0
 40
1.0
 10
412.3429268092949
 20
212.475448531673
 30
0.0
 10
412.4881487718345
 20
212.391606488283
 30
0.0
 10
412.7749882210148
 20
212.190537163473
 30
0.0
 10
413.1696639201043
 20
211.821291047763
 30
0.0
 10
413.5333789000647
 20
211.384814078453
 30
0.0
 10
413.8524336467653
 20
210.897479907073
 30
0.0
 10
414.1149527839052
 20
210.3775039785229
 30
0.0
 10
414.3110988533851
 20
209.844278383813
 30
0.0
 10
414.4335415104548
 20
209.3178541064629
 30
0.0
 10
414.4642559842047
 20
208.968907223713
 30
0.0
 10
414.4642559842047
 20
208.801219015783
 30
0.0
  0
SPLINE
  5
1DFE2
330
1F
100
AcDbEntity
  8
0
100
AcDbSpline
210
0.0
220
0.0
230
1.0
 70
     8
 71
     3
 72
    14
 73
    10
 74
     0
 42
0.0000000001
 43
0.0000000001
 40
0.0
 40
0.0
 40
0.0
 40
0.0
 40
0.2892730351
 40
0.4225562198000001
 40
0.5484998505
 40
0.6678886668999999
 40
0.7818692291
 40
0.8919533701999997
 40
1.0
 40
1.0
 40
1.0
 40
1.0
 10
414.4642559842047
 20
200.717845087313
 30
0.0
 10
414.4642559842047
 20
200.565787298973
 30
0.0
 10
414.446503213005
 20
200.342575778163
 30
0.0
 10
414.3778784493147
 20
200.062034303433
 30
0.0
 10
414.3080774840147
 20
199.875087289723
 30
0.0
 10
414.2190716472953
 20
199.7078244797229
 30
0.0
 10
414.111637793075
 20
199.5618464252228
 30
0.0
 10
413.9866584557847
 20
199.438893601533
 30
0.0
 10
413.8921037312552
 20
199.3728891932829
 30
0.0
 10
413.8429175380351
 20
199.344491699913
 30
0.0
  0
SPLINE
  5
1DFE3
330
1F
100
AcDbEntity
  8
0
100
AcDbSpline
210
0.0
220
0.0
230
1.0
 70
     8
 71
     3
 72
    22
 73
    18
 74
     0
 42
0.0000000001
 43
0.0000000001
 40
0.0
 40
0.0
 40
0.0
 40
0.0
 40
0.0428185247
 40
0.0874067146
 40
0.1351965937
 40
0.1871114788
 40
0.2435659813
 40
0.3045314255
 40
0.3696363265
 40
0.4382537317000001
 40
0.5095607422000003
 40
0.5826052818000002
 40
0.7296237191000003
 40
0.8016216151
 40
0.8712288464
 40
0.9376188208
 40
1.0
 40
1.0
 40
1.0
 40
1.0
 10
411.3990204446348
 20
203.577508095433
 30
0.0
 10
411.3472481516851
 20
203.547618691153
 30
0.0
 10
411.2490995963947
 20
203.472510823843
 30
0.0
 10
411.1309884787953
 20
203.323166295253
 30
0.0
 10
411.0427448592449
 20
203.140518339493
 30
0.0
 10
410.9855781244553
 20
202.929042514033
 30
0.0
 10
410.9601392484846
 20
202.693179236713
 30
0.0
 10
410.9666458001154
 20
202.437788894053
 30
0.0
 10
411.0047971805052
 20
202.168130840533
 30
0.0
 10
411.073784573645
 20
201.889856695533
 30
0.0
 10
411.1721169538149
 20
201.608795210413
 30
0.0
 10
411.3398074769553
 20
201.237767583153
 30
0.0
 10
411.5546060389752
 20
200.888367401843
 30
0.0
 10
411.8084611167351
 20
200.574908056703
 30
0.0
 10
412.0113966405048
 20
200.366537124703
 30
0.0
 10
412.2236859606553
 20
200.187946163623
 30
0.0
 10
412.3735680002353
 20
200.087746611673
 30
0.0
 10
412.4489932672153
 20
200.044200798333
 30
0.0
  0
SPLINE
  5
1DFE4
330
1F
100
AcDbEntity
  8
0
100
AcDbSpline
210
0.0
220
0.0
230
1.0
 70
     8
 71
     3
 72
    22
 73
    18
 74
     0
 42
0.0000000001
 43
0.0000000001
 40
0.0
 40
0.0
 40
0.0
 40
0.0
 40
0.0428185247
 40
0.0874067146
 40
0.1351965937
 40
0.1871114788
 40
0.2435659813
 40
0.3045314255
 40
0.3696363265
 40
0.4382537317000001
 40
0.5095607422000003
 40
0.5826052818000002
 40
0.7296237191000003
 40
0.8016216151
 40
0.8712288464
 40
0.9376188208
 40
1.0
 40
1.0
 40
1.0
 40
1.0
 10
411.3990204446348
 20
211.905832750663
 30
0.0
 10
411.3472481516851
 20
211.8759433463829
 30
0.0
 10
411.2490995963947
 20
211.800835479073
 30
0.0
 10
411.1309884787953
 20
211.651490950483
 30
0.0
 10
411.0427448592449
 20
211.4688429947229
 30
0.0
 10
410.9855781244553
 20
211.2573671692629
 30
0.0
 10
410.9601392484846
 20
211.021503891943
 30
0.0
 10
410.9666458001154
 20
210.766113548013
 30
0.0
 10
411.0047971805052
 20
210.496455495763
 30
0.0
 10
411.073784573645
 20
210.218181350763
 30
0.0
 10
411.1721169538149
 20
209.937119864373
 30
0.0
 10
411.3398074769553
 20
209.566092238383
 30
0.0
 10
411.5546060389752
 20
209.216692057073
 30
0.0
 10
411.8084611167351
 20
208.903232710663
 30
0.0
 10
412.0113966405048
 20
208.694861779933
 30
0.0
 10
412.2236859606553
 20
208.516270818853
 30
0.0
 10
412.3735680002353
 20
208.416071266903
 30
0.0
 10
412.4489932672153
 20
208.372525453563
 30
0.0
  0
SPLINE
  5
1DFE5
330
1F
100
AcDbEntity
  8
0
100
AcDbSpline
210
0.0
220
0.0
230
1.0
 70
     8
 71
     3
 72
    22
 73
    18
 74
     0
 42
0.0000000001
 43
0.0000000001
 40
0.0
 40
0.0
 40
0.0
 40
0.0
 40
0.0428185247
 40
0.0874067146
 40
0.1351965937
 40
0.1871114788
 40
0.2435659813
 40
0.3045314255
 40
0.3696363265
 40
0.4382537317000001
 40
0.5095607422000003
 40
0.5826052818000002
 40
0.7296237191000003
 40
0.8016216151
 40
0.8712288464
 40
0.9376188208
 40
1.0
 40
1.0
 40
1.0
 40
1.0
 10
407.7927608461449
 20
213.987860598283
 30
0.0
 10
407.7409885531952
 20
213.957971194003
 30
0.0
 10
407.6428399979048
 20
213.882863326693
 30
0.0
 10
407.524728881575
 20
213.733518798103
 30
0.0
 10
407.4364852607549
 20
213.5508708423429
 30
0.0
 10
407.3793185259653
 20
213.339395016883
 30
0.0
 10
407.3538796512647
 20
213.103531739563
 30
0.0
 10
407.3603862016248
 20
212.848141396903
 30
0.0
 10
407.398537582015
 20
212.578483343383
 30
0.0
 10
407.4675249751551
 20
212.3002091983829
 30
0.0
 10
407.5658573553253
 20
212.019147713263
 30
0.0
 10
407.7335478784648
 20
211.648120086003
 30
0.0
 10
407.9483464417551
 20
211.2987199046929
 30
0.0
 10
408.2022015182444
 20
210.985260558283
 30
0.0
 10
408.405137042015
 20
210.776889627553
 30
0.0
 10
408.6174263621654
 20
210.598298666473
 30
0.0
 10
408.7673084017446
 20
210.498099114523
 30
0.0
 10
408.8427336699949
 20
210.454553301183
 30
0.0
  0
SPLINE
  5
1DFE6
330
1F
100
AcDbEntity
  8
0
100
AcDbSpline
210
0.0
220
0.0
230
1.0
 70
     8
 71
     3
 72
    15
 73
    11
 74
     0
 42
0.0000000001
 43
0.0000000001
 40
0.0
 40
0.0
 40
0.0
 40
0.0
 40
0.1141555516
 40
0.2373276756
 40
0.3669773296
 40
0.5000011
 40
0.6330247168000001
 40
0.7626739247
 40
0.885845342
 40
1.0
 40
1.0
 40
1.0
 40
1.0
 10
425.777917380205
 20
215.333125478233
 30
0.0
 10
425.777917380205
 20
215.5008137026729
 30
0.0
 10
425.7472028950251
 20
215.849760626063
 30
0.0
 10
425.6247602214449
 20
216.376184947863
 30
0.0
 10
425.4286141214846
 20
216.909410569243
 30
0.0
 10
425.1660949665645
 20
217.429386499063
 30
0.0
 10
424.8470402135151
 20
217.916720655203
 30
0.0
 10
424.4833252411747
 20
218.353197585143
 30
0.0
 10
424.0886495725646
 20
218.722443662753
 30
0.0
 10
423.8018101513246
 20
218.923512959623
 30
0.0
 10
423.6565882040252
 20
219.007354992853
 30
0.0
  0
SPLINE
  5
1DFE7
330
1F
100
AcDbEntity
  8
0
100
AcDbSpline
210
0.0
220
0.0
230
1.0
 70
     8
 71
     3
 72
    14
 73
    10
 74
     0
 42
0.0000000001
 43
0.0000000001
 40
0.0
 40
0.0
 40
0.0
 40
0.0
 40
0.2892719185
 40
0.422552722
 40
0.5484967918
 40
0.6678875011
 40
0.7818686942000001
 40
0.8919534539
 40
1.0
 40
1.0
 40
1.0
 40
1.0
 10
416.6562019254252
 20
223.048938462883
 30
0.0
 10
416.524525865435
 20
223.1249599516829
 30
0.0
 10
416.3223597470353
 20
223.221182545623
 30
0.0
 10
416.0451145179345
 20
223.302017330613
 30
0.0
 10
415.8483288916945
 20
223.335041200303
 30
0.0
 10
415.6589854438652
 20
223.341599349493
 30
0.0
 10
415.4788592496347
 20
223.321555587193
 30
0.0
 10
415.3098991849648
 20
223.274810916903
 30
0.0
 10
415.2054633283047
 20
223.225939589703
 30
0.0
 10
415.1562797462052
 20
223.197546359723
 30
0.0
  0
SPLINE
  5
1DFE8
330
1F
100
AcDbEntity
  8
0
100
AcDbSpline
210
0.0
220
0.0
230
1.0
 70
     8
 71
     3
 72
    13
 73
     9
 74
     0
 42
0.0000000001
 43
0.0000000001
 40
0.0
 40
0.0
 40
0.0
 40
0.0
 40
0.2893733859
 40
0.5483099552000003
 40
0.6677402976
 40
0.7817659674000002
 40
0.8919058054
 40
1.0
 40
1.0
 40
1.0
 40
1.0
 10
408.8427336699949
 20
206.290390974203
 30
0.0
 10
408.9349006916545
 20
206.237179522333
 30
0.0
 10
409.1180844464449
 20
206.149944267543
 30
0.0
 10
409.3592781436345
 20
206.091823788153
 30
0.0
 10
409.5408132199851
 20
206.0855165668329
 30
0.0
 10
409.6668950353849
 20
206.0995981541129
 30
0.0
 10
409.7851850439147
 20
206.132265685933
 30
0.0
 10
409.858277703165
 20
206.1665172493829
 30
0.0
 10
409.8927064925748
 20
206.186393828883
 30
0.0
  0
SPLINE
  5
1DFE9
330
1F
100
AcDbEntity
  8
0
100
AcDbSpline
210
0.0
220
0.0
230
1.0
 70
     8
 71
     3
 72
     9
 73
     5
 74
     0
 42
0.0000000001
 43
0.0000000001
 40
0.0
 40
0.0
 40
0.0
 40
0.0
 40
0.2422083363
 40
1.0
 40
1.0
 40
1.0
 40
1.0
 10
421.6767151241551
 20
212.965309385833
 30
0.0
 10
421.6767151241551
 20
213.003372405973
 30
0.0
 10
421.6735415567147
 20
213.1605155727629
 30
0.0
 10
421.6581644678345
 20
213.317335515663
 30
0.0
 10
421.6407603065552
 20
213.435143770013
 30
0.0
  0
SPLINE
  5
1DFEA
330
1F
100
AcDbEntity
  8
0
100
AcDbSpline
210
0.0
220
0.0
230
1.0
 70
     8
 71
     3
 72
     9
 73
     5
 74
     0
 42
0.0000000001
 43
0.0000000001
 40
0.0
 40
0.0
 40
0.0
 40
0.0
 40
0.2407580704
 40
1.0
 40
1.0
 40
1.0
 40
1.0
 10
421.6407603065552
 20
204.4536171814129
 30
0.0
 10
421.6468136663054
 20
204.487602533813
 30
0.0
 10
421.6684724749049
 20
204.629375678003
 30
0.0
 10
421.6767151241551
 20
204.773074231093
 30
0.0
 10
421.6767151241551
 20
204.881935456093
 30
0.0
  0
SPLINE
  5
1DFEB
330
1F
100
AcDbEntity
  8
0
100
AcDbSpline
210
0.0
220
0.0
230
1.0
 70
     8
 71
     3
 72
    13
 73
     9
 74
     0
 42
0.0000000001
 43
0.0000000001
 40
0.0
 40
0.0
 40
0.0
 40
0.0
 40
0.2893733859
 40
0.5483099552000003
 40
0.6677402976
 40
0.7817659674000002
 40
0.8919058054
 40
1.0
 40
1.0
 40
1.0
 40
1.0
 10
408.8427336699949
 20
210.454553301183
 30
0.0
 10
408.9349006916545
 20
210.401341850583
 30
0.0
 10
409.1180844464449
 20
210.314106594523
 30
0.0
 10
409.3592781436345
 20
210.255986116403
 30
0.0
 10
409.5408132199851
 20
210.2496788938129
 30
0.0
 10
409.6668950353849
 20
210.263760481093
 30
0.0
 10
409.7851850439147
 20
210.296428012913
 30
0.0
 10
409.858277703165
 20
210.330679577633
 30
0.0
 10
409.8927064925748
 20
210.350556155863
 30
0.0
  0
SPLINE
  5
1DFEC
330
1F
100
AcDbEntity
  8
0
100
AcDbSpline
210
0.0
220
0.0
230
1.0
 70
     8
 71
     3
 72
    13
 73
     9
 74
     0
 42
0.0000000001
 43
0.0000000001
 40
0.0
 40
0.0
 40
0.0
 40
0.0
 40
0.2893733859
 40
0.5483099552000003
 40
0.6677402976
 40
0.7817659674000002
 40
0.8919058054
 40
1.0
 40
1.0
 40
1.0
 40
1.0
 10
412.4489932672153
 20
208.372525453563
 30
0.0
 10
412.5411602901444
 20
208.319314001693
 30
0.0
 10
412.7243440449348
 20
208.232078746903
 30
0.0
 10
412.9655377408551
 20
208.173958267513
 30
0.0
 10
413.1470728172051
 20
208.1676510461929
 30
0.0
 10
413.2731546338748
 20
208.181732633473
 30
0.0
 10
413.3914446424046
 20
208.214400165293
 30
0.0
 10
413.4645373016551
 20
208.248651728743
 30
0.0
 10
413.4989660910647
 20
208.268528308243
 30
0.0
  0
SPLINE
  5
1DFED
330
1F
100
AcDbEntity
  8
0
100
AcDbSpline
210
0.0
220
0.0
230
1.0
 70
     8
 71
     3
 72
    13
 73
     9
 74
     0
 42
0.0000000001
 43
0.0000000001
 40
0.0
 40
0.0
 40
0.0
 40
0.0
 40
0.2893733859
 40
0.5483099552000003
 40
0.6677402976
 40
0.7817659674000002
 40
0.8919058054
 40
1.0
 40
1.0
 40
1.0
 40
1.0
 10
412.4489932672153
 20
204.208363126583
 30
0.0
 10
412.5411602901444
 20
204.155151674713
 30
0.0
 10
412.7243440449348
 20
204.067916419923
 30
0.0
 10
412.9655377408551
 20
204.009795940533
 30
0.0
 10
413.1470728172051
 20
204.003488717943
 30
0.0
 10
413.2731546338748
 20
204.0175703064929
 30
0.0
 10
413.3914446424046
 20
204.050237837043
 30
0.0
 10
413.4645373016551
 20
204.084489401763
 30
0.0
 10
413.4989660910647
 20
204.1043659799929
 30
0.0
  0
SPLINE
  5
1DFEE
330
1F
100
AcDbEntity
  8
0
100
AcDbSpline
210
0.0
220
0.0
230
1.0
 70
     8
 71
     3
 72
     9
 73
     5
 74
     0
 42
0.0000000001
 43
0.0000000001
 40
0.0
 40
0.0
 40
0.0
 40
0.0
 40
0.2594289303
 40
1.0
 40
1.0
 40
1.0
 40
1.0
 10
410.0094258552752
 20
219.211443416273
 30
0.0
 10
409.9772133301653
 20
219.230040906383
 30
0.0
 10
409.8516586841448
 20
219.299263203803
 30
0.0
 10
409.7203547862251
 20
219.358317685643
 30
0.0
 10
409.620515506605
 20
219.394458659843
 30
0.0
  0
SPLINE
  5
1DFEF
330
1F
100
AcDbEntity
  8
0
100
AcDbSpline
210
0.0
220
0.0
230
1.0
 70
     8
 71
     3
 72
    22
 73
    18
 74
     0
 42
0.0000000001
 43
0.0000000001
 40
0.0
 40
0.0
 40
0.0
 40
0.0
 40
0.0428185247
 40
0.0874067146
 40
0.1351965937
 40
0.1871114788
 40
0.2435659813
 40
0.3045314255
 40
0.3696363265
 40
0.4382537317000001
 40
0.5095607422000003
 40
0.5826052818000002
 40
0.7296237191000003
 40
0.8016216151
 40
0.8712288464
 40
0.9376188208
 40
1.0
 40
1.0
 40
1.0
 40
1.0
 10
407.7927608461449
 20
209.823698271303
 30
0.0
 10
407.7409885531952
 20
209.7938088670229
 30
0.0
 10
407.6428399979048
 20
209.718700999713
 30
0.0
 10
407.524728881575
 20
209.569356471123
 30
0.0
 10
407.4364852607549
 20
209.386708515363
 30
0.0
 10
407.3793185259653
 20
209.175232689903
 30
0.0
 10
407.3538796512647
 20
208.939369412583
 30
0.0
 10
407.3603862016248
 20
208.6839790699229
 30
0.0
 10
407.398537582015
 20
208.414321016403
 30
0.0
 10
407.4675249751551
 20
208.1360468714029
 30
0.0
 10
407.5658573553253
 20
207.854985385013
 30
0.0
 10
407.7335478784648
 20
207.483957759023
 30
0.0
 10
407.9483464417551
 20
207.1345575777129
 30
0.0
 10
408.2022015182444
 20
206.821098231303
 30
0.0
 10
408.405137042015
 20
206.612727300573
 30
0.0
 10
408.6174263621654
 20
206.434136339493
 30
0.0
 10
408.7673084017446
 20
206.333936787543
 30
0.0
 10
408.8427336699949
 20
206.290390974203
 30
0.0
  0
SPLINE
  5
1DFF0
330
1F
100
AcDbEntity
  8
0
100
AcDbSpline
210
0.0
220
0.0
230
1.0
 70
     8
 71
     3
 72
     9
 73
     5
 74
     0
 42
0.0000000001
 43
0.0000000001
 40
0.0
 40
0.0
 40
0.0
 40
0.0
 40
0.2577552343
 40
1.0
 40
1.0
 40
1.0
 40
1.0
 10
417.3987224838151
 20
214.903810360233
 30
0.0
 10
417.3669803679753
 20
214.928971792003
 30
0.0
 10
417.2422127092048
 20
215.024511955253
 30
0.0
 10
417.110826226995
 20
215.111540752493
 30
0.0
 10
417.009812133875
 20
215.169859947513
 30
0.0
  0
SPLINE
  5
1DFF1
330
1F
100
AcDbEntity
  8
0
100
AcDbSpline
210
0.0
220
0.0
230
1.0
 70
     8
 71
     3
 72
    14
 73
    10
 74
     0
 42
0.0000000001
 43
0.0000000001
 40
0.0
 40
0.0
 40
0.0
 40
0.0
 40
0.1080466347
 40
0.2181307808
 40
0.3321113471
 40
0.4515001697
 40
0.5774438018
 40
0.7107269769000001
 40
1.0
 40
1.0
 40
1.0
 40
1.0
 10
425.1565790889746
 20
205.876398252533
 30
0.0
 10
425.2057652771147
 20
205.904795748443
 30
0.0
 10
425.3003199800548
 20
205.970800174473
 30
0.0
 10
425.4252992919448
 20
206.093753004513
 30
0.0
 10
425.5327331220351
 20
206.2397310615529
 30
0.0
 10
425.6217389295446
 20
206.406993870283
 30
0.0
 10
425.6915398745252
 20
206.593940864943
 30
0.0
 10
425.7601646178946
 20
206.8744823003029
 30
0.0
 10
425.777917380205
 20
207.0976937842829
 30
0.0
 10
425.777917380205
 20
207.249751548493
 30
0.0
  0
SPLINE
  5
1DFF2
330
1F
100
AcDbEntity
  8
0
100
AcDbSpline
210
0.0
220
0.0
230
1.0
 70
     8
 71
     3
 72
    13
 73
     9
 74
     0
 42
0.0000000001
 43
0.0000000001
 40
0.0
 40
0.0
 40
0.0
 40
0.0
 40
0.2893733859
 40
0.5483099552000003
 40
0.6677402976
 40
0.7817659674000002
 40
0.8919058054
 40
1.0
 40
1.0
 40
1.0
 40
1.0
 10
412.4489932672153
 20
200.044200798333
 30
0.0
 10
412.5411602901444
 20
199.990989347733
 30
0.0
 10
412.7243440449348
 20
199.9037540916729
 30
0.0
 10
412.9655377408551
 20
199.845633613553
 30
0.0
 10
413.1470728172051
 20
199.839326390963
 30
0.0
 10
413.2731546338748
 20
199.8534079782429
 30
0.0
 10
413.3914446424046
 20
199.8860755100629
 30
0.0
 10
413.4645373016551
 20
199.920327074783
 30
0.0
 10
413.4989660910647
 20
199.9402036530129
 30
0.0
  0
SPLINE
  5
1DFF3
330
1F
100
AcDbEntity
  8
0
100
AcDbSpline
210
0.0
220
0.0
230
1.0
 70
     8
 71
     3
 72
    14
 73
    10
 74
     0
 42
0.0000000001
 43
0.0000000001
 40
0.0
 40
0.0
 40
0.0
 40
0.0
 40
0.1080471438
 40
0.2181317193
 40
0.3321125723
 40
0.4515014985000001
 40
0.5774450423000001
 40
0.7107279479000001
 40
1.0
 40
1.0
 40
1.0
 40
1.0
 10
403.8425498006851
 20
216.665600400273
 30
0.0
 10
403.8917349118647
 20
216.693997267533
 30
0.0
 10
403.996171558465
 20
216.742880409543
 30
0.0
 10
404.1651375553053
 20
216.789638253543
 30
0.0
 10
404.3452707078651
 20
216.809689789513
 30
0.0
 10
404.5346225834152
 20
216.803140939263
 30
0.0
 10
404.731418754465
 20
216.7701191815829
 30
0.0
 10
405.0086797417249
 20
216.689283924153
 30
0.0
 10
405.210857851465
 20
216.593057310663
 30
0.0
 10
405.3425405294249
 20
216.517032001703
 30
0.0
  0
SPLINE
  5
1DFF4
330
1F
100
AcDbEntity
  8
0
100
AcDbSpline
210
0.0
220
0.0
230
1.0
 70
     8
 71
     3
 72
    13
 73
     9
 74
     0
 42
0.0000000001
 43
0.0000000001
 40
0.0
 40
0.0
 40
0.0
 40
0.0
 40
0.2893733859
 40
0.5483099552000003
 40
0.6677402976
 40
0.7817659674000002
 40
0.8919058054
 40
1.0
 40
1.0
 40
1.0
 40
1.0
 10
408.8427336699949
 20
202.126228647223
 30
0.0
 10
408.9349006916545
 20
202.073017195353
 30
0.0
 10
409.1180844464449
 20
201.985781940563
 30
0.0
 10
409.3592781436345
 20
201.927661461173
 30
0.0
 10
409.5408132199851
 20
201.921354238583
 30
0.0
 10
409.6668950353849
 20
201.935435827133
 30
0.0
 10
409.7851850439147
 20
201.968103357683
 30
0.0
 10
409.858277703165
 20
202.0023549224029
 30
0.0
 10
409.8927064925748
 20
202.0222315019029
 30
0.0
  0
SPLINE
  5
1DFF5
330
1F
100
AcDbEntity
  8
0
100
AcDbSpline
210
0.0
220
0.0
230
1.0
 70
     8
 71
     3
 72
    13
 73
     9
 74
     0
 42
0.0000000001
 43
0.0000000001
 40
0.0
 40
0.0
 40
0.0
 40
0.0
 40
0.2893733859
 40
0.5483099552000003
 40
0.6677402976
 40
0.7817659674000002
 40
0.8919058054
 40
1.0
 40
1.0
 40
1.0
 40
1.0
 10
405.236474071505
 20
204.2082564948429
 30
0.0
 10
405.3286410931646
 20
204.155045042973
 30
0.0
 10
405.511824847955
 20
204.0678097881829
 30
0.0
 10
405.7530185451451
 20
204.009689308793
 30
0.0
 10
405.9345536214951
 20
204.003382087473
 30
0.0
 10
406.0606354368949
 20
204.017463674753
 30
0.0
 10
406.1789254454246
 20
204.050131206573
 30
0.0
 10
406.2520181046751
 20
204.0843827700229
 30
0.0
 10
406.2864468940849
 20
204.1042593495229
 30
0.0
  0
SPLINE
  5
1DFF6
330
1F
100
AcDbEntity
  8
0
100
AcDbSpline
210
0.0
220
0.0
230
1.0
 70
     8
 71
     3
 72
    13
 73
     9
 74
     0
 42
0.0000000001
 43
0.0000000001
 40
0.0
 40
0.0
 40
0.0
 40
0.0
 40
0.2893733859
 40
0.5483099552000003
 40
0.6677402976
 40
0.7817659674000002
 40
0.8919058054
 40
1.0
 40
1.0
 40
1.0
 40
1.0
 10
405.236474071505
 20
212.536581150073
 30
0.0
 10
405.3286410931646
 20
212.483369698203
 30
0.0
 10
405.511824847955
 20
212.396134442143
 30
0.0
 10
405.7530185451451
 20
212.338013964023
 30
0.0
 10
405.9345536214951
 20
212.331706741433
 30
0.0
 10
406.0606354368949
 20
212.345788329983
 30
0.0
 10
406.1789254454246
 20
212.378455860533
 30
0.0
 10
406.2520181046751
 20
212.412707425253
 30
0.0
 10
406.2864468940849
 20
212.432584003483
 30
0.0
  0
SPLINE
  5
1DFF7
330
1F
100
AcDbEntity
  8
0
100
AcDbSpline
210
0.0
220
0.0
230
1.0
 70
     8
 71
     3
 72
    22
 73
    18
 74
     0
 42
0.0000000001
 43
0.0000000001
 40
0.0
 40
0.0
 40
0.0
 40
0.0
 40
0.0428185247
 40
0.0874067146
 40
0.1351965937
 40
0.1871114788
 40
0.2435659813
 40
0.3045314255
 40
0.3696363265
 40
0.4382537317000001
 40
0.5095607422000003
 40
0.5826052818000002
 40
0.7296237191000003
 40
0.8016216151
 40
0.8712288464
 40
0.9376188208
 40
1.0
 40
1.0
 40
1.0
 40
1.0
 10
407.7927608461449
 20
205.659535944323
 30
0.0
 10
407.7409885531952
 20
205.629646538773
 30
0.0
 10
407.6428399979048
 20
205.554538671463
 30
0.0
 10
407.524728881575
 20
205.4051941441429
 30
0.0
 10
407.4364852607549
 20
205.222546188383
 30
0.0
 10
407.3793185259653
 20
205.011070362923
 30
0.0
 10
407.3538796512647
 20
204.775207085603
 30
0.0
 10
407.3603862016248
 20
204.519816741673
 30
0.0
 10
407.398537582015
 20
204.250158688153
 30
0.0
 10
407.4675249751551
 20
203.971884543153
 30
0.0
 10
407.5658573553253
 20
203.690823058033
 30
0.0
 10
407.7335478784648
 20
203.319795430773
 30
0.0
 10
407.9483464417551
 20
202.970395249463
 30
0.0
 10
408.2022015182444
 20
202.656935904323
 30
0.0
 10
408.405137042015
 20
202.448564972323
 30
0.0
 10
408.6174263621654
 20
202.269974012513
 30
0.0
 10
408.7673084017446
 20
202.169774459293
 30
0.0
 10
408.8427336699949
 20
202.126228647223
 30
0.0
  0
SPLINE
  5
1DFF8
330
1F
100
AcDbEntity
  8
0
100
AcDbSpline
210
0.0
220
0.0
230
1.0
 70
     8
 71
     3
 72
    22
 73
    18
 74
     0
 42
0.0000000001
 43
0.0000000001
 40
0.0
 40
0.0
 40
0.0
 40
0.0
 40
0.0428185247
 40
0.0874067146
 40
0.1351965937
 40
0.1871114788
 40
0.2435659813
 40
0.3045314255
 40
0.3696363265
 40
0.4382537317000001
 40
0.5095607422000003
 40
0.5826052818000002
 40
0.7296237191000003
 40
0.8016216151
 40
0.8712288464
 40
0.9376188208
 40
1.0
 40
1.0
 40
1.0
 40
1.0
 10
404.1865012476553
 20
216.069888447173
 30
0.0
 10
404.1347289547052
 20
216.039999041623
 30
0.0
 10
404.0365804006849
 20
215.964891174313
 30
0.0
 10
403.9184692830851
 20
215.815546646993
 30
0.0
 10
403.830225662265
 20
215.6328986912329
 30
0.0
 10
403.7730589274753
 20
215.421422864503
 30
0.0
 10
403.7476200527748
 20
215.185559587183
 30
0.0
 10
403.7541266044053
 20
214.930169244523
 30
0.0
 10
403.792277984795
 20
214.660511191003
 30
0.0
 10
403.8612653779351
 20
214.3822370460029
 30
0.0
 10
403.9595977581051
 20
214.1011755608829
 30
0.0
 10
404.1272882812451
 20
213.730147933623
 30
0.0
 10
404.3420868432653
 20
213.380747752313
 30
0.0
 10
404.5959419197544
 20
213.067288407173
 30
0.0
 10
404.7988774447948
 20
212.8589174751729
 30
0.0
 10
405.0111667649453
 20
212.6803265153629
 30
0.0
 10
405.1610488045246
 20
212.580126962143
 30
0.0
 10
405.236474071505
 20
212.536581150073
 30
0.0
  0
LINE
  5
1DFF9
330
1F
100
AcDbEntity
  8
0
100
AcDbLine
 10
422.3837355363746
 20
228.846037113773
 30
0.0
 11
432.2479192655075
 21
223.1510768192984
 31
0.0
  0
SPLINE
  5
1DFFA
330
1F
100
AcDbEntity
  8
0
100
AcDbSpline
210
0.0
220
0.0
230
1.0
 70
     8
 71
     3
 72
    15
 73
    11
 74
     0
 42
0.0000000001
 43
0.0000000001
 40
0.0
 40
0.0
 40
0.0
 40
0.0
 40
0.1141555516
 40
0.2373276756
 40
0.3669773296
 40
0.5000011
 40
0.6330247168000001
 40
0.7626739247
 40
0.885845342
 40
1.0
 40
1.0
 40
1.0
 40
1.0
 10
433.5207016431446
 20
220.619932242673
 30
0.0
 10
433.5207016431446
 20
220.731724391453
 30
0.0
 10
433.5002253201148
 20
220.9643556737129
 30
0.0
 10
433.4185968702152
 20
221.315305222003
 30
0.0
 10
433.2878328035754
 20
221.670788970013
 30
0.0
 10
433.1128200344746
 20
222.017439589893
 30
0.0
 10
432.9001168645048
 20
222.342329026473
 30
0.0
 10
432.6576402171247
 20
222.633313646433
 30
0.0
 10
432.3945231042948
 20
222.879477698173
 30
0.0
 10
432.2032968243152
 20
223.013523896933
 30
0.0
 10
432.1064821919349
 20
223.0694185857529
 30
0.0
  0
SPLINE
  5
1DFFB
330
1F
100
AcDbEntity
  8
0
100
AcDbSpline
210
0.0
220
0.0
230
1.0
 70
     8
 71
     3
 72
     9
 73
     5
 74
     0
 42
0.0000000001
 43
0.0000000001
 40
0.0
 40
0.0
 40
0.0
 40
0.0
 40
0.2420641317
 40
1.0
 40
1.0
 40
1.0
 40
1.0
 10
433.3792755759851
 20
221.273119828853
 30
0.0
 10
433.3792755759851
 20
221.286745628373
 30
0.0
 10
433.378155979545
 20
221.343033261543
 30
0.0
 10
433.3727658760246
 20
221.399209740503
 30
0.0
 10
433.3666640784746
 20
221.441435388843
 30
0.0
  0
LINE
  5
1DFFC
330
1F
100
AcDbEntity
  8
0
100
AcDbLine
 10
422.2422984722848
 20
228.764378874753
 30
0.0
 11
432.1064822014172
 21
223.0694185802785
 31
0.0
  0
LINE
  5
1DFFD
330
1F
100
AcDbEntity
  8
0
100
AcDbLine
 10
433.6621387072352
 20
208.045806542613
 30
0.0
 11
433.6621387072352
 21
220.7015904816929
 31
0.0
  0
LINE
  5
1DFFE
330
1F
100
AcDbEntity
  8
0
100
AcDbLine
 10
428.5709925509648
 20
213.842998541043
 30
0.0
 11
428.5709925509648
 21
208.2907821042229
 31
0.0
  0
DIMENSION
  5
1DFFF
330
1F
100
AcDbEntity
  8
DIM
100
AcDbDimension
  2
*D2
 10
441.1724027793916
 20
284.9072032086517
 30
0.0
 11
456.5838613146951
 21
284.9072032086517
 31
0.0
 70
   160
 71
     5
 42
31.60000000027998
  3
01
100
AcDbAlignedDimension
 13
472.7724027796717
 23
296.0394058643356
 33
0.0
 14
441.1724027793916
 24
296.0394058643356
 34
0.0
100
AcDbRotatedDimension
1001
ACAD
1000
DSTYLE
1002
{
1070
    41
1040
3.0
1070
   140
1040
3.5
1002
}
  0
DIMENSION
  5
1E000
330
1F
100
AcDbEntity
  8
DIM
100
AcDbDimension
  2
*D3
 10
494.5690718122706
 20
293.4894058652854
 30
0.0
 11
494.5690718122705
 21
303.8102882710144
 31
0.0
 70
   160
  1
{\fSimSun|b0|i0|c134|p2;□}<>
 71
     5
 42
20.99999999890008
  3
01
100
AcDbAlignedDimension
 13
505.7506012859776
 23
314.4894058641855
 33
0.0
 14
505.7506012859776
 24
293.4894058652854
 34
0.0
 50
270.0
100
AcDbRotatedDimension
1001
ACAD
1000
DSTYLE
1002
{
1070
    41
1040
3.0
1070
   140
1040
3.5
1002
}
  0
LINE
  5
1E27E
330
1F
100
AcDbEntity
  8
0
  6
Continuous
 62
     7
100
AcDbLine
 10
525.0946259380614
 20
301.1394058637037
 30
0.0
 11
525.0946259380614
 21
306.8394058657643
 31
0.0
  0
LINE
  5
1E27F
330
1F
100
AcDbEntity
  8
0
  6
Continuous
 62
     7
100
AcDbLine
 10
524.7946259386215
 20
306.8394058657643
 30
0.0
 11
524.7946259386215
 21
301.1394058637037
 31
0.0
  0
LINE
  5
1E280
330
1F
100
AcDbEntity
  8
0
  6
Continuous
 62
     7
100
AcDbLine
 10
524.1946259372014
 20
306.2394058643437
 30
0.0
 11
524.7946259386215
 21
306.8394058657643
 31
0.0
  0
LINE
  5
1E281
330
1F
100
AcDbEntity
  8
0
  6
Continuous
 62
     7
100
AcDbLine
 10
524.7946259386215
 20
301.1394058637037
 30
0.0
 11
525.0946259380614
 21
301.1394058637037
 31
0.0
  0
LINE
  5
1E282
330
1F
100
AcDbEntity
  8
0
  6
Continuous
 62
     7
100
AcDbLine
 10
524.7946259386215
 20
306.8394058657643
 30
0.0
 11
525.0946259380614
 21
306.8394058657643
 31
0.0
  0
LINE
  5
1E283
330
1F
100
AcDbEntity
  8
0
  6
Continuous
 62
     7
100
AcDbLine
 10
524.1946259372014
 20
301.7394058651244
 30
0.0
 11
524.7946259386215
 21
301.1394058637037
 31
0.0
  0
ENDSEC
  0
SECTION
  2
OBJECTS
  0
DICTIONARY
  5
C
330
0
100
AcDbDictionary
281
     1
  3
ACAD_COLOR
350
4FFE
  3
ACAD_GROUP
350
D
  3
ACAD_LAYOUT
350
1A
  3
ACAD_MATERIAL
350
4FE5
  3
ACAD_MLEADERSTYLE
350
5022
  3
ACAD_MLINESTYLE
350
17
  3
ACAD_PLOTSETTINGS
350
19
  3
ACAD_PLOTSTYLENAME
350
E
  3
ACAD_RENDER_PLOT_SETTINGS
350
6537
  3
ACAD_SCALELIST
350
5000
  3
ACAD_TABLESTYLE
350
4FE3
  3
ACAD_VISUALSTYLE
350
2A
  3
ACDB_RECOMPOSE_DATA
350
50EC
  3
AcDbVariableDictionary
350
5108
  3
ASE_INDEX_DICTIONARY
350
11ACE
  3
DWGPROPS
350
1E5E3
  0
DICTIONARY
  5
50EE
330
8
100
AcDbDictionary
280
     1
281
     1
  0
DICTIONARY
  5
50B8
330
2
100
AcDbDictionary
280
     1
281
     1
  3
ACAD_LAYERFILTERS
360
11B10
  3
ACAD_LAYERSTATES
360
50B9
  3
ACLYDICTIONARY
360
11B0F
  0
DICTIONARY
  5
50D0
330
10
100
AcDbDictionary
280
     1
281
     1
  3
ADSK_XREC_LAYER_RECONCILED
360
50D1
  0
DICTIONARY
  5
50D2
330
3B
100
AcDbDictionary
280
     1
281
     1
  3
ADSK_XREC_LAYER_RECONCILED
360
50D3
  0
DICTIONARY
  5
50AF
330
50AE
100
AcDbDictionary
280
     1
281
     1
  3
ADSK_XREC_LAYER_RECONCILED
360
50D4
  0
DICTIONARY
  5
67C0
330
1F
100
AcDbDictionary
280
     1
281
     1
  3
ACAD_SORTENTS
360
67C1
  0
DICTIONARY
  5
11E34
330
10FE8
100
AcDbDictionary
280
     1
281
     1
  0
DICTIONARY
  5
1E5CB
330
11DA0
100
AcDbDictionary
280
     1
281
     1
  3
ACAD_MTEXT_2008_RT
360
1E5CC
  3
ACAD_MTEXT_RT
360
1E5ED
  0
DICTIONARY
  5
1E5CD
330
11DE4
100
AcDbDictionary
280
     1
281
     1
  3
ACAD_MTEXT_2008_RT
360
1E5CE
  3
ACAD_MTEXT_RT
360
1E5EE
  0
DICTIONARY
  5
1E5CF
330
11DE5
100
AcDbDictionary
280
     1
281
     1
  3
ACAD_MTEXT_2008_RT
360
1E5D0
  3
ACAD_MTEXT_RT
360
1E5EF
  0
DICTIONARY
  5
1E5D1
330
11E0A
100
AcDbDictionary
280
     1
281
     1
  3
ACAD_MTEXT_2008_RT
360
1E5D2
  3
ACAD_MTEXT_RT
360
1E5F0
  0
DICTIONARY
  5
1E5D3
330
11E0D
100
AcDbDictionary
280
     1
281
     1
  3
ACAD_MTEXT_2008_RT
360
1E5D4
  3
ACAD_MTEXT_RT
360
1E5F1
  0
DICTIONARY
  5
1E5D5
330
11E0E
100
AcDbDictionary
280
     1
281
     1
  3
ACAD_MTEXT_2008_RT
360
1E5D6
  3
ACAD_MTEXT_RT
360
1E5F2
  0
DICTIONARY
  5
1E5D7
330
11E18
100
AcDbDictionary
280
     1
281
     1
  3
ACAD_MTEXT_2008_RT
360
1E5D8
  3
ACAD_MTEXT_RT
360
1E5F3
  0
DICTIONARY
  5
1E5D9
330
11E19
100
AcDbDictionary
280
     1
281
     1
  3
ACAD_MTEXT_2008_RT
360
1E5DA
  3
ACAD_MTEXT_RT
360
1E5F4
  0
DICTIONARY
  5
1E5DB
330
11E1A
100
AcDbDictionary
280
     1
281
     1
  3
ACAD_MTEXT_2008_RT
360
1E5DC
  3
ACAD_MTEXT_RT
360
1E5F5
  0
DICTIONARY
  5
1E5DD
330
11E28
100
AcDbDictionary
280
     1
281
     1
  3
ACAD_MTEXT_2008_RT
360
1E5DE
  3
ACAD_MTEXT_RT
360
1E5F6
  0
DICTIONARY
  5
1E5DF
330
11E29
100
AcDbDictionary
280
     1
281
     1
  3
ACAD_MTEXT_2008_RT
360
1E5E0
  3
ACAD_MTEXT_RT
360
1E5F7
  0
DICTIONARY
  5
1E5E1
330
11E2A
100
AcDbDictionary
280
     1
281
     1
  3
ACAD_MTEXT_2008_RT
360
1E5E2
  3
ACAD_MTEXT_RT
360
1E5F8
  0
DICTIONARY
  5
1E5C7
330
6E00
100
AcDbDictionary
280
     1
281
     1
  3
ACAD_MTEXT_2008_RT
360
1E5C8
  3
ACAD_MTEXT_RT
360
1E5EB
  0
DICTIONARY
  5
1E5C9
330
7228
100
AcDbDictionary
280
     1
281
     1
  3
ACAD_MTEXT_2008_RT
360
1E5CA
  3
ACAD_MTEXT_RT
360
1E5EC
  0
DICTIONARY
  5
4FFE
102
{ACAD_REACTORS
330
C
102
}
330
C
100
AcDbDictionary
281
     1
  0
DICTIONARY
  5
D
102
{ACAD_REACTORS
330
C
102
}
330
C
100
AcDbDictionary
281
     1
  0
DICTIONARY
  5
1A
102
{ACAD_REACTORS
330
C
102
}
330
C
100
AcDbDictionary
281
     1
  3
Layout1
350
1E
  3
Layout2
350
26
  3
Model
350
22
  0
DICTIONARY
  5
4FE5
102
{ACAD_REACTORS
330
C
102
}
330
C
100
AcDbDictionary
281
     1
  3
ByBlock
350
4FEE
  3
ByLayer
350
4FE6
  3
Global
350
4FF6
  0
DICTIONARY
  5
5022
102
{ACAD_REACTORS
330
C
102
}
330
C
100
AcDbDictionary
281
     1
  3
Standard
350
5023
  0
DICTIONARY
  5
17
102
{ACAD_REACTORS
330
C
102
}
330
C
100
AcDbDictionary
281
     1
  3
Standard
350
18
  0
DICTIONARY
  5
19
102
{ACAD_REACTORS
330
C
102
}
330
C
100
AcDbDictionary
281
     1
  0
ACDBDICTIONARYWDFLT
  5
E
102
{ACAD_REACTORS
330
C
102
}
330
C
100
AcDbDictionary
281
     1
  3
Normal
350
F
100
AcDbDictionaryWithDefault
340
F
  0
DICTIONARY
  5
6537
102
{ACAD_REACTORS
330
C
102
}
330
C
100
AcDbDictionary
281
     1
  3
{1DC63513-1B1A-422F-9880-65CFD2B8D533}
350
6538
  0
DICTIONARY
  5
5000
102
{ACAD_REACTORS
330
C
102
}
330
C
100
AcDbDictionary
281
     1
  3
A0
350
5001
  3
A1
350
5002
  3
A2
350
5003
  3
A3
350
5004
  3
A4
350
5005
  3
A5
350
5006
  3
A6
350
5007
  3
A7
350
5008
  3
A8
350
5009
  3
A9
350
500A
  3
B0
350
500B
  3
B1
350
500C
  3
B2
350
500D
  3
B3
350
500E
  3
B4
350
500F
  3
B5
350
5010
  3
B6
350
5011
  3
B7
350
5012
  3
B8
350
5013
  3
B9
350
5014
  3
C0
350
5015
  3
C1
350
5016
  3
C2
350
5017
  3
C3
350
5018
  3
C4
350
5019
  3
C5
350
501A
  3
C6
350
501B
  3
C7
350
501C
  3
C8
350
501D
  3
C9
350
501E
  3
D0
350
501F
  3
D1
350
5020
  3
D2
350
5021
  0
DICTIONARY
  5
4FE3
102
{ACAD_REACTORS
330
C
102
}
330
C
100
AcDbDictionary
281
     1
  3
Standard
350
4FFF
  0
DICTIONARY
  5
2A
102
{ACAD_REACTORS
330
C
102
}
330
C
100
AcDbDictionary
281
     1
  3
2dWireframe
350
2F
  3
3D Hidden
350
31
  3
3dWireframe
350
30
  3
Basic
350
32
  3
Brighten
350
36
  3
ColorChange
350
3A
  3
Conceptual
350
34
  3
Dim
350
35
  3
Facepattern
350
39
  3
Flat
350
2B
  3
FlatWithEdges
350
2C
  3
Gouraud
350
2D
  3
GouraudWithEdges
350
2E
  3
Linepattern
350
38
  3
Realistic
350
33
  3
Thicken
350
37
  0
XRECORD
  5
50EC
102
{ACAD_REACTORS
330
C
102
}
330
C
100
AcDbXrecord
280
     1
 90
        1
330
4FFF
330
6E00
330
7228
330
11DA0
330
11DE4
330
11DE5
330
11E0A
330
11E0D
330
11E0E
330
11E18
330
11E19
330
11E1A
330
11E28
330
11E29
330
11E2A
  0
DICTIONARY
  5
5108
102
{ACAD_REACTORS
330
C
102
}
330
C
100
AcDbDictionary
281
     1
  3
CANNOSCALE
350
510B
  3
CMLEADERSTYLE
350
510A
  3
CTABLESTYLE
350
5109
  3
DIMASSOC
350
510E
  3
INDEXCTL
350
510D
  3
SORTENTS
350
510C
  0
DICTIONARY
  5
11ACE
102
{ACAD_REACTORS
330
C
102
}
330
C
100
AcDbDictionary
281
     1
  3
ASEBlockHierarchyIndexRecord
350
11ACF
1001
DCO15
1040
1901610418.781
  0
XRECORD
  5
1E5E3
102
{ACAD_REACTORS
330
C
102
}
330
C
100
AcDbXrecord
280
     1
  1
DWGPROPS COOKIE
  2

  3

  4

  6

  7

  8
yl.gao
  9

300
=
301
=
302
=
303
=
304
=
305
=
306
=
307
=
308
=
309
=
 40
0.9034987037037037
 41
2456524.383632987
 42
2460291.591375382
  1

 90
        0
  0
DICTIONARY
  5
11B10
102
{ACAD_REACTORS
330
50B8
102
}
330
50B8
100
AcDbDictionary
281
     1
  0
DICTIONARY
  5
50B9
102
{ACAD_REACTORS
330
50B8
102
}
330
50B8
100
AcDbDictionary
281
     1
  0
DICTIONARY
  5
11B0F
102
{ACAD_REACTORS
330
50B8
102
}
330
50B8
100
AcDbDictionary
281
     1
1001
ACAD
1000
<All
  0
XRECORD
  5
50D1
102
{ACAD_REACTORS
330
50D0
102
}
330
50D0
100
AcDbXrecord
280
     1
290
     1
  0
XRECORD
  5
50D3
102
{ACAD_REACTORS
330
50D2
102
}
330
50D2
100
AcDbXrecord
280
     1
290
     1
  0
XRECORD
  5
50D4
102
{ACAD_REACTORS
330
50AF
102
}
330
50AF
100
AcDbXrecord
280
     1
290
     1
  0
SORTENTSTABLE
  5
67C1
102
{ACAD_REACTORS
330
67C0
102
}
330
67C0
100
AcDbSortentsTable
330
1F
331
3807
  5
3895
331
3943
  5
4842
331
7228
  5
99F4
331
4842
  5
4E94
331
65A3
  5
65A4
331
2FDE
  5
35C8
331
65B2
  5
65B3
331
65A1
  5
65A2
331
35D8
  5
3807
331
28AE
  5
2A38
331
2F93
  5
2FDE
331
2C65
  5
2EE7
331
65A4
  5
65A5
331
2EE7
  5
2F93
331
6E00
  5
99F3
331
3895
  5
3943
331
65A0
  5
65A1
331
35C8
  5
35D8
  0
XRECORD
  5
1E5CC
102
{ACAD_REACTORS
330
1E5CB
102
}
330
1E5CB
100
AcDbXrecord
280
     1
 40
1527.0
  1
\pxqc;BQ LUO
  0
XRECORD
  5
1E5ED
102
{ACAD_REACTORS
330
1E5CB
102
}
330
1E5CB
100
AcDbXrecord
280
     1
 40
1527.0
  1
\pxqc;BQ LUO
  0
XRECORD
  5
1E5CE
102
{ACAD_REACTORS
330
1E5CD
102
}
330
1E5CD
100
AcDbXrecord
280
     1
 40
1262561.0
  1
\pxqc;档案员{\H0.7x;\P\Fromans|c134;Filing Clerk\fFangSong_GB2312|b0|i0|c134|p49; }
  0
XRECORD
  5
1E5EE
102
{ACAD_REACTORS
330
1E5CD
102
}
330
1E5CD
100
AcDbXrecord
280
     1
 40
448513.0
  1
\pxqc;档案员{\H0.7x;\P\Fromans|c134;Filing Clerk\fFangSong_GB2312|b0|i0|c134|p49; }
  0
XRECORD
  5
1E5D0
102
{ACAD_REACTORS
330
1E5CF
102
}
330
1E5CF
100
AcDbXrecord
280
     1
 40
650528.0
  1
\pxqc;日期{\Fromans|c134;/Date}
  0
XRECORD
  5
1E5EF
102
{ACAD_REACTORS
330
1E5CF
102
}
330
1E5CF
100
AcDbXrecord
280
     1
 40
58584.0
  1
\pxqc;日期{\Fromans|c134;/Date}
  0
XRECORD
  5
1E5D2
102
{ACAD_REACTORS
330
1E5D1
102
}
330
1E5D1
100
AcDbXrecord
280
     1
 40
1836818.0
  1
\pxsm0.7;{\fFangSong_GB2312|b0|i0|c134|p49;标准化}\PStand.
  0
XRECORD
  5
1E5F0
102
{ACAD_REACTORS
330
1E5D1
102
}
330
1E5D1
100
AcDbXrecord
280
     1
 40
45027.0
  1
\pxsm0.7;{\fFangSong_GB2312|b0|i0|c134|p49;标准化}\PStand.
  0
XRECORD
  5
1E5D4
102
{ACAD_REACTORS
330
1E5D3
102
}
330
1E5D3
100
AcDbXrecord
280
     1
 40
118135.0
  1
\pxsm0.7;签名\P{\Fromans|c134;Signature} 
  0
XRECORD
  5
1E5F1
102
{ACAD_REACTORS
330
1E5D3
102
}
330
1E5D3
100
AcDbXrecord
280
     1
 40
48353.0
  1
\pxsm0.7;签名\P{\Fromans|c134;Signature} 
  0
XRECORD
  5
1E5D6
102
{ACAD_REACTORS
330
1E5D5
102
}
330
1E5D5
100
AcDbXrecord
280
     1
 40
108939.0
  1
\pxsm0.7,qc;处数\P{\Fromans|c134;Number }
  0
XRECORD
  5
1E5F2
102
{ACAD_REACTORS
330
1E5D5
102
}
330
1E5D5
100
AcDbXrecord
280
     1
 40
38427.0
  1
\pxsm0.7,qc;处数\P{\Fromans|c134;Number }
  0
XRECORD
  5
1E5D8
102
{ACAD_REACTORS
330
1E5D7
102
}
330
1E5D7
100
AcDbXrecord
280
     1
 40
125762.0
  1
\pxsm0.7;标记\P{\Fromans|c134;Mark}
  0
XRECORD
  5
1E5F3
102
{ACAD_REACTORS
330
1E5D7
102
}
330
1E5D7
100
AcDbXrecord
280
     1
 40
31190.0
  1
\pxsm0.7;标记\P{\Fromans|c134;Mark}
  0
XRECORD
  5
1E5DA
102
{ACAD_REACTORS
330
1E5D9
102
}
330
1E5D9
100
AcDbXrecord
280
     1
 40
111973.0
  1
\pxsm0.7;审核\P{\Fromans|c134;Checked}
  0
XRECORD
  5
1E5F4
102
{ACAD_REACTORS
330
1E5D9
102
}
330
1E5D9
100
AcDbXrecord
280
     1
 40
39355.0
  1
\pxsm0.7;审核\P{\Fromans|c134;Checked}
  0
XRECORD
  5
1E5DC
102
{ACAD_REACTORS
330
1E5DB
102
}
330
1E5DB
100
AcDbXrecord
280
     1
 40
137968.0
  1
\pxsm0.7;绘图\P{\Fromans|c134;Drawn\Ftxt|c134; }
  0
XRECORD
  5
1E5F5
102
{ACAD_REACTORS
330
1E5DB
102
}
330
1E5DB
100
AcDbXrecord
280
     1
 40
66730.0
  1
\pxsm0.7;绘图\P{\Fromans|c134;Drawn\Ftxt|c134; }
  0
XRECORD
  5
1E5DE
102
{ACAD_REACTORS
330
1E5DD
102
}
330
1E5DD
100
AcDbXrecord
280
     1
 40
106320.0
  1
\pxsm0.7;批准\P{\Fromans|c134;Approved}
  0
XRECORD
  5
1E5F6
102
{ACAD_REACTORS
330
1E5DD
102
}
330
1E5DD
100
AcDbXrecord
280
     1
 40
43787.0
  1
\pxsm0.7;批准\P{\Fromans|c134;Approved}
  0
XRECORD
  5
1E5E0
102
{ACAD_REACTORS
330
1E5DF
102
}
330
1E5DF
100
AcDbXrecord
280
     1
 40
127283.0
  1
\pxsm0.7;工艺\P{\Fromans|c134;Process}
  0
XRECORD
  5
1E5F7
102
{ACAD_REACTORS
330
1E5DF
102
}
330
1E5DF
100
AcDbXrecord
280
     1
 40
40691.0
  1
\pxsm0.7;工艺\P{\Fromans|c134;Process}
  0
XRECORD
  5
1E5E2
102
{ACAD_REACTORS
330
1E5E1
102
}
330
1E5E1
100
AcDbXrecord
280
     1
 40
106220.0
  1
\pxsm0.7;日期\P{\Fromans|c134;Date}
  0
XRECORD
  5
1E5F8
102
{ACAD_REACTORS
330
1E5E1
102
}
330
1E5E1
100
AcDbXrecord
280
     1
 40
30977.0
  1
\pxsm0.7;日期\P{\Fromans|c134;Date}
  0
XRECORD
  5
1E5C8
102
{ACAD_REACTORS
330
1E5C7
102
}
330
1E5C7
100
AcDbXrecord
280
     1
 40
1624582787.0
  1
\A1;\pxql;技术参数:\P插芯：\P- 插针数: {\Fromans|c134;7+PE\P}- 额定电流: {\Fromans|c134;10A}\P- 额定电压: {\Fromans|c134;250V\Ftxt|c134;\P}- 额定脉冲电压: {\Fromans|c134;4kV}\P- 污染等级: {\Fromans|c134;3\Ftxt|c134;\P}- 依据UL/CSA的额定电压: {\Fromans|c134;600V\Ftxt|c134;\P}- 绝缘阻抗: ≥{
  1
\Fromans|c134;10\H0.7x;\S10^ ;\H1.4286x;Ω\H0.99998x;\P}- 材料: 聚碳酸酯\P- 颜色: {\Fromans|c134;RAL 7032}（浅灰色）\P- 温度范围: {\Fromans|c134;-40}℃{\Fromans|c134; - +125}℃{\Fromans|c134;\P}- 依据UL 94的阻燃等级: {\Fromans|c134;V0}\P\pq*;- 可插拔次数: ≥{\Fromans|c134;500\P\pql;}
  1
插针：\P- 接线方式: 冷压连接\P- 材料: 铜合金\P- 表面处理：\P\pq*;   · 镀银\P\pql;   · 银金\P- 接触电阻: ≤{\Fromans|c134;3mΩ\P}- 线径范围: {\Fromans|c134;0.14-2.5mm\H0.7x;\S2^ ;\H1.4286x;(26-14 AWG)}\P- 工具：\P\pq*;   · 冷压钳: {\Fromans|c134;TL02G\P\pql;}   · 退针器: {\Fromans|c134;TL00\P}适配
  1
外壳：匹配{\Fromans|c134;3A}(仅适用于塑料）外壳
  0
XRECORD
  5
1E5EB
102
{ACAD_REACTORS
330
1E5C7
102
}
330
1E5C7
100
AcDbXrecord
280
     1
 40
12310258.0
  1
\A1;\pxql;技术参数:\P插芯：\P- 插针数: {\Fromans|c134;7+PE\P}- 额定电流: {\Fromans|c134;10A}\P- 额定电压: {\Fromans|c134;250V\Ftxt|c134;\P}- 额定脉冲电压: {\Fromans|c134;4kV}\P- 污染等级: {\Fromans|c134;3\Ftxt|c134;\P}- 依据UL/CSA的额定电压: {\Fromans|c134;600V\Ftxt|c134;\P}- 绝缘阻抗: ≥{
  1
\Fromans|c134;10\H0.7x;\S10^ ;\H1.4286x;Ω\H0.99998x;\P}- 材料: 聚碳酸酯\P- 颜色: {\Fromans|c134;RAL 7032}（浅灰色）\P- 温度范围: {\Fromans|c134;-40}℃{\Fromans|c134; - +125}℃{\Fromans|c134;\P}- 依据UL 94的阻燃等级: {\Fromans|c134;V0}\P\pq*;- 可插拔次数: ≥{\Fromans|c134;500\P\pql;}
  1
插针：\P- 接线方式: 冷压连接\P- 材料: 铜合金\P- 表面处理：\P\pq*;   · 镀银\P\pql;   · 银金\P- 接触电阻: ≤{\Fromans|c134;3mΩ\P}- 线径范围: {\Fromans|c134;0.14-2.5mm\H0.7x;\S2^ ;\H1.4286x;(26-14 AWG)}\P- 工具：\P\pq*;   · 冷压钳: {\Fromans|c134;TL02G\P\pql;}   · 退针器: {\Fromans|c134;TL00\P}适配
  1
外壳：匹配{\Fromans|c134;3A}(仅适用于塑料）外壳
  0
XRECORD
  5
1E5CA
102
{ACAD_REACTORS
330
1E5C9
102
}
330
1E5C9
100
AcDbXrecord
280
     1
 40
58500347.0
  1
\A1;\pxql;Technical specification:\PInserts:\P- No. of contact: 7+PE\P- Rated current: 10A\P- Rated voltage: 250V\P- Rated impulse voltage: 4kV\P- Pollution degree: 3\P- Rated voltage acc.to UL/CSA: 600V\P- Insulation resistance: {\fFangSong_GB2312|b
  1
0|i0|c134|p49;≥}10{\H0.7x;\S10^ ;}Ω\P- Material: polycarbonate\P- Colour: RAL 7032(light grey) \P- Temperature range: -40{\fArial|b0|i0|c0|p34;℃} - +125{\fArial|b0|i0|c0|p34;℃}\P- Flammability acc.to UL 94: V0\P- Mating cycles: {\fFangSong_GB2312|b0|i
  1
0|c134|p49;≥}500\PContacts:\P- Terminal: crimp terminal\P- Material: copper alloy\P- Surface:\P   {\fArial|b0|i0|c0|p34;·} Hard-silver plated\P   {\fArial|b0|i0|c0|p34;·} Hard-gold plated\P- Contact resistance: {\fFangSong_GB2312|b0|i0|c134|p49;≤}3mΩ
  1
\P- Wire gauge: 0.14-2.5mm{\H0.7x;\S2^ ;}(26-14 AWG)\P- Tools:\P   {\fISOCPEUR|b0|i0|c0|p34;·} Crimp contact tool: TL02G\P   {\fISOCPEUR|b0|i0|c0|p34;·} Contact removal tool: TL00\PHood/Housings: size 3A(only for plastic)
  0
XRECORD
  5
1E5EC
102
{ACAD_REACTORS
330
1E5C9
102
}
330
1E5C9
100
AcDbXrecord
280
     1
 40
41081994.0
  1
\A1;\pxql;Technical specification:\PInserts:\P- No. of contact: 7+PE\P- Rated current: 10A\P- Rated voltage: 250V\P- Rated impulse voltage: 4kV\P- Pollution degree: 3\P- Rated voltage acc.to UL/CSA: 600V\P- Insulation resistance: {\fFangSong_GB2312|b
  1
0|i0|c134|p49;≥}10{\H0.7x;\S10^ ;}Ω\P- Material: polycarbonate\P- Colour: RAL 7032(light grey) \P- Temperature range: -40{\fArial|b0|i0|c0|p34;℃} - +125{\fArial|b0|i0|c0|p34;℃}\P- Flammability acc.to UL 94: V0\P- Mating cycles: {\fFangSong_GB2312|b0|i
  1
0|c134|p49;≥}500\PContacts:\P- Terminal: crimp terminal\P- Material: copper alloy\P- Surface:\P   {\fArial|b0|i0|c0|p34;·} Hard-silver plated\P   {\fArial|b0|i0|c0|p34;·} Hard-gold plated\P- Contact resistance: {\fFangSong_GB2312|b0|i0|c134|p49;≤}3mΩ
  1
\P- Wire gauge: 0.14-2.5mm{\H0.7x;\S2^ ;}(26-14 AWG)\P- Tools:\P   {\fISOCPEUR|b0|i0|c0|p34;·} Crimp contact tool: TL02G\P   {\fISOCPEUR|b0|i0|c0|p34;·} Contact removal tool: TL00\PHood/Housings: size 3A(only for plastic)
  0
LAYOUT
  5
1E
102
{ACAD_XDICTIONARY
360
1E5E4
102
}
102
{ACAD_REACTORS
330
1A
102
}
330
1A
100
AcDbPlotSettings
  1

  2
none_device
  4

  6

 40
0.0
 41
0.0
 42
0.0
 43
0.0
 44
0.0
 45
0.0
 46
0.0
 47
0.0
 48
0.0
 49
0.0
140
0.0
141
0.0
142
1.0
143
1.0
 70
   688
 72
     0
 73
     0
 74
     5
  7

 75
    16
147
1.0
148
0.0
149
0.0
100
AcDbLayout
  1
Layout1
 70
     1
 71
     1
 10
0.0
 20
0.0
 11
12.0
 21
9.0
 12
0.0
 22
0.0
 32
0.0
 14
1.000000000000000E+20
 24
1.000000000000000E+20
 34
1.000000000000000E+20
 15
-1.000000000000000E+20
 25
-1.000000000000000E+20
 35
-1.000000000000000E+20
146
0.0
 13
0.0
 23
0.0
 33
0.0
 16
1.0
 26
0.0
 36
0.0
 17
0.0
 27
1.0
 37
0.0
 76
     0
330
1B
  0
LAYOUT
  5
26
102
{ACAD_XDICTIONARY
360
1E5E8
102
}
102
{ACAD_REACTORS
330
1A
102
}
330
1A
100
AcDbPlotSettings
  1

  2
none_device
  4

  6

 40
0.0
 41
0.0
 42
0.0
 43
0.0
 44
0.0
 45
0.0
 46
0.0
 47
0.0
 48
0.0
 49
0.0
140
0.0
141
0.0
142
1.0
143
1.0
 70
   688
 72
     0
 73
     0
 74
     5
  7

 75
    16
147
1.0
148
0.0
149
0.0
100
AcDbLayout
  1
Layout2
 70
     1
 71
     2
 10
0.0
 20
0.0
 11
0.0
 21
0.0
 12
0.0
 22
0.0
 32
0.0
 14
0.0
 24
0.0
 34
0.0
 15
0.0
 25
0.0
 35
0.0
146
0.0
 13
0.0
 23
0.0
 33
0.0
 16
1.0
 26
0.0
 36
0.0
 17
0.0
 27
1.0
 37
0.0
 76
     0
330
23
  0
LAYOUT
  5
22
102
{ACAD_XDICTIONARY
360
1E5E6
102
}
102
{ACAD_REACTORS
330
1A
102
}
330
1A
100
AcDbPlotSettings
  1

  2
Adobe PDF Converter.pc3
  4
A4
  6

 40
3.174999952316281
 41
3.174999952316281
 42
3.17498779296875
 43
3.175003051757812
 44
297.0318298339844
 45
209.9733276367186
 46
0.0000000000000076
 47
1.630241740247063
 48
246.9897427644609
 49
39.36804549891383
140
544.952097801264
141
244.7492402188181
142
1.0
143
1.025046328645055
 70
  3764
 72
     1
 73
     0
 74
     4
  7
monochrome.ctb
 75
     0
147
0.9755656618192436
148
-246.9897427644609
149
-39.36804549891383
100
AcDbLayout
  1
Model
 70
     1
 71
     0
 10
0.0
 20
0.0
 11
12.0
 21
9.0
 12
0.0
 22
0.0
 32
0.0
 14
1.000000000000000E+20
 24
1.000000000000000E+20
 34
1.000000000000000E+20
 15
-1.000000000000000E+20
 25
-1.000000000000000E+20
 35
-1.000000000000000E+20
146
0.0
 13
0.0
 23
0.0
 33
0.0
 16
1.0
 26
0.0
 36
0.0
 17
0.0
 27
1.0
 37
0.0
 76
     0
330
1F
331
29
1001
ACAD_PSEXT
1000
Adobe PDF Converter.pc3
1000
Adobe PDF Converter
1000
桌面\*.pdf
1000

1070
     0
  0
MATERIAL
  5
4FEE
102
{ACAD_XDICTIONARY
360
4FEF
102
}
102
{ACAD_REACTORS
330
4FE5
102
}
330
4FE5
100
AcDbMaterial
  1
ByBlock
 72
     0
 43
0.0208333333333333
 43
0.0
 43
0.0
 43
0.0
 43
0.0
 43
0.0208333333333333
 43
0.0
 43
0.0
 43
0.0
 43
0.0
 43
1.0
 43
0.0
 43
0.0
 43
0.0
 43
0.0
 43
1.0
 77
     0
 47
0.0208333333333333
 47
0.0
 47
0.0
 47
0.0
 47
0.0
 47
0.0208333333333333
 47
0.0
 47
0.0
 47
0.0
 47
0.0
 47
1.0
 47
0.0
 47
0.0
 47
0.0
 47
0.0
 47
1.0
171
     0
 49
0.0208333333333333
 49
0.0
 49
0.0
 49
0.0
 49
0.0
 49
0.0208333333333333
 49
0.0
 49
0.0
 49
0.0
 49
0.0
 49
1.0
 49
0.0
 49
0.0
 49
0.0
 49
0.0
 49
1.0
175
     0
142
0.0208333333333333
142
0.0
142
0.0
142
0.0
142
0.0
142
0.0208333333333333
142
0.0
142
0.0
142
0.0
142
0.0
142
1.0
142
0.0
142
0.0
142
0.0
142
0.0
142
1.0
179
     0
144
0.0208333333333333
144
0.0
144
0.0
144
0.0
144
0.0
144
0.0208333333333333
144
0.0
144
0.0
144
0.0
144
0.0
144
1.0
144
0.0
144
0.0
144
0.0
144
0.0
144
1.0
147
0.0208333333333333
147
0.0
147
0.0
147
0.0
147
0.0
147
0.0208333333333333
147
0.0
147
0.0
147
0.0
147
0.0
147
1.0
147
0.0
147
0.0
147
0.0
147
0.0
147
1.0
  0
MATERIAL
  5
4FE6
102
{ACAD_XDICTIONARY
360
4FE7
102
}
102
{ACAD_REACTORS
330
4FE5
102
}
330
4FE5
100
AcDbMaterial
  1
ByLayer
 72
     0
 43
0.0208333333333333
 43
0.0
 43
0.0
 43
0.0
 43
0.0
 43
0.0208333333333333
 43
0.0
 43
0.0
 43
0.0
 43
0.0
 43
1.0
 43
0.0
 43
0.0
 43
0.0
 43
0.0
 43
1.0
 77
     0
 47
0.0208333333333333
 47
0.0
 47
0.0
 47
0.0
 47
0.0
 47
0.0208333333333333
 47
0.0
 47
0.0
 47
0.0
 47
0.0
 47
1.0
 47
0.0
 47
0.0
 47
0.0
 47
0.0
 47
1.0
171
     0
 49
0.0208333333333333
 49
0.0
 49
0.0
 49
0.0
 49
0.0
 49
0.0208333333333333
 49
0.0
 49
0.0
 49
0.0
 49
0.0
 49
1.0
 49
0.0
 49
0.0
 49
0.0
 49
0.0
 49
1.0
175
     0
142
0.0208333333333333
142
0.0
142
0.0
142
0.0
142
0.0
142
0.0208333333333333
142
0.0
142
0.0
142
0.0
142
0.0
142
1.0
142
0.0
142
0.0
142
0.0
142
0.0
142
1.0
179
     0
144
0.0208333333333333
144
0.0
144
0.0
144
0.0
144
0.0
144
0.0208333333333333
144
0.0
144
0.0
144
0.0
144
0.0
144
1.0
144
0.0
144
0.0
144
0.0
144
0.0
144
1.0
147
0.0208333333333333
147
0.0
147
0.0
147
0.0
147
0.0
147
0.0208333333333333
147
0.0
147
0.0
147
0.0
147
0.0
147
1.0
147
0.0
147
0.0
147
0.0
147
0.0
147
1.0
  0
MATERIAL
  5
4FF6
102
{ACAD_XDICTIONARY
360
4FF7
102
}
102
{ACAD_REACTORS
330
4FE5
102
}
330
4FE5
100
AcDbMaterial
  1
Global
 72
     0
 43
0.0208333333333333
 43
0.0
 43
0.0
 43
0.0
 43
0.0
 43
0.0208333333333333
 43
0.0
 43
0.0
 43
0.0
 43
0.0
 43
1.0
 43
0.0
 43
0.0
 43
0.0
 43
0.0
 43
1.0
 77
     0
 47
0.0208333333333333
 47
0.0
 47
0.0
 47
0.0
 47
0.0
 47
0.0208333333333333
 47
0.0
 47
0.0
 47
0.0
 47
0.0
 47
1.0
 47
0.0
 47
0.0
 47
0.0
 47
0.0
 47
1.0
171
     0
 49
0.0208333333333333
 49
0.0
 49
0.0
 49
0.0
 49
0.0
 49
0.0208333333333333
 49
0.0
 49
0.0
 49
0.0
 49
0.0
 49
1.0
 49
0.0
 49
0.0
 49
0.0
 49
0.0
 49
1.0
175
     0
142
0.0208333333333333
142
0.0
142
0.0
142
0.0
142
0.0
142
0.0208333333333333
142
0.0
142
0.0
142
0.0
142
0.0
142
1.0
142
0.0
142
0.0
142
0.0
142
0.0
142
1.0
179
     0
144
0.0208333333333333
144
0.0
144
0.0
144
0.0
144
0.0
144
0.0208333333333333
144
0.0
144
0.0
144
0.0
144
0.0
144
1.0
144
0.0
144
0.0
144
0.0
144
0.0
144
1.0
147
0.0208333333333333
147
0.0
147
0.0
147
0.0
147
0.0
147
0.0208333333333333
147
0.0
147
0.0
147
0.0
147
0.0
147
1.0
147
0.0
147
0.0
147
0.0
147
0.0
147
1.0
  0
MLEADERSTYLE
  5
5023
102
{ACAD_REACTORS
330
5022
102
}
330
5022
100
AcDbMLeaderStyle
170
     2
171
     1
172
     0
 90
        2
 40
0.0
 41
0.0
173
     1
 91
-1056964608
340
14
 92
       -2
290
     1
 42
0.09
291
     1
 43
0.36
  3
Standard
 44
0.18
300

342
11
174
     1
178
     6
175
     1
176
     0
 93
-1056964608
 45
0.18
292
     0
297
     0
 46
0.18
 94
-1056964608
 47
1.0
 49
1.0
140
1.0
293
     1
141
0.0
294
     1
177
     0
142
1.0
295
     0
296
     0
143
0.125
1001
ACAD_MLEADERVER
1070
     2
  0
MLINESTYLE
  5
18
102
{ACAD_REACTORS
330
17
102
}
330
17
100
AcDbMlineStyle
  2
STANDARD
 70
     0
  3

 62
   256
 51
90.0
 52
90.0
 71
     2
 49
0.5
 62
   256
  6
BYLAYER
 49
-0.5
 62
   256
  6
BYLAYER
  0
ACDBPLACEHOLDER
  5
F
102
{ACAD_REACTORS
330
E
102
}
330
E
  0
MENTALRAYRENDERSETTINGS
  5
6538
102
{ACAD_REACTORS
330
6537
102
}
330
6537
100
AcDbRenderSettings
 90
        2
  1
中
290
     1
290
     1
290
     1
290
     1
  1

  1
渲染质量好于“低级”。包括纹理过滤并且强制双面处于激活状态。处理中等级反锯齿和 5 反射/折射的光线跟踪深度。
 90
        0
100
AcDbMentalRayRenderSettings
 90
        2
 90
        0
 90
        1
 70
     2
 40
3.0
 40
3.0
 40
0.0500000007450581
 40
0.0500000007450581
 40
0.0500000007450581
 40
0.0500000007450581
 70
     0
290
     0
290
     1
 90
        5
 90
        5
 90
        5
290
     0
 90
      500
290
     0
 40
1.0
 90
    10000
 90
        5
 90
        5
 90
        5
290
     0
 90
      200
290
     0
290
     0
290
     0
 40
0.1
 40
1.0
 40
1500.0
 70
     0
 70
     0
 40
10.0
 70
     0
 70
     0
290
     0
  1

 90
       32
 70
     0
 90
     1048
290
     0
 40
1.0
  0
SCALE
  5
5001
102
{ACAD_REACTORS
330
5000
102
}
330
5000
100
AcDbScale
 70
     0
300
1:1
140
1.0
141
1.0
290
     1
  0
SCALE
  5
5002
102
{ACAD_REACTORS
330
5000
102
}
330
5000
100
AcDbScale
 70
     0
300
1:2
140
1.0
141
2.0
290
     0
  0
SCALE
  5
5003
102
{ACAD_REACTORS
330
5000
102
}
330
5000
100
AcDbScale
 70
     0
300
1:4
140
1.0
141
4.0
290
     0
  0
SCALE
  5
5004
102
{ACAD_REACTORS
330
5000
102
}
330
5000
100
AcDbScale
 70
     0
300
1:5
140
1.0
141
5.0
290
     0
  0
SCALE
  5
5005
102
{ACAD_REACTORS
330
5000
102
}
330
5000
100
AcDbScale
 70
     0
300
1:8
140
1.0
141
8.0
290
     0
  0
SCALE
  5
5006
102
{ACAD_REACTORS
330
5000
102
}
330
5000
100
AcDbScale
 70
     0
300
1:10
140
1.0
141
10.0
290
     0
  0
SCALE
  5
5007
102
{ACAD_REACTORS
330
5000
102
}
330
5000
100
AcDbScale
 70
     0
300
1:16
140
1.0
141
16.0
290
     0
  0
SCALE
  5
5008
102
{ACAD_REACTORS
330
5000
102
}
330
5000
100
AcDbScale
 70
     0
300
1:20
140
1.0
141
20.0
290
     0
  0
SCALE
  5
5009
102
{ACAD_REACTORS
330
5000
102
}
330
5000
100
AcDbScale
 70
     0
300
1:30
140
1.0
141
30.0
290
     0
  0
SCALE
  5
500A
102
{ACAD_REACTORS
330
5000
102
}
330
5000
100
AcDbScale
 70
     0
300
1:40
140
1.0
141
40.0
290
     0
  0
SCALE
  5
500B
102
{ACAD_REACTORS
330
5000
102
}
330
5000
100
AcDbScale
 70
     0
300
1:50
140
1.0
141
50.0
290
     0
  0
SCALE
  5
500C
102
{ACAD_REACTORS
330
5000
102
}
330
5000
100
AcDbScale
 70
     0
300
1:100
140
1.0
141
100.0
290
     0
  0
SCALE
  5
500D
102
{ACAD_REACTORS
330
5000
102
}
330
5000
100
AcDbScale
 70
     0
300
2:1
140
2.0
141
1.0
290
     0
  0
SCALE
  5
500E
102
{ACAD_REACTORS
330
5000
102
}
330
5000
100
AcDbScale
 70
     0
300
4:1
140
4.0
141
1.0
290
     0
  0
SCALE
  5
500F
102
{ACAD_REACTORS
330
5000
102
}
330
5000
100
AcDbScale
 70
     0
300
8:1
140
8.0
141
1.0
290
     0
  0
SCALE
  5
5010
102
{ACAD_REACTORS
330
5000
102
}
330
5000
100
AcDbScale
 70
     0
300
10:1
140
10.0
141
1.0
290
     0
  0
SCALE
  5
5011
102
{ACAD_REACTORS
330
5000
102
}
330
5000
100
AcDbScale
 70
     0
300
100:1
140
100.0
141
1.0
290
     0
  0
SCALE
  5
5012
102
{ACAD_REACTORS
330
5000
102
}
330
5000
100
AcDbScale
 70
     0
300
1/128" = 1'-0"
140
0.0078125
141
12.0
290
     0
  0
SCALE
  5
5013
102
{ACAD_REACTORS
330
5000
102
}
330
5000
100
AcDbScale
 70
     0
300
1/64" = 1'-0"
140
0.015625
141
12.0
290
     0
  0
SCALE
  5
5014
102
{ACAD_REACTORS
330
5000
102
}
330
5000
100
AcDbScale
 70
     0
300
1/32" = 1'-0"
140
0.03125
141
12.0
290
     0
  0
SCALE
  5
5015
102
{ACAD_REACTORS
330
5000
102
}
330
5000
100
AcDbScale
 70
     0
300
1/16" = 1'-0"
140
0.0625
141
12.0
290
     0
  0
SCALE
  5
5016
102
{ACAD_REACTORS
330
5000
102
}
330
5000
100
AcDbScale
 70
     0
300
3/32" = 1'-0"
140
0.09375
141
12.0
290
     0
  0
SCALE
  5
5017
102
{ACAD_REACTORS
330
5000
102
}
330
5000
100
AcDbScale
 70
     0
300
1/8" = 1'-0"
140
0.125
141
12.0
290
     0
  0
SCALE
  5
5018
102
{ACAD_REACTORS
330
5000
102
}
330
5000
100
AcDbScale
 70
     0
300
3/16" = 1'-0"
140
0.1875
141
12.0
290
     0
  0
SCALE
  5
5019
102
{ACAD_REACTORS
330
5000
102
}
330
5000
100
AcDbScale
 70
     0
300
1/4" = 1'-0"
140
0.25
141
12.0
290
     0
  0
SCALE
  5
501A
102
{ACAD_REACTORS
330
5000
102
}
330
5000
100
AcDbScale
 70
     0
300
3/8" = 1'-0"
140
0.375
141
12.0
290
     0
  0
SCALE
  5
501B
102
{ACAD_REACTORS
330
5000
102
}
330
5000
100
AcDbScale
 70
     0
300
1/2" = 1'-0"
140
0.5
141
12.0
290
     0
  0
SCALE
  5
501C
102
{ACAD_REACTORS
330
5000
102
}
330
5000
100
AcDbScale
 70
     0
300
3/4" = 1'-0"
140
0.75
141
12.0
290
     0
  0
SCALE
  5
501D
102
{ACAD_REACTORS
330
5000
102
}
330
5000
100
AcDbScale
 70
     0
300
1" = 1'-0"
140
1.0
141
12.0
290
     0
  0
SCALE
  5
501E
102
{ACAD_REACTORS
330
5000
102
}
330
5000
100
AcDbScale
 70
     0
300
1-1/2" = 1'-0"
140
1.5
141
12.0
290
     0
  0
SCALE
  5
501F
102
{ACAD_REACTORS
330
5000
102
}
330
5000
100
AcDbScale
 70
     0
300
3" = 1'-0"
140
3.0
141
12.0
290
     0
  0
SCALE
  5
5020
102
{ACAD_REACTORS
330
5000
102
}
330
5000
100
AcDbScale
 70
     0
300
6" = 1'-0"
140
6.0
141
12.0
290
     0
  0
SCALE
  5
5021
102
{ACAD_REACTORS
330
5000
102
}
330
5000
100
AcDbScale
 70
     0
300
1'-0" = 1'-0"
140
12.0
141
12.0
290
     0
  0
TABLESTYLE
  5
4FFF
102
{ACAD_XDICTIONARY
360
50D6
102
}
102
{ACAD_REACTORS
330
4FE3
102
}
330
4FE3
100
AcDbTableStyle
  3
Standard
 70
     0
 71
     0
 40
0.06
 41
0.06
280
     0
281
     0
  7
Standard
140
0.18
170
     2
 62
     0
 63
     7
283
     0
274
    -2
284
     1
 64
     0
275
    -2
285
     1
 65
     0
276
    -2
286
     1
 66
     0
277
    -2
287
     1
 67
     0
278
    -2
288
     1
 68
     0
279
    -2
289
     1
 69
     0
  7
Standard
140
0.25
170
     5
 62
     0
 63
     7
283
     0
274
    -2
284
     1
 64
     0
275
    -2
285
     1
 65
     0
276
    -2
286
     1
 66
     0
277
    -2
287
     1
 67
     0
278
    -2
288
     1
 68
     0
279
    -2
289
     1
 69
     0
  7
Standard
140
0.18
170
     5
 62
     0
 63
     7
283
     0
274
    -2
284
     1
 64
     0
275
    -2
285
     1
 65
     0
276
    -2
286
     1
 66
     0
277
    -2
287
     1
 67
     0
278
    -2
288
     1
 68
     0
279
    -2
289
     1
 69
     0
  0
VISUALSTYLE
  5
2F
102
{ACAD_REACTORS
330
2A
102
}
330
2A
100
AcDbVisualStyle
  2
2dWireframe
 70
     4
 71
     0
 72
     2
 73
     0
 90
        0
 40
-0.6
 41
-30.0
 62
     5
 63
     7
 74
     1
 91
        4
 64
     7
 65
   257
 75
     1
175
     1
 42
1.0
 92
        0
 66
   257
 43
1.0
 76
     1
 77
     6
 78
     2
 67
     7
 79
     5
170
     0
171
     0
290
     0
174
     0
 93
        1
 44
0.0
173
     0
291
     0
 45
0.0
1001
ACAD
1000
AcDbSavedByObjectVersion
1070
     0
1000
AcDbSavedByObjectVersion
1070
     0
1000
AcDbSavedByObjectVersion
1070
     0
1000
AcDbSavedByObjectVersion
1070
     0
1000
AcDbSavedByObjectVersion
1070
     0
1000
AcDbSavedByObjectVersion
1070
     0
1000
AcDbSavedByObjectVersion
1070
     0
1000
AcDbSavedByObjectVersion
1070
     0
1000
AcDbSavedByObjectVersion
1070
     0
1000
AcDbSavedByObjectVersion
1070
     0
1000
AcDbSavedByObjectVersion
1070
     0
1000
AcDbSavedByObjectVersion
1070
     0
1000
AcDbSavedByObjectVersion
1070
     0
1000
AcDbSavedByObjectVersion
1070
     0
1000
AcDbSavedByObjectVersion
1070
     0
1000
AcDbSavedByObjectVersion
1070
     0
1000
AcDbSavedByObjectVersion
1070
     0
1000
AcDbSavedByObjectVersion
1070
     0
1000
AcDbSavedByObjectVersion
1070
     0
1000
AcDbSavedByObjectVersion
1070
     0
1000
AcDbSavedByObjectVersion
1070
     0
1000
AcDbSavedByObjectVersion
1070
     0
1000
AcDbSavedByObjectVersion
1070
     0
1000
AcDbSavedByObjectVersion
1070
     0
1000
AcDbSavedByObjectVersion
1070
     0
1000
AcDbSavedByObjectVersion
1070
     0
1000
AcDbSavedByObjectVersion
1070
     0
1000
AcDbSavedByObjectVersion
1070
     0
1000
AcDbSavedByObjectVersion
1070
     0
1000
AcDbSavedByObjectVersion
1070
     0
1000
AcDbSavedByObjectVersion
1070
     0
1000
AcDbSavedByObjectVersion
1070
     0
1000
AcDbSavedByObjectVersion
1070
     0
1000
AcDbSavedByObjectVersion
1070
     0
1000
AcDbSavedByObjectVersion
1070
     0
1000
AcDbSavedByObjectVersion
1070
     0
1000
AcDbSavedByObjectVersion
1070
     0
1000
AcDbSavedByObjectVersion
1070
     0
1000
AcDbSavedByObjectVersion
1070
     0
1000
AcDbSavedByObjectVersion
1070
     0
1000
AcDbSavedByObjectVersion
1070
     0
1000
AcDbSavedByObjectVersion
1070
     0
1000
AcDbSavedByObjectVersion
1070
     0
1000
AcDbSavedByObjectVersion
1070
     0
1000
AcDbSavedByObjectVersion
1070
     0
1000
AcDbSavedByObjectVersion
1070
     0
1000
AcDbSavedByObjectVersion
1070
     0
1000
AcDbSavedByObjectVersion
1070
     0
1000
AcDbSavedByObjectVersion
1070
     0
1000
AcDbSavedByObjectVersion
1070
     0
  0
VISUALSTYLE
  5
31
102
{ACAD_REACTORS
330
2A
102
}
330
2A
100
AcDbVisualStyle
  2
3D Hidden
 70
     6
 71
     1
 72
     2
 73
     2
 90
        0
 40
-0.6
 41
-30.0
 62
     5
 63
     7
 74
     2
 91
        2
 64
     7
 65
   257
 75
     2
175
     1
 42
40.0
 92
        0
 66
   257
 43
1.0
 76
     1
 77
     6
 78
     2
 67
     7
 79
     3
170
     0
171
     0
290
     0
174
     0
 93
        1
 44
0.0
173
     0
291
     0
 45
0.0
1001
ACAD
1000
AcDbSavedByObjectVersion
1070
     0
1000
AcDbSavedByObjectVersion
1070
     0
1000
AcDbSavedByObjectVersion
1070
     0
1000
AcDbSavedByObjectVersion
1070
     0
1000
AcDbSavedByObjectVersion
1070
     0
1000
AcDbSavedByObjectVersion
1070
     0
1000
AcDbSavedByObjectVersion
1070
     0
1000
AcDbSavedByObjectVersion
1070
     0
1000
AcDbSavedByObjectVersion
1070
     0
1000
AcDbSavedByObjectVersion
1070
     0
1000
AcDbSavedByObjectVersion
1070
     0
1000
AcDbSavedByObjectVersion
1070
     0
1000
AcDbSavedByObjectVersion
1070
     0
1000
AcDbSavedByObjectVersion
1070
     0
1000
AcDbSavedByObjectVersion
1070
     0
1000
AcDbSavedByObjectVersion
1070
     0
1000
AcDbSavedByObjectVersion
1070
     0
1000
AcDbSavedByObjectVersion
1070
     0
1000
AcDbSavedByObjectVersion
1070
     0
1000
AcDbSavedByObjectVersion
1070
     0
1000
AcDbSavedByObjectVersion
1070
     0
1000
AcDbSavedByObjectVersion
1070
     0
1000
AcDbSavedByObjectVersion
1070
     0
1000
AcDbSavedByObjectVersion
1070
     0
1000
AcDbSavedByObjectVersion
1070
     0
1000
AcDbSavedByObjectVersion
1070
     0
1000
AcDbSavedByObjectVersion
1070
     0
1000
AcDbSavedByObjectVersion
1070
     0
1000
AcDbSavedByObjectVersion
1070
     0
1000
AcDbSavedByObjectVersion
1070
     0
1000
AcDbSavedByObjectVersion
1070
     0
1000
AcDbSavedByObjectVersion
1070
     0
1000
AcDbSavedByObjectVersion
1070
     0
1000
AcDbSavedByObjectVersion
1070
     0
1000
AcDbSavedByObjectVersion
1070
     0
1000
AcDbSavedByObjectVersion
1070
     0
1000
AcDbSavedByObjectVersion
1070
     0
1000
AcDbSavedByObjectVersion
1070
     0
1000
AcDbSavedByObjectVersion
1070
     0
1000
AcDbSavedByObjectVersion
1070
     0
1000
AcDbSavedByObjectVersion
1070
     0
1000
AcDbSavedByObjectVersion
1070
     0
1000
AcDbSavedByObjectVersion
1070
     0
1000
AcDbSavedByObjectVersion
1070
     0
1000
AcDbSavedByObjectVersion
1070
     0
1000
AcDbSavedByObjectVersion
1070
     0
1000
AcDbSavedByObjectVersion
1070
     0
1000
AcDbSavedByObjectVersion
1070
     0
1000
AcDbSavedByObjectVersion
1070
     0
1000
AcDbSavedByObjectVersion
1070
     0
  0
VISUALSTYLE
  5
30
102
{ACAD_REACTORS
330
2A
102
}
330
2A
100
AcDbVisualStyle
  2
3dWireframe
 70
     5
 71
     0
 72
     2
 73
     0
 90
        0
 40
-0.6
 41
-30.0
 62
     5
 63
     7
 74
     1
 91
        4
 64
     7
 65
   257
 75
     1
175
     1
 42
1.0
 92
        0
 66
   257
 43
1.0
 76
     1
 77
     6
 78
     2
 67
     7
 79
     5
170
     0
171
     0
290
     0
174
     0
 93
        1
 44
0.0
173
     0
291
     0
 45
0.0
1001
ACAD
1000
AcDbSavedByObjectVersion
1070
     0
1000
AcDbSavedByObjectVersion
1070
     0
1000
AcDbSavedByObjectVersion
1070
     0
1000
AcDbSavedByObjectVersion
1070
     0
1000
AcDbSavedByObjectVersion
1070
     0
1000
AcDbSavedByObjectVersion
1070
     0
1000
AcDbSavedByObjectVersion
1070
     0
1000
AcDbSavedByObjectVersion
1070
     0
1000
AcDbSavedByObjectVersion
1070
     0
1000
AcDbSavedByObjectVersion
1070
     0
1000
AcDbSavedByObjectVersion
1070
     0
1000
AcDbSavedByObjectVersion
1070
     0
1000
AcDbSavedByObjectVersion
1070
     0
1000
AcDbSavedByObjectVersion
1070
     0
1000
AcDbSavedByObjectVersion
1070
     0
1000
AcDbSavedByObjectVersion
1070
     0
1000
AcDbSavedByObjectVersion
1070
     0
1000
AcDbSavedByObjectVersion
1070
     0
1000
AcDbSavedByObjectVersion
1070
     0
1000
AcDbSavedByObjectVersion
1070
     0
1000
AcDbSavedByObjectVersion
1070
     0
1000
AcDbSavedByObjectVersion
1070
     0
1000
AcDbSavedByObjectVersion
1070
     0
1000
AcDbSavedByObjectVersion
1070
     0
1000
AcDbSavedByObjectVersion
1070
     0
1000
AcDbSavedByObjectVersion
1070
     0
1000
AcDbSavedByObjectVersion
1070
     0
1000
AcDbSavedByObjectVersion
1070
     0
1000
AcDbSavedByObjectVersion
1070
     0
1000
AcDbSavedByObjectVersion
1070
     0
1000
AcDbSavedByObjectVersion
1070
     0
1000
AcDbSavedByObjectVersion
1070
     0
1000
AcDbSavedByObjectVersion
1070
     0
1000
AcDbSavedByObjectVersion
1070
     0
1000
AcDbSavedByObjectVersion
1070
     0
1000
AcDbSavedByObjectVersion
1070
     0
1000
AcDbSavedByObjectVersion
1070
     0
1000
AcDbSavedByObjectVersion
1070
     0
1000
AcDbSavedByObjectVersion
1070
     0
1000
AcDbSavedByObjectVersion
1070
     0
1000
AcDbSavedByObjectVersion
1070
     0
1000
AcDbSavedByObjectVersion
1070
     0
1000
AcDbSavedByObjectVersion
1070
     0
1000
AcDbSavedByObjectVersion
1070
     0
1000
AcDbSavedByObjectVersion
1070
     0
1000
AcDbSavedByObjectVersion
1070
     0
1000
AcDbSavedByObjectVersion
1070
     0
1000
AcDbSavedByObjectVersion
1070
     0
1000
AcDbSavedByObjectVersion
1070
     0
1000
AcDbSavedByObjectVersion
1070
     0
  0
VISUALSTYLE
  5
32
102
{ACAD_REACTORS
330
2A
102
}
330
2A
100
AcDbVisualStyle
  2
Basic
 70
     7
 71
     1
 72
     0
 73
     1
 90
        0
 40
-0.6
 41
-30.0
 62
     5
 63
     7
 74
     0
 91
        4
 64
     7
 65
   257
 75
     1
175
     1
 42
1.0
 92
        8
 66
     7
 43
1.0
 76
     1
 77
     6
 78
     2
 67
     7
 79
     5
170
     0
171
     0
290
     0
174
     0
 93
        1
 44
0.0
173
     0
291
     1
 45
0.0
1001
ACAD
1000
AcDbSavedByObjectVersion
1070
     0
1000
AcDbSavedByObjectVersion
1070
     0
1000
AcDbSavedByObjectVersion
1070
     0
1000
AcDbSavedByObjectVersion
1070
     0
1000
AcDbSavedByObjectVersion
1070
     0
1000
AcDbSavedByObjectVersion
1070
     0
1000
AcDbSavedByObjectVersion
1070
     0
1000
AcDbSavedByObjectVersion
1070
     0
1000
AcDbSavedByObjectVersion
1070
     0
1000
AcDbSavedByObjectVersion
1070
     0
1000
AcDbSavedByObjectVersion
1070
     0
1000
AcDbSavedByObjectVersion
1070
     0
1000
AcDbSavedByObjectVersion
1070
     0
1000
AcDbSavedByObjectVersion
1070
     0
1000
AcDbSavedByObjectVersion
1070
     0
1000
AcDbSavedByObjectVersion
1070
     0
1000
AcDbSavedByObjectVersion
1070
     0
1000
AcDbSavedByObjectVersion
1070
     0
1000
AcDbSavedByObjectVersion
1070
     0
1000
AcDbSavedByObjectVersion
1070
     0
1000
AcDbSavedByObjectVersion
1070
     0
1000
AcDbSavedByObjectVersion
1070
     0
1000
AcDbSavedByObjectVersion
1070
     0
1000
AcDbSavedByObjectVersion
1070
     0
1000
AcDbSavedByObjectVersion
1070
     0
1000
AcDbSavedByObjectVersion
1070
     0
1000
AcDbSavedByObjectVersion
1070
     0
1000
AcDbSavedByObjectVersion
1070
     0
1000
AcDbSavedByObjectVersion
1070
     0
1000
AcDbSavedByObjectVersion
1070
     0
1000
AcDbSavedByObjectVersion
1070
     0
1000
AcDbSavedByObjectVersion
1070
     0
1000
AcDbSavedByObjectVersion
1070
     0
1000
AcDbSavedByObjectVersion
1070
     0
1000
AcDbSavedByObjectVersion
1070
     0
1000
AcDbSavedByObjectVersion
1070
     0
1000
AcDbSavedByObjectVersion
1070
     0
1000
AcDbSavedByObjectVersion
1070
     0
1000
AcDbSavedByObjectVersion
1070
     0
1000
AcDbSavedByObjectVersion
1070
     0
1000
AcDbSavedByObjectVersion
1070
     0
1000
AcDbSavedByObjectVersion
1070
     0
1000
AcDbSavedByObjectVersion
1070
     0
1000
AcDbSavedByObjectVersion
1070
     0
1000
AcDbSavedByObjectVersion
1070
     0
1000
AcDbSavedByObjectVersion
1070
     0
1000
AcDbSavedByObjectVersion
1070
     0
1000
AcDbSavedByObjectVersion
1070
     0
1000
AcDbSavedByObjectVersion
1070
     0
1000
AcDbSavedByObjectVersion
1070
     0
  0
VISUALSTYLE
  5
36
102
{ACAD_REACTORS
330
2A
102
}
330
2A
100
AcDbVisualStyle
  2
Brighten
 70
    12
 71
     2
 72
     2
 73
     0
 90
        0
 40
-0.6
 41
-30.0
 62
     5
 63
     7
 74
     1
 91
        4
 64
     7
 65
   257
 75
     1
175
     1
 42
1.0
 92
        8
 66
     7
 43
1.0
 76
     1
 77
     6
 78
     2
 67
     7
 79
     5
170
     0
171
     0
290
     0
174
     0
 93
        1
 44
50.0
173
     0
291
     1
 45
0.0
1001
ACAD
1000
AcDbSavedByObjectVersion
1070
     0
1000
AcDbSavedByObjectVersion
1070
     0
1000
AcDbSavedByObjectVersion
1070
     0
1000
AcDbSavedByObjectVersion
1070
     0
1000
AcDbSavedByObjectVersion
1070
     0
1000
AcDbSavedByObjectVersion
1070
     0
1000
AcDbSavedByObjectVersion
1070
     0
1000
AcDbSavedByObjectVersion
1070
     0
1000
AcDbSavedByObjectVersion
1070
     0
1000
AcDbSavedByObjectVersion
1070
     0
1000
AcDbSavedByObjectVersion
1070
     0
1000
AcDbSavedByObjectVersion
1070
     0
1000
AcDbSavedByObjectVersion
1070
     0
1000
AcDbSavedByObjectVersion
1070
     0
1000
AcDbSavedByObjectVersion
1070
     0
1000
AcDbSavedByObjectVersion
1070
     0
1000
AcDbSavedByObjectVersion
1070
     0
1000
AcDbSavedByObjectVersion
1070
     0
1000
AcDbSavedByObjectVersion
1070
     0
1000
AcDbSavedByObjectVersion
1070
     0
1000
AcDbSavedByObjectVersion
1070
     0
1000
AcDbSavedByObjectVersion
1070
     0
1000
AcDbSavedByObjectVersion
1070
     0
1000
AcDbSavedByObjectVersion
1070
     0
1000
AcDbSavedByObjectVersion
1070
     0
1000
AcDbSavedByObjectVersion
1070
     0
1000
AcDbSavedByObjectVersion
1070
     0
1000
AcDbSavedByObjectVersion
1070
     0
1000
AcDbSavedByObjectVersion
1070
     0
1000
AcDbSavedByObjectVersion
1070
     0
1000
AcDbSavedByObjectVersion
1070
     0
1000
AcDbSavedByObjectVersion
1070
     0
1000
AcDbSavedByObjectVersion
1070
     0
1000
AcDbSavedByObjectVersion
1070
     0
1000
AcDbSavedByObjectVersion
1070
     0
1000
AcDbSavedByObjectVersion
1070
     0
1000
AcDbSavedByObjectVersion
1070
     0
1000
AcDbSavedByObjectVersion
1070
     0
1000
AcDbSavedByObjectVersion
1070
     0
1000
AcDbSavedByObjectVersion
1070
     0
1000
AcDbSavedByObjectVersion
1070
     0
1000
AcDbSavedByObjectVersion
1070
     0
1000
AcDbSavedByObjectVersion
1070
     0
1000
AcDbSavedByObjectVersion
1070
     0
1000
AcDbSavedByObjectVersion
1070
     0
1000
AcDbSavedByObjectVersion
1070
     0
1000
AcDbSavedByObjectVersion
1070
     0
1000
AcDbSavedByObjectVersion
1070
     0
1000
AcDbSavedByObjectVersion
1070
     0
1000
AcDbSavedByObjectVersion
1070
     0
  0
VISUALSTYLE
  5
3A
102
{ACAD_REACTORS
330
2A
102
}
330
2A
100
AcDbVisualStyle
  2
ColorChange
 70
    16
 71
     2
 72
     2
 73
     3
 90
        0
 40
-0.6
 41
-30.0
 62
     5
 63
     8
 74
     1
 91
        4
 64
     7
 65
   257
 75
     1
175
     1
 42
1.0
 92
        8
 66
     8
 43
1.0
 76
     1
 77
     6
 78
     2
 67
     7
 79
     5
170
     0
171
     0
290
     0
174
     0
 93
        1
 44
0.0
173
     0
291
     1
 45
0.0
1001
ACAD
1000
AcDbSavedByObjectVersion
1070
     0
1000
AcDbSavedByObjectVersion
1070
     0
1000
AcDbSavedByObjectVersion
1070
     0
1000
AcDbSavedByObjectVersion
1070
     0
1000
AcDbSavedByObjectVersion
1070
     0
1000
AcDbSavedByObjectVersion
1070
     0
1000
AcDbSavedByObjectVersion
1070
     0
1000
AcDbSavedByObjectVersion
1070
     0
1000
AcDbSavedByObjectVersion
1070
     0
1000
AcDbSavedByObjectVersion
1070
     0
1000
AcDbSavedByObjectVersion
1070
     0
1000
AcDbSavedByObjectVersion
1070
     0
1000
AcDbSavedByObjectVersion
1070
     0
1000
AcDbSavedByObjectVersion
1070
     0
1000
AcDbSavedByObjectVersion
1070
     0
1000
AcDbSavedByObjectVersion
1070
     0
1000
AcDbSavedByObjectVersion
1070
     0
1000
AcDbSavedByObjectVersion
1070
     0
1000
AcDbSavedByObjectVersion
1070
     0
1000
AcDbSavedByObjectVersion
1070
     0
1000
AcDbSavedByObjectVersion
1070
     0
1000
AcDbSavedByObjectVersion
1070
     0
1000
AcDbSavedByObjectVersion
1070
     0
1000
AcDbSavedByObjectVersion
1070
     0
1000
AcDbSavedByObjectVersion
1070
     0
1000
AcDbSavedByObjectVersion
1070
     0
1000
AcDbSavedByObjectVersion
1070
     0
1000
AcDbSavedByObjectVersion
1070
     0
1000
AcDbSavedByObjectVersion
1070
     0
1000
AcDbSavedByObjectVersion
1070
     0
1000
AcDbSavedByObjectVersion
1070
     0
1000
AcDbSavedByObjectVersion
1070
     0
1000
AcDbSavedByObjectVersion
1070
     0
1000
AcDbSavedByObjectVersion
1070
     0
1000
AcDbSavedByObjectVersion
1070
     0
1000
AcDbSavedByObjectVersion
1070
     0
1000
AcDbSavedByObjectVersion
1070
     0
1000
AcDbSavedByObjectVersion
1070
     0
1000
AcDbSavedByObjectVersion
1070
     0
1000
AcDbSavedByObjectVersion
1070
     0
1000
AcDbSavedByObjectVersion
1070
     0
1000
AcDbSavedByObjectVersion
1070
     0
1000
AcDbSavedByObjectVersion
1070
     0
1000
AcDbSavedByObjectVersion
1070
     0
1000
AcDbSavedByObjectVersion
1070
     0
1000
AcDbSavedByObjectVersion
1070
     0
1000
AcDbSavedByObjectVersion
1070
     0
1000
AcDbSavedByObjectVersion
1070
     0
1000
AcDbSavedByObjectVersion
1070
     0
1000
AcDbSavedByObjectVersion
1070
     0
  0
VISUALSTYLE
  5
34
102
{ACAD_REACTORS
330
2A
102
}
330
2A
100
AcDbVisualStyle
  2
Conceptual
 70
     9
 71
     3
 72
     2
 73
     0
 90
        0
 40
-0.6
 41
-30.0
 62
     5
 63
     7
 74
     2
 91
        2
 64
     7
 65
   257
 75
     1
175
     1
 42
40.0
 92
        8
 66
     7
 43
1.0
 76
     1
 77
     6
 78
     2
 67
     7
 79
     3
170
     0
171
     0
290
     0
174
     0
 93
        1
 44
0.0
173
     0
291
     0
 45
0.0
1001
ACAD
1000
AcDbSavedByObjectVersion
1070
     0
1000
AcDbSavedByObjectVersion
1070
     0
1000
AcDbSavedByObjectVersion
1070
     0
1000
AcDbSavedByObjectVersion
1070
     0
1000
AcDbSavedByObjectVersion
1070
     0
1000
AcDbSavedByObjectVersion
1070
     0
1000
AcDbSavedByObjectVersion
1070
     0
1000
AcDbSavedByObjectVersion
1070
     0
1000
AcDbSavedByObjectVersion
1070
     0
1000
AcDbSavedByObjectVersion
1070
     0
1000
AcDbSavedByObjectVersion
1070
     0
1000
AcDbSavedByObjectVersion
1070
     0
1000
AcDbSavedByObjectVersion
1070
     0
1000
AcDbSavedByObjectVersion
1070
     0
1000
AcDbSavedByObjectVersion
1070
     0
1000
AcDbSavedByObjectVersion
1070
     0
1000
AcDbSavedByObjectVersion
1070
     0
1000
AcDbSavedByObjectVersion
1070
     0
1000
AcDbSavedByObjectVersion
1070
     0
1000
AcDbSavedByObjectVersion
1070
     0
1000
AcDbSavedByObjectVersion
1070
     0
1000
AcDbSavedByObjectVersion
1070
     0
1000
AcDbSavedByObjectVersion
1070
     0
1000
AcDbSavedByObjectVersion
1070
     0
1000
AcDbSavedByObjectVersion
1070
     0
1000
AcDbSavedByObjectVersion
1070
     0
1000
AcDbSavedByObjectVersion
1070
     0
1000
AcDbSavedByObjectVersion
1070
     0
1000
AcDbSavedByObjectVersion
1070
     0
1000
AcDbSavedByObjectVersion
1070
     0
1000
AcDbSavedByObjectVersion
1070
     0
1000
AcDbSavedByObjectVersion
1070
     0
1000
AcDbSavedByObjectVersion
1070
     0
1000
AcDbSavedByObjectVersion
1070
     0
1000
AcDbSavedByObjectVersion
1070
     0
1000
AcDbSavedByObjectVersion
1070
     0
1000
AcDbSavedByObjectVersion
1070
     0
1000
AcDbSavedByObjectVersion
1070
     0
1000
AcDbSavedByObjectVersion
1070
     0
1000
AcDbSavedByObjectVersion
1070
     0
1000
AcDbSavedByObjectVersion
1070
     0
1000
AcDbSavedByObjectVersion
1070
     0
1000
AcDbSavedByObjectVersion
1070
     0
1000
AcDbSavedByObjectVersion
1070
     0
1000
AcDbSavedByObjectVersion
1070
     0
1000
AcDbSavedByObjectVersion
1070
     0
1000
AcDbSavedByObjectVersion
1070
     0
1000
AcDbSavedByObjectVersion
1070
     0
1000
AcDbSavedByObjectVersion
1070
     0
1000
AcDbSavedByObjectVersion
1070
     0
  0
VISUALSTYLE
  5
35
102
{ACAD_REACTORS
330
2A
102
}
330
2A
100
AcDbVisualStyle
  2
Dim
 70
    11
 71
     2
 72
     2
 73
     0
 90
        0
 40
-0.6
 41
-30.0
 62
     5
 63
     7
 74
     1
 91
        4
 64
     7
 65
   257
 75
     1
175
     1
 42
1.0
 92
        8
 66
     7
 43
1.0
 76
     1
 77
     6
 78
     2
 67
     7
 79
     5
170
     0
171
     0
290
     0
174
     0
 93
        1
 44
-50.0
173
     0
291
     1
 45
0.0
1001
ACAD
1000
AcDbSavedByObjectVersion
1070
     0
1000
AcDbSavedByObjectVersion
1070
     0
1000
AcDbSavedByObjectVersion
1070
     0
1000
AcDbSavedByObjectVersion
1070
     0
1000
AcDbSavedByObjectVersion
1070
     0
1000
AcDbSavedByObjectVersion
1070
     0
1000
AcDbSavedByObjectVersion
1070
     0
1000
AcDbSavedByObjectVersion
1070
     0
1000
AcDbSavedByObjectVersion
1070
     0
1000
AcDbSavedByObjectVersion
1070
     0
1000
AcDbSavedByObjectVersion
1070
     0
1000
AcDbSavedByObjectVersion
1070
     0
1000
AcDbSavedByObjectVersion
1070
     0
1000
AcDbSavedByObjectVersion
1070
     0
1000
AcDbSavedByObjectVersion
1070
     0
1000
AcDbSavedByObjectVersion
1070
     0
1000
AcDbSavedByObjectVersion
1070
     0
1000
AcDbSavedByObjectVersion
1070
     0
1000
AcDbSavedByObjectVersion
1070
     0
1000
AcDbSavedByObjectVersion
1070
     0
1000
AcDbSavedByObjectVersion
1070
     0
1000
AcDbSavedByObjectVersion
1070
     0
1000
AcDbSavedByObjectVersion
1070
     0
1000
AcDbSavedByObjectVersion
1070
     0
1000
AcDbSavedByObjectVersion
1070
     0
1000
AcDbSavedByObjectVersion
1070
     0
1000
AcDbSavedByObjectVersion
1070
     0
1000
AcDbSavedByObjectVersion
1070
     0
1000
AcDbSavedByObjectVersion
1070
     0
1000
AcDbSavedByObjectVersion
1070
     0
1000
AcDbSavedByObjectVersion
1070
     0
1000
AcDbSavedByObjectVersion
1070
     0
1000
AcDbSavedByObjectVersion
1070
     0
1000
AcDbSavedByObjectVersion
1070
     0
1000
AcDbSavedByObjectVersion
1070
     0
1000
AcDbSavedByObjectVersion
1070
     0
1000
AcDbSavedByObjectVersion
1070
     0
1000
AcDbSavedByObjectVersion
1070
     0
1000
AcDbSavedByObjectVersion
1070
     0
1000
AcDbSavedByObjectVersion
1070
     0
1000
AcDbSavedByObjectVersion
1070
     0
1000
AcDbSavedByObjectVersion
1070
     0
1000
AcDbSavedByObjectVersion
1070
     0
1000
AcDbSavedByObjectVersion
1070
     0
1000
AcDbSavedByObjectVersion
1070
     0
1000
AcDbSavedByObjectVersion
1070
     0
1000
AcDbSavedByObjectVersion
1070
     0
1000
AcDbSavedByObjectVersion
1070
     0
1000
AcDbSavedByObjectVersion
1070
     0
1000
AcDbSavedByObjectVersion
1070
     0
  0
VISUALSTYLE
  5
39
102
{ACAD_REACTORS
330
2A
102
}
330
2A
100
AcDbVisualStyle
  2
Facepattern
 70
    15
 71
     2
 72
     2
 73
     0
 90
        0
 40
-0.6
 41
-30.0
 62
     5
 63
     7
 74
     1
 91
        4
 64
     7
 65
   257
 75
     1
175
     1
 42
1.0
 92
        8
 66
     7
 43
1.0
 76
     1
 77
     6
 78
     2
 67
     7
 79
     5
170
     0
171
     0
290
     0
174
     0
 93
        1
 44
0.0
173
     0
291
     1
 45
0.0
1001
ACAD
1000
AcDbSavedByObjectVersion
1070
     0
1000
AcDbSavedByObjectVersion
1070
     0
1000
AcDbSavedByObjectVersion
1070
     0
1000
AcDbSavedByObjectVersion
1070
     0
1000
AcDbSavedByObjectVersion
1070
     0
1000
AcDbSavedByObjectVersion
1070
     0
1000
AcDbSavedByObjectVersion
1070
     0
1000
AcDbSavedByObjectVersion
1070
     0
1000
AcDbSavedByObjectVersion
1070
     0
1000
AcDbSavedByObjectVersion
1070
     0
1000
AcDbSavedByObjectVersion
1070
     0
1000
AcDbSavedByObjectVersion
1070
     0
1000
AcDbSavedByObjectVersion
1070
     0
1000
AcDbSavedByObjectVersion
1070
     0
1000
AcDbSavedByObjectVersion
1070
     0
1000
AcDbSavedByObjectVersion
1070
     0
1000
AcDbSavedByObjectVersion
1070
     0
1000
AcDbSavedByObjectVersion
1070
     0
1000
AcDbSavedByObjectVersion
1070
     0
1000
AcDbSavedByObjectVersion
1070
     0
1000
AcDbSavedByObjectVersion
1070
     0
1000
AcDbSavedByObjectVersion
1070
     0
1000
AcDbSavedByObjectVersion
1070
     0
1000
AcDbSavedByObjectVersion
1070
     0
1000
AcDbSavedByObjectVersion
1070
     0
1000
AcDbSavedByObjectVersion
1070
     0
1000
AcDbSavedByObjectVersion
1070
     0
1000
AcDbSavedByObjectVersion
1070
     0
1000
AcDbSavedByObjectVersion
1070
     0
1000
AcDbSavedByObjectVersion
1070
     0
1000
AcDbSavedByObjectVersion
1070
     0
1000
AcDbSavedByObjectVersion
1070
     0
1000
AcDbSavedByObjectVersion
1070
     0
1000
AcDbSavedByObjectVersion
1070
     0
1000
AcDbSavedByObjectVersion
1070
     0
1000
AcDbSavedByObjectVersion
1070
     0
1000
AcDbSavedByObjectVersion
1070
     0
1000
AcDbSavedByObjectVersion
1070
     0
1000
AcDbSavedByObjectVersion
1070
     0
1000
AcDbSavedByObjectVersion
1070
     0
1000
AcDbSavedByObjectVersion
1070
     0
1000
AcDbSavedByObjectVersion
1070
     0
1000
AcDbSavedByObjectVersion
1070
     0
1000
AcDbSavedByObjectVersion
1070
     0
1000
AcDbSavedByObjectVersion
1070
     0
1000
AcDbSavedByObjectVersion
1070
     0
1000
AcDbSavedByObjectVersion
1070
     0
1000
AcDbSavedByObjectVersion
1070
     0
1000
AcDbSavedByObjectVersion
1070
     0
1000
AcDbSavedByObjectVersion
1070
     0
  0
VISUALSTYLE
  5
2B
102
{ACAD_REACTORS
330
2A
102
}
330
2A
100
AcDbVisualStyle
  2
Flat
 70
     0
 71
     2
 72
     1
 73
     1
 90
        2
 40
-0.6
 41
30.0
 62
     5
 63
     7
 74
     0
 91
        4
 64
     7
 65
   257
 75
     1
175
     1
 42
1.0
 92
        8
 66
     7
 43
1.0
 76
     1
 77
     6
 78
     2
 67
     7
 79
     5
170
     0
171
     0
290
     0
174
     0
 93
       13
 44
0.0
173
     0
291
     1
 45
0.0
1001
ACAD
1000
AcDbSavedByObjectVersion
1070
     0
1000
AcDbSavedByObjectVersion
1070
     0
1000
AcDbSavedByObjectVersion
1070
     0
1000
AcDbSavedByObjectVersion
1070
     0
1000
AcDbSavedByObjectVersion
1070
     0
1000
AcDbSavedByObjectVersion
1070
     0
1000
AcDbSavedByObjectVersion
1070
     0
1000
AcDbSavedByObjectVersion
1070
     0
1000
AcDbSavedByObjectVersion
1070
     0
1000
AcDbSavedByObjectVersion
1070
     0
1000
AcDbSavedByObjectVersion
1070
     0
1000
AcDbSavedByObjectVersion
1070
     0
1000
AcDbSavedByObjectVersion
1070
     0
1000
AcDbSavedByObjectVersion
1070
     0
1000
AcDbSavedByObjectVersion
1070
     0
1000
AcDbSavedByObjectVersion
1070
     0
1000
AcDbSavedByObjectVersion
1070
     0
1000
AcDbSavedByObjectVersion
1070
     0
1000
AcDbSavedByObjectVersion
1070
     0
1000
AcDbSavedByObjectVersion
1070
     0
1000
AcDbSavedByObjectVersion
1070
     0
1000
AcDbSavedByObjectVersion
1070
     0
1000
AcDbSavedByObjectVersion
1070
     0
1000
AcDbSavedByObjectVersion
1070
     0
1000
AcDbSavedByObjectVersion
1070
     0
1000
AcDbSavedByObjectVersion
1070
     0
1000
AcDbSavedByObjectVersion
1070
     0
1000
AcDbSavedByObjectVersion
1070
     0
1000
AcDbSavedByObjectVersion
1070
     0
1000
AcDbSavedByObjectVersion
1070
     0
1000
AcDbSavedByObjectVersion
1070
     0
1000
AcDbSavedByObjectVersion
1070
     0
1000
AcDbSavedByObjectVersion
1070
     0
1000
AcDbSavedByObjectVersion
1070
     0
1000
AcDbSavedByObjectVersion
1070
     0
1000
AcDbSavedByObjectVersion
1070
     0
1000
AcDbSavedByObjectVersion
1070
     0
1000
AcDbSavedByObjectVersion
1070
     0
1000
AcDbSavedByObjectVersion
1070
     0
1000
AcDbSavedByObjectVersion
1070
     0
1000
AcDbSavedByObjectVersion
1070
     0
1000
AcDbSavedByObjectVersion
1070
     0
1000
AcDbSavedByObjectVersion
1070
     0
1000
AcDbSavedByObjectVersion
1070
     0
1000
AcDbSavedByObjectVersion
1070
     0
1000
AcDbSavedByObjectVersion
1070
     0
1000
AcDbSavedByObjectVersion
1070
     0
1000
AcDbSavedByObjectVersion
1070
     0
1000
AcDbSavedByObjectVersion
1070
     0
1000
AcDbSavedByObjectVersion
1070
     0
  0
VISUALSTYLE
  5
2C
102
{ACAD_REACTORS
330
2A
102
}
330
2A
100
AcDbVisualStyle
  2
FlatWithEdges
 70
     1
 71
     2
 72
     1
 73
     1
 90
        2
 40
-0.6
 41
30.0
 62
     5
 63
     7
 74
     1
 91
        4
 64
     7
 65
   257
 75
     1
175
     1
 42
1.0
 92
        0
 66
   257
 43
1.0
 76
     1
 77
     6
 78
     2
 67
     7
 79
     5
170
     0
171
     0
290
     0
174
     0
 93
       13
 44
0.0
173
     0
291
     1
 45
0.0
1001
ACAD
1000
AcDbSavedByObjectVersion
1070
     0
1000
AcDbSavedByObjectVersion
1070
     0
1000
AcDbSavedByObjectVersion
1070
     0
1000
AcDbSavedByObjectVersion
1070
     0
1000
AcDbSavedByObjectVersion
1070
     0
1000
AcDbSavedByObjectVersion
1070
     0
1000
AcDbSavedByObjectVersion
1070
     0
1000
AcDbSavedByObjectVersion
1070
     0
1000
AcDbSavedByObjectVersion
1070
     0
1000
AcDbSavedByObjectVersion
1070
     0
1000
AcDbSavedByObjectVersion
1070
     0
1000
AcDbSavedByObjectVersion
1070
     0
1000
AcDbSavedByObjectVersion
1070
     0
1000
AcDbSavedByObjectVersion
1070
     0
1000
AcDbSavedByObjectVersion
1070
     0
1000
AcDbSavedByObjectVersion
1070
     0
1000
AcDbSavedByObjectVersion
1070
     0
1000
AcDbSavedByObjectVersion
1070
     0
1000
AcDbSavedByObjectVersion
1070
     0
1000
AcDbSavedByObjectVersion
1070
     0
1000
AcDbSavedByObjectVersion
1070
     0
1000
AcDbSavedByObjectVersion
1070
     0
1000
AcDbSavedByObjectVersion
1070
     0
1000
AcDbSavedByObjectVersion
1070
     0
1000
AcDbSavedByObjectVersion
1070
     0
1000
AcDbSavedByObjectVersion
1070
     0
1000
AcDbSavedByObjectVersion
1070
     0
1000
AcDbSavedByObjectVersion
1070
     0
1000
AcDbSavedByObjectVersion
1070
     0
1000
AcDbSavedByObjectVersion
1070
     0
1000
AcDbSavedByObjectVersion
1070
     0
1000
AcDbSavedByObjectVersion
1070
     0
1000
AcDbSavedByObjectVersion
1070
     0
1000
AcDbSavedByObjectVersion
1070
     0
1000
AcDbSavedByObjectVersion
1070
     0
1000
AcDbSavedByObjectVersion
1070
     0
1000
AcDbSavedByObjectVersion
1070
     0
1000
AcDbSavedByObjectVersion
1070
     0
1000
AcDbSavedByObjectVersion
1070
     0
1000
AcDbSavedByObjectVersion
1070
     0
1000
AcDbSavedByObjectVersion
1070
     0
1000
AcDbSavedByObjectVersion
1070
     0
1000
AcDbSavedByObjectVersion
1070
     0
1000
AcDbSavedByObjectVersion
1070
     0
1000
AcDbSavedByObjectVersion
1070
     0
1000
AcDbSavedByObjectVersion
1070
     0
1000
AcDbSavedByObjectVersion
1070
     0
1000
AcDbSavedByObjectVersion
1070
     0
1000
AcDbSavedByObjectVersion
1070
     0
1000
AcDbSavedByObjectVersion
1070
     0
  0
VISUALSTYLE
  5
2D
102
{ACAD_REACTORS
330
2A
102
}
330
2A
100
AcDbVisualStyle
  2
Gouraud
 70
     2
 71
     2
 72
     2
 73
     1
 90
        2
 40
-0.6
 41
30.0
 62
     5
 63
     7
 74
     0
 91
        4
 64
     7
 65
   257
 75
     1
175
     1
 42
1.0
 92
        0
 66
     7
 43
1.0
 76
     1
 77
     6
 78
     2
 67
     7
 79
     5
170
     0
171
     0
290
     0
174
     0
 93
       13
 44
0.0
173
     0
291
     1
 45
0.0
1001
ACAD
1000
AcDbSavedByObjectVersion
1070
     0
1000
AcDbSavedByObjectVersion
1070
     0
1000
AcDbSavedByObjectVersion
1070
     0
1000
AcDbSavedByObjectVersion
1070
     0
1000
AcDbSavedByObjectVersion
1070
     0
1000
AcDbSavedByObjectVersion
1070
     0
1000
AcDbSavedByObjectVersion
1070
     0
1000
AcDbSavedByObjectVersion
1070
     0
1000
AcDbSavedByObjectVersion
1070
     0
1000
AcDbSavedByObjectVersion
1070
     0
1000
AcDbSavedByObjectVersion
1070
     0
1000
AcDbSavedByObjectVersion
1070
     0
1000
AcDbSavedByObjectVersion
1070
     0
1000
AcDbSavedByObjectVersion
1070
     0
1000
AcDbSavedByObjectVersion
1070
     0
1000
AcDbSavedByObjectVersion
1070
     0
1000
AcDbSavedByObjectVersion
1070
     0
1000
AcDbSavedByObjectVersion
1070
     0
1000
AcDbSavedByObjectVersion
1070
     0
1000
AcDbSavedByObjectVersion
1070
     0
1000
AcDbSavedByObjectVersion
1070
     0
1000
AcDbSavedByObjectVersion
1070
     0
1000
AcDbSavedByObjectVersion
1070
     0
1000
AcDbSavedByObjectVersion
1070
     0
1000
AcDbSavedByObjectVersion
1070
     0
1000
AcDbSavedByObjectVersion
1070
     0
1000
AcDbSavedByObjectVersion
1070
     0
1000
AcDbSavedByObjectVersion
1070
     0
1000
AcDbSavedByObjectVersion
1070
     0
1000
AcDbSavedByObjectVersion
1070
     0
1000
AcDbSavedByObjectVersion
1070
     0
1000
AcDbSavedByObjectVersion
1070
     0
1000
AcDbSavedByObjectVersion
1070
     0
1000
AcDbSavedByObjectVersion
1070
     0
1000
AcDbSavedByObjectVersion
1070
     0
1000
AcDbSavedByObjectVersion
1070
     0
1000
AcDbSavedByObjectVersion
1070
     0
1000
AcDbSavedByObjectVersion
1070
     0
1000
AcDbSavedByObjectVersion
1070
     0
1000
AcDbSavedByObjectVersion
1070
     0
1000
AcDbSavedByObjectVersion
1070
     0
1000
AcDbSavedByObjectVersion
1070
     0
1000
AcDbSavedByObjectVersion
1070
     0
1000
AcDbSavedByObjectVersion
1070
     0
1000
AcDbSavedByObjectVersion
1070
     0
1000
AcDbSavedByObjectVersion
1070
     0
1000
AcDbSavedByObjectVersion
1070
     0
1000
AcDbSavedByObjectVersion
1070
     0
1000
AcDbSavedByObjectVersion
1070
     0
1000
AcDbSavedByObjectVersion
1070
     0
  0
VISUALSTYLE
  5
2E
102
{ACAD_REACTORS
330
2A
102
}
330
2A
100
AcDbVisualStyle
  2
GouraudWithEdges
 70
     3
 71
     2
 72
     2
 73
     1
 90
        2
 40
-0.6
 41
30.0
 62
     5
 63
     7
 74
     1
 91
        4
 64
     7
 65
   257
 75
     1
175
     1
 42
1.0
 92
        0
 66
   257
 43
1.0
 76
     1
 77
     6
 78
     2
 67
     7
 79
     5
170
     0
171
     0
290
     0
174
     0
 93
       13
 44
0.0
173
     0
291
     1
 45
0.0
1001
ACAD
1000
AcDbSavedByObjectVersion
1070
     0
1000
AcDbSavedByObjectVersion
1070
     0
1000
AcDbSavedByObjectVersion
1070
     0
1000
AcDbSavedByObjectVersion
1070
     0
1000
AcDbSavedByObjectVersion
1070
     0
1000
AcDbSavedByObjectVersion
1070
     0
1000
AcDbSavedByObjectVersion
1070
     0
1000
AcDbSavedByObjectVersion
1070
     0
1000
AcDbSavedByObjectVersion
1070
     0
1000
AcDbSavedByObjectVersion
1070
     0
1000
AcDbSavedByObjectVersion
1070
     0
1000
AcDbSavedByObjectVersion
1070
     0
1000
AcDbSavedByObjectVersion
1070
     0
1000
AcDbSavedByObjectVersion
1070
     0
1000
AcDbSavedByObjectVersion
1070
     0
1000
AcDbSavedByObjectVersion
1070
     0
1000
AcDbSavedByObjectVersion
1070
     0
1000
AcDbSavedByObjectVersion
1070
     0
1000
AcDbSavedByObjectVersion
1070
     0
1000
AcDbSavedByObjectVersion
1070
     0
1000
AcDbSavedByObjectVersion
1070
     0
1000
AcDbSavedByObjectVersion
1070
     0
1000
AcDbSavedByObjectVersion
1070
     0
1000
AcDbSavedByObjectVersion
1070
     0
1000
AcDbSavedByObjectVersion
1070
     0
1000
AcDbSavedByObjectVersion
1070
     0
1000
AcDbSavedByObjectVersion
1070
     0
1000
AcDbSavedByObjectVersion
1070
     0
1000
AcDbSavedByObjectVersion
1070
     0
1000
AcDbSavedByObjectVersion
1070
     0
1000
AcDbSavedByObjectVersion
1070
     0
1000
AcDbSavedByObjectVersion
1070
     0
1000
AcDbSavedByObjectVersion
1070
     0
1000
AcDbSavedByObjectVersion
1070
     0
1000
AcDbSavedByObjectVersion
1070
     0
1000
AcDbSavedByObjectVersion
1070
     0
1000
AcDbSavedByObjectVersion
1070
     0
1000
AcDbSavedByObjectVersion
1070
     0
1000
AcDbSavedByObjectVersion
1070
     0
1000
AcDbSavedByObjectVersion
1070
     0
1000
AcDbSavedByObjectVersion
1070
     0
1000
AcDbSavedByObjectVersion
1070
     0
1000
AcDbSavedByObjectVersion
1070
     0
1000
AcDbSavedByObjectVersion
1070
     0
1000
AcDbSavedByObjectVersion
1070
     0
1000
AcDbSavedByObjectVersion
1070
     0
1000
AcDbSavedByObjectVersion
1070
     0
1000
AcDbSavedByObjectVersion
1070
     0
1000
AcDbSavedByObjectVersion
1070
     0
1000
AcDbSavedByObjectVersion
1070
     0
  0
VISUALSTYLE
  5
38
102
{ACAD_REACTORS
330
2A
102
}
330
2A
100
AcDbVisualStyle
  2
Linepattern
 70
    14
 71
     2
 72
     2
 73
     0
 90
        0
 40
-0.6
 41
-30.0
 62
     5
 63
     7
 74
     1
 91
        4
 64
     7
 65
   257
 75
     7
175
     7
 42
1.0
 92
        8
 66
     7
 43
1.0
 76
     1
 77
     6
 78
     2
 67
     7
 79
     5
170
     0
171
     0
290
     0
174
     0
 93
        1
 44
0.0
173
     0
291
     1
 45
0.0
1001
ACAD
1000
AcDbSavedByObjectVersion
1070
     0
1000
AcDbSavedByObjectVersion
1070
     0
1000
AcDbSavedByObjectVersion
1070
     0
1000
AcDbSavedByObjectVersion
1070
     0
1000
AcDbSavedByObjectVersion
1070
     0
1000
AcDbSavedByObjectVersion
1070
     0
1000
AcDbSavedByObjectVersion
1070
     0
1000
AcDbSavedByObjectVersion
1070
     0
1000
AcDbSavedByObjectVersion
1070
     0
1000
AcDbSavedByObjectVersion
1070
     0
1000
AcDbSavedByObjectVersion
1070
     0
1000
AcDbSavedByObjectVersion
1070
     0
1000
AcDbSavedByObjectVersion
1070
     0
1000
AcDbSavedByObjectVersion
1070
     0
1000
AcDbSavedByObjectVersion
1070
     0
1000
AcDbSavedByObjectVersion
1070
     0
1000
AcDbSavedByObjectVersion
1070
     0
1000
AcDbSavedByObjectVersion
1070
     0
1000
AcDbSavedByObjectVersion
1070
     0
1000
AcDbSavedByObjectVersion
1070
     0
1000
AcDbSavedByObjectVersion
1070
     0
1000
AcDbSavedByObjectVersion
1070
     0
1000
AcDbSavedByObjectVersion
1070
     0
1000
AcDbSavedByObjectVersion
1070
     0
1000
AcDbSavedByObjectVersion
1070
     0
1000
AcDbSavedByObjectVersion
1070
     0
1000
AcDbSavedByObjectVersion
1070
     0
1000
AcDbSavedByObjectVersion
1070
     0
1000
AcDbSavedByObjectVersion
1070
     0
1000
AcDbSavedByObjectVersion
1070
     0
1000
AcDbSavedByObjectVersion
1070
     0
1000
AcDbSavedByObjectVersion
1070
     0
1000
AcDbSavedByObjectVersion
1070
     0
1000
AcDbSavedByObjectVersion
1070
     0
1000
AcDbSavedByObjectVersion
1070
     0
1000
AcDbSavedByObjectVersion
1070
     0
1000
AcDbSavedByObjectVersion
1070
     0
1000
AcDbSavedByObjectVersion
1070
     0
1000
AcDbSavedByObjectVersion
1070
     0
1000
AcDbSavedByObjectVersion
1070
     0
1000
AcDbSavedByObjectVersion
1070
     0
1000
AcDbSavedByObjectVersion
1070
     0
1000
AcDbSavedByObjectVersion
1070
     0
1000
AcDbSavedByObjectVersion
1070
     0
1000
AcDbSavedByObjectVersion
1070
     0
1000
AcDbSavedByObjectVersion
1070
     0
1000
AcDbSavedByObjectVersion
1070
     0
1000
AcDbSavedByObjectVersion
1070
     0
1000
AcDbSavedByObjectVersion
1070
     0
1000
AcDbSavedByObjectVersion
1070
     0
  0
VISUALSTYLE
  5
33
102
{ACAD_REACTORS
330
2A
102
}
330
2A
100
AcDbVisualStyle
  2
Realistic
 70
     8
 71
     2
 72
     2
 73
     0
 90
        0
 40
-0.6
 41
-30.0
 62
     5
 63
     7
 74
     1
 91
        0
 64
     7
 65
   257
 75
     1
175
     1
 42
1.0
 92
        8
 66
     8
 43
1.0
 76
     1
 77
     6
 78
     2
 67
     7
 79
     5
170
     0
171
     0
290
     0
174
     0
 93
       13
 44
0.0
173
     0
291
     0
 45
0.0
1001
ACAD
1000
AcDbSavedByObjectVersion
1070
     0
1000
AcDbSavedByObjectVersion
1070
     0
1000
AcDbSavedByObjectVersion
1070
     0
1000
AcDbSavedByObjectVersion
1070
     0
1000
AcDbSavedByObjectVersion
1070
     0
1000
AcDbSavedByObjectVersion
1070
     0
1000
AcDbSavedByObjectVersion
1070
     0
1000
AcDbSavedByObjectVersion
1070
     0
1000
AcDbSavedByObjectVersion
1070
     0
1000
AcDbSavedByObjectVersion
1070
     0
1000
AcDbSavedByObjectVersion
1070
     0
1000
AcDbSavedByObjectVersion
1070
     0
1000
AcDbSavedByObjectVersion
1070
     0
1000
AcDbSavedByObjectVersion
1070
     0
1000
AcDbSavedByObjectVersion
1070
     0
1000
AcDbSavedByObjectVersion
1070
     0
1000
AcDbSavedByObjectVersion
1070
     0
1000
AcDbSavedByObjectVersion
1070
     0
1000
AcDbSavedByObjectVersion
1070
     0
1000
AcDbSavedByObjectVersion
1070
     0
1000
AcDbSavedByObjectVersion
1070
     0
1000
AcDbSavedByObjectVersion
1070
     0
1000
AcDbSavedByObjectVersion
1070
     0
1000
AcDbSavedByObjectVersion
1070
     0
1000
AcDbSavedByObjectVersion
1070
     0
1000
AcDbSavedByObjectVersion
1070
     0
1000
AcDbSavedByObjectVersion
1070
     0
1000
AcDbSavedByObjectVersion
1070
     0
1000
AcDbSavedByObjectVersion
1070
     0
1000
AcDbSavedByObjectVersion
1070
     0
1000
AcDbSavedByObjectVersion
1070
     0
1000
AcDbSavedByObjectVersion
1070
     0
1000
AcDbSavedByObjectVersion
1070
     0
1000
AcDbSavedByObjectVersion
1070
     0
1000
AcDbSavedByObjectVersion
1070
     0
1000
AcDbSavedByObjectVersion
1070
     0
1000
AcDbSavedByObjectVersion
1070
     0
1000
AcDbSavedByObjectVersion
1070
     0
1000
AcDbSavedByObjectVersion
1070
     0
1000
AcDbSavedByObjectVersion
1070
     0
1000
AcDbSavedByObjectVersion
1070
     0
1000
AcDbSavedByObjectVersion
1070
     0
1000
AcDbSavedByObjectVersion
1070
     0
1000
AcDbSavedByObjectVersion
1070
     0
1000
AcDbSavedByObjectVersion
1070
     0
1000
AcDbSavedByObjectVersion
1070
     0
1000
AcDbSavedByObjectVersion
1070
     0
1000
AcDbSavedByObjectVersion
1070
     0
1000
AcDbSavedByObjectVersion
1070
     0
1000
AcDbSavedByObjectVersion
1070
     0
  0
VISUALSTYLE
  5
37
102
{ACAD_REACTORS
330
2A
102
}
330
2A
100
AcDbVisualStyle
  2
Thicken
 70
    13
 71
     2
 72
     2
 73
     0
 90
        0
 40
-0.6
 41
-30.0
 62
     5
 63
     7
 74
     1
 91
        4
 64
     7
 65
   257
 75
     1
175
     1
 42
1.0
 92
       12
 66
     7
 43
1.0
 76
     1
 77
     6
 78
     2
 67
     7
 79
     5
170
     0
171
     0
290
     0
174
     0
 93
        1
 44
0.0
173
     0
291
     1
 45
0.0
1001
ACAD
1000
AcDbSavedByObjectVersion
1070
     0
1000
AcDbSavedByObjectVersion
1070
     0
1000
AcDbSavedByObjectVersion
1070
     0
1000
AcDbSavedByObjectVersion
1070
     0
1000
AcDbSavedByObjectVersion
1070
     0
1000
AcDbSavedByObjectVersion
1070
     0
1000
AcDbSavedByObjectVersion
1070
     0
1000
AcDbSavedByObjectVersion
1070
     0
1000
AcDbSavedByObjectVersion
1070
     0
1000
AcDbSavedByObjectVersion
1070
     0
1000
AcDbSavedByObjectVersion
1070
     0
1000
AcDbSavedByObjectVersion
1070
     0
1000
AcDbSavedByObjectVersion
1070
     0
1000
AcDbSavedByObjectVersion
1070
     0
1000
AcDbSavedByObjectVersion
1070
     0
1000
AcDbSavedByObjectVersion
1070
     0
1000
AcDbSavedByObjectVersion
1070
     0
1000
AcDbSavedByObjectVersion
1070
     0
1000
AcDbSavedByObjectVersion
1070
     0
1000
AcDbSavedByObjectVersion
1070
     0
1000
AcDbSavedByObjectVersion
1070
     0
1000
AcDbSavedByObjectVersion
1070
     0
1000
AcDbSavedByObjectVersion
1070
     0
1000
AcDbSavedByObjectVersion
1070
     0
1000
AcDbSavedByObjectVersion
1070
     0
1000
AcDbSavedByObjectVersion
1070
     0
1000
AcDbSavedByObjectVersion
1070
     0
1000
AcDbSavedByObjectVersion
1070
     0
1000
AcDbSavedByObjectVersion
1070
     0
1000
AcDbSavedByObjectVersion
1070
     0
1000
AcDbSavedByObjectVersion
1070
     0
1000
AcDbSavedByObjectVersion
1070
     0
1000
AcDbSavedByObjectVersion
1070
     0
1000
AcDbSavedByObjectVersion
1070
     0
1000
AcDbSavedByObjectVersion
1070
     0
1000
AcDbSavedByObjectVersion
1070
     0
1000
AcDbSavedByObjectVersion
1070
     0
1000
AcDbSavedByObjectVersion
1070
     0
1000
AcDbSavedByObjectVersion
1070
     0
1000
AcDbSavedByObjectVersion
1070
     0
1000
AcDbSavedByObjectVersion
1070
     0
1000
AcDbSavedByObjectVersion
1070
     0
1000
AcDbSavedByObjectVersion
1070
     0
1000
AcDbSavedByObjectVersion
1070
     0
1000
AcDbSavedByObjectVersion
1070
     0
1000
AcDbSavedByObjectVersion
1070
     0
1000
AcDbSavedByObjectVersion
1070
     0
1000
AcDbSavedByObjectVersion
1070
     0
1000
AcDbSavedByObjectVersion
1070
     0
1000
AcDbSavedByObjectVersion
1070
     0
  0
DICTIONARYVAR
  5
510B
102
{ACAD_REACTORS
330
5108
102
}
330
5108
100
DictionaryVariables
280
     0
  1
1:1
  0
DICTIONARYVAR
  5
510A
102
{ACAD_REACTORS
330
5108
102
}
330
5108
100
DictionaryVariables
280
     0
  1
STANDARD
  0
DICTIONARYVAR
  5
5109
102
{ACAD_REACTORS
330
5108
102
}
330
5108
100
DictionaryVariables
280
     0
  1
STANDARD
  0
DICTIONARYVAR
  5
510E
102
{ACAD_REACTORS
330
5108
102
}
330
5108
100
DictionaryVariables
280
     0
  1
1
  0
DICTIONARYVAR
  5
510D
102
{ACAD_REACTORS
330
5108
102
}
330
5108
100
DictionaryVariables
280
     0
  1
0
  0
DICTIONARYVAR
  5
510C
102
{ACAD_REACTORS
330
5108
102
}
330
5108
100
DictionaryVariables
280
     0
  1
127
  0
XRECORD
  5
11ACF
102
{ACAD_REACTORS
330
11ACE
102
}
330
11ACE
100
AcDbXrecord
280
     1
330
11089
  0
DICTIONARY
  5
1E5E4
330
1E
100
AcDbDictionary
280
     1
281
     1
  3
ACAD_XREC_ROUNDTRIP
360
1E5E5
  0
DICTIONARY
  5
1E5E8
330
26
100
AcDbDictionary
280
     1
281
     1
  3
ACAD_XREC_ROUNDTRIP
360
1E5E9
  0
DICTIONARY
  5
1E5E6
330
22
100
AcDbDictionary
280
     1
281
     1
  3
ACAD_XREC_ROUNDTRIP
360
1E5E7
  0
DICTIONARY
  5
4FEF
330
4FEE
100
AcDbDictionary
280
     1
281
     1
  3
ACAD_XREC_ROUNDTRIP
360
7C2C
  3
BUMPTILE
360
4FF1
  3
DIFFUSETILE
360
4FF0
  3
OPACITYTILE
360
4FF4
  3
REFLECTIONTILE
360
4FF3
  3
REFRACTIONTILE
360
4FF5
  3
SPECULARTILE
360
4FF2
  0
DICTIONARY
  5
4FE7
330
4FE6
100
AcDbDictionary
280
     1
281
     1
  3
ACAD_XREC_ROUNDTRIP
360
7C2B
  3
BUMPTILE
360
4FE9
  3
DIFFUSETILE
360
4FE8
  3
OPACITYTILE
360
4FEC
  3
REFLECTIONTILE
360
4FEB
  3
REFRACTIONTILE
360
4FED
  3
SPECULARTILE
360
4FEA
  0
DICTIONARY
  5
4FF7
330
4FF6
100
AcDbDictionary
280
     1
281
     1
  3
ACAD_XREC_ROUNDTRIP
360
7C2D
  3
BUMPTILE
360
4FF9
  3
DIFFUSETILE
360
4FF8
  3
OPACITYTILE
360
4FFC
  3
REFLECTIONTILE
360
4FFB
  3
REFRACTIONTILE
360
4FFD
  3
SPECULARTILE
360
4FFA
  0
DICTIONARY
  5
50D6
330
4FFF
100
AcDbDictionary
280
     1
281
     1
  3
ACAD_ROUNDTRIP_2008_TABLESTYLE_CELLSTYLEMAP
360
1E5C6
  3
ACAD_XREC_ROUNDTRIP
360
1E5EA
  0
XRECORD
  5
1E5E5
102
{ACAD_REACTORS
330
1E5E4
102
}
330
1E5E4
100
AcDbXrecord
280
     1
102
SHADEPLOT
 70
     0
102
SHADEPLOTRESLEVEL
 70
     2
102
SHADEPLOTCUSTOMDPI
 70
   300
  0
XRECORD
  5
1E5E9
102
{ACAD_REACTORS
330
1E5E8
102
}
330
1E5E8
100
AcDbXrecord
280
     1
102
SHADEPLOT
 70
     0
102
SHADEPLOTRESLEVEL
 70
     2
102
SHADEPLOTCUSTOMDPI
 70
   300
  0
XRECORD
  5
1E5E7
102
{ACAD_REACTORS
330
1E5E6
102
}
330
1E5E6
100
AcDbXrecord
280
     1
102
SHADEPLOT
 70
     1
102
SHADEPLOTRESLEVEL
 70
     2
102
SHADEPLOTCUSTOMDPI
 70
   300
  0
XRECORD
  5
7C2C
102
{ACAD_REACTORS
330
4FEF
102
}
330
4FEF
100
AcDbXrecord
280
     1
102
MATERIAL
148
0.0
149
0.0
149
0.0
 93
        0
 94
      127
282
     0
 72
     0
 77
     0
171
     0
175
     0
179
     0
273
     0
  0
XRECORD
  5
4FF1
102
{ACAD_REACTORS
330
4FEF
102
}
330
4FEF
100
AcDbXrecord
280
     1
270
     1
271
     1
  0
XRECORD
  5
4FF0
102
{ACAD_REACTORS
330
4FEF
102
}
330
4FEF
100
AcDbXrecord
280
     1
270
     1
271
     1
  0
XRECORD
  5
4FF4
102
{ACAD_REACTORS
330
4FEF
102
}
330
4FEF
100
AcDbXrecord
280
     1
270
     1
271
     1
  0
XRECORD
  5
4FF3
102
{ACAD_REACTORS
330
4FEF
102
}
330
4FEF
100
AcDbXrecord
280
     1
270
     1
271
     1
  0
XRECORD
  5
4FF5
102
{ACAD_REACTORS
330
4FEF
102
}
330
4FEF
100
AcDbXrecord
280
     1
270
     1
271
     1
  0
XRECORD
  5
4FF2
102
{ACAD_REACTORS
330
4FEF
102
}
330
4FEF
100
AcDbXrecord
280
     1
270
     1
271
     1
  0
XRECORD
  5
7C2B
102
{ACAD_REACTORS
330
4FE7
102
}
330
4FE7
100
AcDbXrecord
280
     1
102
MATERIAL
148
0.0
149
0.0
149
0.0
 93
        0
 94
      127
282
     0
 72
     0
 77
     0
171
     0
175
     0
179
     0
273
     0
  0
XRECORD
  5
4FE9
102
{ACAD_REACTORS
330
4FE7
102
}
330
4FE7
100
AcDbXrecord
280
     1
270
     1
271
     1
  0
XRECORD
  5
4FE8
102
{ACAD_REACTORS
330
4FE7
102
}
330
4FE7
100
AcDbXrecord
280
     1
270
     1
271
     1
  0
XRECORD
  5
4FEC
102
{ACAD_REACTORS
330
4FE7
102
}
330
4FE7
100
AcDbXrecord
280
     1
270
     1
271
     1
  0
XRECORD
  5
4FEB
102
{ACAD_REACTORS
330
4FE7
102
}
330
4FE7
100
AcDbXrecord
280
     1
270
     1
271
     1
  0
XRECORD
  5
4FED
102
{ACAD_REACTORS
330
4FE7
102
}
330
4FE7
100
AcDbXrecord
280
     1
270
     1
271
     1
  0
XRECORD
  5
4FEA
102
{ACAD_REACTORS
330
4FE7
102
}
330
4FE7
100
AcDbXrecord
280
     1
270
     1
271
     1
  0
XRECORD
  5
7C2D
102
{ACAD_REACTORS
330
4FF7
102
}
330
4FF7
100
AcDbXrecord
280
     1
102
MATERIAL
148
0.0
149
0.0
149
0.0
 93
        0
 94
      127
282
     0
 72
     0
 77
     0
171
     0
175
     0
179
     0
273
     0
  0
XRECORD
  5
4FF9
102
{ACAD_REACTORS
330
4FF7
102
}
330
4FF7
100
AcDbXrecord
280
     1
270
     1
271
     1
  0
XRECORD
  5
4FF8
102
{ACAD_REACTORS
330
4FF7
102
}
330
4FF7
100
AcDbXrecord
280
     1
270
     1
271
     1
  0
XRECORD
  5
4FFC
102
{ACAD_REACTORS
330
4FF7
102
}
330
4FF7
100
AcDbXrecord
280
     1
270
     1
271
     1
  0
XRECORD
  5
4FFB
102
{ACAD_REACTORS
330
4FF7
102
}
330
4FF7
100
AcDbXrecord
280
     1
270
     1
271
     1
  0
XRECORD
  5
4FFD
102
{ACAD_REACTORS
330
4FF7
102
}
330
4FF7
100
AcDbXrecord
280
     1
270
     1
271
     1
  0
XRECORD
  5
4FFA
102
{ACAD_REACTORS
330
4FF7
102
}
330
4FF7
100
AcDbXrecord
280
     1
270
     1
271
     1
  0
CELLSTYLEMAP
  5
1E5C6
102
{ACAD_REACTORS
330
50D6
102
}
330
50D6
100
AcDbCellStyleMap
 90
        3
300
CELLSTYLE
  1
TABLEFORMAT_BEGIN
 90
        5
170
     1
 91
        0
 92
    32768
 62
   257
 93
        1
300
CONTENTFORMAT
  1
CONTENTFORMAT_BEGIN
 90
        0
 91
        0
 92
      512
 93
        0
300

 40
0.0
140
1.0
 94
        5
 62
     0
340
11
144
0.25
309
CONTENTFORMAT_END
171
     1
301
MARGIN
  1
CELLMARGIN_BEGIN
 40
0.06
 40
0.06
 40
0.06
 40
0.06
 40
0.18
 40
0.18
309
CELLMARGIN_END
 94
        6
 95
        1
302
GRIDFORMAT
  1
GRIDFORMAT_BEGIN
 90
        0
 91
        1
 62
     0
 92
       -2
340
0
 93
        0
 40
0.045
309
GRIDFORMAT_END
 95
        2
302
GRIDFORMAT
  1
GRIDFORMAT_BEGIN
 90
        0
 91
        1
 62
     0
 92
       -2
340
0
 93
        0
 40
0.045
309
GRIDFORMAT_END
 95
        4
302
GRIDFORMAT
  1
GRIDFORMAT_BEGIN
 90
        0
 91
        1
 62
     0
 92
       -2
340
0
 93
        0
 40
0.045
309
GRIDFORMAT_END
 95
        8
302
GRIDFORMAT
  1
GRIDFORMAT_BEGIN
 90
        0
 91
        1
 62
     0
 92
       -2
340
0
 93
        0
 40
0.045
309
GRIDFORMAT_END
 95
       16
302
GRIDFORMAT
  1
GRIDFORMAT_BEGIN
 90
        0
 91
        1
 62
     0
 92
       -2
340
0
 93
        0
 40
0.045
309
GRIDFORMAT_END
 95
       32
302
GRIDFORMAT
  1
GRIDFORMAT_BEGIN
 90
        0
 91
        1
 62
     0
 92
       -2
340
0
 93
        0
 40
0.045
309
GRIDFORMAT_END
309
TABLEFORMAT_END
  1
CELLSTYLE_BEGIN
 90
        1
 91
        1
300
_TITLE
309
CELLSTYLE_END
300
CELLSTYLE
  1
TABLEFORMAT_BEGIN
 90
        5
170
     1
 91
        0
 92
        0
 62
   257
 93
        1
300
CONTENTFORMAT
  1
CONTENTFORMAT_BEGIN
 90
        0
 91
        0
 92
      512
 93
        0
300

 40
0.0
140
1.0
 94
        5
 62
     0
340
11
144
0.18
309
CONTENTFORMAT_END
171
     1
301
MARGIN
  1
CELLMARGIN_BEGIN
 40
0.06
 40
0.06
 40
0.06
 40
0.06
 40
0.18
 40
0.18
309
CELLMARGIN_END
 94
        6
 95
        1
302
GRIDFORMAT
  1
GRIDFORMAT_BEGIN
 90
        0
 91
        1
 62
     0
 92
       -2
340
0
 93
        0
 40
0.045
309
GRIDFORMAT_END
 95
        2
302
GRIDFORMAT
  1
GRIDFORMAT_BEGIN
 90
        0
 91
        1
 62
     0
 92
       -2
340
0
 93
        0
 40
0.045
309
GRIDFORMAT_END
 95
        4
302
GRIDFORMAT
  1
GRIDFORMAT_BEGIN
 90
        0
 91
        1
 62
     0
 92
       -2
340
0
 93
        0
 40
0.045
309
GRIDFORMAT_END
 95
        8
302
GRIDFORMAT
  1
GRIDFORMAT_BEGIN
 90
        0
 91
        1
 62
     0
 92
       -2
340
0
 93
        0
 40
0.045
309
GRIDFORMAT_END
 95
       16
302
GRIDFORMAT
  1
GRIDFORMAT_BEGIN
 90
        0
 91
        1
 62
     0
 92
       -2
340
0
 93
        0
 40
0.045
309
GRIDFORMAT_END
 95
       32
302
GRIDFORMAT
  1
GRIDFORMAT_BEGIN
 90
        0
 91
        1
 62
     0
 92
       -2
340
0
 93
        0
 40
0.045
309
GRIDFORMAT_END
309
TABLEFORMAT_END
  1
CELLSTYLE_BEGIN
 90
        2
 91
        1
300
_HEADER
309
CELLSTYLE_END
300
CELLSTYLE
  1
TABLEFORMAT_BEGIN
 90
        5
170
     1
 91
        0
 92
        0
 62
   257
 93
        1
300
CONTENTFORMAT
  1
CONTENTFORMAT_BEGIN
 90
        0
 91
        0
 92
      512
 93
        0
300

 40
0.0
140
1.0
 94
        2
 62
     0
340
11
144
0.18
309
CONTENTFORMAT_END
171
     1
301
MARGIN
  1
CELLMARGIN_BEGIN
 40
0.06
 40
0.06
 40
0.06
 40
0.06
 40
0.18
 40
0.18
309
CELLMARGIN_END
 94
        6
 95
        1
302
GRIDFORMAT
  1
GRIDFORMAT_BEGIN
 90
        0
 91
        1
 62
     0
 92
       -2
340
0
 93
        0
 40
0.045
309
GRIDFORMAT_END
 95
        2
302
GRIDFORMAT
  1
GRIDFORMAT_BEGIN
 90
        0
 91
        1
 62
     0
 92
       -2
340
0
 93
        0
 40
0.045
309
GRIDFORMAT_END
 95
        4
302
GRIDFORMAT
  1
GRIDFORMAT_BEGIN
 90
        0
 91
        1
 62
     0
 92
       -2
340
0
 93
        0
 40
0.045
309
GRIDFORMAT_END
 95
        8
302
GRIDFORMAT
  1
GRIDFORMAT_BEGIN
 90
        0
 91
        1
 62
     0
 92
       -2
340
0
 93
        0
 40
0.045
309
GRIDFORMAT_END
 95
       16
302
GRIDFORMAT
  1
GRIDFORMAT_BEGIN
 90
        0
 91
        1
 62
     0
 92
       -2
340
0
 93
        0
 40
0.045
309
GRIDFORMAT_END
 95
       32
302
GRIDFORMAT
  1
GRIDFORMAT_BEGIN
 90
        0
 91
        1
 62
     0
 92
       -2
340
0
 93
        0
 40
0.045
309
GRIDFORMAT_END
309
TABLEFORMAT_END
  1
CELLSTYLE_BEGIN
 90
        3
 91
        2
300
_DATA
309
CELLSTYLE_END
  0
XRECORD
  5
1E5EA
102
{ACAD_REACTORS
330
50D6
102
}
330
50D6
100
AcDbXrecord
280
     1
102
ACAD_ROUNDTRIP_PRE2007_TABLESTYLE
 90
      512
 91
        0
  1

 92
      512
 93
        0
  2

 94
      512
 95
        0
  3

  0
ENDSEC
  0
EOF
