  0
SECTION
  2
HEADER
  9
$ACADVER
  1
AC1021
  9
$ACADMAINTVER
 70
    25
  9
$DWGCODEPAGE
  3
ANSI_936
  9
$LASTSAVEDBY
  1
gy.huang
  9
$INSBASE
 10
0.0
 20
0.0
 30
0.0
  9
$EXTMIN
 10
1558.330952458469
 20
892.1637450621506
 30
-0.0015258207003583
  9
$EXTMAX
 10
2003.915668389895
 20
1207.269258976296
 30
0.0000000349246037
  9
$LIMMIN
 10
0.0
 20
0.0
  9
$LIMMAX
 10
1189.0
 20
841.0
  9
$ORTHOMODE
 70
     1
  9
$REGENMODE
 70
     1
  9
$FILLMODE
 70
     1
  9
$QTEXTMODE
 70
     0
  9
$MIRRTEXT
 70
     1
  9
$LTSCALE
 40
65.395
  9
$ATTMODE
 70
     1
  9
$TEXTSIZE
 40
0.2
  9
$TRACEWID
 40
0.05
  9
$TEXTSTYLE
  7
STANDARD
  9
$CLAYER
  8
Dim
  9
$CELTYPE
  6
ByLayer
  9
$CECOLOR
 62
   256
  9
$CELTSCALE
 40
1.0
  9
$DISPSILH
 70
     0
  9
$DIMSCALE
 40
1.0
  9
$DIMASZ
 40
3.5
  9
$DIMEXO
 40
0.2
  9
$DIMDLI
 40
0.2
  9
$DIMRND
 40
0.0
  9
$DIMDLE
 40
0.0
  9
$DIMEXE
 40
1.199999999999999
  9
$DIMTP
 40
0.0
  9
$DIMTM
 40
0.0
  9
$DIMTXT
 40
4.0
  9
$DIMCEN
 40
0.0
  9
$DIMTSZ
 40
0.0
  9
$DIMTOL
 70
     0
  9
$DIMLIM
 70
     0
  9
$DIMTIH
 70
     0
  9
$DIMTOH
 70
     0
  9
$DIMSE1
 70
     0
  9
$DIMSE2
 70
     0
  9
$DIMTAD
 70
     1
  9
$DIMZIN
 70
     8
  9
$DIMBLK
  1

  9
$DIMASO
 70
     1
  9
$DIMSHO
 70
     1
  9
$DIMPOST
  1

  9
$DIMAPOST
  1

  9
$DIMALT
 70
     0
  9
$DIMALTD
 70
     2
  9
$DIMALTF
 40
25.4
  9
$DIMLFAC
 40
1.0
  9
$DIMTOFL
 70
     0
  9
$DIMTVP
 40
0.0
  9
$DIMTIX
 70
     0
  9
$DIMSOXD
 70
     0
  9
$DIMSAH
 70
     0
  9
$DIMBLK1
  1

  9
$DIMBLK2
  1

  9
$DIMSTYLE
  2
01
  9
$DIMCLRD
 70
     1
  9
$DIMCLRE
 70
     6
  9
$DIMCLRT
 70
     4
  9
$DIMTFAC
 40
1.0
  9
$DIMGAP
 40
0.5
  9
$DIMJUST
 70
     0
  9
$DIMSD1
 70
     0
  9
$DIMSD2
 70
     0
  9
$DIMTOLJ
 70
     1
  9
$DIMTZIN
 70
     0
  9
$DIMALTZ
 70
     0
  9
$DIMALTTZ
 70
     0
  9
$DIMUPT
 70
     0
  9
$DIMDEC
 70
     2
  9
$DIMTDEC
 70
     2
  9
$DIMALTU
 70
     2
  9
$DIMALTTD
 70
     2
  9
$DIMTXSTY
  7
Romans字体
  9
$DIMAUNIT
 70
     0
  9
$DIMADEC
 70
     2
  9
$DIMALTRND
 40
0.0
  9
$DIMAZIN
 70
     2
  9
$DIMDSEP
 70
    46
  9
$DIMATFIT
 70
     3
  9
$DIMFRAC
 70
     0
  9
$DIMLDRBLK
  1

  9
$DIMLUNIT
 70
     2
  9
$DIMLWD
 70
    -2
  9
$DIMLWE
 70
    -2
  9
$DIMTMOVE
 70
     0
  9
$DIMFXL
 40
1.0
  9
$DIMFXLON
 70
     0
  9
$DIMJOGANG
 40
0.7853981633974483
  9
$DIMTFILL
 70
     0
  9
$DIMTFILLCLR
 70
     0
  9
$DIMARCSYM
 70
     0
  9
$DIMLTYPE
  6

  9
$DIMLTEX1
  6

  9
$DIMLTEX2
  6

  9
$LUNITS
 70
     2
  9
$LUPREC
 70
     4
  9
$SKETCHINC
 40
0.1
  9
$FILLETRAD
 40
0.0
  9
$AUNITS
 70
     0
  9
$AUPREC
 70
     0
  9
$MENU
  1
acad
  9
$ELEVATION
 40
0.0
  9
$PELEVATION
 40
0.0
  9
$THICKNESS
 40
0.0
  9
$LIMCHECK
 70
     0
  9
$CHAMFERA
 40
0.0
  9
$CHAMFERB
 40
0.0
  9
$CHAMFERC
 40
0.0
  9
$CHAMFERD
 40
0.0
  9
$SKPOLY
 70
     0
  9
$TDCREATE
 40
2454351.702036852
  9
$TDUCREATE
 40
2454351.368703519
  9
$TDUPDATE
 40
2460301.719913090
  9
$TDUUPDATE
 40
2460301.386579757
  9
$TDINDWG
 40
1.1797571181
  9
$TDUSRTIMER
 40
1.1797544213
  9
$USRTIMER
 70
     1
  9
$ANGBASE
 50
0.0
  9
$ANGDIR
 70
     0
  9
$PDMODE
 70
     3
  9
$PDSIZE
 40
8.0
  9
$PLINEWID
 40
0.0
  9
$SPLFRAME
 70
     0
  9
$SPLINETYPE
 70
     6
  9
$SPLINESEGS
 70
     8
  9
$HANDSEED
  5
CCF
  9
$SURFTAB1
 70
     6
  9
$SURFTAB2
 70
     6
  9
$SURFTYPE
 70
     6
  9
$SURFU
 70
     6
  9
$SURFV
 70
     6
  9
$UCSBASE
  2

  9
$UCSNAME
  2

  9
$UCSORG
 10
0.0
 20
0.0
 30
0.0
  9
$UCSXDIR
 10
1.0
 20
0.0
 30
0.0
  9
$UCSYDIR
 10
0.0
 20
1.0
 30
0.0
  9
$UCSORTHOREF
  2

  9
$UCSORTHOVIEW
 70
     0
  9
$UCSORGTOP
 10
0.0
 20
0.0
 30
0.0
  9
$UCSORGBOTTOM
 10
0.0
 20
0.0
 30
0.0
  9
$UCSORGLEFT
 10
0.0
 20
0.0
 30
0.0
  9
$UCSORGRIGHT
 10
0.0
 20
0.0
 30
0.0
  9
$UCSORGFRONT
 10
0.0
 20
0.0
 30
0.0
  9
$UCSORGBACK
 10
0.0
 20
0.0
 30
0.0
  9
$PUCSBASE
  2

  9
$PUCSNAME
  2

  9
$PUCSORG
 10
0.0
 20
0.0
 30
0.0
  9
$PUCSXDIR
 10
1.0
 20
0.0
 30
0.0
  9
$PUCSYDIR
 10
0.0
 20
1.0
 30
0.0
  9
$PUCSORTHOREF
  2

  9
$PUCSORTHOVIEW
 70
     0
  9
$PUCSORGTOP
 10
0.0
 20
0.0
 30
0.0
  9
$PUCSORGBOTTOM
 10
0.0
 20
0.0
 30
0.0
  9
$PUCSORGLEFT
 10
0.0
 20
0.0
 30
0.0
  9
$PUCSORGRIGHT
 10
0.0
 20
0.0
 30
0.0
  9
$PUCSORGFRONT
 10
0.0
 20
0.0
 30
0.0
  9
$PUCSORGBACK
 10
0.0
 20
0.0
 30
0.0
  9
$USERI1
 70
     0
  9
$USERI2
 70
     0
  9
$USERI3
 70
     0
  9
$USERI4
 70
     0
  9
$USERI5
 70
     0
  9
$USERR1
 40
0.0
  9
$USERR2
 40
0.0
  9
$USERR3
 40
0.0
  9
$USERR4
 40
0.0
  9
$USERR5
 40
2.5
  9
$WORLDVIEW
 70
     1
  9
$SHADEDGE
 70
     3
  9
$SHADEDIF
 70
    70
  9
$TILEMODE
 70
     1
  9
$MAXACTVP
 70
    16
  9
$PINSBASE
 10
0.0
 20
0.0
 30
0.0
  9
$PLIMCHECK
 70
     0
  9
$PEXTMIN
 10
1.000000000000000E+20
 20
1.000000000000000E+20
 30
1.000000000000000E+20
  9
$PEXTMAX
 10
-1.000000000000000E+20
 20
-1.000000000000000E+20
 30
-1.000000000000000E+20
  9
$PLIMMIN
 10
0.0
 20
0.0
  9
$PLIMMAX
 10
12.0
 20
9.0
  9
$UNITMODE
 70
     0
  9
$VISRETAIN
 70
     0
  9
$PLINEGEN
 70
     1
  9
$PSLTSCALE
 70
     0
  9
$TREEDEPTH
 70
  3020
  9
$CMLSTYLE
  2
Standard
  9
$CMLJUST
 70
     0
  9
$CMLSCALE
 40
1.0
  9
$PROXYGRAPHICS
 70
     0
  9
$MEASUREMENT
 70
     1
  9
$CELWEIGHT
370
    -1
  9
$ENDCAPS
280
     0
  9
$JOINSTYLE
280
     0
  9
$LWDISPLAY
290
     0
  9
$INSUNITS
 70
     4
  9
$HYPERLINKBASE
  1

  9
$STYLESHEET
  1
monochrome.ctb
  9
$XEDIT
290
     1
  9
$CEPSNTYPE
380
     0
  9
$PSTYLEMODE
290
     1
  9
$FINGERPRINTGUID
  2
{BA0869CA-C468-4FC5-95C0-4FEC854C70F2}
  9
$VERSIONGUID
  2
{D96DB644-F017-4DBB-9FE6-9B4E7F2DEF18}
  9
$EXTNAMES
290
     1
  9
$PSVPSCALE
 40
0.0
  9
$OLESTARTUP
290
     0
  9
$SORTENTS
280
   127
  9
$INDEXCTL
280
     0
  9
$HIDETEXT
280
     1
  9
$XCLIPFRAME
290
     0
  9
$HALOGAP
280
     0
  9
$OBSCOLOR
 70
   257
  9
$OBSLTYPE
280
     0
  9
$INTERSECTIONDISPLAY
280
     0
  9
$INTERSECTIONCOLOR
 70
   257
  9
$DIMASSOC
280
     2
  9
$PROJECTNAME
  1

  9
$CAMERADISPLAY
290
     0
  9
$LENSLENGTH
 40
50.0
  9
$CAMERAHEIGHT
 40
0.0
  9
$STEPSPERSEC
 40
2.0
  9
$STEPSIZE
 40
6.0
  9
$3DDWFPREC
 40
2.0
  9
$PSOLWIDTH
 40
0.25
  9
$PSOLHEIGHT
 40
4.0
  9
$LOFTANG1
 40
1.570795999999999
  9
$LOFTANG2
 40
1.570795999999999
  9
$LOFTMAG1
 40
0.0
  9
$LOFTMAG2
 40
0.0
  9
$LOFTPARAM
 70
     7
  9
$LOFTNORMALS
280
     1
  9
$LATITUDE
 40
37.795
  9
$LONGITUDE
 40
-122.394
  9
$NORTHDIRECTION
 40
0.0
  9
$TIMEZONE
 70
 -8000
  9
$LIGHTGLYPHDISPLAY
280
     1
  9
$TILEMODELIGHTSYNCH
280
     1
  9
$CMATERIAL
347
37
  9
$SOLIDHIST
280
     1
  9
$SHOWHIST
280
     1
  9
$DWFFRAME
280
     2
  9
$DGNFRAME
280
     0
  9
$REALWORLDSCALE
290
     1
  9
$INTERFERECOLOR
 62
     1
  9
$INTERFEREOBJVS
345
51
  9
$INTERFEREVPVS
346
52
  9
$CSHADOW
280
     0
  9
$SHADOWPLANELOCATION
 40
0.0
  0
ENDSEC
  0
SECTION
  2
CLASSES
  0
CLASS
  1
ACDBDICTIONARYWDFLT
  2
AcDbDictionaryWithDefault
  3
ObjectDBX Classes
 90
        0
 91
        1
280
     0
281
     0
  0
CLASS
  1
IMAGE
  2
AcDbRasterImage
  3
ISM
 90
     2175
 91
        0
280
     0
281
     1
  0
CLASS
  1
DICTIONARYVAR
  2
AcDbDictionaryVar
  3
ObjectDBX Classes
 90
        0
 91
        8
280
     0
281
     0
  0
CLASS
  1
RASTERVARIABLES
  2
AcDbRasterVariables
  3
ISM
 90
        0
 91
        0
280
     0
281
     0
  0
CLASS
  1
IMAGEDEF
  2
AcDbRasterImageDef
  3
ISM
 90
        0
 91
        0
280
     0
281
     0
  0
CLASS
  1
IMAGEDEF_REACTOR
  2
AcDbRasterImageDefReactor
  3
ISM
 90
        1
 91
        0
280
     0
281
     0
  0
CLASS
  1
IDBUFFER
  2
AcDbIdBuffer
  3
ObjectDBX Classes
 90
        0
 91
        0
280
     0
281
     0
  0
CLASS
  1
SPATIAL_FILTER
  2
AcDbSpatialFilter
  3
ObjectDBX Classes
 90
        0
 91
        0
280
     0
281
     0
  0
CLASS
  1
SORTENTSTABLE
  2
AcDbSortentsTable
  3
ObjectDBX Classes
 90
        0
 91
        2
280
     0
281
     0
  0
CLASS
  1
LAYER_INDEX
  2
AcDbLayerIndex
  3
ObjectDBX Classes
 90
        0
 91
        0
280
     0
281
     0
  0
CLASS
  1
SPATIAL_INDEX
  2
AcDbSpatialIndex
  3
ObjectDBX Classes
 90
        0
 91
        0
280
     0
281
     0
  0
CLASS
  1
OBJECT_PTR
  2
CAseDLPNTableRecord
  3
ASE-LPNTableRecord
 90
        1
 91
        0
280
     0
281
     0
  0
CLASS
  1
PLOTSETTINGS
  2
AcDbPlotSettings
  3
ObjectDBX Classes
 90
        0
 91
        0
280
     0
281
     0
  0
CLASS
  1
WIPEOUT
  2
AcDbWipeout
  3
"WipeOut|Product Desc: Object Enabler for WipeOut entity                        |Company: Autodesk, Inc.                        |WEB Address: www.autodesk.com"
 90
     2175
 91
        0
280
     0
281
     1
  0
CLASS
  1
WIPEOUTVARIABLES
  2
AcDbWipeoutVariables
  3
"WipeOut|Product Desc:     WipeOut Dbx Application|Company:          Autodesk, Inc.|WEB Address:      www.autodesk.com"
 90
        0
 91
        0
280
     0
281
     0
  0
CLASS
  1
RTEXT
  2
RText
  3
RText|AutoCAD Express Tool|expresstools@autodesk.com
 90
        0
 91
        0
280
     1
281
     1
  0
CLASS
  1
ARCALIGNEDTEXT
  2
AcDbArcAlignedText
  3
ATEXT|AutoCAD Express Tool|expresstools@autodesk.com
 90
        0
 91
        0
280
     1
281
     1
  0
CLASS
  1
VLO-VL
  2
vlo_VL
  3
VL|AutoLISP based application
 90
      129
 91
        0
280
     0
281
     0
  0
CLASS
  1
DIMASSOC
  2
AcDbDimAssoc
  3
"AcDbDimAssoc|Product Desc:     AcDim ARX App For Dimension|Company:          Autodesk, Inc.|WEB Address:      www.autodesk.com"
 90
        0
 91
        3
280
     0
281
     0
  0
CLASS
  1
ACAD_EVALUATION_GRAPH
  2
AcDbEvalGraph
  3
ObjectDBX Classes
 90
     1153
 91
        1
280
     0
281
     0
  0
CLASS
  1
ACDB_DYNAMICBLOCKPURGEPREVENTER_VERSION
  2
AcDbDynamicBlockPurgePreventer
  3
ObjectDBX Classes
 90
     1153
 91
        1
280
     0
281
     0
  0
CLASS
  1
MATERIAL
  2
AcDbMaterial
  3
ObjectDBX Classes
 90
     1153
 91
        3
280
     0
281
     0
  0
CLASS
  1
VISUALSTYLE
  2
AcDbVisualStyle
  3
ObjectDBX Classes
 90
     4095
 91
       16
280
     0
281
     0
  0
CLASS
  1
TABLESTYLE
  2
AcDbTableStyle
  3
ObjectDBX Classes
 90
     4095
 91
        1
280
     0
281
     0
  0
CLASS
  1
SCALE
  2
AcDbScale
  3
ObjectDBX Classes
 90
     1153
 91
       33
280
     0
281
     0
  0
CLASS
  1
MLEADERSTYLE
  2
AcDbMLeaderStyle
  3
ACDB_MLEADERSTYLE_CLASS
 90
     4095
 91
        1
280
     0
281
     0
  0
CLASS
  1
CELLSTYLEMAP
  2
AcDbCellStyleMap
  3
ObjectDBX Classes
 90
     1152
 91
        2
280
     0
281
     0
  0
CLASS
  1
ACAECUSTOBJ
  2
AcAeEditorObj
  3
AcAeEditorObj
 90
     1024
 91
        1
280
     1
281
     0
  0
CLASS
  1
ACDB_BLOCKREPRESENTATION_DATA
  2
AcDbBlockRepresentationData
  3
ObjectDBX Classes
 90
     1153
 91
        0
280
     0
281
     0
  0
CLASS
  1
TCH_DBCONFIG
  2
TDbConfig
  3
"TCH_KERNAL|缺乏解释器天正图形看不见, 请下载天正插件|网址: www.tangent.com.cn"
 90
        1
 91
        0
280
     0
281
     0
  0
CLASS
  1
SOLID_BACKGROUND
  2
AcDbSolidBackground
  3
SCENEOE
 90
     4095
 91
        0
280
     0
281
     0
  0
CLASS
  1
NPOCOLLECTION
  2
AcDbImpNonPersistentObjectsCollection
  3
ObjectDBX Classes
 90
     1153
 91
        0
280
     0
281
     0
  0
ENDSEC
  0
SECTION
  2
TABLES
  0
TABLE
  2
VPORT
  5
27
102
{ACAD_XDICTIONARY
360
2B
102
}
330
0
100
AcDbSymbolTable
 70
     1
  0
VPORT
  5
28
330
27
100
AcDbSymbolTableRecord
100
AcDbViewportTableRecord
  2
*Active
 70
     0
 10
0.0
 20
0.0
 11
1.0
 21
1.0
 12
1781.123310424182
 22
1049.716502019223
 13
0.0
 23
0.0
 14
1.0
 24
1.0
 15
0.0
 25
0.0
 16
0.0
 26
0.0
 36
1.0
 17
0.0
 27
0.0
 37
0.0
 40
318.4458550510444
 41
2.587610619469026
 42
50.0
 43
0.0
 44
0.0
 50
0.0
 51
0.0
 71
     0
 72
   100
 73
     1
 74
     1
 75
     0
 76
     0
 77
     0
 78
     0
281
     0
 65
     0
110
0.0
120
0.0
130
0.0
111
1.0
121
0.0
131
0.0
112
0.0
122
1.0
132
0.0
 79
     0
146
0.0
348
29
 60
     3
 61
     5
292
     1
282
     1
141
0.0
142
0.0
 63
   250
421
  3355443
  0
ENDTAB
  0
TABLE
  2
LTYPE
  5
22
330
0
100
AcDbSymbolTable
 70
     2
  0
LTYPE
  5
23
330
22
100
AcDbSymbolTableRecord
100
AcDbLinetypeTableRecord
  2
ByBlock
 70
     0
  3

 72
    65
 73
     0
 40
0.0
  0
LTYPE
  5
24
330
22
100
AcDbSymbolTableRecord
100
AcDbLinetypeTableRecord
  2
ByLayer
 70
     0
  3

 72
    65
 73
     0
 40
0.0
  0
LTYPE
  5
10
330
22
100
AcDbSymbolTableRecord
100
AcDbLinetypeTableRecord
  2
CONTINUOUS
 70
     0
  3
Solid line
 72
    65
 73
     0
 40
0.0
  0
LTYPE
  5
512
330
22
100
AcDbSymbolTableRecord
100
AcDbLinetypeTableRecord
  2
CENTER
 70
     0
  3
____ _ ____ _ ____ _ ____
 72
    65
 73
     4
 40
47.4
 49
22.0
 74
     4
 75
     0
340
0
 46
0.0
 50
0.0
 44
0.0
 45
0.0
 49
-8.5
 74
     4
 75
     0
340
0
 46
0.0
 50
0.0
 44
0.0
 45
0.0
 49
8.5
 74
     4
 75
     0
340
0
 46
0.0
 50
0.0
 44
0.0
 45
0.0
 49
-8.5
 74
     4
 75
     0
340
0
 46
0.0
 50
0.0
 44
0.0
 45
0.0
  0
ENDTAB
  0
TABLE
  2
LAYER
  5
19
102
{ACAD_XDICTIONARY
360
1A
102
}
330
0
100
AcDbSymbolTable
 70
     6
  0
LAYER
  5
6
102
{ACAD_XDICTIONARY
360
7
102
}
330
19
100
AcDbSymbolTableRecord
100
AcDbLayerTableRecord
  2
0
 70
     0
 62
     7
  6
CONTINUOUS
370
    30
390
9
347
C
  0
LAYER
  5
23D
330
19
100
AcDbSymbolTableRecord
100
AcDbLayerTableRecord
  2
Defpoints
 70
     0
 62
     7
  6
CONTINUOUS
290
     0
370
    -3
390
9
347
C
  0
LAYER
  5
75
102
{ACAD_XDICTIONARY
360
76
102
}
330
19
100
AcDbSymbolTableRecord
100
AcDbLayerTableRecord
  2
图框
 70
     0
 62
     7
  6
CONTINUOUS
370
    20
390
9
347
C
  0
LAYER
  5
3EF
330
19
100
AcDbSymbolTableRecord
100
AcDbLayerTableRecord
  2
打标文字
 70
     0
 62
     3
  6
CONTINUOUS
370
    20
390
9
347
C
  0
LAYER
  5
4C
102
{ACAD_XDICTIONARY
360
4D
102
}
330
19
100
AcDbSymbolTableRecord
100
AcDbLayerTableRecord
  2
Dim
 70
     0
 62
     3
  6
CONTINUOUS
370
    15
390
9
347
C
  0
LAYER
  5
513
330
19
100
AcDbSymbolTableRecord
100
AcDbLayerTableRecord
  2
1
 70
     0
 62
     7
420
 16777215
  6
CONTINUOUS
370
    -3
390
9
347
C
  0
ENDTAB
  0
TABLE
  2
STYLE
  5
1F
330
0
100
AcDbSymbolTable
 70
     5
  0
STYLE
  5
20
330
1F
100
AcDbSymbolTableRecord
100
AcDbTextStyleTableRecord
  2
STANDARD
 70
     0
 40
0.0
 41
0.75
 50
0.0
 71
     0
 42
0.2
  3

  4

1001
ACAD
1000
仿宋_GB2312
1071
    34353
  0
STYLE
  5
2F
330
1F
100
AcDbSymbolTableRecord
100
AcDbTextStyleTableRecord
  2
Romans字体
 70
     0
 40
0.0
 41
0.75
 50
0.0
 71
     0
 42
0.2
  3
romans.shx
  4

  0
STYLE
  5
91
330
1F
100
AcDbSymbolTableRecord
100
AcDbTextStyleTableRecord
  2
工程字
 70
     0
 40
0.0
 41
1.0
 50
0.0
 71
     0
 42
3.5
  3
gbenor.shx
  4
gbcbig.shx
  0
STYLE
  5
93
330
1F
100
AcDbSymbolTableRecord
100
AcDbTextStyleTableRecord
  2
Chinese
 70
     0
 40
0.0
 41
1.0
 50
0.0
 71
     0
 42
2.5
  3
PMingLiU.ttf
  4

1001
ACAD
1000
PMingLiU
1071
    34834
  0
ENDTAB
  0
TABLE
  2
VIEW
  5
25
330
0
100
AcDbSymbolTable
 70
     0
  0
ENDTAB
  0
TABLE
  2
UCS
  5
26
330
0
100
AcDbSymbolTable
 70
     0
  0
ENDTAB
  0
TABLE
  2
APPID
  5
2C
330
0
100
AcDbSymbolTable
 70
    10
  0
APPID
  5
1E
330
2C
100
AcDbSymbolTableRecord
100
AcDbRegAppTableRecord
  2
ACAD
 70
     0
  0
APPID
  5
7F
330
2C
100
AcDbSymbolTableRecord
100
AcDbRegAppTableRecord
  2
AcDbBlockRepETag
 70
     0
  0
APPID
  5
117
330
2C
100
AcDbSymbolTableRecord
100
AcDbRegAppTableRecord
  2
AcDbDynamicBlockGUID
 70
     0
  0
APPID
  5
30
330
2C
100
AcDbSymbolTableRecord
100
AcDbRegAppTableRecord
  2
ACAD_DSTYLE_DIMJAG
 70
     0
  0
APPID
  5
31
330
2C
100
AcDbSymbolTableRecord
100
AcDbRegAppTableRecord
  2
ACAD_DSTYLE_DIMTALN
 70
     0
  0
APPID
  5
14
330
2C
100
AcDbSymbolTableRecord
100
AcDbRegAppTableRecord
  2
ACAD_PSEXT
 70
     0
  0
APPID
  5
42C
330
2C
100
AcDbSymbolTableRecord
100
AcDbRegAppTableRecord
  2
ACAD_MLEADERVER
 70
     0
  0
APPID
  5
472
330
2C
100
AcDbSymbolTableRecord
100
AcDbRegAppTableRecord
  2
AcadAnnoPO
 70
     0
  0
APPID
  5
50D
330
2C
100
AcDbSymbolTableRecord
100
AcDbRegAppTableRecord
  2
ACAUTHENVIRON
 70
     0
  0
APPID
  5
510
330
2C
100
AcDbSymbolTableRecord
100
AcDbRegAppTableRecord
  2
AcDbDynamicBlockTrueName
 70
     0
  0
ENDTAB
  0
TABLE
  2
DIMSTYLE
  5
2D
330
0
100
AcDbSymbolTable
 70
     3
100
AcDbDimStyleTable
 71
     2
340
2E
340
32
  0
DIMSTYLE
105
32
330
2D
100
AcDbSymbolTableRecord
100
AcDbDimStyleTableRecord
  2
STANDARD
 70
     0
 41
3.5
 47
0.01
 48
0.01
 71
     1
 73
     0
 74
     0
 77
     1
 78
     8
140
3.5
271
     2
272
     2
284
     8
340
20
  0
DIMSTYLE
105
2E
102
{ACAD_REACTORS
330
3DC
330
3B2
330
231
330
241
330
250
102
}
330
2D
100
AcDbSymbolTableRecord
100
AcDbDimStyleTableRecord
  2
01
 70
     0
 41
3.5
 42
0.2
 43
0.2
 44
1.199999999999999
 73
     0
 74
     0
 77
     1
 78
     8
 79
     2
140
4.0
141
0.0
147
0.5
176
     1
177
     6
178
     4
179
     2
271
     2
272
     2
340
2F
1001
ACAD_DSTYLE_DIMJAG
1070
   388
1040
1.5
1001
ACAD_DSTYLE_DIMTALN
1070
   392
1070
     0
  0
ENDTAB
  0
TABLE
  2
BLOCK_RECORD
  5
1
330
0
100
AcDbSymbolTable
 70
    10
  0
BLOCK_RECORD
  5
2
102
{ACAD_XDICTIONARY
360
3
102
}
330
1
100
AcDbSymbolTableRecord
100
AcDbBlockTableRecord
  2
*MODEL_SPACE
340
12
 70
     0
280
     1
281
     0
  0
BLOCK_RECORD
  5
15
330
1
100
AcDbSymbolTableRecord
100
AcDbBlockTableRecord
  2
*PAPER_SPACE
340
18
 70
     0
280
     1
281
     0
  0
BLOCK_RECORD
  5
7B
102
{ACAD_XDICTIONARY
360
50C
102
}
330
1
100
AcDbSymbolTableRecord
100
AcDbBlockTableRecord
  2
A4图框-NEW
340
0
310
2800000020000000200000000100080000000000000400000000000000000000000000000000000000000000000080000080000000808000800000008000800080800000C0C0C000C0DCC000F0CAA6000020400000206000002080000020A0000020C0000020E00000400000004020000040400000406000004080000040A0
310
000040C0000040E00000600000006020000060400000606000006080000060A0000060C0000060E00000800000008020000080400000806000008080000080A0000080C0000080E00000A0000000A0200000A0400000A0600000A0800000A0A00000A0C00000A0E00000C0000000C0200000C0400000C0600000C0800000C0
310
A00000C0C00000C0E00000E0000000E0200000E0400000E0600000E0800000E0A00000E0C00000E0E00040000000400020004000400040006000400080004000A0004000C0004000E00040200000402020004020400040206000402080004020A0004020C0004020E000404000004040200040404000404060004040800040
310
40A0004040C0004040E00040600000406020004060400040606000406080004060A0004060C0004060E00040800000408020004080400040806000408080004080A0004080C0004080E00040A0000040A0200040A0400040A0600040A0800040A0A00040A0C00040A0E00040C0000040C0200040C0400040C0600040C08000
310
40C0A00040C0C00040C0E00040E0000040E0200040E0400040E0600040E0800040E0A00040E0C00040E0E00080000000800020008000400080006000800080008000A0008000C0008000E00080200000802020008020400080206000802080008020A0008020C0008020E00080400000804020008040400080406000804080
310
008040A0008040C0008040E00080600000806020008060400080606000806080008060A0008060C0008060E00080800000808020008080400080806000808080008080A0008080C0008080E00080A0000080A0200080A0400080A0600080A0800080A0A00080A0C00080A0E00080C0000080C0200080C0400080C0600080C0
310
800080C0A00080C0C00080C0E00080E0000080E0200080E0400080E0600080E0800080E0A00080E0C00080E0E000C0000000C0002000C0004000C0006000C0008000C000A000C000C000C000E000C0200000C0202000C0204000C0206000C0208000C020A000C020C000C020E000C0400000C0402000C0404000C0406000C0
310
408000C040A000C040C000C040E000C0600000C0602000C0604000C0606000C0608000C060A000C060C000C060E000C0800000C0802000C0804000C0806000C0808000C080A000C080C000C080E000C0A00000C0A02000C0A04000C0A06000C0A08000C0A0A000C0A0C000C0A0E000C0C00000C0C02000C0C04000C0C06000
310
C0C08000C0C0A000F0FBFF00A4A0A000808080000000FF0000FF000000FFFF00FF000000FF00FF00FFFF0000FFFFFF0000000000000000000000000000000000000000000000000000000000000000000000000000000000000000000000000000000000000000000000000000000000000000000000000000000000000000
310
000000000000000000000000000000000000000000000000000000000000000000000000000000000000000000000000000000000000000000000000000000000000000000000000000000000000000000000000000000000000000000000000000000000000000000000000000000000000F9F9F9F9F9F9F9F9F9F9F9F9F9
310
F9F9F9F9F9F9F9F9F9F9F9F9F9F9FF00000000F9FF000000000000000000FFFFFFFFFFFFFFFFFFFFFFFFF9FAFAFAFF00000000F9FF000000000000000000FFFFFFFFFFFFFFFFFFFFFFFFFFFFFFFFFF00000000F9FD000000000000000000FFFFFFFFFFFFFFFFFFFFFFFFFFFFFFFFFF00000000F9FF000000000000000000FF
310
FFFFFFFFFFFFFFFFFFFFFFFFFFFFFFFF00000000F9FD000000000000000000FFFFFFFFFFFFFFFFFFFFFFFFFFFFFFFFFF00000000F9FF00000000000000000000000000000000000000000000000000FF00000000F9FD00000000000000000000000000000000000000000000000000FF00000000F9FF000000000000000000
310
00000000000000000000000000000000FF00000000F9FD00000000000000000000000000000000000000000000000000FF00000000F9FF00000000000000000000000000000000000000000000000000FF00000000F9FD00000000000000000000000000000000000000000000000000FF00000000F9FD0000000000000000
310
0000000000000000000000000000000000FF00000000F9FF00000000000000000000000000000000000000000000000000FF00000000F9FD00000000000000000000000000000000000000000000000000FF00000000F9FF00000000000000000000000000000000000000000000000000FF00000000F9FD00000000000000
310
000000000000000000000000000000000000FF00000000F9FF00000000000000000000000000000000000000000000000000FF00000000F9FFFFFFFFFFFFFFFFFFFFFFFFFFFFFFFFFFFFFFFFFFFFFFFFFFFFFF00000000F9FFFFFFF9F9F9F9F9F9F9F9F9F9F9F9F9F9F9F9F9F9F9F9F9F9F9F9000000000000000000000000
310
00000000000000000000000000000000000000000000000000000000000000000000000000000000000000000000000000000000000000000000000000000000000000000000000000000000000000000000000000000000000000000000000000000000000000000000000000000000000000000000000000000000000000
310
0000000000000000000000000000000000000000000000000000000000000000000000000000000000000000000000000000000000000000
102
{BLKREFS
331
79
102
}
 70
     4
280
     1
281
     0
1001
AcDbDynamicBlockGUID
1000
{62069D01-39AD-4D30-8212-BA0FD620F22E}
1001
AcDbBlockRepETag
1070
     1
1071
      150
  0
BLOCK_RECORD
  5
3DD
330
1
100
AcDbSymbolTableRecord
100
AcDbBlockTableRecord
  2
*D1
340
0
 70
     0
280
     1
281
     0
  0
BLOCK_RECORD
  5
3B3
330
1
100
AcDbSymbolTableRecord
100
AcDbBlockTableRecord
  2
*D2
340
0
 70
     0
280
     1
281
     0
  0
BLOCK_RECORD
  5
234
330
1
100
AcDbSymbolTableRecord
100
AcDbBlockTableRecord
  2
*D3
340
0
 70
     0
280
     1
281
     0
  0
BLOCK_RECORD
  5
244
330
1
100
AcDbSymbolTableRecord
100
AcDbBlockTableRecord
  2
*D4
340
0
 70
     0
280
     1
281
     0
  0
BLOCK_RECORD
  5
253
330
1
100
AcDbSymbolTableRecord
100
AcDbBlockTableRecord
  2
*D5
340
0
 70
     0
280
     1
281
     0
  0
ENDTAB
  0
ENDSEC
  0
SECTION
  2
BLOCKS
  0
BLOCK
  5
5
330
2
100
AcDbEntity
  8
0
100
AcDbBlockBegin
  2
*MODEL_SPACE
 70
     0
 10
0.0
 20
0.0
 30
0.0
  3
*MODEL_SPACE
  1

  0
ENDBLK
  5
11
330
2
100
AcDbEntity
  8
0
100
AcDbBlockEnd
  0
BLOCK
  5
16
330
15
100
AcDbEntity
 67
     1
  8
0
100
AcDbBlockBegin
  2
*PAPER_SPACE
 70
     0
 10
0.0
 20
0.0
 30
0.0
  3
*PAPER_SPACE
  1

  0
ENDBLK
  5
17
330
15
100
AcDbEntity
 67
     1
  8
0
100
AcDbBlockEnd
  0
BLOCK
  5
7D
330
7B
100
AcDbEntity
  8
0
100
AcDbBlockBegin
  2
A4图框-NEW
 70
     0
 10
0.0
 20
0.0
 30
0.0
  3
A4图框-NEW
  1

  0
MTEXT
  5
477
102
{ACAD_XDICTIONARY
360
CB7
102
}
330
7B
100
AcDbEntity
  8
图框
 62
     3
100
AcDbMText
 10
967.6594956750133
 20
499.7664151964293
 30
0.0
 40
2.5
 41
15.50176341157864
 46
6.292658374511018
 71
     5
 72
     5
  1
GY HUANG
  7
Romans字体
 73
     1
 44
1.0
1001
AcDbBlockRepETag
1070
     1
1071
        0
1005
477
1001
ACAD
1000
ACAD_MTEXT_DEFINED_HEIGHT_BEGIN
1070
    46
1040
6.292658374511018
1000
ACAD_MTEXT_DEFINED_HEIGHT_END
  0
MTEXT
  5
478
330
7B
100
AcDbEntity
  8
图框
 62
     3
100
AcDbMText
 10
983.041569333247
 20
499.7664151964293
 30
0.0
 40
2.5
 41
15.50176341157864
 46
6.292658374511042
 71
     5
 72
     5
  1
{\W0.7;22.12.2023}
  7
Romans字体
 73
     1
 44
1.0
1001
AcDbBlockRepETag
1070
     1
1071
        1
1005
478
1001
ACAD
1000
ACAD_MTEXT_DEFINED_HEIGHT_BEGIN
1070
    46
1040
6.292658374511042
1000
ACAD_MTEXT_DEFINED_HEIGHT_END
  0
MTEXT
  5
479
330
7B
100
AcDbEntity
  8
图框
 62
     3
100
AcDbMText
 10
1012.477254728976
 20
487.1810984474071
 30
0.0
 40
2.5
 41
15.50176341157864
 46
6.292658374511455
 71
     5
 72
     5
  1
HQ ZHANG
  7
Romans字体
 73
     1
 44
1.0
1001
AcDbBlockRepETag
1070
     1
1071
        2
1005
479
1001
ACAD
1000
ACAD_MTEXT_DEFINED_HEIGHT_BEGIN
1070
    46
1040
6.292658374511455
1000
ACAD_MTEXT_DEFINED_HEIGHT_END
  0
MTEXT
  5
47A
330
7B
100
AcDbEntity
  8
图框
 62
     3
100
AcDbMText
 10
1028.977802139886
 20
487.1810984474071
 30
0.0
 40
2.5
 41
15.50176341157864
 46
6.292658374511495
 71
     5
 72
     5
  1
{\W0.7;22.12.2023}
  7
Romans字体
 73
     1
 44
1.0
1001
AcDbBlockRepETag
1070
     1
1071
        3
1005
47A
1001
ACAD
1000
ACAD_MTEXT_DEFINED_HEIGHT_BEGIN
1070
    46
1040
6.292658374511495
1000
ACAD_MTEXT_DEFINED_HEIGHT_END
  0
MTEXT
  5
47B
330
7B
100
AcDbEntity
  8
图框
 62
     3
100
AcDbMText
 10
1063.722665487208
 20
525.4145966538831
 30
0.0
 40
2.985513575034151
 41
32.4973914334545
 46
11.82914190181707
 71
     5
 72
     5
  1
-
  7
Romans字体
 73
     1
 44
1.0
1001
AcDbBlockRepETag
1070
     1
1071
        4
1005
47B
1001
ACAD
1000
ACAD_MTEXT_DEFINED_HEIGHT_BEGIN
1070
    46
1040
11.82914190181707
1000
ACAD_MTEXT_DEFINED_HEIGHT_END
  0
MTEXT
  5
47C
330
7B
100
AcDbEntity
  8
图框
 62
     3
100
AcDbMText
 10
1063.727338552349
 20
513.5854547520641
 30
0.0
 40
2.985513575034151
 41
32.48804530317308
 46
11.82914190182139
 71
     5
 72
     5
  1
-
  7
Romans字体
 73
     1
 44
1.0
1001
AcDbBlockRepETag
1070
     1
1071
        5
1005
47C
1001
ACAD
1000
ACAD_MTEXT_DEFINED_HEIGHT_BEGIN
1070
    46
1040
11.82914190182139
1000
ACAD_MTEXT_DEFINED_HEIGHT_END
  0
MTEXT
  5
47D
330
7B
100
AcDbEntity
  8
图框
 62
     3
100
AcDbMText
 10
1110.122306614152
 20
526.8006839312707
 30
0.0
 40
2.985513575034151
 41
33.61239199242139
 46
9.05696734704178
 71
     5
 72
     5
  1
-
  7
Romans字体
 73
     1
 44
1.0
1001
AcDbBlockRepETag
1070
     1
1071
        6
1005
47D
1001
ACAD
1000
ACAD_MTEXT_DEFINED_HEIGHT_BEGIN
1070
    46
1040
9.05696734704178
1000
ACAD_MTEXT_DEFINED_HEIGHT_END
  0
MTEXT
  5
47E
330
7B
100
AcDbEntity
  8
图框
 62
     3
100
AcDbMText
 10
1110.122306614152
 20
500.2775205517162
 30
0.0
 40
2.985513575034151
 41
33.61239199242139
 46
8.871557304763419
 71
     5
 72
     5
  1
-
  7
Romans字体
 73
     1
 44
1.0
1001
AcDbBlockRepETag
1070
     1
1071
        7
1005
47E
1001
ACAD
1000
ACAD_MTEXT_DEFINED_HEIGHT_BEGIN
1070
    46
1040
8.871557304763419
1000
ACAD_MTEXT_DEFINED_HEIGHT_END
  0
MTEXT
  5
47F
330
7B
100
AcDbEntity
  8
图框
 62
     3
100
AcDbMText
 10
967.6594956750133
 20
493.4737568219182
 30
0.0
 40
2.5
 41
15.50176341157864
 46
6.292658374510335
 71
     5
 72
     5
  1
Q GAO
  7
Romans字体
 73
     1
 44
1.0
1001
AcDbBlockRepETag
1070
     1
1071
        8
1005
47F
1001
ACAD
1000
ACAD_MTEXT_DEFINED_HEIGHT_BEGIN
1070
    46
1040
6.292658374510335
1000
ACAD_MTEXT_DEFINED_HEIGHT_END
  0
MTEXT
  5
480
330
7B
100
AcDbEntity
  8
图框
 62
     3
100
AcDbMText
 10
983.041569333247
 20
493.2441970450405
 30
0.0
 40
2.5
 41
15.50176341157864
 46
6.751777928266487
 71
     5
 72
     5
  1
{\W0.7;22.12.2023}
  7
Romans字体
 73
     1
 44
1.0
1001
AcDbBlockRepETag
1070
     1
1071
        9
1005
480
1001
ACAD
1000
ACAD_MTEXT_DEFINED_HEIGHT_BEGIN
1070
    46
1040
6.751777928266487
1000
ACAD_MTEXT_DEFINED_HEIGHT_END
  0
MTEXT
  5
481
330
7B
100
AcDbEntity
  8
图框
 62
     3
100
AcDbMText
 10
1012.477254728976
 20
499.7664151964291
 30
0.0
 40
2.985513575034151
 41
17.64876416884615
 46
6.292658374511397
 71
     5
 72
     5
  1
-
  7
Romans字体
 73
     1
 44
1.0
1001
AcDbBlockRepETag
1070
     1
1071
       10
1005
481
1001
ACAD
1000
ACAD_MTEXT_DEFINED_HEIGHT_BEGIN
1070
    46
1040
6.292658374511397
1000
ACAD_MTEXT_DEFINED_HEIGHT_END
  0
MTEXT
  5
482
330
7B
100
AcDbEntity
  8
图框
 62
     3
100
AcDbMText
 10
1028.977802139886
 20
499.7664151964289
 30
0.0
 40
2.487927979195124
 41
15.35233065297265
 46
6.292658374511382
 71
     5
 72
     5
  1
-
  7
Romans字体
 73
     1
 44
1.0
1001
AcDbBlockRepETag
1070
     1
1071
       11
1005
482
1001
ACAD
1000
ACAD_MTEXT_DEFINED_HEIGHT_BEGIN
1070
    46
1040
6.292658374511382
1000
ACAD_MTEXT_DEFINED_HEIGHT_END
  0
MTEXT
  5
483
330
7B
100
AcDbEntity
  8
图框
 62
     3
100
AcDbMText
 10
967.6594956750133
 20
487.1810984474071
 30
0.0
 40
2.985513575034151
 41
15.50176341157863
 46
6.292658374511478
 71
     5
 72
     5
  1
-
  7
Romans字体
 73
     1
 44
1.0
1001
AcDbBlockRepETag
1070
     1
1071
       12
1005
483
1001
ACAD
1000
ACAD_MTEXT_DEFINED_HEIGHT_BEGIN
1070
    46
1040
6.292658374511478
1000
ACAD_MTEXT_DEFINED_HEIGHT_END
  0
MTEXT
  5
484
330
7B
100
AcDbEntity
  8
图框
 62
     3
100
AcDbMText
 10
983.041569333247
 20
487.1810984474071
 30
0.0
 40
2.487927979195124
 41
15.26238390489062
 46
6.292658374511495
 71
     5
 72
     5
  1
-
  7
Romans字体
 73
     1
 44
1.0
1001
AcDbBlockRepETag
1070
     1
1071
       13
1005
484
1001
ACAD
1000
ACAD_MTEXT_DEFINED_HEIGHT_BEGIN
1070
    46
1040
6.292658374511495
1000
ACAD_MTEXT_DEFINED_HEIGHT_END
  0
MTEXT
  5
485
330
7B
100
AcDbEntity
  8
图框
 62
     3
100
AcDbMText
 10
1074.556686986741
 20
495.8417418993361
 30
0.0
 40
2.985513575034151
 41
10.82934843438978
 46
7.886094601210427
 71
     5
 72
     5
  1
-
  7
Romans字体
 73
     1
 44
1.0
1001
AcDbBlockRepETag
1070
     1
1071
       14
1005
485
1001
ACAD
1000
ACAD_MTEXT_DEFINED_HEIGHT_BEGIN
1070
    46
1040
7.886094601210427
1000
ACAD_MTEXT_DEFINED_HEIGHT_END
  0
LINE
  5
486
330
7B
100
AcDbEntity
  8
图框
370
    -3
100
AcDbLine
 10
1036.653967466372
 20
499.7847891999413
 30
0.0
 11
1079.971361203936
 21
499.7847891999413
 31
0.0
1001
AcDbBlockRepETag
1070
     1
1071
       15
1005
486
  0
MTEXT
  5
487
330
7B
100
AcDbEntity
  8
图框
 62
     1
370
    20
100
AcDbMText
 10
1108.26336443907
 20
491.5162596080882
 30
0.0
 40
2.699054613030988
 41
82.30831305643079
 46
0.0
 71
     5
 72
     5
  1
{\fSimHei|b0|i0|c134|p2;厦门唯恩电气有限公司}
 73
     1
 44
1.0
1001
AcDbBlockRepETag
1070
     1
1071
       16
1005
487
  0
MTEXT
  5
488
330
7B
100
AcDbEntity
  8
图框
 62
     3
370
    20
100
AcDbMText
 10
1108.435451459908
 20
487.298967726064
 30
0.0
 40
1.652482416141417
 41
68.08558693693567
 46
0.0
 71
     5
 72
     5
  1
{\fArial Narrow|b0|i0|c0|p34;XIAMEN WAIN ELECTRICAL CO.LTD}
  7
工程字
 73
     1
 44
1.0
1001
AcDbBlockRepETag
1070
     1
1071
       17
1005
488
  0
MTEXT
  5
489
330
7B
100
AcDbEntity
  8
图框
 62
     1
370
    20
100
AcDbMText
 10
1085.711816899387
 20
491.0944802995856
 30
0.0
 40
2.005930044038334
 41
5.047240019334847
 46
0.0
 71
     1
 72
     5
  1
{\fArial|b0|i0|c0|p34;A}
  7
Chinese
 73
     1
 44
1.0
1001
AcDbBlockRepETag
1070
     1
1071
       18
1005
489
  0
MTEXT
  5
48A
330
7B
100
AcDbEntity
  8
图框
 62
     1
370
    20
100
AcDbMText
 10
1088.213485935716
 20
491.0944802995856
 30
0.0
 40
2.005930044038334
 41
5.047240019334847
 46
0.0
 71
     1
 72
     5
  1
{\fArial|b0|i0|c0|p34;I}
  7
Chinese
 73
     1
 44
1.0
1001
AcDbBlockRepETag
1070
     1
1071
       19
1005
48A
  0
MTEXT
  5
48B
330
7B
100
AcDbEntity
  8
图框
 62
     1
370
    20
100
AcDbMText
 10
1089.142375222864
 20
491.0822866326808
 30
0.0
 40
2.005930044038334
 41
5.047240019334847
 46
0.0
 71
     1
 72
     5
  1
{\fArial|b0|i0|c0|p34;N}
  7
Chinese
 73
     1
 44
1.0
1001
AcDbBlockRepETag
1070
     1
1071
       20
1005
48B
  0
MTEXT
  5
48C
330
7B
100
AcDbEntity
  8
图框
100
AcDbMText
 10
1069.142012769545
 20
487.9667319294409
 30
0.0
 40
2.252848170144607
 41
21.65869686878327
 46
7.863925338579296
 71
     5
 72
     5
  1
{\W0.5;\C1;All Dimensions in mm\POriginal Size DIN A 4}
  7
Romans字体
 73
     1
 44
1.0
1001
AcDbBlockRepETag
1070
     1
1071
       21
1005
48C
1001
ACAD
1000
ACAD_MTEXT_DEFINED_HEIGHT_BEGIN
1070
    46
1040
7.863925338579296
1000
ACAD_MTEXT_DEFINED_HEIGHT_END
  0
MTEXT
  5
48D
330
7B
100
AcDbEntity
  8
图框
  6
ByBlock
 62
     6
370
    18
100
AcDbMText
 10
1127.40434942308
 20
508.7896535755975
 30
0.0
 40
2.651776162684904
 41
2.557913877927211
 46
0.0
 71
     1
 72
     5
  1
A
  7
Romans字体
 11
0.0000000000000001
 21
1.0
 31
0.0
 73
     1
 44
1.0
1001
AcDbBlockRepETag
1070
     1
1071
       22
1005
48D
  0
MTEXT
  5
48E
330
7B
100
AcDbEntity
  8
图框
 62
     6
100
AcDbMText
 10
1127.40434942308
 20
556.3746573232886
 30
0.0
 40
2.651776162684904
 41
2.557913877927211
 46
0.0
 71
     1
 72
     5
  1
B
  7
Romans字体
 11
0.0000000000000001
 21
1.0
 31
0.0
 73
     1
 44
1.0
1001
AcDbBlockRepETag
1070
     1
1071
       23
1005
48E
  0
MTEXT
  5
48F
330
7B
100
AcDbEntity
  8
图框
 62
     6
100
AcDbMText
 10
1127.40434942308
 20
607.5539372630998
 30
0.0
 40
2.651776162684904
 41
2.557913877927211
 46
0.0
 71
     1
 72
     5
  1
C
  7
Romans字体
 11
0.0000000000000001
 21
1.0
 31
0.0
 73
     1
 44
1.0
1001
AcDbBlockRepETag
1070
     1
1071
       24
1005
48F
  0
MTEXT
  5
490
330
7B
100
AcDbEntity
  8
图框
 62
     6
100
AcDbMText
 10
1127.40434942308
 20
658.7332172029115
 30
0.0
 40
2.651776162684904
 41
2.557913877927211
 46
0.0
 71
     1
 72
     5
  1
D
  7
Romans字体
 11
0.0000000000000001
 21
1.0
 31
0.0
 73
     1
 44
1.0
1001
AcDbBlockRepETag
1070
     1
1071
       25
1005
490
  0
LINE
  5
491
330
7B
100
AcDbEntity
  8
图框
 62
     6
100
AcDbLine
 10
1130.411601781241
 20
634.0726090796082
 30
0.0
 11
1126.928502610363
 21
634.0726090796082
 31
0.0
1001
AcDbBlockRepETag
1070
     1
1071
       26
1005
491
  0
LINE
  5
492
330
7B
100
AcDbEntity
  8
图框
 62
     6
100
AcDbLine
 10
1130.411601781241
 20
582.89332913979
 30
0.0
 11
1126.928502610363
 21
582.89332913979
 31
0.0
1001
AcDbBlockRepETag
1070
     1
1071
       27
1005
492
  0
MTEXT
  5
493
330
7B
100
AcDbEntity
  8
图框
 62
     6
100
AcDbMText
 10
1105.329704038389
 20
483.6164543011163
 30
0.0
 40
2.651776162684904
 41
2.557913877927211
 46
0.0
 71
     1
 72
     5
  1
6
  7
Romans字体
 73
     1
 44
1.0
1001
AcDbBlockRepETag
1070
     1
1071
       28
1005
493
  0
LINE
  5
494
330
7B
100
AcDbEntity
  8
图框
 62
     6
100
AcDbLine
 10
1081.088565155284
 20
484.0347692601515
 30
0.0
 11
1081.088565155284
 21
480.5347692601476
 31
0.0
1001
AcDbBlockRepETag
1070
     1
1071
       29
1005
494
  0
MTEXT
  5
495
330
7B
100
AcDbEntity
  8
图框
 62
     6
100
AcDbMText
 10
1055.900596365941
 20
483.520053108993
 30
0.0
 40
2.651776162684904
 41
2.557913877927211
 46
0.0
 71
     1
 72
     5
  1
5
  7
Romans字体
 73
     1
 44
1.0
1001
AcDbBlockRepETag
1070
     1
1071
       30
1005
495
  0
LINE
  5
496
330
7B
100
AcDbEntity
  8
图框
 62
     6
100
AcDbLine
 10
1031.553386436349
 20
484.0347692601515
 30
0.0
 11
1031.553386436349
 21
480.5347692601476
 31
0.0
1001
AcDbBlockRepETag
1070
     1
1071
       31
1005
496
  0
MTEXT
  5
497
330
7B
100
AcDbEntity
  8
图框
 62
     6
100
AcDbMText
 10
1006.383180575197
 20
483.5687958215896
 30
0.0
 40
2.651776162684904
 41
2.557913877927211
 46
0.0
 71
     1
 72
     5
  1
4
  7
Romans字体
 73
     1
 44
1.0
1001
AcDbBlockRepETag
1070
     1
1071
       32
1005
497
  0
LINE
  5
498
330
7B
100
AcDbEntity
  8
图框
 62
     6
100
AcDbLine
 10
982.0182077173887
 20
484.0347692601515
 30
0.0
 11
982.0182077173887
 21
480.5347692601476
 31
0.0
1001
AcDbBlockRepETag
1070
     1
1071
       33
1005
498
  0
MTEXT
  5
499
330
7B
100
AcDbEntity
  8
图框
 62
     6
100
AcDbMText
 10
956.8302389280352
 20
483.5989680297948
 30
0.0
 40
2.651776162684904
 41
2.557913877927211
 46
0.0
 71
     1
 72
     5
  1
3
  7
Romans字体
 73
     1
 44
1.0
1001
AcDbBlockRepETag
1070
     1
1071
       34
1005
499
  0
LINE
  5
49A
330
7B
100
AcDbEntity
  8
图框
 62
     6
100
AcDbLine
 10
932.4830289984245
 20
484.0347692601515
 30
0.0
 11
932.4830289984245
 21
480.5347692601476
 31
0.0
1001
AcDbBlockRepETag
1070
     1
1071
       35
1005
49A
  0
MTEXT
  5
49B
330
7B
100
AcDbEntity
  8
图框
 62
     6
100
AcDbMText
 10
906.0252349826365
 20
483.6475250013156
 30
0.0
 40
2.651776162684904
 41
2.557913877927211
 46
0.0
 71
     1
 72
     5
  1
2
  7
Romans字体
 73
     1
 44
1.0
1001
AcDbBlockRepETag
1070
     1
1071
       36
1005
49B
  0
LINE
  5
49C
330
7B
100
AcDbEntity
  8
图框
 62
     6
100
AcDbLine
 10
882.9478502794648
 20
484.0347692601515
 30
0.0
 11
882.9478502794648
 21
480.5347692601476
 31
0.0
1001
AcDbBlockRepETag
1070
     1
1071
       37
1005
49C
  0
MTEXT
  5
49D
330
7B
100
AcDbEntity
  8
图框
 62
     6
100
AcDbMText
 10
857.7598814901191
 20
483.651829494754
 30
0.0
 40
2.651776162684904
 41
2.557913877927211
 46
0.0
 71
     1
 72
     5
  1
1
  7
Romans字体
 73
     1
 44
1.0
1001
AcDbBlockRepETag
1070
     1
1071
       38
1005
49D
  0
LINE
  5
49E
330
7B
100
AcDbEntity
  8
图框
370
    50
100
AcDbLine
 10
836.8548209370597
 20
484.0347692601515
 30
0.0
 11
1126.928502610363
 21
484.0347692601515
 31
0.0
1001
AcDbBlockRepETag
1070
     1
1071
       39
1005
49E
  0
LINE
  5
49F
330
7B
100
AcDbEntity
  8
图框
370
    50
100
AcDbLine
 10
836.9128518455362
 20
484.0178684310246
 30
0.0
 11
836.9128518455394
 21
675.0207195125422
 31
0.0
1001
AcDbBlockRepETag
1070
     1
1071
       40
1005
49F
  0
MTEXT
  5
4A0
330
7B
100
AcDbEntity
  8
图框
 62
     6
100
AcDbMText
 10
833.8475685789031
 20
658.7332172029115
 30
0.0
 40
2.651776162684904
 41
2.557913877927211
 46
0.0
 71
     1
 72
     5
  1
D
  7
Romans字体
 11
0.0000000000000001
 21
1.0
 31
0.0
 73
     1
 44
1.0
1001
AcDbBlockRepETag
1070
     1
1071
       41
1005
4A0
  0
LINE
  5
4A1
330
7B
100
AcDbEntity
  8
图框
 62
     6
100
AcDbLine
 10
836.9128518455386
 20
634.0726090796082
 30
0.0
 11
833.4128518455365
 21
634.0726090796082
 31
0.0
1001
AcDbBlockRepETag
1070
     1
1071
       42
1005
4A1
  0
MTEXT
  5
4A2
330
7B
100
AcDbEntity
  8
图框
 62
     6
100
AcDbMText
 10
833.9039177480142
 20
607.5539372630998
 30
0.0
 40
2.651776162684904
 41
2.557913877927211
 46
0.0
 71
     1
 72
     5
  1
C
  7
Romans字体
 11
0.0000000000000001
 21
1.0
 31
0.0
 73
     1
 44
1.0
1001
AcDbBlockRepETag
1070
     1
1071
       43
1005
4A2
  0
LINE
  5
4A3
330
7B
100
AcDbEntity
  8
图框
 62
     6
100
AcDbLine
 10
836.9128518455378
 20
582.89332913979
 30
0.0
 11
833.4128518455365
 21
582.89332913979
 31
0.0
1001
AcDbBlockRepETag
1070
     1
1071
       44
1005
4A3
  0
MTEXT
  5
4A4
330
7B
100
AcDbEntity
  8
图框
 62
     6
100
AcDbMText
 10
833.9039177480142
 20
556.3746573232886
 30
0.0
 40
2.651776162684904
 41
2.557913877927211
 46
0.0
 71
     1
 72
     5
  1
B
  7
Romans字体
 11
0.0000000000000001
 21
1.0
 31
0.0
 73
     1
 44
1.0
1001
AcDbBlockRepETag
1070
     1
1071
       45
1005
4A4
  0
LINE
  5
4A5
330
7B
100
AcDbEntity
  8
图框
 62
     6
100
AcDbLine
 10
836.9128518455367
 20
531.714049199969
 30
0.0
 11
833.4128518455365
 21
531.714049199969
 31
0.0
1001
AcDbBlockRepETag
1070
     1
1071
       46
1005
4A5
  0
MTEXT
  5
4A6
330
7B
100
AcDbEntity
  8
图框
 62
     6
100
AcDbMText
 10
833.9039177480142
 20
508.7896535755975
 30
0.0
 40
2.651776162684904
 41
2.557913877927211
 46
0.0
 71
     1
 72
     5
  1
A
  7
Romans字体
 11
0.0000000000000001
 21
1.0
 31
0.0
 73
     1
 44
1.0
1001
AcDbBlockRepETag
1070
     1
1071
       47
1005
4A6
  0
LINE
  5
4A7
330
7B
100
AcDbEntity
  8
图框
370
    -3
100
AcDbLine
 10
836.9128518455394
 20
675.0207195125422
 30
0.0
 11
836.9128518455394
 21
684.5021384922564
 31
0.0
1001
AcDbBlockRepETag
1070
     1
1071
       48
1005
4A7
  0
LINE
  5
4A8
330
7B
100
AcDbEntity
  8
图框
370
    -3
100
AcDbLine
 10
842.6237321475781
 20
675.5347692601515
 30
0.0
 11
842.6237321475781
 21
685.0161882398658
 31
0.0
1001
AcDbBlockRepETag
1070
     1
1071
       49
1005
4A8
  0
LINE
  5
4A9
330
7B
100
AcDbEntity
  8
图框
370
    -3
100
AcDbLine
 10
848.3346124496179
 20
675.5347692601515
 30
0.0
 11
848.3346124496179
 21
685.0161882398658
 31
0.0
1001
AcDbBlockRepETag
1070
     1
1071
       50
1005
4A9
  0
LINE
  5
4AA
330
7B
100
AcDbEntity
  8
图框
370
    -3
100
AcDbLine
 10
854.0454927516588
 20
675.5347692601515
 30
0.0
 11
854.0454927516588
 21
685.0161882398658
 31
0.0
1001
AcDbBlockRepETag
1070
     1
1071
       51
1005
4AA
  0
LINE
  5
4AB
330
7B
100
AcDbEntity
  8
图框
370
    -3
100
AcDbLine
 10
861.5351874539182
 20
675.5347692601515
 30
0.0
 11
861.5351874539182
 21
686.7901958362482
 31
0.0
1001
AcDbBlockRepETag
1070
     1
1071
       52
1005
4AB
  0
MTEXT
  5
4AC
330
7B
100
AcDbEntity
  8
图框
 62
     6
100
AcDbMText
 10
1105.329704038389
 20
678.859919059449
 30
0.0
 40
2.651776162684904
 41
2.557913877927211
 46
0.0
 71
     1
 72
     5
  1
6
  7
Romans字体
 73
     1
 44
1.0
1001
AcDbBlockRepETag
1070
     1
1071
       53
1005
4AC
  0
LINE
  5
4AD
330
7B
100
AcDbEntity
  8
图框
 62
     6
100
AcDbLine
 10
1081.088565155284
 20
679.0347692601516
 30
0.0
 11
1081.088565155284
 21
675.5347692601515
 31
0.0
1001
AcDbBlockRepETag
1070
     1
1071
       54
1005
4AD
  0
MTEXT
  5
4AE
330
7B
100
AcDbEntity
  8
图框
 62
     6
100
AcDbMText
 10
1055.900596365941
 20
678.859919059449
 30
0.0
 40
2.651776162684904
 41
2.557913877927211
 46
0.0
 71
     1
 72
     5
  1
5
  7
Romans字体
 73
     1
 44
1.0
1001
AcDbBlockRepETag
1070
     1
1071
       55
1005
4AE
  0
LINE
  5
4AF
330
7B
100
AcDbEntity
  8
图框
 62
     6
100
AcDbLine
 10
1031.553386436349
 20
679.0347692601516
 30
0.0
 11
1031.553386436349
 21
675.5347692601515
 31
0.0
1001
AcDbBlockRepETag
1070
     1
1071
       56
1005
4AF
  0
MTEXT
  5
4B0
330
7B
100
AcDbEntity
  8
图框
 62
     6
100
AcDbMText
 10
1006.36541764698
 20
678.7312083656147
 30
0.0
 40
2.651776162684904
 41
2.557913877927211
 46
0.0
 71
     1
 72
     5
  1
4
  7
Romans字体
 73
     1
 44
1.0
1001
AcDbBlockRepETag
1070
     1
1071
       57
1005
4B0
  0
LINE
  5
4B1
330
7B
100
AcDbEntity
  8
图框
 62
     6
100
AcDbLine
 10
982.0182077173887
 20
679.0347692601516
 30
0.0
 11
982.0182077173887
 21
675.5347692601515
 31
0.0
1001
AcDbBlockRepETag
1070
     1
1071
       58
1005
4B1
  0
MTEXT
  5
4B2
330
7B
100
AcDbEntity
  8
图框
 62
     6
100
AcDbMText
 10
956.8302389280352
 20
678.859919059449
 30
0.0
 40
2.651776162684904
 41
2.557913877927211
 46
0.0
 71
     1
 72
     5
  1
3
  7
Romans字体
 73
     1
 44
1.0
1001
AcDbBlockRepETag
1070
     1
1071
       59
1005
4B2
  0
LINE
  5
4B3
330
7B
100
AcDbEntity
  8
图框
 62
     6
100
AcDbLine
 10
932.4830289984245
 20
679.0347692601516
 30
0.0
 11
932.4830289984245
 21
675.5347692601515
 31
0.0
1001
AcDbBlockRepETag
1070
     1
1071
       60
1005
4B3
  0
MTEXT
  5
4B4
330
7B
100
AcDbEntity
  8
图框
 62
     6
100
AcDbMText
 10
907.295060209082
 20
678.859919059449
 30
0.0
 40
2.651776162684904
 41
2.557913877927211
 46
0.0
 71
     1
 72
     5
  1
2
  7
Romans字体
 73
     1
 44
1.0
1001
AcDbBlockRepETag
1070
     1
1071
       61
1005
4B4
  0
LINE
  5
4B5
330
7B
100
AcDbEntity
  8
图框
 62
     6
100
AcDbLine
 10
882.9478502794648
 20
678.7962435131815
 30
0.0
 11
882.9478502794648
 21
675.5347692601515
 31
0.0
1001
AcDbBlockRepETag
1070
     1
1071
       62
1005
4B5
  0
MTEXT
  5
4B6
330
7B
100
AcDbEntity
  8
图框
 62
     6
100
AcDbMText
 10
862.6286629643733
 20
678.859919059449
 30
0.0
 40
2.651776162684904
 41
2.557913877927211
 46
0.0
 71
     1
 72
     5
  1
1
  7
Romans字体
 73
     1
 44
1.0
1001
AcDbBlockRepETag
1070
     1
1071
       63
1005
4B6
  0
LINE
  5
4B7
330
7B
100
AcDbEntity
  8
图框
370
    -3
100
AcDbLine
 10
836.9128518455394
 20
675.0207195125422
 30
0.0
 11
836.9128518455394
 21
686.7901958362482
 31
0.0
1001
AcDbBlockRepETag
1070
     1
1071
       64
1005
4B7
  0
LINE
  5
4B8
330
7B
100
AcDbEntity
  8
图框
370
    50
100
AcDbLine
 10
836.9128518455394
 20
675.5347692601515
 30
0.0
 11
1126.928502610363
 21
675.5347692601515
 31
0.0
1001
AcDbBlockRepETag
1070
     1
1071
       65
1005
4B8
  0
LINE
  5
4B9
330
7B
100
AcDbEntity
  8
图框
370
    -3
100
AcDbLine
 10
842.6237321475781
 20
675.5347692601515
 30
0.0
 11
842.6237321475781
 21
686.7901958362482
 31
0.0
1001
AcDbBlockRepETag
1070
     1
1071
       66
1005
4B9
  0
LINE
  5
4BA
330
7B
100
AcDbEntity
  8
图框
370
    -3
100
AcDbLine
 10
848.3346124496179
 20
675.5347692601515
 30
0.0
 11
848.3346124496179
 21
686.7901958362482
 31
0.0
1001
AcDbBlockRepETag
1070
     1
1071
       67
1005
4BA
  0
MTEXT
  5
4BB
102
{ACAD_XDICTIONARY
360
CB9
102
}
330
7B
100
AcDbEntity
  8
图框
100
AcDbMText
 10
857.7903401027889
 20
686.7901958362482
 30
0.0
 40
1.958998408821398
 41
11.25542657609672
 46
7.489694702258906
 71
     4
 72
     5
  1
\pi2.8203;档案员{\H0.7x;\P\pi1.4159;\Fromans|c134;Filing Clerk\fFangSong_GB2312|b0|i0|c134|p49; }
 11
-0.0000000000000002
 21
-1.0
 31
0.0
 73
     1
 44
1.0
1001
AcDbBlockRepETag
1070
     1
1071
       68
1005
4BB
1001
ACAD
1000
ACAD_MTEXT_DEFINED_HEIGHT_BEGIN
1070
    46
1040
7.489694702258906
1000
ACAD_MTEXT_DEFINED_HEIGHT_END
  0
MTEXT
  5
4BC
102
{ACAD_XDICTIONARY
360
CBB
102
}
330
7B
100
AcDbEntity
  8
图框
100
AcDbMText
 10
845.479172298598
 20
686.7901958362482
 30
0.0
 40
1.958998408821398
 41
11.25542657609672
 46
5.710880302039671
 71
     4
 72
     5
  1
\pi0.7115;日期{\Fromans|c134;/Date}
 11
-0.0000000000000002
 21
-1.0
 31
0.0
 73
     1
 44
1.0
1001
AcDbBlockRepETag
1070
     1
1071
       69
1005
4BC
1001
ACAD
1000
ACAD_MTEXT_DEFINED_HEIGHT_BEGIN
1070
    46
1040
5.710880302039671
1000
ACAD_MTEXT_DEFINED_HEIGHT_END
  0
LINE
  5
4BD
330
7B
100
AcDbEntity
  8
图框
370
    -3
100
AcDbLine
 10
854.0454927516588
 20
675.5347692601515
 30
0.0
 11
854.0454927516588
 21
686.7901958362482
 31
0.0
1001
AcDbBlockRepETag
1070
     1
1071
       70
1005
4BD
  0
LINE
  5
4BE
330
7B
100
AcDbEntity
  8
图框
370
    -3
100
AcDbLine
 10
1036.653967466372
 20
531.3291676047914
 30
0.0
 11
1036.653967466372
 21
484.0126019753161
 31
0.0
1001
AcDbBlockRepETag
1070
     1
1071
       71
1005
4BE
  0
LINE
  5
4BF
330
7B
100
AcDbEntity
  8
图框
370
    -3
100
AcDbLine
 10
1047.483315900763
 20
507.6708838011533
 30
0.0
 11
1047.483315900763
 21
491.8986945987308
 31
0.0
1001
AcDbBlockRepETag
1070
     1
1071
       72
1005
4BF
  0
LINE
  5
4C0
330
7B
100
AcDbEntity
  8
图框
370
    -3
100
AcDbLine
 10
1058.312664335153
 20
507.6708838011533
 30
0.0
 11
1058.312664335153
 21
484.0347692601515
 31
0.0
1001
AcDbBlockRepETag
1070
     1
1071
       73
1005
4C0
  0
LINE
  5
4C1
330
7B
100
AcDbEntity
  8
图框
370
    25
100
AcDbLine
 10
1048.474135214456
 20
488.1095628329926
 30
0.0
 11
1054.946420288459
 21
488.1095628329926
 31
0.0
1001
AcDbBlockRepETag
1070
     1
1071
       74
1005
4C1
  0
LINE
  5
4C2
330
7B
100
AcDbEntity
  8
图框
370
    25
100
AcDbLine
 10
1054.232527365989
 20
487.0761716842634
 30
0.0
 11
1049.156490914508
 21
486.4576273751
 31
0.0
1001
AcDbBlockRepETag
1070
     1
1071
       75
1005
4C2
  0
LINE
  5
4C3
330
7B
100
AcDbEntity
  8
图框
370
    25
100
AcDbLine
 10
1054.232527365989
 20
489.1429539817209
 30
0.0
 11
1049.156490914508
 21
489.7614982908846
 31
0.0
1001
AcDbBlockRepETag
1070
     1
1071
       76
1005
4C3
  0
LINE
  5
4C4
330
7B
100
AcDbEntity
  8
图框
370
    25
100
AcDbLine
 10
1049.156490914508
 20
489.7614982908846
 30
0.0
 11
1049.156490914508
 21
486.4576273751
 31
0.0
1001
AcDbBlockRepETag
1070
     1
1071
       77
1005
4C4
  0
LINE
  5
4C5
330
7B
100
AcDbEntity
  8
图框
370
    25
100
AcDbLine
 10
1054.232527365989
 20
489.1429539817209
 30
0.0
 11
1054.232527365989
 21
487.0761716842634
 31
0.0
1001
AcDbBlockRepETag
1070
     1
1071
       78
1005
4C5
  0
CIRCLE
  5
4C6
330
7B
100
AcDbEntity
  8
图框
370
    25
100
AcDbCircle
 10
1042.502700458579
 20
488.1095628329926
 30
0.0
 40
1.651935457891863
1001
AcDbBlockRepETag
1070
     1
1071
       79
1005
4C6
  0
CIRCLE
  5
4C7
330
7B
100
AcDbEntity
  8
图框
370
    25
100
AcDbCircle
 10
1042.502700458579
 20
488.1095628329926
 30
0.0
 40
1.033391148728775
1001
AcDbBlockRepETag
1070
     1
1071
       80
1005
4C7
  0
LINE
  5
4C8
330
7B
100
AcDbEntity
  8
图框
370
    25
100
AcDbLine
 10
1040.136872078216
 20
488.1095628329926
 30
0.0
 11
1044.868528838943
 21
488.1095628329926
 31
0.0
1001
AcDbBlockRepETag
1070
     1
1071
       81
1005
4C8
  0
LINE
  5
4C9
330
7B
100
AcDbEntity
  8
图框
370
    25
100
AcDbLine
 10
1042.502700458579
 20
490.475391213355
 30
0.0
 11
1042.502700458579
 21
485.743734452629
 31
0.0
1001
AcDbBlockRepETag
1070
     1
1071
       82
1005
4C9
  0
LINE
  5
4CA
330
7B
100
AcDbEntity
  8
图框
370
    -3
100
AcDbLine
 10
1069.142012769546
 20
507.6708838011533
 30
0.0
 11
1069.142012769546
 21
491.8986945987308
 31
0.0
1001
AcDbBlockRepETag
1070
     1
1071
       83
1005
4CA
  0
MTEXT
  5
4CB
330
7B
100
AcDbEntity
  8
图框
100
AcDbMText
 10
1086.643735910939
 20
526.8006839312707
 30
0.0
 40
2.154898249703542
 41
13.34474941400573
 46
9.056967347041775
 71
     5
 72
     5
  1
图号{\Ftxt|c134;\P\Fromans|c134;\W0.65;Drawing No.}
 73
     1
 44
1.0
1001
AcDbBlockRepETag
1070
     1
1071
       84
1005
4CB
1001
ACAD
1000
ACAD_MTEXT_DEFINED_HEIGHT_BEGIN
1070
    46
1040
9.056967347041775
1000
ACAD_MTEXT_DEFINED_HEIGHT_END
  0
LINE
  5
4CC
330
7B
100
AcDbEntity
  8
图框
370
    -3
100
AcDbLine
 10
1093.316110617942
 20
531.3291676047914
 30
0.0
 11
1093.316110617942
 21
495.8417418993347
 31
0.0
1001
AcDbBlockRepETag
1070
     1
1071
       85
1005
4CC
  0
LINE
  5
4CD
330
7B
100
AcDbEntity
  8
图框
370
    -3
100
AcDbLine
 10
1047.473969770481
 20
531.3291676047914
 30
0.0
 11
1047.473969770481
 21
507.6708838011533
 31
0.0
1001
AcDbBlockRepETag
1070
     1
1071
       86
1005
4CD
  0
MTEXT
  5
4CE
330
7B
100
AcDbEntity
  8
图框
100
AcDbMText
 10
1063.72733855235
 20
503.7278365005473
 30
0.0
 40
2.252848170144607
 41
10.82934843439208
 46
7.886094601212128
 71
     5
 72
     5
  1
重量\P{\Fromans|c134;Weight}
 73
     1
 44
1.0
1001
AcDbBlockRepETag
1070
     1
1071
       87
1005
4CE
1001
ACAD
1000
ACAD_MTEXT_DEFINED_HEIGHT_BEGIN
1070
    46
1040
7.886094601212128
1000
ACAD_MTEXT_DEFINED_HEIGHT_END
  0
LINE
  5
4CF
330
7B
100
AcDbEntity
  8
图框
370
    -3
100
AcDbLine
 10
1036.653967466372
 20
519.5000257029746
 30
0.0
 11
1079.971361203936
 21
519.5000257029746
 31
0.0
1001
AcDbBlockRepETag
1070
     1
1071
       88
1005
4CF
  0
MTEXT
  5
4D0
330
7B
100
AcDbEntity
  8
图框
100
AcDbMText
 10
1074.556686986741
 20
503.7278365005473
 30
0.0
 40
2.252848170144607
 41
10.82934843438984
 46
7.886094601212141
 71
     5
 72
     5
  1
数量\P{\Fromans|c134;Qty.}
 73
     1
 44
1.0
1001
AcDbBlockRepETag
1070
     1
1071
       89
1005
4D0
1001
ACAD
1000
ACAD_MTEXT_DEFINED_HEIGHT_BEGIN
1070
    46
1040
7.886094601212141
1000
ACAD_MTEXT_DEFINED_HEIGHT_END
  0
LINE
  5
4D1
330
7B
100
AcDbEntity
  8
图框
370
    -3
100
AcDbLine
 10
1079.971361203936
 20
495.8417418993347
 30
0.0
 11
1126.928502610363
 21
495.8417418993342
 31
0.0
1001
AcDbBlockRepETag
1070
     1
1071
       90
1005
4D1
  0
LINE
  5
4D2
330
7B
100
AcDbEntity
  8
图框
370
    -3
100
AcDbLine
 10
1079.971361203936
 20
504.7132992040975
 30
0.0
 11
1126.928502610363
 21
504.7132992040975
 31
0.0
1001
AcDbBlockRepETag
1070
     1
1071
       91
1005
4D2
  0
MTEXT
  5
4D3
330
7B
100
AcDbEntity
  8
图框
100
AcDbMText
 10
1052.893317052817
 20
503.7278365005473
 30
0.0
 40
2.252848170144607
 41
10.83869456467139
 46
7.886094601212101
 71
     5
 72
     5
  1
版本\P{\Fromans|c134;REV.}
 73
     1
 44
1.0
1001
AcDbBlockRepETag
1070
     1
1071
       92
1005
4D3
1001
ACAD
1000
ACAD_MTEXT_DEFINED_HEIGHT_BEGIN
1070
    46
1040
7.886094601212101
1000
ACAD_MTEXT_DEFINED_HEIGHT_END
  0
MTEXT
  5
4D4
330
7B
100
AcDbEntity
  8
图框
100
AcDbMText
 10
1042.068641683568
 20
503.7278365005473
 30
0.0
 40
2.252848170144607
 41
10.8293484343908
 46
7.886094601212136
 71
     5
 72
     5
  1
比例\P{\Fromans|c134;Scale}
 73
     1
 44
1.0
1001
AcDbBlockRepETag
1070
     1
1071
       93
1005
4D4
1001
ACAD
1000
ACAD_MTEXT_DEFINED_HEIGHT_BEGIN
1070
    46
1040
7.886094601212136
1000
ACAD_MTEXT_DEFINED_HEIGHT_END
  0
LINE
  5
4D5
330
7B
100
AcDbEntity
  8
图框
370
    -3
100
AcDbLine
 10
1036.653967466372
 20
507.6708838011533
 30
0.0
 11
1079.971361203936
 21
507.6708838011533
 31
0.0
1001
AcDbBlockRepETag
1070
     1
1071
       94
1005
4D5
  0
LINE
  5
4D6
330
7B
100
AcDbEntity
  8
图框
370
    -3
100
AcDbLine
 10
1036.653967466372
 20
491.8986945987308
 30
0.0
 11
1079.971361203936
 21
491.8986945987308
 31
0.0
1001
AcDbBlockRepETag
1070
     1
1071
       95
1005
4D6
  0
LINE
  5
4D7
330
7B
100
AcDbEntity
  8
图框
370
    -3
100
AcDbLine
 10
1079.971361203936
 20
531.3291676047914
 30
0.0
 11
1079.971361203936
 21
484.0125999975168
 31
0.0
1001
AcDbBlockRepETag
1070
     1
1071
       96
1005
4D7
  0
MTEXT
  5
4D8
330
7B
100
AcDbEntity
  8
图框
100
AcDbMText
 10
1042.063968618426
 20
525.4145966538832
 30
0.0
 40
2.252848170144607
 41
10.82000230410933
 46
11.82914190181708
 71
     5
 72
     5
  1
表面处理\P{\Fromans|c134;Finish}
 73
     1
 44
1.0
1001
AcDbBlockRepETag
1070
     1
1071
       97
1005
4D8
1001
ACAD
1000
ACAD_MTEXT_DEFINED_HEIGHT_BEGIN
1070
    46
1040
11.82914190181708
1000
ACAD_MTEXT_DEFINED_HEIGHT_END
  0
MTEXT
  5
4D9
330
7B
100
AcDbEntity
  8
图框
100
AcDbMText
 10
1042.063968618426
 20
513.5854547520639
 30
0.0
 40
2.252848170144607
 41
10.82000230410933
 46
11.8291419018212
 71
     5
 72
     5
  1
材料\P{\Fromans|c134;Material}
 73
     1
 44
1.0
1001
AcDbBlockRepETag
1070
     1
1071
       98
1005
4D9
1001
ACAD
1000
ACAD_MTEXT_DEFINED_HEIGHT_BEGIN
1070
    46
1040
11.8291419018212
1000
ACAD_MTEXT_DEFINED_HEIGHT_END
  0
LINE
  5
4DA
330
7B
100
AcDbEntity
  8
图框
370
    -3
100
AcDbLine
 10
1079.971361203936
 20
522.27220025775
 30
0.0
 11
1126.928502610363
 21
522.27220025775
 31
0.0
1001
AcDbBlockRepETag
1070
     1
1071
       99
1005
4DA
  0
LINE
  5
4DB
330
7B
100
AcDbEntity
  8
图框
370
    -3
100
AcDbLine
 10
1079.971361203936
 20
513.5854547520641
 30
0.0
 11
1126.928502610363
 21
513.5854547520639
 31
0.0
1001
AcDbBlockRepETag
1070
     1
1071
      100
1005
4DB
  0
MTEXT
  5
4DC
330
7B
100
AcDbEntity
  8
图框
100
AcDbMText
 10
1086.643735910939
 20
517.9288275049072
 30
0.0
 40
1.958998408821398
 41
13.34474941400573
 46
8.686745505685811
 71
     5
 72
     5
  1
产品代号\P{\Fromans|c134;Part Code}
 73
     1
 44
1.0
1001
AcDbBlockRepETag
1070
     1
1071
      101
1005
4DC
1001
ACAD
1000
ACAD_MTEXT_DEFINED_HEIGHT_BEGIN
1070
    46
1040
8.686745505685811
1000
ACAD_MTEXT_DEFINED_HEIGHT_END
  0
LINE
  5
4DD
330
7B
100
AcDbEntity
  8
图框
370
    -3
100
AcDbLine
 10
946.9285026103634
 20
525.7982263931411
 30
0.0
 11
1036.653967466372
 21
525.7982263931411
 31
0.0
1001
AcDbBlockRepETag
1070
     1
1071
      102
1005
4DD
  0
LINE
  5
4DE
330
7B
100
AcDbEntity
  8
图框
370
    -3
100
AcDbLine
 10
946.9285026103634
 20
520.2672851814959
 30
0.0
 11
1036.653967466372
 21
520.2672851814959
 31
0.0
1001
AcDbBlockRepETag
1070
     1
1071
      103
1005
4DE
  0
LINE
  5
4DF
330
7B
100
AcDbEntity
  8
图框
370
    35
100
AcDbLine
 10
946.9285026103634
 20
531.3291676047914
 30
0.0
 11
1126.928502610363
 21
531.3291676047914
 31
0.0
1001
AcDbBlockRepETag
1070
     1
1071
      104
1005
4DF
  0
LINE
  5
4E0
330
7B
100
AcDbEntity
  8
图框
370
    -3
100
AcDbLine
 10
990.6727612856927
 20
509.2054027581959
 30
0.0
 11
990.6727612856927
 21
484.0347692601515
 31
0.0
1001
AcDbBlockRepETag
1070
     1
1071
      105
1005
4E0
  0
MTEXT
  5
4E1
102
{ACAD_XDICTIONARY
360
CBD
102
}
330
7B
100
AcDbEntity
  8
图框
100
AcDbMText
 10
997.1628169651232
 20
499.816589978722
 30
0.0
 40
2.252848170144607
 41
12.98011135886052
 46
6.19230880992475
 71
     5
 72
     5
  1
{\f仿宋_GB2312|b0|i0|c134|p49;标准化}\PStand.
  7
Romans字体
 73
     1
 44
1.0
1001
AcDbBlockRepETag
1070
     1
1071
      106
1005
4E1
1001
ACAD
1000
ACAD_MTEXT_DEFINED_HEIGHT_BEGIN
1070
    46
1040
6.19230880992475
1000
ACAD_MTEXT_DEFINED_HEIGHT_END
  0
LINE
  5
4E2
330
7B
100
AcDbEntity
  8
图框
370
    -3
100
AcDbLine
 10
975.4103773808022
 20
509.2054027581959
 30
0.0
 11
975.4103773808022
 21
484.0347692601515
 31
0.0
1001
AcDbBlockRepETag
1070
     1
1071
      107
1005
4E2
  0
MTEXT
  5
4E3
330
7B
100
AcDbEntity
  8
图框
100
AcDbMText
 10
984.5089229802068
 20
511.9708733640202
 30
0.0
 40
2.448748011026752
 41
38.287899328693
 46
5.530941211648832
 71
     5
 72
     5
  1
  变更描述{\Fromans|c134;/Description}
 73
     1
 44
1.0
1001
AcDbBlockRepETag
1070
     1
1071
      108
1005
4E3
1001
ACAD
1000
ACAD_MTEXT_DEFINED_HEIGHT_BEGIN
1070
    46
1040
5.530941211648832
1000
ACAD_MTEXT_DEFINED_HEIGHT_END
  0
MTEXT
  5
4E4
102
{ACAD_XDICTIONARY
360
CBF
102
}
330
7B
100
AcDbEntity
  8
图框
100
AcDbMText
 10
1012.466086049227
 20
511.9708733640202
 30
0.0
 40
1.958998408821398
 41
17.6264268093469
 46
5.530941211648825
 71
     5
 72
     5
  1
签名\P{\Fromans|c134;Signature} 
 73
     1
 44
1.0
1001
AcDbBlockRepETag
1070
     1
1071
      109
1005
4E4
1001
ACAD
1000
ACAD_MTEXT_DEFINED_HEIGHT_BEGIN
1070
    46
1040
5.530941211648825
1000
ACAD_MTEXT_DEFINED_HEIGHT_END
  0
MTEXT
  5
4E5
102
{ACAD_XDICTIONARY
360
CC1
102
}
330
7B
100
AcDbEntity
  8
图框
100
AcDbMText
 10
960.7558556394856
 20
511.9708733640202
 30
0.0
 40
1.958998408821398
 41
9.218235352749283
 46
5.530941211648841
 71
     5
 72
     5
  1
处数\P{\Fromans|c134;Number }
 73
     1
 44
1.0
1001
AcDbBlockRepETag
1070
     1
1071
      110
1005
4E5
1001
ACAD
1000
ACAD_MTEXT_DEFINED_HEIGHT_BEGIN
1070
    46
1040
5.530941211648841
1000
ACAD_MTEXT_DEFINED_HEIGHT_END
  0
LINE
  5
4E6
330
7B
100
AcDbEntity
  8
图框
370
    -3
100
AcDbLine
 10
946.9285026103634
 20
514.7363439698449
 30
0.0
 11
1036.653967466372
 21
514.7363439698449
 31
0.0
1001
AcDbBlockRepETag
1070
     1
1071
      111
1005
4E6
  0
LINE
  5
4E7
330
7B
100
AcDbEntity
  8
图框
370
    -3
100
AcDbLine
 10
946.9285026103634
 20
509.2054027581959
 30
0.0
 11
1036.653967466372
 21
509.2054027581959
 31
0.0
1001
AcDbBlockRepETag
1070
     1
1071
      112
1005
4E7
  0
LINE
  5
4E8
330
7B
100
AcDbEntity
  8
图框
370
    -3
100
AcDbLine
 10
946.9285026103634
 20
502.9127443836848
 30
0.0
 11
1036.653967466372
 21
502.9127443836848
 31
0.0
1001
AcDbBlockRepETag
1070
     1
1071
      113
1005
4E8
  0
LINE
  5
4E9
330
7B
100
AcDbEntity
  8
图框
370
    -3
100
AcDbLine
 10
946.9285026103634
 20
496.620086009173
 30
0.0
 11
1036.653967466372
 21
496.620086009173
 31
0.0
1001
AcDbBlockRepETag
1070
     1
1071
      114
1005
4E9
  0
LINE
  5
4EA
330
7B
100
AcDbEntity
  8
图框
370
    35
380
     1
100
AcDbLine
 10
946.9285026103634
 20
531.3291676047914
 30
0.0
 11
946.9285026103634
 21
484.0347692601515
 31
0.0
1001
AcDbBlockRepETag
1070
     1
1071
      115
1005
4EA
  0
LINE
  5
4EB
330
7B
100
AcDbEntity
  8
图框
370
    -3
100
AcDbLine
 10
1021.301636813399
 20
531.3291676047914
 30
0.0
 11
1021.301636813399
 21
484.0347692601515
 31
0.0
1001
AcDbBlockRepETag
1070
     1
1071
      116
1005
4EB
  0
LINE
  5
4EC
330
7B
100
AcDbEntity
  8
图框
370
    -3
100
AcDbLine
 10
1003.652872644553
 20
531.3291676047914
 30
0.0
 11
1003.652872644553
 21
484.0347692601515
 31
0.0
1001
AcDbBlockRepETag
1070
     1
1071
      117
1005
4EC
  0
LINE
  5
4ED
330
7B
100
AcDbEntity
  8
图框
370
    -3
100
AcDbLine
 10
965.3649733158603
 20
531.3291676047914
 30
0.0
 11
965.3649733158603
 21
509.2054027581959
 31
0.0
1001
AcDbBlockRepETag
1070
     1
1071
      118
1005
4ED
  0
LINE
  5
4EE
330
7B
100
AcDbEntity
  8
图框
370
    -3
100
AcDbLine
 10
956.1467379631109
 20
531.3291676047914
 30
0.0
 11
956.1467379631109
 21
509.2054027581959
 31
0.0
1001
AcDbBlockRepETag
1070
     1
1071
      119
1005
4EE
  0
MTEXT
  5
4EF
102
{ACAD_XDICTIONARY
360
CC3
102
}
330
7B
100
AcDbEntity
  8
图框
100
AcDbMText
 10
951.537620286737
 20
511.9708733640202
 30
0.0
 40
1.958998408821398
 41
9.218235352747692
 46
5.530941211648832
 71
     5
 72
     5
  1
标记\P{\Fromans|c134;Mark}
 73
     1
 44
1.0
1001
AcDbBlockRepETag
1070
     1
1071
      120
1005
4EF
1001
ACAD
1000
ACAD_MTEXT_DEFINED_HEIGHT_BEGIN
1070
    46
1040
5.530941211648832
1000
ACAD_MTEXT_DEFINED_HEIGHT_END
  0
MTEXT
  5
4F0
102
{ACAD_XDICTIONARY
360
CC5
102
}
330
7B
100
AcDbEntity
  8
图框
100
AcDbMText
 10
953.4185582897936
 20
493.4737568219182
 30
0.0
 40
2.252848170144607
 41
12.98011135886041
 46
6.292658374510382
 71
     5
 72
     5
  1
审核\P{\Fromans|c134;Checked}
 73
     1
 44
1.0
1001
AcDbBlockRepETag
1070
     1
1071
      121
1005
4F0
1001
ACAD
1000
ACAD_MTEXT_DEFINED_HEIGHT_BEGIN
1070
    46
1040
6.292658374510382
1000
ACAD_MTEXT_DEFINED_HEIGHT_END
  0
MTEXT
  5
4F1
102
{ACAD_XDICTIONARY
360
CC7
102
}
330
7B
100
AcDbEntity
  8
图框
100
AcDbMText
 10
953.4185582897936
 20
499.8775635376777
 30
0.0
 40
2.252848170144607
 41
12.98011135886041
 46
6.070361692014189
 71
     5
 72
     5
  1
绘图\P{\Fromans|c134;Drawn\Ftxt|c134; }
 73
     1
 44
1.0
1001
AcDbBlockRepETag
1070
     1
1071
      122
1005
4F1
1001
ACAD
1000
ACAD_MTEXT_DEFINED_HEIGHT_BEGIN
1070
    46
1040
6.070361692014189
1000
ACAD_MTEXT_DEFINED_HEIGHT_END
  0
ARC
  5
4F2
330
7B
100
AcDbEntity
  8
图框
 62
     4
370
    35
100
AcDbCircle
 10
1086.900627017421
 20
490.0179944151195
 30
0.0
 40
4.063310408393665
100
AcDbArc
 50
18.95237904564806
 51
161.0476209543519
1001
AcDbBlockRepETag
1070
     1
1071
      123
1005
4F2
  0
ARC
  5
4F3
330
7B
100
AcDbEntity
  8
图框
 62
     4
370
    35
100
AcDbCircle
 10
1086.900627017421
 20
490.0179944151195
 30
0.0
 40
4.063310408393665
100
AcDbArc
 50
198.952379045648
 51
341.0476209543519
1001
AcDbBlockRepETag
1070
     1
1071
      124
1005
4F3
  0
LINE
  5
4F4
330
7B
100
AcDbEntity
  8
图框
 62
     4
370
    35
100
AcDbLine
 10
1083.057593369548
 20
488.6983035966752
 30
0.0
 11
1090.74366066529
 21
488.6983035966752
 31
0.0
1001
AcDbBlockRepETag
1070
     1
1071
      125
1005
4F4
  0
LINE
  5
4F5
330
7B
100
AcDbEntity
  8
图框
 62
     4
370
    35
100
AcDbLine
 10
1083.057593369548
 20
491.3376852335652
 30
0.0
 11
1090.74366066529
 21
491.3376852335652
 31
0.0
1001
AcDbBlockRepETag
1070
     1
1071
      126
1005
4F5
  0
MTEXT
  5
4F6
330
7B
100
AcDbEntity
  8
图框
 62
     1
370
    20
100
AcDbMText
 10
1083.034582879669
 20
491.0506288081688
 30
0.0
 40
2.005930044038334
 41
5.047240019334847
 46
0.0
 71
     1
 72
     5
  1
{\fArial|b0|i0|c0|p34;W}
  7
Chinese
 73
     1
 44
1.0
1001
AcDbBlockRepETag
1070
     1
1071
      127
1005
4F6
  0
LINE
  5
4F7
330
7B
100
AcDbEntity
  8
图框
370
    -3
100
AcDbLine
 10
946.9285026103634
 20
490.327427634663
 30
0.0
 11
1036.653967466372
 21
490.327427634663
 31
0.0
1001
AcDbBlockRepETag
1070
     1
1071
      128
1005
4F7
  0
LINE
  5
4F8
330
7B
100
AcDbEntity
  8
图框
370
    -3
100
AcDbLine
 10
959.9086139692238
 20
509.2054027581959
 30
0.0
 11
959.9086139692238
 21
484.0347692601515
 31
0.0
1001
AcDbBlockRepETag
1070
     1
1071
      129
1005
4F8
  0
MTEXT
  5
4F9
330
7B
100
AcDbEntity
  8
图框
100
AcDbMText
 10
967.6594956750129
 20
506.0590735709403
 30
0.0
 40
2.252848170144607
 41
15.50176341157869
 46
6.292658374511246
 71
     5
 72
     5
  1
姓名{\Fromans|c134;/Name\Ftxt|c134; }
 73
     1
 44
1.0
1001
AcDbBlockRepETag
1070
     1
1071
      130
1005
4F9
1001
ACAD
1000
ACAD_MTEXT_DEFINED_HEIGHT_BEGIN
1070
    46
1040
6.292658374511246
1000
ACAD_MTEXT_DEFINED_HEIGHT_END
  0
MTEXT
  5
4FA
330
7B
100
AcDbEntity
  8
图框
100
AcDbMText
 10
983.0415693332477
 20
506.0590735709403
 30
0.0
 40
2.252848170144607
 41
15.26238390489042
 46
6.2926583745112
 71
     5
 72
     5
  1
日期{\Fromans|c134;/Date}
 73
     1
 44
1.0
1001
AcDbBlockRepETag
1070
     1
1071
      131
1005
4FA
1001
ACAD
1000
ACAD_MTEXT_DEFINED_HEIGHT_BEGIN
1070
    46
1040
6.2926583745112
1000
ACAD_MTEXT_DEFINED_HEIGHT_END
  0
LINE
  5
4FB
330
7B
100
AcDbEntity
  8
图框
370
    -3
100
AcDbLine
 10
946.9285026103634
 20
509.2054027581959
 30
0.0
 11
959.9086139692238
 21
502.9127443836848
 31
0.0
1001
AcDbBlockRepETag
1070
     1
1071
      132
1005
4FB
  0
MTEXT
  5
4FC
330
7B
100
AcDbEntity
  8
图框
100
AcDbMText
 10
1012.931405110086
 20
506.0185715840725
 30
0.0
 40
2.252848170144607
 41
16.93492221063566
 46
0.0
 71
     5
 72
     5
  1
姓名{\Fromans|c134;/Name}
 73
     1
 44
1.0
1001
AcDbBlockRepETag
1070
     1
1071
      133
1005
4FC
  0
MTEXT
  5
4FD
330
7B
100
AcDbEntity
  8
图框
100
AcDbMText
 10
1028.977802139886
 20
506.0590735709403
 30
0.0
 40
2.252848170144607
 41
15.35233065297283
 46
6.292658374511256
 71
     5
 72
     5
  1
日期{\Fromans|c134;/Date}
 73
     1
 44
1.0
1001
AcDbBlockRepETag
1070
     1
1071
      134
1005
4FD
1001
ACAD
1000
ACAD_MTEXT_DEFINED_HEIGHT_BEGIN
1070
    46
1040
6.292658374511256
1000
ACAD_MTEXT_DEFINED_HEIGHT_END
  0
LINE
  5
4FE
330
7B
100
AcDbEntity
  8
图框
370
    -3
100
AcDbLine
 10
1003.652872644553
 20
502.9127443836848
 30
0.0
 11
990.6727612856927
 21
509.2054027581959
 31
0.0
1001
AcDbBlockRepETag
1070
     1
1071
      135
1005
4FE
  0
MTEXT
  5
4FF
102
{ACAD_XDICTIONARY
360
CC9
102
}
330
7B
100
AcDbEntity
  8
图框
100
AcDbMText
 10
997.1628169651232
 20
487.1810984474071
 30
0.0
 40
2.252848170144607
 41
12.98011135886052
 46
6.292658374511517
 71
     5
 72
     5
  1
批准\P{\Fromans|c134;Approved}
 73
     1
 44
1.0
1001
AcDbBlockRepETag
1070
     1
1071
      136
1005
4FF
1001
ACAD
1000
ACAD_MTEXT_DEFINED_HEIGHT_BEGIN
1070
    46
1040
6.292658374511517
1000
ACAD_MTEXT_DEFINED_HEIGHT_END
  0
MTEXT
  5
500
102
{ACAD_XDICTIONARY
360
CCB
102
}
330
7B
100
AcDbEntity
  8
图框
100
AcDbMText
 10
953.4185582897936
 20
487.1810984474071
 30
0.0
 40
2.252848170144607
 41
12.98011135886041
 46
6.292658374511495
 71
     5
 72
     5
  1
工艺\P{\Fromans|c134;Process}
 73
     1
 44
1.0
1001
AcDbBlockRepETag
1070
     1
1071
      137
1005
500
1001
ACAD
1000
ACAD_MTEXT_DEFINED_HEIGHT_BEGIN
1070
    46
1040
6.292658374511495
1000
ACAD_MTEXT_DEFINED_HEIGHT_END
  0
MTEXT
  5
501
102
{ACAD_XDICTIONARY
360
CCD
102
}
330
7B
100
AcDbEntity
  8
图框
100
AcDbMText
 10
1028.977802139886
 20
511.8287965307664
 30
0.0
 40
1.958998408821398
 41
15.3523306529728
 46
5.246787545140668
 71
     5
 72
     5
  1
日期\P{\Fromans|c134;Date}
 73
     1
 44
1.0
1001
AcDbBlockRepETag
1070
     1
1071
      138
1005
501
1001
ACAD
1000
ACAD_MTEXT_DEFINED_HEIGHT_BEGIN
1070
    46
1040
5.246787545140668
1000
ACAD_MTEXT_DEFINED_HEIGHT_END
  0
MTEXT
  5
502
330
7B
100
AcDbEntity
  8
图框
100
AcDbMText
 10
1086.643735910939
 20
509.1493769780809
 30
0.0
 40
2.154898249703542
 41
13.34474941400573
 46
8.87215554796615
 71
     5
 72
     5
  1
产品料号\P{\Fromans|c134;Part No.}
 73
     1
 44
1.0
1001
AcDbBlockRepETag
1070
     1
1071
      139
1005
502
1001
ACAD
1000
ACAD_MTEXT_DEFINED_HEIGHT_BEGIN
1070
    46
1040
8.87215554796615
1000
ACAD_MTEXT_DEFINED_HEIGHT_END
  0
MTEXT
  5
503
330
7B
100
AcDbEntity
  8
图框
100
AcDbMText
 10
1086.643735910939
 20
500.2775205517163
 30
0.0
 40
1.958998408821398
 41
13.34474941400573
 46
8.871557304763321
 71
     5
 72
     5
  1
产品名称\P{\Fromans|c134;Part Name}
 73
     1
 44
1.0
1001
AcDbBlockRepETag
1070
     1
1071
      140
1005
503
1001
ACAD
1000
ACAD_MTEXT_DEFINED_HEIGHT_BEGIN
1070
    46
1040
8.871557304763321
1000
ACAD_MTEXT_DEFINED_HEIGHT_END
  0
LINE
  5
504
330
7B
100
AcDbEntity
  8
图框
 62
     1
370
    18
100
AcDbLine
 10
833.4128518455365
 20
690.5347692601515
 30
0.0
 11
833.4128518455365
 21
480.5347692601515
 31
0.0
1001
AcDbBlockRepETag
1070
     1
1071
      141
1005
504
  0
LINE
  5
505
330
7B
100
AcDbEntity
  8
图框
 62
     1
370
    18
100
AcDbLine
 10
833.4128518455365
 20
480.5347692601515
 30
0.0
 11
1130.411601781236
 21
480.5347692601515
 31
0.0
1001
AcDbBlockRepETag
1070
     1
1071
      142
1005
505
  0
LINE
  5
506
330
7B
100
AcDbEntity
  8
图框
 62
     1
370
    18
100
AcDbLine
 10
833.4128518455365
 20
690.5347692601515
 30
0.0
 11
1130.411601781236
 21
690.5347692601515
 31
0.0
1001
AcDbBlockRepETag
1070
     1
1071
      143
1005
506
  0
LINE
  5
507
330
7B
100
AcDbEntity
  8
图框
 62
     1
370
    18
100
AcDbLine
 10
1130.411601781236
 20
480.5347692601515
 30
0.0
 11
1130.411601781236
 21
690.5347692601515
 31
0.0
1001
AcDbBlockRepETag
1070
     1
1071
      144
1005
507
  0
LINE
  5
508
330
7B
100
AcDbEntity
  8
图框
370
    18
100
AcDbLine
 10
836.9128518455394
 20
686.7901958362482
 30
0.0
 11
861.5351874539182
 21
686.7901958362482
 31
0.0
1001
AcDbBlockRepETag
1070
     1
1071
      145
1005
508
  0
LINE
  5
509
330
7B
100
AcDbEntity
  8
图框
370
    50
100
AcDbLine
 10
1126.928502610363
 20
484.3410054693078
 30
0.0
 11
1126.928502610363
 21
675.5347692601515
 31
0.0
1001
AcDbBlockRepETag
1070
     1
1071
      146
1005
509
  0
MTEXT
  5
50A
330
7B
100
AcDbEntity
  8
图框
 62
     3
100
AcDbMText
 10
1052.897990117958
 20
495.8417418993364
 30
0.0
 40
2.985513575034151
 41
10.82934843439114
 46
7.886094601211307
 71
     5
 72
     5
  1
V1.1
  7
Romans字体
 73
     1
 44
1.0
1001
AcDbBlockRepETag
1070
     1
1071
      147
1005
50A
1001
ACAD
1000
ACAD_MTEXT_DEFINED_HEIGHT_BEGIN
1070
    46
1040
7.886094601211307
1000
ACAD_MTEXT_DEFINED_HEIGHT_END
  0
MTEXT
  5
50B
330
7B
100
AcDbEntity
  8
图框
 62
     3
100
AcDbMText
 10
1063.727338552349
 20
495.8417418993361
 30
0.0
 40
2.985513575034151
 41
10.82934843438978
 46
7.886094601210427
 71
     5
 72
     5
  1
430g
  7
Romans字体
 73
     1
 44
1.0
1001
AcDbBlockRepETag
1070
     1
1071
      148
1005
50B
1001
ACAD
1000
ACAD_MTEXT_DEFINED_HEIGHT_BEGIN
1070
    46
1040
7.886094601210427
1000
ACAD_MTEXT_DEFINED_HEIGHT_END
  0
ENDBLK
  5
116
330
7B
100
AcDbEntity
  8
0
100
AcDbBlockEnd
  0
BLOCK
  5
3DE
330
3DD
100
AcDbEntity
  8
0
100
AcDbBlockBegin
  2
*D1
 70
     1
 10
0.0
 20
0.0
 30
0.0
  3
*D1
  1

  0
LINE
  5
3DF
330
3DD
100
AcDbEntity
  8
Dim
 62
     6
370
    -2
100
AcDbLine
 10
1630.352377402353
 20
1060.836319103531
 30
0.0
 11
1630.352377402353
 21
1040.996034066902
 31
0.0
  0
LINE
  5
3E0
330
3DD
100
AcDbEntity
  8
Dim
 62
     6
370
    -2
100
AcDbLine
 10
1740.352377402993
 20
1060.836319103531
 30
0.0
 11
1740.352377402993
 21
1040.996034066902
 31
0.0
  0
LINE
  5
3E1
330
3DD
100
AcDbEntity
  8
Dim
 62
     1
370
    -2
100
AcDbLine
 10
1633.852377402353
 20
1042.196034066902
 30
0.0
 11
1736.852377402993
 21
1042.196034066902
 31
0.0
  0
SOLID
  5
3E2
330
3DD
100
AcDbEntity
  8
Dim
 62
     1
100
AcDbTrace
 10
1633.852377402353
 20
1042.779367400235
 30
0.0
 11
1633.852377402353
 21
1041.612700733569
 31
0.0
 12
1630.352377402353
 22
1042.196034066902
 32
0.0
 13
1630.352377402353
 23
1042.196034066902
 33
0.0
  0
SOLID
  5
3E3
330
3DD
100
AcDbEntity
  8
Dim
 62
     1
100
AcDbTrace
 10
1736.852377402993
 20
1042.779367400235
 30
0.0
 11
1736.852377402993
 21
1041.612700733569
 31
0.0
 12
1740.352377402993
 22
1042.196034066902
 32
0.0
 13
1740.352377402993
 23
1042.196034066902
 33
0.0
  0
MTEXT
  5
3E4
330
3DD
100
AcDbEntity
  8
Dim
 62
     4
100
AcDbMText
 10
1685.352377402673
 20
1044.696034066902
 30
0.0
 40
4.0
 41
0.0
 46
0.0
 71
     5
 72
     1
  1
\A1;110
  7
Romans字体
 73
     1
 44
1.0
  0
POINT
  5
3E5
330
3DD
100
AcDbEntity
  8
Defpoints
 62
     0
100
AcDbPoint
 10
1630.352377402353
 20
1061.036319103531
 30
0.0
  0
POINT
  5
3E6
330
3DD
100
AcDbEntity
  8
Defpoints
 62
     0
100
AcDbPoint
 10
1740.352377402993
 20
1061.036319103531
 30
0.0
  0
POINT
  5
3E7
330
3DD
100
AcDbEntity
  8
Defpoints
 62
     0
100
AcDbPoint
 10
1740.352377402993
 20
1042.196034066902
 30
0.0
  0
ENDBLK
  5
3E8
330
3DD
100
AcDbEntity
  8
0
100
AcDbBlockEnd
  0
BLOCK
  5
3B4
330
3B3
100
AcDbEntity
  8
0
100
AcDbBlockBegin
  2
*D2
 70
     1
 10
0.0
 20
0.0
 30
0.0
  3
*D2
  1

  0
LINE
  5
3B5
330
3B3
100
AcDbEntity
  8
Dim
 62
     6
370
    -2
100
AcDbLine
 10
1726.072847424963
 20
1132.915904703535
 30
0.0
 11
1730.415416382293
 21
1133.526212969556
 31
0.0
  0
LINE
  5
3B6
330
3B3
100
AcDbEntity
  8
Dim
 62
     6
370
    -2
100
AcDbLine
 10
1730.303709694186
 20
1102.811755413796
 30
0.0
 11
1734.646278651517
 21
1103.422063679818
 31
0.0
  0
LINE
  5
3B7
330
3B3
100
AcDbEntity
  8
Dim
 62
     1
370
    -2
100
AcDbLine
 10
1729.714200553168
 20
1129.893267007808
 30
0.0
 11
1732.970851115662
 21
1106.720994199259
 31
0.0
  0
SOLID
  5
3B8
330
3B3
100
AcDbEntity
  8
Dim
 62
     1
100
AcDbTrace
 10
1730.291856926601
 20
1129.974451316702
 30
0.0
 11
1729.136544179736
 21
1129.812082698914
 31
0.0
 12
1729.227094699804
 22
1133.359205248403
 32
0.0
 13
1729.227094699804
 23
1133.359205248403
 33
0.0
  0
SOLID
  5
3B9
330
3B3
100
AcDbEntity
  8
Dim
 62
     1
100
AcDbTrace
 10
1733.548507489095
 20
1106.802178508153
 30
0.0
 11
1732.39319474223
 21
1106.639809890365
 31
0.0
 12
1733.457956969027
 22
1103.255055958664
 32
0.0
 13
1733.457956969027
 23
1103.255055958664
 33
0.0
  0
MTEXT
  5
3BA
330
3B3
100
AcDbEntity
  8
Dim
 62
     4
100
AcDbMText
 10
1733.818196006269
 20
1118.655063355937
 30
0.0
 40
4.0
 41
0.0
 46
0.0
 71
     5
 72
     1
  1
\A1;M32
  7
Romans字体
 11
0.1391731009612851
 21
-0.990268068741399
 31
0.0
 73
     1
 44
1.0
  0
POINT
  5
3BB
330
3B3
100
AcDbEntity
  8
Defpoints
 62
     0
100
AcDbPoint
 10
1725.874793811214
 20
1132.888070083343
 30
0.0
  0
POINT
  5
3BC
330
3B3
100
AcDbEntity
  8
Defpoints
 62
     0
100
AcDbPoint
 10
1730.105656080437
 20
1102.783920793604
 30
0.0
  0
POINT
  5
3BD
330
3B3
100
AcDbEntity
  8
Defpoints
 62
     0
100
AcDbPoint
 10
1733.457956969027
 20
1103.255055958664
 30
0.0
  0
ENDBLK
  5
3BE
330
3B3
100
AcDbEntity
  8
0
100
AcDbBlockEnd
  0
BLOCK
  5
235
330
234
100
AcDbEntity
  8
0
100
AcDbBlockBegin
  2
*D3
 70
     1
 10
0.0
 20
0.0
 30
0.0
  3
*D3
  1

  0
LINE
  5
236
330
234
100
AcDbEntity
  8
Dim
 62
     6
370
    -2
100
AcDbLine
 10
1650.629391955276
 20
1150.83599543848
 30
0.0
 11
1620.43442182513
 21
1150.83599543848
 31
0.0
  0
LINE
  5
237
330
234
100
AcDbEntity
  8
Dim
 62
     6
370
    -2
100
AcDbLine
 10
1638.952407864773
 20
1056.835995438071
 30
0.0
 11
1620.43442182513
 21
1056.835995438071
 31
0.0
  0
LINE
  5
238
330
234
100
AcDbEntity
  8
Dim
 62
     1
370
    -2
100
AcDbLine
 10
1621.634421825131
 20
1147.33599543848
 30
0.0
 11
1621.634421825131
 21
1060.335995438071
 31
0.0
  0
SOLID
  5
239
330
234
100
AcDbEntity
  8
Dim
 62
     1
100
AcDbTrace
 10
1621.051088491797
 20
1147.33599543848
 30
0.0
 11
1622.217755158464
 21
1147.33599543848
 31
0.0
 12
1621.634421825131
 22
1150.83599543848
 32
0.0
 13
1621.634421825131
 23
1150.83599543848
 33
0.0
  0
SOLID
  5
23A
330
234
100
AcDbEntity
  8
Dim
 62
     1
100
AcDbTrace
 10
1621.051088491797
 20
1060.335995438071
 30
0.0
 11
1622.217755158464
 21
1060.335995438071
 31
0.0
 12
1621.634421825131
 22
1056.835995438071
 32
0.0
 13
1621.634421825131
 23
1056.835995438071
 33
0.0
  0
MTEXT
  5
23B
330
234
100
AcDbEntity
  8
Dim
 62
     4
100
AcDbMText
 10
1619.13442182513
 20
1103.835995438276
 30
0.0
 40
4.0
 41
0.0
 46
0.0
 71
     5
 72
     1
  1
\A1;94
  7
Romans字体
 11
0.0000000000000001
 21
1.0
 31
0.0
 73
     1
 44
1.0
  0
POINT
  5
23C
330
234
100
AcDbEntity
  8
Defpoints
 62
     0
100
AcDbPoint
 10
1650.829391955276
 20
1150.83599543848
 30
0.0
  0
POINT
  5
23E
330
234
100
AcDbEntity
  8
Defpoints
 62
     0
100
AcDbPoint
 10
1639.152407864773
 20
1056.835995438071
 30
0.0
  0
POINT
  5
23F
330
234
100
AcDbEntity
  8
Defpoints
 62
     0
100
AcDbPoint
 10
1621.634421825131
 20
1056.835995438071
 30
0.0
  0
ENDBLK
  5
240
330
234
100
AcDbEntity
  8
0
100
AcDbBlockEnd
  0
BLOCK
  5
245
330
244
100
AcDbEntity
  8
0
100
AcDbBlockBegin
  2
*D4
 70
     1
 10
0.0
 20
0.0
 30
0.0
  3
*D4
  1

  0
LINE
  5
246
330
244
100
AcDbEntity
  8
Dim
 62
     6
370
    -2
100
AcDbLine
 10
1638.352377402353
 20
1057.236001786951
 30
0.0
 11
1638.352377402353
 21
1048.215304095224
 31
0.0
  0
LINE
  5
247
330
244
100
AcDbEntity
  8
Dim
 62
     6
370
    -2
100
AcDbLine
 10
1732.352337694897
 20
1057.236014486348
 30
0.0
 11
1732.352337694897
 21
1048.215304095224
 31
0.0
  0
LINE
  5
248
330
244
100
AcDbEntity
  8
Dim
 62
     1
370
    -2
100
AcDbLine
 10
1641.852377402353
 20
1049.415304095224
 30
0.0
 11
1728.852337694897
 21
1049.415304095224
 31
0.0
  0
SOLID
  5
249
330
244
100
AcDbEntity
  8
Dim
 62
     1
100
AcDbTrace
 10
1641.852377402353
 20
1049.998637428557
 30
0.0
 11
1641.852377402353
 21
1048.83197076189
 31
0.0
 12
1638.352377402353
 22
1049.415304095224
 32
0.0
 13
1638.352377402353
 23
1049.415304095224
 33
0.0
  0
SOLID
  5
24A
330
244
100
AcDbEntity
  8
Dim
 62
     1
100
AcDbTrace
 10
1728.852337694897
 20
1049.998637428557
 30
0.0
 11
1728.852337694897
 21
1048.83197076189
 31
0.0
 12
1732.352337694897
 22
1049.415304095224
 32
0.0
 13
1732.352337694897
 23
1049.415304095224
 33
0.0
  0
MTEXT
  5
24B
330
244
100
AcDbEntity
  8
Dim
 62
     4
100
AcDbMText
 10
1685.352357548625
 20
1051.915304095224
 30
0.0
 40
4.0
 41
0.0
 46
0.0
 71
     5
 72
     1
  1
\A1;94
  7
Romans字体
 73
     1
 44
1.0
  0
POINT
  5
24C
330
244
100
AcDbEntity
  8
Defpoints
 62
     0
100
AcDbPoint
 10
1638.352377402353
 20
1057.436001786951
 30
0.0
  0
POINT
  5
24D
330
244
100
AcDbEntity
  8
Defpoints
 62
     0
100
AcDbPoint
 10
1732.352337694897
 20
1057.436014486348
 30
0.0
  0
POINT
  5
24E
330
244
100
AcDbEntity
  8
Defpoints
 62
     0
100
AcDbPoint
 10
1732.352337694897
 20
1049.415304095224
 30
0.0
  0
ENDBLK
  5
24F
330
244
100
AcDbEntity
  8
0
100
AcDbBlockEnd
  0
BLOCK
  5
254
330
253
100
AcDbEntity
  8
0
100
AcDbBlockBegin
  2
*D5
 70
     1
 10
0.0
 20
0.0
 30
0.0
  3
*D5
  1

  0
LINE
  5
255
330
253
100
AcDbEntity
  8
Dim
 62
     6
370
    -2
100
AcDbLine
 10
1766.210146867913
 20
1057.591634339591
 30
0.0
 11
1766.210146867913
 21
1046.425954613118
 31
0.0
  0
LINE
  5
256
330
253
100
AcDbEntity
  8
Dim
 62
     6
370
    -2
100
AcDbLine
 10
1848.710146938613
 20
1057.591632481091
 30
0.0
 11
1848.710146938613
 21
1046.425954613118
 31
0.0
  0
LINE
  5
257
330
253
100
AcDbEntity
  8
Dim
 62
     1
370
    -2
100
AcDbLine
 10
1769.710146867913
 20
1047.625954613118
 30
0.0
 11
1845.210146938613
 21
1047.625954613118
 31
0.0
  0
SOLID
  5
258
330
253
100
AcDbEntity
  8
Dim
 62
     1
100
AcDbTrace
 10
1769.710146867913
 20
1048.209287946451
 30
0.0
 11
1769.710146867913
 21
1047.042621279785
 31
0.0
 12
1766.210146867913
 22
1047.625954613118
 32
0.0
 13
1766.210146867913
 23
1047.625954613118
 33
0.0
  0
SOLID
  5
259
330
253
100
AcDbEntity
  8
Dim
 62
     1
100
AcDbTrace
 10
1845.210146938613
 20
1048.209287946451
 30
0.0
 11
1845.210146938613
 21
1047.042621279785
 31
0.0
 12
1848.710146938613
 22
1047.625954613118
 32
0.0
 13
1848.710146938613
 23
1047.625954613118
 33
0.0
  0
MTEXT
  5
25A
330
253
100
AcDbEntity
  8
Dim
 62
     4
100
AcDbMText
 10
1807.460146903263
 20
1050.125954613118
 30
0.0
 40
4.0
 41
0.0
 46
0.0
 71
     5
 72
     1
  1
\A1;82.5
  7
Romans字体
 73
     1
 44
1.0
  0
POINT
  5
25B
330
253
100
AcDbEntity
  8
Defpoints
 62
     0
100
AcDbPoint
 10
1766.210146867913
 20
1057.791634339592
 30
0.0
  0
POINT
  5
25C
330
253
100
AcDbEntity
  8
Defpoints
 62
     0
100
AcDbPoint
 10
1848.710146938613
 20
1057.791632481092
 30
0.0
  0
POINT
  5
25D
330
253
100
AcDbEntity
  8
Defpoints
 62
     0
100
AcDbPoint
 10
1848.710146938613
 20
1047.625954613118
 30
0.0
  0
ENDBLK
  5
25E
330
253
100
AcDbEntity
  8
0
100
AcDbBlockEnd
  0
ENDSEC
  0
SECTION
  2
ENTITIES
  0
MTEXT
  5
74
330
2
100
AcDbEntity
  8
图框
 62
     3
100
AcDbMText
 10
1973.400926625659
 20
948.2996107692548
 30
0.0
 40
4.2
 41
50.41858798863206
 46
13.0301182585288
 71
     5
 72
     5
  1
WV32B-SE-2B-M32
  7
Romans字体
 73
     1
 44
1.0
1001
ACAD
1000
ACAD_MTEXT_DEFINED_HEIGHT_BEGIN
1070
    46
1040
13.0301182585288
1000
ACAD_MTEXT_DEFINED_HEIGHT_END
  0
MTEXT
  5
78
330
2
100
AcDbEntity
  8
图框
 62
     3
100
AcDbMText
 10
1871.320429229782
 20
915.1689823608979
 30
0.0
 40
4.478270362551226
 41
16.2440226515857
 46
11.82914190181574
 71
     5
 72
     5
  1
2:3
  7
Romans字体
 73
     1
 44
1.0
1001
ACAD
1000
ACAD_MTEXT_DEFINED_HEIGHT_BEGIN
1070
    46
1040
11.82914190181574
1000
ACAD_MTEXT_DEFINED_HEIGHT_END
  0
INSERT
  5
79
102
{ACAD_XDICTIONARY
360
7A
102
}
330
2
100
AcDbEntity
  8
Dim
100
AcDbBlockReference
  2
A4图框-NEW
 10
308.2174667044307
 20
171.4063695118943
 30
0.0
 41
1.5
 42
1.5
 43
1.5
  0
LINE
  5
118
330
2
100
AcDbEntity
  8
0
  6
Continuous
 62
     7
100
AcDbLine
 10
1638.352377402353
 20
1085.399184948611
 30
0.0
 11
1638.352377402353
 21
1069.686319104911
 31
0.0
  0
LINE
  5
119
330
2
100
AcDbEntity
  8
0
  6
Continuous
 62
     7
100
AcDbLine
 10
1638.352377402353
 20
1061.186319104692
 30
0.0
 11
1638.352377402353
 21
1057.436001786951
 31
0.0
  0
LINE
  5
11A
330
2
100
AcDbEntity
  8
0
  6
Continuous
 62
     7
100
AcDbLine
 10
1639.152407864773
 20
1056.835995438071
 30
0.0
 11
1639.152407864773
 21
1056.935995438731
 31
0.0
  0
LINE
  5
11B
330
2
100
AcDbEntity
  8
0
  6
Continuous
 62
     7
100
AcDbLine
 10
1639.447449893433
 20
1056.835995438071
 30
0.0
 11
1639.447449893433
 21
1057.231037467391
 31
0.0
  0
LINE
  5
11C
330
2
100
AcDbEntity
  8
0
  6
Continuous
 62
     7
100
AcDbLine
 10
1646.868470504753
 20
1147.392818951951
 30
0.0
 11
1644.976092420073
 21
1133.927849234751
 31
0.0
  0
LINE
  5
11D
330
2
100
AcDbEntity
  8
0
  6
Continuous
 62
     7
100
AcDbLine
 10
1640.452967293113
 20
1101.744141641411
 30
0.0
 11
1638.547008615833
 21
1088.182540982091
 31
0.0
  0
LINE
  5
11E
330
2
100
AcDbEntity
  8
0
  6
Continuous
 62
     7
100
AcDbLine
 10
1647.151319410733
 20
1147.067438505432
 30
0.0
 11
1638.872389062353
 21
1088.159788165012
 31
0.0
  0
LINE
  5
11F
102
{ACAD_REACTORS
330
233
102
}
330
2
100
AcDbEntity
  8
0
  6
Continuous
 62
     7
100
AcDbLine
 10
1639.152407864773
 20
1056.835995438071
 30
0.0
 11
1731.552346938033
 21
1056.835995438071
 31
0.0
  0
LINE
  5
120
330
2
100
AcDbEntity
  8
0
  6
Continuous
 62
     7
100
AcDbLine
 10
1731.852371054773
 20
1056.935995438731
 30
0.0
 11
1731.552346938033
 21
1056.935995438731
 31
0.0
  0
LINE
  5
121
330
2
100
AcDbEntity
  8
0
  6
Continuous
 62
     7
100
AcDbLine
 10
1639.152407864773
 20
1056.935995438731
 30
0.0
 11
1638.852383753113
 21
1056.935995438731
 31
0.0
  0
LINE
  5
122
330
2
100
AcDbEntity
  8
0
  6
Continuous
 62
     7
100
AcDbLine
 10
1645.972997970073
 20
1057.291653378671
 30
0.0
 11
1724.731756835273
 21
1057.291653378671
 31
0.0
  0
LINE
  5
123
330
2
100
AcDbEntity
  8
0
  6
Continuous
 62
     7
100
AcDbLine
 10
1645.972997970073
 20
1057.791634339592
 30
0.0
 11
1724.731756835273
 21
1057.791634339592
 31
0.0
  0
LINE
  5
124
330
2
100
AcDbEntity
  8
0
  6
Continuous
 62
     7
100
AcDbLine
 10
1645.972997970073
 20
1057.791634339592
 30
0.0
 11
1645.972997970073
 21
1057.291653378671
 31
0.0
  0
LINE
  5
125
330
2
100
AcDbEntity
  8
0
  6
Continuous
 62
     7
100
AcDbLine
 10
1646.147194776873
 20
1056.835995438071
 30
0.0
 11
1646.147194776873
 21
1057.288997239711
 31
0.0
  0
LINE
  5
126
330
2
100
AcDbEntity
  8
0
  6
Continuous
 62
     7
100
AcDbLine
 10
1639.403052204733
 20
1088.085208324331
 30
0.0
 11
1641.255339785393
 21
1101.264919295312
 31
0.0
  0
LINE
  5
127
330
2
100
AcDbEntity
  8
0
  6
Continuous
 62
     7
100
AcDbLine
 10
1643.165605878493
 20
1102.412820019572
 30
0.0
 11
1641.118115904393
 21
1087.844171841712
 31
0.0
  0
LINE
  5
128
330
2
100
AcDbEntity
  8
0
  6
Continuous
 62
     7
100
AcDbLine
 10
1651.112240861493
 20
1146.510767299751
 30
0.0
 11
1645.076002880653
 21
1103.560702344071
 31
0.0
  0
LINE
  5
129
330
2
100
AcDbEntity
  8
0
  6
Continuous
 62
     7
100
AcDbLine
 10
1651.112240861493
 20
1146.510767299751
 30
0.0
 11
1651.112240861493
 21
1150.510614992191
 31
0.0
  0
LINE
  5
12A
330
2
100
AcDbEntity
  8
0
  6
Continuous
 62
     7
100
AcDbLine
 10
1654.004217978213
 20
1140.683928191452
 30
0.0
 11
1649.741748695193
 21
1110.354883314991
 31
0.0
  0
LINE
  5
12B
330
2
100
AcDbEntity
  8
0
  6
Continuous
 62
     7
100
AcDbLine
 10
1655.509866772853
 20
1138.951877383271
 30
0.0
 11
1651.652548642953
 21
1111.505632755932
 31
0.0
  0
LINE
  5
12C
330
2
100
AcDbEntity
  8
0
  6
Continuous
 62
     7
100
AcDbLine
 10
1672.102377402853
 20
1069.835995437512
 30
0.0
 11
1643.940573017913
 21
1069.835995437512
 31
0.0
  0
LINE
  5
12D
330
2
100
AcDbEntity
  8
0
  6
Continuous
 62
     7
100
AcDbLine
 10
1698.602377402493
 20
1069.835995437512
 30
0.0
 11
1726.764181784893
 21
1069.835995437512
 31
0.0
  0
LINE
  5
12E
330
2
100
AcDbEntity
  8
0
  6
Continuous
 62
     7
100
AcDbLine
 10
1670.370326594673
 20
1071.568046245691
 30
0.0
 11
1641.453674186793
 21
1071.568046245691
 31
0.0
  0
LINE
  5
12F
330
2
100
AcDbEntity
  8
0
  6
Continuous
 62
     7
100
AcDbLine
 10
1700.334428210673
 20
1071.568046245691
 30
0.0
 11
1729.251080618553
 21
1071.568046245691
 31
0.0
  0
LINE
  5
130
330
2
100
AcDbEntity
  8
0
  6
Continuous
 62
     7
100
AcDbLine
 10
1672.102377402853
 20
1069.835995437512
 30
0.0
 11
1670.370326594673
 21
1071.568046245691
 31
0.0
  0
LINE
  5
131
330
2
100
AcDbEntity
  8
0
  6
Continuous
 62
     7
100
AcDbLine
 10
1671.120326593273
 20
1072.318046246832
 30
0.0
 11
1672.852377401453
 21
1070.585995438651
 31
0.0
  0
LINE
  5
132
330
2
100
AcDbEntity
  8
0
  6
Continuous
 62
     7
100
AcDbLine
 10
1649.741748695193
 20
1110.354883314991
 30
0.0
 11
1651.652145697353
 21
1111.502765639492
 31
0.0
  0
LINE
  5
133
330
2
100
AcDbEntity
  8
0
  6
Continuous
 62
     7
100
AcDbLine
 10
1653.272765511733
 20
1108.805601336091
 30
0.0
 11
1651.362368507033
 21
1107.657719009051
 31
0.0
  0
LINE
  5
134
330
2
100
AcDbEntity
  8
0
  6
Continuous
 62
     7
100
AcDbLine
 10
1729.586638900953
 20
1087.844171841712
 30
0.0
 11
1731.832365740453
 21
1088.159788165012
 31
0.0
  0
LINE
  5
135
330
2
100
AcDbEntity
  8
0
  6
Continuous
 62
     7
100
AcDbLine
 10
1732.026996956473
 20
1085.376432131531
 30
0.0
 11
1732.352377402993
 21
1085.399184948611
 31
0.0
  0
LINE
  5
136
330
2
100
AcDbEntity
  8
0
  6
Continuous
 62
     7
100
AcDbLine
 10
1638.352377402353
 20
1085.399184948611
 30
0.0
 11
1638.677757848873
 21
1085.376432131531
 31
0.0
  0
LINE
  5
137
330
2
100
AcDbEntity
  8
0
  6
Continuous
 62
     7
100
AcDbLine
 10
1638.872389062353
 20
1088.159788165012
 30
0.0
 11
1641.118115904393
 21
1087.844171841712
 31
0.0
  0
LINE
  5
138
330
2
100
AcDbEntity
  8
0
  6
Continuous
 62
     7
100
AcDbLine
 10
1671.120326593273
 20
1091.712978117291
 30
0.0
 11
1671.120326593273
 21
1072.318046246832
 31
0.0
  0
LINE
  5
139
330
2
100
AcDbEntity
  8
0
  6
Continuous
 62
     7
100
AcDbLine
 10
1732.157746186973
 20
1088.182540982091
 30
0.0
 11
1731.832365740453
 21
1088.159788165012
 31
0.0
  0
LINE
  5
13A
330
2
100
AcDbEntity
  8
0
  6
Continuous
 62
     7
100
AcDbLine
 10
1638.677757848873
 20
1085.376432131531
 30
0.0
 11
1640.945527781193
 21
1085.376432131531
 31
0.0
  0
LINE
  5
13B
330
2
100
AcDbEntity
  8
0
  6
Continuous
 62
     7
100
AcDbLine
 10
1729.759227021613
 20
1085.376432131531
 30
0.0
 11
1732.026996956473
 21
1085.376432131531
 31
0.0
  0
LINE
  5
13C
330
2
100
AcDbEntity
  8
0
  6
Continuous
 62
     7
100
AcDbLine
 10
1638.872389062353
 20
1088.159788165012
 30
0.0
 11
1638.547008615833
 21
1088.182540982091
 31
0.0
  0
LINE
  5
13D
330
2
100
AcDbEntity
  8
0
  6
Continuous
 62
     7
100
AcDbLine
 10
1643.165605878493
 20
1102.412820019572
 30
0.0
 11
1670.626841702673
 21
1092.417747584051
 31
0.0
  0
LINE
  5
13E
330
2
100
AcDbEntity
  8
0
  6
Continuous
 62
     7
100
AcDbLine
 10
1672.852377401453
 20
1092.925773149151
 30
0.0
 11
1672.852377401453
 21
1070.585995438651
 31
0.0
  0
LINE
  5
13F
330
2
100
AcDbEntity
  8
0
  6
Continuous
 62
     7
100
AcDbLine
 10
1672.438144496113
 20
1099.986763886171
 30
0.0
 11
1672.743551784713
 21
1101.718814694351
 31
0.0
  0
LINE
  5
140
330
2
100
AcDbEntity
  8
0
  6
Continuous
 62
     7
100
AcDbLine
 10
1673.598602142173
 20
1101.568046245571
 30
0.0
 11
1673.293194853573
 21
1099.835995437392
 31
0.0
  0
LINE
  5
141
330
2
100
AcDbEntity
  8
0
  6
Continuous
 62
     7
100
AcDbLine
 10
1645.076002880653
 20
1103.560702344071
 30
0.0
 11
1672.358892508313
 21
1093.630542615911
 31
0.0
  0
LINE
  5
142
330
2
100
AcDbEntity
  8
0
  6
Continuous
 62
     7
100
AcDbLine
 10
1719.592513943853
 20
1150.510614992191
 30
0.0
 11
1719.875362849833
 21
1150.835995438711
 31
0.0
  0
LINE
  5
143
330
2
100
AcDbEntity
  8
0
  6
Continuous
 62
     7
100
AcDbLine
 10
1651.362368507033
 20
1107.657719009051
 30
0.0
 11
1672.438144496113
 21
1099.986763886171
 31
0.0
  0
LINE
  5
144
330
2
100
AcDbEntity
  8
0
  6
Continuous
 62
     7
100
AcDbLine
 10
1653.275485897453
 20
1108.804611195831
 30
0.0
 11
1672.743551784713
 21
1101.718814694351
 31
0.0
  0
LINE
  5
145
330
2
100
AcDbEntity
  8
0
  6
Continuous
 62
     7
100
AcDbLine
 10
1665.152869041293
 20
1150.834174398411
 30
0.0
 11
1665.152379286113
 21
1150.835995438711
 31
0.0
  0
LINE
  5
146
330
2
100
AcDbEntity
  8
0
  6
Continuous
 62
     7
100
AcDbLine
 10
1712.719217858113
 20
1141.103944631071
 30
0.0
 11
1714.224866655293
 21
1142.835995439251
 31
0.0
  0
LINE
  5
147
330
2
100
AcDbEntity
  8
0
  6
Continuous
 62
     7
100
AcDbLine
 10
1716.700536827133
 20
1140.683928191452
 30
0.0
 11
1715.194888029953
 21
1138.951877383271
 31
0.0
  0
LINE
  5
148
330
2
100
AcDbEntity
  8
0
  6
Continuous
 62
     7
100
AcDbLine
 10
1723.836284298053
 20
1147.392818951951
 30
0.0
 11
1723.553435392073
 21
1147.067438505432
 31
0.0
  0
LINE
  5
149
102
{ACAD_REACTORS
330
243
102
}
330
2
100
AcDbEntity
  8
0
  6
Continuous
 62
     7
100
AcDbLine
 10
1638.352377402353
 20
1057.436001786951
 30
0.0
 11
1638.648906496873
 21
1057.732505494171
 31
0.0
  0
LINE
  5
14A
330
2
100
AcDbEntity
  8
0
  6
Continuous
 62
     7
100
AcDbLine
 10
1638.852383750573
 20
1056.935995438731
 30
0.0
 11
1639.148887457793
 21
1057.232524533252
 31
0.0
  0
LINE
  5
14B
330
2
100
AcDbEntity
  8
0
  6
Continuous
 62
     7
100
AcDbLine
 10
1639.152407864773
 20
1056.935995438731
 30
0.0
 11
1639.447449893433
 21
1057.231037467391
 31
0.0
  0
LINE
  5
14C
330
2
100
AcDbEntity
  8
0
  6
Continuous
 62
     7
100
AcDbLine
 10
1698.254760498033
 20
1109.274905284451
 30
0.0
 11
1712.350149807833
 21
1114.405207434292
 31
0.0
  0
LINE
  5
14D
330
2
100
AcDbEntity
  8
0
  6
Continuous
 62
     7
100
AcDbLine
 10
1712.692169951833
 20
1113.465514815331
 30
0.0
 11
1712.175786681833
 21
1113.277566674591
 31
0.0
  0
LINE
  5
14E
330
2
100
AcDbEntity
  8
0
  6
Continuous
 62
     7
100
AcDbLine
 10
1710.038418022873
 20
1112.499628103472
 30
0.0
 11
1709.485596418333
 21
1112.298417494971
 31
0.0
  0
LINE
  5
14F
330
2
100
AcDbEntity
  8
0
  6
Continuous
 62
     7
100
AcDbLine
 10
1708.542364073153
 20
1111.955108996932
 30
0.0
 11
1708.003076706213
 21
1111.758824446651
 31
0.0
  0
LINE
  5
150
330
2
100
AcDbEntity
  8
0
  6
Continuous
 62
     7
100
AcDbLine
 10
1705.816776567773
 20
1110.963076274372
 30
0.0
 11
1705.235845390293
 21
1110.751634616992
 31
0.0
  0
LINE
  5
151
330
2
100
AcDbEntity
  8
0
  6
Continuous
 62
     7
100
AcDbLine
 10
1703.829325635393
 20
1110.239703291352
 30
0.0
 11
1703.287956078053
 21
1110.042660886352
 31
0.0
  0
LINE
  5
152
330
2
100
AcDbEntity
  8
0
  6
Continuous
 62
     7
100
AcDbLine
 10
1701.547244730933
 20
1109.409093771472
 30
0.0
 11
1700.897601260093
 21
1109.172642885472
 31
0.0
  0
LINE
  5
153
330
2
100
AcDbEntity
  8
0
  6
Continuous
 62
     7
100
AcDbLine
 10
1699.148561151373
 20
1108.536044346631
 30
0.0
 11
1698.596780639493
 21
1108.335212665491
 31
0.0
  0
LINE
  5
154
330
2
100
AcDbEntity
  8
0
  6
Continuous
 62
     7
100
AcDbLine
 10
1640.454475204753
 20
1101.744201201872
 30
0.0
 11
1640.452967293113
 21
1101.744141641411
 31
0.0
  0
LINE
  5
155
330
2
100
AcDbEntity
  8
0
  6
Continuous
 62
     7
100
AcDbLine
 10
1673.293194853573
 20
1099.835995437392
 30
0.0
 11
1697.411559949233
 21
1099.835995437392
 31
0.0
  0
LINE
  5
156
330
2
100
AcDbEntity
  8
0
  6
Continuous
 62
     7
100
AcDbLine
 10
1673.598602142173
 20
1101.568046245571
 30
0.0
 11
1697.106152660633
 21
1101.568046245571
 31
0.0
  0
LINE
  5
157
330
2
100
AcDbEntity
  8
0
  6
Continuous
 62
     7
100
AcDbLine
 10
1699.584428209533
 20
1091.712978117291
 30
0.0
 11
1697.852377401353
 21
1092.925773149151
 31
0.0
  0
LINE
  5
158
330
2
100
AcDbEntity
  8
0
  6
Continuous
 62
     7
100
AcDbLine
 10
1698.345862294493
 20
1093.630542615911
 30
0.0
 11
1700.077913102673
 21
1092.417747584051
 31
0.0
  0
LINE
  5
159
330
2
100
AcDbEntity
  8
0
  6
Continuous
 62
     7
100
AcDbLine
 10
1731.257304911913
 20
1057.231037467391
 30
0.0
 11
1731.552346938033
 21
1056.935995438731
 31
0.0
  0
LINE
  5
15A
330
2
100
AcDbEntity
  8
0
  6
Continuous
 62
     7
100
AcDbLine
 10
1732.055848305933
 20
1057.732505494171
 30
0.0
 11
1732.352377402993
 21
1057.436001786951
 31
0.0
  0
LINE
  5
15B
330
2
100
AcDbEntity
  8
0
  6
Continuous
 62
     7
100
AcDbLine
 10
1731.555867345013
 20
1057.232524533252
 30
0.0
 11
1731.852371052233
 21
1056.935995438731
 31
0.0
  0
LINE
  5
15C
330
2
100
AcDbEntity
  8
0
  6
Continuous
 62
     7
100
AcDbLine
 10
1647.151319410733
 20
1147.067438505432
 30
0.0
 11
1646.868470504753
 21
1147.392818951951
 31
0.0
  0
LINE
  5
15D
330
2
100
AcDbEntity
  8
0
  6
Continuous
 62
     7
100
AcDbLine
 10
1655.509866772853
 20
1138.951877383271
 30
0.0
 11
1654.004217978213
 21
1140.683928191452
 31
0.0
  0
LINE
  5
15E
330
2
100
AcDbEntity
  8
0
  6
Continuous
 62
     7
100
AcDbLine
 10
1670.626841702673
 20
1092.417747584051
 30
0.0
 11
1672.358892508313
 21
1093.630542615911
 31
0.0
  0
LINE
  5
15F
330
2
100
AcDbEntity
  8
0
  6
Continuous
 62
     7
100
AcDbLine
 10
1672.852377401453
 20
1092.925773149151
 30
0.0
 11
1671.120326593273
 21
1091.712978117291
 31
0.0
  0
LINE
  5
160
330
2
100
AcDbEntity
  8
0
  6
Continuous
 62
     7
100
AcDbLine
 10
1706.932532311873
 20
1109.173852095652
 30
0.0
 11
1705.553081034713
 21
1108.671772891532
 31
0.0
  0
LINE
  5
161
330
2
100
AcDbEntity
  8
0
  6
Continuous
 62
     7
100
AcDbLine
 10
1705.526882542533
 20
1108.261094942251
 30
0.0
 11
1707.228032269513
 21
1108.880262807292
 31
0.0
  0
LINE
  5
162
330
2
100
AcDbEntity
  8
0
  6
Continuous
 62
     7
100
AcDbLine
 10
1700.873466972573
 20
1105.439236516892
 30
0.0
 11
1701.423165291513
 21
1105.639310343311
 31
0.0
  0
LINE
  5
163
330
2
100
AcDbEntity
  8
0
  6
Continuous
 62
     7
100
AcDbLine
 10
1703.390835415093
 20
1106.355483698872
 30
0.0
 11
1703.910341970693
 21
1106.544568624231
 31
0.0
  0
LINE
  5
164
330
2
100
AcDbEntity
  8
0
  6
Continuous
 62
     7
100
AcDbLine
 10
1704.870231841613
 20
1106.893939965112
 30
0.0
 11
1705.441793162293
 21
1107.101971271172
 31
0.0
  0
LINE
  5
165
330
2
100
AcDbEntity
  8
0
  6
Continuous
 62
     7
100
AcDbLine
 10
1708.065353327913
 20
1108.056869079431
 30
0.0
 11
1708.678558461673
 21
1108.280057495131
 31
0.0
  0
LINE
  5
166
330
2
100
AcDbEntity
  8
0
  6
Continuous
 62
     7
100
AcDbLine
 10
1709.200147207673
 20
1108.469900275212
 30
0.0
 11
1709.739434574613
 21
1108.666184822952
 31
0.0
  0
LINE
  5
167
330
2
100
AcDbEntity
  8
0
  6
Continuous
 62
     7
100
AcDbLine
 10
1710.682666919793
 20
1109.009493320991
 30
0.0
 11
1711.199050189793
 21
1109.197441461732
 31
0.0
  0
LINE
  5
168
330
2
100
AcDbEntity
  8
0
  6
Continuous
 62
     7
100
AcDbLine
 10
1713.336418848753
 20
1109.975380032852
 30
0.0
 11
1713.889240453293
 21
1110.176590641351
 31
0.0
  0
LINE
  5
169
330
2
100
AcDbEntity
  8
0
  6
Continuous
 62
     7
100
AcDbLine
 10
1714.231260597293
 20
1109.236898019851
 30
0.0
 11
1700.135871284953
 21
1104.106595870012
 31
0.0
  0
LINE
  5
16A
330
2
100
AcDbEntity
  8
0
  6
Continuous
 62
     7
100
AcDbLine
 10
1656.479888150053
 20
1142.835995439251
 30
0.0
 11
1657.985536944693
 21
1141.103944631071
 31
0.0
  0
LINE
  5
16B
330
2
100
AcDbEntity
  8
0
  6
Continuous
 62
     7
100
AcDbLine
 10
1650.829391952973
 20
1150.835995438711
 30
0.0
 11
1651.112240861493
 21
1150.510614992191
 31
0.0
  0
LINE
  5
16C
330
2
100
AcDbEntity
  8
0
  6
Continuous
 62
     7
100
AcDbLine
 10
1705.552375516693
 20
1150.835995438711
 30
0.0
 11
1705.551894306073
 21
1150.834174959751
 31
0.0
  0
LINE
  5
16D
330
2
100
AcDbEntity
  8
0
  6
Continuous
 62
     7
100
AcDbLine
 10
1697.961203018093
 20
1101.718814694351
 30
0.0
 11
1717.429268608173
 21
1108.804611086611
 31
0.0
  0
LINE
  5
16E
330
2
100
AcDbEntity
  8
0
  6
Continuous
 62
     7
100
AcDbLine
 10
1698.266610309233
 20
1099.986763886171
 30
0.0
 11
1719.342386295773
 21
1107.657719009051
 31
0.0
  0
LINE
  5
16F
330
2
100
AcDbEntity
  8
0
  6
Continuous
 62
     7
100
AcDbLine
 10
1697.852377401353
 20
1092.925773149151
 30
0.0
 11
1697.852377401353
 21
1070.585995438651
 31
0.0
  0
LINE
  5
170
330
2
100
AcDbEntity
  8
0
  6
Continuous
 62
     7
100
AcDbLine
 10
1699.584428209533
 20
1091.712978117291
 30
0.0
 11
1699.584428209533
 21
1072.318046246832
 31
0.0
  0
LINE
  5
171
330
2
100
AcDbEntity
  8
0
  6
Continuous
 62
     7
100
AcDbLine
 10
1725.628751922153
 20
1103.560702344071
 30
0.0
 11
1698.345862294493
 21
1093.630542615911
 31
0.0
  0
LINE
  5
172
330
2
100
AcDbEntity
  8
0
  6
Continuous
 62
     7
100
AcDbLine
 10
1698.596780639493
 20
1108.335212665491
 30
0.0
 11
1700.873466972573
 21
1105.439236516892
 31
0.0
  0
LINE
  5
173
330
2
100
AcDbEntity
  8
0
  6
Continuous
 62
     7
100
AcDbLine
 10
1698.854158521993
 20
1104.704268347511
 30
0.0
 11
1697.657088020533
 21
1107.993192521492
 31
0.0
  0
LINE
  5
174
330
2
100
AcDbEntity
  8
0
  6
Continuous
 62
     7
100
AcDbLine
 10
1697.411559949233
 20
1099.835995437392
 30
0.0
 11
1697.106152660633
 21
1101.568046245571
 31
0.0
  0
LINE
  5
175
330
2
100
AcDbEntity
  8
0
  6
Continuous
 62
     7
100
AcDbLine
 10
1697.961203018093
 20
1101.718814694351
 30
0.0
 11
1698.266610309233
 21
1099.986763886171
 31
0.0
  0
LINE
  5
176
330
2
100
AcDbEntity
  8
0
  6
Continuous
 62
     7
100
AcDbLine
 10
1703.910341970693
 20
1106.544568624231
 30
0.0
 11
1703.829325635393
 21
1110.239703291352
 31
0.0
  0
LINE
  5
177
330
2
100
AcDbEntity
  8
0
  6
Continuous
 62
     7
100
AcDbLine
 10
1700.897601260093
 20
1109.172642885472
 30
0.0
 11
1700.931485327453
 21
1106.669497901932
 31
0.0
  0
LINE
  5
178
330
2
100
AcDbEntity
  8
0
  6
Continuous
 62
     7
100
AcDbLine
 10
1705.441793162293
 20
1107.101971271172
 30
0.0
 11
1705.526882542533
 21
1108.261094942251
 31
0.0
  0
LINE
  5
179
330
2
100
AcDbEntity
  8
0
  6
Continuous
 62
     7
100
AcDbLine
 10
1705.553081034713
 20
1108.671772891532
 30
0.0
 11
1705.648459995593
 21
1109.799386859311
 31
0.0
  0
LINE
  5
17A
330
2
100
AcDbEntity
  8
0
  6
Continuous
 62
     7
100
AcDbLine
 10
1705.235845390293
 20
1110.751634616992
 30
0.0
 11
1704.870231841613
 21
1106.893939965112
 31
0.0
  0
LINE
  5
17B
330
2
100
AcDbEntity
  8
0
  6
Continuous
 62
     7
100
AcDbLine
 10
1727.539148924313
 20
1102.412820019572
 30
0.0
 11
1700.077913102673
 21
1092.417747584051
 31
0.0
  0
LINE
  5
17C
330
2
100
AcDbEntity
  8
0
  6
Continuous
 62
     7
100
AcDbLine
 10
1644.976092420073
 20
1133.927849234751
 30
0.0
 11
1644.977525439813
 21
1133.927367549151
 31
0.0
  0
LINE
  5
17D
330
2
100
AcDbEntity
  8
0
  6
Continuous
 62
     7
100
AcDbLine
 10
1713.115620237773
 20
1110.695395201911
 30
0.0
 11
1710.038418022873
 21
1112.499628103472
 31
0.0
  0
LINE
  5
17E
330
2
100
AcDbEntity
  8
0
  6
Continuous
 62
     7
100
AcDbLine
 10
1710.258297931093
 20
1111.782137049251
 30
0.0
 11
1713.336418848753
 21
1109.975380032852
 31
0.0
  0
LINE
  5
17F
330
2
100
AcDbEntity
  8
0
  6
Continuous
 62
     7
100
AcDbLine
 10
1708.678558461673
 20
1108.280057495131
 30
0.0
 11
1705.816776567773
 21
1110.963076274372
 31
0.0
  0
LINE
  5
180
330
2
100
AcDbEntity
  8
0
  6
Continuous
 62
     7
100
AcDbLine
 10
1707.228032269513
 20
1108.880262807292
 30
0.0
 11
1708.065353327913
 21
1108.056869079431
 31
0.0
  0
LINE
  5
181
330
2
100
AcDbEntity
  8
0
  6
Continuous
 62
     7
100
AcDbLine
 10
1719.342386295773
 20
1107.657719009051
 30
0.0
 11
1717.431989293613
 21
1108.805601336091
 31
0.0
  0
LINE
  5
182
330
2
100
AcDbEntity
  8
0
  6
Continuous
 62
     7
100
AcDbLine
 10
1719.052609107993
 20
1111.502765639492
 30
0.0
 11
1720.963006110153
 21
1110.354883314991
 31
0.0
  0
LINE
  5
183
330
2
100
AcDbEntity
  8
0
  6
Continuous
 62
     7
100
AcDbLine
 10
1708.003076706213
 20
1111.758824446651
 30
0.0
 11
1709.200147207673
 21
1108.469900275212
 31
0.0
  0
LINE
  5
184
330
2
100
AcDbEntity
  8
0
  6
Continuous
 62
     7
100
AcDbLine
 10
1709.739434574613
 20
1108.666184822952
 30
0.0
 11
1708.542364073153
 21
1111.955108996932
 31
0.0
  0
LINE
  5
185
330
2
100
AcDbEntity
  8
0
  6
Continuous
 62
     7
100
AcDbLine
 10
1709.485596418333
 20
1112.298417494971
 30
0.0
 11
1710.682666919793
 21
1109.009493320991
 31
0.0
  0
LINE
  5
186
330
2
100
AcDbEntity
  8
0
  6
Continuous
 62
     7
100
AcDbLine
 10
1711.199050189793
 20
1109.197441461732
 30
0.0
 11
1710.258297931093
 21
1111.782137049251
 31
0.0
  0
LINE
  5
187
330
2
100
AcDbEntity
  8
0
  6
Continuous
 62
     7
100
AcDbLine
 10
1712.175786681833
 20
1113.277566674591
 30
0.0
 11
1713.115620237773
 21
1110.695395201911
 31
0.0
  0
LINE
  5
188
330
2
100
AcDbEntity
  8
0
  6
Continuous
 62
     7
100
AcDbLine
 10
1713.889240453293
 20
1110.176590641351
 30
0.0
 11
1712.692169951833
 21
1113.465514815331
 31
0.0
  0
LINE
  5
189
330
2
100
AcDbEntity
  8
0
  6
Continuous
 62
     7
100
AcDbLine
 10
1713.631862573333
 20
1113.807534956791
 30
0.0
 11
1714.828933074793
 21
1110.518610785352
 31
0.0
  0
LINE
  5
18A
330
2
100
AcDbEntity
  8
0
  6
Continuous
 62
     7
100
AcDbLine
 10
1719.592513943853
 20
1150.510614992191
 30
0.0
 11
1719.592513943853
 21
1146.510767299751
 31
0.0
  0
LINE
  5
18B
330
2
100
AcDbEntity
  8
0
  6
Continuous
 62
     7
100
AcDbLine
 10
1697.852377401353
 20
1070.585995438651
 30
0.0
 11
1699.584428209533
 21
1072.318046246832
 31
0.0
  0
LINE
  5
18C
330
2
100
AcDbEntity
  8
0
  6
Continuous
 62
     7
100
AcDbLine
 10
1700.334428210673
 20
1071.568046245691
 30
0.0
 11
1698.602377402493
 21
1069.835995437512
 31
0.0
  0
LINE
  5
18D
330
2
100
AcDbEntity
  8
0
  6
Continuous
 62
     7
100
AcDbLine
 10
1719.052206203033
 20
1111.505632440971
 30
0.0
 11
1715.194888029953
 21
1138.951877383271
 31
0.0
  0
LINE
  5
18E
330
2
100
AcDbEntity
  8
0
  6
Continuous
 62
     7
100
AcDbLine
 10
1724.557560025933
 20
1056.835995438071
 30
0.0
 11
1724.557560025933
 21
1057.288997239711
 31
0.0
  0
LINE
  5
18F
330
2
100
AcDbEntity
  8
0
  6
Continuous
 62
     7
100
AcDbLine
 10
1724.731756835273
 20
1057.791634339592
 30
0.0
 11
1724.731756835273
 21
1057.291653378671
 31
0.0
  0
LINE
  5
190
330
2
100
AcDbEntity
  8
0
  6
Continuous
 62
     7
100
AcDbLine
 10
1723.553435392073
 20
1147.067438505432
 30
0.0
 11
1719.592513943853
 21
1146.510767299751
 31
0.0
  0
LINE
  5
191
330
2
100
AcDbEntity
  8
0
  6
Continuous
 62
     7
100
AcDbLine
 10
1712.719217858113
 20
1141.103944631071
 30
0.0
 11
1657.985536944693
 21
1141.103944631071
 31
0.0
  0
LINE
  5
192
330
2
100
AcDbEntity
  8
0
  6
Continuous
 62
     7
100
AcDbLine
 10
1714.224866655293
 20
1142.835995439251
 30
0.0
 11
1656.479888150053
 21
1142.835995439251
 31
0.0
  0
LINE
  5
193
330
2
100
AcDbEntity
  8
0
  6
Continuous
 62
     7
100
AcDbLine
 10
1651.112240861493
 20
1146.510767299751
 30
0.0
 11
1647.151319410733
 21
1147.067438505432
 31
0.0
  0
LINE
  5
194
330
2
100
AcDbEntity
  8
0
  6
Continuous
 62
     7
100
AcDbLine
 10
1720.963006110153
 20
1110.354883314991
 30
0.0
 11
1716.700536827133
 21
1140.683928191452
 31
0.0
  0
LINE
  5
195
330
2
100
AcDbEntity
  8
0
  6
Continuous
 62
     7
100
AcDbLine
 10
1725.628751922153
 20
1103.560702344071
 30
0.0
 11
1719.592513943853
 21
1146.510767299751
 31
0.0
  0
LINE
  5
196
330
2
100
AcDbEntity
  8
0
  6
Continuous
 62
     7
100
AcDbLine
 10
1651.112240861493
 20
1146.510767299751
 30
0.0
 11
1719.592513943853
 21
1146.510767299751
 31
0.0
  0
LINE
  5
197
330
2
100
AcDbEntity
  8
0
  6
Continuous
 62
     7
100
AcDbLine
 10
1729.586638900953
 20
1087.844171841712
 30
0.0
 11
1727.539148924313
 21
1102.412820019572
 31
0.0
  0
LINE
  5
198
330
2
100
AcDbEntity
  8
0
  6
Continuous
 62
     7
100
AcDbLine
 10
1729.449415017413
 20
1101.264919295312
 30
0.0
 11
1731.301702600613
 21
1088.085208324331
 31
0.0
  0
LINE
  5
199
330
2
100
AcDbEntity
  8
0
  6
Continuous
 62
     7
100
AcDbLine
 10
1731.832365740453
 20
1088.159788165012
 30
0.0
 11
1723.553435392073
 21
1147.067438505432
 31
0.0
  0
LINE
  5
19A
330
2
100
AcDbEntity
  8
0
  6
Continuous
 62
     7
100
AcDbLine
 10
1732.157746186973
 20
1088.182540982091
 30
0.0
 11
1723.836284298053
 21
1147.392818951951
 31
0.0
  0
LINE
  5
19B
330
2
100
AcDbEntity
  8
0
  6
Continuous
 62
     7
100
AcDbLine
 10
1731.257304911913
 20
1056.835995438071
 30
0.0
 11
1731.257304911913
 21
1057.231037467391
 31
0.0
  0
LINE
  5
19C
330
2
100
AcDbEntity
  8
0
  6
Continuous
 62
     7
100
AcDbLine
 10
1731.552346938033
 20
1056.835995438071
 30
0.0
 11
1731.552346938033
 21
1056.935995438731
 31
0.0
  0
LINE
  5
19D
330
2
100
AcDbEntity
  8
0
  6
Continuous
 62
     7
100
AcDbLine
 10
1732.352377402993
 20
1057.436001786951
 30
0.0
 11
1732.352377402993
 21
1061.186319104692
 31
0.0
  0
LINE
  5
19E
330
2
100
AcDbEntity
  8
0
  6
Continuous
 62
     7
100
AcDbLine
 10
1732.352377402993
 20
1069.686319104911
 30
0.0
 11
1732.352377402993
 21
1085.399184948611
 31
0.0
  0
LINE
  5
19F
330
2
100
AcDbEntity
  8
0
  6
Continuous
 62
     7
100
AcDbLine
 10
1719.592513943853
 20
1150.510614992191
 30
0.0
 11
1651.112240861493
 21
1150.510614992191
 31
0.0
  0
LINE
  5
1A0
330
2
100
AcDbEntity
  8
0
  6
Continuous
 62
     7
100
AcDbLine
 10
1719.875362849833
 20
1150.835995438711
 30
0.0
 11
1705.552375516693
 21
1150.835995438711
 31
0.0
  0
LINE
  5
1A1
330
2
100
AcDbEntity
  8
0
  6
Continuous
 62
     7
100
AcDbLine
 10
1665.152379286113
 20
1150.835995438711
 30
0.0
 11
1650.829391952973
 21
1150.835995438711
 31
0.0
  0
LINE
  5
1A2
330
2
100
AcDbEntity
  8
0
  6
Continuous
 62
     7
100
AcDbLine
 10
1807.460146938233
 20
1056.935995438731
 30
0.0
 11
1848.214510204553
 21
1057.291653378671
 31
0.0
  0
LINE
  5
1A3
330
2
100
AcDbEntity
  8
0
  6
Continuous
 62
     7
100
AcDbLine
 10
1807.460146938233
 20
1057.436001786951
 30
0.0
 11
1841.439015678353
 21
1057.732505494171
 31
0.0
  0
LINE
  5
1A4
330
2
100
AcDbEntity
  8
0
  6
Continuous
 62
     7
100
AcDbLine
 10
1767.010146936693
 20
1056.835995438071
 30
0.0
 11
1847.910146937232
 21
1056.835995438071
 31
0.0
  0
LINE
  5
1A5
330
2
100
AcDbEntity
  8
0
  6
Continuous
 62
     7
100
AcDbLine
 10
1766.705783669373
 20
1057.291653378671
 30
0.0
 11
1807.460146938233
 21
1056.935995438731
 31
0.0
  0
LINE
  5
1A6
330
2
100
AcDbEntity
  8
0
  6
Continuous
 62
     7
100
AcDbLine
 10
1773.481278198113
 20
1057.732505494171
 30
0.0
 11
1807.460146938233
 21
1057.436001786951
 31
0.0
  0
LINE
  5
1A7
330
2
100
AcDbEntity
  8
0
  6
Continuous
 62
     7
100
AcDbLine
 10
1766.210146939033
 20
1146.510767299751
 30
0.0
 11
1766.210146939033
 21
1057.791634339592
 31
0.0
  0
LINE
  5
1A8
330
2
100
AcDbEntity
  8
0
  6
Continuous
 62
     7
100
AcDbLine
 10
1767.010146936693
 20
1056.835995438071
 30
0.0
 11
1767.010146936693
 21
1057.288997239711
 31
0.0
  0
LINE
  5
1A9
330
2
100
AcDbEntity
  8
0
  6
Continuous
 62
     7
100
AcDbLine
 10
1767.210146938013
 20
1071.568046245691
 30
0.0
 11
1767.210146938013
 21
1102.412820019572
 31
0.0
  0
LINE
  5
1AA
330
2
100
AcDbEntity
  8
0
  6
Continuous
 62
     7
100
AcDbLine
 10
1768.210112748593
 20
1085.376432131531
 30
0.0
 11
1768.209917986473
 21
1101.264919295312
 31
0.0
  0
LINE
  5
1AB
330
2
100
AcDbEntity
  8
0
  6
Continuous
 62
     7
100
AcDbLine
 10
1770.175240796993
 20
1088.159788165012
 30
0.0
 11
1770.175240796993
 21
1147.067438505432
 31
0.0
  0
LINE
  5
1AC
330
2
100
AcDbEntity
  8
0
  6
Continuous
 62
     7
100
AcDbLine
 10
1767.210146938013
 20
1091.712978117291
 30
0.0
 11
1766.210146939033
 21
1092.925773149151
 31
0.0
  0
LINE
  5
1AD
330
2
100
AcDbEntity
  8
0
  6
Continuous
 62
     7
100
AcDbLine
 10
1766.210146939033
 20
1093.630542615911
 30
0.0
 11
1767.210146938013
 21
1092.417747584051
 31
0.0
  0
LINE
  5
1AE
330
2
100
AcDbEntity
  8
0
  6
Continuous
 62
     7
100
AcDbLine
 10
1773.651679150173
 20
1056.835995438071
 30
0.0
 11
1773.651679150173
 21
1057.231037467391
 31
0.0
  0
LINE
  5
1AF
330
2
100
AcDbEntity
  8
0
  6
Continuous
 62
     7
100
AcDbLine
 10
1766.210146939033
 20
1070.585995438651
 30
0.0
 11
1767.210146938013
 21
1072.318046246832
 31
0.0
  0
LINE
  5
1B0
330
2
100
AcDbEntity
  8
0
  6
Continuous
 62
     7
100
AcDbLine
 10
1767.909320292013
 20
1072.779050018751
 30
0.0
 11
1766.210146939033
 21
1069.835995437512
 31
0.0
  0
LINE
  5
1B1
330
2
100
AcDbEntity
  8
0
  6
Continuous
 62
     7
100
AcDbLine
 10
1767.210146938013
 20
1085.376432131531
 30
0.0
 11
1807.460146938233
 21
1085.399184948611
 31
0.0
  0
LINE
  5
1B2
330
2
100
AcDbEntity
  8
0
  6
Continuous
 62
     7
100
AcDbLine
 10
1807.460146938233
 20
1085.399184948611
 30
0.0
 11
1847.710146938453
 21
1085.376432131531
 31
0.0
  0
LINE
  5
1B3
330
2
100
AcDbEntity
  8
0
  6
Continuous
 62
     7
100
AcDbLine
 10
1807.460146938233
 20
1088.182540982091
 30
0.0
 11
1770.175240796993
 21
1088.159788165012
 31
0.0
  0
LINE
  5
1B4
330
2
100
AcDbEntity
  8
0
  6
Continuous
 62
     7
100
AcDbLine
 10
1844.745053079473
 20
1088.159788165012
 30
0.0
 11
1807.460146938233
 21
1088.182540982091
 31
0.0
  0
LINE
  5
1B5
330
2
100
AcDbEntity
  8
0
  6
Continuous
 62
     7
100
AcDbLine
 10
1807.460146938233
 20
1147.392818951951
 30
0.0
 11
1807.460134737025
 21
1088.182540974646
 31
0.0
  0
LINE
  5
1B6
330
2
100
AcDbEntity
  8
0
  6
Continuous
 62
     7
100
AcDbLine
 10
1807.460146938233
 20
1085.399184948611
 30
0.0
 11
1807.460146938233
 21
1069.836319103531
 31
0.0
  0
LINE
  5
1B7
330
2
100
AcDbEntity
  8
0
  6
Continuous
 62
     7
100
AcDbLine
 10
1848.710146937433
 20
1069.835995437512
 30
0.0
 11
1847.010973579372
 21
1072.779050023831
 31
0.0
  0
LINE
  5
1B8
330
2
100
AcDbEntity
  8
0
  6
Continuous
 62
     7
100
AcDbLine
 10
1847.710146938453
 20
1072.318046246832
 30
0.0
 11
1848.710146937433
 21
1070.585995438651
 31
0.0
  0
LINE
  5
1B9
330
2
100
AcDbEntity
  8
0
  6
Continuous
 62
     7
100
AcDbLine
 10
1841.268614726293
 20
1056.835995438071
 30
0.0
 11
1841.268614726293
 21
1057.231037467391
 31
0.0
  0
LINE
  5
1BA
330
2
100
AcDbEntity
  8
0
  6
Continuous
 62
     7
100
AcDbLine
 10
1844.745053079473
 20
1147.067438505432
 30
0.0
 11
1844.745053079473
 21
1088.159788165012
 31
0.0
  0
LINE
  5
1BB
330
2
100
AcDbEntity
  8
0
  6
Continuous
 62
     7
100
AcDbLine
 10
1846.710181127873
 20
1085.376432131531
 30
0.0
 11
1846.710375889993
 21
1101.264919295312
 31
0.0
  0
LINE
  5
1BC
330
2
100
AcDbEntity
  8
0
  6
Continuous
 62
     7
100
AcDbLine
 10
1847.710146938453
 20
1102.412820019572
 30
0.0
 11
1847.710146938453
 21
1071.568046245691
 31
0.0
  0
LINE
  5
1BD
330
2
100
AcDbEntity
  8
0
  6
Continuous
 62
     7
100
AcDbLine
 10
1847.910146937232
 20
1056.835995438071
 30
0.0
 11
1847.910146937232
 21
1057.288997239711
 31
0.0
  0
LINE
  5
1BE
330
2
100
AcDbEntity
  8
0
  6
Continuous
 62
     7
100
AcDbLine
 10
1848.710146937433
 20
1057.791634339592
 30
0.0
 11
1848.710146937433
 21
1146.510767299751
 31
0.0
  0
LINE
  5
1BF
330
2
100
AcDbEntity
  8
0
  6
Continuous
 62
     7
100
AcDbLine
 10
1847.710146938453
 20
1092.417747584051
 30
0.0
 11
1848.710146937433
 21
1093.630542615911
 31
0.0
  0
LINE
  5
1C0
330
2
100
AcDbEntity
  8
0
  6
Continuous
 62
     7
100
AcDbLine
 10
1848.710146937433
 20
1092.925773149151
 30
0.0
 11
1847.710146938453
 21
1091.712978117291
 31
0.0
  0
LINE
  5
1C1
330
2
100
AcDbEntity
  8
0
  6
Continuous
 62
     7
100
AcDbLine
 10
1807.460146938233
 20
1147.392818951951
 30
0.0
 11
1770.175240796993
 21
1147.067438505432
 31
0.0
  0
LINE
  5
1C2
330
2
100
AcDbEntity
  8
0
  6
Continuous
 62
     7
100
AcDbLine
 10
1844.745053079473
 20
1147.067438505432
 30
0.0
 11
1807.460146938233
 21
1147.392818951951
 31
0.0
  0
LINE
  5
1C3
330
2
100
AcDbEntity
  8
0
  6
Continuous
 62
     7
100
AcDbLine
 10
1770.175240796993
 20
1150.510614992191
 30
0.0
 11
1807.460146938233
 21
1150.835995438711
 31
0.0
  0
LINE
  5
1C4
330
2
100
AcDbEntity
  8
0
  6
Continuous
 62
     7
100
AcDbLine
 10
1807.460146938233
 20
1150.835995438711
 30
0.0
 11
1844.745053079473
 21
1150.510614992191
 31
0.0
  0
ARC
  5
1C5
330
2
100
AcDbEntity
  8
0
  6
Continuous
 62
     7
100
AcDbCircle
 10
1543.248669504993
 20
1085.326084144852
 30
0.0
 40
186.5105373617199
100
AcDbArc
 50
355.7697074117076
 51
0.0154668321935082
  0
ARC
  5
1C6
330
2
100
AcDbEntity
  8
0
  6
Continuous
 62
     7
100
AcDbCircle
 10
1658.377463105213
 20
1085.397377535411
 30
0.0
 40
20.02508861624
100
AcDbArc
 50
172.0051719427051
 51
179.9948280572991
  0
ARC
  5
1C7
330
2
100
AcDbEntity
  8
0
  6
Continuous
 62
     7
100
AcDbCircle
 10
1658.701627199073
 20
1085.374709772772
 30
0.0
 40
20.02387168954
100
AcDbArc
 50
172.0049287677058
 51
179.995071232295
  0
ARC
  5
1C8
330
2
100
AcDbEntity
  8
0
  6
Continuous
 62
     7
100
AcDbCircle
 10
1658.700673233493
 20
1085.374776480792
 30
0.0
 40
19.48714963878
100
AcDbArc
 50
172.0048679185984
 51
179.995132081398
  0
ARC
  5
1C9
330
2
100
AcDbEntity
  8
0
  6
Continuous
 62
     7
100
AcDbCircle
 10
1658.698566112993
 20
1085.374923826192
 30
0.0
 40
17.75301144336
100
AcDbArc
 50
172.0048678870913
 51
179.9951321128986
  0
ARC
  5
1CA
330
2
100
AcDbEntity
  8
0
  6
Continuous
 62
     7
100
AcDbCircle
 10
1638.852564451253
 20
1057.436182487632
 30
0.0
 40
0.50014737156
100
AcDbArc
 50
180.0192458497019
 51
269.980754150298
  0
ARC
  5
1CB
330
2
100
AcDbEntity
  8
0
  6
Continuous
 62
     7
100
AcDbCircle
 10
1639.149080805133
 20
1057.732698841511
 30
0.0
 40
0.5001473385399999
100
AcDbArc
 50
180.0221481350988
 51
269.9778518650053
  0
ARC
  5
1CC
330
2
100
AcDbEntity
  8
0
  6
Continuous
 62
     7
100
AcDbCircle
 10
1651.112548691713
 20
1146.510413180571
 30
0.0
 40
4.000201821779997
100
AcDbArc
 50
90.00440912390237
 51
171.9955908761053
  0
ARC
  5
1CD
102
{ACAD_REACTORS
330
233
102
}
330
2
100
AcDbEntity
  8
0
  6
Continuous
 62
     7
100
AcDbCircle
 10
1650.829348932993
 20
1146.836197238171
 30
0.0
 40
3.999798200539997
100
AcDbArc
 50
89.99938372009836
 51
172.0006162799038
  0
ARC
  5
1CE
330
2
100
AcDbEntity
  8
0
  6
Continuous
 62
     7
100
AcDbCircle
 10
1827.456085912493
 20
1085.326084167711
 30
0.0
 40
186.51053797386
100
AcDbArc
 50
179.9845331748023
 51
184.2302925812906
  0
ARC
  5
1CF
330
2
100
AcDbEntity
  8
0
  6
Continuous
 62
     7
100
AcDbCircle
 10
1712.327291700133
 20
1085.397377535411
 30
0.0
 40
20.02508861624
100
AcDbArc
 50
0.0051719427008509
 51
7.994828057294816
  0
ARC
  5
1D0
330
2
100
AcDbEntity
  8
0
  6
Continuous
 62
     7
100
AcDbCircle
 10
1712.003127606273
 20
1085.374709772772
 30
0.0
 40
20.02387168954
100
AcDbArc
 50
0.0049287677050047
 51
7.995071232294167
  0
ARC
  5
1D1
330
2
100
AcDbEntity
  8
0
  6
Continuous
 62
     7
100
AcDbCircle
 10
1712.004081569313
 20
1085.374776480792
 30
0.0
 40
19.48714963878
100
AcDbArc
 50
0.0048679186931815
 51
7.995132081296414
  0
ARC
  5
1D2
330
2
100
AcDbEntity
  8
0
  6
Continuous
 62
     7
100
AcDbCircle
 10
1712.006188692353
 20
1085.374923826192
 30
0.0
 40
17.75301144082
100
AcDbArc
 50
0.0048678866975138
 51
7.995132113290402
  0
ARC
  5
1D3
102
{ACAD_REACTORS
330
243
102
}
330
2
100
AcDbEntity
  8
0
  6
Continuous
 62
     7
100
AcDbCircle
 10
1731.852190351553
 20
1057.436182487632
 30
0.0
 40
0.50014737156
100
AcDbArc
 50
270.019245856802
 51
359.980754143198
  0
ARC
  5
1D4
330
2
100
AcDbEntity
  8
0
  6
Continuous
 62
     7
100
AcDbCircle
 10
1731.555673974813
 20
1057.732698866912
 30
0.0
 40
0.5001473639400002
100
AcDbArc
 50
270.0221510022027
 51
359.9778489977973
  0
ARC
  5
1D5
330
2
100
AcDbEntity
  8
0
  6
Continuous
 62
     7
100
AcDbCircle
 10
1719.592206113633
 20
1146.510413180571
 30
0.0
 40
4.000201821779997
100
AcDbArc
 50
8.004409123894673
 51
89.99559087609762
  0
ARC
  5
1D6
330
2
100
AcDbEntity
  8
0
  6
Continuous
 62
     7
100
AcDbCircle
 10
1719.875405872353
 20
1146.836197238171
 30
0.0
 40
3.999798200539997
100
AcDbArc
 50
7.999383720096202
 51
90.00061627990168
  0
ARC
  5
1D7
330
2
100
AcDbEntity
  8
0
  6
Continuous
 62
     7
100
AcDbCircle
 10
1713.889240453293
 20
1110.176590641351
 30
0.0
 40
0.9999999989799999
100
AcDbArc
 50
290.0000000208965
 51
20.00000000269384
  0
ARC
  5
1D8
330
2
100
AcDbEntity
  8
0
  6
Continuous
 62
     7
100
AcDbCircle
 10
1712.692169951833
 20
1113.465514815331
 30
0.0
 40
0.9999999989799999
100
AcDbArc
 50
20.00000000310816
 51
110.0000000202981
  0
ARC
  5
1D9
330
2
100
AcDbEntity
  8
0
  6
Continuous
 62
     7
100
AcDbCircle
 10
1698.596780639493
 20
1108.335212665491
 30
0.0
 40
0.9999999989799999
100
AcDbArc
 50
109.999999989996
 51
199.9999999994066
  0
ARC
  5
1DA
330
2
100
AcDbEntity
  8
0
  6
Continuous
 62
     7
100
AcDbCircle
 10
1699.793851140953
 20
1105.046288491512
 30
0.0
 40
0.9999999989799999
100
AcDbArc
 50
200.0000000012088
 51
289.9999999907001
  0
ARC
  5
1DB
330
2
100
AcDbEntity
  8
0
  6
Continuous
 62
     7
100
AcDbCircle
 10
1770.210146937493
 20
1146.510767299751
 30
0.0
 40
4.000000001
100
AcDbArc
 50
90.50000000000457
 51
180.0
  0
ARC
  5
1DC
330
2
100
AcDbEntity
  8
0
  6
Continuous
 62
     7
100
AcDbCircle
 10
1844.710146938973
 20
1146.510767299751
 30
0.0
 40
4.000000001
100
AcDbArc
 50
0.0
 51
89.49999999999539
  0
ARC
  5
1DD
102
{ACAD_REACTORS
330
252
102
}
330
2
100
AcDbEntity
  8
0
  6
Continuous
 62
     7
100
AcDbCircle
 10
1766.710146868673
 20
1057.791634339592
 30
0.0
 40
0.5000000007600001
100
AcDbArc
 50
180.0000000696974
 51
269.5000079847949
  0
ARC
  5
1DE
330
2
100
AcDbEntity
  8
0
  6
Continuous
 62
     7
100
AcDbCircle
 10
1848.210147109393
 20
1057.791634342131
 30
0.0
 40
0.5000000007600001
100
AcDbArc
 50
270.499980380103
 51
0.0
  0
SPLINE
  5
1DF
330
2
100
AcDbEntity
  8
0
  6
Continuous
 62
     7
100
AcDbSpline
210
0.0
220
0.0
230
1.0
 70
     8
 71
     3
 72
    51
 73
    47
 74
     0
 42
0.0000000001
 43
0.0000000001
 40
0.0
 40
0.0
 40
0.0
 40
0.0
 40
0.0002666609
 40
0.0008101559
 40
0.0016381937
 40
0.0027528972
 40
0.0041553296
 40
0.0058462117
 40
0.0100955405
 40
0.0155048654
 40
0.0220776922
 40
0.0298172571
 40
0.0387164531
 40
0.0487492764
 40
0.0598876728
 40
0.0853530334
 40
0.1147656161
 40
0.1477510569
 40
0.1839958925
 40
0.2232048394
 40
0.2650891723
 40
0.309290747
 40
0.4028213181000001
 40
0.4999669506
 40
0.5971106943
 40
0.6906450501000001
 40
0.7348540173
 40
0.7767459289000001
 40
0.8159594929
 40
0.8522038785999999
 40
0.8851865754000002
 40
0.9145986987
 40
0.9400683351999999
 40
0.9512109773999998
 40
0.9612490419
 40
0.9701540362999999
 40
0.9778995328
 40
0.9844781126
 40
0.9898927525999999
 40
0.9941466993
 40
0.9958395482
 40
0.9972436757999998
 40
0.9983597709000001
 40
0.9991888642999999
 40
0.9997330469999999
 40
1.0
 40
1.0
 40
1.0
 40
1.0
 10
1705.552164760193
 20
1150.834174939431
 30
0.0
 10
1705.549625105633
 20
1150.831635358532
 30
0.0
 10
1705.538215024313
 20
1150.829121365591
 30
0.0
 10
1705.517136577773
 20
1150.824897703731
 30
0.0
 10
1705.483538582993
 20
1150.821168320792
 30
0.0
 10
1705.438804839593
 20
1150.817014836591
 30
0.0
 10
1705.382222326393
 20
1150.812946414451
 30
0.0
 10
1705.283530298733
 20
1150.806959746212
 30
0.0
 10
1705.130814297333
 20
1150.799799608131
 30
0.0
 10
1704.912356047433
 20
1150.791637511171
 30
0.0
 10
1704.646851681313
 20
1150.783504034932
 30
0.0
 10
1704.334327498133
 20
1150.775425707171
 30
0.0
 10
1703.975184977913
 20
1150.767452314431
 30
0.0
 10
1703.570252958213
 20
1150.759603343591
 30
0.0
 10
1702.942212680133
 20
1150.748867733871
 30
0.0
 10
1702.053149558593
 20
1150.736268472812
 30
0.0
 10
1700.869826593773
 20
1150.722622719052
 30
0.0
 10
1699.541299532773
 20
1150.710058850352
 30
0.0
 10
1698.080813896473
 20
1150.698680399651
 30
0.0
 10
1696.500460282993
 20
1150.688580602731
 30
0.0
 10
1694.812930551633
 20
1150.679851171372
 30
0.0
 10
1692.393759753713
 20
1150.669964820812
 30
0.0
 10
1689.230282819313
 20
1150.661798499831
 30
0.0
 10
1685.353737661573
 20
1150.658536253371
 30
0.0
 10
1681.477141528573
 20
1150.661793983711
 30
0.0
 10
1678.313539481393
 20
1150.669956619152
 30
0.0
 10
1675.894116055073
 20
1150.679840523692
 30
0.0
 10
1674.206322486293
 20
1150.688568906032
 30
0.0
 10
1672.625810658753
 20
1150.698667278011
 30
0.0
 10
1671.165305832753
 20
1150.710042972811
 30
0.0
 10
1669.836827946153
 20
1150.722603171211
 30
0.0
 10
1668.653490483013
 20
1150.736244452032
 30
0.0
 10
1667.764318718053
 20
1150.748840497451
 30
0.0
 10
1667.136093019973
 20
1150.759574479032
 30
0.0
 10
1666.730955092633
 20
1150.767423632751
 30
0.0
 10
1666.371583957173
 20
1150.775397980531
 30
0.0
 10
1666.058824270273
 20
1150.783478068511
 30
0.0
 10
1665.793090907913
 20
1150.791614049191
 30
0.0
 10
1665.574421373193
 20
1150.799779331311
 30
0.0
 10
1665.421545041913
 20
1150.806942644392
 30
0.0
 10
1665.322741520953
 20
1150.812932350472
 30
0.0
 10
1665.266090823993
 20
1150.817002982412
 30
0.0
 10
1665.221301581593
 20
1150.821159176792
 30
0.0
 10
1665.187660625253
 20
1150.824890330112
 30
0.0
 10
1665.166556217373
 20
1150.829117733392
 30
0.0
 10
1665.155131129733
 20
1150.831632013352
 30
0.0
 10
1665.152588693873
 20
1150.834174375552
 30
0.0
  0
SPLINE
  5
1E0
330
2
100
AcDbEntity
  8
0
  6
Continuous
 62
     7
100
AcDbSpline
210
0.0
220
0.0
230
1.0
 70
     8
 71
     3
 72
    51
 73
    47
 74
     0
 42
0.0000000001
 43
0.0000000001
 40
0.0
 40
0.0
 40
0.0
 40
0.0
 40
0.0002642015
 40
0.0008021315
 40
0.00162168
 40
0.0027251904
 40
0.0041139516
 40
0.0057889119
 40
0.010000556
 40
0.0153659288
 40
0.0218903616
 40
0.0295790197
 40
0.0384328442
 40
0.0484314256
 40
0.0595474982
 40
0.0850177909
 40
0.1145217914
 40
0.1476515368
 40
0.1840273794
 40
0.2232956226
 40
0.265135995
 40
0.3092383851
 40
0.4026801891
 40
0.5000520791
 40
0.5974184543
 40
0.690841913
 40
0.734935265
 40
0.7767720164
 40
0.8160428156
 40
0.8524250221999999
 40
0.8855578844
 40
0.9150575885
 40
0.9405167049999999
 40
0.9516251888999999
 40
0.9616154288999998
 40
0.9704606153
 40
0.9781407562
 40
0.9846571133000001
 40
0.9900151580999999
 40
0.9942205283999999
 40
0.9958928429
 40
0.9972793367999999
 40
0.9983809965
 40
0.9991991492
 40
0.9997361761
 40
1.0
 40
1.0
 40
1.0
 40
1.0
 10
1644.977566209353
 20
1133.927657464751
 30
0.0
 10
1644.979288936413
 20
1133.925371225991
 30
0.0
 10
1644.980021678153
 20
1133.916097050991
 30
0.0
 10
1644.981024109473
 20
1133.899004179411
 30
0.0
 10
1644.980257199653
 20
1133.872098246431
 30
0.0
 10
1644.978587858313
 20
1133.836355460411
 30
0.0
 10
1644.975538842313
 20
1133.791264836851
 30
0.0
 10
1644.969337295153
 20
1133.712697734651
 30
0.0
 10
1644.958067175453
 20
1133.591287380572
 30
0.0
 10
1644.940284770073
 20
1133.417740356572
 30
0.0
 10
1644.917237909893
 20
1133.206859170511
 30
0.0
 10
1644.888893960993
 20
1132.958540548532
 30
0.0
 10
1644.855230144653
 20
1132.672943342231
 30
0.0
 10
1644.816302886973
 20
1132.350575063931
 30
0.0
 10
1644.754639497473
 20
1131.849605428332
 30
0.0
 10
1644.665067375373
 20
1131.139136033931
 30
0.0
 10
1644.543137009633
 20
1130.192343025312
 30
0.0
 10
1644.403902197933
 20
1129.128642998792
 30
0.0
 10
1644.248974704893
 20
1127.960300466291
 30
0.0
 10
1644.079871253413
 20
1126.698632867711
 30
0.0
 10
1643.898010898313
 20
1125.354210057452
 30
0.0
 10
1643.635374535093
 20
1123.428396126512
 30
0.0
 10
1643.287646426893
 20
1120.906932312452
 30
0.0
 10
1642.855690234673
 20
1117.814509350752
 30
0.0
 10
1642.418548180333
 20
1114.723015942692
 30
0.0
 10
1642.057842536493
 20
1112.203735969831
 30
0.0
 10
1641.779523115993
 20
1110.280465394231
 30
0.0
 10
1641.583778742433
 20
1108.938104408651
 30
0.0
 10
1641.398557342493
 20
1107.678644082771
 30
0.0
 10
1641.225421562273
 20
1106.512728891112
 30
0.0
 10
1641.066054502293
 20
1105.451801584472
 30
0.0
 10
1640.922304269093
 20
1104.508210408412
 30
0.0
 10
1640.812606964993
 20
1103.800821807952
 30
0.0
 10
1640.733835898253
 20
1103.302553137232
 30
0.0
 10
1640.682436305853
 20
1102.982206582092
 30
0.0
 10
1640.636114803373
 20
1102.698667299031
 30
0.0
 10
1640.594955264153
 20
1102.452425886512
 30
0.0
 10
1640.559021691113
 20
1102.243617574131
 30
0.0
 10
1640.528315519353
 20
1102.072124066471
 30
0.0
 10
1640.505711843453
 20
1101.952484371792
 30
0.0
 10
1640.490037259613
 20
1101.875370992872
 30
0.0
 10
1640.480552038553
 20
1101.831259061791
 30
0.0
 10
1640.472315755813
 20
1101.796499215132
 30
0.0
 10
1640.465644814113
 20
1101.770469259571
 30
0.0
 10
1640.459977459433
 20
1101.754341488932
 30
0.0
 10
1640.456719144893
 20
1101.745644221591
 30
0.0
 10
1640.454436248773
 20
1101.743923859271
 30
0.0
  0
SPLINE
  5
1E1
330
2
100
AcDbEntity
  8
0
  6
Continuous
 62
     7
100
AcDbSpline
210
0.0
220
0.0
230
1.0
 70
     8
 71
     3
 72
     8
 73
     4
 74
     0
 42
0.0000000001
 43
0.0000000001
 40
0.0
 40
0.0
 40
0.0
 40
0.0
 40
1.0
 40
1.0
 40
1.0
 40
1.0
 10
1703.419025617793
 20
1107.696851084712
 30
0.0
 10
1703.433733020433
 20
1107.397297744272
 30
0.0
 10
1703.452726177773
 20
1107.134559092711
 30
0.0
 10
1703.476311324913
 20
1106.907793760112
 30
0.0
  0
SPLINE
  5
1E2
330
2
100
AcDbEntity
  8
0
  6
Continuous
 62
     7
100
AcDbSpline
210
0.0
220
0.0
230
1.0
 70
     8
 71
     3
 72
    11
 73
     7
 74
     0
 42
0.0000000001
 43
0.0000000001
 40
0.0
 40
0.0
 40
0.0
 40
0.0
 40
0.2133325267
 40
0.4266650534
 40
0.7133325267
 40
1.0
 40
1.0
 40
1.0
 40
1.0
 10
1703.476311324913
 20
1106.907793760112
 30
0.0
 10
1703.378043843013
 20
1107.077362722471
 30
0.0
 10
1703.157416034333
 20
1107.420902505292
 30
0.0
 10
1702.693561861712
 20
1108.016188200672
 30
0.0
 10
1702.139215203073
 20
1108.683289409011
 30
0.0
 10
1701.745419958153
 20
1109.166947738111
 30
0.0
 10
1701.547244730933
 20
1109.409093771472
 30
0.0
  0
LINE
  5
1E3
330
2
100
AcDbEntity
  8
0
  6
Continuous
 62
     7
100
AcDbLine
 10
1700.931485327453
 20
1106.669497901932
 30
0.0
 11
1700.969353834393
 21
1105.995335854271
 31
0.0
  0
SPLINE
  5
1E4
330
2
100
AcDbEntity
  8
0
  6
Continuous
 62
     7
100
AcDbSpline
210
0.0
220
0.0
230
1.0
 70
     8
 71
     3
 72
    10
 73
     6
 74
     0
 42
0.0000000001
 43
0.0000000001
 40
0.0
 40
0.0
 40
0.0
 40
0.0
 40
0.2398803403
 40
0.6199401701000001
 40
1.0
 40
1.0
 40
1.0
 40
1.0
 10
1700.969353834393
 20
1105.995335854271
 30
0.0
 10
1700.840617553893
 20
1106.200027456571
 30
0.0
 10
1700.471809365932
 20
1106.724414759332
 30
0.0
 10
1699.848695753133
 20
1107.571027043751
 30
0.0
 10
1699.382565217273
 20
1108.214355386251
 30
0.0
 10
1699.148561151373
 20
1108.536044346631
 30
0.0
  0
LINE
  5
1E5
330
2
100
AcDbEntity
  8
0
  6
Continuous
 62
     7
100
AcDbLine
 10
1701.423165291513
 20
1105.639310343311
 30
0.0
 11
1701.374267078413
 21
1108.459048005832
 31
0.0
  0
SPLINE
  5
1E6
330
2
100
AcDbEntity
  8
0
  6
Continuous
 62
     7
100
AcDbSpline
210
0.0
220
0.0
230
1.0
 70
     8
 71
     3
 72
     8
 73
     4
 74
     0
 42
0.0000000001
 43
0.0000000001
 40
0.0
 40
0.0
 40
0.0
 40
0.0
 40
1.0
 40
1.0
 40
1.0
 40
1.0
 10
1701.374267078413
 20
1108.459048005832
 30
0.0
 10
1701.372854731733
 20
1108.579543680511
 30
0.0
 10
1701.365868715733
 20
1108.721831516332
 30
0.0
 10
1701.353431420313
 20
1108.888814560571
 30
0.0
  0
SPLINE
  5
1E7
330
2
100
AcDbEntity
  8
0
  6
Continuous
 62
     7
100
AcDbSpline
210
0.0
220
0.0
230
1.0
 70
     8
 71
     3
 72
    15
 73
    11
 74
     0
 42
0.0000000001
 43
0.0000000001
 40
0.0
 40
0.0
 40
0.0
 40
0.0
 40
0.100414206
 40
0.1506213091
 40
0.2008284121
 40
0.3007248606
 40
0.4006213091000002
 40
0.6004142060000001
 40
0.8002071029999997
 40
1.0
 40
1.0
 40
1.0
 40
1.0
 10
1701.353431420313
 20
1108.888814560571
 30
0.0
 10
1701.368405675353
 20
1108.867109015972
 30
0.0
 10
1701.413954464113
 20
1108.808207132251
 30
0.0
 10
1701.517501549373
 20
1108.678915262312
 30
0.0
 10
1701.654934843213
 20
1108.508433837971
 30
0.0
 10
1701.844395840973
 20
1108.273467810572
 30
0.0
 10
1702.137222547673
 20
1107.910282275832
 30
0.0
 10
1702.506687991113
 20
1107.452053334532
 30
0.0
 10
1702.948568100493
 20
1106.904008093312
 30
0.0
 10
1703.243436443953
 20
1106.538296124712
 30
0.0
 10
1703.390835415093
 20
1106.355483698872
 30
0.0
  0
LINE
  5
1E8
330
2
100
AcDbEntity
  8
0
  6
Continuous
 62
     7
100
AcDbLine
 10
1703.287956078053
 20
1110.042660886352
 30
0.0
 11
1703.419025617793
 21
1107.696851084712
 31
0.0
  0
SPLINE
  5
1E9
330
2
100
AcDbEntity
  8
0
  6
Continuous
 62
     7
100
AcDbSpline
210
0.0
220
0.0
230
1.0
 70
     8
 71
     3
 72
     8
 73
     4
 74
     0
 42
0.0000000001
 43
0.0000000001
 40
0.0
 40
0.0
 40
0.0
 40
0.0
 40
1.0
 40
1.0
 40
1.0
 40
1.0
 10
1705.648459995593
 20
1109.799386859311
 30
0.0
 10
1705.667559756733
 20
1110.041688228912
 30
0.0
 10
1705.664184048473
 20
1110.277714861251
 30
0.0
 10
1705.639680198573
 20
1110.507004313771
 30
0.0
  0
SPLINE
  5
1EA
330
2
100
AcDbEntity
  8
0
  6
Continuous
 62
     7
100
AcDbSpline
210
0.0
220
0.0
230
1.0
 70
     8
 71
     3
 72
    11
 73
     7
 74
     0
 42
0.0000000001
 43
0.0000000001
 40
0.0
 40
0.0
 40
0.0
 40
0.0
 40
0.2384157512
 40
0.4768315024
 40
0.7384157512
 40
1.0
 40
1.0
 40
1.0
 40
1.0
 10
1705.639680198573
 20
1110.507004313771
 30
0.0
 10
1705.703220792853
 20
1110.429607369251
 30
0.0
 10
1705.854655349013
 20
1110.257683994531
 30
0.0
 10
1706.180340430433
 20
1109.924529377631
 30
0.0
 10
1706.556383729653
 20
1109.550597013991
 30
0.0
 10
1706.806462513213
 20
1109.299952707051
 30
0.0
 10
1706.932532311873
 20
1109.173852095652
 30
0.0
  0
SPLINE
  5
1EB
330
2
100
AcDbEntity
  8
0
  6
Continuous
 62
     7
100
AcDbSpline
210
0.0
220
0.0
230
1.0
 70
     8
 71
     3
 72
    25
 73
    21
 74
     0
 42
0.0000000001
 43
0.0000000001
 40
0.0
 40
0.0
 40
0.0
 40
0.0
 40
0.000557919
 40
0.0016965645
 40
0.0057412546
 40
0.0121211511
 40
0.0208186381
 40
0.0318251152
 40
0.0451326936
 40
0.0607360709
 40
0.0786288066
 40
0.1210450874
 40
0.1716823717
 40
0.2300765912
 40
0.2959014779
 40
0.3685233649000001
 40
0.4471827676000001
 40
0.6192836613
 40
0.8059573693999999
 40
1.0
 40
1.0
 40
1.0
 40
1.0
 10
1639.148887457793
 20
1057.232524533252
 30
0.0
 10
1639.149783724733
 20
1057.233423327492
 30
0.0
 10
1639.153829482452
 20
1057.234290460631
 30
0.0
 10
1639.166350115273
 20
1057.236721644492
 30
0.0
 10
1639.192919846233
 20
1057.238786004091
 30
0.0
 10
1639.236139053673
 20
1057.241697418132
 30
0.0
 10
1639.295504784573
 20
1057.244378096031
 30
0.0
 10
1639.370524830113
 20
1057.247181443231
 30
0.0
 10
1639.461309863173
 20
1057.249925575411
 30
0.0
 10
1639.567752693213
 20
1057.252654475212
 30
0.0
 10
1639.740418596293
 20
1057.256441561872
 30
0.0
 10
1639.992789359013
 20
1057.260884255551
 30
0.0
 10
1640.337308781733
 20
1057.265769422311
 30
0.0
 10
1640.735091821573
 20
1057.270368729851
 30
0.0
 10
1641.182897763653
 20
1057.274608175271
 30
0.0
 10
1641.676813270613
 20
1057.278454697931
 30
0.0
 10
1642.412513495933
 20
1057.283137416531
 30
0.0
 10
1643.407694063353
 20
1057.287680831372
 30
0.0
 10
1644.665384740753
 20
1057.290917421292
 30
0.0
 10
1645.531538700593
 20
1057.291653472651
 30
0.0
 10
1645.972997970073
 20
1057.291653378671
 30
0.0
  0
SPLINE
  5
1EC
330
2
100
AcDbEntity
  8
0
  6
Continuous
 62
     7
100
AcDbSpline
210
0.0
220
0.0
230
1.0
 70
     8
 71
     3
 72
     9
 73
     5
 74
     0
 42
0.0000000001
 43
0.0000000001
 40
0.0
 40
0.0
 40
0.0
 40
0.0
 40
0.2505070057
 40
1.0
 40
1.0
 40
1.0
 40
1.0
 10
1724.731756835273
 20
1057.791634339592
 30
0.0
 10
1724.914534557093
 20
1058.795098212772
 30
0.0
 10
1725.641618182933
 20
1062.801162204691
 30
0.0
 10
1726.327695949713
 20
1066.81570714231
 30
0.0
 10
1726.764181784893
 20
1069.835995437512
 30
0.0
  0
SPLINE
  5
1ED
330
2
100
AcDbEntity
  8
0
  6
Continuous
 62
     7
100
AcDbSpline
210
0.0
220
0.0
230
1.0
 70
     8
 71
     3
 72
    24
 73
    20
 74
     0
 42
0.0000000001
 43
0.0000000001
 40
0.0
 40
0.0
 40
0.0
 40
0.0
 40
0.0016482562
 40
0.0056788792
 40
0.0120568154
 40
0.0207603975
 40
0.0317774694
 40
0.0450974922
 40
0.0607134337
 40
0.0786174154
 40
0.1210532757
 40
0.1717130516
 40
0.2301279651
 40
0.2959608779
 40
0.3685803279
 40
0.4472330419
 40
0.6193142919
 40
0.8059682886
 40
1.0
 40
1.0
 40
1.0
 40
1.0
 10
1638.648906496873
 20
1057.732505494171
 30
0.0
 10
1638.652461193853
 20
1057.730619048872
 30
0.0
 10
1638.667145431693
 20
1057.731634398632
 30
0.0
 10
1638.695847754273
 20
1057.728949740551
 30
0.0
 10
1638.742885511353
 20
1057.729017535691
 30
0.0
 10
1638.806439793693
 20
1057.727977974652
 30
0.0
 10
1638.887169911633
 20
1057.727646497032
 30
0.0
 10
1638.984693414833
 20
1057.727287539152
 30
0.0
 10
1639.099061392853
 20
1057.727209721171
 30
0.0
 10
1639.284505461893
 20
1057.727414084491
 30
0.0
 10
1639.555513266333
 20
1057.728396569191
 30
0.0
 10
1639.925422442693
 20
1057.730425488172
 30
0.0
 10
1640.352452591933
 20
1057.733331321832
 30
0.0
 10
1640.833092913353
 20
1057.737027895591
 30
0.0
 10
1641.363139600273
 20
1057.741500860991
 30
0.0
 10
1642.152579405693
 20
1057.748687277912
 30
0.0
 10
1643.220415194833
 20
1057.759449080111
 30
0.0
 10
1644.569918304813
 20
1057.774704035631
 30
0.0
 10
1645.499305120153
 20
1057.785583132491
 30
0.0
 10
1645.972997970073
 20
1057.791634339592
 30
0.0
  0
SPLINE
  5
1EE
330
2
100
AcDbEntity
  8
0
  6
Continuous
 62
     7
100
AcDbSpline
210
0.0
220
0.0
230
1.0
 70
     8
 71
     3
 72
    12
 73
     8
 74
     0
 42
0.0000000001
 43
0.0000000001
 40
0.0
 40
0.0
 40
0.0
 40
0.0
 40
0.2499430116
 40
0.3749372435
 40
0.4999284508
 40
0.7499292546
 40
1.0
 40
1.0
 40
1.0
 40
1.0
 10
1639.845696719493
 20
1072.779050018751
 30
0.0
 10
1639.742384530893
 20
1073.825185744611
 30
0.0
 10
1639.611594993133
 20
1075.396922606212
 30
0.0
 10
1639.471096394273
 20
1077.494857846452
 30
0.0
 10
1639.349476637513
 20
1079.594237010652
 30
0.0
 10
1639.243852238653
 20
1082.221366790672
 30
0.0
 10
1639.217525885413
 20
1084.324674440791
 30
0.0
 10
1639.214540709773
 20
1085.376432131531
 30
0.0
  0
SPLINE
  5
1EF
330
2
100
AcDbEntity
  8
0
  6
Continuous
 62
     7
100
AcDbSpline
210
0.0
220
0.0
230
1.0
 70
     8
 71
     3
 72
    13
 73
     9
 74
     0
 42
0.0000000001
 43
0.0000000001
 40
0.0
 40
0.0
 40
0.0
 40
0.0
 40
0.1321764666
 40
0.2626554066
 40
0.3906964478999999
 40
0.5163599724
 40
0.7611622669
 40
1.0
 40
1.0
 40
1.0
 40
1.0
 10
1643.940573017913
 20
1069.835995437512
 30
0.0
 10
1643.708407564033
 20
1069.835995437512
 30
0.0
 10
1643.245768306433
 20
1069.889401314951
 30
0.0
 10
1642.590143684233
 20
1070.103973359771
 30
0.0
 10
1641.990303011933
 20
1070.418861147571
 30
0.0
 10
1641.276768721453
 20
1070.930190041091
 30
0.0
 10
1640.524749707333
 20
1071.703585461531
 30
0.0
 10
1640.050155751773
 20
1072.413139434851
 30
0.0
 10
1639.844969522573
 20
1072.779050023831
 30
0.0
  0
SPLINE
  5
1F0
330
2
100
AcDbEntity
  8
0
  6
Continuous
 62
     7
100
AcDbSpline
210
0.0
220
0.0
230
1.0
 70
     8
 71
     3
 72
     8
 73
     4
 74
     0
 42
0.0000000001
 43
0.0000000001
 40
0.0
 40
0.0
 40
0.0
 40
0.0
 40
1.0
 40
1.0
 40
1.0
 40
1.0
 10
1732.026996956473
 20
1085.376432131531
 30
0.0
 10
1732.026996956473
 20
1076.161784901731
 30
0.0
 10
1732.041199574753
 20
1066.947141083151
 30
0.0
 10
1732.055848305933
 20
1057.732505494171
 30
0.0
  0
SPLINE
  5
1F1
330
2
100
AcDbEntity
  8
0
  6
Continuous
 62
     7
100
AcDbSpline
210
0.0
220
0.0
230
1.0
 70
     8
 71
     3
 72
    10
 73
     6
 74
     0
 42
0.0000000001
 43
0.0000000001
 40
0.0
 40
0.0
 40
0.0
 40
0.0
 40
0.2502676817
 40
0.5006092560000001
 40
1.0
 40
1.0
 40
1.0
 40
1.0
 10
1718.774099982513
 20
1109.834645338451
 30
0.0
 10
1718.700045596713
 20
1109.711398142732
 30
0.0
 10
1718.524899454753
 20
1109.480066596251
 30
0.0
 10
1718.091661890953
 20
1109.098366176011
 30
0.0
 10
1717.698876743073
 20
1108.902740422992
 30
0.0
 10
1717.429268608173
 20
1108.804611086611
 30
0.0
  0
SPLINE
  5
1F2
330
2
100
AcDbEntity
  8
0
  6
Continuous
 62
     7
100
AcDbSpline
210
0.0
220
0.0
230
1.0
 70
     8
 71
     3
 72
    10
 73
     6
 74
     0
 42
0.0000000001
 43
0.0000000001
 40
0.0
 40
0.0
 40
0.0
 40
0.0
 40
0.4994340384000001
 40
0.7497592275000003
 40
1.0
 40
1.0
 40
1.0
 40
1.0
 10
1719.052206203033
 20
1111.505632440971
 30
0.0
 10
1719.092139963653
 20
1111.221488968112
 30
0.0
 10
1719.103772515953
 20
1110.782828834512
 30
0.0
 10
1718.970199669053
 20
1110.221089866551
 30
0.0
 10
1718.848146423193
 20
1109.957879308391
 30
0.0
 10
1718.774099982513
 20
1109.834645338451
 30
0.0
  0
SPLINE
  5
1F3
330
2
100
AcDbEntity
  8
0
  6
Continuous
 62
     7
100
AcDbSpline
210
0.0
220
0.0
230
1.0
 70
     8
 71
     3
 72
    10
 73
     6
 74
     0
 42
0.0000000001
 43
0.0000000001
 40
0.0
 40
0.0
 40
0.0
 40
0.0
 40
0.2502676817
 40
0.5006092560000001
 40
1.0
 40
1.0
 40
1.0
 40
1.0
 10
1651.930654820293
 20
1109.834645338451
 30
0.0
 10
1651.856600434493
 20
1109.957892536712
 30
0.0
 10
1651.734572934073
 20
1110.221140981511
 30
0.0
 10
1651.600944184313
 20
1110.782864541832
 30
0.0
 10
1651.612618351973
 20
1111.221513969331
 30
0.0
 10
1651.652548642953
 20
1111.505632755932
 30
0.0
  0
SPLINE
  5
1F4
330
2
100
AcDbEntity
  8
0
  6
Continuous
 62
     7
100
AcDbSpline
210
0.0
220
0.0
230
1.0
 70
     8
 71
     3
 72
    10
 73
     6
 74
     0
 42
0.0000000001
 43
0.0000000001
 40
0.0
 40
0.0
 40
0.0
 40
0.0
 40
0.4994340384000001
 40
0.7497592275000003
 40
1.0
 40
1.0
 40
1.0
 40
1.0
 10
1653.275485897453
 20
1108.804611195831
 30
0.0
 10
1653.005854338673
 20
1108.902749056452
 30
0.0
 10
1652.613079277133
 20
1109.098416582311
 30
0.0
 10
1652.179801858193
 20
1109.480074876651
 30
0.0
 10
1652.004701258433
 20
1109.711411371052
 30
0.0
 10
1651.930654820293
 20
1109.834645338451
 30
0.0
  0
SPLINE
  5
1F5
330
2
100
AcDbEntity
  8
0
  6
Continuous
 62
     7
100
AcDbSpline
210
0.0
220
0.0
230
1.0
 70
     8
 71
     3
 72
    15
 73
    11
 74
     0
 42
0.0000000001
 43
0.0000000001
 40
0.0
 40
0.0
 40
0.0
 40
0.0
 40
0.1186310247
 40
0.2377883208
 40
0.3579103875
 40
0.4795687949000003
 40
0.6038643464
 40
0.7319056117000003
 40
0.8642681501
 40
1.0
 40
1.0
 40
1.0
 40
1.0
 10
1729.449545926473
 20
1101.264937692531
 30
0.0
 10
1729.361183616533
 20
1101.436065186192
 30
0.0
 10
1729.173403443453
 20
1101.773836728072
 30
0.0
 10
1728.846373533633
 20
1102.255269747931
 30
0.0
 10
1728.466327059793
 20
1102.702918796752
 30
0.0
 10
1728.025884412613
 20
1103.105154388011
 30
0.0
 10
1727.509878332613
 20
1103.432519783572
 30
0.0
 10
1726.918391898113
 20
1103.649264640911
 30
0.0
 10
1726.271695038093
 20
1103.719654319791
 30
0.0
 10
1725.835819666513
 20
1103.636068840532
 30
0.0
 10
1725.628751922153
 20
1103.560702344071
 30
0.0
  0
SPLINE
  5
1F6
330
2
100
AcDbEntity
  8
0
  6
Continuous
 62
     7
100
AcDbSpline
210
0.0
220
0.0
230
1.0
 70
     8
 71
     3
 72
    11
 73
     7
 74
     0
 42
0.0000000001
 43
0.0000000001
 40
0.0
 40
0.0
 40
0.0
 40
0.0
 40
0.2623532162
 40
0.5155018739
 40
0.7604386348000001
 40
1.0
 40
1.0
 40
1.0
 40
1.0
 10
1729.251080618553
 20
1071.568046245691
 30
0.0
 10
1729.434739258093
 20
1071.568049717871
 30
0.0
 10
1729.798039971673
 20
1071.658462069431
 30
0.0
 10
1730.241670130893
 20
1071.963959705831
 30
0.0
 10
1730.591909125613
 20
1072.347482497332
 30
0.0
 10
1730.777709444893
 20
1072.632803755491
 30
0.0
 10
1730.859785282773
 20
1072.779050026372
 30
0.0
  0
SPLINE
  5
1F7
330
2
100
AcDbEntity
  8
0
  6
Continuous
 62
     7
100
AcDbSpline
210
0.0
220
0.0
230
1.0
 70
     8
 71
     3
 72
    14
 73
    10
 74
     0
 42
0.0000000001
 43
0.0000000001
 40
0.0
 40
0.0
 40
0.0
 40
0.0
 40
0.1321318212
 40
0.2625640757
 40
0.3905554259
 40
0.5161921058
 40
0.6396548575
 40
0.7612564092000002
 40
1.0
 40
1.0
 40
1.0
 40
1.0
 10
1726.764181784893
 20
1069.835995437512
 30
0.0
 10
1726.996348808493
 20
1069.835995437512
 30
0.0
 10
1727.458981711013
 20
1069.889504817411
 30
0.0
 10
1728.114547143593
 20
1070.104246826331
 30
0.0
 10
1728.714279657613
 20
1070.419306417192
 30
0.0
 10
1729.254464033173
 20
1070.805944180872
 30
0.0
 10
1729.736698537333
 20
1071.245942955431
 30
0.0
 10
1730.300554209213
 20
1071.883559404351
 30
0.0
 10
1730.654609244053
 20
1072.413157608552
 30
0.0
 10
1730.859785282773
 20
1072.779050026372
 30
0.0
  0
SPLINE
  5
1F8
330
2
100
AcDbEntity
  8
0
  6
Continuous
 62
     7
100
AcDbSpline
210
0.0
220
0.0
230
1.0
 70
     8
 71
     3
 72
    24
 73
    20
 74
     0
 42
0.0000000001
 43
0.0000000001
 40
0.0
 40
0.0
 40
0.0
 40
0.0
 40
0.1940317387
 40
0.3806857699
 40
0.5527668215000002
 40
0.6314193128
 40
0.7040388777
 40
0.7698717399
 40
0.8282866666
 40
0.8789466814
 40
0.9213825708999999
 40
0.9392865412
 40
0.954902487
 40
0.9682225213999997
 40
0.9792396019999999
 40
0.9879431863
 40
0.9943211172999999
 40
0.9983517337
 40
1.0
 40
1.0
 40
1.0
 40
1.0
 10
1724.731756835273
 20
1057.791634339592
 30
0.0
 10
1725.205449751233
 20
1057.785583094392
 30
0.0
 10
1726.134836716433
 20
1057.774704053412
 30
0.0
 10
1727.484339493673
 20
1057.759449067411
 30
0.0
 10
1728.552174335393
 20
1057.748687277912
 30
0.0
 10
1729.341613396593
 20
1057.741500977831
 30
0.0
 10
1729.871659694893
 20
1057.737027928612
 30
0.0
 10
1730.352300204273
 20
1057.733331197371
 30
0.0
 10
1730.779330846273
 20
1057.730425455152
 30
0.0
 10
1731.149240708433
 20
1057.728396647932
 30
0.0
 10
1731.420249140253
 20
1057.727414094651
 30
0.0
 10
1731.605693262633
 20
1057.727209711011
 30
0.0
 10
1731.720061253353
 20
1057.727287528992
 30
0.0
 10
1731.817584820053
 20
1057.727646489412
 30
0.0
 10
1731.898314981173
 20
1057.727977982271
 30
0.0
 10
1731.961869301613
 20
1057.729017507751
 30
0.0
 10
1732.008906979953
 20
1057.728949804052
 30
0.0
 10
1732.037609404133
 20
1057.731634304652
 30
0.0
 10
1732.052293530213
 20
1057.730619150472
 30
0.0
 10
1732.055848305933
 20
1057.732505494171
 30
0.0
  0
SPLINE
  5
1F9
330
2
100
AcDbEntity
  8
0
  6
Continuous
 62
     7
100
AcDbSpline
210
0.0
220
0.0
230
1.0
 70
     8
 71
     3
 72
    12
 73
     8
 74
     0
 42
0.0000000001
 43
0.0000000001
 40
0.0
 40
0.0
 40
0.0
 40
0.0
 40
0.2500707454
 40
0.5000715491
 40
0.6250627565000002
 40
0.7500569884
 40
1.0
 40
1.0
 40
1.0
 40
1.0
 10
1731.490214095573
 20
1085.376432131531
 30
0.0
 10
1731.487228993593
 20
1084.324674440791
 30
0.0
 10
1731.460902592093
 20
1082.221366790672
 30
0.0
 10
1731.355278137353
 20
1079.594237010652
 30
0.0
 10
1731.233658423773
 20
1077.494857846452
 30
0.0
 10
1731.093159842693
 20
1075.396922603671
 30
0.0
 10
1730.962370274453
 20
1073.825185744611
 30
0.0
 10
1730.859058085853
 20
1072.779050018751
 30
0.0
  0
SPLINE
  5
1FA
330
2
100
AcDbEntity
  8
0
  6
Continuous
 62
     7
100
AcDbSpline
210
0.0
220
0.0
230
1.0
 70
     8
 71
     3
 72
    14
 73
    10
 74
     0
 42
0.0000000001
 43
0.0000000001
 40
0.0
 40
0.0
 40
0.0
 40
0.0
 40
0.2376546068
 40
0.3577868321
 40
0.4794567197000001
 40
0.6037229831000001
 40
0.7317664666
 40
0.8642068473
 40
1.0
 40
1.0
 40
1.0
 40
1.0
 10
1641.255208876333
 20
1101.264937692531
 30
0.0
 10
1641.432246060993
 20
1101.607798005032
 30
0.0
 10
1641.736136428573
 20
1102.107518648971
 30
0.0
 10
1642.239941044533
 20
1102.702894402592
 30
0.0
 10
1642.680028993413
 20
1103.105570704172
 30
0.0
 10
1643.194396417813
 20
1103.435403143312
 30
0.0
 10
1643.785702364993
 20
1103.653880816591
 30
0.0
 10
1644.433309423853
 20
1103.721720713931
 30
0.0
 10
1644.868818014353
 20
1103.636111469352
 30
0.0
 10
1645.076002880653
 20
1103.560702344071
 30
0.0
  0
SPLINE
  5
1FB
330
2
100
AcDbEntity
  8
0
  6
Continuous
 62
     7
100
AcDbSpline
210
0.0
220
0.0
230
1.0
 70
     8
 71
     3
 72
    13
 73
     9
 74
     0
 42
0.0000000001
 43
0.0000000001
 40
0.0
 40
0.0
 40
0.0
 40
0.0
 40
0.2496655265
 40
0.374854754
 40
0.4999996439000002
 40
0.6251444583
 40
0.750334293
 40
1.0
 40
1.0
 40
1.0
 40
1.0
 10
1649.742151597613
 20
1110.357750113931
 30
0.0
 10
1649.702226704133
 20
1110.073669732132
 30
0.0
 10
1649.690745375813
 20
1109.635165902512
 30
0.0
 10
1649.823983712333
 20
1109.073117867352
 30
0.0
 10
1650.007410513373
 20
1108.679044990272
 30
0.0
 10
1650.269242887853
 20
1108.332082163752
 30
0.0
 10
1650.702950410073
 20
1107.950573051232
 30
0.0
 10
1651.095517305913
 20
1107.754844903191
 30
0.0
 10
1651.365089192473
 20
1107.656728762112
 30
0.0
  0
SPLINE
  5
1FC
330
2
100
AcDbEntity
  8
0
  6
Continuous
 62
     7
100
AcDbSpline
210
0.0
220
0.0
230
1.0
 70
     8
 71
     3
 72
     8
 73
     4
 74
     0
 42
0.0000000001
 43
0.0000000001
 40
0.0
 40
0.0
 40
0.0
 40
0.0
 40
1.0
 40
1.0
 40
1.0
 40
1.0
 10
1638.648906496873
 20
1057.732505494171
 30
0.0
 10
1638.663555228053
 20
1066.947141083151
 30
0.0
 10
1638.677757848873
 20
1076.161784901731
 30
0.0
 10
1638.677757848873
 20
1085.376432131531
 30
0.0
  0
SPLINE
  5
1FD
330
2
100
AcDbEntity
  8
0
  6
Continuous
 62
     7
100
AcDbSpline
210
0.0
220
0.0
230
1.0
 70
     8
 71
     3
 72
    13
 73
     9
 74
     0
 42
0.0000000001
 43
0.0000000001
 40
0.0
 40
0.0
 40
0.0
 40
0.0
 40
0.2496655265
 40
0.374854754
 40
0.4999996439000002
 40
0.6251444583
 40
0.750334293
 40
1.0
 40
1.0
 40
1.0
 40
1.0
 10
1719.339665910053
 20
1107.656728871332
 30
0.0
 10
1719.609237601033
 20
1107.754844941291
 30
0.0
 10
1720.001803658673
 20
1107.950572611811
 30
0.0
 10
1720.435511010713
 20
1108.332080647371
 30
0.0
 10
1720.697343039753
 20
1108.679042910011
 30
0.0
 10
1720.880770181153
 20
1109.073116356052
 30
0.0
 10
1721.014009383813
 20
1109.635165046531
 30
0.0
 10
1721.002528085973
 20
1110.073669841352
 30
0.0
 10
1720.962603162013
 20
1110.357750428892
 30
0.0
  0
SPLINE
  5
1FE
330
2
100
AcDbEntity
  8
0
  6
Continuous
 62
     7
100
AcDbSpline
210
0.0
220
0.0
230
1.0
 70
     8
 71
     3
 72
     9
 73
     5
 74
     0
 42
0.0000000001
 43
0.0000000001
 40
0.0
 40
0.0
 40
0.0
 40
0.0
 40
0.2493585564
 40
1.0
 40
1.0
 40
1.0
 40
1.0
 10
1643.940573017913
 20
1069.835995437512
 30
0.0
 10
1644.085795795793
 20
1068.831118265151
 30
0.0
 10
1644.702834228973
 20
1064.806222253491
 30
0.0
 10
1645.425296621993
 20
1060.798557205592
 30
0.0
 10
1645.972997970073
 20
1057.791634339592
 30
0.0
  0
SPLINE
  5
1FF
330
2
100
AcDbEntity
  8
0
  6
Continuous
 62
     7
100
AcDbSpline
210
0.0
220
0.0
230
1.0
 70
     8
 71
     3
 72
    11
 73
     7
 74
     0
 42
0.0000000001
 43
0.0000000001
 40
0.0
 40
0.0
 40
0.0
 40
0.0
 40
0.2395669322
 40
0.4844748363000001
 40
0.7376384496
 40
1.0
 40
1.0
 40
1.0
 40
1.0
 10
1639.844969522573
 20
1072.779050023831
 30
0.0
 10
1639.927047303553
 20
1072.632800290931
 30
0.0
 10
1640.113103659913
 20
1072.347701813632
 30
0.0
 10
1640.462813448173
 20
1071.963675596671
 30
0.0
 10
1640.906789311553
 20
1071.658644367771
 30
0.0
 10
1641.270009631593
 20
1071.568049717871
 30
0.0
 10
1641.453674186793
 20
1071.568046245691
 30
0.0
  0
SPLINE
  5
200
330
2
100
AcDbEntity
  8
0
  6
Continuous
 62
     7
100
AcDbSpline
210
0.0
220
0.0
230
1.0
 70
     8
 71
     3
 72
    25
 73
    21
 74
     0
 42
0.0000000001
 43
0.0000000001
 40
0.0
 40
0.0
 40
0.0
 40
0.0
 40
0.0005594139
 40
0.0016962705
 40
0.005730021
 40
0.0120902936
 40
0.0207472164
 40
0.0316980983
 40
0.0449460372
 40
0.0604842187
 40
0.0782761522
 40
0.1204410146
 40
0.1708982467
 40
0.2290428573
 40
0.2945594869
 40
0.3669467523
 40
0.4454619845
 40
0.6174985532
 40
0.8046488245
 40
1.0
 40
1.0
 40
1.0
 40
1.0
 10
1639.447449893433
 20
1057.231037467391
 30
0.0
 10
1639.448310425113
 20
1057.231897996532
 30
0.0
 10
1639.452169541093
 20
1057.232744316911
 30
0.0
 10
1639.464122095293
 20
1057.235079867231
 30
0.0
 10
1639.489448425133
 20
1057.237083800231
 30
0.0
 10
1639.530623013853
 20
1057.239886266051
 30
0.0
 10
1639.587133888893
 20
1057.242480045472
 30
0.0
 10
1639.658529671933
 20
1057.245186735511
 30
0.0
 10
1639.744945783073
 20
1057.247836770851
 30
0.0
 10
1639.846236268833
 20
1057.250470402871
 30
0.0
 10
1640.010432392053
 20
1057.254135478091
 30
0.0
 10
1640.250593542413
 20
1057.258444077552
 30
0.0
 10
1640.578545096313
 20
1057.263163776011
 30
0.0
 10
1640.957304239733
 20
1057.267634831331
 30
0.0
 10
1641.383777349193
 20
1057.271770906372
 30
0.0
 10
1641.854570590993
 20
1057.275530154631
 30
0.0
 10
1642.557092104413
 20
1057.280132853072
 30
0.0
 10
1643.509279293253
 20
1057.284657972292
 30
0.0
 10
1644.715642620933
 20
1057.288001674012
 30
0.0
 10
1645.547753758333
 20
1057.288878443912
 30
0.0
 10
1645.972729626693
 20
1057.288976983212
 30
0.0
  0
SPLINE
  5
201
330
2
100
AcDbEntity
  8
0
  6
Continuous
 62
     7
100
AcDbSpline
210
0.0
220
0.0
230
1.0
 70
     8
 71
     3
 72
    25
 73
    21
 74
     0
 42
0.0000000001
 43
0.0000000001
 40
0.0
 40
0.0
 40
0.0
 40
0.0
 40
0.1953512091
 40
0.3825014942
 40
0.5545380727
 40
0.6330533205
 40
0.7054405547
 40
0.7709571856000002
 40
0.8291017945999998
 40
0.8795590178999999
 40
0.9217238903
 40
0.9395158022
 40
0.9550539662
 40
0.9683019028
 40
0.9792527862999998
 40
0.9879097092
 40
0.9942699798999999
 40
0.9983037297
 40
0.9994405861
 40
1.0
 40
1.0
 40
1.0
 40
1.0
 10
1724.732025198973
 20
1057.288976983212
 30
0.0
 10
1725.157001138453
 20
1057.288878443912
 30
0.0
 10
1725.989112377453
 20
1057.288001676552
 30
0.0
 10
1727.195475827053
 20
1057.284657969751
 30
0.0
 10
1728.147663097173
 20
1057.280132847992
 30
0.0
 10
1728.850184595353
 20
1057.275530154631
 30
0.0
 10
1729.320977801593
 20
1057.271770901292
 30
0.0
 10
1729.747450842473
 20
1057.267634828792
 30
0.0
 10
1730.126209965573
 20
1057.263163773471
 30
0.0
 10
1730.454161516933
 20
1057.258444069931
 30
0.0
 10
1730.694322621573
 20
1057.254135480631
 30
0.0
 10
1730.858518681293
 20
1057.250470400332
 30
0.0
 10
1730.959809075613
 20
1057.247836768311
 30
0.0
 10
1731.046225146113
 20
1057.245186732971
 30
0.0
 10
1731.117620931693
 20
1057.242480042932
 30
0.0
 10
1731.174131804193
 20
1057.239886266051
 30
0.0
 10
1731.215306387833
 20
1057.237083797692
 30
0.0
 10
1731.240632710053
 20
1057.235079867231
 30
0.0
 10
1731.252585264253
 20
1057.232744316911
 30
0.0
 10
1731.256444380233
 20
1057.231897996532
 30
0.0
 10
1731.257304911913
 20
1057.231037467391
 30
0.0
  0
SPLINE
  5
202
330
2
100
AcDbEntity
  8
0
  6
Continuous
 62
     7
100
AcDbSpline
210
0.0
220
0.0
230
1.0
 70
     8
 71
     3
 72
    25
 73
    21
 74
     0
 42
0.0000000001
 43
0.0000000001
 40
0.0
 40
0.0
 40
0.0
 40
0.0
 40
0.1940426588
 40
0.3807164034
 40
0.5528170889
 40
0.6314762828
 40
0.7040983112000001
 40
0.7699231426000001
 40
0.8283173539999999
 40
0.8789548712999998
 40
0.9213711813999999
 40
0.939263904
 40
0.9548672842
 40
0.9681748753
 40
0.9791813668999999
 40
0.9878788607
 40
0.9942587465999999
 40
0.998303418
 40
0.9994420651
 40
1.0
 40
1.0
 40
1.0
 40
1.0
 10
1724.731756835273
 20
1057.291653378671
 30
0.0
 10
1725.173216168253
 20
1057.291653475191
 30
0.0
 10
1726.039370275413
 20
1057.290917418751
 30
0.0
 10
1727.297060622612
 20
1057.287680833912
 30
0.0
 10
1728.292240323893
 20
1057.283137424152
 30
0.0
 10
1729.027939921833
 20
1057.278454682691
 30
0.0
 10
1729.521855149393
 20
1057.274608223532
 30
0.0
 10
1729.969661266733
 20
1057.270368793352
 30
0.0
 10
1730.367444692653
 20
1057.265769432471
 30
0.0
 10
1730.711964691953
 20
1057.260884268251
 30
0.0
 10
1730.964336023633
 20
1057.256441569491
 30
0.0
 10
1731.137001967353
 20
1057.252654477751
 30
0.0
 10
1731.243444802473
 20
1057.249925577951
 30
0.0
 10
1731.334229901573
 20
1057.247181443231
 30
0.0
 10
1731.409250033473
 20
1057.244378101111
 30
0.0
 10
1731.468615769453
 20
1057.241697415592
 30
0.0
 10
1731.511834971813
 20
1057.238786029492
 30
0.0
 10
1731.538404552913
 20
1057.236721614011
 30
0.0
 10
1731.550925272093
 20
1057.234290470791
 30
0.0
 10
1731.554970996793
 20
1057.233423297011
 30
0.0
 10
1731.555867345013
 20
1057.232524533252
 30
0.0
  0
SPLINE
  5
203
330
2
100
AcDbEntity
  8
0
  6
Continuous
 62
     7
100
AcDbSpline
210
0.0
220
0.0
230
1.0
 70
     8
 71
     3
 72
    23
 73
    19
 74
     0
 42
0.0000000001
 43
0.0000000001
 40
0.0
 40
0.0
 40
0.0
 40
0.0
 40
0.2020366458
 40
0.3925959753
 40
0.5653533089
 40
0.6433645725
 40
0.7149516142
 40
0.7795135294
 40
0.8365582779999998
 40
0.8856221781999998
 40
0.9263055880999999
 40
0.9583082203
 40
0.9709634876999999
 40
0.9813489511
 40
0.9894518206999999
 40
0.9952614134999999
 40
0.9987703715
 40
1.0
 40
1.0
 40
1.0
 40
1.0
 10
1770.175240796993
 20
1147.067438505432
 30
0.0
 10
1770.173464371793
 20
1147.299341813531
 30
0.0
 10
1770.170316311033
 20
1147.749976845712
 30
0.0
 10
1770.166741850313
 20
1148.398914633431
 30
0.0
 10
1770.164817744433
 20
1148.905494648972
 30
0.0
 10
1770.164037837433
 20
1149.275513733671
 30
0.0
 10
1770.163836654193
 20
1149.521339617431
 30
0.0
 10
1770.163999679013
 20
1149.743100636951
 30
0.0
 10
1770.164524509053
 20
1149.939002165392
 30
0.0
 10
1770.165390209633
 20
1150.107509362031
 30
0.0
 10
1770.166618927013
 20
1150.247222084892
 30
0.0
 10
1770.167925934813
 20
1150.345253547452
 30
0.0
 10
1770.169304382653
 20
1150.408299547851
 30
0.0
 10
1770.170177050452
 20
1150.444293544951
 30
0.0
 10
1770.171522673873
 20
1150.471494425272
 30
0.0
 10
1770.171930059393
 20
1150.492989439432
 30
0.0
 10
1770.174184499893
 20
1150.502348094831
 30
0.0
 10
1770.173829405353
 20
1150.510602675731
 30
0.0
 10
1770.175240796993
 20
1150.510614992191
 30
0.0
  0
SPLINE
  5
204
330
2
100
AcDbEntity
  8
0
  6
Continuous
 62
     7
100
AcDbSpline
210
0.0
220
0.0
230
1.0
 70
     8
 71
     3
 72
    23
 73
    19
 74
     0
 42
0.0000000001
 43
0.0000000001
 40
0.0
 40
0.0
 40
0.0
 40
0.0
 40
0.0012296285
 40
0.0047385865
 40
0.0105481793
 40
0.0186510489
 40
0.0290365123
 40
0.0416917797
 40
0.0736944119
 40
0.1143778218
 40
0.163441722
 40
0.2204864706
 40
0.2850483858
 40
0.3566354275
 40
0.4346466910000001
 40
0.6074040247000001
 40
0.7979633542000001
 40
1.0
 40
1.0
 40
1.0
 40
1.0
 10
1844.745053079473
 20
1150.510614992191
 30
0.0
 10
1844.746464468573
 20
1150.510602675731
 30
0.0
 10
1844.746109374033
 20
1150.502348094831
 30
0.0
 10
1844.748363814533
 20
1150.492989439432
 30
0.0
 10
1844.748771202593
 20
1150.471494425272
 30
0.0
 10
1844.750116823473
 20
1150.444293544951
 30
0.0
 10
1844.750989493813
 20
1150.408299547851
 30
0.0
 10
1844.752367941653
 20
1150.345253547452
 30
0.0
 10
1844.753674946913
 20
1150.247222084892
 30
0.0
 10
1844.754903666833
 20
1150.107509362031
 30
0.0
 10
1844.755769367413
 20
1149.939002165392
 30
0.0
 10
1844.756294197453
 20
1149.743100636951
 30
0.0
 10
1844.756457222273
 20
1149.521339617431
 30
0.0
 10
1844.756256039033
 20
1149.275513733671
 30
0.0
 10
1844.755476132033
 20
1148.905494648972
 30
0.0
 10
1844.753552026153
 20
1148.398914633431
 30
0.0
 10
1844.749977562893
 20
1147.749976845712
 30
0.0
 10
1844.746829504673
 20
1147.299341813531
 30
0.0
 10
1844.745053079473
 20
1147.067438505432
 30
0.0
  0
SPLINE
  5
205
102
{ACAD_REACTORS
330
252
102
}
330
2
100
AcDbEntity
  8
0
  6
Continuous
 62
     7
100
AcDbSpline
210
0.0
220
0.0
230
1.0
 70
     8
 71
     3
 72
    25
 73
    21
 74
     0
 42
0.0000000001
 43
0.0000000001
 40
0.0
 40
0.0
 40
0.0
 40
0.0
 40
0.1952283694
 40
0.3827614876
 40
0.5554015609000002
 40
0.6342216317
 40
0.7069061795999999
 40
0.7727172051000001
 40
0.8310246562000001
 40
0.8814612970999997
 40
0.9235751443999999
 40
0.9412818484
 40
0.9566688306999999
 40
0.9697301737
 40
0.9804624636999999
 40
0.9888575464
 40
0.9949060509999998
 40
0.9985972309999999
 40
0.9995635188000001
 40
1.0
 40
1.0
 40
1.0
 40
1.0
 10
1841.439015678353
 20
1057.732505494171
 30
0.0
 10
1841.912349557693
 20
1057.730317454351
 30
0.0
 10
1842.840367861673
 20
1057.727768635472
 30
0.0
 10
1844.186961566753
 20
1057.726676072252
 30
0.0
 10
1845.251317718453
 20
1057.729112618051
 30
0.0
 10
1846.037210152253
 20
1057.733001393611
 30
0.0
 10
1846.564088448253
 20
1057.736628699032
 30
0.0
 10
1847.041225609293
 20
1057.741018669932
 30
0.0
 10
1847.464410848773
 20
1057.746148210092
 30
0.0
 10
1847.830127346193
 20
1057.751981099111
 30
0.0
 10
1848.097390560713
 20
1057.757614148551
 30
0.0
 10
1848.279669601793
 20
1057.762665090951
 30
0.0
 10
1848.391502291513
 20
1057.766384087831
 30
0.0
 10
1848.486452828053
 20
1057.770222744112
 30
0.0
 10
1848.564312103373
 20
1057.774080750112
 30
0.0
 10
1848.625458607953
 20
1057.778056693391
 30
0.0
 10
1848.668738280093
 20
1057.781796185532
 30
0.0
 10
1848.695380418833
 20
1057.785608016871
 30
0.0
 10
1848.706463835833
 20
1057.788433665272
 30
0.0
 10
1848.710148281093
 20
1057.790576073992
 30
0.0
 10
1848.710146937433
 20
1057.791634339592
 30
0.0
  0
SPLINE
  5
206
330
2
100
AcDbEntity
  8
0
  6
Continuous
 62
     7
100
AcDbSpline
210
0.0
220
0.0
230
1.0
 70
     8
 71
     3
 72
    13
 73
     9
 74
     0
 42
0.0000000001
 43
0.0000000001
 40
0.0
 40
0.0
 40
0.0
 40
0.0
 40
0.2494998631
 40
0.3744276445000001
 40
0.4994284983
 40
0.624494032
 40
0.7496227633000001
 40
1.0
 40
1.0
 40
1.0
 40
1.0
 10
1847.011048085193
 20
1072.779050018751
 30
0.0
 10
1846.972347111033
 20
1073.826359252552
 30
0.0
 10
1846.923996897853
 20
1075.398417350492
 30
0.0
 10
1846.861598968293
 20
1077.495334718751
 30
0.0
 10
1846.813216606333
 20
1079.069754661092
 30
0.0
 10
1846.769848041813
 20
1080.645172528791
 30
0.0
 10
1846.727719708493
 20
1082.747425177212
 30
0.0
 10
1846.715008893173
 20
1084.324735316972
 30
0.0
 10
1846.709853546613
 20
1085.376432131531
 30
0.0
  0
SPLINE
  5
207
330
2
100
AcDbEntity
  8
0
  6
Continuous
 62
     7
100
AcDbSpline
210
0.0
220
0.0
230
1.0
 70
     8
 71
     3
 72
    20
 73
    16
 74
     0
 42
0.0000000001
 43
0.0000000001
 40
0.0
 40
0.0
 40
0.0
 40
0.0
 40
0.0370580421
 40
0.0637159589
 40
0.0853996774
 40
0.1106688986
 40
0.1443081381
 40
0.1873027116
 40
0.2394341504
 40
0.3001221749
 40
0.3685888532
 40
0.4440219169
 40
0.6125314075000003
 40
0.7994236861
 40
1.0
 40
1.0
 40
1.0
 40
1.0
 10
1766.210146939033
 20
1103.560702344071
 30
0.0
 10
1766.210146939033
 20
1103.582632104631
 30
0.0
 10
1766.212810093473
 20
1103.620239171911
 30
0.0
 10
1766.231325273613
 20
1103.669671176171
 30
0.0
 10
1766.271526018713
 20
1103.694086103212
 30
0.0
 10
1766.320984103693
 20
1103.687354102451
 30
0.0
 10
1766.375919782493
 20
1103.662444899032
 30
0.0
 10
1766.439629840493
 20
1103.620024892431
 30
0.0
 10
1766.510903126953
 20
1103.561457790872
 30
0.0
 10
1766.589088116633
 20
1103.487893213591
 30
0.0
 10
1766.673151550233
 20
1103.400726341951
 30
0.0
 10
1766.796551928273
 20
1103.263021666892
 30
0.0
 10
1766.958521299534
 20
1103.065998365232
 30
0.0
 10
1767.158549090993
 20
1102.804734648492
 30
0.0
 10
1767.293455026412
 20
1102.619304191311
 30
0.0
 10
1767.362477105793
 20
1102.522741427871
 30
0.0
  0
SPLINE
  5
208
330
2
100
AcDbEntity
  8
0
  6
Continuous
 62
     7
100
AcDbSpline
210
0.0
220
0.0
230
1.0
 70
     8
 71
     3
 72
     9
 73
     5
 74
     0
 42
0.0000000001
 43
0.0000000001
 40
0.0
 40
0.0
 40
0.0
 40
0.0
 40
0.2384116308
 40
1.0
 40
1.0
 40
1.0
 40
1.0
 10
1767.362477105793
 20
1102.522741427871
 30
0.0
 10
1767.432575914033
 20
1102.424672309812
 30
0.0
 10
1767.722939803713
 20
1102.010710760291
 30
0.0
 10
1768.001539439553
 20
1101.588614200372
 30
0.0
 10
1768.210146936993
 20
1101.264937692531
 30
0.0
  0
SPLINE
  5
209
330
2
100
AcDbEntity
  8
0
  6
Continuous
 62
     7
100
AcDbSpline
210
0.0
220
0.0
230
1.0
 70
     8
 71
     3
 72
    25
 73
    21
 74
     0
 42
0.0000000001
 43
0.0000000001
 40
0.0
 40
0.0
 40
0.0
 40
0.0
 40
0.0004364849
 40
0.0014027848
 40
0.0050940087
 40
0.0111424615
 40
0.019537525
 40
0.0302705815
 40
0.0433331588
 40
0.0587201598
 40
0.0764248366
 40
0.1185402086
 40
0.1689800898
 40
0.2272826937
 40
0.2930986738
 40
0.365789766
 40
0.4446046166
 40
0.6172435931
 40
0.8047737641999999
 40
1.0
 40
1.0
 40
1.0
 40
1.0
 10
1766.210146939033
 20
1057.791634339592
 30
0.0
 10
1766.210145613153
 20
1057.790576066371
 30
0.0
 10
1766.213830142233
 20
1057.788433705912
 30
0.0
 10
1766.224913676072
 20
1057.785608057511
 30
0.0
 10
1766.251555850373
 20
1057.781796259191
 30
0.0
 10
1766.294835400593
 20
1057.778056297151
 30
0.0
 10
1766.355983581573
 20
1057.774079883972
 30
0.0
 10
1766.433847708293
 20
1057.770222883811
 30
0.0
 10
1766.528803157193
 20
1057.766384494231
 30
0.0
 10
1766.640633939373
 20
1057.762664717571
 30
0.0
 10
1766.822911723153
 20
1057.757610770352
 30
0.0
 10
1767.090181643273
 20
1057.751980093271
 30
0.0
 10
1767.455897980673
 20
1057.746150254792
 30
0.0
 10
1767.879091332912
 20
1057.741020587632
 30
0.0
 10
1768.356244592473
 20
1057.736627850671
 30
0.0
 10
1768.883138100533
 20
1057.732998594532
 30
0.0
 10
1769.669031088053
 20
1057.729110847671
 30
0.0
 10
1770.733364788693
 20
1057.726680359772
 30
0.0
 10
1772.079943507773
 20
1057.727767886172
 30
0.0
 10
1773.007949492753
 20
1057.730317449272
 30
0.0
 10
1773.481278198113
 20
1057.732505494171
 30
0.0
  0
SPLINE
  5
20A
330
2
100
AcDbEntity
  8
0
  6
Continuous
 62
     7
100
AcDbSpline
210
0.0
220
0.0
230
1.0
 70
     8
 71
     3
 72
    13
 73
     9
 74
     0
 42
0.0000000001
 43
0.0000000001
 40
0.0
 40
0.0
 40
0.0
 40
0.0
 40
0.2503772366
 40
0.3755059679
 40
0.5005715017
 40
0.6255723555000002
 40
0.7505001370000001
 40
1.0
 40
1.0
 40
1.0
 40
1.0
 10
1768.210440329853
 20
1085.376432131531
 30
0.0
 10
1768.205285115373
 20
1084.324735316972
 30
0.0
 10
1768.192574251793
 20
1082.747425177212
 30
0.0
 10
1768.150445801633
 20
1080.645172531331
 30
0.0
 10
1768.107077239653
 20
1079.069754663631
 30
0.0
 10
1768.058694920873
 20
1077.495334718751
 30
0.0
 10
1767.996297026873
 20
1075.398417350492
 30
0.0
 10
1767.947946765433
 20
1073.826359252552
 30
0.0
 10
1767.909245788733
 20
1072.779050018751
 30
0.0
  0
LINE
  5
20B
330
2
100
AcDbEntity
  8
0
  6
Continuous
 62
     7
100
AcDbLine
 10
1770.175500527233
 20
1085.376432291552
 30
0.0
 11
1770.175500527233
 21
1088.159788325031
 31
0.0
  0
SPLINE
  5
20C
330
2
100
AcDbEntity
  8
0
  6
Continuous
 62
     7
100
AcDbSpline
210
0.0
220
0.0
230
1.0
 70
     8
 71
     3
 72
     9
 73
     5
 74
     0
 42
0.0000000001
 43
0.0000000001
 40
0.0
 40
0.0
 40
0.0
 40
0.0
 40
0.2608914117
 40
1.0
 40
1.0
 40
1.0
 40
1.0
 10
1844.745053079473
 20
1088.159788165012
 30
0.0
 10
1844.916111137153
 20
1088.159580408252
 30
0.0
 10
1845.571732358293
 20
1088.152828824091
 30
0.0
 10
1846.227323295013
 20
1088.124028312732
 30
0.0
 10
1846.710375889993
 20
1088.085208324331
 30
0.0
  0
SPLINE
  5
20D
330
2
100
AcDbEntity
  8
0
  6
Continuous
 62
     7
100
AcDbSpline
210
0.0
220
0.0
230
1.0
 70
     8
 71
     3
 72
    17
 73
    13
 74
     0
 42
0.0000000001
 43
0.0000000001
 40
0.0
 40
0.0
 40
0.0
 40
0.0
 40
0.0324420281
 40
0.0589851335
 40
0.0934893302
 40
0.1360060049
 40
0.1863701095
 40
0.2442149607
 40
0.3090725512
 40
0.457530505
 40
0.6263670958
 40
1.0
 40
1.0
 40
1.0
 40
1.0
 10
1848.710146937433
 20
1146.510767299751
 30
0.0
 10
1848.710146937433
 20
1146.554789055752
 30
0.0
 10
1848.640884454673
 20
1146.621614657431
 30
0.0
 10
1848.531875978253
 20
1146.677470728091
 30
0.0
 10
1848.398998852593
 20
1146.728452193311
 30
0.0
 10
1848.233294327513
 20
1146.776107033232
 30
0.0
 10
1848.033738330893
 20
1146.822093151572
 30
0.0
 10
1847.802890293733
 20
1146.865169158891
 30
0.0
 10
1847.439118290773
 20
1146.920925399931
 30
0.0
 10
1846.923575374693
 20
1146.978534525251
 30
0.0
 10
1845.988441824593
 20
1147.047447704672
 30
0.0
 10
1845.252048644093
 20
1147.066822735772
 30
0.0
 10
1844.745053079473
 20
1147.067438505432
 30
0.0
  0
SPLINE
  5
20E
330
2
100
AcDbEntity
  8
0
  6
Continuous
 62
     7
100
AcDbSpline
210
0.0
220
0.0
230
1.0
 70
     8
 71
     3
 72
     9
 73
     5
 74
     0
 42
0.0000000001
 43
0.0000000001
 40
0.0
 40
0.0
 40
0.0
 40
0.0
 40
0.2599648502
 40
1.0
 40
1.0
 40
1.0
 40
1.0
 10
1846.710146936933
 20
1101.264937692531
 30
0.0
 10
1846.781392440873
 20
1101.375482597171
 30
0.0
 10
1847.057166095573
 20
1101.799586978831
 30
0.0
 10
1847.340556392393
 20
1102.218875413811
 30
0.0
 10
1847.558286508113
 20
1102.523429887251
 30
0.0
  0
SPLINE
  5
20F
330
2
100
AcDbEntity
  8
0
  6
Continuous
 62
     7
100
AcDbSpline
210
0.0
220
0.0
230
1.0
 70
     8
 71
     3
 72
    20
 73
    16
 74
     0
 42
0.0000000001
 43
0.0000000001
 40
0.0
 40
0.0
 40
0.0
 40
0.0
 40
0.2004804644
 40
0.3873113422999999
 40
0.5558485462000001
 40
0.6313409882
 40
0.6998788825
 40
0.7606380798000001
 40
0.8128002793
 40
0.8557465966999997
 40
0.8892825840999998
 40
0.9144631440999999
 40
0.9361423684000001
 40
0.9628869720999999
 40
1.0
 40
1.0
 40
1.0
 40
1.0
 10
1847.558286508113
 20
1102.523429887251
 30
0.0
 10
1847.627296890793
 20
1102.619959577352
 30
0.0
 10
1847.762198101813
 20
1102.805333367132
 30
0.0
 10
1847.962233942533
 20
1103.066574442312
 30
0.0
 10
1848.124224860613
 20
1103.263662404752
 30
0.0
 10
1848.247663750133
 20
1103.401505984791
 30
0.0
 10
1848.331777760213
 20
1103.488822350672
 30
0.0
 10
1848.410008106673
 20
1103.562518571072
 30
0.0
 10
1848.481289099493
 20
1103.621155741072
 30
0.0
 10
1848.544963373973
 20
1103.663532740392
 30
0.0
 10
1848.599835184473
 20
1103.688289589532
 30
0.0
 10
1848.649254590332
 20
1103.694725258651
 30
0.0
 10
1848.689238107013
 20
1103.669945143112
 30
0.0
 10
1848.707488575973
 20
1103.620357266672
 30
0.0
 10
1848.710146937433
 20
1103.582668904152
 30
0.0
 10
1848.710146937433
 20
1103.560702344071
 30
0.0
  0
LINE
  5
210
330
2
100
AcDbEntity
  8
0
  6
Continuous
 62
     7
100
AcDbLine
 10
1844.744793349233
 20
1088.159788325031
 30
0.0
 11
1844.744793349233
 21
1085.376432291552
 31
0.0
  0
LINE
  5
211
330
2
100
AcDbEntity
  8
0
  6
Continuous
 62
     7
100
AcDbLine
 10
1807.459822272893
 20
1088.182541180211
 30
0.0
 11
1807.459822272893
 21
1085.399185146731
 31
0.0
  0
SPLINE
  5
212
330
2
100
AcDbEntity
  8
0
  6
Continuous
 62
     7
100
AcDbSpline
210
0.0
220
0.0
230
1.0
 70
     8
 71
     3
 72
     9
 73
     5
 74
     0
 42
0.0000000001
 43
0.0000000001
 40
0.0
 40
0.0
 40
0.0
 40
0.0
 40
0.5026794107
 40
1.0
 40
1.0
 40
1.0
 40
1.0
 10
1841.439015678353
 20
1057.732505494171
 30
0.0
 10
1842.275899752613
 20
1062.326620545191
 30
0.0
 10
1843.919306950933
 20
1071.468615085652
 30
0.0
 10
1844.745053079473
 20
1080.756495534492
 30
0.0
 10
1844.745053079473
 20
1085.376432131531
 30
0.0
  0
SPLINE
  5
213
330
2
100
AcDbEntity
  8
0
  6
Continuous
 62
     7
100
AcDbSpline
210
0.0
220
0.0
230
1.0
 70
     8
 71
     3
 72
    17
 73
    13
 74
     0
 42
0.0000000001
 43
0.0000000001
 40
0.0
 40
0.0
 40
0.0
 40
0.0
 40
0.3735404588
 40
0.5423452124
 40
0.6908111396
 40
0.7556804947
 40
0.8135500833
 40
0.8639312759999999
 40
0.9064705612999999
 40
0.9409960462
 40
0.9675497365000001
 40
1.0
 40
1.0
 40
1.0
 40
1.0
 10
1770.175240796993
 20
1147.067438505432
 30
0.0
 10
1769.668371571973
 20
1147.066822890711
 30
0.0
 10
1768.932148040613
 20
1147.047462251251
 30
0.0
 10
1767.997173575793
 20
1146.978568210732
 30
0.0
 10
1767.481644131873
 20
1146.920992003811
 30
0.0
 10
1767.117812898653
 20
1146.865229394991
 30
0.0
 10
1766.886888404953
 20
1146.822169722411
 30
0.0
 10
1766.687245459053
 20
1146.776170093811
 30
0.0
 10
1766.521460134033
 20
1146.728503938192
 30
0.0
 10
1766.388502945033
 20
1146.677515028231
 30
0.0
 10
1766.279457529393
 20
1146.621627591111
 30
0.0
 10
1766.210146939033
 20
1146.554800153012
 30
0.0
 10
1766.210146939033
 20
1146.510767299751
 30
0.0
  0
SPLINE
  5
214
330
2
100
AcDbEntity
  8
0
  6
Continuous
 62
     7
100
AcDbSpline
210
0.0
220
0.0
230
1.0
 70
     8
 71
     3
 72
     9
 73
     5
 74
     0
 42
0.0000000001
 43
0.0000000001
 40
0.0
 40
0.0
 40
0.0
 40
0.0
 40
0.4973205893000002
 40
1.0
 40
1.0
 40
1.0
 40
1.0
 10
1770.175240796993
 20
1085.376432131531
 30
0.0
 10
1770.175240796993
 20
1080.756495534492
 30
0.0
 10
1771.000986925533
 20
1071.468615085652
 30
0.0
 10
1772.644394123853
 20
1062.326620545191
 30
0.0
 10
1773.481278198113
 20
1057.732505494171
 30
0.0
  0
LINE
  5
215
330
2
100
AcDbEntity
  8
0
  6
Continuous
 62
     7
100
AcDbLine
 10
1807.460146938233
 20
1147.392818951951
 30
0.0
 11
1807.460146938233
 21
1150.835995438711
 31
0.0
  0
SPLINE
  5
216
330
2
100
AcDbEntity
  8
0
  6
Continuous
 62
     7
100
AcDbSpline
210
0.0
220
0.0
230
1.0
 70
     8
 71
     3
 72
     9
 73
     5
 74
     0
 42
0.0000000001
 43
0.0000000001
 40
0.0
 40
0.0
 40
0.0
 40
0.0
 40
0.2350190988
 40
1.0
 40
1.0
 40
1.0
 40
1.0
 10
1768.209917986473
 20
1088.085208324331
 30
0.0
 10
1768.363518832433
 20
1088.097552287452
 30
0.0
 10
1769.017721339112
 20
1088.142036303131
 30
0.0
 10
1769.673662625653
 20
1088.159178976491
 30
0.0
 10
1770.175240796993
 20
1088.159788165012
 30
0.0
  0
SPLINE
  5
217
330
2
100
AcDbEntity
  8
0
  6
Continuous
 62
     7
100
AcDbSpline
210
0.0
220
0.0
230
1.0
 70
     8
 71
     3
 72
    14
 73
    10
 74
     0
 42
0.0000000001
 43
0.0000000001
 40
0.0
 40
0.0
 40
0.0
 40
0.0
 40
0.0381090989
 40
0.0972489624
 40
0.1835662825
 40
0.2976711012
 40
0.4385929965999999
 40
0.6044609062
 40
1.0
 40
1.0
 40
1.0
 40
1.0
 10
1847.710146938453
 20
1087.844171841712
 30
0.0
 10
1847.710146938453
 20
1087.857551017392
 30
0.0
 10
1847.690176655813
 20
1087.889735090691
 30
0.0
 10
1847.634290115313
 20
1087.922147982432
 30
0.0
 10
1847.549205197853
 20
1087.955695769031
 30
0.0
 10
1847.433369069353
 20
1087.986866222311
 30
0.0
 10
1847.288520032153
 20
1088.016405413932
 30
0.0
 10
1847.044815101733
 20
1088.054292734652
 30
0.0
 10
1846.848564948133
 20
1088.074104610191
 30
0.0
 10
1846.710146936933
 20
1088.085226724091
 30
0.0
  0
LINE
  5
218
330
2
100
AcDbEntity
  8
0
  6
Continuous
 62
     7
100
AcDbLine
 10
1773.481278198113
 20
1057.732505494171
 30
0.0
 11
1773.481278198113
 21
1057.232524533252
 31
0.0
  0
LINE
  5
219
330
2
100
AcDbEntity
  8
0
  6
Continuous
 62
     7
100
AcDbLine
 10
1841.439015678353
 20
1057.732505494171
 30
0.0
 11
1841.439015678353
 21
1057.232524533252
 31
0.0
  0
SPLINE
  5
21A
330
2
100
AcDbEntity
  8
0
  6
Continuous
 62
     7
100
AcDbSpline
210
0.0
220
0.0
230
1.0
 70
     8
 71
     3
 72
    14
 73
    10
 74
     0
 42
0.0000000001
 43
0.0000000001
 40
0.0
 40
0.0
 40
0.0
 40
0.0
 40
0.3955078904
 40
0.5613563261
 40
0.7022769199
 40
0.8163990314999999
 40
0.9027375937999998
 40
0.9618875171999999
 40
1.0
 40
1.0
 40
1.0
 40
1.0
 10
1768.210146936993
 20
1088.085226724091
 30
0.0
 10
1768.071740068773
 20
1088.074105506811
 30
0.0
 10
1767.875507885673
 20
1088.054295988392
 30
0.0
 10
1767.631821139113
 20
1088.016413953412
 30
0.0
 10
1767.486972780093
 20
1087.986877700572
 30
0.0
 10
1767.371124210673
 20
1087.955706200811
 30
0.0
 10
1767.286020372753
 20
1087.922157057851
 30
0.0
 10
1767.230125666153
 20
1087.889737950731
 30
0.0
 10
1767.210146938013
 20
1087.857552183252
 30
0.0
 10
1767.210146938013
 20
1087.844171841712
 30
0.0
  0
ELLIPSE
  5
21B
330
2
100
AcDbEntity
  8
0
  6
Continuous
 62
     7
100
AcDbEllipse
 10
1700.852377400833
 20
1091.350306188331
 30
0.0
 11
2.873982021899998
 21
-2.01238387718
 31
0.0
210
0.0
220
0.0
230
1.0
 40
0.4275350566
 41
2.8507201179
 42
3.4324651893
  0
ELLIPSE
  5
21C
330
2
100
AcDbEntity
  8
0
  6
Continuous
 62
     7
100
AcDbEllipse
 10
1700.852377400833
 20
1072.835995436991
 30
0.0
 11
2.806243041299998
 21
2.806243041299998
 31
0.0
210
0.0
220
0.0
230
1.0
 40
0.377964473
 41
2.7802255297
 42
3.5029597775
  0
ELLIPSE
  5
21D
330
2
100
AcDbEntity
  8
0
  6
Continuous
 62
     7
100
AcDbEllipse
 10
1638.352377402353
 20
1065.436319103532
 30
0.0
 11
0.0
 21
4.249999998839998
 31
0.0
210
0.0
220
0.0
230
1.0
 40
0.0087268678
 41
-3.1415926536
 42
0.0
  0
ELLIPSE
  5
21E
330
2
100
AcDbEntity
  8
0
  6
Continuous
 62
     7
100
AcDbEllipse
 10
1668.120326593793
 20
1090.137511156471
 30
0.0
 11
2.873982021899998
 21
2.01238387718
 31
0.0
210
0.0
220
0.0
230
1.0
 40
0.4275350566
 41
-0.2908725357
 42
0.2908725357
  0
ELLIPSE
  5
21F
330
2
100
AcDbEntity
  8
0
  6
Continuous
 62
     7
100
AcDbEllipse
 10
1732.352377402993
 20
1065.436319103532
 30
0.0
 11
0.0
 21
4.249999998839998
 31
0.0
210
0.0
220
0.0
230
1.0
 40
0.0087268678
 41
0.0
 42
3.1415926536
  0
ELLIPSE
  5
220
330
2
100
AcDbEntity
  8
0
  6
Continuous
 62
     7
100
AcDbEllipse
 10
1668.120326593793
 20
1074.568046245171
 30
0.0
 11
2.806243041299998
 21
-2.806243041299998
 31
0.0
210
0.0
220
0.0
230
1.0
 40
0.377964473
 41
-0.3613671239
 42
0.3613671239
  0
ELLIPSE
  5
221
330
2
100
AcDbEntity
  8
0
  6
Continuous
 62
     7
100
AcDbEllipse
 10
1664.505187479153
 20
1131.103944631111
 30
0.0
 11
-8.211869072800002
 21
9.446674746440001
 31
0.0
210
0.0
220
0.0
230
1.0
 40
0.3994577988999999
 41
5.9489683933
 42
6.617402220999996
  0
ELLIPSE
  5
222
330
2
100
AcDbEntity
  8
0
  6
Continuous
 62
     7
100
AcDbEllipse
 10
1706.199567326193
 20
1131.103944631111
 30
0.0
 11
8.211869072800002
 21
9.446674746440001
 31
0.0
210
0.0
220
0.0
230
1.0
 40
0.3994577988999999
 41
5.9489683933
 42
6.617402220999996
  0
ELLIPSE
  5
223
330
2
100
AcDbEntity
  8
0
  6
Continuous
 62
     7
100
AcDbEllipse
 10
1695.783700304273
 20
1111.568046245531
 30
0.0
 11
-1.75661109688
 21
9.962236582979999
 31
0.0
210
0.0
220
0.0
230
1.0
 40
0.4942704104000001
 41
3.054659106799998
 42
3.228526200299997
  0
ELLIPSE
  5
224
330
2
100
AcDbEntity
  8
0
  6
Continuous
 62
     7
100
AcDbEllipse
 10
1674.921054498533
 20
1111.568046245531
 30
0.0
 11
1.75661109688
 21
9.962236582979999
 31
0.0
210
0.0
220
0.0
230
1.0
 40
0.4942704104000001
 41
3.054659106899998
 42
3.228526200099997
  0
ELLIPSE
  5
225
330
2
100
AcDbEntity
  8
0
  6
Continuous
 62
     7
100
AcDbEllipse
 10
1728.032029307613
 20
1098.905793866252
 30
0.0
 11
-0.1551212798
 21
3.575041475759997
 31
0.0
210
0.0
220
0.0
230
1.0
 40
0.5531426924
 41
-0.8743694741
 42
0.1728280771
  0
ELLIPSE
  5
226
330
2
100
AcDbEntity
  8
0
  6
Continuous
 62
     7
100
AcDbEllipse
 10
1702.584428209013
 20
1074.568046245171
 30
0.0
 11
2.806243041299998
 21
2.806243041299998
 31
0.0
210
0.0
220
0.0
230
1.0
 40
0.377964473
 41
-3.5029597775
 42
-2.7802255297
  0
ELLIPSE
  5
227
330
2
100
AcDbEntity
  8
0
  6
Continuous
 62
     7
100
AcDbEllipse
 10
1702.584428209013
 20
1090.137511156471
 30
0.0
 11
2.873982021899998
 21
-2.01238387718
 31
0.0
210
0.0
220
0.0
230
1.0
 40
0.4275350566
 41
2.8507201179
 42
3.4324651893
  0
ELLIPSE
  5
228
330
2
100
AcDbEntity
  8
0
  6
Continuous
 62
     7
100
AcDbEllipse
 10
1674.615647209933
 20
1109.835995437352
 30
0.0
 11
1.75661109688
 21
9.962236582979999
 31
0.0
210
0.0
220
0.0
230
1.0
 40
0.4942704104000001
 41
3.054659106899998
 42
3.228526200099997
  0
ELLIPSE
  5
229
330
2
100
AcDbEntity
  8
0
  6
Continuous
 62
     7
100
AcDbEllipse
 10
1696.089107595413
 20
1109.835995437352
 30
0.0
 11
-1.75661109688
 21
9.962236582979999
 31
0.0
210
0.0
220
0.0
230
1.0
 40
0.4942704104000001
 41
3.054659106799998
 42
3.228526200299997
  0
ELLIPSE
  5
22A
330
2
100
AcDbEntity
  8
0
  6
Continuous
 62
     7
100
AcDbEllipse
 10
1707.705216120833
 20
1132.835995439291
 30
0.0
 11
-8.211869072800002
 21
-9.446674746440001
 31
0.0
210
0.0
220
0.0
230
1.0
 40
0.3994577988999999
 41
2.8073757398
 42
3.4758095674
  0
ELLIPSE
  5
22B
330
2
100
AcDbEntity
  8
0
  6
Continuous
 62
     7
100
AcDbEllipse
 10
1662.999538681973
 20
1132.835995439291
 30
0.0
 11
8.211869072800002
 21
-9.446674746440001
 31
0.0
210
0.0
220
0.0
230
1.0
 40
0.3994577988999999
 41
2.8073757398
 42
3.4758095674
  0
ELLIPSE
  5
22C
330
2
100
AcDbEntity
  8
0
  6
Continuous
 62
     7
100
AcDbEllipse
 10
1642.672725495193
 20
1098.905793866252
 30
0.0
 11
0.1551212798
 21
3.575041475759997
 31
0.0
210
0.0
220
0.0
230
1.0
 40
0.5531426924
 41
6.110357230099999
 42
7.1575547813
  0
ELLIPSE
  5
22D
330
2
100
AcDbEntity
  8
0
  6
Continuous
 62
     7
100
AcDbEllipse
 10
1669.852377401973
 20
1072.835995436991
 30
0.0
 11
-2.806243041299998
 21
2.806243041299998
 31
0.0
210
0.0
220
0.0
230
1.0
 40
0.377964473
 41
2.7802255297
 42
3.5029597775
  0
ELLIPSE
  5
22E
330
2
100
AcDbEntity
  8
0
  6
Continuous
 62
     7
100
AcDbEllipse
 10
1669.852377401973
 20
1091.350306188331
 30
0.0
 11
-2.873982021899998
 21
-2.01238387718
 31
0.0
210
0.0
220
0.0
230
1.0
 40
0.4275350566
 41
2.8507201179
 42
3.4324651893
  0
ELLIPSE
  5
22F
330
2
100
AcDbEntity
  8
0
  6
Continuous
 62
     7
100
AcDbEllipse
 10
1845.710146937953
 20
1098.905793866252
 30
0.0
 11
1.977417619959999
 21
3.572220765119999
 31
0.0
210
0.0
220
0.0
230
1.0
 40
0.0838971389
 41
6.1327692034
 42
7.1799667546
  0
ELLIPSE
  5
230
330
2
100
AcDbEntity
  8
0
  6
Continuous
 62
     7
100
AcDbEllipse
 10
1769.210146938513
 20
1098.905793866252
 30
0.0
 11
-1.977417619959999
 21
3.572220765119999
 31
0.0
210
0.0
220
0.0
230
1.0
 40
0.0838971389
 41
5.3864038597
 42
6.4336014109
  0
DIMENSION
  5
231
102
{ACAD_XDICTIONARY
360
232
102
}
102
{ACAD_REACTORS
330
233
102
}
330
2
100
AcDbEntity
  8
Dim
100
AcDbDimension
  2
*D3
 10
1621.634421825131
 20
1056.835995438071
 30
0.0
 11
1619.13442182513
 21
1103.835995438276
 31
0.0
 71
     5
 42
94.0000000004086
 73
     0
 74
     0
 75
     0
  3
01
100
AcDbAlignedDimension
 13
1650.829391955276
 23
1150.83599543848
 33
0.0
 14
1639.152407864773
 24
1056.835995438071
 34
0.0
 50
90.0
100
AcDbRotatedDimension
  0
DIMENSION
  5
241
102
{ACAD_XDICTIONARY
360
242
102
}
102
{ACAD_REACTORS
330
243
102
}
330
2
100
AcDbEntity
  8
Dim
100
AcDbDimension
  2
*D4
 10
1732.352337694897
 20
1049.415304095224
 30
0.0
 11
1685.352357548625
 21
1051.915304095224
 31
0.0
 71
     5
 42
93.99996029254408
 73
     0
 74
     0
 75
     0
  3
01
100
AcDbAlignedDimension
 13
1638.352377402353
 23
1057.436001786951
 33
0.0
 14
1732.352337694897
 24
1057.436014486348
 34
0.0
100
AcDbRotatedDimension
  0
DIMENSION
  5
250
102
{ACAD_XDICTIONARY
360
251
102
}
102
{ACAD_REACTORS
330
252
102
}
330
2
100
AcDbEntity
  8
Dim
100
AcDbDimension
  2
*D5
 10
1848.710146938613
 20
1047.625954613118
 30
0.0
 11
1807.460146903263
 21
1050.125954613118
 31
0.0
 71
     5
 42
82.50000007070005
 73
     0
 74
     0
 75
     0
  3
01
100
AcDbAlignedDimension
 13
1766.210146867913
 23
1057.791634339592
 33
0.0
 14
1848.710146938613
 24
1057.791632481092
 34
0.0
100
AcDbRotatedDimension
  0
DIMENSION
  5
3B2
330
2
100
AcDbEntity
  8
Dim
100
AcDbDimension
  2
*D2
 10
1733.457956969027
 20
1103.255055958664
 30
0.0
 11
1733.818196006269
 21
1118.655063355937
 31
0.0
 70
     1
  1
M32
 71
     5
 42
30.39999999999987
 73
     0
 74
     0
 75
     0
  3
01
100
AcDbAlignedDimension
 13
1725.874793811215
 23
1132.888070083343
 33
0.0
 14
1730.105656080437
 24
1102.783920793604
 34
0.0
  0
MTEXT
  5
3D5
330
2
100
AcDbEntity
  8
图框
 62
     3
100
AcDbMText
 10
1973.400926625659
 20
935.2694925107243
 30
0.0
 40
4.478270362551226
 41
50.41858798863206
 46
13.0301182585288
 71
     5
 72
     5
  1
1241325101001
  7
Romans字体
 73
     1
 44
1.0
1001
ACAD
1000
ACAD_MTEXT_DEFINED_HEIGHT_BEGIN
1070
    46
1040
13.0301182585288
1000
ACAD_MTEXT_DEFINED_HEIGHT_END
  0
LINE
  5
3D6
330
2
100
AcDbEntity
  8
0
  6
Continuous
 62
     7
100
AcDbLine
 10
1630.352377402353
 20
1069.836319103531
 30
0.0
 11
1630.352377402353
 21
1061.036319103531
 31
0.0
  0
LINE
  5
3D7
330
2
100
AcDbEntity
  8
0
  6
Continuous
 62
     7
100
AcDbLine
 10
1740.352377402993
 20
1061.036319103531
 30
0.0
 11
1740.352377402993
 21
1069.836319103531
 31
0.0
  0
LINE
  5
3D8
330
2
100
AcDbEntity
  8
0
  6
Continuous
 62
     7
100
AcDbLine
 10
1807.460146938233
 20
1061.036319103531
 30
0.0
 11
1807.460146938233
 21
1057.436001786951
 31
0.0
  0
LINE
  5
3D9
330
2
100
AcDbEntity
  8
0
  6
Continuous
 62
     7
100
AcDbLine
 10
1807.460146938233
 20
1056.835995438071
 30
0.0
 11
1807.460146938233
 21
1056.935995438731
 31
0.0
  0
LINE
  5
3DA
330
2
100
AcDbEntity
  8
0
  6
Continuous
 62
     7
100
AcDbLine
 10
1807.461601360013
 20
1057.436014476791
 30
0.0
 11
1807.461601360013
 21
1056.936008131111
 31
0.0
  0
ELLIPSE
  5
3DB
330
2
100
AcDbEntity
  8
0
  6
Continuous
 62
     7
100
AcDbEllipse
 10
1638.352377402353
 20
1065.436319103532
 30
0.0
 11
0.0
 21
4.249999998839998
 31
0.0
210
0.0
220
0.0
230
1.0
 40
0.0087268678
 41
-3.1415926536
 42
0.0
  0
DIMENSION
  5
3DC
330
2
100
AcDbEntity
  8
Dim
100
AcDbDimension
  2
*D1
 10
1740.352377402993
 20
1042.196034066902
 30
0.0
 11
1685.352377402673
 21
1044.696034066902
 31
0.0
  1
<>
 71
     5
 42
110.00000000064
 73
     0
 74
     0
 75
     0
  3
01
100
AcDbAlignedDimension
 13
1630.352377402353
 23
1061.036319103531
 33
0.0
 14
1740.352377402993
 24
1061.036319103531
 34
0.0
100
AcDbRotatedDimension
1001
ACAD
1000
DSTYLE
1002
{
1070
   271
1070
     0
1002
}
  0
CIRCLE
  5
3E9
330
2
100
AcDbEntity
  8
0
  6
Continuous
 62
     7
100
AcDbCircle
 10
1807.460146938233
 20
1065.436319103532
 30
0.0
 40
4.4
  0
LINE
  5
3EA
330
2
100
AcDbEntity
  8
0
  6
Continuous
 62
     7
100
AcDbLine
 10
1630.352377402353
 20
1069.836319103531
 30
0.0
 11
1638.352377402353
 21
1069.836319103531
 31
0.0
  0
LINE
  5
3EB
330
2
100
AcDbEntity
  8
0
  6
Continuous
 62
     7
100
AcDbLine
 10
1732.352377402993
 20
1069.836319103531
 30
0.0
 11
1740.352377402993
 21
1069.836319103531
 31
0.0
  0
LINE
  5
3EC
330
2
100
AcDbEntity
  8
0
  6
Continuous
 62
     7
100
AcDbLine
 10
1630.352377402353
 20
1061.036319103531
 30
0.0
 11
1638.352377402353
 21
1061.036319103531
 31
0.0
  0
LINE
  5
3ED
330
2
100
AcDbEntity
  8
0
  6
Continuous
 62
     7
100
AcDbLine
 10
1732.352377402993
 20
1061.036319103531
 30
0.0
 11
1740.352377402993
 21
1061.036319103531
 31
0.0
  0
MTEXT
  5
3EE
102
{ACAD_XDICTIONARY
360
CB5
102
}
330
2
100
AcDbEntity
  8
打标文字
 62
     3
100
AcDbMText
 10
1869.227993554753
 20
1130.13553756284
 30
0.0
 40
4.5
 41
129.382227065222
 46
161.7354166437583
 71
     1
 72
     5
  3
\A1;{\f仿宋_GB2312|b0|i0|c134|p49;技术参数：}\P- {\f仿宋_GB2312|b0|i0|c134|p49;材料}: {\f仿宋_GB2312|b0|i0|c134|p49;压铸铝}\P- {\f仿宋_GB2312|b0|i0|c134|p49;表面处理}: {\f仿宋_GB2312|b0|i0|c134|p49;粉末喷涂}\P- {\f仿宋_GB2312|b0|i0|c134|p49;颜色}: RAL 7037{\f仿宋_GB2312|b0|i0|c134|p4
  3
9;（灰色）} \P- {\f仿宋_GB2312|b0|i0|c134|p49;温度范围}: -40{\f仿宋_GB2312|b0|i0|c134|p49;℃} - +125{\f仿宋_GB2312|b0|i0|c134|p49;℃}\P- {\f仿宋_GB2312|b0|i0|c134|p49;防护等级}: IP67{\f仿宋_GB2312|b0|i0|c134|p49;（联锁状态},IEC 60529)    \P- {\f仿宋_GB2312|b0|i0|c134|p49;出线方向}: {\
  3
f仿宋_GB2312|b0|i0|c134|p49;侧出线}\P- {\f仿宋_GB2312|b0|i0|c134|p49;出线孔数}: 1\P- {\f仿宋_GB2312|b0|i0|c134|p49;螺纹规格}: M32\P\PTechnical specification:\P- Material: aluminium die-cast\P- Surface: powder-coated\P- Colour: RAL 7037(grey)\P- Temperature range: -40
  1
{\f仿宋_GB2312|b0|i0|c134|p49;℃} - +125{\f仿宋_GB2312|b0|i0|c134|p49;℃}\P- Degree of protection: IP67\P  (acc.to IEC 60529 for coupled connector)\P- Cable entry: side entry\P- No. of cable entries: 1\P- Thread size: M32
  7
Romans字体
 73
     1
 44
1.0
1001
ACAD
1000
ACAD_MTEXT_DEFINED_HEIGHT_BEGIN
1070
    46
1040
161.7354166437583
1000
ACAD_MTEXT_DEFINED_HEIGHT_END
  0
LINE
  5
806
330
2
100
AcDbEntity
  8
1
  6
Continuous
 62
     0
370
    20
100
AcDbLine
 10
1705.944485126777
 20
1120.119342839153
 30
0.0
 11
1705.944485126777
 21
1120.874760624351
 31
0.0
  0
LINE
  5
807
330
2
100
AcDbEntity
  8
1
  6
Continuous
 62
     0
370
    20
100
AcDbLine
 10
1705.944485126777
 20
1124.338862239489
 30
0.0
 11
1705.944485126777
 21
1125.094280024686
 31
0.0
  0
LINE
  5
808
330
2
100
AcDbEntity
  8
1
  6
Continuous
 62
     0
370
    20
100
AcDbLine
 10
1710.194485126777
 20
1120.119342839154
 30
0.0
 11
1710.194485126777
 21
1120.874760624351
 31
0.0
  0
LINE
  5
809
330
2
100
AcDbEntity
  8
1
  6
Continuous
 62
     0
370
    20
100
AcDbLine
 10
1708.23513583538
 20
1122.23181143192
 30
0.0
 11
1709.694485126777
 21
1122.23181143192
 31
0.0
  0
LINE
  5
80A
330
2
100
AcDbEntity
  8
1
  6
Continuous
 62
     0
370
    20
100
AcDbLine
 10
1709.694485126777
 20
1122.23181143192
 30
0.0
 11
1709.694485126777
 21
1122.98181143192
 31
0.0
  0
LINE
  5
80B
330
2
100
AcDbEntity
  8
1
  6
Continuous
 62
     0
370
    20
100
AcDbLine
 10
1709.694485126777
 20
1122.98181143192
 30
0.0
 11
1708.23513583538
 21
1122.98181143192
 31
0.0
  0
LINE
  5
80C
330
2
100
AcDbEntity
  8
1
  6
Continuous
 62
     0
370
    20
100
AcDbLine
 10
1710.194485126777
 20
1124.338862239488
 30
0.0
 11
1710.194485126777
 21
1125.094280024686
 31
0.0
  0
ARC
  5
93C
330
2
100
AcDbEntity
  8
1
  6
Continuous
 62
     0
370
    20
100
AcDbCircle
 10
1705.694485126777
 20
1122.60681143192
 30
0.0
 40
1.75
100
AcDbArc
 50
81.78678929840849
 51
278.2132107017495
  0
ARC
  5
93D
330
2
100
AcDbEntity
  8
1
  6
Continuous
 62
     0
370
    20
100
AcDbCircle
 10
1705.694485126777
 20
1122.60681143192
 30
0.0
 40
2.5
100
AcDbArc
 50
84.26082952273846
 51
275.7391704772615
  0
ARC
  5
93E
330
2
100
AcDbEntity
  8
1
  6
Continuous
 62
     0
370
    20
100
AcDbCircle
 10
1709.944485126777
 20
1122.60681143192
 30
0.0
 40
1.75
100
AcDbArc
 50
192.3736251161855
 51
278.2132107017495
  0
ARC
  5
93F
330
2
100
AcDbEntity
  8
1
  6
Continuous
 62
     0
370
    20
100
AcDbCircle
 10
1709.944485126777
 20
1122.60681143192
 30
0.0
 40
1.75
100
AcDbArc
 50
81.78678929819787
 51
167.6263748838144
  0
ARC
  5
940
330
2
100
AcDbEntity
  8
1
  6
Continuous
 62
     0
370
    20
100
AcDbCircle
 10
1709.944485126777
 20
1122.60681143192
 30
0.0
 40
2.5
100
AcDbArc
 50
84.26082952273846
 51
275.7391704774711
  0
LINE
  5
B74
330
2
100
AcDbEntity
  8
1
  6
Continuous
 62
     0
370
    20
100
AcDbLine
 10
1667.378169618691
 20
1022.184534306105
 30
-0.0000000000000027
 11
1601.455258286105
 21
1018.422847598139
 31
-0.0000000000000036
  0
LINE
  5
B75
330
2
100
AcDbEntity
  8
1
  6
Continuous
 62
     0
370
    20
100
AcDbLine
 10
1597.718221179758
 20
1014.957980569426
 30
0.0
 11
1589.948262025755
 21
956.6812482615942
 31
-0.0000000000000018
  0
LINE
  5
B76
330
2
100
AcDbEntity
  8
1
  6
Continuous
 62
     0
370
    20
100
AcDbLine
 10
1680.096400578627
 20
1015.08966123749
 30
0.0000000000000012
 11
1669.728836806337
 21
1021.58127561412
 31
-0.0000000000000004
  0
LINE
  5
B77
330
2
100
AcDbEntity
  8
1
  6
Continuous
 62
     0
370
    20
100
AcDbLine
 10
1594.924050001386
 20
922.7971307993776
 30
-0.0000000000000021
 11
1599.973342831798
 21
919.0999951868697
 31
0.0000000000000009
  0
LINE
  5
B78
330
2
100
AcDbEntity
  8
1
  6
Continuous
 62
     0
370
    20
100
AcDbLine
 10
1599.523598668313
 20
931.5734811611484
 30
0.0
 11
1590.75635835322
 21
931.0732057532186
 31
-0.0000000000000009
  0
LINE
  5
B79
330
2
100
AcDbEntity
  8
1
  6
Continuous
 62
     0
370
    20
100
AcDbLine
 10
1591.240596806272
 20
922.5870103088167
 30
0.0000000000000009
 11
1600.007837121365
 21
923.0872857167467
 31
0.0000000000000004
  0
LINE
  5
B7A
330
2
100
AcDbEntity
  8
1
  6
Continuous
 62
     0
370
    20
100
AcDbLine
 10
1690.12996696852
 20
1007.78697542681
 30
0.0000000000000044
 11
1680.304854266607
 21
1014.948682359636
 31
0.0000000000000003
  0
LINE
  5
B7B
330
2
100
AcDbEntity
  8
1
  6
Continuous
 62
     0
370
    20
100
AcDbLine
 10
1600.000905523154
 20
919.0813500694982
 30
-0.0000000000000009
 11
1609.48418244011
 21
913.168922553212
 31
0.0000000000000088
  0
LINE
  5
B7C
330
2
100
AcDbEntity
  8
1
  6
Continuous
 62
     0
370
    20
100
AcDbLine
 10
1677.979351007024
 20
977.9382640484671
 30
0.0000000000000009
 11
1678.114705070395
 21
977.846744135591
 31
-0.0000000000000009
  0
LINE
  5
B7D
330
2
100
AcDbEntity
  8
1
  6
Continuous
 62
     0
370
    20
100
AcDbLine
 10
1673.888065143891
 20
977.70480749537
 30
0.0000000000000018
 11
1674.023419207262
 21
977.613287582494
 31
-0.0000000000000027
  0
LINE
  5
B7E
330
2
100
AcDbEntity
  8
1
  6
Continuous
 62
     0
370
    20
100
AcDbLine
 10
1699.903404959326
 20
947.7513132596429
 30
0.0
 11
1691.733848490106
 21
1005.118506488582
 31
-0.0000000000000036
  0
LINE
  5
B7F
330
2
100
AcDbEntity
  8
1
  6
Continuous
 62
     0
370
    20
100
AcDbLine
 10
1618.180444347916
 20
912.286736114081
 30
-0.000000000000008
 11
1693.997996522351
 21
916.6130298483825
 31
0.0
  0
LINE
  5
B80
330
2
100
AcDbEntity
  8
1
  6
Continuous
 62
     0
370
    20
100
AcDbLine
 10
1667.091740492414
 20
958.6558350325475
 30
0.0000000000000071
 11
1644.462067760581
 21
957.3645428642068
 31
0.0000000000000024
  0
LINE
  5
B81
330
2
100
AcDbEntity
  8
1
  6
Continuous
 62
     0
370
    20
100
AcDbLine
 10
1686.633971052175
 20
966.876517166944
 30
0.0000000000000036
 11
1667.914348054846
 21
958.8507934995991
 31
0.0
  0
LINE
  5
B82
330
2
100
AcDbEntity
  8
1
  6
Continuous
 62
     0
370
    20
100
AcDbLine
 10
1684.37816529081
 20
996.3443012231946
 30
0.0000000000000044
 11
1688.184921580063
 21
969.6129940287628
 31
0.0
  0
LINE
  5
B83
330
2
100
AcDbEntity
  8
1
  6
Continuous
 62
     0
370
    20
100
AcDbLine
 10
1679.137735880585
 20
980.3636346842942
 30
0.0000000000000036
 11
1677.892313857195
 21
980.29256853481
 31
-0.000000000000002
  0
LINE
  5
B84
330
2
100
AcDbEntity
  8
1
  6
Continuous
 62
     0
370
    20
100
AcDbLine
 10
1611.480056878984
 20
1011.841085936952
 30
0.0
 11
1621.846773633185
 21
1004.712616796986
 31
0.0000000000000107
  0
LINE
  5
B85
330
2
100
AcDbEntity
  8
1
  6
Continuous
 62
     0
370
    20
100
AcDbLine
 10
1628.113382145723
 20
996.7485229278794
 30
0.0000000000000036
 11
1629.297969752727
 21
995.3141409423039
 31
-0.0000000000000036
  0
LINE
  5
B86
330
2
100
AcDbEntity
  8
1
  6
Continuous
 62
     0
370
    20
100
AcDbLine
 10
1621.737042218043
 20
964.4959160681255
 30
0.0000000000000062
 11
1623.301494964497
 21
965.910622296011
 31
0.0000000000000053
  0
LINE
  5
B87
330
2
100
AcDbEntity
  8
1
  6
Continuous
 62
     0
370
    20
100
AcDbLine
 10
1623.3014949645
 20
965.9106222960105
 30
0.0000000000000036
 11
1626.92205147672
 21
993.0657460857318
 31
0.0000000000000018
  0
LINE
  5
B88
330
2
100
AcDbEntity
  8
1
  6
Continuous
 62
     0
370
    20
100
AcDbLine
 10
1626.922051476722
 20
993.0657460857306
 30
0.0000000000000036
 11
1625.737463869718
 21
994.5001280713064
 31
0.0000000000000036
  0
LINE
  5
B89
330
2
100
AcDbEntity
  8
1
  6
Continuous
 62
     0
370
    20
100
AcDbLine
 10
1618.04544913988
 20
1001.115322005648
 30
0.0000000000000089
 11
1607.678732385573
 21
1008.243791145686
 31
0.0000000000000036
  0
LINE
  5
B8A
330
2
100
AcDbEntity
  8
1
  6
Continuous
 62
     0
370
    20
100
AcDbLine
 10
1599.868855121335
 20
949.6676727868607
 30
0.0000000000000018
 11
1607.678732391893
 21
1008.243791192023
 31
0.0000000000000036
  0
LINE
  5
B8B
330
2
100
AcDbEntity
  8
1
  6
Continuous
 62
     0
370
    20
100
AcDbLine
 10
1610.275489985878
 20
942.8385896978024
 30
0.0000000000000036
 11
1599.868856439847
 21
949.6676724394028
 31
0.0000000000000018
  0
LINE
  5
B8C
330
2
100
AcDbEntity
  8
1
  6
Continuous
 62
     0
370
    20
100
AcDbLine
 10
1687.769684965777
 20
1008.474303504955
 30
-0.0000000000000062
 11
1621.846773633187
 21
1004.712616796989
 31
0.0
  0
LINE
  5
B8D
330
2
100
AcDbEntity
  8
1
  6
Continuous
 62
     0
370
    20
100
AcDbLine
 10
1628.113382145725
 20
996.7485229278819
 30
0.0000000000000036
 11
1683.701903140525
 21
999.9205096668573
 31
0.000000000000008
  0
LINE
  5
B8E
330
2
100
AcDbEntity
  8
1
  6
Continuous
 62
     0
370
    20
100
AcDbLine
 10
1686.092419864936
 20
997.944096657306
 30
0.0000000000000062
 11
1690.298577186539
 21
968.4081676593626
 31
0.0000000000000053
  0
LINE
  5
B8F
330
2
100
AcDbEntity
  8
1
  6
Continuous
 62
     0
370
    20
100
AcDbLine
 10
1688.747626658657
 20
965.6716907975429
 30
0.0000000000000018
 11
1668.484932830728
 21
956.9844014519091
 31
0.0000000000000036
  0
LINE
  5
B90
330
2
100
AcDbEntity
  8
1
  6
Continuous
 62
     0
370
    20
100
AcDbLine
 10
1667.662325268296
 20
956.7894429848715
 30
0.0000000000000027
 11
1644.444648524538
 21
955.464598189182
 31
0.0000000000000027
  0
LINE
  5
B91
330
2
100
AcDbEntity
  8
1
  6
Continuous
 62
     0
370
    20
100
AcDbLine
 10
1643.621018231328
 20
955.5656191930159
 30
0.0000000000000038
 11
1623.306288834939
 21
961.9374835901002
 31
0.000000000000008
  0
LINE
  5
B92
330
2
100
AcDbEntity
  8
1
  6
Continuous
 62
     0
370
    20
100
AcDbLine
 10
1621.737042218045
 20
964.4959160681251
 30
0.0000000000000062
 11
1625.737463869716
 21
994.500128071308
 31
0.0000000000000036
  0
LINE
  5
B93
330
2
100
AcDbEntity
  8
1
  6
Continuous
 62
     0
370
    20
100
AcDbLine
 10
1668.910424039048
 20
927.4077656925554
 30
0.0
 11
1696.020539840504
 21
928.9547204644291
 31
0.0
  0
LINE
  5
B94
330
2
100
AcDbEntity
  8
1
  6
Continuous
 62
     0
370
    20
100
AcDbLine
 10
1668.110118197789
 20
950.0307929125231
 30
0.0000000000000053
 11
1668.185888621023
 21
928.1027447280683
 31
0.0000000000000018
  0
LINE
  5
B95
330
2
100
AcDbEntity
  8
1
  6
Continuous
 62
     0
370
    20
100
AcDbLine
 10
1694.81312704761
 20
961.9954995699908
 30
0.0000000000000036
 11
1668.582783756851
 21
950.7496808384239
 31
0.0000000000000036
  0
LINE
  5
B96
330
2
100
AcDbEntity
  8
1
  6
Continuous
 62
     0
370
    20
100
AcDbLine
 10
1694.81312704761
 20
961.9954995699908
 30
0.0000000000000036
 11
1688.856634487136
 21
1003.822404246015
 31
0.0000000000000018
  0
LINE
  5
B97
330
2
100
AcDbEntity
  8
1
  6
Continuous
 62
     0
370
    20
100
AcDbLine
 10
1622.933723154548
 20
1000.060717538049
 30
0.0000000000000036
 11
1688.856634487137
 21
1003.822404246014
 31
0.0000000000000018
  0
LINE
  5
B98
330
2
100
AcDbEntity
  8
1
  6
Continuous
 62
     0
370
    20
100
AcDbLine
 10
1617.268580368621
 20
957.5706602446157
 30
0.000000000000008
 11
1643.566284437542
 21
949.3221918051785
 31
0.0000000000000084
  0
LINE
  5
B99
330
2
100
AcDbEntity
  8
1
  6
Continuous
 62
     0
370
    20
100
AcDbLine
 10
1644.043730767596
 20
948.6575190708149
 30
0.0000000000000075
 11
1644.119501190831
 21
926.7294708863188
 31
0.000000000000008
  0
LINE
  5
B9A
330
2
100
AcDbEntity
  8
1
  6
Continuous
 62
     0
370
    20
100
AcDbLine
 10
1643.40005336304
 20
925.9520954203024
 30
0.0000000000000036
 11
1616.289937561582
 21
924.4051406484285
 31
0.0000000000000015
  0
LINE
  5
B9B
330
2
100
AcDbEntity
  8
1
  6
Continuous
 62
     0
370
    20
100
AcDbLine
 10
1618.287313796402
 20
912.6944041685227
 30
0.0000000000000009
 11
1694.104865970838
 21
917.0206979028241
 31
0.0000000000000036
  0
LINE
  5
B9C
330
2
100
AcDbEntity
  8
1
  6
Continuous
 62
     0
370
    20
100
AcDbLine
 10
1611.318429525768
 20
942.4348546512796
 30
0.0000000000000009
 11
1613.056842368744
 21
955.4734070918582
 31
0.0
  0
LINE
  5
B9D
330
2
100
AcDbEntity
  8
1
  6
Continuous
 62
     0
370
    20
100
AcDbLine
 10
1622.933723154548
 20
1000.060717538049
 30
0.0000000000000036
 11
1617.26858036862
 21
957.5706602446157
 31
0.000000000000008
  0
LINE
  5
B9E
330
2
100
AcDbEntity
  8
1
  6
Continuous
 62
     0
370
    20
100
AcDbLine
 10
1618.045449139882
 20
1001.115322005647
 30
0.0
 11
1610.27548998588
 21
942.838589697817
 31
-0.0000000000000009
  0
LINE
  5
B9F
330
2
100
AcDbEntity
  8
1
  6
Continuous
 62
     0
370
    20
100
AcDbLine
 10
1595.227846589733
 20
922.8144422298468
 30
-0.0000000000000025
 11
1599.785777574967
 21
919.4770859839655
 31
0.0000000000000022
  0
LINE
  5
BA0
330
2
100
AcDbEntity
  8
1
  6
Continuous
 62
     0
370
    20
100
AcDbLine
 10
1589.910981494988
 20
953.7450384995063
 30
-0.0000000000000018
 11
1599.690934018305
 21
946.9249233022271
 31
0.0000000000000009
  0
LINE
  5
BA1
330
2
100
AcDbEntity
  8
1
  6
Continuous
 62
     0
370
    20
100
AcDbLine
 10
1677.947540321786
 20
1015.633846965296
 30
0.0000000000000004
 11
1667.583030770767
 21
1022.123548951788
 31
0.0
  0
LINE
  5
BA2
330
2
100
AcDbEntity
  8
1
  6
Continuous
 62
     0
370
    20
100
AcDbLine
 10
1601.660119438181
 20
1018.361862243823
 30
-0.0000000000000036
 11
1667.583030770768
 21
1022.123548951789
 31
0.0000000000000022
  0
LINE
  5
BA3
330
2
100
AcDbEntity
  8
1
  6
Continuous
 62
     0
370
    20
100
AcDbLine
 10
1601.660119438173
 20
1018.361862243824
 30
-0.0000000000000036
 11
1611.480056878985
 21
1011.841085936953
 31
-0.0000000000000036
  0
LINE
  5
BA4
330
2
100
AcDbEntity
  8
1
  6
Continuous
 62
     0
370
    20
100
AcDbLine
 10
1607.678732385769
 20
1008.243791145551
 30
0.0
 11
1597.858794944867
 21
1014.764567452482
 31
0.0
  0
LINE
  5
BA5
330
2
100
AcDbEntity
  8
1
  6
Continuous
 62
     0
370
    20
100
AcDbLine
 10
1590.088835790865
 20
956.4878351446381
 30
0.0000000000000036
 11
1597.85879494487
 21
1014.764567452485
 31
-0.0000000000000036
  0
LINE
  5
BA6
330
2
100
AcDbEntity
  8
1
  6
Continuous
 62
     0
370
    20
100
AcDbLine
 10
1599.868856443115
 20
949.667672437193
 30
0.0
 11
1590.088835790865
 21
956.4878351446383
 31
0.0000000000000018
  0
LINE
  5
BA7
330
2
100
AcDbEntity
  8
1
  6
Continuous
 62
     0
370
    20
100
AcDbLine
 10
1670.301209500475
 20
929.3860772565718
 30
0.0000000000000053
 11
1668.910424039048
 21
927.407765692558
 31
0.0000000000000018
  0
LINE
  5
BA8
330
2
100
AcDbEntity
  8
1
  6
Continuous
 62
     0
370
    20
100
AcDbLine
 10
1684.122314613675
 20
968.4149669224709
 30
0.0
 11
1684.108779207338
 21
968.4241189137583
 31
0.0000000000000018
  0
LINE
  5
BA9
330
2
100
AcDbEntity
  8
1
  6
Continuous
 62
     0
370
    20
100
AcDbLine
 10
1682.94525757606
 20
971.5866708967817
 30
0.0000000000000071
 11
1682.958792982397
 21
971.5775189054939
 31
0.0000000000000036
  0
LINE
  5
BAA
330
2
100
AcDbEntity
  8
1
  6
Continuous
 62
     0
370
    20
100
AcDbLine
 10
1681.545355622654
 20
970.9864864677967
 30
0.0000000000000053
 11
1681.680709686026
 21
970.8949665549207
 31
0.0000000000000036
  0
LINE
  5
BAB
330
2
100
AcDbEntity
  8
1
  6
Continuous
 62
     0
370
    20
100
AcDbLine
 10
1682.041817347874
 20
971.1993360865418
 30
0.0000000000000036
 11
1682.177171411246
 21
971.1078161736656
 31
0.0
  0
LINE
  5
BAC
330
2
100
AcDbEntity
  8
1
  6
Continuous
 62
     0
370
    20
100
AcDbLine
 10
1682.458849581818
 20
968.5035312270967
 30
0.0000000000000036
 11
1682.59420364519
 21
968.4120113142204
 31
0.0
  0
LINE
  5
BAD
330
2
100
AcDbEntity
  8
1
  6
Continuous
 62
     0
370
    20
100
AcDbLine
 10
1668.185888621025
 20
928.1027447280683
 30
0.0000000000000036
 11
1669.576674082452
 21
930.0810562920815
 31
0.0
  0
LINE
  5
BAE
330
2
100
AcDbEntity
  8
1
  6
Continuous
 62
     0
370
    20
100
AcDbLine
 10
1677.606131537856
 20
965.6362180404979
 30
0.0000000000000036
 11
1677.741485601227
 21
965.5446981276218
 31
0.0000000000000036
  0
LINE
  5
BAF
330
2
100
AcDbEntity
  8
1
  6
Continuous
 62
     0
370
    20
100
AcDbLine
 10
1680.12247181447
 20
966.7150566322803
 30
0.0000000000000071
 11
1680.257825877841
 21
966.6235367194042
 31
0.0000000000000036
  0
LINE
  5
BB0
330
2
100
AcDbEntity
  8
1
  6
Continuous
 62
     0
370
    20
100
AcDbLine
 10
1669.510891771834
 20
949.1185331243871
 30
0.0000000000000036
 11
1668.11011819779
 21
950.030792912524
 31
-0.0000000000000018
  0
LINE
  5
BB1
330
2
100
AcDbEntity
  8
1
  6
Continuous
 62
     0
370
    20
100
AcDbLine
 10
1678.958950183199
 20
969.8776086153023
 30
0.0
 11
1679.094304246571
 21
969.786088702426
 31
0.0
  0
LINE
  5
BB2
330
2
100
AcDbEntity
  8
1
  6
Continuous
 62
     0
370
    20
100
AcDbLine
 10
1679.49044448984
 20
970.1054778644039
 30
0.0000000000000036
 11
1679.625798553212
 21
970.0139579515276
 31
0.0000000000000036
  0
LINE
  5
BB3
330
2
100
AcDbEntity
  8
1
  6
Continuous
 62
     0
370
    20
100
AcDbLine
 10
1680.75428760306
 20
966.836386338149
 30
0.0000000000000018
 11
1679.839900687924
 21
969.3217687100725
 31
-0.0000000000000018
  0
LINE
  5
BB4
330
2
100
AcDbEntity
  8
1
  6
Continuous
 62
     0
370
    20
100
AcDbLine
 10
1679.839900687924
 20
969.3217687100728
 30
0.0000000000000053
 11
1682.809198735876
 21
967.7173949415433
 31
0.0
  0
LINE
  5
BB5
330
2
100
AcDbEntity
  8
1
  6
Continuous
 62
     0
370
    20
100
AcDbLine
 10
1682.809198735876
 20
967.7173949415424
 30
-0.0000000000000036
 11
1683.340693042514
 21
967.9452641906427
 31
0.0000000000000071
  0
LINE
  5
BB6
330
2
100
AcDbEntity
  8
1
  6
Continuous
 62
     0
370
    20
100
AcDbLine
 10
1683.340693042516
 20
967.9452641906442
 30
0.0000000000000053
 11
1682.177171411246
 21
971.1078161736656
 31
0.0
  0
LINE
  5
BB7
330
2
100
AcDbEntity
  8
1
  6
Continuous
 62
     0
370
    20
100
AcDbLine
 10
1682.177171411244
 20
971.1078161736645
 30
0.0000000000000036
 11
1681.680709686019
 21
970.8949665549177
 31
0.0000000000000071
  0
LINE
  5
BB8
330
2
100
AcDbEntity
  8
1
  6
Continuous
 62
     0
370
    20
100
AcDbLine
 10
1681.680709686026
 20
970.8949665549223
 30
0.0000000000000018
 11
1682.594203645188
 21
968.4120113142261
 31
0.0
  0
LINE
  5
BB9
330
2
100
AcDbEntity
  8
1
  6
Continuous
 62
     0
370
    20
100
AcDbLine
 10
1682.594203645183
 20
968.4120113142247
 30
0.0000000000000036
 11
1679.625798553212
 21
970.0139579515278
 31
0.0000000000000018
  0
LINE
  5
BBA
330
2
100
AcDbEntity
  8
1
  6
Continuous
 62
     0
370
    20
100
AcDbLine
 10
1679.625798553211
 20
970.0139579515273
 30
0.0000000000000018
 11
1679.094304246574
 21
969.7860887024274
 31
0.0000000000000053
  0
LINE
  5
BBB
330
2
100
AcDbEntity
  8
1
  6
Continuous
 62
     0
370
    20
100
AcDbLine
 10
1679.094304246571
 20
969.786088702426
 30
0.0000000000000053
 11
1680.257825877841
 21
966.6235367194042
 31
0.0000000000000036
  0
LINE
  5
BBC
330
2
100
AcDbEntity
  8
1
  6
Continuous
 62
     0
370
    20
100
AcDbLine
 10
1680.257825877844
 20
966.6235367194055
 30
0.0
 11
1680.75428760306
 21
966.8363863381486
 31
0.0000000000000018
  0
LINE
  5
BBD
330
2
100
AcDbEntity
  8
1
  6
Continuous
 62
     0
370
    20
100
AcDbLine
 10
1678.697146216262
 20
966.1039722429809
 30
0.0000000000000036
 11
1678.832500279633
 21
966.0124523301048
 31
0.0000000000000036
  0
LINE
  5
BBE
330
2
100
AcDbEntity
  8
1
  6
Continuous
 62
     0
370
    20
100
AcDbLine
 10
1698.405802014234
 20
946.969113573219
 30
-0.0000000000000036
 11
1696.385366400605
 21
961.1567528520941
 31
0.0000000000000036
  0
LINE
  5
BBF
330
2
100
AcDbEntity
  8
1
  6
Continuous
 62
     0
370
    20
100
AcDbLine
 10
1669.510891771833
 20
949.1185331243864
 30
0.0
 11
1669.576674082451
 21
930.0810562920821
 31
0.0
  0
LINE
  5
BC0
330
2
100
AcDbEntity
  8
1
  6
Continuous
 62
     0
370
    20
100
AcDbLine
 10
1670.301209500474
 20
929.3860772565693
 30
0.0000000000000036
 11
1698.137625578934
 21
930.9744761036935
 31
0.0000000000000036
  0
LINE
  5
BC1
330
2
100
AcDbEntity
  8
1
  6
Continuous
 62
     0
370
    20
100
AcDbLine
 10
1679.350982484596
 20
966.234742859358
 30
0.0
 11
1678.187460853325
 21
969.3972948423803
 31
0.0
  0
LINE
  5
BC2
330
2
100
AcDbEntity
  8
1
  6
Continuous
 62
     0
370
    20
100
AcDbLine
 10
1677.668978648356
 20
969.1750043131266
 30
-0.0000000000000018
 11
1678.832500279628
 21
966.0124523301023
 31
0.0
  0
LINE
  5
BC3
330
2
100
AcDbEntity
  8
1
  6
Continuous
 62
     0
370
    20
100
AcDbLine
 10
1678.832500279631
 20
966.0124523301055
 30
0.0
 11
1679.350982484596
 21
966.234742859358
 31
0.0000000000000036
  0
LINE
  5
BC4
330
2
100
AcDbEntity
  8
1
  6
Continuous
 62
     0
370
    20
100
AcDbLine
 10
1677.533624584991
 20
969.2665242260039
 30
0.0000000000000071
 11
1677.668978648363
 21
969.1750043131278
 31
0.0000000000000036
  0
LINE
  5
BC5
330
2
100
AcDbEntity
  8
1
  6
Continuous
 62
     0
370
    20
100
AcDbLine
 10
1678.187460853326
 20
969.39729484238
 30
0.0000000000000018
 11
1677.668978648357
 21
969.1750043131253
 31
0.0000000000000018
  0
LINE
  5
BC6
330
2
100
AcDbEntity
  8
1
  6
Continuous
 62
     0
370
    20
100
AcDbLine
 10
1678.052106789956
 20
969.4888147552576
 30
0.0000000000000036
 11
1678.187460853328
 21
969.3972948423816
 31
0.0
  0
LINE
  5
BC7
330
2
100
AcDbEntity
  8
1
  6
Continuous
 62
     0
370
    20
100
AcDbLine
 10
1675.333284106016
 20
966.1651074426114
 30
0.0000000000000067
 11
1676.511826659996
 21
966.6703877503289
 31
0.0000000000000036
  0
LINE
  5
BC8
330
2
100
AcDbEntity
  8
1
  6
Continuous
 62
     0
370
    20
100
AcDbLine
 10
1676.51385045393
 20
966.6712554179566
 30
0.0
 11
1676.649204449625
 21
966.5797355508404
 31
0.0000000000000018
  0
LINE
  5
BC9
330
2
100
AcDbEntity
  8
1
  6
Continuous
 62
     0
370
    20
100
AcDbLine
 10
1675.431669699986
 20
968.3653464047052
 30
0.0000000000000027
 11
1675.567023763357
 21
968.2738264918292
 31
0.0
  0
LINE
  5
BCA
330
2
100
AcDbEntity
  8
1
  6
Continuous
 62
     0
370
    20
100
AcDbLine
 10
1674.534274613051
 20
964.3192110245143
 30
0.0000000000000036
 11
1674.669628676423
 21
964.2276911116383
 31
0.0000000000000018
  0
LINE
  5
BCB
330
2
100
AcDbEntity
  8
1
  6
Continuous
 62
     0
370
    20
100
AcDbLine
 10
1674.873150259109
 20
968.1258905836148
 30
0.0000000000000062
 11
1675.00850432248
 21
968.0343706707388
 31
0.0000000000000036
  0
LINE
  5
BCC
330
2
100
AcDbEntity
  8
1
  6
Continuous
 62
     0
370
    20
100
AcDbLine
 10
1676.64799419978
 20
966.5792166017896
 30
0.0000000000000036
 11
1675.321019891827
 21
966.0102986748196
 31
0.0000000000000018
  0
LINE
  5
BCD
330
2
100
AcDbEntity
  8
1
  6
Continuous
 62
     0
370
    20
100
AcDbLine
 10
1675.321019891827
 20
966.0102986748196
 30
0.0000000000000018
 11
1675.407742382313
 21
967.1063186346747
 31
-0.0000000000000009
  0
LINE
  5
BCE
330
2
100
AcDbEntity
  8
1
  6
Continuous
 62
     0
370
    20
100
AcDbLine
 10
1675.219139739217
 20
964.4632847420638
 30
0.0
 11
1675.297120068318
 21
965.6057194184603
 31
0.0000000000000018
  0
LINE
  5
BCF
330
2
100
AcDbEntity
  8
1
  6
Continuous
 62
     0
370
    20
100
AcDbLine
 10
1675.29712006832
 20
965.6057194184578
 30
0.0000000000000036
 11
1676.932641155036
 21
966.306921589889
 31
0.0000000000000071
  0
LINE
  5
BD0
330
2
100
AcDbEntity
  8
1
  6
Continuous
 62
     0
370
    20
100
AcDbLine
 10
1676.932641155036
 20
966.3069215898909
 30
0.0000000000000018
 11
1677.741485601227
 21
965.5446981276218
 31
0.0000000000000036
  0
LINE
  5
BD1
330
2
100
AcDbEntity
  8
1
  6
Continuous
 62
     0
370
    20
100
AcDbLine
 10
1677.741485601227
 20
965.5446981276231
 30
-0.0000000000000036
 11
1678.331033899924
 21
965.797457049882
 31
0.0000000000000018
  0
LINE
  5
BD2
330
2
100
AcDbEntity
  8
1
  6
Continuous
 62
     0
370
    20
100
AcDbLine
 10
1678.331033899924
 20
965.7974570498806
 30
0.0000000000000036
 11
1675.567023763358
 21
968.2738264918292
 31
0.0
  0
LINE
  5
BD3
330
2
100
AcDbEntity
  8
1
  6
Continuous
 62
     0
370
    20
100
AcDbLine
 10
1675.567023763358
 20
968.2738264918288
 30
0.0000000000000036
 11
1675.008504322484
 21
968.0343706707404
 31
0.0000000000000044
  0
LINE
  5
BD4
330
2
100
AcDbEntity
  8
1
  6
Continuous
 62
     0
370
    20
100
AcDbLine
 10
1675.008504322481
 20
968.0343706707411
 30
0.0000000000000044
 11
1674.669628676423
 21
964.2276911116393
 31
-0.0000000000000036
  0
LINE
  5
BD5
330
2
100
AcDbEntity
  8
1
  6
Continuous
 62
     0
370
    20
100
AcDbLine
 10
1674.669628676426
 20
964.2276911116383
 30
0.0000000000000036
 11
1675.219139739219
 21
964.4632847420631
 31
0.0
  0
LINE
  5
BD6
330
2
100
AcDbEntity
  8
1
  6
Continuous
 62
     0
370
    20
100
AcDbLine
 10
1673.134115649317
 20
967.230758037185
 30
0.0000000000000027
 11
1672.998761585945
 21
967.3222779500612
 31
0.0000000000000062
  0
LINE
  5
BD7
330
2
100
AcDbEntity
  8
1
  6
Continuous
 62
     0
370
    20
100
AcDbLine
 10
1673.520892616427
 20
967.5461328519148
 30
-0.0000000000000009
 11
1673.656246679799
 21
967.4546129390389
 31
-0.0000000000000036
  0
LINE
  5
BD8
330
2
100
AcDbEntity
  8
1
  6
Continuous
 62
     0
370
    20
100
AcDbLine
 10
1683.53777373093
 20
967.1331978226547
 30
0.0000000000000018
 11
1683.551309137267
 21
967.1240458313672
 31
-0.0000000000000018
  0
LINE
  5
BD9
330
2
100
AcDbEntity
  8
1
  6
Continuous
 62
     0
370
    20
100
AcDbLine
 10
1669.999705714381
 20
961.3140236777665
 30
0.0000000000000027
 11
1669.986170308044
 21
961.323175669054
 31
-0.0000000000000018
  0
LINE
  5
BDA
330
2
100
AcDbEntity
  8
1
  6
Continuous
 62
     0
370
    20
100
AcDbLine
 10
1673.112362570341
 20
963.7095901397508
 30
0.0000000000000062
 11
1673.247716633713
 21
963.6180702268747
 31
0.0000000000000009
  0
LINE
  5
BDB
330
2
100
AcDbEntity
  8
1
  6
Continuous
 62
     0
370
    20
100
AcDbLine
 10
1607.025336677014
 20
914.7019137269236
 30
0.0000000000000036
 11
1609.994217089241
 21
912.760020189809
 31
0.0000000000000051
  0
LINE
  5
BDC
330
2
100
AcDbEntity
  8
1
  6
Continuous
 62
     0
370
    20
100
AcDbLine
 10
1670.878733939465
 20
963.7910264899192
 30
0.0000000000000036
 11
1670.743379876094
 21
963.8825464027954
 31
0.0000000000000062
  0
LINE
  5
BDD
330
2
100
AcDbEntity
  8
1
  6
Continuous
 62
     0
370
    20
100
AcDbLine
 10
1670.8376252721
 20
966.2461763939068
 30
-0.0000000000000027
 11
1670.702271208728
 21
966.3376963067829
 31
0.0000000000000018
  0
LINE
  5
BDE
330
2
100
AcDbEntity
  8
1
  6
Continuous
 62
     0
370
    20
100
AcDbLine
 10
1671.326852088845
 20
966.605474859398
 30
0.0000000000000053
 11
1671.462206152217
 21
966.5139549465219
 31
0.0000000000000018
  0
LINE
  5
BDF
330
2
100
AcDbEntity
  8
1
  6
Continuous
 62
     0
370
    20
100
AcDbLine
 10
1668.582783756852
 20
950.7496808384207
 30
0.0000000000000053
 11
1669.983557330897
 21
949.8374210502836
 31
0.0000000000000053
  0
LINE
  5
BE0
330
2
100
AcDbEntity
  8
1
  6
Continuous
 62
     0
370
    20
100
AcDbLine
 10
1696.385366400605
 20
961.1567528520941
 30
0.0000000000000036
 11
1669.983557330896
 21
949.837421050285
 31
0.0000000000000018
  0
LINE
  5
BE1
330
2
100
AcDbEntity
  8
1
  6
Continuous
 62
     0
370
    20
100
AcDbLine
 10
1670.691700897094
 20
962.6717721407214
 30
0.000000000000008
 11
1670.827054960465
 21
962.5802522278451
 31
0.0000000000000053
  0
LINE
  5
BE2
330
2
100
AcDbEntity
  8
1
  6
Continuous
 62
     0
370
    20
100
AcDbLine
 10
1668.490213924989
 20
965.3893139329415
 30
0.0000000000000053
 11
1668.625567988361
 21
965.2977940200655
 31
0.0000000000000009
  0
LINE
  5
BE3
330
2
100
AcDbEntity
  8
1
  6
Continuous
 62
     0
370
    20
100
AcDbLine
 10
1669.01734864277
 20
965.6153140816076
 30
-0.0000000000000009
 11
1669.152702706142
 21
965.5237941687316
 31
0.0000000000000044
  0
LINE
  5
BE4
330
2
100
AcDbEntity
  8
1
  6
Continuous
 62
     0
370
    20
100
AcDbLine
 10
1679.761564233297
 20
978.2313630872742
 30
-0.0000000000000036
 11
1679.626210169925
 21
978.3228830001503
 31
0.0
  0
LINE
  5
BE5
330
2
100
AcDbEntity
  8
1
  6
Continuous
 62
     0
370
    20
100
AcDbLine
 10
1679.273089943957
 20
980.2721147714182
 30
0.0000000000000009
 11
1679.137735880585
 21
980.3636346842942
 31
0.0000000000000036
  0
LINE
  5
BE6
330
2
100
AcDbEntity
  8
1
  6
Continuous
 62
     0
370
    20
100
AcDbLine
 10
1673.247716633713
 20
963.6180702268742
 30
0.0000000000000062
 11
1673.746770388818
 21
963.832031134858
 31
0.0000000000000018
  0
LINE
  5
BE7
330
2
100
AcDbEntity
  8
1
  6
Continuous
 62
     0
370
    20
100
AcDbLine
 10
1673.74677038882
 20
963.8320311348579
 30
0.0000000000000036
 11
1673.656246679799
 21
967.4546129390382
 31
-0.0000000000000027
  0
LINE
  5
BE8
330
2
100
AcDbEntity
  8
1
  6
Continuous
 62
     0
370
    20
100
AcDbLine
 10
1673.656246679797
 20
967.4546129390378
 30
0.0
 11
1673.134115649317
 21
967.230758037185
 31
0.0000000000000018
  0
LINE
  5
BE9
330
2
100
AcDbEntity
  8
1
  6
Continuous
 62
     0
370
    20
100
AcDbLine
 10
1673.134115649317
 20
967.230758037185
 30
0.0000000000000027
 11
1673.269044611358
 21
964.9359913658678
 31
0.0000000000000053
  0
LINE
  5
BEA
330
2
100
AcDbEntity
  8
1
  6
Continuous
 62
     0
370
    20
100
AcDbLine
 10
1671.462206152217
 20
966.5139549465218
 30
0.0000000000000027
 11
1670.8376252721
 21
966.2461763939068
 31
0.0000000000000009
  0
LINE
  5
BEB
330
2
100
AcDbEntity
  8
1
  6
Continuous
 62
     0
370
    20
100
AcDbLine
 10
1670.837625272103
 20
966.246176393907
 30
-0.0000000000000009
 11
1670.878733936754
 21
963.7910266519808
 31
0.0000000000000053
  0
LINE
  5
BEC
330
2
100
AcDbEntity
  8
1
  6
Continuous
 62
     0
370
    20
100
AcDbLine
 10
1669.152702706142
 20
965.5237941687316
 30
-0.0000000000000027
 11
1668.625567988359
 21
965.2977940200646
 31
0.0000000000000071
  0
LINE
  5
BED
330
2
100
AcDbEntity
  8
1
  6
Continuous
 62
     0
370
    20
100
AcDbLine
 10
1668.62556798836
 20
965.2977940200669
 30
0.0000000000000036
 11
1670.827054960462
 21
962.5802522278489
 31
0.0000000000000036
  0
LINE
  5
BEE
330
2
100
AcDbEntity
  8
1
  6
Continuous
 62
     0
370
    20
100
AcDbLine
 10
1670.82705496046
 20
962.5802522278451
 30
0.0
 11
1671.355996798823
 21
962.8070271490821
 31
-0.0000000000000044
  0
LINE
  5
BEF
330
2
100
AcDbEntity
  8
1
  6
Continuous
 62
     0
370
    20
100
AcDbLine
 10
1688.747626658659
 20
965.6716907975424
 30
0.0000000000000018
 11
1686.633971052177
 21
966.8765171669432
 31
0.0000000000000036
  0
LINE
  5
BF0
330
2
100
AcDbEntity
  8
1
  6
Continuous
 62
     0
370
    20
100
AcDbLine
 10
1667.914348054846
 20
958.8507934995991
 30
0.0000000000000018
 11
1668.484932830728
 21
956.9844014519093
 31
0.0
  0
LINE
  5
BF1
330
2
100
AcDbEntity
  8
1
  6
Continuous
 62
     0
370
    20
100
AcDbLine
 10
1679.747252776176
 20
982.3731153428481
 30
0.0000000000000053
 11
1679.611898712805
 21
982.4646352557243
 31
0.0000000000000018
  0
LINE
  5
BF2
330
2
100
AcDbEntity
  8
1
  6
Continuous
 62
     0
370
    20
100
AcDbLine
 10
1677.870783121363
 20
979.455774072341
 30
-0.0000000000000053
 11
1679.275633739073
 21
979.5359375206551
 31
0.0000000000000018
  0
LINE
  5
BF3
330
2
100
AcDbEntity
  8
1
  6
Continuous
 62
     0
370
    20
100
AcDbLine
 10
1679.275633739073
 20
979.5359375206551
 30
0.0000000000000018
 11
1679.273089943957
 21
980.2721147714182
 31
0.0000000000000009
  0
LINE
  5
BF4
330
2
100
AcDbEntity
  8
1
  6
Continuous
 62
     0
370
    20
100
AcDbLine
 10
1679.273089943957
 20
980.2721147714182
 30
0.0000000000000009
 11
1677.868239326247
 21
980.1919513231041
 31
0.0000000000000009
  0
LINE
  5
BF5
330
2
100
AcDbEntity
  8
1
  6
Continuous
 62
     0
370
    20
100
AcDbLine
 10
1679.749814946939
 20
981.6316201584687
 30
0.0000000000000018
 11
1679.747252776176
 21
982.3731153428481
 31
0.0000000000000053
  0
LINE
  5
BF6
330
2
100
AcDbEntity
  8
1
  6
Continuous
 62
     0
370
    20
100
AcDbLine
 10
1679.764126404061
 20
977.4898679028959
 30
-0.0000000000000071
 11
1679.761564233297
 21
978.2313630872742
 31
-0.0000000000000036
  0
LINE
  5
BF7
330
2
100
AcDbEntity
  8
1
  6
Continuous
 62
     0
370
    20
100
AcDbLine
 10
1670.691700897084
 20
962.6717721407207
 30
0.0000000000000044
 11
1668.490213924983
 21
965.3893139329378
 31
-0.0000000000000018
  0
LINE
  5
BF8
330
2
100
AcDbEntity
  8
1
  6
Continuous
 62
     0
370
    20
100
AcDbLine
 10
1668.490213924984
 20
965.3893139329392
 30
0.0000000000000062
 11
1669.01734864277
 21
965.6153140816076
 31
-0.0000000000000009
  0
LINE
  5
BF9
330
2
100
AcDbEntity
  8
1
  6
Continuous
 62
     0
370
    20
100
AcDbLine
 10
1670.743379876094
 20
963.8825464027954
 30
0.0000000000000062
 11
1670.702271208729
 21
966.3376963067829
 31
0.0000000000000071
  0
LINE
  5
BFA
330
2
100
AcDbEntity
  8
1
  6
Continuous
 62
     0
370
    20
100
AcDbLine
 10
1670.702271208728
 20
966.3376963067829
 30
0.0000000000000018
 11
1671.326852088845
 21
966.6054748593978
 31
0.0000000000000044
  0
LINE
  5
BFB
330
2
100
AcDbEntity
  8
1
  6
Continuous
 62
     0
370
    20
100
AcDbLine
 10
1673.133690547986
 20
965.0275112787438
 30
0.0000000000000071
 11
1672.998761585945
 21
967.3222779500612
 31
0.0000000000000053
  0
LINE
  5
BFC
330
2
100
AcDbEntity
  8
1
  6
Continuous
 62
     0
370
    20
100
AcDbLine
 10
1672.998761585945
 20
967.3222779500612
 30
0.0000000000000044
 11
1673.520892616427
 21
967.5461328519146
 31
0.000000000000008
  0
LINE
  5
BFD
330
2
100
AcDbEntity
  8
1
  6
Continuous
 62
     0
370
    20
100
AcDbLine
 10
1678.697146216261
 20
966.1039722429825
 30
0.0000000000000018
 11
1677.53362458499
 21
969.2665242260055
 31
0.0000000000000018
  0
LINE
  5
BFE
330
2
100
AcDbEntity
  8
1
  6
Continuous
 62
     0
370
    20
100
AcDbLine
 10
1677.533624584986
 20
969.2665242260023
 30
0.0000000000000071
 11
1678.052106789956
 21
969.4888147552568
 31
0.0000000000000036
  0
LINE
  5
BFF
330
2
100
AcDbEntity
  8
1
  6
Continuous
 62
     0
370
    20
100
AcDbLine
 10
1680.12247181447
 20
966.7150566322803
 30
0.0000000000000071
 11
1678.9589501832
 21
969.8776086153017
 31
0.0000000000000071
  0
LINE
  5
C00
330
2
100
AcDbEntity
  8
1
  6
Continuous
 62
     0
370
    20
100
AcDbLine
 10
1678.9589501832
 20
969.8776086153026
 30
0.0000000000000036
 11
1679.49044448984
 21
970.1054778644039
 31
0.0000000000000071
  0
LINE
  5
C01
330
2
100
AcDbEntity
  8
1
  6
Continuous
 62
     0
370
    20
100
AcDbLine
 10
1679.49044448984
 20
970.1054778644035
 30
0.0000000000000053
 11
1682.458849581818
 21
968.5035312270972
 31
0.0000000000000036
  0
LINE
  5
C02
330
2
100
AcDbEntity
  8
1
  6
Continuous
 62
     0
370
    20
100
AcDbLine
 10
1682.458849581818
 20
968.5035312270967
 30
0.0000000000000036
 11
1681.545355622654
 21
970.9864864677991
 31
0.0000000000000053
  0
LINE
  5
C03
330
2
100
AcDbEntity
  8
1
  6
Continuous
 62
     0
370
    20
100
AcDbLine
 10
1681.54535562265
 20
970.9864864677948
 30
0.0000000000000018
 11
1682.041817347874
 21
971.1993360865415
 31
0.0000000000000053
  0
LINE
  5
C04
330
2
100
AcDbEntity
  8
1
  6
Continuous
 62
     0
370
    20
100
AcDbLine
 10
1674.534274613051
 20
964.319211024514
 30
0.0000000000000053
 11
1674.873150259109
 21
968.1258905836164
 31
0.0000000000000018
  0
LINE
  5
C05
330
2
100
AcDbEntity
  8
1
  6
Continuous
 62
     0
370
    20
100
AcDbLine
 10
1674.87315025911
 20
968.1258905836156
 30
0.0000000000000027
 11
1675.431669699986
 21
968.3653464047049
 31
0.0000000000000098
  0
LINE
  5
C06
330
2
100
AcDbEntity
  8
1
  6
Continuous
 62
     0
370
    20
100
AcDbLine
 10
1677.606131537855
 20
965.6362180404983
 30
0.0000000000000053
 11
1676.906367348152
 21
966.295648523034
 31
0.0000000000000053
  0
LINE
  5
C07
330
2
100
AcDbEntity
  8
1
  6
Continuous
 62
     0
370
    20
100
AcDbLine
 10
1669.986170308044
 20
961.323175669054
 30
0.0000000000000036
 11
1683.53777373093
 21
967.1331978226547
 31
0.0000000000000053
  0
LINE
  5
C08
330
2
100
AcDbEntity
  8
1
  6
Continuous
 62
     0
370
    20
100
AcDbLine
 10
1684.108779207338
 20
968.4241189137583
 30
0.0000000000000036
 11
1682.945257576066
 21
971.5866708967839
 31
0.0
  0
LINE
  5
C09
330
2
100
AcDbEntity
  8
1
  6
Continuous
 62
     0
370
    20
100
AcDbLine
 10
1675.670278370165
 20
977.997906534177
 30
0.0000000000000044
 11
1675.534924306793
 21
978.089426447053
 31
0.0000000000000071
  0
LINE
  5
C0A
330
2
100
AcDbEntity
  8
1
  6
Continuous
 62
     0
370
    20
100
AcDbLine
 10
1675.672840540928
 20
977.2564113497978
 30
0.0000000000000018
 11
1675.670278370165
 21
977.997906534177
 31
-0.0000000000000009
  0
LINE
  5
C0B
330
2
100
AcDbEntity
  8
1
  6
Continuous
 62
     0
370
    20
100
AcDbLine
 10
1675.658529083807
 20
981.3981636053725
 30
-0.0000000000000018
 11
1675.655966913043
 21
982.139658789751
 31
-0.0000000000000018
  0
LINE
  5
C0C
330
2
100
AcDbEntity
  8
1
  6
Continuous
 62
     0
370
    20
100
AcDbLine
 10
1675.655966913043
 20
982.139658789751
 30
-0.0000000000000018
 11
1675.520612849672
 21
982.231178702627
 31
0.0000000000000009
  0
LINE
  5
C0D
330
2
100
AcDbEntity
  8
1
  6
Continuous
 62
     0
370
    20
100
AcDbLine
 10
1688.184921580061
 20
969.6129940287649
 30
0.0000000000000018
 11
1690.298577186541
 21
968.4081676593654
 31
0.0000000000000036
  0
LINE
  5
C0E
330
2
100
AcDbEntity
  8
1
  6
Continuous
 62
     0
370
    20
100
AcDbLine
 10
1697.957605753601
 20
960.3180061342008
 30
0.0000000000000018
 11
1699.785422554929
 21
947.4829495403787
 31
0.0
  0
LINE
  5
C0F
330
2
100
AcDbEntity
  8
1
  6
Continuous
 62
     0
370
    20
100
AcDbLine
 10
1686.092419864933
 20
997.9440966573061
 30
-0.0000000000000062
 11
1684.378165290803
 21
996.3443012231936
 31
0.0000000000000124
  0
LINE
  5
C10
330
2
100
AcDbEntity
  8
1
  6
Continuous
 62
     0
370
    20
100
AcDbLine
 10
1618.241680076298
 20
911.9123786667977
 30
0.0000000000000027
 11
1693.72384922034
 21
916.2195348074762
 31
0.0
  0
LINE
  5
C11
330
2
100
AcDbEntity
  8
1
  6
Continuous
 62
     0
370
    20
100
AcDbLine
 10
1693.721440045521
 20
916.2193973353788
 30
0.0000000000000036
 11
1693.7201346801
 21
916.5971715992954
 31
0.0000000000000036
  0
LINE
  5
C12
330
2
100
AcDbEntity
  8
1
  6
Continuous
 62
     0
370
    20
100
AcDbLine
 10
1642.175550189559
 20
928.5174960450031
 30
-0.0000000000000018
 11
1644.11950119083
 21
926.7294708863186
 31
-0.0000000000000018
  0
LINE
  5
C13
330
2
100
AcDbEntity
  8
1
  6
Continuous
 62
     0
370
    20
100
AcDbLine
 10
1644.0437307676
 20
948.6575190708126
 30
0.0000000000000044
 11
1642.109767878945
 21
947.5549728773522
 31
-0.0000000000000009
  0
LINE
  5
C14
330
2
100
AcDbEntity
  8
1
  6
Continuous
 62
     0
370
    20
100
AcDbLine
 10
1618.244089251114
 20
911.9125161388948
 30
0.0
 11
1618.242783885692
 21
912.2902904028114
 31
0.0000000000000011
  0
LINE
  5
C15
330
2
100
AcDbEntity
  8
1
  6
Continuous
 62
     0
370
    20
100
AcDbLine
 10
1609.993518607803
 20
912.7604770544861
 30
0.0000000000000048
 11
1609.992932454517
 21
912.9301104937637
 31
0.0000000000000049
  0
LINE
  5
C16
330
2
100
AcDbEntity
  8
1
  6
Continuous
 62
     0
370
    20
100
AcDbLine
 10
1667.662325268292
 20
956.789442984869
 30
0.0000000000000036
 11
1667.091740492414
 21
958.6558350325475
 31
0.0
  0
LINE
  5
C17
330
2
100
AcDbEntity
  8
1
  6
Continuous
 62
     0
370
    20
100
AcDbLine
 10
1644.462067760581
 20
957.3645428642068
 30
0.0000000000000029
 11
1644.444648524537
 21
955.4645981891823
 31
0.000000000000008
  0
LINE
  5
C18
330
2
100
AcDbEntity
  8
1
  6
Continuous
 62
     0
370
    20
100
AcDbLine
 10
1599.785783692339
 20
919.4770859129411
 30
0.0000000000000018
 11
1599.773349351662
 21
923.0738705758732
 31
0.0
  0
LINE
  5
C19
330
2
100
AcDbEntity
  8
1
  6
Continuous
 62
     0
370
    20
100
AcDbLine
 10
1599.785777587961
 20
919.4770859751796
 30
0.0000000000000022
 11
1609.268583104573
 21
913.5649523573405
 31
-0.0000000000000031
  0
LINE
  5
C1A
330
2
100
AcDbEntity
  8
1
  6
Continuous
 62
     0
370
    20
100
AcDbLine
 10
1599.744227765347
 20
931.5016507970716
 30
0.0
 11
1599.690932656139
 21
946.9249223405059
 31
0.0000000000000009
  0
LINE
  5
C1B
330
2
100
AcDbEntity
  8
1
  6
Continuous
 62
     0
370
    20
100
AcDbLine
 10
1599.690934015257
 20
946.9249233042884
 30
0.0
 11
1610.097495067285
 21
940.0958881349925
 31
0.0
  0
LINE
  5
C1C
330
2
100
AcDbEntity
  8
1
  6
Continuous
 62
     0
370
    20
100
AcDbLine
 10
1643.40005336304
 20
925.9520954203031
 30
-0.0000000000000018
 11
1641.456102361768
 21
927.7401205789882
 31
0.0000000000000053
  0
LINE
  5
C1D
330
2
100
AcDbEntity
  8
1
  6
Continuous
 62
     0
370
    20
100
AcDbLine
 10
1643.621018231328
 20
955.5656191930159
 30
0.0000000000000069
 11
1643.638437467372
 21
957.4655638680255
 31
-0.0000000000000011
  0
LINE
  5
C1E
330
2
100
AcDbEntity
  8
1
  6
Continuous
 62
     0
370
    20
100
AcDbLine
 10
1641.456102361768
 20
927.7401205789873
 30
0.0000000000000018
 11
1613.619686283304
 21
926.151721731863
 31
0.0000000000000085
  0
LINE
  5
C1F
330
2
100
AcDbEntity
  8
1
  6
Continuous
 62
     0
370
    20
100
AcDbLine
 10
1642.109767878942
 20
947.5549728773545
 30
-0.0000000000000013
 11
1642.175550189559
 21
928.5174960450033
 31
0.0000000000000062
  0
LINE
  5
C20
330
2
100
AcDbEntity
  8
1
  6
Continuous
 62
     0
370
    20
100
AcDbLine
 10
1624.870741581389
 20
963.3521898179814
 30
0.0
 11
1623.306288834938
 21
961.9374835900968
 31
0.0000000000000098
  0
LINE
  5
C21
330
2
100
AcDbEntity
  8
1
  6
Continuous
 62
     0
370
    20
100
AcDbLine
 10
1615.162711368684
 20
956.5220336682363
 30
0.0000000000000018
 11
1613.241096763159
 21
942.1094199407578
 31
0.0000000000000049
  0
LINE
  5
C22
330
2
100
AcDbEntity
  8
1
  6
Continuous
 62
     0
370
    20
100
AcDbLine
 10
1641.63232154889
 20
948.2196456117172
 30
0.0000000000000013
 11
1643.566284437544
 21
949.3221918051778
 31
-0.0000000000000027
  0
LINE
  5
C23
330
2
100
AcDbEntity
  8
1
  6
Continuous
 62
     0
370
    20
100
AcDbLine
 10
1615.16271136868
 20
956.5220336682367
 30
0.0000000000000036
 11
1641.632321548889
 21
948.2196456117216
 31
0.0000000000000013
  0
LINE
  5
C24
330
2
100
AcDbEntity
  8
1
  6
Continuous
 62
     0
370
    20
100
AcDbLine
 10
1687.76968496578
 20
1008.474303504954
 30
-0.0000000000000018
 11
1677.947540321785
 21
1015.633846965297
 31
0.0000000000000003
  0
LINE
  5
C25
330
2
100
AcDbEntity
  8
1
  6
Continuous
 62
     0
370
    20
100
AcDbLine
 10
1611.480056879007
 20
1011.841085936938
 30
0.0
 11
1677.947540321772
 21
1015.633846965304
 31
-0.0000000000000008
  0
LINE
  5
C26
330
2
100
AcDbEntity
  8
1
  6
Continuous
 62
     0
370
    20
100
AcDbLine
 10
1681.987648566394
 20
998.3207142327382
 30
0.0000000000000027
 11
1683.701903140527
 21
999.9205096668529
 31
0.0000000000000009
  0
LINE
  5
C27
330
2
100
AcDbEntity
  8
1
  6
Continuous
 62
     0
370
    20
100
AcDbLine
 10
1668.763830734403
 20
961.8302751483925
 30
0.0000000000000053
 11
1667.600309103133
 21
964.9928271314134
 31
-0.0000000000000009
  0
LINE
  5
C28
330
2
100
AcDbEntity
  8
1
  6
Continuous
 62
     0
370
    20
100
AcDbLine
 10
1668.171314579529
 20
966.2837482225199
 30
-0.0000000000000018
 11
1681.722918002417
 21
972.0937703761208
 31
0.0
  0
LINE
  5
C29
330
2
100
AcDbEntity
  8
1
  6
Continuous
 62
     0
370
    20
100
AcDbLine
 10
1682.9587929824
 20
971.577518905495
 30
0.0
 11
1684.122314613671
 21
968.4149669224707
 31
0.0000000000000018
  0
LINE
  5
C2A
330
2
100
AcDbEntity
  8
1
  6
Continuous
 62
     0
370
    20
100
AcDbLine
 10
1683.55130913727
 20
967.1240458313659
 30
0.0000000000000036
 11
1669.999705714383
 21
961.3140236777651
 31
0.0000000000000018
  0
LINE
  5
C2B
330
2
100
AcDbEntity
  8
1
  6
Continuous
 62
     0
370
    20
100
AcDbLine
 10
1629.297969752731
 20
995.3141409423066
 30
0.0000000000000089
 11
1681.987648566392
 21
998.3207142327426
 31
0.0000000000000036
  0
LINE
  5
C2C
330
2
100
AcDbEntity
  8
1
  6
Continuous
 62
     0
370
    20
100
AcDbLine
 10
1643.638437467372
 20
957.4655638680255
 30
0.0000000000000013
 11
1624.87074158139
 21
963.3521898179834
 31
0.0000000000000098
  0
ARC
  5
C2D
330
2
100
AcDbEntity
  8
1
  6
Continuous
 62
     0
370
    20
100
AcDbCircle
 10
1667.606046537775
 20
1018.191030567563
 30
-0.0000000000000031
 40
4.0
100
AcDbArc
 50
57.94740124729804
 51
93.26586461201131
  0
ARC
  5
C2E
330
2
100
AcDbEntity
  8
1
  6
Continuous
 62
     0
370
    20
100
AcDbCircle
 10
1601.683135205188
 20
1014.429343859599
 30
0.0
 40
4.0
100
AcDbArc
 50
93.26586461201131
 51
172.4056192084454
  0
ARC
  5
C2F
330
2
100
AcDbEntity
  8
1
  6
Continuous
 62
     0
370
    20
100
AcDbCircle
 10
1687.773801980164
 20
1004.554563549024
 30
-0.0000000000000009
 40
4.0
100
AcDbArc
 50
8.104890481030967
 51
53.91099833278218
  0
ELLIPSE
  5
C30
330
2
100
AcDbEntity
  8
1
  6
Continuous
 62
     0
370
    20
100
AcDbEllipse
 10
1665.78475719478
 20
968.398888139305
 30
-0.0000000000000044
 11
-1.548839031401017
 21
9.71696887003865
 31
-0.0000000000000003
210
0.0
220
0.0
230
1.0
 40
0.4937364650719116
 41
3.091564119672961
 42
3.265431213009519
  0
ELLIPSE
  5
C31
330
2
100
AcDbEntity
  8
1
  6
Continuous
 62
     0
370
    20
100
AcDbEllipse
 10
1677.822687496231
 20
973.5599483893205
 30
0.0
 11
-10.11197854962145
 21
5.577820040214783
 31
-0.0000000000000002
210
0.0
220
0.0
230
1.0
 40
0.4327783945480704
 41
2.816494477448967
 42
3.456691765578338
  0
ELLIPSE
  5
C32
330
2
100
AcDbEntity
  8
1
  6
Continuous
 62
     0
370
    20
100
AcDbEllipse
 10
1679.379671652445
 20
980.0092787973301
 30
0.0000000000000025
 11
-0.9802244517946174
 21
-1.449710324204095
 31
0.0
210
0.0
220
0.0
230
1.0
 40
0.9450997472773059
 41
0.0494045223493727
 42
0.767877097145747
  0
ELLIPSE
  5
C33
330
2
100
AcDbEntity
  8
1
  6
Continuous
 62
     0
370
    20
100
AcDbEllipse
 10
1679.379671652445
 20
980.0092787973301
 30
0.0000000000000042
 11
1.400320645420882
 21
2.071014748862992
 31
0.0
210
0.0
220
0.0
230
1.0
 40
0.9450997472773059
 41
0.5243621070788415
 42
3.141561294938611
  0
ELLIPSE
  5
C34
330
2
100
AcDbEntity
  8
1
  6
Continuous
 62
     0
370
    20
100
AcDbEllipse
 10
1611.493879217197
 20
1007.914672305743
 30
0.0000000000000018
 11
2.239647116864032
 21
3.314225814249279
 31
-0.0000000000000001
210
0.0
220
0.0
230
1.0
 40
0.9451563153268786
 41
0.6242985464817652
 42
2.055402322672295
  0
ELLIPSE
  5
C35
330
2
100
AcDbEntity
  8
1
  6
Continuous
 62
     0
370
    20
100
AcDbEllipse
 10
1635.608064447009
 20
985.8565748868645
 30
0.0
 11
-7.890141177518185
 21
8.86471247286636
 31
-0.0000000000000002
210
0.0
220
0.0
230
1.0
 40
0.4199799741035369
 41
5.961794210453489
 42
6.630228038119216
  0
ELLIPSE
  5
C36
330
2
100
AcDbEntity
  8
1
  6
Continuous
 62
     0
370
    20
100
AcDbEllipse
 10
1687.773801980164
 20
1004.554563549023
 30
0.0000000000000132
 11
-0.2278769190835074
 21
3.99350373854201
 31
0.0
210
0.0
220
0.0
230
1.0
 40
0.2650980649207276
 41
4.512903959571658
 42
6.074973640106431
  0
ELLIPSE
  5
C37
330
2
100
AcDbEntity
  8
1
  6
Continuous
 62
     0
370
    20
100
AcDbEllipse
 10
1621.850890647575
 20
1000.792876841058
 30
0.0000000000000103
 11
0.2278769190835074
 21
-3.99350373854201
 31
0.0
210
0.0
220
0.0
230
1.0
 40
0.2650980649207276
 41
1.371311305981722
 42
2.933380986516641
  0
ELLIPSE
  5
C38
330
2
100
AcDbEntity
  8
1
  6
Continuous
 62
     0
370
    20
100
AcDbEllipse
 10
1621.850890647579
 20
1000.792876841061
 30
0.0000000000000086
 11
2.266407035443582
 21
3.295967103854622
 31
-0.0000000000000001
210
0.0
220
0.0
230
1.0
 40
0.9413582597265117
 41
0.6319532934335075
 42
2.063057081470589
  0
ELLIPSE
  5
C39
330
2
100
AcDbEntity
  8
1
  6
Continuous
 62
     0
370
    20
100
AcDbEllipse
 10
1634.423476840013
 20
987.2909568724308
 30
-0.0000000000000009
 11
-7.890141177526456
 21
8.864712472875629
 31
-0.0000000000000002
210
0.0
220
0.0
230
1.0
 40
0.4199799741033094
 41
5.961794210454171
 42
6.630228038119015
  0
ELLIPSE
  5
C3A
330
2
100
AcDbEntity
  8
1
  6
Continuous
 62
     0
370
    20
100
AcDbEllipse
 10
1677.459642982659
 20
989.7466823685993
 30
-0.0000000000000071
 11
7.856647025907643
 21
9.737142873181504
 31
-0.0000000000000003
210
0.0
220
0.0
230
1.0
 40
0.3778545023872565
 41
5.94445839293751
 42
6.612892220602001
  0
ELLIPSE
  5
C3B
330
2
100
AcDbEntity
  8
1
  6
Continuous
 62
     0
370
    20
100
AcDbEllipse
 10
1679.936343102693
 20
972.3551220199302
 30
0.0
 11
-10.11197854964149
 21
5.577820040225229
 31
-0.0000000000000002
210
0.0
220
0.0
230
1.0
 40
0.4327783945476348
 41
2.816494477449268
 42
3.456691765578057
  0
ELLIPSE
  5
C3C
330
2
100
AcDbEntity
  8
1
  6
Continuous
 62
     0
370
    20
100
AcDbEllipse
 10
1666.35534197041
 20
966.5324960930327
 30
-0.0000000000000053
 11
-1.548839031662193
 21
9.716968871454527
 31
-0.0000000000000003
210
0.0
220
0.0
230
1.0
 40
0.4937364650358179
 41
3.091564119675182
 42
3.265431212998676
  0
ELLIPSE
  5
C3D
330
2
100
AcDbEntity
  8
1
  6
Continuous
 62
     0
370
    20
100
AcDbEllipse
 10
1645.683797285931
 20
965.3529384347701
 30
-0.0000000000000032
 11
1.786046893274421
 21
9.855567017010196
 31
-0.0000000000000003
210
0.0
220
0.0
230
1.0
 40
0.4764925873719426
 41
3.08195309738907
 42
3.255820190719489
  0
ELLIPSE
  5
C3E
330
2
100
AcDbEntity
  8
1
  6
Continuous
 62
     0
370
    20
100
AcDbEllipse
 10
1632.067919492194
 20
969.6236587216613
 30
-0.0000000000000058
 11
10.00778529622673
 21
6.826038793056373
 31
-0.0000000000000002
210
0.0
220
0.0
230
1.0
 40
0.3933009440484163
 41
2.802443408932105
 42
3.442640697059516
  0
ELLIPSE
  5
C3F
330
2
100
AcDbEntity
  8
1
  6
Continuous
 62
     0
370
    20
100
AcDbEllipse
 10
1671.066223727298
 20
930.4760693413626
 30
-0.0000000000000018
 11
2.684333220775895
 21
2.915808988520295
 31
-0.0000000000000001
210
0.0
220
0.0
230
1.0
 40
0.3581786655948047
 41
2.772884862524341
 42
3.495619110338294
  0
ELLIPSE
  5
C40
330
2
100
AcDbEntity
  8
1
  6
Continuous
 62
     0
370
    20
100
AcDbEllipse
 10
1671.003428242965
 20
948.6491551921959
 30
-0.0000000000000018
 11
-2.774202497021758
 21
1.816323284488851
 31
-0.0000000000000001
210
0.0
220
0.0
230
1.0
 40
0.4523599261041413
 41
5.991434787736864
 42
6.573179859212087
  0
ELLIPSE
  5
C41
330
2
100
AcDbEntity
  8
1
  6
Continuous
 62
     0
370
    20
100
AcDbEllipse
 10
1641.161107829517
 20
946.9462956284784
 30
-0.0000000000000027
 11
2.74507453296164
 21
2.15281872154219
 31
-0.0000000000000001
210
0.0
220
0.0
230
1.0
 40
0.4086915139936278
 41
5.975078938764989
 42
6.556824010239552
  0
ELLIPSE
  5
C42
330
2
100
AcDbEntity
  8
1
  6
Continuous
 62
     0
370
    20
100
AcDbEllipse
 10
1641.223903313863
 20
928.7732097775954
 30
-0.0000000000000089
 11
-2.702249978638121
 21
2.609590056204441
 31
-0.0000000000000001
210
0.0
220
0.0
230
1.0
 40
0.3986732273385222
 41
2.788693948015532
 42
3.511428195829271
  0
ELLIPSE
  5
C43
330
2
100
AcDbEntity
  8
1
  6
Continuous
 62
     0
370
    20
100
AcDbEllipse
 10
1615.260589591158
 20
951.3638897794141
 30
-0.0000000000000027
 11
2.038461927263892
 21
6.196980583939587
 31
-0.0000000000000002
210
0.0
220
0.0
230
1.0
 40
0.5950156284863429
 41
0.0082451124064552
 42
1.05544266360228
  0
ELLIPSE
  5
C44
330
2
100
AcDbEntity
  8
1
  6
Continuous
 62
     0
370
    20
100
AcDbEllipse
 10
1621.850890647575
 20
1000.792876841057
 30
0.0000000000000081
 11
3.96491402542641
 21
-0.5286367098272128
 31
0.0000000000000002
210
-0.0000000000000001
220
0.0
230
1.0
 40
0.1523205058968079
 41
3.447184535652537
 42
5.009254216187457
  0
ELLIPSE
  5
C45
330
2
100
AcDbEntity
  8
1
  6
Continuous
 62
     0
370
    20
100
AcDbEllipse
 10
1667.606046537558
 20
1018.191030567582
 30
0.0000000000000086
 11
-0.2278769190835074
 21
3.99350373854201
 31
0.0
210
0.0
220
0.0
230
1.0
 40
0.2650980649207276
 41
6.092426932626384
 42
6.283194692365086
  0
ELLIPSE
  5
C46
330
2
100
AcDbEntity
  8
1
  6
Continuous
 62
     0
370
    20
100
AcDbEllipse
 10
1601.683135205188
 20
1014.429343859597
 30
0.0000000000000031
 11
0.2278769190835074
 21
-3.99350373854201
 31
0.0
210
0.0
220
0.0
230
1.0
 40
0.2650980649207276
 41
2.950834279036582
 42
3.141602038771876
  0
ELLIPSE
  5
C47
330
2
100
AcDbEntity
  8
1
  6
Continuous
 62
     0
370
    20
100
AcDbEllipse
 10
1699.008424366374
 20
932.9933610328298
 30
0.0000000000000069
 11
-0.2421192265262266
 21
4.243097722200886
 31
0.0
210
0.0
220
0.0
230
1.0
 40
0.2650980649207276
 41
3.75676187790954
 42
4.512903959572314
  0
ELLIPSE
  5
C48
330
2
100
AcDbEntity
  8
1
  6
Continuous
 62
     0
370
    20
100
AcDbEllipse
 10
1699.008424366374
 20
932.9933610328298
 30
0.0000000000000069
 11
-0.2421192265262266
 21
4.243097722200886
 31
0.0
210
0.0
220
0.0
230
1.0
 40
0.2650980649207276
 41
4.512903959572314
 42
5.047072885432027
  0
ELLIPSE
  5
C49
330
2
100
AcDbEntity
  8
1
  6
Continuous
 62
     0
370
    20
100
AcDbEllipse
 10
1593.91317605118
 20
956.1526115517661
 30
-0.0000000000000022
 11
-3.964914025426399
 21
0.5286367098272967
 31
0.0000000000000002
210
0.0000000000000001
220
0.0
230
1.0
 40
0.1523205058968015
 41
0.0000032641208749
 42
0.2881385895427995
  0
ELLIPSE
  5
C4A
330
2
100
AcDbEntity
  8
1
  6
Continuous
 62
     0
370
    20
100
AcDbEllipse
 10
1601.683135205184
 20
1014.429343859599
 30
-0.0000000000000002
 11
3.96491402542641
 21
-0.5286367098272128
 31
0.0000000000000002
210
-0.0000000000000001
220
0.0
230
1.0
 40
0.1523205058968079
 41
3.141578201761631
 42
3.429731243132569
  0
ELLIPSE
  5
C4B
330
2
100
AcDbEntity
  8
1
  6
Continuous
 62
     0
370
    20
100
AcDbEllipse
 10
1667.606046537775
 20
1018.191030567564
 30
0.0000000000000125
 11
-2.122790268562687
 21
-3.390245046555715
 31
-0.0000000000000001
210
-0.0000000000000001
220
0.0
230
1.0
 40
0.9446930014660017
 41
3.141592359724548
 42
3.732906556144015
  0
ELLIPSE
  5
C4C
330
2
100
AcDbEntity
  8
1
  6
Continuous
 62
     0
370
    20
100
AcDbEllipse
 10
1599.758642604336
 20
927.3299797094139
 30
0.0000000000000009
 11
-0.234544172412268
 21
4.243529521663743
 31
-0.0000000000000001
210
0.0
220
0.0
230
1.0
 40
0.2568495397647798
 41
6.084158829350941
 42
6.283649962854311
  0
ELLIPSE
  5
C4D
330
2
100
AcDbEntity
  8
1
  6
Continuous
 62
     0
370
    20
100
AcDbEllipse
 10
1590.517149831142
 20
926.8026425541828
 30
0.0000000000000002
 11
0.2136346116407882
 21
-3.743909754883134
 31
0.0
210
0.0
220
0.0
230
1.0
 40
0.2650980649207276
 41
0.0
 42
6.283185307179586
  0
ELLIPSE
  5
C4E
330
2
100
AcDbEntity
  8
1
  6
Continuous
 62
     0
370
    20
100
AcDbEllipse
 10
1590.998477579746
 20
926.8301080310177
 30
0.0000000000000011
 11
0.2421192265262266
 21
-4.243097722200886
 31
0.0
210
0.0
220
0.0
230
1.0
 40
0.2650980649207276
 41
0.0030495305729369
 42
3.138457173625982
  0
ELLIPSE
  5
C4F
330
2
100
AcDbEntity
  8
1
  6
Continuous
 62
     0
370
    20
100
AcDbEllipse
 10
1691.9070121747
 20
917.446226264788
 30
0.0
 11
6.702484556823733
 21
0.0231598401884511
 31
0.0
210
0.0
220
0.0
230
1.0
 40
0.1910745500365186
 41
4.986232291844863
 42
6.208284610162484
  0
ELLIPSE
  5
C50
330
2
100
AcDbEntity
  8
1
  6
Continuous
 62
     0
370
    20
100
AcDbEllipse
 10
1601.683135205188
 20
1014.429343859601
 30
0.0000000000000019
 11
-2.212724624888027
 21
-3.332243948814993
 31
0.0
210
0.0
220
0.0
230
1.0
 40
0.9487148801965778
 41
3.758236453119291
 42
5.189340241156823
  0
ELLIPSE
  5
C51
330
2
100
AcDbEntity
  8
1
  6
Continuous
 62
     0
370
    20
100
AcDbEllipse
 10
1697.864383465758
 20
947.3351927646625
 30
0.000000000000011
 11
1.980028852677593
 21
0.2819321595069515
 31
0.0000000000000001
210
0.0
220
0.0
230
1.0
 40
0.226104842715818
 41
4.957024928456461
 42
6.004221846537102
  0
ELLIPSE
  5
C52
330
2
100
AcDbEntity
  8
1
  6
Continuous
 62
     0
370
    20
100
AcDbEllipse
 10
1672.404201816988
 20
947.7368954040729
 30
-0.0000000000000036
 11
-2.774202497001093
 21
1.816323284475356
 31
-0.0000000000000001
210
0.0
220
0.0
230
1.0
 40
0.452359926105863
 41
5.991434787735519
 42
6.573179859213203
  0
ELLIPSE
  5
C53
330
2
100
AcDbEntity
  8
1
  6
Continuous
 62
     0
370
    20
100
AcDbEllipse
 10
1672.457009188734
 20
932.4543809053865
 30
0.0
 11
2.684333220784502
 21
2.915808988529832
 31
-0.0000000000000001
210
0.0
220
0.0
230
1.0
 40
0.3581786655941981
 41
2.772884862524613
 42
3.495619110337468
  0
ELLIPSE
  5
C54
330
2
100
AcDbEntity
  8
1
  6
Continuous
 62
     0
370
    20
100
AcDbEllipse
 10
1693.516328093712
 20
985.8445526189496
 30
0.0000000000000089
 11
-14.36854663863157
 21
-21.25047010171575
 31
0.0
210
0.0
220
0.0
230
1.0
 40
0.9450997472773059
 41
6.080791822619207
 42
6.144713783735502
  0
ELLIPSE
  5
C55
330
2
100
AcDbEntity
  8
1
  6
Continuous
 62
     0
370
    20
100
AcDbEllipse
 10
1671.736776902515
 20
967.2134230168902
 30
0.0000000000000074
 11
2.142967313532064
 21
3.169357623319397
 31
0.0
210
0.0
220
0.0
230
1.0
 40
0.9450997472773059
 41
5.252534606998475
 42
5.441663112786588
  0
ELLIPSE
  5
C56
330
2
100
AcDbEntity
  8
1
  6
Continuous
 62
     0
370
    20
100
AcDbEllipse
 10
1693.651682157083
 20
985.7530327060734
 30
0.0000000000000071
 11
14.36854663863157
 21
21.25047010171575
 31
0.0
210
0.0
220
0.0
230
1.0
 40
0.9450997472773059
 41
2.930756219183433
 42
3.003121130145715
  0
ELLIPSE
  5
C57
330
2
100
AcDbEntity
  8
1
  6
Continuous
 62
     0
370
    20
100
AcDbEllipse
 10
1677.960852831367
 20
1011.707404242316
 30
0.0000000000000017
 11
2.241016229978706
 21
3.313603463687981
 31
-0.0000000000000001
210
0.0
220
0.0
230
1.0
 40
0.9450376134272534
 41
6.24988368739314
 42
6.907788932261067
  0
ELLIPSE
  5
C58
330
2
100
AcDbEntity
  8
1
  6
Continuous
 62
     0
370
    20
100
AcDbEllipse
 10
1696.33031903168
 20
958.1075163984284
 30
-0.0000000000000018
 11
0.7390505538777007
 21
3.124832611380809
 31
-0.0000000000000001
210
0.0
220
0.0
230
1.0
 40
0.542063778122836
 41
5.617609629667492
 42
6.66480718086077
  0
ELLIPSE
  5
C59
330
2
100
AcDbEntity
  8
1
  6
Continuous
 62
     0
370
    20
100
AcDbEllipse
 10
1600.267123528902
 20
919.5045898779083
 30
0.0000000000000027
 11
0.2801730738912542
 21
0.4141740600532202
 31
0.0
210
0.0
220
0.0
230
1.0
 40
0.9450314663019886
 41
2.195577965881422
 42
3.176786696691447
  0
ELLIPSE
  5
C5A
330
2
100
AcDbEntity
  8
1
  6
Continuous
 62
     0
370
    20
100
AcDbEllipse
 10
1664.698571725879
 20
965.0912455652498
 30
-0.0000000000000007
 11
3.84090807759907
 21
5.680539884737499
 31
0.0
210
0.0
220
0.0
230
1.0
 40
0.9450997472773059
 41
5.352475593428067
 42
5.414441219824881
  0
ELLIPSE
  5
C5B
330
2
100
AcDbEntity
  8
1
  6
Continuous
 62
     0
370
    20
100
AcDbEllipse
 10
2441.776950458198
 20
1642.802412605905
 30
0.0000000000000516
 11
576.626753371952
 21
852.8064730941427
 31
0.0000000000000016
210
0.0
220
0.0
230
1.0
 40
0.9450997472773059
 41
2.87194461228412
 42
2.875098748150567
  0
ELLIPSE
  5
C5C
330
2
100
AcDbEntity
  8
1
  6
Continuous
 62
     0
370
    20
100
AcDbEllipse
 10
1687.298722349355
 20
966.389993090693
 30
0.0000000000000047
 11
8.172637930274747
 21
12.08698432467153
 31
0.0
210
0.0
220
0.0
230
1.0
 40
0.9450997472773059
 41
2.240954822118526
 42
2.295184142550676
  0
ELLIPSE
  5
C5D
330
2
100
AcDbEntity
  8
1
  6
Continuous
 62
     0
370
    20
100
AcDbEllipse
 10
1705.585067863576
 20
967.4257337520929
 30
0.000000000000003
 11
20.21949893487191
 21
29.9037799990111
 31
0.0000000000000001
210
0.0
220
0.0
230
1.0
 40
0.9450997472773059
 41
2.242022079511783
 42
2.260305080808326
  0
ELLIPSE
  5
C5E
330
2
100
AcDbEntity
  8
1
  6
Continuous
 62
     0
370
    20
100
AcDbEllipse
 10
1583.146309384243
 20
895.2079676158087
 30
0.0000000000000021
 11
62.53095462547388
 21
92.48062557194932
 31
0.0000000000000002
210
0.0
220
0.0
230
1.0
 40
0.9450997472773059
 41
5.948512738367035
 42
5.976406142795815
  0
ELLIPSE
  5
C5F
330
2
100
AcDbEntity
  8
1
  6
Continuous
 62
     0
370
    20
100
AcDbEllipse
 10
2154.371967942188
 20
1000.461190506829
 30
-0.0000000000000099
 11
-281.1256952757811
 21
-415.772961074579
 31
-0.0000000000000008
210
0.0
220
0.0
230
1.0
 40
0.9450997472773059
 41
5.351781841277123
 42
5.357401953883456
  0
ELLIPSE
  5
C60
330
2
100
AcDbEntity
  8
1
  6
Continuous
 62
     0
370
    20
100
AcDbEllipse
 10
1679.515025715817
 20
979.9177588844541
 30
0.0000000000000033
 11
-0.9802244517946174
 21
-1.449710324204095
 31
0.0
210
0.0
220
0.0
230
1.0
 40
0.9450997472773059
 41
3.62277461292364
 42
5.120958009940126
  0
ELLIPSE
  5
C61
330
2
100
AcDbEntity
  8
1
  6
Continuous
 62
     0
370
    20
100
AcDbEllipse
 10
1679.515025715817
 20
979.9177588844541
 30
0.0000000000000025
 11
1.400320645420882
 21
2.071014748862992
 31
0.0
210
0.0
220
0.0
230
1.0
 40
0.9450997472773059
 41
0.5243621070788388
 42
3.866289602995501
  0
ELLIPSE
  5
C62
330
2
100
AcDbEntity
  8
1
  6
Continuous
 62
     0
370
    20
100
AcDbEllipse
 10
1679.515025715817
 20
979.9177588844541
 30
0.0000000000000033
 11
-0.9802244517946174
 21
-1.449710324204095
 31
0.0
210
0.0
220
0.0
230
1.0
 40
0.9450997472773059
 41
5.552879007310037
 42
7.051062404325335
  0
ELLIPSE
  5
C63
330
2
100
AcDbEntity
  8
1
  6
Continuous
 62
     0
370
    20
100
AcDbEllipse
 10
1705.449713800204
 20
967.5172536649691
 30
0.0000000000000048
 11
-20.21949893487191
 21
-29.9037799990111
 31
-0.0000000000000001
210
0.0
220
0.0
230
1.0
 40
0.9450997472773059
 41
5.383614733101576
 42
5.398894180091327
  0
ELLIPSE
  5
C64
330
2
100
AcDbEntity
  8
1
  6
Continuous
 62
     0
370
    20
100
AcDbEllipse
 10
1687.163368285984
 20
966.4815130035691
 30
0.000000000000003
 11
-8.172637930274747
 21
-12.08698432467153
 31
0.0
210
0.0
220
0.0
230
1.0
 40
0.9450997472773059
 41
5.38254747570832
 42
5.428348939748814
  0
ELLIPSE
  5
C65
330
2
100
AcDbEntity
  8
1
  6
Continuous
 62
     0
370
    20
100
AcDbEllipse
 10
2441.641596394827
 20
1642.893932518781
 30
0.0000000000000374
 11
-576.626753371952
 21
-852.8064730941427
 31
-0.0000000000000016
210
0.0
220
0.0
230
1.0
 40
0.9450997472773059
 41
6.013763821539181
 42
6.01669140174036
  0
ELLIPSE
  5
C66
330
2
100
AcDbEntity
  8
1
  6
Continuous
 62
     0
370
    20
100
AcDbEllipse
 10
1682.041817347874
 20
971.1993360865418
 30
0.0000000000000066
 11
0.560128258168353
 21
0.8284058995451971
 31
0.0
210
0.0
220
0.0
230
1.0
 40
0.9450997472773059
 41
5.685984359024407
 42
6.2832060312105
  0
ELLIPSE
  5
C67
330
2
100
AcDbEntity
  8
1
  6
Continuous
 62
     0
370
    20
100
AcDbEllipse
 10
1669.653735556256
 20
962.2267619499179
 30
0.000000000000001
 11
0.560128258168353
 21
0.8284058995451971
 31
0.0
210
0.0
220
0.0
230
1.0
 40
0.945099747277306
 41
3.141613377617883
 42
4.115188032223526
  0
ELLIPSE
  5
C68
330
2
100
AcDbEntity
  8
1
  6
Continuous
 62
     0
370
    20
100
AcDbEllipse
 10
1683.205338979142
 20
968.036784103519
 30
0.0000000000000048
 11
0.560128258168353
 21
0.8284058995451971
 31
0.0
210
0.0
220
0.0
230
1.0
 40
0.9450997472773059
 41
4.115188032223352
 42
5.685984359020048
  0
ELLIPSE
  5
C69
330
2
100
AcDbEntity
  8
1
  6
Continuous
 62
     0
370
    20
100
AcDbEllipse
 10
1675.423739852683
 20
979.684302331357
 30
0.0000000000000016
 11
-0.9802244517946174
 21
-1.449710324204095
 31
0.0
210
0.0
220
0.0
230
1.0
 40
0.9450997472773059
 41
3.622774612927602
 42
7.051062404325331
  0
ELLIPSE
  5
C6A
330
2
100
AcDbEntity
  8
1
  6
Continuous
 62
     0
370
    20
100
AcDbEllipse
 10
1675.423739852683
 20
979.684302331357
 30
0.0000000000000024
 11
1.400320645420882
 21
2.071014748862992
 31
0.0
210
0.0
220
0.0
230
1.0
 40
0.9450997472773059
 41
0.5243621070788388
 42
3.866289602991739
  0
ELLIPSE
  5
C6B
330
2
100
AcDbEntity
  8
1
  6
Continuous
 62
     0
370
    20
100
AcDbEllipse
 10
1695.943358449383
 20
947.1873703200841
 30
-0.000000000000005
 11
-3.960046509944342
 21
-0.5639429395582767
 31
0.0
210
0.0
220
0.0
230
1.0
 40
0.2261095454038577
 41
2.862624418302833
 42
3.141588745419382
  0
ELLIPSE
  5
C6C
330
2
100
AcDbEntity
  8
1
  6
Continuous
 62
     0
370
    20
100
AcDbEllipse
 10
1694.703032309768
 20
955.8970266626674
 30
0.0000000000000036
 11
1.478101107753432
 21
6.249665222754837
 31
-0.0000000000000002
210
0.0
220
0.0
230
1.0
 40
0.5420637781231702
 41
5.617609629667185
 42
6.664807180862757
  0
ELLIPSE
  5
C6D
330
2
100
AcDbEntity
  8
1
  6
Continuous
 62
     0
370
    20
100
AcDbEllipse
 10
1687.773801980162
 20
1004.554563549024
 30
0.0000000000000029
 11
3.960046509944362
 21
0.5639429395581429
 31
0.0
210
0.0
220
0.0
230
1.0
 40
0.2261095454038497
 41
4.957019837297875
 42
6.283168181394217
  0
ELLIPSE
  5
C6E
330
2
100
AcDbEntity
  8
1
  6
Continuous
 62
     0
370
    20
100
AcDbEllipse
 10
1687.773801980165
 20
1004.554563549024
 30
0.0000000000000185
 11
2.356164988354817
 21
3.232411877785835
 31
0.0
210
-0.0000000000000001
220
0.0
230
1.0
 40
0.945380138457088
 41
6.283173410234701
 42
6.941078654787963
  0
ELLIPSE
  5
C6F
330
2
100
AcDbEntity
  8
1
  6
Continuous
 62
     0
370
    20
100
AcDbEllipse
 10
1693.969511907464
 20
917.1122178156961
 30
0.0000000000000028
 11
-0.0284846148854384
 21
0.4991879673177513
 31
0.0
210
0.0
220
0.0
230
1.0
 40
0.2650980649207276
 41
3.141602038775591
 42
4.512903959575028
  0
ELLIPSE
  5
C70
330
2
100
AcDbEntity
  8
1
  6
Continuous
 62
     0
370
    20
100
AcDbEllipse
 10
1616.429661380294
 20
913.1393450683033
 30
0.0000000000000067
 11
6.702484556819362
 21
0.023159840188436
 31
0.0
210
0.0
220
0.0
230
1.0
 40
0.1910745500365186
 41
3.424162611309432
 42
4.985485518151281
  0
ELLIPSE
  5
C71
330
2
100
AcDbEntity
  8
1
  6
Continuous
 62
     0
370
    20
100
AcDbEllipse
 10
1609.748711353652
 20
913.5932154401437
 30
-0.0000000000000021
 11
0.2645289135343274
 21
0.4242928869358389
 31
0.0
210
0.0000000000000001
220
0.0
230
1.0
 40
0.9443818341443977
 41
2.16036012999289
 42
3.141569388918848
  0
ELLIPSE
  5
C72
330
2
100
AcDbEntity
  8
1
  6
Continuous
 62
     0
370
    20
100
AcDbEllipse
 10
1609.748711353652
 20
913.5932154401437
 30
-0.0000000000000021
 11
0.2645289135343274
 21
0.4242928869358389
 31
0.0
210
0.0000000000000001
220
0.0
230
1.0
 40
0.9443818341443977
 41
3.141569388918848
 42
3.169400587382532
  0
ELLIPSE
  5
C73
330
2
100
AcDbEntity
  8
1
  6
Continuous
 62
     0
370
    20
100
AcDbEllipse
 10
1618.15195973303
 20
912.7859240813988
 30
-0.0000000000000008
 11
-0.0284846148854384
 21
0.4991879673177513
 31
0.0
210
0.0
220
0.0
230
1.0
 40
0.2650980649207276
 41
3.130667550999628
 42
4.512903959567415
  0
ELLIPSE
  5
C74
330
2
100
AcDbEntity
  8
1
  6
Continuous
 62
     0
370
    20
100
AcDbEllipse
 10
1599.758642604336
 20
927.3299797094139
 30
0.0000000000000009
 11
-0.2497658253902078
 21
4.242660876236714
 31
-0.0000000000000001
210
0.0
220
0.0
230
0.9999999999999996
 40
0.2733450040554455
 41
3.141106162090534
 42
6.083207682177521
  0
ELLIPSE
  5
C75
330
2
100
AcDbEntity
  8
1
  6
Continuous
 62
     0
370
    20
100
AcDbEllipse
 10
1618.944777459849
 20
948.0234796671275
 30
-0.0000000000000022
 11
11.20770938305373
 21
16.56489501599232
 31
-0.0000000000000005
210
0.0
220
0.0
230
1.0
 40
0.945115836421362
 41
2.056005985035049
 42
2.195627056883506
  0
ELLIPSE
  5
C76
330
2
100
AcDbEntity
  8
1
  6
Continuous
 62
     0
370
    20
100
AcDbEllipse
 10
1639.27995231258
 20
930.5612349362917
 30
-0.0000000000000071
 11
-2.702249978649637
 21
2.609590056215504
 31
-0.0000000000000001
210
0.0
220
0.0
230
1.0
 40
0.3986732273376425
 41
2.788693948016286
 42
3.511428195828513
  0
ELLIPSE
  5
C77
330
2
100
AcDbEntity
  8
1
  6
Continuous
 62
     0
370
    20
100
AcDbEllipse
 10
1639.227144940863
 20
945.8437494350182
 30
-0.0000000000000084
 11
2.745074532961094
 21
2.152818721542002
 31
-0.0000000000000001
210
0.0
220
0.0
230
1.0
 40
0.4086915139936592
 41
5.975078938764947
 42
6.556824010239578
  0
ELLIPSE
  5
C78
330
2
100
AcDbEntity
  8
1
  6
Continuous
 62
     0
370
    20
100
AcDbEllipse
 10
1612.699680509669
 20
942.4754995922484
 30
0.0000000000000089
 11
1.982457012713205
 21
-0.2643183549136064
 31
0.0000000000000001
210
-0.0000000000000001
220
0.0
230
1.0
 40
0.1523205058968079
 41
3.962056700918308
 42
5.009254524464517
  0
ELLIPSE
  5
C79
330
2
100
AcDbEntity
  8
1
  6
Continuous
 62
     0
370
    20
100
AcDbEllipse
 10
1614.158715979953
 20
953.4186484356334
 30
0.0
 11
1.01923096363195
 21
3.098490291970581
 31
-0.0000000000000001
210
0.0
220
0.0
230
1.0
 40
0.5950156284862698
 41
0.0082451124086295
 42
1.055442663602099
  0
ELLIPSE
  5
C7A
330
2
100
AcDbEntity
  8
1
  6
Continuous
 62
     0
370
    20
100
AcDbEllipse
 10
1675.288385789312
 20
979.7758222442331
 30
0.0000000000000051
 11
-0.9802244517946174
 21
-1.449710324204095
 31
0.0
210
0.0
220
0.0
230
1.0
 40
0.9450997472773059
 41
0.0493829710962466
 42
0.7678770971457452
  0
ELLIPSE
  5
C7B
330
2
100
AcDbEntity
  8
1
  6
Continuous
 62
     0
370
    20
100
AcDbEllipse
 10
1675.288385789312
 20
979.7758222442331
 30
0.0000000000000069
 11
1.400320645420882
 21
2.071014748862992
 31
0.0
210
0.0
220
0.0
230
1.0
 40
0.9450997472773059
 41
0.5243621070788408
 42
3.141561294935663
  0
ELLIPSE
  5
C7C
330
2
100
AcDbEntity
  8
1
  6
Continuous
 62
     0
370
    20
100
AcDbEllipse
 10
1669.667270962593
 20
962.2176099586301
 30
0.0000000000000028
 11
-0.560128258168353
 21
-0.8284058995451971
 31
0.0
210
0.0
220
0.0
230
1.0
 40
0.9450997472773059
 41
5.685984359020927
 42
7.256780685815083
  0
ELLIPSE
  5
C7D
330
2
100
AcDbEntity
  8
1
  6
Continuous
 62
     0
370
    20
100
AcDbEllipse
 10
1668.503749331325
 20
965.380161941653
 30
0.0000000000000065
 11
-0.560128258168353
 21
-0.8284058995451971
 31
0.0
210
0.0
220
0.0
230
1.0
 40
0.9450997472773059
 41
4.115188032229905
 42
5.685984359021636
  0
ELLIPSE
  5
C7E
330
2
100
AcDbEntity
  8
1
  6
Continuous
 62
     0
370
    20
100
AcDbEllipse
 10
1682.055352754211
 20
971.1901840952542
 30
0.0000000000000031
 11
-0.560128258168353
 21
-0.8284058995451971
 31
0.0
210
0.0
220
0.0
230
1.0
 40
0.9450997472773059
 41
2.544391705434617
 42
4.115188032229303
  0
ELLIPSE
  5
C7F
330
2
100
AcDbEntity
  8
1
  6
Continuous
 62
     0
370
    20
100
AcDbEllipse
 10
1683.218874385479
 20
968.0276321122315
 30
0.000000000000003
 11
-0.560128258168353
 21
-0.8284058995451971
 31
0.0
210
0.0
220
0.0
230
1.0
 40
0.9450997472773059
 41
0.9735953786360393
 42
2.544391705431526
  0
ELLIPSE
  5
C80
330
2
100
AcDbEntity
  8
1
  6
Continuous
 62
     0
370
    20
100
AcDbEllipse
 10
1675.745388408521
 20
988.1468869344777
 30
-0.0000000000000098
 11
7.856647025913144
 21
9.73714287318833
 31
-0.0000000000000003
210
0.0
220
0.0
230
1.0
 40
0.3778545023871199
 41
5.944458392937665
 42
6.612892220601885
  0
ELLIPSE
  5
C81
330
2
100
AcDbEntity
  8
1
  6
Continuous
 62
     0
370
    20
100
AcDbEllipse
 10
1633.632372238644
 20
971.0383649495447
 30
-0.0000000000000044
 11
10.00778529622474
 21
6.826038793054947
 31
-0.0000000000000002
210
0.0
220
0.0
230
1.0
 40
0.3933009440484556
 41
2.80244340893209
 42
3.442640697059532
  0
ELLIPSE
  5
C82
330
2
100
AcDbEntity
  8
1
  6
Continuous
 62
     0
370
    20
100
AcDbEllipse
 10
1614.080931493572
 20
942.5161445332253
 30
-0.0000000000000026
 11
-3.964914025426399
 21
0.5286367098272967
 31
0.0000000000000002
210
0.0000000000000001
220
0.0
230
1.0
 40
0.1523205058968077
 41
0.3055918820627347
 42
0.820464029365212
  0
ELLIPSE
  5
C83
330
2
100
AcDbEntity
  8
1
  6
Continuous
 62
     0
370
    20
100
AcDbEllipse
 10
1645.701216521991
 20
967.2528831099123
 30
-0.0000000000000037
 11
1.786046893288475
 21
9.855567017142975
 31
-0.0000000000000003
210
0.0
220
0.0
230
1.0
 40
0.4764925873688098
 41
3.08195309738913
 42
3.255820190718117
  0
SPLINE
  5
C84
330
2
100
AcDbEntity
  8
1
  6
Continuous
 62
     0
370
    20
100
AcDbSpline
210
-0.0000000000000062
220
-0.0000000000000172
230
1.0
 70
     8
 71
     3
 72
    11
 73
     7
 74
     0
 42
0.0000000001
 43
0.0000000001
 40
0.0
 40
0.0
 40
0.0
 40
0.0
 40
0.2598592520372271
 40
0.5810235465851588
 40
0.8834711605978283
 40
1.0
 40
1.0
 40
1.0
 40
1.0
 10
1590.612661444084
 20
922.8281943405811
 30
0.0000000000000018
 10
1590.654732475442
 20
922.7889311829601
 30
0.0
 10
1590.75700388509
 20
922.7105213238912
 30
0.0000000000000009
 10
1590.939756325735
 20
922.6210202091735
 30
0.0
 10
1591.118993917422
 20
922.5782309363818
 30
0.0000000000000027
 10
1591.219851894261
 20
922.5904995777179
 30
-0.0000000000000009
 10
1591.248198450242
 20
922.59594820545
 30
0.0
  0
SPLINE
  5
C85
330
2
100
AcDbEntity
  8
1
  6
Continuous
 62
     0
370
    20
100
AcDbSpline
210
0.0
220
0.0
230
1.0
 70
     8
 71
     3
 72
    30
 73
    26
 74
     0
 42
0.0000000001
 43
0.0000000001
 40
0.0
 40
0.0
 40
0.0
 40
0.0
 40
0.0100186615030787
 40
0.0420427348757781
 40
0.0737535475219626
 40
0.1078488674934228
 40
0.1473509884269607
 40
0.1943148461476499
 40
0.2452925365948044
 40
0.2946681745290253
 40
0.3425808145262248
 40
0.3896131046455473
 40
0.4361279407282856
 40
0.4823381985333163
 40
0.5283784810760304
 40
0.5743442155377116
 40
0.6203137092249034
 40
0.6663383509773111
 40
0.7125022856939207
 40
0.7589138036775985
 40
0.8057307914085022
 40
0.8532065840466605
 40
0.9017768795776023
 40
0.9521940153382843
 40
1.0
 40
1.0
 40
1.0
 40
1.0
 10
1590.765093375633
 20
931.066735897077
 30
0.0
 10
1590.740962348965
 20
931.0684306772804
 30
0.0000000000000018
 10
1590.641196385697
 20
931.0696774270175
 30
0.0000000000000018
 10
1590.47139336998
 20
931.0097809691306
 30
0.0000000000000009
 10
1590.28370451465
 20
930.8934165005505
 30
-0.0000000000000009
 10
1590.123297385868
 20
930.7302046157605
 30
0.0
 10
1589.978569694887
 20
930.5153411160782
 30
0.0000000000000009
 10
1589.846155404815
 20
930.2320181294886
 30
-0.0000000000000009
 10
1589.730706845011
 20
929.8781273113654
 30
0.0
 10
1589.637177159717
 20
929.4692393385521
 30
0.0000000000000027
 10
1589.566700019717
 20
929.0248970723883
 30
-0.0000000000000018
 10
1589.517525243748
 20
928.550780021338
 30
0.0
 10
1589.488750605984
 20
928.0520386858132
 30
-0.0000000000000027
 10
1589.479987365643
 20
927.5351674141123
 30
0.0000000000000018
 10
1589.490955795504
 20
927.0076623430993
 30
-0.0000000000000009
 10
1589.521291929802
 20
926.4775891046481
 30
-0.0000000000000018
 10
1589.57046610533
 20
925.9533271085409
 30
0.0
 10
1589.637771245294
 20
925.4431724948299
 30
0.0
 10
1589.722382904669
 20
924.9550347673514
 30
0.0
 10
1589.82349112463
 20
924.4960433996714
 30
0.0
 10
1589.940636043752
 20
924.0722730803227
 30
0.0000000000000009
 10
1590.073997469289
 20
923.6882134986659
 30
0.0000000000000009
 10
1590.226797769996
 20
923.3462820988092
 30
-0.0000000000000009
 10
1590.397665226236
 20
923.0569597963464
 30
0.0
 10
1590.538817578311
 20
922.8975693442245
 30
-0.0000000000000018
 10
1590.612661444084
 20
922.8281943405811
 30
0.0000000000000018
  0
SPLINE
  5
C86
330
2
100
AcDbEntity
  8
1
  6
Continuous
 62
     0
370
    20
100
AcDbSpline
210
0.0000000000002606
220
-0.0000000000000186
230
1.0
 70
     8
 71
     3
 72
    10
 73
     6
 74
     0
 42
0.0000000001
 43
0.0000000001
 40
0.0
 40
0.0
 40
0.0
 40
0.0
 40
0.2457247383739997
 40
0.6678524050501715
 40
1.0
 40
1.0
 40
1.0
 40
1.0
 10
1589.950449194864
 20
956.6975951018907
 30
0.0000000000000036
 10
1589.92012665404
 20
956.4715300783865
 30
-0.0000000000000018
 10
1589.848144297588
 20
955.8565958709449
 30
0.0
 10
1589.782661166216
 20
954.9320896211524
 30
0.0000000000000018
 10
1589.769634334625
 20
954.235194067067
 30
-0.0000000000000053
 10
1589.770926492661
 20
953.9281462601975
 30
-0.0000000000000018
  0
SPLINE
  5
C87
330
2
100
AcDbEntity
  8
1
  6
Continuous
 62
     0
370
    20
100
AcDbSpline
210
0.0000000000003703
220
0.0000000000000112
230
1.0
 70
     8
 71
     3
 72
    12
 73
     8
 74
     0
 42
0.0000000001
 43
0.0000000001
 40
0.0
 40
0.0
 40
0.0
 40
0.0
 40
0.2399040723069965
 40
0.4802321199956018
 40
0.7211417265713123
 40
0.9625780057709921
 40
1.0
 40
1.0
 40
1.0
 40
1.0
 10
1589.773617349952
 20
953.9738790823971
 30
-0.0000000000000053
 10
1589.781867794855
 20
952.1507894447793
 30
-0.0000000000000053
 10
1589.821509317047
 20
948.4919773372688
 30
-0.0000000000000036
 10
1589.959105707625
 20
942.9626859890566
 30
-0.0000000000000053
 10
1590.149641591344
 20
937.4067599640859
 30
0.0000000000000018
 10
1590.314381490722
 20
933.4043371937591
 30
0.0000000000000005
 10
1590.405934772792
 20
931.256492405752
 30
0.0000000000000017
 10
1590.418283287039
 20
930.9682468386313
 30
0.0000000000000019
  0
SPLINE
  5
C88
330
2
100
AcDbEntity
  8
1
  6
Continuous
 62
     0
370
    20
100
AcDbSpline
210
-0.0000000000000005
220
0.0000000000000003
230
1.0
 70
     8
 71
     3
 72
    24
 73
    20
 74
     0
 42
0.0000000001
 43
0.0000000001
 40
0.0
 40
0.0
 40
0.0
 40
0.0
 40
0.0242820008284365
 40
0.0815548870997145
 40
0.148819748559767
 40
0.2186913936908991
 40
0.2861542115496052
 40
0.3518451874847303
 40
0.4164891106590483
 40
0.4805161090043966
 40
0.5441823311608444
 40
0.6076544078139326
 40
0.6710550063792288
 40
0.734480115127492
 40
0.7980115857342654
 40
0.8617721185500471
 40
0.9259257248234835
 40
0.9907186094926874
 40
1.0
 40
1.0
 40
1.0
 40
1.0
 10
1699.839866624683
 20
929.0531618195805
 30
0.0000000000000033
 10
1699.865192224676
 20
929.0813962251991
 30
0.0000000000000033
 10
1699.945308694359
 20
929.1802269561582
 30
0.0000000000000026
 10
1700.066811956111
 20
929.380210017797
 30
-0.0000000000000036
 10
1700.194880361532
 20
929.6834155342009
 30
0.0
 10
1700.304545605082
 20
930.0546029397118
 30
0.0
 10
1700.391492341188
 20
930.4742115766641
 30
0.0
 10
1700.455919943665
 20
930.9272638376477
 30
-0.0000000000000036
 10
1700.499378916617
 20
931.4087841311879
 30
-0.0000000000000036
 10
1700.522575087192
 20
931.9132555534308
 30
-0.0000000000000036
 10
1700.525837047206
 20
932.4338583166356
 30
-0.0000000000000036
 10
1700.509455127119
 20
932.9628991231695
 30
-0.0000000000000036
 10
1700.473834736656
 20
933.4921930775918
 30
-0.0000000000000036
 10
1700.419556693779
 20
934.0133544349381
 30
0.0
 10
1700.347369004736
 20
934.5181645161789
 30
-0.0000000000000036
 10
1700.258108514948
 20
934.9988978781206
 30
0.0
 10
1700.152528863284
 20
935.4486759479863
 30
-0.0000000000000036
 10
1700.066264893398
 20
935.741854734768
 30
-0.000000000000001
 10
1700.016942036036
 20
935.8888155383954
 30
-0.0000000000000004
 10
1700.010712906989
 20
935.9070689618206
 30
-0.0000000000000004
  0
SPLINE
  5
C89
330
2
100
AcDbEntity
  8
1
  6
Continuous
 62
     0
370
    20
100
AcDbSpline
210
0.0000000000000003
220
-0.000000000000001
230
1.0
 70
     8
 71
     3
 72
    22
 73
    18
 74
     0
 42
0.0000000001
 43
0.0000000001
 40
0.0
 40
0.0
 40
0.0
 40
0.0
 40
0.058364348079677
 40
0.1305025457105508
 40
0.2061316554323805
 40
0.2834971222473625
 40
0.3613431963592936
 40
0.4397912662729613
 40
0.5190335081243345
 40
0.5994340031980054
 40
0.6811442705574115
 40
0.7650757162004195
 40
0.8415882018415608
 40
0.8999967620995793
 40
0.9507116156476062
 40
0.9980370421319475
 40
1.0
 40
1.0
 40
1.0
 40
1.0
 10
1693.997115786315
 20
916.6137072248691
 30
0.0
 10
1694.167657634418
 20
916.6231646656893
 30
0.0
 10
1694.543511387853
 20
916.6470080187501
 30
0.0000000000000036
 10
1695.119557365468
 20
916.6947021506677
 30
0.0
 10
1695.720927226178
 20
916.7574307250363
 30
0.0
 10
1696.302907933706
 20
916.8327395823292
 30
0.0000000000000036
 10
1696.85091931204
 20
916.9195700513574
 30
0.0
 10
1697.356900517749
 20
917.0172704258849
 30
0.0
 10
1697.817056895774
 20
917.125994548078
 30
-0.0000000000000036
 10
1698.228083201077
 20
917.2462710464552
 30
-0.0000000000000036
 10
1698.589282869341
 20
917.3811080120332
 30
0.0
 10
1698.888182810394
 20
917.5299363211479
 30
-0.0000000000000036
 10
1699.115642741432
 20
917.6900257106511
 30
0.0000000000000071
 10
1699.283100288661
 20
917.8642392539556
 30
0.0
 10
1699.389385629905
 20
918.0534750717484
 30
0.0000000000000036
 10
1699.43881857844
 20
918.2010317663085
 30
0.0000000000000036
 10
1699.438174947418
 20
918.2756680808397
 30
-0.0000000000000017
 10
1699.438112452926
 20
918.2786442171092
 30
-0.0000000000000019
  0
SPLINE
  5
C8A
330
2
100
AcDbEntity
  8
1
  6
Continuous
 62
     0
370
    20
100
AcDbSpline
210
-0.0000000000000409
220
-0.0000000000000032
230
1.0
 70
     8
 71
     3
 72
    10
 73
     6
 74
     0
 42
0.0000000001
 43
0.0000000001
 40
0.0
 40
0.0
 40
0.0
 40
0.0
 40
0.2471345476627442
 40
0.6704029003118511
 40
1.0
 40
1.0
 40
1.0
 40
1.0
 10
1700.10077797715
 20
945.0236892249931
 30
0.0
 10
1700.099992103526
 20
945.2511486899787
 30
0.0
 10
1700.087358960739
 20
945.8672184512444
 30
0.0
 10
1700.025952195035
 20
946.7839304284892
 30
0.0000000000000036
 10
1699.943889498844
 20
947.4686040370622
 30
0.0
 10
1699.901085140017
 20
947.7675434466785
 30
0.0
  0
SPLINE
  5
C8B
330
2
100
AcDbEntity
  8
1
  6
Continuous
 62
     0
370
    20
100
AcDbSpline
210
0.0
220
0.0
230
1.0
 70
     8
 71
     3
 72
    12
 73
     8
 74
     0
 42
0.0000000001
 43
0.0000000001
 40
0.0
 40
0.0
 40
0.0
 40
0.0
 40
0.1958854526838354
 40
0.3975454998044661
 40
0.5987884727801016
 40
0.7995644897884856
 40
1.0
 40
1.0
 40
1.0
 40
1.0
 10
1699.437406737052
 20
918.2646901708462
 30
0.0000000000000036
 10
1699.507905307446
 20
919.9879509091596
 30
0.0000000000000036
 10
1699.643737839529
 20
923.4915612984611
 30
0.0
 10
1699.834207233077
 20
928.7813025937619
 30
0.0000000000000036
 10
1699.98746261051
 20
934.1473152303414
 30
0.0000000000000036
 10
1700.087632631535
 20
939.5452252132379
 30
0.0
 10
1700.102282249449
 20
943.1739671091163
 30
0.0000000000000071
 10
1700.098021762314
 20
944.9948107363882
 30
0.0000000000000036
  0
SPLINE
  5
C8C
330
2
100
AcDbEntity
  8
1
  6
Continuous
 62
     0
370
    20
100
AcDbSpline
210
-0.0000000000000001
220
-0.0000000000000014
230
1.0
 70
     8
 71
     3
 72
    23
 73
    19
 74
     0
 42
0.0000000001
 43
0.0000000001
 40
0.0
 40
0.0
 40
0.0
 40
0.0
 40
0.0366299633771655
 40
0.1042793117916268
 40
0.1719407938273401
 40
0.2405839106146048
 40
0.3076454967133988
 40
0.3738358480652065
 40
0.4395361772508562
 40
0.5049727347503783
 40
0.5695488495364507
 40
0.6333303031817538
 40
0.6976545856809356
 40
0.762340400152905
 40
0.8271116161884462
 40
0.8916183430333536
 40
0.9556468178516281
 40
1.0
 40
1.0
 40
1.0
 40
1.0
 10
1609.497089808862
 20
913.1649142850633
 30
0.0000000000000036
 10
1609.54015104707
 20
913.1368051057208
 30
0.0000000000000067
 10
1609.672913013853
 20
913.0588211516682
 30
-0.0000000000000002
 10
1609.951914920313
 20
912.9382931665176
 30
0.0000000000000016
 10
1610.327087701038
 20
912.8136350930471
 30
0.0000000000000003
 10
1610.761877372922
 20
912.7001114149795
 30
0.0000000000000058
 10
1611.248256443704
 20
912.5985798026716
 30
0.0000000000000058
 10
1611.778396879853
 20
912.5092114401851
 30
-0.0000000000000009
 10
1612.349682418194
 20
912.4316746793148
 30
0.0000000000000056
 10
1612.955921827557
 20
912.3662118435769
 30
0.0000000000000022
 10
1613.590296757347
 20
912.313458646831
 30
0.0000000000000089
 10
1614.247798172311
 20
912.2732527942931
 30
0.0000000000000007
 10
1614.925705942892
 20
912.2453483629819
 30
0.0000000000000009
 10
1615.620680199768
 20
912.2299402391925
 30
0.0000000000000027
 10
1616.323309815873
 20
912.2273558198489
 30
0.0000000000000031
 10
1617.023376003777
 20
912.2377727493814
 30
-0.0000000000000027
 10
1617.643959818369
 20
912.2586590072518
 30
0.0000000000000084
 10
1618.024339768936
 20
912.2784580911588
 30
-0.0000000000000036
 10
1618.178909813997
 20
912.2876468116265
 30
0.0000000000000084
  0
SPLINE
  5
C8D
330
2
100
AcDbEntity
  8
1
  6
Continuous
 62
     0
370
    20
100
AcDbSpline
210
0.0000000000005745
220
-0.0000000000000931
230
1.0
 70
     8
 71
     3
 72
     8
 73
     4
 74
     0
 42
0.0000000001
 43
0.0000000001
 40
0.0
 40
0.0
 40
0.0
 40
0.0
 40
1.0
 40
1.0
 40
1.0
 40
1.0
 10
1694.10486605839
 20
917.0206978436253
 30
0.0
 10
1694.795220258156
 20
921.0016609563094
 30
0.0000000000000036
 10
1695.47561576605
 20
924.9820558712979
 30
0.0000000000000036
 10
1696.020539840504
 20
928.9547204644289
 30
0.0000000000000036
  0
SPLINE
  5
C8E
330
2
100
AcDbEntity
  8
1
  6
Continuous
 62
     0
370
    20
100
AcDbSpline
210
-0.0000000000005431
220
-0.0000000000000935
230
1.0
 70
     8
 71
     3
 72
     8
 73
     4
 74
     0
 42
0.0000000001
 43
0.0000000001
 40
0.0
 40
0.0
 40
0.0
 40
0.0
 40
1.0
 40
1.0
 40
1.0
 40
1.0
 10
1616.289937561582
 20
924.4051406484285
 30
0.0000000000000039
 10
1616.862095757754
 20
920.4962188943829
 30
0.0000000000000033
 10
1617.569725539661
 20
916.5950273592201
 30
0.0000000000000064
 10
1618.287313861144
 20
912.6944041247469
 30
-0.0000000000000004
  0
SPLINE
  5
C8F
330
2
100
AcDbEntity
  8
1
  6
Continuous
 62
     0
370
    20
100
AcDbSpline
210
-0.0000000000003234
220
-0.0000000000002266
230
-1.0
 70
     8
 71
     3
 72
    12
 73
     8
 74
     0
 42
0.0000000001
 43
0.0000000001
 40
0.0
 40
0.0
 40
0.0
 40
0.0
 40
0.02720778233772
 40
0.02720778233772
 40
0.51360389116886
 40
0.51360389116886
 40
1.0
 40
1.0
 40
1.0
 40
1.0
 10
1589.770863577109
 20
953.9445353656995
 30
-0.0000000000000043
 10
1589.770870567434
 20
953.9427005271219
 30
-0.0000000000000043
 10
1589.770912170417
 20
953.9408658076348
 30
-0.0000000000000044
 10
1589.772351165413
 20
953.9062347790929
 30
-0.0000000000000053
 10
1589.784780283916
 20
953.873491856484
 30
-0.0000000000000018
 10
1589.831565697324
 20
953.8086545525555
 30
0.0
 10
1589.865921778116
 20
953.7765604679634
 30
-0.0000000000000018
 10
1589.910957174022
 20
953.74505630373
 30
-0.0000000000000018
  0
SPLINE
  5
C90
330
2
100
AcDbEntity
  8
1
  6
Continuous
 62
     0
370
    20
100
AcDbSpline
210
-0.0000000000000893
220
-0.0000000000000032
230
1.0
 70
     8
 71
     3
 72
     8
 73
     4
 74
     0
 42
0.0000000001
 43
0.0000000001
 40
0.0
 40
0.0
 40
0.0
 40
0.0
 40
1.0
 40
1.0
 40
1.0
 40
1.0
 10
1589.910930403868
 20
953.7450741282448
 30
0.0000000000000053
 10
1589.936564174201
 20
946.326631324297
 30
0.000000000000001
 10
1590.249361010975
 20
938.7072790945248
 30
-0.000000000000001
 10
1590.621201586472
 20
931.0466179222375
 30
-0.0000000000000016
  0
SPLINE
  5
C91
330
2
100
AcDbEntity
  8
1
  6
Continuous
 62
     0
370
    20
100
AcDbSpline
210
0.0000000000003383
220
-0.0000000000000237
230
1.0
 70
     8
 71
     3
 72
    16
 73
    12
 74
     0
 42
0.0000000001
 43
0.0000000001
 40
0.0
 40
0.0
 40
0.0
 40
0.0
 40
0.1111111300815338
 40
0.2222222459476098
 40
0.3333333516414834
 40
0.4444444512247847
 40
0.5555555487701844
 40
0.6666666483539929
 40
0.7777777540488716
 40
0.8888888699164539
 40
1.0
 40
1.0
 40
1.0
 40
1.0
 10
1589.910982724259
 20
953.7450385674183
 30
-0.0000000000000089
 10
1589.911064287044
 20
953.8465917445231
 30
-0.0000000000000018
 10
1589.911227412605
 20
954.0496980857398
 30
-0.0000000000000018
 10
1589.917359424404
 20
954.3546095658328
 30
-0.0000000000000053
 10
1589.927800285943
 20
954.6596124719243
 30
0.0000000000000018
 10
1589.94296802633
 20
954.9646570001591
 30
-0.0000000000000036
 10
1589.962753786825
 20
955.2696628315853
 30
0.0000000000000018
 10
1589.987153089002
 20
955.5745609294115
 30
0.0
 10
1590.016264157638
 20
955.8792676855112
 30
0.0
 10
1590.049663367836
 20
956.1837466423501
 30
-0.0000000000000053
 10
1590.075824548873
 20
956.38644057464
 30
0.0000000000000018
 10
1590.088905140228
 20
956.4877875472681
 30
0.0000000000000018
  0
SPLINE
  5
C92
330
2
100
AcDbEntity
  8
1
  6
Continuous
 62
     0
370
    20
100
AcDbSpline
210
-0.0000000000060458
220
-0.0000000000000313
230
1.0
 70
     8
 71
     3
 72
     8
 73
     4
 74
     0
 42
0.0000000001
 43
0.0000000001
 40
0.0
 40
0.0
 40
0.0
 40
0.0
 40
1.0
 40
1.0
 40
1.0
 40
1.0
 10
1699.974876597708
 20
945.0591978556476
 30
0.0000000000000036
 10
1699.975523638793
 20
944.983950287998
 30
0.0
 10
1699.975736988212
 20
944.9086840826527
 30
0.0
 10
1699.975516791781
 20
944.8334044758984
 30
0.0
  0
SPLINE
  5
C93
330
2
100
AcDbEntity
  8
1
  6
Continuous
 62
     0
370
    20
100
AcDbSpline
210
-0.0000000000001598
220
-0.000000000000013
230
1.0
 70
     8
 71
     3
 72
    13
 73
     9
 74
     0
 42
0.0000000001
 43
0.0000000001
 40
0.0
 40
0.0
 40
0.0
 40
0.0
 40
0.2499999999999972
 40
0.3749999999999978
 40
0.3749999999999978
 40
0.4999999999999984
 40
0.4999999999999984
 40
1.0
 40
1.0
 40
1.0
 40
1.0
 10
1699.974876597708
 20
945.0591978556476
 30
0.0000000000000036
 10
1699.971831097668
 20
945.2619105513923
 30
0.0
 10
1699.962508736707
 20
945.5659234004835
 30
-0.0000000000000036
 10
1699.946005644373
 20
945.8698513719184
 30
0.0
 10
1699.933400002851
 20
946.0724510649113
 30
0.0000000000000036
 10
1699.926292144954
 20
946.1737805965604
 30
0.0
 10
1699.886777786078
 20
946.6797132529379
 30
-0.0000000000000036
 10
1699.842457211428
 20
947.0823742075245
 30
0.0000000000000036
 10
1699.785419938196
 20
947.4829487428594
 30
0.0000000000000036
  0
SPLINE
  5
C94
330
2
100
AcDbEntity
  8
1
  6
Continuous
 62
     0
370
    20
100
AcDbSpline
210
-0.0000000000000108
220
0.0000000000000567
230
-1.0
 70
     8
 71
     3
 72
    35
 73
    31
 74
     0
 42
0.0000000001
 43
0.0000000001
 40
0.0
 40
0.0
 40
0.0
 40
0.0
 40
0.0624999999999915
 40
0.0624999999999915
 40
0.124999999999983
 40
0.124999999999983
 40
0.249999999999974
 40
0.249999999999974
 40
0.312499999999973
 40
0.312499999999973
 40
0.374999999999972
 40
0.374999999999972
 40
0.4999999999999779
 40
0.6249999999999839
 40
0.6249999999999839
 40
0.6562499999999854
 40
0.6562499999999854
 40
0.6874999999999868
 40
0.6874999999999868
 40
0.7499999999999898
 40
0.7499999999999898
 40
0.8750000000000053
 40
0.8750000000000053
 40
0.9375000000000081
 40
0.9531250000000113
 40
0.9531250000000113
 40
0.9609375000000078
 40
0.9609375000000078
 40
0.9687500000000042
 40
1.0
 40
1.0
 40
1.0
 40
1.0
 10
1699.974876597708
 20
945.0591978556589
 30
0.0000000000000036
 10
1699.964006414886
 20
945.0508680643931
 30
0.0000000000000036
 10
1699.951767674886
 20
945.0426256976056
 30
0.0
 10
1699.924679948967
 20
945.0263537604362
 30
0.0000000000000036
 10
1699.909821673321
 20
945.0183171267573
 30
0.0000000000000036
 10
1699.86135585301
 20
944.9945011938636
 30
-0.0000000000000036
 10
1699.823873837019
 20
944.9790146109922
 30
0.0000000000000036
 10
1699.759801612026
 20
944.9563773287103
 30
0.0
 10
1699.737131927111
 20
944.9489306407993
 30
0.0000000000000036
 10
1699.689100392313
 20
944.9342404417036
 30
0.0000000000000071
 10
1699.66396225359
 20
944.9270661964803
 30
0.0000000000000036
 10
1699.585447746002
 20
944.9060958956673
 30
0.0000000000000036
 10
1699.472365089043
 20
944.8795564346928
 30
0.0000000000000071
 10
1699.342752915602
 20
944.8558131344313
 30
0.0000000000000071
 10
1699.256393402658
 20
944.8418785880141
 30
-0.0000000000000036
 10
1699.238841903539
 20
944.8391358449427
 30
0.0000000000000036
 10
1699.203460515459
 20
944.8337819664088
 30
0.0000000000000036
 10
1699.185599381106
 20
944.8311656410449
 30
0.0000000000000036
 10
1699.131511309168
 20
944.823496125654
 30
0.0
 10
1699.094780248621
 20
944.8186222043917
 30
0.0000000000000036
 10
1698.982602662003
 20
944.804706037579
 30
-0.0000000000000036
 10
1698.905180057811
 20
944.7963664215281
 30
0.0
 10
1698.785066613515
 20
944.7852717726016
 30
0.0000000000000036
 10
1698.734187689517
 20
944.7809446652671
 30
0.0000000000000071
 10
1698.682245692307
 20
944.7769954788352
 30
-0.0000000000000036
 10
1698.666598697129
 20
944.7758336152045
 30
0.0
 10
1698.661344598297
 20
944.7754481679885
 30
0.0000000000000036
 10
1698.651020177219
 20
944.7746996264566
 30
0.0
 10
1698.625176937333
 20
944.772848364262
 30
0.0
 10
1698.599172892501
 20
944.7710974784671
 30
0.0
 10
1698.578266692862
 20
944.7697610410683
 30
0.0000000000000071
  0
SPLINE
  5
C95
330
2
100
AcDbEntity
  8
1
  6
Continuous
 62
     0
370
    20
100
AcDbSpline
210
0.0000000000003033
220
-0.0000000000002358
230
1.0
 70
     8
 71
     3
 72
    10
 73
     6
 74
     0
 42
0.0000000001
 43
0.0000000001
 40
0.0
 40
0.0
 40
0.0
 40
0.0
 40
0.6064051544438201
 40
0.6064051544438201
 40
1.0
 40
1.0
 40
1.0
 40
1.0
 10
1699.976856238594
 20
944.8344102622186
 30
0.0000000000000036
 10
1700.019255877639
 20
944.8663381504983
 30
0.0000000000000036
 10
1700.050931464071
 20
944.8987522444756
 30
0.0
 10
1700.085049969097
 20
944.9525649371818
 30
0.0000000000000059
 10
1700.093850573
 20
944.9738371336939
 30
0.0000000000000052
 10
1700.098000975297
 20
944.995126859346
 30
0.0000000000000034
  0
SPLINE
  5
C96
330
2
100
AcDbEntity
  8
1
  6
Continuous
 62
     0
370
    20
100
AcDbSpline
210
-0.0000000000047481
220
0.0000000000005518
230
1.0
 70
     8
 71
     3
 72
     8
 73
     4
 74
     0
 42
0.0000000001
 43
0.0000000001
 40
0.0
 40
0.0
 40
0.0
 40
0.0
 40
1.0
 40
1.0
 40
1.0
 40
1.0
 10
1700.098000975297
 20
944.995126859346
 30
0.0000000000000034
 10
1700.099889338403
 20
945.0048133257599
 30
0.0000000000000026
 10
1700.100815064828
 20
945.014503420875
 30
0.0000000000000016
 10
1700.100776088344
 20
945.0241901496079
 30
0.0000000000000006
  0
SPLINE
  5
C97
330
2
100
AcDbEntity
  8
1
  6
Continuous
 62
     0
370
    20
100
AcDbSpline
210
-0.0000000000000198
220
0.0000000000000008
230
1.0
 70
     8
 71
     3
 72
    18
 73
    14
 74
     0
 42
0.0000000001
 43
0.0000000001
 40
0.0
 40
0.0
 40
0.0
 40
0.0
 40
0.125
 40
0.125
 40
0.25
 40
0.25
 40
0.375
 40
0.375
 40
0.5
 40
0.5
 40
0.75
 40
0.75
 40
1.0
 40
1.0
 40
1.0
 40
1.0
 10
1699.974498482249
 20
944.8334509398629
 30
-0.0000000000000036
 10
1699.976280707152
 20
944.317672999956
 30
0.0000000000000036
 10
1699.975202765239
 20
943.8012997181058
 30
0.0
 10
1699.967552507931
 20
942.767468814114
 30
0.0
 10
1699.960977769159
 20
942.2500124104262
 30
0.0000000000000036
 10
1699.942411362479
 20
941.2141827224754
 30
0.0000000000000036
 10
1699.930417212586
 20
940.6958106599498
 30
0.0
 10
1699.901021337793
 20
939.6583379747903
 30
0.0000000000000036
 10
1699.883617393705
 20
939.1392508166811
 30
0.0000000000000036
 10
1699.823339648943
 20
937.5819055474707
 30
0.0000000000000036
 10
1699.772363225332
 20
936.5433171453839
 30
0.0
 10
1699.649493577196
 20
934.4662643456008
 30
0.0000000000000036
 10
1699.577600668655
 20
933.4277964313441
 30
-0.0000000000000036
 10
1699.4960266511
 20
932.3896059984955
 30
0.0000000000000036
  0
SPLINE
  5
C98
330
2
100
AcDbEntity
  8
1
  6
Continuous
 62
     0
370
    20
100
AcDbSpline
210
0.0
220
0.0
230
1.0
 70
     8
 71
     3
 72
    44
 73
    40
 74
     0
 42
0.0000000001
 43
0.0000000001
 40
0.0
 40
0.0
 40
0.0
 40
0.0
 40
0.0777892300816057
 40
0.0777892300816057
 40
0.097236537602006
 40
0.097236537602006
 40
0.1166838451224062
 40
0.1555784601632065
 40
0.1555784601632065
 40
0.2333676902448069
 40
0.2333676902448069
 40
0.3111569203264074
 40
0.3111569203264074
 40
0.3500515353672071
 40
0.3500515353672071
 40
0.3694988428876063
 40
0.3694988428876063
 40
0.3889461504080056
 40
0.3889461504080056
 40
0.4667353804896059
 40
0.4667353804896059
 40
0.5445246105712062
 40
0.5445246105712062
 40
0.6223138406528064
 40
0.6223138406528064
 40
0.7001030707344067
 40
0.7001030707344067
 40
0.7195503782548057
 40
0.7195503782548057
 40
0.7389976857752046
 40
0.777892300816002
 40
0.777892300816002
 40
0.8556815308975986
 40
0.8556815308975986
 40
0.9334707609791951
 40
0.9334707609791951
 40
0.9723653760199924
 40
0.9723653760199924
 40
1.0
 40
1.0
 40
1.0
 40
1.0
 10
1694.104865970838
 20
917.020697902822
 30
0.0000000000000036
 10
1694.336210903293
 20
917.030884846422
 30
0.0
 10
1694.563669271006
 20
917.0433921268564
 30
0.0000000000000036
 10
1694.84329759757
 20
917.0617546094412
 30
0.0000000000000036
 10
1694.898936184229
 20
917.0655613583877
 30
-0.0000000000000036
 10
1695.009359632392
 20
917.0734194197894
 30
0.0000000000000036
 10
1695.173841345239
 20
917.085581896568
 30
0.0
 10
1695.334905331665
 20
917.0988516750313
 30
0.0000000000000036
 10
1695.65253290503
 20
917.1268400728241
 30
0.0
 10
1695.858299396538
 20
917.147424973136
 30
0.0
 10
1696.257746086996
 20
917.1924620294275
 30
0.0
 10
1696.451411200927
 20
917.216901499362
 30
-0.0000000000000036
 10
1696.732439528285
 20
917.2566568215721
 30
-0.0000000000000036
 10
1696.824551516029
 20
917.2704268759051
 30
0.0000000000000071
 10
1696.960382385895
 20
917.2918488219767
 30
0.0
 10
1697.005179817707
 20
917.2991036942512
 30
0.0
 10
1697.093547011865
 20
917.3137908423695
 30
-0.0000000000000036
 10
1697.137161227153
 20
917.3212300989662
 30
0.0000000000000071
 10
1697.352432734316
 20
917.3588946791008
 30
0.0000000000000071
 10
1697.515733352123
 20
917.3905165343917
 30
0.0
 10
1697.825000803183
 20
917.4566241759007
 30
0.0
 10
1697.97096482261
 20
917.4911106771567
 30
0.0000000000000071
 10
1698.245052706696
 20
917.5630287347264
 30
-0.0000000000000036
 10
1698.373182115171
 20
917.6004594083641
 30
-0.0000000000000036
 10
1698.610070233332
 20
917.6785428956296
 30
-0.0000000000000036
 10
1698.71745394627
 20
917.7187387603019
 30
0.0000000000000036
 10
1698.838498017124
 20
917.7703279735222
 30
0.0
 10
1698.862067386819
 20
917.7807238651864
 30
-0.0000000000000036
 10
1698.907764964481
 20
917.8015931716711
 30
0.0000000000000071
 10
1698.974139738325
 20
917.8330068223809
 30
0.0
 10
1699.034128711048
 20
917.8647431875051
 30
0.0000000000000036
 10
1699.145814027706
 20
917.9286379513625
 30
0.0
 10
1699.209253744047
 20
917.971794128673
 30
0.0000000000000036
 10
1699.314297527226
 20
918.0592546678486
 30
0.0000000000000036
 10
1699.355908739578
 20
918.1035581670855
 30
0.0
 10
1699.401082825637
 20
918.1709763638629
 30
0.0
 10
1699.413233430658
 20
918.1936126071107
 30
0.0
 10
1699.428971243613
 20
918.2325692957688
 30
0.0
 10
1699.434024955746
 20
918.2488279732366
 30
0.0000000000000018
 10
1699.43758235938
 20
918.2651559037868
 30
0.0000000000000033
  0
SPLINE
  5
C99
330
2
100
AcDbEntity
  8
1
  6
Continuous
 62
     0
370
    20
100
AcDbSpline
210
0.0000000000069838
220
-0.0000000000009097
230
1.0
 70
     8
 71
     3
 72
    10
 73
     6
 74
     0
 42
0.0000000001
 43
0.0000000001
 40
0.0
 40
0.0
 40
0.0
 40
0.0
 40
0.3898989900570151
 40
0.3898989900570151
 40
1.0
 40
1.0
 40
1.0
 40
1.0
 10
1699.43758235938
 20
918.2651559037868
 30
0.0000000000000033
 10
1699.439031857413
 20
918.2718088747904
 30
0.0000000000000039
 10
1699.440232933412
 20
918.2784733434175
 30
0.0000000000000044
 10
1699.442674027633
 20
918.2955942929266
 30
0.0000000000000053
 10
1699.443550033333
 20
918.3060303383847
 30
0.0000000000000055
 10
1699.443819120116
 20
918.316457161624
 30
0.0000000000000055
  0
SPLINE
  5
C9A
330
2
100
AcDbEntity
  8
1
  6
Continuous
 62
     0
370
    20
100
AcDbSpline
210
-0.0000000000000213
220
0.0000000000000205
230
1.0
 70
     8
 71
     3
 72
    31
 73
    27
 74
     0
 42
0.0000000001
 43
0.0000000001
 40
0.0
 40
0.0
 40
0.0
 40
0.0
 40
0.1249999999999787
 40
0.1249999999999787
 40
0.1562499999999748
 40
0.1562499999999748
 40
0.187499999999971
 40
0.187499999999971
 40
0.2499999999999633
 40
0.2499999999999633
 40
0.3749999999999479
 40
0.3749999999999479
 40
0.4062499999999443
 40
0.4062499999999443
 40
0.4374999999999406
 40
0.4999999999999418
 40
0.4999999999999418
 40
0.6249999999999531
 40
0.6249999999999531
 40
0.6874999999999637
 40
0.6874999999999637
 40
0.7499999999999743
 40
0.7499999999999743
 40
0.8749999999999889
 40
0.8749999999999889
 40
1.0
 40
1.0
 40
1.0
 40
1.0
 10
1698.137625578934
 20
930.9744761036935
 30
0.0
 10
1698.229142334048
 20
930.9796982238079
 30
0.0
 10
1698.316470826909
 20
930.9973729358903
 30
0.0
 10
1698.421210567131
 20
931.0326105275343
 30
0.0000000000000036
 10
1698.441935567787
 20
931.0403209157337
 30
0.0
 10
1698.482953252321
 20
931.0570270616009
 30
0.0000000000000036
 10
1698.503258332578
 20
931.0660342428105
 30
0.0000000000000036
 10
1698.562785092053
 20
931.0945372328717
 30
0.0000000000000036
 10
1698.600897957058
 20
931.1156126602707
 30
0.0000000000000036
 10
1698.711177221346
 20
931.1841943339169
 30
0.0000000000000071
 10
1698.779318564275
 20
931.2370107541402
 30
0.0
 10
1698.859158164099
 20
931.310072377644
 30
0.0000000000000036
 10
1698.874846451302
 20
931.3250343712368
 30
0.0000000000000036
 10
1698.905478705343
 20
931.3553974581955
 30
0.0000000000000036
 10
1698.950405236507
 20
931.401687943222
 30
0.0
 10
1698.992495960113
 20
931.450048301801
 30
0.0
 10
1699.073367149433
 20
931.54918519676
 30
-0.0000000000000036
 10
1699.122890989138
 20
931.6184809574613
 30
0.0000000000000036
 10
1699.191853611937
 20
931.7263099891025
 30
-0.0000000000000036
 10
1699.213947090821
 20
931.7629055810931
 30
0.0
 10
1699.256491994321
 20
931.8372953106855
 30
0.0
 10
1699.276968374777
 20
931.8751397164323
 30
0.0
 10
1699.335916554859
 20
931.9899622243946
 30
0.0
 10
1699.371856904271
 20
932.0680707222496
 30
0.0000000000000036
 10
1699.438047313531
 20
932.2269311371661
 30
0.0
 10
1699.46829164919
 20
932.3076857133946
 30
0.0
 10
1699.4960266511
 20
932.3896059984955
 30
0.0
  0
SPLINE
  5
C9B
330
2
100
AcDbEntity
  8
1
  6
Continuous
 62
     0
370
    20
100
AcDbSpline
210
-0.0000000000000123
220
0.0000000000000141
230
1.0
 70
     8
 71
     3
 72
    41
 73
    37
 74
     0
 42
0.0000000001
 43
0.0000000001
 40
0.0
 40
0.0
 40
0.0
 40
0.0
 40
0.1250000000000076
 40
0.1250000000000076
 40
0.2500000000000152
 40
0.2500000000000152
 40
0.3750000000000228
 40
0.3750000000000228
 40
0.4375000000000247
 40
0.4375000000000247
 40
0.5000000000000266
 40
0.5000000000000266
 40
0.5156250000000271
 40
0.5156250000000271
 40
0.5312500000000276
 40
0.5625000000000266
 40
0.5625000000000266
 40
0.6250000000000226
 40
0.6250000000000226
 40
0.6875000000000187
 40
0.6875000000000187
 40
0.718750000000017
 40
0.718750000000017
 40
0.7500000000000153
 40
0.7500000000000153
 40
0.8125000000000135
 40
0.8125000000000135
 40
0.8750000000000115
 40
0.8750000000000115
 40
0.9375000000000097
 40
0.9375000000000097
 40
0.9531250000000083
 40
0.9531250000000083
 40
0.9687500000000069
 40
0.9687500000000069
 40
1.0
 40
1.0
 40
1.0
 40
1.0
 10
1699.4960266511
 20
932.3896059984955
 30
0.0
 10
1699.426866742452
 20
932.1853298476463
 30
0.0
 10
1699.35042264667
 20
931.9852026693576
 30
-0.0000000000000036
 10
1699.181237180509
 20
931.5945479331427
 30
0.0000000000000036
 10
1699.088550853394
 20
931.403939764545
 30
0.0
 10
1698.885847885579
 20
931.0328283581188
 30
0.0
 10
1698.775854465021
 20
930.8523115811276
 30
0.0
 10
1698.596070034741
 20
930.5901626514506
 30
-0.0000000000000036
 10
1698.533664458137
 20
930.5042242125582
 30
0.0
 10
1698.403389428971
 20
930.3355332025876
 30
-0.0000000000000036
 10
1698.335523108307
 20
930.2527788053689
 30
0.0
 10
1698.246822545401
 20
930.1515909588928
 30
-0.0000000000000036
 10
1698.228873838188
 20
930.1314508156531
 30
0.0
 10
1698.192679001438
 20
930.0915201271392
 30
-0.0000000000000036
 10
1698.137922726925
 20
930.0321268331602
 30
0.0000000000000036
 10
1698.081743077595
 20
929.9742756853847
 30
0.0
 10
1697.967384306104
 20
929.8607397056875
 30
0.0000000000000036
 10
1697.888487035054
 20
929.7879289429673
 30
0.0000000000000036
 10
1697.724650004046
 20
929.6488541128949
 30
-0.0000000000000036
 10
1697.639720731695
 20
929.5825786828132
 30
0.0000000000000071
 10
1697.507313525869
 20
929.4885971620958
 30
0.0000000000000036
 10
1697.462340632144
 20
929.4581770024086
 30
0.0
 10
1697.3706135727
 20
929.3992665906101
 30
0.0
 10
1697.323798174428
 20
929.3707487744043
 30
0.0
 10
1697.181940562381
 20
929.2890870388216
 30
0.0000000000000071
 10
1697.085076676389
 20
929.2395420156555
 30
0.0000000000000036
 10
1696.88644848437
 20
929.1509195080267
 30
0.0
 10
1696.784686612623
 20
929.1118368238237
 30
0.0000000000000036
 10
1696.57577393417
 20
929.045182486074
 30
0.0000000000000036
 10
1696.468627838412
 20
929.0176007697109
 30
0.0
 10
1696.330849033078
 20
928.9913392663306
 30
0.0000000000000071
 10
1696.303100053853
 20
928.9864996891644
 30
0.0
 10
1696.247199429893
 20
928.9776806482032
 30
0.0000000000000071
 10
1696.219046885443
 20
928.9737028093073
 30
0.0000000000000036
 10
1696.134437175918
 20
928.963167507535
 30
0.0000000000000071
 10
1696.077675037529
 20
928.9579807074424
 30
0.0000000000000036
 10
1696.020539840504
 20
928.9547204644277
 30
0.0000000000000071
  0
SPLINE
  5
C9C
330
2
100
AcDbEntity
  8
1
  6
Continuous
 62
     0
370
    20
100
AcDbSpline
210
-0.000000000000105
220
0.0000000000000036
230
1.0
 70
     8
 71
     3
 72
    16
 73
    12
 74
     0
 42
0.0000000001
 43
0.0000000001
 40
0.0
 40
0.0
 40
0.0
 40
0.0
 40
0.25
 40
0.25
 40
0.5
 40
0.5
 40
0.75
 40
0.75
 40
0.875
 40
0.875
 40
1.0
 40
1.0
 40
1.0
 40
1.0
 10
1698.137625578934
 20
930.9744761036935
 30
0.0000000000000036
 10
1698.216863699891
 20
932.1244495847391
 30
0.0000000000000036
 10
1698.28573205773
 20
933.2745748381821
 30
0.0000000000000036
 10
1698.401695262256
 20
935.5746173893647
 30
0.0000000000000071
 10
1698.448802402454
 20
936.7246234156707
 30
0.0
 10
1698.521579121045
 20
939.0244648778532
 30
0.0000000000000036
 10
1698.547292400543
 20
940.1740615363779
 30
0.0
 10
1698.570499719371
 20
941.8979901485094
 30
0.0
 10
1698.575674360183
 20
942.4725328619361
 30
-0.0000000000000036
 10
1698.580881041618
 20
943.6213405364616
 30
0.0
 10
1698.580916448156
 20
944.195617251475
 30
0.0
 10
1698.578266692863
 20
944.7697610410365
 30
0.0000000000000036
  0
SPLINE
  5
C9D
330
2
100
AcDbEntity
  8
1
  6
Continuous
 62
     0
370
    20
100
AcDbSpline
210
0.0000000000002509
220
0.0000000000000203
230
1.0
 70
     8
 71
     3
 72
    12
 73
     8
 74
     0
 42
0.0000000001
 43
0.0000000001
 40
0.0
 40
0.0
 40
0.0
 40
0.0
 40
0.25
 40
0.25
 40
0.5
 40
0.5
 40
1.0
 40
1.0
 40
1.0
 40
1.0
 10
1698.578266692863
 20
944.7697610410365
 30
0.0000000000000036
 10
1698.575401215697
 20
944.9544044181559
 30
0.0000000000000071
 10
1698.569652994697
 20
945.1387631435611
 30
0.0
 10
1698.552398019241
 20
945.5069119776252
 30
0.0
 10
1698.540886864922
 20
945.6907550117401
 30
0.0000000000000036
 10
1698.497731728705
 20
946.2410410077881
 30
0.0
 10
1698.457500082768
 20
946.6060179339498
 30
0.0
 10
1698.405799707611
 20
946.9691131948611
 30
0.0000000000000036
  0
SPLINE
  5
C9E
330
2
100
AcDbEntity
  8
1
  6
Continuous
 62
     0
370
    20
100
AcDbSpline
210
0.0
220
0.0
230
1.0
 70
    24
 71
     3
 72
     8
 73
     4
 74
     0
 42
0.0000000001
 43
0.0000000001
 40
0.0
 40
0.0
 40
0.0
 40
0.0
 40
1.0
 40
1.0
 40
1.0
 40
1.0
 10
1673.269825250849
 20
964.9360811221203
 30
0.0000000000000036
 10
1673.224707274843
 20
964.966587729239
 30
0.0000000000000053
 10
1673.179589298837
 20
964.9970943363578
 30
0.0
 10
1673.134471322831
 20
965.0276009434765
 30
0.0000000000000027
  0
SPLINE
  5
C9F
330
2
100
AcDbEntity
  8
1
  6
Continuous
 62
     0
370
    20
100
AcDbSpline
210
0.0000000000003655
220
0.0000000000002907
230
1.0
 70
     8
 71
     3
 72
    13
 73
     9
 74
     0
 42
0.0000000001
 43
0.0000000001
 40
0.0
 40
0.0
 40
0.0
 40
0.0
 40
0.0000102031343562
 40
0.0000102031343562
 40
0.2133405531630239
 40
0.4266709031916915
 40
0.7133354515958458
 40
1.0
 40
1.0
 40
1.0
 40
1.0
 10
1673.327730900303
 20
964.1646957247949
 30
0.0000000000000051
 10
1673.327725812128
 20
964.1647043347004
 30
0.0000000000000011
 10
1673.327720723953
 20
964.1647129446061
 30
0.0000000000000055
 10
1673.232543578363
 20
964.3257660183529
 30
0.0000000000000009
 10
1673.018989811738
 20
964.6508549535104
 30
0.0
 10
1672.570438995968
 20
965.2096893839786
 30
-0.0000000000000036
 10
1672.034531512022
 20
965.8340449046621
 30
0.0000000000000009
 10
1671.653801917562
 20
966.2871577002745
 30
0.0000000000000036
 10
1671.462206152217
 20
966.5139549465219
 30
0.0000000000000018
  0
SPLINE
  5
CA0
330
2
100
AcDbEntity
  8
1
  6
Continuous
 62
     0
370
    20
100
AcDbSpline
210
0.0000000000002496
220
-0.0000000000000175
230
1.0
 70
     8
 71
     3
 72
    16
 73
    12
 74
     0
 42
0.0000000001
 43
0.0000000001
 40
0.0
 40
0.0
 40
0.0
 40
0.0
 40
0.1111111300821623
 40
0.2222222459487251
 40
0.3333333516429406
 40
0.4444444512264353
 40
0.555555548771854
 40
0.6666666483555286
 40
0.7777777540500772
 40
0.8888888699171509
 40
1.0
 40
1.0
 40
1.0
 40
1.0
 10
1610.27541870489
 20
942.8386371751853
 30
0.0000000000000009
 10
1610.262370080121
 20
942.7372685883915
 30
0.000000000000008
 10
1610.236272832254
 20
942.5345314277727
 30
0.0000000000000089
 10
1610.202940648839
 20
942.2300071509456
 30
0.0000000000000062
 10
1610.173875467827
 20
941.9252693681327
 30
-0.0000000000000036
 10
1610.149498851757
 20
941.6203559313341
 30
0.0000000000000036
 10
1610.129713091439
 20
941.3153501000612
 30
0.0000000000000018
 10
1610.114522665299
 20
941.0103209111053
 30
-0.0000000000000027
 10
1610.10403591649
 20
940.7053490320313
 30
0.0
 10
1610.097836878261
 20
940.4004828722285
 30
0.0000000000000018
 10
1610.097609819767
 20
940.1974197595389
 30
0.0000000000000036
 10
1610.097496290514
 20
940.0958881966989
 30
0.0000000000000036
  0
SPLINE
  5
CA1
330
2
100
AcDbEntity
  8
1
  6
Continuous
 62
     0
370
    20
100
AcDbSpline
210
0.000000000067817
220
0.0000000000001571
230
1.0
 70
     8
 71
     3
 72
     8
 73
     4
 74
     0
 42
0.0000000001
 43
0.0000000001
 40
0.0
 40
0.0
 40
0.0
 40
0.0
 40
1.0
 40
1.0
 40
1.0
 40
1.0
 10
1611.145797591026
 20
939.9903238009724
 30
0.0000000000000062
 10
1611.145871474857
 20
939.9154421928914
 30
0.0000000000000053
 10
1611.146035393603
 20
939.8405587140034
 30
0.0
 10
1611.14628861929
 20
939.7656731893485
 30
0.0000000000000102
  0
SPLINE
  5
CA2
330
2
100
AcDbEntity
  8
1
  6
Continuous
 62
     0
370
    20
100
AcDbSpline
210
-0.0000000000000051
220
-0.0000000000000075
230
-1.0
 70
     8
 71
     3
 72
    36
 73
    32
 74
     0
 42
0.0000000001
 43
0.0000000001
 40
0.0
 40
0.0
 40
0.0
 40
0.0
 40
0.1249999999999921
 40
0.1249999999999921
 40
0.2499999999999842
 40
0.2499999999999842
 40
0.3749999999999762
 40
0.3749999999999762
 40
0.4374999999999706
 40
0.4374999999999706
 40
0.4687499999999706
 40
0.4687499999999706
 40
0.4999999999999707
 40
0.4999999999999707
 40
0.6249999999999784
 40
0.6249999999999784
 40
0.6562499999999785
 40
0.6562499999999785
 40
0.6874999999999786
 40
0.6874999999999786
 40
0.7499999999999813
 40
0.7499999999999813
 40
0.812499999999984
 40
0.812499999999984
 40
0.8749999999999866
 40
0.8749999999999866
 40
0.9062499999999879
 40
0.9062499999999879
 40
0.9374999999999895
 40
0.9374999999999895
 40
1.0
 40
1.0
 40
1.0
 40
1.0
 10
1611.871636548912
 20
927.3895916350848
 30
-0.0000000000000002
 10
1611.922758800077
 20
927.3121949204373
 30
0.0000000000000007
 10
1611.975922107882
 20
927.2363593564264
 30
0.0000000000000082
 10
1612.086835036512
 20
927.0881961788203
 30
0.0000000000000024
 10
1612.144580739952
 20
927.0158655689204
 30
0.0000000000000075
 10
1612.265403196146
 20
926.875281928774
 30
-0.0000000000000038
 10
1612.328472004946
 20
926.8070228224065
 30
0.0000000000000051
 10
1612.427940804591
 20
926.7083557221805
 30
0.0000000000000018
 10
1612.46191186182
 20
926.6760899007717
 30
0.0000000000000013
 10
1612.514249956161
 20
926.6287478482365
 30
0.0000000000000071
 10
1612.531922082039
 20
926.6131490129916
 30
-0.0000000000000011
 10
1612.567580907409
 20
926.5824776301709
 30
0.0000000000000011
 10
1612.585587930947
 20
926.5673864392367
 30
0.0000000000000029
 10
1612.676556660564
 20
926.4932157019609
 30
0.0000000000000036
 10
1612.752284998408
 20
926.4379447223136
 30
0.0000000000000038
 10
1612.85166349856
 20
926.3753509402205
 30
0.0000000000000031
 10
1612.871777458998
 20
926.3631601749219
 30
0.0000000000000058
 10
1612.912518812216
 20
926.3394854392602
 30
0.0000000000000016
 10
1612.933185656976
 20
926.3279819569792
 30
0.0000000000000049
 10
1612.995512432187
 20
926.2948824673108
 30
0.0
 10
1613.037605894007
 20
926.2746237790704
 30
0.0000000000000066
 10
1613.122988056543
 20
926.2380906285939
 30
0.0000000000000023
 10
1613.166276314288
 20
926.2218146897549
 30
0.0000000000000011
 10
1613.25419515136
 20
926.1937373255587
 30
0.0000000000000049
 10
1613.298824991344
 20
926.1819334356653
 30
0.0000000000000064
 10
1613.366927360868
 20
926.1680863926407
 30
-0.0000000000000027
 10
1613.389861645913
 20
926.1641099444267
 30
-0.0000000000000006
 10
1613.435975352559
 20
926.1575796013676
 30
0.0000000000000102
 10
1613.459005394649
 20
926.1550447599248
 30
0.0000000000000002
 10
1613.52801300297
 20
926.1496880000478
 30
0.0000000000000038
 10
1613.573908209048
 20
926.1491095478746
 30
0.000000000000006
 10
1613.619686283304
 20
926.151721731863
 30
0.0000000000000023
  0
SPLINE
  5
CA3
330
2
100
AcDbEntity
  8
1
  6
Continuous
 62
     0
370
    20
100
AcDbSpline
210
-0.0000000000001179
220
0.0000000000000089
230
1.0
 70
     8
 71
     3
 72
    10
 73
     6
 74
     0
 42
0.0000000001
 43
0.0000000001
 40
0.0
 40
0.0
 40
0.0
 40
0.0
 40
0.5
 40
0.5
 40
1.0
 40
1.0
 40
1.0
 40
1.0
 10
1611.318430365263
 20
942.4348546442972
 30
0.0000000000000133
 10
1611.264170478998
 20
942.0278304473102
 30
-0.0000000000000018
 10
1611.222637013904
 20
941.6201234152943
 30
0.0000000000000044
 10
1611.165026048972
 20
940.8033840566623
 30
0.0000000000000031
 10
1611.149081459917
 20
940.3962471407723
 30
0.0000000000000053
 10
1611.145797591026
 20
939.9903238009743
 30
0.0000000000000111
  0
SPLINE
  5
CA4
330
2
100
AcDbEntity
  8
1
  6
Continuous
 62
     0
370
    20
100
AcDbSpline
210
0.0000000000000022
220
0.0000000000000511
230
1.0
 70
     8
 71
     3
 72
    39
 73
    35
 74
     0
 42
0.0000000001
 43
0.0000000001
 40
0.0
 40
0.0
 40
0.0
 40
0.0
 40
0.0312499999999969
 40
0.0390624999999984
 40
0.0390624999999984
 40
0.0468749999999999
 40
0.0468749999999999
 40
0.0625000000000033
 40
0.1249999999999972
 40
0.1249999999999972
 40
0.2499999999999961
 40
0.2499999999999961
 40
0.3124999999999956
 40
0.3124999999999956
 40
0.3437499999999953
 40
0.3437499999999953
 40
0.374999999999995
 40
0.374999999999995
 40
0.4374999999999945
 40
0.4374999999999945
 40
0.4687499999999986
 40
0.4687499999999986
 40
0.5000000000000028
 40
0.5000000000000028
 40
0.6249999999999986
 40
0.7499999999999945
 40
0.7499999999999945
 40
0.7812499999999952
 40
0.7812499999999952
 40
0.8124999999999959
 40
0.8124999999999959
 40
0.8749999999999971
 40
0.8749999999999971
 40
1.0
 40
1.0
 40
1.0
 40
1.0
 10
1613.083901183669
 20
939.891179256724
 30
0.0000000000000044
 10
1613.063007017293
 20
939.8901303105997
 30
-0.0000000000000013
 10
1613.036778810966
 20
939.8889003967246
 30
-0.0000000000000009
 10
1613.010412547126
 20
939.8877720207007
 30
0.0000000000000013
 10
1612.999854988008
 20
939.8873287999244
 30
0.0000000000000009
 10
1612.994470968835
 20
939.8871070938149
 30
-0.0000000000000004
 10
1612.978396128601
 20
939.8864585174795
 30
0.0000000000000018
 10
1612.924784395153
 20
939.8843833932218
 30
0.000000000000004
 10
1612.871029371753
 20
939.8827381400103
 30
0.000000000000004
 10
1612.741748281915
 20
939.8795966610878
 30
0.0000000000000031
 10
1612.655203290762
 20
939.8785751756225
 30
0.0000000000000004
 10
1612.524852563989
 20
939.878642951667
 30
0.0000000000000093
 10
1612.481313168144
 20
939.8789330536745
 30
0.0000000000000053
 10
1612.415868151696
 20
939.8797760833183
 30
0.0000000000000031
 10
1612.394030474062
 20
939.8801251272796
 30
0.0000000000000111
 10
1612.350309178298
 20
939.8809610827337
 30
-0.0000000000000004
 10
1612.328398050854
 20
939.8814487683456
 30
0.0000000000000049
 10
1612.262868856694
 20
939.8831146303161
 30
0.0000000000000089
 10
1612.219425701657
 20
939.8844951347708
 30
0.0000000000000044
 10
1612.154624210387
 20
939.8869694764233
 30
0.0000000000000093
 10
1612.133084302881
 20
939.887861575943
 30
0.0000000000000107
 10
1612.09012605742
 20
939.8897808552964
 30
0.0000000000000049
 10
1612.068697101045
 20
939.8908087693401
 30
-0.0000000000000009
 10
1611.962393666782
 20
939.89625890453
 30
0.0000000000000036
 10
1611.796831050142
 20
939.9069930619354
 30
0.000000000000004
 10
1611.640021937131
 20
939.9216260584744
 30
0.0000000000000013
 10
1611.544802456104
 20
939.932013025899
 30
0.0000000000000107
 10
1611.525898430506
 20
939.9341527351523
 30
0.0000000000000022
 10
1611.488373700356
 20
939.9385583931577
 30
0.0
 10
1611.469719615647
 20
939.9408286190917
 30
0.0000000000000031
 10
1611.414460435477
 20
939.9477971162191
 30
0.0000000000000018
 10
1611.378605997607
 20
939.9526454522431
 30
0.0000000000000036
 10
1611.273924466581
 20
939.9677835005968
 30
-0.0000000000000004
 10
1611.207967253033
 20
939.978663806168
 30
0.0000000000000071
 10
1611.145797591026
 20
939.9903238009738
 30
0.0000000000000009
  0
SPLINE
  5
CA5
330
2
100
AcDbEntity
  8
1
  6
Continuous
 62
     0
370
    20
100
AcDbSpline
210
0.0000000000000032
220
0.0000000000000052
230
-1.0
 70
     8
 71
     3
 72
    42
 73
    38
 74
     0
 42
0.0000000001
 43
0.0000000001
 40
0.0
 40
0.0
 40
0.0
 40
0.0
 40
0.1249999999999985
 40
0.1249999999999985
 40
0.2499999999999971
 40
0.2499999999999971
 40
0.3749999999999956
 40
0.3749999999999956
 40
0.4374999999999968
 40
0.4374999999999968
 40
0.4999999999999981
 40
0.4999999999999981
 40
0.5156249999999975
 40
0.5156249999999975
 40
0.531249999999997
 40
0.5624999999999965
 40
0.5624999999999965
 40
0.6249999999999935
 40
0.6249999999999935
 40
0.6874999999999904
 40
0.6874999999999904
 40
0.7187499999999896
 40
0.7187499999999896
 40
0.734374999999988
 40
0.734374999999988
 40
0.7499999999999866
 40
0.8124999999999893
 40
0.8124999999999893
 40
0.8749999999999921
 40
0.8749999999999921
 40
0.937499999999995
 40
0.937499999999995
 40
0.9531249999999953
 40
0.9531249999999953
 40
0.9687499999999959
 40
0.9687499999999959
 40
1.0
 40
1.0
 40
1.0
 40
1.0
 10
1611.871636548912
 20
927.3895916350848
 30
0.0000000000000022
 10
1611.999146508742
 20
927.1965474762129
 30
0.0000000000000069
 10
1612.13261556695
 20
927.0083992540831
 30
0.0000000000000071
 10
1612.412798971132
 20
926.6433695621236
 30
-0.0000000000000002
 10
1612.559482434066
 20
926.4664029591083
 30
0.000000000000002
 10
1612.866968324491
 20
926.124353595291
 30
0.0000000000000009
 10
1613.027751762363
 20
925.9592548510486
 30
0.0000000000000021
 10
1613.280984247249
 20
925.7217553106526
 30
0.0000000000000095
 10
1613.36741419507
 20
925.6442882771857
 30
0.000000000000003
 10
1613.544728228025
 20
925.4931032291535
 30
0.000000000000004
 10
1613.635609749153
 20
925.4193830564821
 30
0.0000000000000073
 10
1613.752365459357
 20
925.329887381345
 30
0.000000000000004
 10
1613.775880982048
 20
925.3121173700632
 30
0.0000000000000053
 10
1613.823082379594
 20
925.2769693634691
 30
0.0000000000000008
 10
1613.894195876193
 20
925.2247923444592
 30
0.0000000000000023
 10
1613.966264732004
 20
925.1742873279845
 30
-0.0000000000000034
 10
1614.111744905511
 20
925.0756267774535
 30
0.0000000000000034
 10
1614.210516324947
 20
925.0129764234969
 30
0.0000000000000078
 10
1614.41211888626
 20
924.8947807564205
 30
0.0000000000000013
 10
1614.514942939353
 20
924.839223037005
 30
0.0000000000000061
 10
1614.672549951913
 20
924.7617860277212
 30
0.0000000000000037
 10
1614.725648534958
 20
924.7369588606405
 30
-0.0000000000000012
 10
1614.806195128298
 20
924.7012909844391
 30
-0.0000000000000024
 10
1614.833227885945
 20
924.6896500423526
 30
0.0000000000000011
 10
1614.887405881605
 20
924.6669926179141
 30
0.0000000000000001
 10
1615.023113058462
 20
924.6119161585104
 30
-0.0000000000000009
 10
1615.16014281733
 20
924.5647448008437
 30
0.000000000000006
 10
1615.381201894523
 20
924.5000977827514
 30
0.0000000000000125
 10
1615.492636251239
 20
924.4731823914825
 30
0.0000000000000064
 10
1615.717499386336
 20
924.4312723110645
 30
0.0000000000000031
 10
1615.830926394486
 20
924.4162670411995
 30
0.0000000000000045
 10
1615.974135585413
 20
924.4060302847159
 30
0.0000000000000054
 10
1616.002849035306
 20
924.4044109581693
 30
0.0000000000000025
 10
1616.060425233364
 20
924.4020646641281
 30
-0.0000000000000034
 10
1616.089253069151
 20
924.401340428775
 30
0.0000000000000056
 10
1616.175497640633
 20
924.4005576177826
 30
0.0000000000000001
 10
1616.23281272226
 20
924.401880996444
 30
-0.0000000000000012
 10
1616.289937561581
 20
924.4051406484286
 30
0.0000000000000011
  0
SPLINE
  5
CA6
330
2
100
AcDbEntity
  8
1
  6
Continuous
 62
     0
370
    20
100
AcDbSpline
210
0.0000000000000636
220
0.0000000000000038
230
1.0
 70
     8
 71
     3
 72
    18
 73
    14
 74
     0
 42
0.0000000001
 43
0.0000000001
 40
0.0
 40
0.0
 40
0.0
 40
0.0
 40
0.2500000000000007
 40
0.2500000000000007
 40
0.3750000000000007
 40
0.3750000000000007
 40
0.5000000000000007
 40
0.5000000000000007
 40
0.7500000000000007
 40
0.7500000000000007
 40
0.8750000000000003
 40
0.8750000000000003
 40
1.0
 40
1.0
 40
1.0
 40
1.0
 10
1611.871636548912
 20
927.3895916350848
 30
0.0000000000000058
 10
1611.765601147316
 20
928.417080257296
 30
0.0
 10
1611.668682270767
 20
929.4461581792409
 30
0.0000000000000033
 10
1611.539429726793
 20
930.9916340801503
 30
0.0000000000000107
 10
1611.49903446041
 20
931.5071067255129
 30
-0.0000000000000013
 10
1611.424066111412
 20
932.5386207579823
 30
0.0000000000000075
 10
1611.389489967375
 20
933.0547112164097
 30
0.0000000000000071
 10
1611.295252329553
 20
934.6032468010017
 30
0.0000000000000031
 10
1611.245061517825
 20
935.6359728214517
 30
-0.0000000000000013
 10
1611.191974597667
 20
937.1847555923352
 30
0.0000000000000075
 10
1611.177984052966
 20
937.7009634955474
 30
0.0
 10
1611.157969166313
 20
938.7331517047062
 30
0.0000000000000022
 10
1611.151946252864
 20
939.2491307627208
 30
0.0000000000000093
 10
1611.15016383195
 20
939.7649654673527
 30
-0.0000000000000049
  0
SPLINE
  5
CA7
330
2
100
AcDbEntity
  8
1
  6
Continuous
 62
     0
370
    20
100
AcDbSpline
210
-0.0000000000001077
220
-0.0000000000003482
230
1.0
 70
     8
 71
     3
 72
    14
 73
    10
 74
     0
 42
0.0000000001
 43
0.0000000001
 40
0.0
 40
0.0
 40
0.0
 40
0.0
 40
0.25
 40
0.25
 40
0.5
 40
0.5
 40
0.75
 40
0.75
 40
1.0
 40
1.0
 40
1.0
 40
1.0
 10
1610.097523468098
 20
940.0958702901696
 30
0.0000000000000053
 10
1610.145429757762
 20
940.0645317531708
 30
0.0000000000000027
 10
1610.203962892827
 20
940.033818614029
 30
0.000000000000008
 10
1610.341314939901
 20
939.9741510163744
 30
0.0000000000000053
 10
1610.420133223318
 20
939.94519683093
 30
-0.0000000000000027
 10
1610.596750957408
 20
939.8895264854926
 30
0.000000000000004
 10
1610.69454959979
 20
939.8628105802751
 30
0.0000000000000009
 10
1610.907509220293
 20
939.8120590911913
 30
0.0000000000000031
 10
1611.022669223805
 20
939.7880237395893
 30
0.0000000000000018
 10
1611.145557267906
 20
939.7655275112366
 30
0.0000000000000031
  0
SPLINE
  5
CA8
330
2
100
AcDbEntity
  8
1
  6
Continuous
 62
     0
370
    20
100
AcDbSpline
210
-0.000000000000017
220
0.0000000000000006
230
1.0
 70
     8
 71
     3
 72
     8
 73
     4
 74
     0
 42
0.0000000001
 43
0.0000000001
 40
0.0
 40
0.0
 40
0.0
 40
0.0
 40
1.0
 40
1.0
 40
1.0
 40
1.0
 10
1609.268582739688
 20
913.5649523358566
 30
0.0000000000000027
 10
1609.705835992311
 20
922.3033234015122
 30
-0.0000000000000018
 10
1610.128802980988
 20
931.0510391652629
 30
-0.0000000000000018
 10
1610.097549431852
 20
940.0958524596637
 30
0.0
  0
SPLINE
  5
CA9
330
2
100
AcDbEntity
  8
1
  6
Continuous
 62
     0
370
    20
100
AcDbSpline
210
0.0000000000000016
220
0.0000000000000171
230
1.0
 70
     8
 71
     3
 72
    53
 73
    49
 74
     0
 42
0.0000000001
 43
0.0000000001
 40
0.0
 40
0.0
 40
0.0
 40
0.0
 40
0.0625000000000067
 40
0.0625000000000067
 40
0.0781250000000083
 40
0.0781250000000083
 40
0.0937500000000098
 40
0.125000000000013
 40
0.125000000000013
 40
0.1875000000000189
 40
0.1875000000000189
 40
0.2500000000000248
 40
0.2500000000000248
 40
0.2812500000000289
 40
0.2812500000000289
 40
0.2968750000000302
 40
0.2968750000000302
 40
0.3125000000000315
 40
0.3125000000000315
 40
0.3750000000000333
 40
0.3750000000000333
 40
0.4375000000000352
 40
0.4375000000000352
 40
0.500000000000037
 40
0.500000000000037
 40
0.5625000000000389
 40
0.5625000000000389
 40
0.578125000000039
 40
0.578125000000039
 40
0.5937500000000391
 40
0.5937500000000391
 40
0.6250000000000368
 40
0.6250000000000368
 40
0.6875000000000331
 40
0.6875000000000331
 40
0.7500000000000294
 40
0.7500000000000294
 40
0.7812500000000277
 40
0.7812500000000277
 40
0.7968750000000269
 40
0.7968750000000269
 40
0.8125000000000259
 40
0.8125000000000259
 40
0.8750000000000174
 40
0.8750000000000174
 40
0.9375000000000087
 40
0.9375000000000087
 40
1.0
 40
1.0
 40
1.0
 40
1.0
 10
1609.268583104574
 20
913.5649523573402
 30
0.0000000000000011
 10
1609.335639710725
 20
913.5200040669694
 30
0.0000000000000008
 10
1609.414090725334
 20
913.4760815771421
 30
0.0000000000000034
 10
1609.525920383223
 20
913.4223415849758
 30
0.0000000000000007
 10
1609.548950713199
 20
913.4116660472139
 30
-0.0000000000000025
 10
1609.596229735836
 20
913.3905005174892
 30
0.0000000000000018
 10
1609.669018766044
 20
913.3590104278452
 30
0.0000000000000013
 10
1609.747351130632
 20
913.3282803416474
 30
-0.000000000000005
 10
1609.911317581639
 20
913.2678114443177
 30
0.0000000000000001
 10
1610.030339355618
 20
913.2288162587068
 30
0.0000000000000069
 10
1610.288003566063
 20
913.1534632454449
 30
0.0000000000000034
 10
1610.426667941592
 20
913.1170896445283
 30
0.0000000000000021
 10
1610.6500535432
 20
913.0646663088494
 30
0.0000000000000075
 10
1610.72705838572
 20
913.0475534689807
 30
-0.0000000000000038
 10
1610.846365872284
 20
913.0224164975338
 30
0.0000000000000038
 10
1610.886679941701
 20
913.0141455041561
 30
0.0000000000000075
 10
1610.968157527036
 20
912.997860039008
 30
0.0000000000000018
 10
1611.009355218247
 20
912.9898383439352
 30
0.0000000000000012
 10
1611.217600313762
 20
912.9503226717018
 30
0.0000000000000002
 10
1611.391383823709
 20
912.9205968791922
 30
0.0000000000000029
 10
1611.752929513054
 20
912.864775829523
 30
0.000000000000005
 10
1611.940693894625
 20
912.8386814074053
 30
-0.0000000000000002
 10
1612.330615136644
 20
912.7902224215333
 30
0.0000000000000022
 10
1612.532767459829
 20
912.7678566849326
 30
0.0000000000000009
 10
1612.952705272352
 20
912.7271962176692
 30
0.0000000000000089
 10
1613.168022762259
 20
912.7091532455786
 30
0.0000000000000031
 10
1613.443364265501
 20
912.6893114967362
 30
0.000000000000008
 10
1613.498746186143
 20
912.6854791475706
 30
0.0000000000000064
 10
1613.610134177002
 20
912.6780849898349
 30
-0.000000000000006
 10
1613.66615756006
 20
912.674522460415
 30
0.0000000000000082
 10
1613.834509600842
 20
912.6642777733469
 30
0.0000000000000042
 10
1613.947330444148
 20
912.6580233725361
 30
-0.0000000000000016
 10
1614.287504280946
 20
912.6409420014738
 30
0.0000000000000109
 10
1614.516560376945
 20
912.6317877685298
 30
0.0000000000000095
 10
1614.97917148831
 20
912.6179322826084
 30
0.000000000000008
 10
1615.212725093451
 20
912.6132291579702
 30
0.0000000000000013
 10
1615.566602988145
 20
912.6097383119837
 30
0.0000000000000053
 10
1615.685160420547
 20
912.6091773378439
 30
0.0000000000000018
 10
1615.863907728054
 20
912.6092160390516
 30
0.000000000000004
 10
1615.923641527326
 20
912.6093766396238
 30
0.0000000000000084
 10
1616.043413104503
 20
912.6099944352681
 30
0.0000000000000093
 10
1616.103524325054
 20
912.6104524287507
 30
0.0000000000000027
 10
1616.403924744996
 20
912.6134789360865
 30
0.0000000000000036
 10
1616.642750688235
 20
912.6182306801068
 30
0.0000000000000018
 10
1617.11754863754
 20
912.6322063646055
 30
0.0000000000000018
 10
1617.353521195922
 20
912.6414288752391
 30
0.0000000000000067
 10
1617.822606338226
 20
912.6644138901101
 30
0.0000000000000009
 10
1618.055721173447
 20
912.6781715160584
 30
-0.0000000000000027
 10
1618.287313796401
 20
912.6944041685193
 30
-0.0000000000000013
  0
SPLINE
  5
CAA
330
2
100
AcDbEntity
  8
1
  6
Continuous
 62
     0
370
    20
100
AcDbSpline
210
-0.0000000000002726
220
0.0000000000000206
230
1.0
 70
     8
 71
     3
 72
    10
 73
     6
 74
     0
 42
0.0000000001
 43
0.0000000001
 40
0.0
 40
0.0
 40
0.0
 40
0.0
 40
0.5
 40
0.5
 40
1.0
 40
1.0
 40
1.0
 40
1.0
 10
1613.241097351202
 20
942.10941989007
 30
0.0000000000000009
 10
1613.191926059637
 20
941.7405597854578
 30
0.0000000000000049
 10
1613.154228167482
 20
941.3710902063613
 30
0.0000000000000004
 10
1613.101776332172
 20
940.6309322505844
 30
0.0000000000000036
 10
1613.087075687753
 20
940.2609830388877
 30
0.0000000000000044
 10
1613.083901183669
 20
939.891179256724
 30
0.0000000000000044
  0
SPLINE
  5
CAB
330
2
100
AcDbEntity
  8
1
  6
Continuous
 62
     0
370
    20
100
AcDbSpline
210
0.0000000000001785
220
0.0000000000000072
230
1.0
 70
     8
 71
     3
 72
    15
 73
    11
 74
     0
 42
0.0000000001
 43
0.0000000001
 40
0.0
 40
0.0
 40
0.0
 40
0.0
 40
0.1250000000000003
 40
0.1250000000000003
 40
0.2500000000000006
 40
0.5000000000000005
 40
0.5000000000000005
 40
0.7500000000000002
 40
0.7500000000000002
 40
1.0
 40
1.0
 40
1.0
 40
1.0
 10
1613.083901183669
 20
939.891179256724
 30
0.0000000000000044
 10
1613.085219861395
 20
939.3169515306162
 30
-0.0000000000000018
 10
1613.08922355314
 20
938.7429243617518
 30
-0.0000000000000022
 10
1613.102365121604
 20
937.5952535222022
 30
-0.0000000000000049
 10
1613.129788960075
 20
935.8743236459352
 30
-0.0000000000000013
 10
1613.180250354421
 20
934.1551130678322
 30
0.0000000000000009
 10
1613.268886560677
 20
931.8644303498166
 30
0.0000000000000042
 10
1613.323920480855
 20
930.7202090431514
 30
0.0000000000000056
 10
1613.455743262258
 20
928.4340403276095
 30
-0.0000000000000002
 10
1613.532532399957
 20
927.2922177538273
 30
0.0000000000000018
 10
1613.619686283304
 20
926.151721731863
 30
0.0000000000000085
  0
ENDSEC
  0
SECTION
  2
OBJECTS
  0
DICTIONARY
  5
B
330
0
100
AcDbDictionary
281
     1
  3
ACAD_COLOR
350
49
  3
ACAD_GROUP
350
34
  3
ACAD_LAYOUT
350
13
  3
ACAD_MATERIAL
350
D
  3
ACAD_MLEADERSTYLE
350
42A
  3
ACAD_MLINESTYLE
350
35
  3
ACAD_PLOTSETTINGS
350
36
  3
ACAD_PLOTSTYLENAME
350
A
  3
ACAD_SCALELIST
350
4A
  3
ACAD_TABLESTYLE
350
4B
  3
ACAD_VISUALSTYLE
350
2A
  3
ACDB_RECOMPOSE_DATA
350
41A
  3
AcDbVariableDictionary
350
3FA
  0
DICTIONARY
  5
2B
330
27
100
AcDbDictionary
280
     1
281
     1
  0
DICTIONARY
  5
1A
330
19
100
AcDbDictionary
280
     1
281
     1
  3
ACAD_LAYERFILTERS
360
1B
  3
ACAD_LAYERSTATES
360
1C
  3
ACLYDICTIONARY
360
1D
  0
DICTIONARY
  5
7
330
6
100
AcDbDictionary
280
     1
281
     1
  3
ADSK_XREC_LAYER_RECONCILED
360
8
  0
DICTIONARY
  5
76
330
75
100
AcDbDictionary
280
     1
281
     1
  3
ADSK_XREC_LAYER_RECONCILED
360
77
  0
DICTIONARY
  5
4D
330
4C
100
AcDbDictionary
280
     1
281
     1
  0
DICTIONARY
  5
3
330
2
100
AcDbDictionary
280
     1
281
     1
  3
ACAD_SORTENTS
360
3F0
  0
DICTIONARY
  5
50C
330
7B
100
AcDbDictionary
280
     1
281
     1
  0
DICTIONARY
  5
CB7
330
477
100
AcDbDictionary
280
     1
281
     1
  3
ACAD_MTEXT_2008_RT
360
CB8
  0
DICTIONARY
  5
CB9
330
4BB
100
AcDbDictionary
280
     1
281
     1
  3
ACAD_MTEXT_2008_RT
360
CBA
  0
DICTIONARY
  5
CBB
330
4BC
100
AcDbDictionary
280
     1
281
     1
  3
ACAD_MTEXT_2008_RT
360
CBC
  0
DICTIONARY
  5
CBD
330
4E1
100
AcDbDictionary
280
     1
281
     1
  3
ACAD_MTEXT_2008_RT
360
CBE
  0
DICTIONARY
  5
CBF
330
4E4
100
AcDbDictionary
280
     1
281
     1
  3
ACAD_MTEXT_2008_RT
360
CC0
  0
DICTIONARY
  5
CC1
330
4E5
100
AcDbDictionary
280
     1
281
     1
  3
ACAD_MTEXT_2008_RT
360
CC2
  0
DICTIONARY
  5
CC3
330
4EF
100
AcDbDictionary
280
     1
281
     1
  3
ACAD_MTEXT_2008_RT
360
CC4
  0
DICTIONARY
  5
CC5
330
4F0
100
AcDbDictionary
280
     1
281
     1
  3
ACAD_MTEXT_2008_RT
360
CC6
  0
DICTIONARY
  5
CC7
330
4F1
100
AcDbDictionary
280
     1
281
     1
  3
ACAD_MTEXT_2008_RT
360
CC8
  0
DICTIONARY
  5
CC9
330
4FF
100
AcDbDictionary
280
     1
281
     1
  3
ACAD_MTEXT_2008_RT
360
CCA
  0
DICTIONARY
  5
CCB
330
500
100
AcDbDictionary
280
     1
281
     1
  3
ACAD_MTEXT_2008_RT
360
CCC
  0
DICTIONARY
  5
CCD
330
501
100
AcDbDictionary
280
     1
281
     1
  3
ACAD_MTEXT_2008_RT
360
CCE
  0
DICTIONARY
  5
7A
330
79
100
AcDbDictionary
280
     1
281
     1
  0
DICTIONARY
  5
232
330
231
100
AcDbDictionary
280
     1
281
     1
  3
ACAD_DIMASSOC
360
233
  0
DICTIONARY
  5
242
330
241
100
AcDbDictionary
280
     1
281
     1
  3
ACAD_DIMASSOC
360
243
  0
DICTIONARY
  5
251
330
250
100
AcDbDictionary
280
     1
281
     1
  3
ACAD_DIMASSOC
360
252
  0
DICTIONARY
  5
CB5
330
3EE
100
AcDbDictionary
280
     1
281
     1
  3
ACAD_MTEXT_2008_RT
360
CB6
  0
DICTIONARY
  5
49
102
{ACAD_REACTORS
330
B
102
}
330
B
100
AcDbDictionary
281
     1
  0
DICTIONARY
  5
34
102
{ACAD_REACTORS
330
B
102
}
330
B
100
AcDbDictionary
281
     1
  0
DICTIONARY
  5
13
102
{ACAD_REACTORS
330
B
102
}
330
B
100
AcDbDictionary
281
     1
  3
Layout1
350
18
  3
Model
350
12
  0
DICTIONARY
  5
D
102
{ACAD_REACTORS
330
B
102
}
330
B
100
AcDbDictionary
281
     1
  3
ByBlock
350
40
  3
ByLayer
350
37
  3
Global
350
C
  0
DICTIONARY
  5
42A
102
{ACAD_REACTORS
330
B
102
}
330
B
100
AcDbDictionary
281
     1
  3
Standard
350
42B
  0
DICTIONARY
  5
35
102
{ACAD_REACTORS
330
B
102
}
330
B
100
AcDbDictionary
281
     1
  3
Standard
350
4E
  0
DICTIONARY
  5
36
102
{ACAD_REACTORS
330
B
102
}
330
B
100
AcDbDictionary
281
     1
  0
ACDBDICTIONARYWDFLT
  5
A
102
{ACAD_REACTORS
330
B
102
}
330
B
100
AcDbDictionary
281
     1
  3
Normal
350
9
100
AcDbDictionaryWithDefault
340
9
  0
DICTIONARY
  5
4A
102
{ACAD_REACTORS
330
B
102
}
330
B
100
AcDbDictionary
281
     1
  3
A0
350
53
  3
A1
350
54
  3
A2
350
55
  3
A3
350
56
  3
A4
350
57
  3
A5
350
58
  3
A6
350
59
  3
A7
350
5A
  3
A8
350
5B
  3
A9
350
5C
  3
B0
350
5D
  3
B1
350
5E
  3
B2
350
5F
  3
B3
350
60
  3
B4
350
61
  3
B5
350
62
  3
B6
350
63
  3
B7
350
64
  3
B8
350
65
  3
B9
350
66
  3
C0
350
67
  3
C1
350
68
  3
C2
350
69
  3
C3
350
6A
  3
C4
350
6B
  3
C5
350
6C
  3
C6
350
6D
  3
C7
350
6E
  3
C8
350
6F
  3
C9
350
70
  3
D0
350
71
  3
D1
350
72
  3
D2
350
73
  0
DICTIONARY
  5
4B
102
{ACAD_REACTORS
330
B
102
}
330
B
100
AcDbDictionary
281
     1
  3
Standard
350
4F
  0
DICTIONARY
  5
2A
102
{ACAD_REACTORS
330
B
102
}
330
B
100
AcDbDictionary
281
     1
  3
2dWireframe
350
29
  3
3D Hidden
350
422
  3
3dWireframe
350
52
  3
Basic
350
421
  3
Brighten
350
425
  3
ColorChange
350
429
  3
Conceptual
350
423
  3
Dim
350
424
  3
Facepattern
350
428
  3
Flat
350
41D
  3
FlatWithEdges
350
41E
  3
Gouraud
350
41F
  3
GouraudWithEdges
350
420
  3
Linepattern
350
427
  3
Realistic
350
51
  3
Thicken
350
426
  0
XRECORD
  5
41A
102
{ACAD_REACTORS
330
B
102
}
330
B
100
AcDbXrecord
280
     1
 90
        1
330
4F
330
3EE
330
477
330
4BB
330
4BC
330
4E1
330
4E4
330
4E5
330
4EF
330
4F0
330
4F1
330
4FF
330
500
330
501
  0
DICTIONARY
  5
3FA
102
{ACAD_REACTORS
330
B
102
}
330
B
100
AcDbDictionary
281
     1
  3
CANNOSCALE
350
3FD
  3
CMLEADERSTYLE
350
3FC
  3
CTABLESTYLE
350
3FB
  3
LIGHTINGUNITS
350
3FE
  3
MSLTSCALE
350
439
  0
DICTIONARY
  5
1B
102
{ACAD_REACTORS
330
1A
102
}
330
1A
100
AcDbDictionary
281
     1
  0
DICTIONARY
  5
1C
102
{ACAD_REACTORS
330
1A
102
}
330
1A
100
AcDbDictionary
281
     1
  0
DICTIONARY
  5
1D
102
{ACAD_REACTORS
330
1A
102
}
330
1A
100
AcDbDictionary
281
     1
1001
ACAD
1000
<All
  0
XRECORD
  5
8
102
{ACAD_REACTORS
330
7
102
}
330
7
100
AcDbXrecord
280
     1
290
     1
  0
XRECORD
  5
77
102
{ACAD_REACTORS
330
76
102
}
330
76
100
AcDbXrecord
280
     1
290
     1
  0
SORTENTSTABLE
  5
3F0
102
{ACAD_REACTORS
330
3
102
}
330
3
100
AcDbSortentsTable
330
2
  0
XRECORD
  5
CB8
102
{ACAD_REACTORS
330
CB7
102
}
330
CB7
100
AcDbXrecord
280
     1
 40
2562.0
  1
\pxqc;GY HUANG
  0
XRECORD
  5
CBA
102
{ACAD_REACTORS
330
CB9
102
}
330
CB9
100
AcDbXrecord
280
     1
 40
1262561.0
  1
\pxqc;档案员{\H0.7x;\P\Fromans|c134;Filing Clerk\fFangSong_GB2312|b0|i0|c134|p49; }
  0
XRECORD
  5
CBC
102
{ACAD_REACTORS
330
CBB
102
}
330
CBB
100
AcDbXrecord
280
     1
 40
650528.0
  1
\pxqc;日期{\Fromans|c134;/Date}
  0
XRECORD
  5
CBE
102
{ACAD_REACTORS
330
CBD
102
}
330
CBD
100
AcDbXrecord
280
     1
 40
2318748.0
  1
\pxsm0.7;{\f仿宋_GB2312|b0|i0|c134|p49;标准化}\PStand.
  0
XRECORD
  5
CC0
102
{ACAD_REACTORS
330
CBF
102
}
330
CBF
100
AcDbXrecord
280
     1
 40
118135.0
  1
\pxsm0.7;签名\P{\Fromans|c134;Signature} 
  0
XRECORD
  5
CC2
102
{ACAD_REACTORS
330
CC1
102
}
330
CC1
100
AcDbXrecord
280
     1
 40
108939.0
  1
\pxsm0.7,qc;处数\P{\Fromans|c134;Number }
  0
XRECORD
  5
CC4
102
{ACAD_REACTORS
330
CC3
102
}
330
CC3
100
AcDbXrecord
280
     1
 40
125762.0
  1
\pxsm0.7;标记\P{\Fromans|c134;Mark}
  0
XRECORD
  5
CC6
102
{ACAD_REACTORS
330
CC5
102
}
330
CC5
100
AcDbXrecord
280
     1
 40
111973.0
  1
\pxsm0.7;审核\P{\Fromans|c134;Checked}
  0
XRECORD
  5
CC8
102
{ACAD_REACTORS
330
CC7
102
}
330
CC7
100
AcDbXrecord
280
     1
 40
137968.0
  1
\pxsm0.7;绘图\P{\Fromans|c134;Drawn\Ftxt|c134; }
  0
XRECORD
  5
CCA
102
{ACAD_REACTORS
330
CC9
102
}
330
CC9
100
AcDbXrecord
280
     1
 40
106320.0
  1
\pxsm0.7;批准\P{\Fromans|c134;Approved}
  0
XRECORD
  5
CCC
102
{ACAD_REACTORS
330
CCB
102
}
330
CCB
100
AcDbXrecord
280
     1
 40
127283.0
  1
\pxsm0.7;工艺\P{\Fromans|c134;Process}
  0
XRECORD
  5
CCE
102
{ACAD_REACTORS
330
CCD
102
}
330
CCD
100
AcDbXrecord
280
     1
 40
106220.0
  1
\pxsm0.7;日期\P{\Fromans|c134;Date}
  0
DIMASSOC
  5
233
102
{ACAD_REACTORS
330
232
102
}
330
232
100
AcDbDimAssoc
330
231
 90
        3
 70
     0
 71
     0
  1
AcDbOsnapPointRef
 72
    13
331
1CD
 73
     2
 91
        0
 40
1.570785570681481
 10
0.0
 20
0.0
 30
2.000000000000000E+50
 75
     0
  1
AcDbOsnapPointRef
 72
    13
331
11F
 73
     2
 91
        0
 40
0.0
 10
0.0
 20
0.0
 30
2.000000000000000E+50
 75
     0
  0
DIMASSOC
  5
243
102
{ACAD_REACTORS
330
242
102
}
330
242
100
AcDbDimAssoc
330
241
 90
        3
 70
     0
 71
     0
  1
AcDbOsnapPointRef
 72
    13
331
149
 73
     2
 91
        0
 40
0.0
 10
0.0
 20
0.0
 30
2.000000000000000E+50
 75
     0
  1
AcDbOsnapPointRef
 72
     1
331
1D3
 73
     2
 91
        0
 40
6.282849403610967
 10
0.0
 20
0.0
 30
2.000000000000000E+50
 75
     0
  0
DIMASSOC
  5
252
102
{ACAD_REACTORS
330
251
102
}
330
251
100
AcDbDimAssoc
330
250
 90
        3
 70
     0
 71
     0
  1
AcDbOsnapPointRef
 72
     5
331
1DD
 73
     2
 91
        0
 40
3.141592653589792
 10
0.0
 20
0.0
 30
0.0
 75
     0
  1
AcDbOsnapPointRef
 72
     8
331
205
 73
     2
 91
        0
 40
0.9999997444321008
 10
0.0
 20
0.0
 30
0.0
 75
     1
  1
AcDbOsnapPointRef
 72
     5
331
1DD
 73
     2
 91
        0
 40
3.141592653589792
 10
0.0
 20
0.0
 30
0.0
 75
     0
  0
XRECORD
  5
CB6
102
{ACAD_REACTORS
330
CB5
102
}
330
CB5
100
AcDbXrecord
280
     1
 40
836034152.0
  1
\A1;\pxql;{\f仿宋_GB2312|b0|i0|c134|p49;技术参数：}\P- {\f仿宋_GB2312|b0|i0|c134|p49;材料}: {\f仿宋_GB2312|b0|i0|c134|p49;压铸铝}\P- {\f仿宋_GB2312|b0|i0|c134|p49;表面处理}: {\f仿宋_GB2312|b0|i0|c134|p49;粉末喷涂}\P- {\f仿宋_GB2312|b0|i0|c134|p49;颜色}: RAL 7037{\f仿宋_GB2312|b0|i0|c
  1
134|p49;（灰色）} \P- {\f仿宋_GB2312|b0|i0|c134|p49;温度范围}: -40{\f仿宋_GB2312|b0|i0|c134|p49;℃} - +125{\f仿宋_GB2312|b0|i0|c134|p49;℃}\P- {\f仿宋_GB2312|b0|i0|c134|p49;防护等级}: IP67{\f仿宋_GB2312|b0|i0|c134|p49;（联锁状态},IEC 60529)    \P- {\f仿宋_GB2312|b0|i0|c134|p49;出线方
  1
向}: {\f仿宋_GB2312|b0|i0|c134|p49;侧出线}\P- {\f仿宋_GB2312|b0|i0|c134|p49;出线孔数}: 1\P- {\f仿宋_GB2312|b0|i0|c134|p49;螺纹规格}: M32\P\PTechnical specification:\P- Material: aluminium die-cast\P- Surface: powder-coated\P- Colour: RAL 7037(grey)\P- Temperature rang
  1
e: -40{\f仿宋_GB2312|b0|i0|c134|p49;℃} - +125{\f仿宋_GB2312|b0|i0|c134|p49;℃}\P- Degree of protection: IP67\P  (acc.to IEC 60529 for coupled connector)\P- Cable entry: side entry\P- No. of cable entries: 1\P- Thread size: M32
  0
LAYOUT
  5
18
102
{ACAD_REACTORS
330
13
102
}
330
13
100
AcDbPlotSettings
  1

  2

  4

  6

 40
0.0
 41
0.0
 42
0.0
 43
0.0
 44
0.0
 45
0.0
 46
0.0
 47
0.0
 48
0.0
 49
0.0
140
0.0
141
0.0
142
1.0
143
1.0
 70
     0
 72
     0
 73
     0
 74
     0
  7

 75
     0
147
1.0
 76
     0
 77
     2
 78
   300
148
0.0
149
0.0
100
AcDbLayout
  1
Layout1
 70
     0
 71
     1
 10
0.0
 20
0.0
 11
12.0
 21
9.0
 12
0.0
 22
0.0
 32
0.0
 14
1.000000000000000E+20
 24
1.000000000000000E+20
 34
1.000000000000000E+20
 15
-1.000000000000000E+20
 25
-1.000000000000000E+20
 35
-1.000000000000000E+20
146
0.0
 13
0.0
 23
0.0
 33
0.0
 16
1.0
 26
0.0
 36
0.0
 17
0.0
 27
1.0
 37
0.0
 76
     0
330
15
  0
LAYOUT
  5
12
102
{ACAD_REACTORS
330
13
102
}
330
13
100
AcDbPlotSettings
  1

  2
novaPDF.pc3
  4
A4
  6

 40
3.174999952316282
 41
3.174999952316282
 42
3.17498779296875
 43
3.175003051757812
 44
297.0106506347656
 45
209.9733276367186
 46
1.340157936057892
 47
0.0
 48
1558.336744472735
 49
-186.8271445657527
140
2003.834869376285
141
128.1728554342471
142
1.0
143
1.546974054020034
 70
 15028
 72
     1
 73
     0
 74
     4
  7
monochrome.ctb
 75
     0
147
0.6464232528020469
 76
     1
 77
     2
 78
   300
148
-1558.336744472735
149
186.8271445657527
100
AcDbLayout
  1
Model
 70
     0
 71
     0
 10
0.0
 20
0.0
 11
0.0
 21
0.0
 12
0.0
 22
0.0
 32
0.0
 14
0.0
 24
0.0
 34
0.0
 15
0.0
 25
0.0
 35
0.0
146
0.0
 13
0.0
 23
0.0
 33
0.0
 16
0.0
 26
0.0
 36
0.0
 17
0.0
 27
0.0
 37
0.0
 76
     0
330
2
331
28
1001
ACAD_PSEXT
1000
novaPDF.pc3
1000
novaPDF Pro Desktop 7 Printer Driver
1000
NVP7:
1000

1070
     0
  0
MATERIAL
  5
40
102
{ACAD_XDICTIONARY
360
41
102
}
102
{ACAD_REACTORS
330
D
102
}
330
D
100
AcDbMaterial
  1
ByBlock
 72
     0
 43
0.0008202099737533
 43
0.0
 43
0.0
 43
0.0
 43
0.0
 43
0.0008202099737533
 43
0.0
 43
0.0
 43
0.0
 43
0.0
 43
1.0
 43
0.0
 43
0.0
 43
0.0
 43
0.0
 43
1.0
 77
     0
 47
0.0008202099737533
 47
0.0
 47
0.0
 47
0.0
 47
0.0
 47
0.0008202099737533
 47
0.0
 47
0.0
 47
0.0
 47
0.0
 47
1.0
 47
0.0
 47
0.0
 47
0.0
 47
0.0
 47
1.0
171
     0
 49
0.0008202099737533
 49
0.0
 49
0.0
 49
0.0
 49
0.0
 49
0.0008202099737533
 49
0.0
 49
0.0
 49
0.0
 49
0.0
 49
1.0
 49
0.0
 49
0.0
 49
0.0
 49
0.0
 49
1.0
175
     0
142
0.0008202099737533
142
0.0
142
0.0
142
0.0
142
0.0
142
0.0008202099737533
142
0.0
142
0.0
142
0.0
142
0.0
142
1.0
142
0.0
142
0.0
142
0.0
142
0.0
142
1.0
179
     0
144
0.0008202099737533
144
0.0
144
0.0
144
0.0
144
0.0
144
0.0008202099737533
144
0.0
144
0.0
144
0.0
144
0.0
144
1.0
144
0.0
144
0.0
144
0.0
144
0.0
144
1.0
147
0.0008202099737533
147
0.0
147
0.0
147
0.0
147
0.0
147
0.0008202099737533
147
0.0
147
0.0
147
0.0
147
0.0
147
1.0
147
0.0
147
0.0
147
0.0
147
0.0
147
1.0
  0
MATERIAL
  5
37
102
{ACAD_XDICTIONARY
360
38
102
}
102
{ACAD_REACTORS
330
D
102
}
330
D
100
AcDbMaterial
  1
ByLayer
 72
     0
 43
0.0008202099737533
 43
0.0
 43
0.0
 43
0.0
 43
0.0
 43
0.0008202099737533
 43
0.0
 43
0.0
 43
0.0
 43
0.0
 43
1.0
 43
0.0
 43
0.0
 43
0.0
 43
0.0
 43
1.0
 77
     0
 47
0.0008202099737533
 47
0.0
 47
0.0
 47
0.0
 47
0.0
 47
0.0008202099737533
 47
0.0
 47
0.0
 47
0.0
 47
0.0
 47
1.0
 47
0.0
 47
0.0
 47
0.0
 47
0.0
 47
1.0
171
     0
 49
0.0008202099737533
 49
0.0
 49
0.0
 49
0.0
 49
0.0
 49
0.0008202099737533
 49
0.0
 49
0.0
 49
0.0
 49
0.0
 49
1.0
 49
0.0
 49
0.0
 49
0.0
 49
0.0
 49
1.0
175
     0
142
0.0008202099737533
142
0.0
142
0.0
142
0.0
142
0.0
142
0.0008202099737533
142
0.0
142
0.0
142
0.0
142
0.0
142
1.0
142
0.0
142
0.0
142
0.0
142
0.0
142
1.0
179
     0
144
0.0008202099737533
144
0.0
144
0.0
144
0.0
144
0.0
144
0.0008202099737533
144
0.0
144
0.0
144
0.0
144
0.0
144
1.0
144
0.0
144
0.0
144
0.0
144
0.0
144
1.0
147
0.0008202099737533
147
0.0
147
0.0
147
0.0
147
0.0
147
0.0008202099737533
147
0.0
147
0.0
147
0.0
147
0.0
147
1.0
147
0.0
147
0.0
147
0.0
147
0.0
147
1.0
  0
MATERIAL
  5
C
102
{ACAD_XDICTIONARY
360
E
102
}
102
{ACAD_REACTORS
330
D
102
}
330
D
100
AcDbMaterial
  1
Global
 73
     1
 78
     1
172
     1
176
     1
270
     1
274
     1
  0
MLEADERSTYLE
  5
42B
102
{ACAD_REACTORS
330
42A
102
}
330
42A
100
AcDbMLeaderStyle
170
     2
171
     1
172
     0
 90
        2
 40
0.0
 41
0.0
173
     1
 91
-1056964608
340
23
 92
       -2
290
     1
 42
2.0
291
     1
 43
0.36
  3
Standard
 44
4.0
300

342
20
174
     1
178
     6
175
     1
176
     0
 93
-1056964608
 45
4.0
292
     0
297
     0
 46
4.0
 94
-1056964608
 47
1.0
 49
1.0
140
1.0
293
     1
141
0.0
294
     1
177
     0
142
1.0
295
     0
296
     0
143
0.125
1001
ACAD_MLEADERVER
1070
     2
  0
MLINESTYLE
  5
4E
102
{ACAD_REACTORS
330
35
102
}
330
35
100
AcDbMlineStyle
  2
STANDARD
 70
     0
  3

 62
   256
 51
90.0
 52
90.0
 71
     2
 49
0.5
 62
   256
  6
BYLAYER
 49
-0.5
 62
   256
  6
BYLAYER
  0
ACDBPLACEHOLDER
  5
9
102
{ACAD_REACTORS
330
A
102
}
330
A
  0
SCALE
  5
53
102
{ACAD_REACTORS
330
4A
102
}
330
4A
100
AcDbScale
 70
     0
300
1:1
140
1.0
141
1.0
290
     1
  0
SCALE
  5
54
102
{ACAD_REACTORS
330
4A
102
}
330
4A
100
AcDbScale
 70
     0
300
1:2
140
1.0
141
2.0
290
     0
  0
SCALE
  5
55
102
{ACAD_REACTORS
330
4A
102
}
330
4A
100
AcDbScale
 70
     0
300
1:4
140
1.0
141
4.0
290
     0
  0
SCALE
  5
56
102
{ACAD_REACTORS
330
4A
102
}
330
4A
100
AcDbScale
 70
     0
300
1:5
140
1.0
141
5.0
290
     0
  0
SCALE
  5
57
102
{ACAD_REACTORS
330
4A
102
}
330
4A
100
AcDbScale
 70
     0
300
1:8
140
1.0
141
8.0
290
     0
  0
SCALE
  5
58
102
{ACAD_REACTORS
330
4A
102
}
330
4A
100
AcDbScale
 70
     0
300
1:10
140
1.0
141
10.0
290
     0
  0
SCALE
  5
59
102
{ACAD_REACTORS
330
4A
102
}
330
4A
100
AcDbScale
 70
     0
300
1:16
140
1.0
141
16.0
290
     0
  0
SCALE
  5
5A
102
{ACAD_REACTORS
330
4A
102
}
330
4A
100
AcDbScale
 70
     0
300
1:20
140
1.0
141
20.0
290
     0
  0
SCALE
  5
5B
102
{ACAD_REACTORS
330
4A
102
}
330
4A
100
AcDbScale
 70
     0
300
1:30
140
1.0
141
30.0
290
     0
  0
SCALE
  5
5C
102
{ACAD_REACTORS
330
4A
102
}
330
4A
100
AcDbScale
 70
     0
300
1:40
140
1.0
141
40.0
290
     0
  0
SCALE
  5
5D
102
{ACAD_REACTORS
330
4A
102
}
330
4A
100
AcDbScale
 70
     0
300
1:50
140
1.0
141
50.0
290
     0
  0
SCALE
  5
5E
102
{ACAD_REACTORS
330
4A
102
}
330
4A
100
AcDbScale
 70
     0
300
1:100
140
1.0
141
100.0
290
     0
  0
SCALE
  5
5F
102
{ACAD_REACTORS
330
4A
102
}
330
4A
100
AcDbScale
 70
     0
300
2:1
140
2.0
141
1.0
290
     0
  0
SCALE
  5
60
102
{ACAD_REACTORS
330
4A
102
}
330
4A
100
AcDbScale
 70
     0
300
4:1
140
4.0
141
1.0
290
     0
  0
SCALE
  5
61
102
{ACAD_REACTORS
330
4A
102
}
330
4A
100
AcDbScale
 70
     0
300
8:1
140
8.0
141
1.0
290
     0
  0
SCALE
  5
62
102
{ACAD_REACTORS
330
4A
102
}
330
4A
100
AcDbScale
 70
     0
300
10:1
140
10.0
141
1.0
290
     0
  0
SCALE
  5
63
102
{ACAD_REACTORS
330
4A
102
}
330
4A
100
AcDbScale
 70
     0
300
100:1
140
100.0
141
1.0
290
     0
  0
SCALE
  5
64
102
{ACAD_REACTORS
330
4A
102
}
330
4A
100
AcDbScale
 70
     0
300
1/128" = 1'-0"
140
0.0078125
141
12.0
290
     0
  0
SCALE
  5
65
102
{ACAD_REACTORS
330
4A
102
}
330
4A
100
AcDbScale
 70
     0
300
1/64" = 1'-0"
140
0.015625
141
12.0
290
     0
  0
SCALE
  5
66
102
{ACAD_REACTORS
330
4A
102
}
330
4A
100
AcDbScale
 70
     0
300
1/32" = 1'-0"
140
0.03125
141
12.0
290
     0
  0
SCALE
  5
67
102
{ACAD_REACTORS
330
4A
102
}
330
4A
100
AcDbScale
 70
     0
300
1/16" = 1'-0"
140
0.0625
141
12.0
290
     0
  0
SCALE
  5
68
102
{ACAD_REACTORS
330
4A
102
}
330
4A
100
AcDbScale
 70
     0
300
3/32" = 1'-0"
140
0.09375
141
12.0
290
     0
  0
SCALE
  5
69
102
{ACAD_REACTORS
330
4A
102
}
330
4A
100
AcDbScale
 70
     0
300
1/8" = 1'-0"
140
0.125
141
12.0
290
     0
  0
SCALE
  5
6A
102
{ACAD_REACTORS
330
4A
102
}
330
4A
100
AcDbScale
 70
     0
300
3/16" = 1'-0"
140
0.1875
141
12.0
290
     0
  0
SCALE
  5
6B
102
{ACAD_REACTORS
330
4A
102
}
330
4A
100
AcDbScale
 70
     0
300
1/4" = 1'-0"
140
0.25
141
12.0
290
     0
  0
SCALE
  5
6C
102
{ACAD_REACTORS
330
4A
102
}
330
4A
100
AcDbScale
 70
     0
300
3/8" = 1'-0"
140
0.375
141
12.0
290
     0
  0
SCALE
  5
6D
102
{ACAD_REACTORS
330
4A
102
}
330
4A
100
AcDbScale
 70
     0
300
1/2" = 1'-0"
140
0.5
141
12.0
290
     0
  0
SCALE
  5
6E
102
{ACAD_REACTORS
330
4A
102
}
330
4A
100
AcDbScale
 70
     0
300
3/4" = 1'-0"
140
0.75
141
12.0
290
     0
  0
SCALE
  5
6F
102
{ACAD_REACTORS
330
4A
102
}
330
4A
100
AcDbScale
 70
     0
300
1" = 1'-0"
140
1.0
141
12.0
290
     0
  0
SCALE
  5
70
102
{ACAD_REACTORS
330
4A
102
}
330
4A
100
AcDbScale
 70
     0
300
1-1/2" = 1'-0"
140
1.5
141
12.0
290
     0
  0
SCALE
  5
71
102
{ACAD_REACTORS
330
4A
102
}
330
4A
100
AcDbScale
 70
     0
300
3" = 1'-0"
140
3.0
141
12.0
290
     0
  0
SCALE
  5
72
102
{ACAD_REACTORS
330
4A
102
}
330
4A
100
AcDbScale
 70
     0
300
6" = 1'-0"
140
6.0
141
12.0
290
     0
  0
SCALE
  5
73
102
{ACAD_REACTORS
330
4A
102
}
330
4A
100
AcDbScale
 70
     0
300
1'-0" = 1'-0"
140
12.0
141
12.0
290
     0
  0
TABLESTYLE
  5
4F
102
{ACAD_XDICTIONARY
360
50
102
}
102
{ACAD_REACTORS
330
4B
102
}
330
4B
100
AcDbTableStyle
  3
Standard
 70
     0
 71
     0
 40
1.5
 41
1.5
280
     0
281
     0
  7
STANDARD
140
4.5
170
     2
 62
     0
 63
     7
283
     0
 90
      512
 91
        0
  1

274
    -2
284
     1
 64
     0
275
    -2
285
     1
 65
     0
276
    -2
286
     1
 66
     0
277
    -2
287
     1
 67
     0
278
    -2
288
     1
 68
     0
279
    -2
289
     1
 69
     0
  7
STANDARD
140
6.0
170
     5
 62
     0
 63
     7
283
     0
 90
      512
 91
        0
  1

274
    -2
284
     1
 64
     0
275
    -2
285
     1
 65
     0
276
    -2
286
     1
 66
     0
277
    -2
287
     1
 67
     0
278
    -2
288
     1
 68
     0
279
    -2
289
     1
 69
     0
  7
STANDARD
140
4.5
170
     5
 62
     0
 63
     7
283
     0
 90
      512
 91
        0
  1

274
    -2
284
     1
 64
     0
275
    -2
285
     1
 65
     0
276
    -2
286
     1
 66
     0
277
    -2
287
     1
 67
     0
278
    -2
288
     1
 68
     0
279
    -2
289
     1
 69
     0
  0
VISUALSTYLE
  5
29
102
{ACAD_REACTORS
330
2A
102
}
330
2A
100
AcDbVisualStyle
  2
2dWireframe
 70
     4
 71
     0
 72
     2
 73
     0
 90
        0
 40
-0.6
 41
-30.0
 62
     5
 63
     7
 74
     1
 91
        4
 64
     7
 65
   257
 75
     1
175
     1
 42
1.0
 92
        0
 66
   257
 43
1.0
 76
     1
 77
     6
 78
     2
 67
     7
 79
     5
170
     0
171
     0
290
     0
174
     0
 93
        1
 44
0.0
173
     0
291
     0
 45
0.0
1001
ACAD
1000
AcDbSavedByObjectVersion
1070
     0
  0
VISUALSTYLE
  5
422
102
{ACAD_REACTORS
330
2A
102
}
330
2A
100
AcDbVisualStyle
  2
3D Hidden
 70
     6
 71
     1
 72
     2
 73
     2
 90
        0
 40
-0.6
 41
-30.0
 62
     5
 63
     7
421
 16777215
 74
     2
 91
        2
 64
     7
 65
   257
 75
     2
175
     1
 42
40.0
 92
        0
 66
   257
 43
1.0
 76
     1
 77
     6
 78
     2
 67
     7
 79
     3
170
     0
171
     0
290
     0
174
     0
 93
        1
 44
0.0
173
     0
291
     0
 45
0.0
1001
ACAD
1000
AcDbSavedByObjectVersion
1070
     0
  0
VISUALSTYLE
  5
52
102
{ACAD_REACTORS
330
2A
102
}
330
2A
100
AcDbVisualStyle
  2
3dWireframe
 70
     5
 71
     0
 72
     2
 73
     0
 90
        0
 40
-0.6
 41
-30.0
 62
     5
 63
     7
 74
     1
 91
        4
 64
     7
 65
   257
 75
     1
175
     1
 42
1.0
 92
        0
 66
   257
 43
1.0
 76
     1
 77
     6
 78
     2
 67
     7
 79
     5
170
     0
171
     0
290
     0
174
     0
 93
        1
 44
0.0
173
     0
291
     0
 45
0.0
1001
ACAD
1000
AcDbSavedByObjectVersion
1070
     0
  0
VISUALSTYLE
  5
421
102
{ACAD_REACTORS
330
2A
102
}
330
2A
100
AcDbVisualStyle
  2
Basic
 70
     7
 71
     1
 72
     0
 73
     1
 90
        0
 40
-0.6
 41
-30.0
 62
     5
 63
     7
421
 16777215
 74
     0
 91
        4
 64
     7
 65
   257
 75
     1
175
     1
 42
1.0
 92
        8
 66
     7
 43
1.0
 76
     1
 77
     6
 78
     2
 67
     7
 79
     5
170
     0
171
     0
290
     0
174
     0
 93
        1
 44
0.0
173
     0
291
     1
 45
0.0
1001
ACAD
1000
AcDbSavedByObjectVersion
1070
     0
  0
VISUALSTYLE
  5
425
102
{ACAD_REACTORS
330
2A
102
}
330
2A
100
AcDbVisualStyle
  2
Brighten
 70
    12
 71
     2
 72
     2
 73
     0
 90
        0
 40
-0.6
 41
-30.0
 62
     5
 63
     7
421
 16777215
 74
     1
 91
        4
 64
     7
 65
   257
 75
     1
175
     1
 42
1.0
 92
        8
 66
     7
 43
1.0
 76
     1
 77
     6
 78
     2
 67
     7
 79
     5
170
     0
171
     0
290
     0
174
     0
 93
        1
 44
50.0
173
     0
291
     1
 45
0.0
1001
ACAD
1000
AcDbSavedByObjectVersion
1070
     0
  0
VISUALSTYLE
  5
429
102
{ACAD_REACTORS
330
2A
102
}
330
2A
100
AcDbVisualStyle
  2
ColorChange
 70
    16
 71
     2
 72
     2
 73
     3
 90
        0
 40
-0.6
 41
-30.0
 62
     5
 63
     8
421
  8421504
 74
     1
 91
        4
 64
     7
 65
   257
 75
     1
175
     1
 42
1.0
 92
        8
 66
     8
424
  8421504
 43
1.0
 76
     1
 77
     6
 78
     2
 67
     7
 79
     5
170
     0
171
     0
290
     0
174
     0
 93
        1
 44
0.0
173
     0
291
     1
 45
0.0
1001
ACAD
1000
AcDbSavedByObjectVersion
1070
     0
  0
VISUALSTYLE
  5
423
102
{ACAD_REACTORS
330
2A
102
}
330
2A
100
AcDbVisualStyle
  2
Conceptual
 70
     9
 71
     3
 72
     2
 73
     0
 90
        0
 40
-0.6
 41
-30.0
 62
     5
 63
     7
421
 16777215
 74
     2
 91
        2
 64
     7
 65
   257
 75
     1
175
     1
 42
40.0
 92
        8
 66
     7
 43
1.0
 76
     1
 77
     6
 78
     2
 67
     7
 79
     3
170
     0
171
     0
290
     0
174
     0
 93
        1
 44
0.0
173
     0
291
     0
 45
0.0
1001
ACAD
1000
AcDbSavedByObjectVersion
1070
     0
  0
VISUALSTYLE
  5
424
102
{ACAD_REACTORS
330
2A
102
}
330
2A
100
AcDbVisualStyle
  2
Dim
 70
    11
 71
     2
 72
     2
 73
     0
 90
        0
 40
-0.6
 41
-30.0
 62
     5
 63
     7
421
 16777215
 74
     1
 91
        4
 64
     7
 65
   257
 75
     1
175
     1
 42
1.0
 92
        8
 66
     7
 43
1.0
 76
     1
 77
     6
 78
     2
 67
     7
 79
     5
170
     0
171
     0
290
     0
174
     0
 93
        1
 44
-50.0
173
     0
291
     1
 45
0.0
1001
ACAD
1000
AcDbSavedByObjectVersion
1070
     0
  0
VISUALSTYLE
  5
428
102
{ACAD_REACTORS
330
2A
102
}
330
2A
100
AcDbVisualStyle
  2
Facepattern
 70
    15
 71
     2
 72
     2
 73
     0
 90
        0
 40
-0.6
 41
-30.0
 62
     5
 63
     7
421
 16777215
 74
     1
 91
        4
 64
     7
 65
   257
 75
     1
175
     1
 42
1.0
 92
        8
 66
     7
 43
1.0
 76
     1
 77
     6
 78
     2
 67
     7
 79
     5
170
     0
171
     0
290
     0
174
     0
 93
        1
 44
0.0
173
     0
291
     1
 45
0.0
1001
ACAD
1000
AcDbSavedByObjectVersion
1070
     0
  0
VISUALSTYLE
  5
41D
102
{ACAD_REACTORS
330
2A
102
}
330
2A
100
AcDbVisualStyle
  2
Flat
 70
     0
 71
     2
 72
     1
 73
     1
 90
        2
 40
-0.6
 41
30.0
 62
     5
 63
     7
421
 16777215
 74
     0
 91
        4
 64
     7
 65
   257
 75
     1
175
     1
 42
1.0
 92
        8
 66
     7
 43
1.0
 76
     1
 77
     6
 78
     2
 67
     7
 79
     5
170
     0
171
     0
290
     0
174
     0
 93
       13
 44
0.0
173
     0
291
     1
 45
0.0
1001
ACAD
1000
AcDbSavedByObjectVersion
1070
     0
  0
VISUALSTYLE
  5
41E
102
{ACAD_REACTORS
330
2A
102
}
330
2A
100
AcDbVisualStyle
  2
FlatWithEdges
 70
     1
 71
     2
 72
     1
 73
     1
 90
        2
 40
-0.6
 41
30.0
 62
     5
 63
     7
421
 16777215
 74
     1
 91
        4
 64
     7
 65
   257
 75
     1
175
     1
 42
1.0
 92
        0
 66
   257
 43
1.0
 76
     1
 77
     6
 78
     2
 67
     7
 79
     5
170
     0
171
     0
290
     0
174
     0
 93
       13
 44
0.0
173
     0
291
     1
 45
0.0
1001
ACAD
1000
AcDbSavedByObjectVersion
1070
     0
  0
VISUALSTYLE
  5
41F
102
{ACAD_REACTORS
330
2A
102
}
330
2A
100
AcDbVisualStyle
  2
Gouraud
 70
     2
 71
     2
 72
     2
 73
     1
 90
        2
 40
-0.6
 41
30.0
 62
     5
 63
     7
421
 16777215
 74
     0
 91
        4
 64
     7
 65
   257
 75
     1
175
     1
 42
1.0
 92
        0
 66
     7
 43
1.0
 76
     1
 77
     6
 78
     2
 67
     7
 79
     5
170
     0
171
     0
290
     0
174
     0
 93
       13
 44
0.0
173
     0
291
     1
 45
0.0
1001
ACAD
1000
AcDbSavedByObjectVersion
1070
     0
  0
VISUALSTYLE
  5
420
102
{ACAD_REACTORS
330
2A
102
}
330
2A
100
AcDbVisualStyle
  2
GouraudWithEdges
 70
     3
 71
     2
 72
     2
 73
     1
 90
        2
 40
-0.6
 41
30.0
 62
     5
 63
     7
421
 16777215
 74
     1
 91
        4
 64
     7
 65
   257
 75
     1
175
     1
 42
1.0
 92
        0
 66
   257
 43
1.0
 76
     1
 77
     6
 78
     2
 67
     7
 79
     5
170
     0
171
     0
290
     0
174
     0
 93
       13
 44
0.0
173
     0
291
     1
 45
0.0
1001
ACAD
1000
AcDbSavedByObjectVersion
1070
     0
  0
VISUALSTYLE
  5
427
102
{ACAD_REACTORS
330
2A
102
}
330
2A
100
AcDbVisualStyle
  2
Linepattern
 70
    14
 71
     2
 72
     2
 73
     0
 90
        0
 40
-0.6
 41
-30.0
 62
     5
 63
     7
421
 16777215
 74
     1
 91
        4
 64
     7
 65
   257
 75
     7
175
     7
 42
1.0
 92
        8
 66
     7
 43
1.0
 76
     1
 77
     6
 78
     2
 67
     7
 79
     5
170
     0
171
     0
290
     0
174
     0
 93
        1
 44
0.0
173
     0
291
     1
 45
0.0
1001
ACAD
1000
AcDbSavedByObjectVersion
1070
     0
  0
VISUALSTYLE
  5
51
102
{ACAD_REACTORS
330
2A
102
}
330
2A
100
AcDbVisualStyle
  2
Realistic
 70
     8
 71
     2
 72
     2
 73
     0
 90
        0
 40
-0.6
 41
-30.0
 62
     5
 63
     7
 74
     1
 91
        0
 64
     7
 65
   257
 75
     1
175
     1
 42
1.0
 92
        8
 66
     8
 43
1.0
 76
     1
 77
     6
 78
     2
 67
     7
 79
     5
170
     0
171
     0
290
     0
174
     0
 93
       13
 44
0.0
173
     0
291
     0
 45
0.0
1001
ACAD
1000
AcDbSavedByObjectVersion
1070
     0
  0
VISUALSTYLE
  5
426
102
{ACAD_REACTORS
330
2A
102
}
330
2A
100
AcDbVisualStyle
  2
Thicken
 70
    13
 71
     2
 72
     2
 73
     0
 90
        0
 40
-0.6
 41
-30.0
 62
     5
 63
     7
421
 16777215
 74
     1
 91
        4
 64
     7
 65
   257
 75
     1
175
     1
 42
1.0
 92
       12
 66
     7
 43
1.0
 76
     1
 77
     6
 78
     2
 67
     7
 79
     5
170
     0
171
     0
290
     0
174
     0
 93
        1
 44
0.0
173
     0
291
     1
 45
0.0
1001
ACAD
1000
AcDbSavedByObjectVersion
1070
     0
  0
DICTIONARYVAR
  5
3FD
102
{ACAD_REACTORS
330
3FA
102
}
330
3FA
100
DictionaryVariables
280
     0
  1
1:1
  0
DICTIONARYVAR
  5
3FC
102
{ACAD_REACTORS
330
3FA
102
}
330
3FA
100
DictionaryVariables
280
     0
  1
STANDARD
  0
DICTIONARYVAR
  5
3FB
102
{ACAD_REACTORS
330
3FA
102
}
330
3FA
100
DictionaryVariables
280
     0
  1
STANDARD
  0
DICTIONARYVAR
  5
3FE
102
{ACAD_REACTORS
330
3FA
102
}
330
3FA
100
DictionaryVariables
280
     0
  1
0
  0
DICTIONARYVAR
  5
439
102
{ACAD_REACTORS
330
3FA
102
}
330
3FA
100
DictionaryVariables
280
     0
  1
1
  0
DICTIONARY
  5
41
330
40
100
AcDbDictionary
280
     1
281
     1
  3
ACAD_XREC_ROUNDTRIP
360
42
  3
BUMPTILE
360
43
  3
DIFFUSETILE
360
44
  3
OPACITYTILE
360
45
  3
REFLECTIONTILE
360
46
  3
REFRACTIONTILE
360
47
  3
SPECULARTILE
360
48
  0
DICTIONARY
  5
38
330
37
100
AcDbDictionary
280
     1
281
     1
  3
ACAD_XREC_ROUNDTRIP
360
39
  3
BUMPTILE
360
3A
  3
DIFFUSETILE
360
3B
  3
OPACITYTILE
360
3C
  3
REFLECTIONTILE
360
3D
  3
REFRACTIONTILE
360
3E
  3
SPECULARTILE
360
3F
  0
DICTIONARY
  5
E
330
C
100
AcDbDictionary
280
     1
281
     1
  3
ACAD_XREC_ROUNDTRIP
360
F
  0
DICTIONARY
  5
50
330
4F
100
AcDbDictionary
280
     1
281
     1
  3
ACAD_ROUNDTRIP_2008_TABLESTYLE_CELLSTYLEMAP
360
CB4
  0
XRECORD
  5
42
102
{ACAD_REACTORS
330
41
102
}
330
41
100
AcDbXrecord
280
     1
102
MATERIAL
148
0.0
149
0.0
149
0.0
 93
        0
 94
      127
282
     0
 72
     0
 77
     0
171
     0
175
     0
179
     0
273
     0
  0
XRECORD
  5
43
102
{ACAD_REACTORS
330
41
102
}
330
41
100
AcDbXrecord
280
     1
270
     1
271
     1
  0
XRECORD
  5
44
102
{ACAD_REACTORS
330
41
102
}
330
41
100
AcDbXrecord
280
     1
270
     1
271
     1
  0
XRECORD
  5
45
102
{ACAD_REACTORS
330
41
102
}
330
41
100
AcDbXrecord
280
     1
270
     1
271
     1
  0
XRECORD
  5
46
102
{ACAD_REACTORS
330
41
102
}
330
41
100
AcDbXrecord
280
     1
270
     1
271
     1
  0
XRECORD
  5
47
102
{ACAD_REACTORS
330
41
102
}
330
41
100
AcDbXrecord
280
     1
270
     1
271
     1
  0
XRECORD
  5
48
102
{ACAD_REACTORS
330
41
102
}
330
41
100
AcDbXrecord
280
     1
270
     1
271
     1
  0
XRECORD
  5
39
102
{ACAD_REACTORS
330
38
102
}
330
38
100
AcDbXrecord
280
     1
102
MATERIAL
148
0.0
149
0.0
149
0.0
 93
        0
 94
      127
282
     0
 72
     0
 77
     0
171
     0
175
     0
179
     0
273
     0
  0
XRECORD
  5
3A
102
{ACAD_REACTORS
330
38
102
}
330
38
100
AcDbXrecord
280
     1
270
     1
271
     1
  0
XRECORD
  5
3B
102
{ACAD_REACTORS
330
38
102
}
330
38
100
AcDbXrecord
280
     1
270
     1
271
     1
  0
XRECORD
  5
3C
102
{ACAD_REACTORS
330
38
102
}
330
38
100
AcDbXrecord
280
     1
270
     1
271
     1
  0
XRECORD
  5
3D
102
{ACAD_REACTORS
330
38
102
}
330
38
100
AcDbXrecord
280
     1
270
     1
271
     1
  0
XRECORD
  5
3E
102
{ACAD_REACTORS
330
38
102
}
330
38
100
AcDbXrecord
280
     1
270
     1
271
     1
  0
XRECORD
  5
3F
102
{ACAD_REACTORS
330
38
102
}
330
38
100
AcDbXrecord
280
     1
270
     1
271
     1
  0
XRECORD
  5
F
102
{ACAD_REACTORS
330
E
102
}
330
E
100
AcDbXrecord
280
     1
102
MATERIAL
148
0.0
149
0.0
149
0.0
 93
        0
 94
      127
282
     0
 72
     1
 77
     1
171
     1
175
     1
179
     1
273
     0
  0
CELLSTYLEMAP
  5
CB4
102
{ACAD_REACTORS
330
50
102
}
330
50
100
AcDbCellStyleMap
 90
        3
300
CELLSTYLE
  1
TABLEFORMAT_BEGIN
 90
        5
170
     1
 91
        0
 92
    32768
 62
   257
 93
        1
300
CONTENTFORMAT
  1
CONTENTFORMAT_BEGIN
 90
        0
 91
        0
 92
      512
 93
        0
300

 40
0.0
140
1.0
 94
        5
 62
     0
340
20
144
6.0
309
CONTENTFORMAT_END
171
     1
301
MARGIN
  1
CELLMARGIN_BEGIN
 40
1.5
 40
1.5
 40
1.5
 40
1.5
 40
0.18
 40
0.18
309
CELLMARGIN_END
 94
        6
 95
        1
302
GRIDFORMAT
  1
GRIDFORMAT_BEGIN
 90
        0
 91
        1
 62
     0
 92
       -2
340
0
 93
        0
 40
1.125
309
GRIDFORMAT_END
 95
        2
302
GRIDFORMAT
  1
GRIDFORMAT_BEGIN
 90
        0
 91
        1
 62
     0
 92
       -2
340
0
 93
        0
 40
1.125
309
GRIDFORMAT_END
 95
        4
302
GRIDFORMAT
  1
GRIDFORMAT_BEGIN
 90
        0
 91
        1
 62
     0
 92
       -2
340
0
 93
        0
 40
1.125
309
GRIDFORMAT_END
 95
        8
302
GRIDFORMAT
  1
GRIDFORMAT_BEGIN
 90
        0
 91
        1
 62
     0
 92
       -2
340
0
 93
        0
 40
1.125
309
GRIDFORMAT_END
 95
       16
302
GRIDFORMAT
  1
GRIDFORMAT_BEGIN
 90
        0
 91
        1
 62
     0
 92
       -2
340
0
 93
        0
 40
1.125
309
GRIDFORMAT_END
 95
       32
302
GRIDFORMAT
  1
GRIDFORMAT_BEGIN
 90
        0
 91
        1
 62
     0
 92
       -2
340
0
 93
        0
 40
1.125
309
GRIDFORMAT_END
309
TABLEFORMAT_END
  1
CELLSTYLE_BEGIN
 90
        1
 91
        1
300
_TITLE
309
CELLSTYLE_END
300
CELLSTYLE
  1
TABLEFORMAT_BEGIN
 90
        5
170
     1
 91
        0
 92
        0
 62
   257
 93
        1
300
CONTENTFORMAT
  1
CONTENTFORMAT_BEGIN
 90
        0
 91
        0
 92
      512
 93
        0
300

 40
0.0
140
1.0
 94
        5
 62
     0
340
20
144
4.5
309
CONTENTFORMAT_END
171
     1
301
MARGIN
  1
CELLMARGIN_BEGIN
 40
1.5
 40
1.5
 40
1.5
 40
1.5
 40
0.18
 40
0.18
309
CELLMARGIN_END
 94
        6
 95
        1
302
GRIDFORMAT
  1
GRIDFORMAT_BEGIN
 90
        0
 91
        1
 62
     0
 92
       -2
340
0
 93
        0
 40
1.125
309
GRIDFORMAT_END
 95
        2
302
GRIDFORMAT
  1
GRIDFORMAT_BEGIN
 90
        0
 91
        1
 62
     0
 92
       -2
340
0
 93
        0
 40
1.125
309
GRIDFORMAT_END
 95
        4
302
GRIDFORMAT
  1
GRIDFORMAT_BEGIN
 90
        0
 91
        1
 62
     0
 92
       -2
340
0
 93
        0
 40
1.125
309
GRIDFORMAT_END
 95
        8
302
GRIDFORMAT
  1
GRIDFORMAT_BEGIN
 90
        0
 91
        1
 62
     0
 92
       -2
340
0
 93
        0
 40
1.125
309
GRIDFORMAT_END
 95
       16
302
GRIDFORMAT
  1
GRIDFORMAT_BEGIN
 90
        0
 91
        1
 62
     0
 92
       -2
340
0
 93
        0
 40
1.125
309
GRIDFORMAT_END
 95
       32
302
GRIDFORMAT
  1
GRIDFORMAT_BEGIN
 90
        0
 91
        1
 62
     0
 92
       -2
340
0
 93
        0
 40
1.125
309
GRIDFORMAT_END
309
TABLEFORMAT_END
  1
CELLSTYLE_BEGIN
 90
        2
 91
        1
300
_HEADER
309
CELLSTYLE_END
300
CELLSTYLE
  1
TABLEFORMAT_BEGIN
 90
        5
170
     1
 91
        0
 92
        0
 62
   257
 93
        1
300
CONTENTFORMAT
  1
CONTENTFORMAT_BEGIN
 90
        0
 91
        0
 92
      512
 93
        0
300

 40
0.0
140
1.0
 94
        2
 62
     0
340
20
144
4.5
309
CONTENTFORMAT_END
171
     1
301
MARGIN
  1
CELLMARGIN_BEGIN
 40
1.5
 40
1.5
 40
1.5
 40
1.5
 40
0.18
 40
0.18
309
CELLMARGIN_END
 94
        6
 95
        1
302
GRIDFORMAT
  1
GRIDFORMAT_BEGIN
 90
        0
 91
        1
 62
     0
 92
       -2
340
0
 93
        0
 40
1.125
309
GRIDFORMAT_END
 95
        2
302
GRIDFORMAT
  1
GRIDFORMAT_BEGIN
 90
        0
 91
        1
 62
     0
 92
       -2
340
0
 93
        0
 40
1.125
309
GRIDFORMAT_END
 95
        4
302
GRIDFORMAT
  1
GRIDFORMAT_BEGIN
 90
        0
 91
        1
 62
     0
 92
       -2
340
0
 93
        0
 40
1.125
309
GRIDFORMAT_END
 95
        8
302
GRIDFORMAT
  1
GRIDFORMAT_BEGIN
 90
        0
 91
        1
 62
     0
 92
       -2
340
0
 93
        0
 40
1.125
309
GRIDFORMAT_END
 95
       16
302
GRIDFORMAT
  1
GRIDFORMAT_BEGIN
 90
        0
 91
        1
 62
     0
 92
       -2
340
0
 93
        0
 40
1.125
309
GRIDFORMAT_END
 95
       32
302
GRIDFORMAT
  1
GRIDFORMAT_BEGIN
 90
        0
 91
        1
 62
     0
 92
       -2
340
0
 93
        0
 40
1.125
309
GRIDFORMAT_END
309
TABLEFORMAT_END
  1
CELLSTYLE_BEGIN
 90
        3
 91
        2
300
_DATA
309
CELLSTYLE_END
  0
ENDSEC
  0
EOF
