  0
SECTION
  2
HEADER
  9
$ACADVER
  1
AC1018
  9
$ACADMAINTVER
 70
   104
  9
$DWGCODEPAGE
  3
ANSI_936
  9
$LASTSAVEDBY
  1
hq.zhang
  9
$INSBASE
 10
0.0
 20
0.0
 30
0.0
  9
$EXTMIN
 10
362.2152430620301
 20
184.5734201987893
 30
0.0
  9
$EXTMAX
 10
436.4649306331561
 20
237.0734202942363
 30
0.0
  9
$LIMMIN
 10
0.0
 20
0.0
  9
$LIMMAX
 10
12.0
 20
9.0
  9
$ORTHOMODE
 70
     1
  9
$REGENMODE
 70
     1
  9
$FILLMODE
 70
     1
  9
$QTEXTMODE
 70
     0
  9
$MIRRTEXT
 70
     1
  9
$LTSCALE
 40
1.0
  9
$ATTMODE
 70
     1
  9
$TEXTSIZE
 40
0.2
  9
$TRACEWID
 40
0.05
  9
$TEXTSTYLE
  7
Standard
  9
$CLAYER
  8
0
  9
$CELTYPE
  6
ByLayer
  9
$CECOLOR
 62
   256
  9
$CELTSCALE
 40
1.0
  9
$DISPSILH
 70
     0
  9
$DIMSCALE
 40
1.0
  9
$DIMASZ
 40
1.199999999999999
  9
$DIMEXO
 40
0.2
  9
$DIMDLI
 40
0.2
  9
$DIMRND
 40
0.0
  9
$DIMDLE
 40
0.0
  9
$DIMEXE
 40
0.5
  9
$DIMTP
 40
0.0
  9
$DIMTM
 40
0.0
  9
$DIMTXT
 40
1.5
  9
$DIMCEN
 40
0.0
  9
$DIMTSZ
 40
0.0
  9
$DIMTOL
 70
     0
  9
$DIMLIM
 70
     0
  9
$DIMTIH
 70
     0
  9
$DIMTOH
 70
     0
  9
$DIMSE1
 70
     0
  9
$DIMSE2
 70
     0
  9
$DIMTAD
 70
     1
  9
$DIMZIN
 70
     8
  9
$DIMBLK
  1

  9
$DIMASO
 70
     1
  9
$DIMSHO
 70
     1
  9
$DIMPOST
  1

  9
$DIMAPOST
  1

  9
$DIMALT
 70
     0
  9
$DIMALTD
 70
     2
  9
$DIMALTF
 40
25.4
  9
$DIMLFAC
 40
1.0
  9
$DIMTOFL
 70
     0
  9
$DIMTVP
 40
0.0
  9
$DIMTIX
 70
     0
  9
$DIMSOXD
 70
     0
  9
$DIMSAH
 70
     0
  9
$DIMBLK1
  1

  9
$DIMBLK2
  1

  9
$DIMSTYLE
  2
01
  9
$DIMCLRD
 70
     1
  9
$DIMCLRE
 70
     6
  9
$DIMCLRT
 70
     4
  9
$DIMTFAC
 40
1.0
  9
$DIMGAP
 40
0.5
  9
$DIMJUST
 70
     0
  9
$DIMSD1
 70
     0
  9
$DIMSD2
 70
     0
  9
$DIMTOLJ
 70
     1
  9
$DIMTZIN
 70
     0
  9
$DIMALTZ
 70
     0
  9
$DIMALTTZ
 70
     0
  9
$DIMUPT
 70
     0
  9
$DIMDEC
 70
     1
  9
$DIMTDEC
 70
     1
  9
$DIMALTU
 70
     2
  9
$DIMALTTD
 70
     2
  9
$DIMTXSTY
  7
Romans字体
  9
$DIMAUNIT
 70
     0
  9
$DIMADEC
 70
     2
  9
$DIMALTRND
 40
0.0
  9
$DIMAZIN
 70
     2
  9
$DIMDSEP
 70
    46
  9
$DIMATFIT
 70
     3
  9
$DIMFRAC
 70
     0
  9
$DIMLDRBLK
  1

  9
$DIMLUNIT
 70
     2
  9
$DIMLWD
 70
    -2
  9
$DIMLWE
 70
    -2
  9
$DIMTMOVE
 70
     0
  9
$LUNITS
 70
     2
  9
$LUPREC
 70
     4
  9
$SKETCHINC
 40
0.1
  9
$FILLETRAD
 40
0.5
  9
$AUNITS
 70
     0
  9
$AUPREC
 70
     0
  9
$MENU
  1
.
  9
$ELEVATION
 40
0.0
  9
$PELEVATION
 40
0.0
  9
$THICKNESS
 40
0.0
  9
$LIMCHECK
 70
     0
  9
$CHAMFERA
 40
0.5
  9
$CHAMFERB
 40
0.5
  9
$CHAMFERC
 40
1.0
  9
$CHAMFERD
 40
0.0
  9
$SKPOLY
 70
     0
  9
$TDCREATE
 40
2456524.383632987
  9
$TDUCREATE
 40
2456524.050299653
  9
$TDUPDATE
 40
2457826.394992477
  9
$TDUUPDATE
 40
2457826.061659143
  9
$TDINDWG
 40
1.2228101505
  9
$TDUSRTIMER
 40
1.2227906944
  9
$USRTIMER
 70
     1
  9
$ANGBASE
 50
0.0
  9
$ANGDIR
 70
     0
  9
$PDMODE
 70
     0
  9
$PDSIZE
 40
0.0
  9
$PLINEWID
 40
0.0
  9
$SPLFRAME
 70
     0
  9
$SPLINETYPE
 70
     6
  9
$SPLINESEGS
 70
     8
  9
$HANDSEED
  5
18D4E
  9
$SURFTAB1
 70
     6
  9
$SURFTAB2
 70
     6
  9
$SURFTYPE
 70
     6
  9
$SURFU
 70
     6
  9
$SURFV
 70
     6
  9
$UCSBASE
  2

  9
$UCSNAME
  2

  9
$UCSORG
 10
0.0
 20
0.0
 30
0.0
  9
$UCSXDIR
 10
1.0
 20
0.0
 30
0.0
  9
$UCSYDIR
 10
0.0
 20
1.0
 30
0.0
  9
$UCSORTHOREF
  2

  9
$UCSORTHOVIEW
 70
     0
  9
$UCSORGTOP
 10
0.0
 20
0.0
 30
0.0
  9
$UCSORGBOTTOM
 10
0.0
 20
0.0
 30
0.0
  9
$UCSORGLEFT
 10
0.0
 20
0.0
 30
0.0
  9
$UCSORGRIGHT
 10
0.0
 20
0.0
 30
0.0
  9
$UCSORGFRONT
 10
0.0
 20
0.0
 30
0.0
  9
$UCSORGBACK
 10
0.0
 20
0.0
 30
0.0
  9
$PUCSBASE
  2

  9
$PUCSNAME
  2

  9
$PUCSORG
 10
0.0
 20
0.0
 30
0.0
  9
$PUCSXDIR
 10
1.0
 20
0.0
 30
0.0
  9
$PUCSYDIR
 10
0.0
 20
1.0
 30
0.0
  9
$PUCSORTHOREF
  2

  9
$PUCSORTHOVIEW
 70
     0
  9
$PUCSORGTOP
 10
0.0
 20
0.0
 30
0.0
  9
$PUCSORGBOTTOM
 10
0.0
 20
0.0
 30
0.0
  9
$PUCSORGLEFT
 10
0.0
 20
0.0
 30
0.0
  9
$PUCSORGRIGHT
 10
0.0
 20
0.0
 30
0.0
  9
$PUCSORGFRONT
 10
0.0
 20
0.0
 30
0.0
  9
$PUCSORGBACK
 10
0.0
 20
0.0
 30
0.0
  9
$USERI1
 70
     0
  9
$USERI2
 70
     0
  9
$USERI3
 70
     0
  9
$USERI4
 70
     0
  9
$USERI5
 70
     0
  9
$USERR1
 40
0.0
  9
$USERR2
 40
0.0
  9
$USERR3
 40
0.0
  9
$USERR4
 40
0.0
  9
$USERR5
 40
2.5
  9
$WORLDVIEW
 70
     1
  9
$SHADEDGE
 70
     3
  9
$SHADEDIF
 70
    70
  9
$TILEMODE
 70
     1
  9
$MAXACTVP
 70
    64
  9
$PINSBASE
 10
0.0
 20
0.0
 30
0.0
  9
$PLIMCHECK
 70
     0
  9
$PEXTMIN
 10
1.000000000000000E+20
 20
1.000000000000000E+20
 30
1.000000000000000E+20
  9
$PEXTMAX
 10
-1.000000000000000E+20
 20
-1.000000000000000E+20
 30
-1.000000000000000E+20
  9
$PLIMMIN
 10
0.0
 20
0.0
  9
$PLIMMAX
 10
12.0
 20
9.0
  9
$UNITMODE
 70
     0
  9
$VISRETAIN
 70
     1
  9
$PLINEGEN
 70
     0
  9
$PSLTSCALE
 70
     1
  9
$TREEDEPTH
 70
  3020
  9
$CMLSTYLE
  2
Standard
  9
$CMLJUST
 70
     0
  9
$CMLSCALE
 40
1.0
  9
$PROXYGRAPHICS
 70
     1
  9
$MEASUREMENT
 70
     0
  9
$CELWEIGHT
370
    -1
  9
$ENDCAPS
280
     0
  9
$JOINSTYLE
280
     0
  9
$LWDISPLAY
290
     0
  9
$INSUNITS
 70
     4
  9
$HYPERLINKBASE
  1

  9
$STYLESHEET
  1
MONOCHROME.CTB
  9
$XEDIT
290
     1
  9
$CEPSNTYPE
380
     0
  9
$PSTYLEMODE
290
     1
  9
$FINGERPRINTGUID
  2
{4A02065B-8BB3-4A96-9036-502DC906C165}
  9
$VERSIONGUID
  2
{88E21522-4CBB-4190-81E3-CE285CCF5C3D}
  9
$EXTNAMES
290
     1
  9
$PSVPSCALE
 40
0.0
  9
$OLESTARTUP
290
     0
  9
$SORTENTS
280
   127
  9
$INDEXCTL
280
     0
  9
$HIDETEXT
280
     0
  9
$XCLIPFRAME
290
     0
  9
$HALOGAP
280
     0
  9
$OBSCOLOR
 70
   257
  9
$OBSLTYPE
280
     0
  9
$INTERSECTIONDISPLAY
280
     0
  9
$INTERSECTIONCOLOR
 70
   257
  9
$DIMASSOC
280
     1
  9
$PROJECTNAME
  1

  0
ENDSEC
  0
SECTION
  2
CLASSES
  0
CLASS
  1
ACDBDICTIONARYWDFLT
  2
AcDbDictionaryWithDefault
  3
ObjectDBX Classes
 90
        0
 91
        1
280
     0
281
     0
  0
CLASS
  1
VISUALSTYLE
  2
AcDbVisualStyle
  3
ObjectDBX Classes
 90
     4095
 91
       16
280
     0
281
     0
  0
CLASS
  1
MATERIAL
  2
AcDbMaterial
  3
ObjectDBX Classes
 90
     1153
 91
        3
280
     0
281
     0
  0
CLASS
  1
TABLESTYLE
  2
AcDbTableStyle
  3
ObjectDBX Classes
 90
     4095
 91
        1
280
     0
281
     0
  0
CLASS
  1
SCALE
  2
AcDbScale
  3
ObjectDBX Classes
 90
     1153
 91
       33
280
     0
281
     0
  0
CLASS
  1
MLEADERSTYLE
  2
AcDbMLeaderStyle
  3
ACDB_MLEADERSTYLE_CLASS
 90
     4095
 91
        1
280
     0
281
     0
  0
CLASS
  1
CELLSTYLEMAP
  2
AcDbCellStyleMap
  3
ObjectDBX Classes
 90
     1152
 91
        2
280
     0
281
     0
  0
CLASS
  1
DICTIONARYVAR
  2
AcDbDictionaryVar
  3
ObjectDBX Classes
 90
        0
 91
        8
280
     0
281
     0
  0
CLASS
  1
SORTENTSTABLE
  2
AcDbSortentsTable
  3
ObjectDBX Classes
 90
        0
 91
        1
280
     0
281
     0
  0
CLASS
  1
ACAD_EVALUATION_GRAPH
  2
AcDbEvalGraph
  3
ObjectDBX Classes
 90
     1153
 91
        2
280
     0
281
     0
  0
CLASS
  1
ACAECUSTOBJ
  2
AcAeEditorObj
  3
AcAeEditorObj
 90
     1024
 91
        0
280
     0
281
     0
  0
CLASS
  1
ACDB_DYNAMICBLOCKPURGEPREVENTER_VERSION
  2
AcDbDynamicBlockPurgePreventer
  3
ObjectDBX Classes
 90
     1153
 91
        1
280
     0
281
     0
  0
CLASS
  1
MENTALRAYRENDERSETTINGS
  2
AcDbMentalRayRenderSettings
  3
SCENEOE
 90
     1024
 91
        1
280
     0
281
     0
  0
CLASS
  1
ACDB_BLOCKREPRESENTATION_DATA
  2
AcDbBlockRepresentationData
  3
ObjectDBX Classes
 90
     1153
 91
        0
280
     0
281
     0
  0
CLASS
  1
DIMASSOC
  2
AcDbDimAssoc
  3
"AcDbDimAssoc|Product Desc:     AcDim ARX App For Dimension|Company:          Autodesk, Inc.|WEB Address:      www.autodesk.com"
 90
        0
 91
        0
280
     0
281
     0
  0
CLASS
  1
VLO-VL
  2
vlo_VL
  3
VL|AutoLISP based application
 90
      129
 91
        1
280
     0
281
     0
  0
CLASS
  1
BREAKDATA
  2
AcDbBreakData
  3
ObjectDBX Classes
 90
     1024
 91
        0
280
     0
281
     0
  0
ENDSEC
  0
SECTION
  2
TABLES
  0
TABLE
  2
VPORT
  5
8
102
{ACAD_XDICTIONARY
360
50EE
102
}
330
0
100
AcDbSymbolTable
 70
     1
  0
VPORT
  5
29
330
8
100
AcDbSymbolTableRecord
100
AcDbViewportTableRecord
  2
*Active
 70
     0
 10
0.0
 20
0.0
 11
1.0
 21
1.0
 12
294.3769674205837
 22
62.31924913939486
 13
0.0
 23
0.0
 14
0.5
 24
0.5
 15
0.5
 25
0.5
 16
0.0
 26
0.0
 36
1.0
 17
104.9654968719086
 27
148.5022307685978
 37
0.0
 40
53.01115667233009
 41
2.103875968992248
 42
50.0
 43
0.0
 44
0.0
 50
0.0
 51
0.0
 71
     0
 72
 10000
 73
     1
 74
     3
 75
     0
 76
     0
 77
     0
 78
     0
281
     0
 65
     1
110
0.0
120
0.0
130
0.0
111
1.0
121
0.0
131
0.0
112
0.0
122
1.0
132
0.0
 79
     0
146
0.0
  0
ENDTAB
  0
TABLE
  2
LTYPE
  5
5
330
0
100
AcDbSymbolTable
 70
     2
  0
LTYPE
  5
14
330
5
100
AcDbSymbolTableRecord
100
AcDbLinetypeTableRecord
  2
ByBlock
 70
     0
  3

 72
    65
 73
     0
 40
0.0
  0
LTYPE
  5
15
330
5
100
AcDbSymbolTableRecord
100
AcDbLinetypeTableRecord
  2
ByLayer
 70
     0
  3

 72
    65
 73
     0
 40
0.0
  0
LTYPE
  5
16
330
5
100
AcDbSymbolTableRecord
100
AcDbLinetypeTableRecord
  2
Continuous
 70
     0
  3
Solid line
 72
    65
 73
     0
 40
0.0
  0
LTYPE
  5
67BA
330
5
100
AcDbSymbolTableRecord
100
AcDbLinetypeTableRecord
  2
CENTER
 70
     0
  3
Center ____ _ ____ _ ____ _ ____ _ ____ _ ____
 72
    65
 73
     4
 40
2.0
 49
1.25
 74
     0
 49
-0.25
 74
     0
 49
0.25
 74
     0
 49
-0.25
 74
     0
  0
ENDTAB
  0
TABLE
  2
LAYER
  5
2
102
{ACAD_XDICTIONARY
360
50B8
102
}
330
0
100
AcDbSymbolTable
 70
    10
  0
LAYER
  5
10
102
{ACAD_XDICTIONARY
360
50D0
102
}
330
2
100
AcDbSymbolTableRecord
100
AcDbLayerTableRecord
  2
0
 70
     0
 62
     7
  6
Continuous
370
    25
390
F
  0
LAYER
  5
3B
102
{ACAD_XDICTIONARY
360
50D2
102
}
330
2
100
AcDbSymbolTableRecord
100
AcDbLayerTableRecord
  2
图层 1
 70
     0
 62
     7
  6
Continuous
370
    -3
390
F
  0
LAYER
  5
50AE
102
{ACAD_XDICTIONARY
360
50AF
102
}
330
2
100
AcDbSymbolTableRecord
100
AcDbLayerTableRecord
  2
图框
 70
     0
 62
     7
  6
Continuous
370
    20
390
F
  0
LAYER
  5
5141
330
2
100
AcDbSymbolTableRecord
100
AcDbLayerTableRecord
  2
Defpoints
 70
     0
 62
     7
  6
Continuous
290
     0
370
    -3
390
F
  0
LAYER
  5
5144
330
2
100
AcDbSymbolTableRecord
100
AcDbLayerTableRecord
  2
DIM
 70
     0
 62
     3
  6
Continuous
370
    15
390
F
1001
AcAecLayerStandard
1000

1000

  0
LAYER
  5
52F3
330
2
100
AcDbSymbolTableRecord
100
AcDbLayerTableRecord
  2
打标文字
 70
     0
 62
     3
  6
Continuous
370
    20
390
F
  0
LAYER
  5
67B7
330
2
100
AcDbSymbolTableRecord
100
AcDbLayerTableRecord
  2
CEN
 70
     0
 62
     1
  6
CENTER
370
    15
390
F
1001
AcAecLayerStandard
1000

1000

  0
LAYER
  5
11B6B
330
2
100
AcDbSymbolTableRecord
100
AcDbLayerTableRecord
  2
hat
 70
     0
 62
     6
  6
Continuous
370
    15
390
F
1001
AcAecLayerStandard
1000

1000

  0
LAYER
  5
11B6D
330
2
100
AcDbSymbolTableRecord
100
AcDbLayerTableRecord
  2
文本
 70
     0
 62
     4
  6
Continuous
370
    25
390
11B6F
  0
LAYER
  5
17143
330
2
100
AcDbSymbolTableRecord
100
AcDbLayerTableRecord
  2
粗实线
 70
     0
 62
     7
  6
Continuous
370
    25
390
F
  0
ENDTAB
  0
TABLE
  2
STYLE
  5
3
330
0
100
AcDbSymbolTable
 70
     4
  0
STYLE
  5
11
330
3
100
AcDbSymbolTableRecord
100
AcDbTextStyleTableRecord
  2
Standard
 70
     0
 40
0.0
 41
0.75
 50
0.0
 71
     0
 42
0.2
  3
仿宋_GB2312.ttf
  4

1001
ACAD
1000
FangSong_GB2312
1071
    34353
  0
STYLE
  5
FD48
330
3
100
AcDbSymbolTableRecord
100
AcDbTextStyleTableRecord
  2
Romans字体
 70
     0
 40
0.0
 41
0.75
 50
0.0
 71
     0
 42
0.2
  3
romans.shx
  4

  0
STYLE
  5
11080
330
3
100
AcDbSymbolTableRecord
100
AcDbTextStyleTableRecord
  2
工程字
 70
     0
 40
0.0
 41
1.0
 50
0.0
 71
     0
 42
3.5
  3
gbenor.shx
  4
gbcbig.shx
  0
STYLE
  5
11081
330
3
100
AcDbSymbolTableRecord
100
AcDbTextStyleTableRecord
  2
Chinese
 70
     0
 40
0.0
 41
1.0
 50
0.0
 71
     0
 42
2.5
  3
PMingLiU.ttf
  4

1001
ACAD
1000
PMingLiU
1071
    34834
  0
ENDTAB
  0
TABLE
  2
VIEW
  5
6
330
0
100
AcDbSymbolTable
 70
     0
  0
ENDTAB
  0
TABLE
  2
UCS
  5
7
330
0
100
AcDbSymbolTable
 70
     0
  0
ENDTAB
  0
TABLE
  2
APPID
  5
9
330
0
100
AcDbSymbolTable
 70
    19
  0
APPID
  5
12
330
9
100
AcDbSymbolTableRecord
100
AcDbRegAppTableRecord
  2
ACAD
 70
     0
  0
APPID
  5
5024
330
9
100
AcDbSymbolTableRecord
100
AcDbRegAppTableRecord
  2
ACAD_MLEADERVER
 70
     0
  0
APPID
  5
50B5
330
9
100
AcDbSymbolTableRecord
100
AcDbRegAppTableRecord
  2
AcDbDynamicBlockGUID
 70
     0
  0
APPID
  5
50B6
330
9
100
AcDbSymbolTableRecord
100
AcDbRegAppTableRecord
  2
AcDbBlockRepETag
 70
     0
  0
APPID
  5
50B7
330
9
100
AcDbSymbolTableRecord
100
AcDbRegAppTableRecord
  2
ACAD_PSEXT
 70
     0
  0
APPID
  5
50CF
330
9
100
AcDbSymbolTableRecord
100
AcDbRegAppTableRecord
  2
AcadAnnoPO
 70
     0
  0
APPID
  5
5146
330
9
100
AcDbSymbolTableRecord
100
AcDbRegAppTableRecord
  2
AcAecLayerStandard
 70
     0
  0
APPID
  5
5147
330
9
100
AcDbSymbolTableRecord
100
AcDbRegAppTableRecord
  2
ACAD_DSTYLE_DIMJAG
 70
     0
  0
APPID
  5
5148
330
9
100
AcDbSymbolTableRecord
100
AcDbRegAppTableRecord
  2
ACAD_DSTYLE_DIMTALN
 70
     0
  0
APPID
  5
52AD
330
9
100
AcDbSymbolTableRecord
100
AcDbRegAppTableRecord
  2
ACAUTHENVIRON
 70
     0
  0
APPID
  5
52B0
330
9
100
AcDbSymbolTableRecord
100
AcDbRegAppTableRecord
  2
AcDbDynamicBlockTrueName
 70
     0
  0
APPID
  5
67C6
330
9
100
AcDbSymbolTableRecord
100
AcDbRegAppTableRecord
  2
ACAD_EXEMPT_FROM_CAD_STANDARDS
 70
     0
  0
APPID
  5
6838
330
9
100
AcDbSymbolTableRecord
100
AcDbRegAppTableRecord
  2
ACAD_NAV_VCDISPLAY
 70
     0
  0
APPID
  5
70A9
330
9
100
AcDbSymbolTableRecord
100
AcDbRegAppTableRecord
  2
DCO15
 70
     0
  0
APPID
  5
8725
330
9
100
AcDbSymbolTableRecord
100
AcDbRegAppTableRecord
  2
AcDbBlockRepBTag
 70
     0
  0
APPID
  5
FE64
330
9
100
AcDbSymbolTableRecord
100
AcDbRegAppTableRecord
  2
ACAD_DSTYLE_DIMRADIAL_EXTENSION
 70
     0
  0
APPID
  5
FF93
330
9
100
AcDbSymbolTableRecord
100
AcDbRegAppTableRecord
  2
ACAD_DSTYLE_DIMBREAK
 70
     0
  0
APPID
  5
141C8
330
9
100
AcDbSymbolTableRecord
100
AcDbRegAppTableRecord
  2
ACAD_DSTYLE_DIMINSPECT
 70
     0
  0
APPID
  5
188A2
330
9
100
AcDbSymbolTableRecord
100
AcDbRegAppTableRecord
  2
ACAD_DSTYLE_DIM_LINETYPE
 70
     0
  0
ENDTAB
  0
TABLE
  2
DIMSTYLE
  5
A
330
0
100
AcDbSymbolTable
 70
     2
100
AcDbDimStyleTable
 71
     2
340
5145
340
27
  0
DIMSTYLE
105
27
330
A
100
AcDbSymbolTableRecord
100
AcDbDimStyleTableRecord
  2
Standard
 70
     0
340
11
  0
DIMSTYLE
105
5145
102
{ACAD_REACTORS
330
18066
330
1806B
330
1806C
330
1806D
330
1806E
102
}
330
A
100
AcDbSymbolTableRecord
100
AcDbDimStyleTableRecord
  2
01
 70
     0
 41
1.199999999999999
 42
0.2
 43
0.2
 44
0.5
 73
     0
 74
     0
 77
     1
 78
     8
 79
     2
140
1.5
141
0.0
147
0.5
176
     1
177
     6
178
     4
179
     2
271
     1
272
     1
340
FD48
1001
ACAD_DSTYLE_DIMJAG
1070
   388
1040
1.5
1001
ACAD_DSTYLE_DIMTALN
1070
   392
1070
     0
  0
ENDTAB
  0
TABLE
  2
BLOCK_RECORD
  5
1
330
0
100
AcDbSymbolTable
 70
     9
  0
BLOCK_RECORD
  5
1F
102
{ACAD_XDICTIONARY
360
67C0
102
}
330
1
100
AcDbSymbolTableRecord
100
AcDbBlockTableRecord
  2
*Model_Space
340
22
  0
BLOCK_RECORD
  5
1B
330
1
100
AcDbSymbolTableRecord
100
AcDbBlockTableRecord
  2
*Paper_Space
340
1E
  0
BLOCK_RECORD
  5
23
330
1
100
AcDbSymbolTableRecord
100
AcDbBlockTableRecord
  2
*Paper_Space0
340
26
  0
BLOCK_RECORD
  5
13E17
102
{ACAD_XDICTIONARY
360
18AF3
102
}
330
1
100
AcDbSymbolTableRecord
100
AcDbBlockTableRecord
  2
*U1
340
0
310
2800000020000000200000000100080000000000000400000000000000000000000000000000000000000000000080000080000000808000800000008000800080800000C0C0C000C0DCC000F0CAA6000020400000206000002080000020A0000020C0000020E00000400000004020000040400000406000004080000040A0
310
000040C0000040E00000600000006020000060400000606000006080000060A0000060C0000060E00000800000008020000080400000806000008080000080A0000080C0000080E00000A0000000A0200000A0400000A0600000A0800000A0A00000A0C00000A0E00000C0000000C0200000C0400000C0600000C0800000C0
310
A00000C0C00000C0E00000E0000000E0200000E0400000E0600000E0800000E0A00000E0C00000E0E00040000000400020004000400040006000400080004000A0004000C0004000E00040200000402020004020400040206000402080004020A0004020C0004020E000404000004040200040404000404060004040800040
310
40A0004040C0004040E00040600000406020004060400040606000406080004060A0004060C0004060E00040800000408020004080400040806000408080004080A0004080C0004080E00040A0000040A0200040A0400040A0600040A0800040A0A00040A0C00040A0E00040C0000040C0200040C0400040C0600040C08000
310
40C0A00040C0C00040C0E00040E0000040E0200040E0400040E0600040E0800040E0A00040E0C00040E0E00080000000800020008000400080006000800080008000A0008000C0008000E00080200000802020008020400080206000802080008020A0008020C0008020E00080400000804020008040400080406000804080
310
008040A0008040C0008040E00080600000806020008060400080606000806080008060A0008060C0008060E00080800000808020008080400080806000808080008080A0008080C0008080E00080A0000080A0200080A0400080A0600080A0800080A0A00080A0C00080A0E00080C0000080C0200080C0400080C0600080C0
310
800080C0A00080C0C00080C0E00080E0000080E0200080E0400080E0600080E0800080E0A00080E0C00080E0E000C0000000C0002000C0004000C0006000C0008000C000A000C000C000C000E000C0200000C0202000C0204000C0206000C0208000C020A000C020C000C020E000C0400000C0402000C0404000C0406000C0
310
408000C040A000C040C000C040E000C0600000C0602000C0604000C0606000C0608000C060A000C060C000C060E000C0800000C0802000C0804000C0806000C0808000C080A000C080C000C080E000C0A00000C0A02000C0A04000C0A06000C0A08000C0A0A000C0A0C000C0A0E000C0C00000C0C02000C0C04000C0C06000
310
C0C08000C0C0A000F0FBFF00A4A0A000808080000000FF0000FF000000FFFF00FF000000FF00FF00FFFF0000FFFFFF0000000000000000000000000000000000000000000000000000000000000000000000000000000000000000000000000000000000000000000000000000000000000000000000000000000000000000
310
000000000000000000000000000000000000000000000000000000000000000000000000000000000000000000000000000000000000000000000000000000000000000000000000000000000000000000000000000000000000000000000000000000000000000000000000000000000000F9F9F9F9F9F9F9F9F9F9F9F9F9
310
F9F9F9F9F9F9F9F9F9F9F9F9F9F9FF00000000F9FF000000000000000000FFFFFFFFFFFFFFFFFFFFFFFFF9FAFAFAFF00000000F9FF000000000000000000FFFFFFFFFFFFFFFFFFFFFFFFFFFFFFFFFF00000000F9FD000000000000000000FFFFFFFFFFFFFFFFFFFFFFFFFFFFFFFFFF00000000F9FF000000000000000000FF
310
FFFFFFFFFFFFFFFFFFFFFFFFFFFFFFFF00000000F9FD000000000000000000FFFFFFFFFFFFFFFFFFFFFFFFFFFFFFFFFF00000000F9FF00000000000000000000000000000000000000000000000000FF00000000F9FD00000000000000000000000000000000000000000000000000FF00000000F9FF000000000000000000
310
00000000000000000000000000000000FF00000000F9FD00000000000000000000000000000000000000000000000000FF00000000F9FF00000000000000000000000000000000000000000000000000FF00000000F9FD00000000000000000000000000000000000000000000000000FF00000000F9FD0000000000000000
310
0000000000000000000000000000000000FF00000000F9FF00000000000000000000000000000000000000000000000000FF00000000F9FD00000000000000000000000000000000000000000000000000FF00000000F9FF00000000000000000000000000000000000000000000000000FF00000000F9FD00000000000000
310
000000000000000000000000000000000000FF00000000F9FF00000000000000000000000000000000000000000000000000FF00000000F9FFFFFFFFFFFFFFFFFFFFFFFFFFFFFFFFFFFFFFFFFFFFFFFFFFFFFF00000000F9FFFFFFF9F9F9F9F9F9F9F9F9F9F9F9F9F9F9F9F9F9F9F9F9F9F9F9000000000000000000000000
310
00000000000000000000000000000000000000000000000000000000000000000000000000000000000000000000000000000000000000000000000000000000000000000000000000000000000000000000000000000000000000000000000000000000000000000000000000000000000000000000000000000000000000
310
0000000000000000000000000000000000000000000000000000000000000000000000000000000000000000000000000000000000000000
102
{BLKREFS
331
13EBE
102
}
1001
ACAUTHENVIRON
1005
18A5C
1001
AcDbDynamicBlockTrueName
1000
A4图框-NEW
1001
AcDbDynamicBlockGUID
1000
{3DB02465-6D2C-4D23-98E1-C2FE9DC50B5D}
1001
AcDbBlockRepETag
1070
     1
1071
      153
1001
ACAD
1000
DesignCenter Data
1002
{
1070
     1
1070
     4
1002
}
  0
BLOCK_RECORD
  5
1806F
330
1
100
AcDbSymbolTableRecord
100
AcDbBlockTableRecord
  2
*D3
340
0
  0
BLOCK_RECORD
  5
1807C
330
1
100
AcDbSymbolTableRecord
100
AcDbBlockTableRecord
  2
*D4
340
0
  0
BLOCK_RECORD
  5
18089
330
1
100
AcDbSymbolTableRecord
100
AcDbBlockTableRecord
  2
*D5
340
0
  0
BLOCK_RECORD
  5
18095
330
1
100
AcDbSymbolTableRecord
100
AcDbBlockTableRecord
  2
*D6
340
0
  0
BLOCK_RECORD
  5
180A2
330
1
100
AcDbSymbolTableRecord
100
AcDbBlockTableRecord
  2
*D7
340
0
  0
ENDTAB
  0
ENDSEC
  0
SECTION
  2
BLOCKS
  0
BLOCK
  5
20
330
1F
100
AcDbEntity
  8
0
100
AcDbBlockBegin
  2
*Model_Space
 70
     0
 10
0.0
 20
0.0
 30
0.0
  3
*Model_Space
  1

  0
ENDBLK
  5
21
330
1F
100
AcDbEntity
  8
0
100
AcDbBlockEnd
  0
BLOCK
  5
1C
330
1B
100
AcDbEntity
 67
     1
  8
0
100
AcDbBlockBegin
  2
*Paper_Space
 70
     0
 10
0.0
 20
0.0
 30
0.0
  3
*Paper_Space
  1

  0
ENDBLK
  5
1D
330
1B
100
AcDbEntity
 67
     1
  8
0
100
AcDbBlockEnd
  0
BLOCK
  5
24
330
23
100
AcDbEntity
 67
     1
  8
0
100
AcDbBlockBegin
  2
*Paper_Space0
 70
     0
 10
0.0
 20
0.0
 30
0.0
  3
*Paper_Space0
  1

  0
ENDBLK
  5
25
330
23
100
AcDbEntity
 67
     1
  8
0
100
AcDbBlockEnd
  0
BLOCK
  5
13E19
330
13E17
100
AcDbEntity
  8
0
100
AcDbBlockBegin
  2
*U1
 70
     1
 10
0.0
 20
0.0
 30
0.0
  3
*U1
  1

  0
MTEXT
  5
18A5F
102
{ACAD_XDICTIONARY
360
18D09
102
}
330
13E17
100
AcDbEntity
  8
图框
 62
     3
100
AcDbMText
 10
967.6594956750133
 20
499.7664151964293
 30
0.0
 40
2.2528
 41
15.50176341157864
 71
     5
 72
     5
  1
HQ ZHANG
  7
Romans字体
 73
     1
 44
1.0
1001
AcDbBlockRepETag
1070
     1
1071
        0
1005
18A5F
1001
ACAD
1000
ACAD_MTEXT_DEFINED_HEIGHT_BEGIN
1070
    46
1040
6.292658374511018
1000
ACAD_MTEXT_DEFINED_HEIGHT_END
  0
MTEXT
  5
18A60
330
13E17
100
AcDbEntity
  8
图框
 62
     3
100
AcDbMText
 10
983.041569333247
 20
499.7664151964293
 30
0.0
 40
2.2528
 41
15.50176341157864
 71
     5
 72
     5
  1
{\W0.7;26.12.2014}
  7
Romans字体
 73
     1
 44
1.0
1001
AcDbBlockRepETag
1070
     1
1071
        1
1005
18A60
1001
ACAD
1000
ACAD_MTEXT_DEFINED_HEIGHT_BEGIN
1070
    46
1040
6.292658374511042
1000
ACAD_MTEXT_DEFINED_HEIGHT_END
  0
MTEXT
  5
18A61
330
13E17
100
AcDbEntity
  8
图框
 62
     3
100
AcDbMText
 10
1012.477254728976
 20
487.1810984474071
 30
0.0
 40
2.2528
 41
15.50176341157864
 71
     5
 72
     5
  1
YY LUO
  7
Romans字体
 73
     1
 44
1.0
1001
AcDbBlockRepETag
1070
     1
1071
        2
1005
18A61
1001
ACAD
1000
ACAD_MTEXT_DEFINED_HEIGHT_BEGIN
1070
    46
1040
6.292658374511455
1000
ACAD_MTEXT_DEFINED_HEIGHT_END
  0
MTEXT
  5
18A62
330
13E17
100
AcDbEntity
  8
图框
 62
     3
100
AcDbMText
 10
1063.722665487208
 20
525.4145966538831
 30
0.0
 40
2.2528
 41
15.50176341157864
 71
     5
 72
     5
  1
-
  7
Romans字体
 73
     1
 44
1.0
1001
AcDbBlockRepETag
1070
     1
1071
        4
1005
18A62
1001
ACAD
1000
ACAD_MTEXT_DEFINED_HEIGHT_BEGIN
1070
    46
1040
11.82914190181707
1000
ACAD_MTEXT_DEFINED_HEIGHT_END
  0
MTEXT
  5
18A63
330
13E17
100
AcDbEntity
  8
图框
 62
     3
100
AcDbMText
 10
1063.727338552349
 20
513.5854547520641
 30
0.0
 40
2.2528
 41
15.50176341157864
 71
     5
 72
     5
  1
-
  7
Romans字体
 73
     1
 44
1.0
1001
AcDbBlockRepETag
1070
     1
1071
        5
1005
18A63
1001
ACAD
1000
ACAD_MTEXT_DEFINED_HEIGHT_BEGIN
1070
    46
1040
11.82914190182139
1000
ACAD_MTEXT_DEFINED_HEIGHT_END
  0
MTEXT
  5
18A64
330
13E17
100
AcDbEntity
  8
图框
 62
     3
100
AcDbMText
 10
1110.122306614152
 20
526.8006839312707
 30
0.0
 40
2.2528
 41
15.50176341157864
 71
     5
 72
     5
  1
-
  7
Romans字体
 73
     1
 44
1.0
1001
AcDbBlockRepETag
1070
     1
1071
        6
1005
18A64
1001
ACAD
1000
ACAD_MTEXT_DEFINED_HEIGHT_BEGIN
1070
    46
1040
9.05696734704178
1000
ACAD_MTEXT_DEFINED_HEIGHT_END
  0
MTEXT
  5
18A65
330
13E17
100
AcDbEntity
  8
图框
 62
     3
100
AcDbMText
 10
1110.122306614152
 20
500.2775205517162
 30
0.0
 40
2.2528
 41
15.50176341157864
 71
     5
 72
     5
  1
-
  7
Romans字体
 73
     1
 44
1.0
1001
AcDbBlockRepETag
1070
     1
1071
        7
1005
18A65
1001
ACAD
1000
ACAD_MTEXT_DEFINED_HEIGHT_BEGIN
1070
    46
1040
8.871557304763419
1000
ACAD_MTEXT_DEFINED_HEIGHT_END
  0
MTEXT
  5
18A66
330
13E17
100
AcDbEntity
  8
图框
 62
     3
100
AcDbMText
 10
1012.477254728976
 20
499.7664151964291
 30
0.0
 40
2.2528
 41
15.50176341157864
 71
     5
 72
     5
  1
-
  7
Romans字体
 73
     1
 44
1.0
1001
AcDbBlockRepETag
1070
     1
1071
       10
1005
18A66
1001
ACAD
1000
ACAD_MTEXT_DEFINED_HEIGHT_BEGIN
1070
    46
1040
6.292658374511397
1000
ACAD_MTEXT_DEFINED_HEIGHT_END
  0
MTEXT
  5
18A67
330
13E17
100
AcDbEntity
  8
图框
 62
     3
100
AcDbMText
 10
1028.977802139886
 20
499.7664151964289
 30
0.0
 40
2.2528
 41
15.50176341157864
 71
     5
 72
     5
  1
-
  7
Romans字体
 73
     1
 44
1.0
1001
AcDbBlockRepETag
1070
     1
1071
       11
1005
18A67
1001
ACAD
1000
ACAD_MTEXT_DEFINED_HEIGHT_BEGIN
1070
    46
1040
6.292658374511382
1000
ACAD_MTEXT_DEFINED_HEIGHT_END
  0
MTEXT
  5
18A68
330
13E17
100
AcDbEntity
  8
图框
 62
     3
100
AcDbMText
 10
967.6594956750133
 20
487.1810984474071
 30
0.0
 40
2.985513575034151
 41
15.50176341157863
 71
     5
 72
     5
  1
-
  7
Romans字体
 73
     1
 44
1.0
1001
AcDbBlockRepETag
1070
     1
1071
       12
1005
18A68
1001
ACAD
1000
ACAD_MTEXT_DEFINED_HEIGHT_BEGIN
1070
    46
1040
6.292658374511478
1000
ACAD_MTEXT_DEFINED_HEIGHT_END
  0
MTEXT
  5
18A69
330
13E17
100
AcDbEntity
  8
图框
 62
     3
100
AcDbMText
 10
983.041569333247
 20
487.1810984474071
 30
0.0
 40
2.487927979195124
 41
15.26238390489062
 71
     5
 72
     5
  1
-
  7
Romans字体
 73
     1
 44
1.0
1001
AcDbBlockRepETag
1070
     1
1071
       13
1005
18A69
1001
ACAD
1000
ACAD_MTEXT_DEFINED_HEIGHT_BEGIN
1070
    46
1040
6.292658374511495
1000
ACAD_MTEXT_DEFINED_HEIGHT_END
  0
MTEXT
  5
18A6A
330
13E17
100
AcDbEntity
  8
图框
 62
     3
100
AcDbMText
 10
1074.556686986741
 20
495.8417418993361
 30
0.0
 40
2.2528
 41
15.50176341157864
 71
     5
 72
     5
  1
-
  7
Romans字体
 73
     1
 44
1.0
1001
AcDbBlockRepETag
1070
     1
1071
       14
1005
18A6A
1001
ACAD
1000
ACAD_MTEXT_DEFINED_HEIGHT_BEGIN
1070
    46
1040
7.886094601210427
1000
ACAD_MTEXT_DEFINED_HEIGHT_END
  0
LINE
  5
18A6B
330
13E17
100
AcDbEntity
  8
图框
370
    -3
100
AcDbLine
 10
1036.653967466372
 20
499.7847891999413
 30
0.0
 11
1079.971361203936
 21
499.7847891999413
 31
0.0
1001
AcDbBlockRepETag
1070
     1
1071
       15
1005
18A6B
  0
MTEXT
  5
18A6C
330
13E17
100
AcDbEntity
  8
图框
 62
     1
370
    20
100
AcDbMText
 10
1108.26336443907
 20
491.5162596080882
 30
0.0
 40
2.699054613030988
 41
82.30831305643079
 71
     5
 72
     5
  1
{\fSimHei|b0|i0|c134|p2;厦门唯恩电气有限公司}
 73
     1
 44
1.0
1001
AcDbBlockRepETag
1070
     1
1071
       16
1005
18A6C
  0
MTEXT
  5
18A6D
330
13E17
100
AcDbEntity
  8
图框
 62
     3
370
    20
100
AcDbMText
 10
1108.435451459908
 20
487.298967726064
 30
0.0
 40
1.652482416141417
 41
68.08558693693567
 71
     5
 72
     5
  1
{\fArial Narrow|b0|i0|c0|p34;XIAMEN WAIN ELECTRICAL CO.LTD}
  7
工程字
 73
     1
 44
1.0
1001
AcDbBlockRepETag
1070
     1
1071
       17
1005
18A6D
  0
MTEXT
  5
18A6E
330
13E17
100
AcDbEntity
  8
图框
 62
     1
370
    20
100
AcDbMText
 10
1085.711816899387
 20
491.0944802995856
 30
0.0
 40
2.005930044038334
 41
5.047240019334847
 71
     1
 72
     5
  1
{\fArial|b0|i0|c0|p34;A}
  7
Chinese
 73
     1
 44
1.0
1001
AcDbBlockRepETag
1070
     1
1071
       18
1005
18A6E
  0
MTEXT
  5
18A6F
330
13E17
100
AcDbEntity
  8
图框
 62
     1
370
    20
100
AcDbMText
 10
1088.213485935716
 20
491.0944802995856
 30
0.0
 40
2.005930044038334
 41
5.047240019334847
 71
     1
 72
     5
  1
{\fArial|b0|i0|c0|p34;I}
  7
Chinese
 73
     1
 44
1.0
1001
AcDbBlockRepETag
1070
     1
1071
       19
1005
18A6F
  0
MTEXT
  5
18A70
330
13E17
100
AcDbEntity
  8
图框
 62
     1
370
    20
100
AcDbMText
 10
1089.142375222864
 20
491.0822866326808
 30
0.0
 40
2.005930044038334
 41
5.047240019334847
 71
     1
 72
     5
  1
{\fArial|b0|i0|c0|p34;N}
  7
Chinese
 73
     1
 44
1.0
1001
AcDbBlockRepETag
1070
     1
1071
       20
1005
18A70
  0
MTEXT
  5
18A71
330
13E17
100
AcDbEntity
  8
图框
100
AcDbMText
 10
1069.142012769545
 20
487.9667319294409
 30
0.0
 40
2.252848170144607
 41
21.65869686878327
 71
     5
 72
     5
  1
{\W0.5;\C1;All Dimensions in mm\POriginal Size DIN A 4}
  7
Romans字体
 73
     1
 44
1.0
1001
AcDbBlockRepETag
1070
     1
1071
       21
1005
18A71
1001
ACAD
1000
ACAD_MTEXT_DEFINED_HEIGHT_BEGIN
1070
    46
1040
7.863925338579296
1000
ACAD_MTEXT_DEFINED_HEIGHT_END
  0
MTEXT
  5
18A72
330
13E17
100
AcDbEntity
  8
图框
  6
ByBlock
 62
     6
370
    18
100
AcDbMText
 10
1127.40434942308
 20
508.7896535755975
 30
0.0
 40
2.651776162684904
 41
2.557913877927211
 71
     1
 72
     5
  1
A
  7
Romans字体
 11
0.0000000000000001
 21
1.0
 31
0.0
 73
     1
 44
1.0
1001
AcDbBlockRepETag
1070
     1
1071
       22
1005
18A72
  0
MTEXT
  5
18A73
330
13E17
100
AcDbEntity
  8
图框
 62
     6
100
AcDbMText
 10
1127.40434942308
 20
556.3746573232886
 30
0.0
 40
2.651776162684904
 41
2.557913877927211
 71
     1
 72
     5
  1
B
  7
Romans字体
 11
0.0000000000000001
 21
1.0
 31
0.0
 73
     1
 44
1.0
1001
AcDbBlockRepETag
1070
     1
1071
       23
1005
18A73
  0
MTEXT
  5
18A74
330
13E17
100
AcDbEntity
  8
图框
 62
     6
100
AcDbMText
 10
1127.40434942308
 20
607.5539372630998
 30
0.0
 40
2.651776162684904
 41
2.557913877927211
 71
     1
 72
     5
  1
C
  7
Romans字体
 11
0.0000000000000001
 21
1.0
 31
0.0
 73
     1
 44
1.0
1001
AcDbBlockRepETag
1070
     1
1071
       24
1005
18A74
  0
MTEXT
  5
18A75
330
13E17
100
AcDbEntity
  8
图框
 62
     6
100
AcDbMText
 10
1127.40434942308
 20
658.7332172029115
 30
0.0
 40
2.651776162684904
 41
2.557913877927211
 71
     1
 72
     5
  1
D
  7
Romans字体
 11
0.0000000000000001
 21
1.0
 31
0.0
 73
     1
 44
1.0
1001
AcDbBlockRepETag
1070
     1
1071
       25
1005
18A75
  0
LINE
  5
18A76
330
13E17
100
AcDbEntity
  8
图框
 62
     6
100
AcDbLine
 10
1130.411601781241
 20
634.0726090796082
 30
0.0
 11
1126.928502610363
 21
634.0726090796082
 31
0.0
1001
AcDbBlockRepETag
1070
     1
1071
       26
1005
18A76
  0
LINE
  5
18A77
330
13E17
100
AcDbEntity
  8
图框
 62
     6
100
AcDbLine
 10
1130.411601781241
 20
582.89332913979
 30
0.0
 11
1126.928502610363
 21
582.89332913979
 31
0.0
1001
AcDbBlockRepETag
1070
     1
1071
       27
1005
18A77
  0
MTEXT
  5
18A78
330
13E17
100
AcDbEntity
  8
图框
 62
     6
100
AcDbMText
 10
1105.329704038389
 20
483.6164543011163
 30
0.0
 40
2.651776162684904
 41
2.557913877927211
 71
     1
 72
     5
  1
6
  7
Romans字体
 73
     1
 44
1.0
1001
AcDbBlockRepETag
1070
     1
1071
       28
1005
18A78
  0
LINE
  5
18A79
330
13E17
100
AcDbEntity
  8
图框
 62
     6
100
AcDbLine
 10
1081.088565155284
 20
484.0347692601515
 30
0.0
 11
1081.088565155284
 21
480.5347692601475
 31
0.0
1001
AcDbBlockRepETag
1070
     1
1071
       29
1005
18A79
  0
MTEXT
  5
18A7A
330
13E17
100
AcDbEntity
  8
图框
 62
     6
100
AcDbMText
 10
1055.900596365941
 20
483.520053108993
 30
0.0
 40
2.651776162684904
 41
2.557913877927211
 71
     1
 72
     5
  1
5
  7
Romans字体
 73
     1
 44
1.0
1001
AcDbBlockRepETag
1070
     1
1071
       30
1005
18A7A
  0
LINE
  5
18A7B
330
13E17
100
AcDbEntity
  8
图框
 62
     6
100
AcDbLine
 10
1031.553386436349
 20
484.0347692601515
 30
0.0
 11
1031.553386436349
 21
480.5347692601475
 31
0.0
1001
AcDbBlockRepETag
1070
     1
1071
       31
1005
18A7B
  0
MTEXT
  5
18A7C
330
13E17
100
AcDbEntity
  8
图框
 62
     6
100
AcDbMText
 10
1006.383180575197
 20
483.5687958215896
 30
0.0
 40
2.651776162684904
 41
2.557913877927211
 71
     1
 72
     5
  1
4
  7
Romans字体
 73
     1
 44
1.0
1001
AcDbBlockRepETag
1070
     1
1071
       32
1005
18A7C
  0
LINE
  5
18A7D
330
13E17
100
AcDbEntity
  8
图框
 62
     6
100
AcDbLine
 10
982.0182077173887
 20
484.0347692601515
 30
0.0
 11
982.0182077173887
 21
480.5347692601475
 31
0.0
1001
AcDbBlockRepETag
1070
     1
1071
       33
1005
18A7D
  0
MTEXT
  5
18A7E
330
13E17
100
AcDbEntity
  8
图框
 62
     6
100
AcDbMText
 10
956.8302389280352
 20
483.5989680297948
 30
0.0
 40
2.651776162684904
 41
2.557913877927211
 71
     1
 72
     5
  1
3
  7
Romans字体
 73
     1
 44
1.0
1001
AcDbBlockRepETag
1070
     1
1071
       34
1005
18A7E
  0
LINE
  5
18A7F
330
13E17
100
AcDbEntity
  8
图框
 62
     6
100
AcDbLine
 10
932.4830289984245
 20
484.0347692601515
 30
0.0
 11
932.4830289984245
 21
480.5347692601475
 31
0.0
1001
AcDbBlockRepETag
1070
     1
1071
       35
1005
18A7F
  0
MTEXT
  5
18A80
330
13E17
100
AcDbEntity
  8
图框
 62
     6
100
AcDbMText
 10
906.0252349826365
 20
483.6475250013156
 30
0.0
 40
2.651776162684904
 41
2.557913877927211
 71
     1
 72
     5
  1
2
  7
Romans字体
 73
     1
 44
1.0
1001
AcDbBlockRepETag
1070
     1
1071
       36
1005
18A80
  0
LINE
  5
18A81
330
13E17
100
AcDbEntity
  8
图框
 62
     6
100
AcDbLine
 10
882.9478502794648
 20
484.0347692601515
 30
0.0
 11
882.9478502794648
 21
480.5347692601475
 31
0.0
1001
AcDbBlockRepETag
1070
     1
1071
       37
1005
18A81
  0
MTEXT
  5
18A82
330
13E17
100
AcDbEntity
  8
图框
 62
     6
100
AcDbMText
 10
857.7598814901191
 20
483.651829494754
 30
0.0
 40
2.651776162684904
 41
2.557913877927211
 71
     1
 72
     5
  1
1
  7
Romans字体
 73
     1
 44
1.0
1001
AcDbBlockRepETag
1070
     1
1071
       38
1005
18A82
  0
LINE
  5
18A83
330
13E17
100
AcDbEntity
  8
图框
370
    50
100
AcDbLine
 10
836.8548209370597
 20
484.0347692601515
 30
0.0
 11
1126.928502610363
 21
484.0347692601515
 31
0.0
1001
AcDbBlockRepETag
1070
     1
1071
       39
1005
18A83
  0
LINE
  5
18A84
330
13E17
100
AcDbEntity
  8
图框
370
    50
100
AcDbLine
 10
836.9128518455362
 20
484.0178684310246
 30
0.0
 11
836.9128518455394
 21
675.0207195125422
 31
0.0
1001
AcDbBlockRepETag
1070
     1
1071
       40
1005
18A84
  0
MTEXT
  5
18A85
330
13E17
100
AcDbEntity
  8
图框
 62
     6
100
AcDbMText
 10
833.8475685789031
 20
658.7332172029115
 30
0.0
 40
2.651776162684904
 41
2.557913877927211
 71
     1
 72
     5
  1
D
  7
Romans字体
 11
0.0000000000000001
 21
1.0
 31
0.0
 73
     1
 44
1.0
1001
AcDbBlockRepETag
1070
     1
1071
       41
1005
18A85
  0
LINE
  5
18A86
330
13E17
100
AcDbEntity
  8
图框
 62
     6
100
AcDbLine
 10
836.9128518455386
 20
634.0726090796082
 30
0.0
 11
833.4128518455365
 21
634.0726090796082
 31
0.0
1001
AcDbBlockRepETag
1070
     1
1071
       42
1005
18A86
  0
MTEXT
  5
18A87
330
13E17
100
AcDbEntity
  8
图框
 62
     6
100
AcDbMText
 10
833.9039177480142
 20
607.5539372630998
 30
0.0
 40
2.651776162684904
 41
2.557913877927211
 71
     1
 72
     5
  1
C
  7
Romans字体
 11
0.0000000000000001
 21
1.0
 31
0.0
 73
     1
 44
1.0
1001
AcDbBlockRepETag
1070
     1
1071
       43
1005
18A87
  0
LINE
  5
18A88
330
13E17
100
AcDbEntity
  8
图框
 62
     6
100
AcDbLine
 10
836.9128518455378
 20
582.89332913979
 30
0.0
 11
833.4128518455365
 21
582.89332913979
 31
0.0
1001
AcDbBlockRepETag
1070
     1
1071
       44
1005
18A88
  0
MTEXT
  5
18A89
330
13E17
100
AcDbEntity
  8
图框
 62
     6
100
AcDbMText
 10
833.9039177480142
 20
556.3746573232886
 30
0.0
 40
2.651776162684904
 41
2.557913877927211
 71
     1
 72
     5
  1
B
  7
Romans字体
 11
0.0000000000000001
 21
1.0
 31
0.0
 73
     1
 44
1.0
1001
AcDbBlockRepETag
1070
     1
1071
       45
1005
18A89
  0
LINE
  5
18A8A
330
13E17
100
AcDbEntity
  8
图框
 62
     6
100
AcDbLine
 10
836.9128518455367
 20
531.714049199969
 30
0.0
 11
833.4128518455365
 21
531.714049199969
 31
0.0
1001
AcDbBlockRepETag
1070
     1
1071
       46
1005
18A8A
  0
MTEXT
  5
18A8B
330
13E17
100
AcDbEntity
  8
图框
 62
     6
100
AcDbMText
 10
833.9039177480142
 20
508.7896535755975
 30
0.0
 40
2.651776162684904
 41
2.557913877927211
 71
     1
 72
     5
  1
A
  7
Romans字体
 11
0.0000000000000001
 21
1.0
 31
0.0
 73
     1
 44
1.0
1001
AcDbBlockRepETag
1070
     1
1071
       47
1005
18A8B
  0
LINE
  5
18A8C
330
13E17
100
AcDbEntity
  8
图框
370
    -3
100
AcDbLine
 10
836.9128518455394
 20
675.0207195125422
 30
0.0
 11
836.9128518455394
 21
684.5021384922564
 31
0.0
1001
AcDbBlockRepETag
1070
     1
1071
       48
1005
18A8C
  0
LINE
  5
18A8D
330
13E17
100
AcDbEntity
  8
图框
370
    -3
100
AcDbLine
 10
842.6237321475781
 20
675.5347692601515
 30
0.0
 11
842.6237321475781
 21
685.0161882398658
 31
0.0
1001
AcDbBlockRepETag
1070
     1
1071
       49
1005
18A8D
  0
LINE
  5
18A8E
330
13E17
100
AcDbEntity
  8
图框
370
    -3
100
AcDbLine
 10
848.3346124496179
 20
675.5347692601515
 30
0.0
 11
848.3346124496179
 21
685.0161882398658
 31
0.0
1001
AcDbBlockRepETag
1070
     1
1071
       50
1005
18A8E
  0
LINE
  5
18A8F
330
13E17
100
AcDbEntity
  8
图框
370
    -3
100
AcDbLine
 10
854.0454927516588
 20
675.5347692601515
 30
0.0
 11
854.0454927516588
 21
685.0161882398658
 31
0.0
1001
AcDbBlockRepETag
1070
     1
1071
       51
1005
18A8F
  0
LINE
  5
18A90
330
13E17
100
AcDbEntity
  8
图框
370
    -3
100
AcDbLine
 10
861.5351874539182
 20
675.5347692601515
 30
0.0
 11
861.5351874539182
 21
686.7901958362482
 31
0.0
1001
AcDbBlockRepETag
1070
     1
1071
       52
1005
18A90
  0
MTEXT
  5
18A91
330
13E17
100
AcDbEntity
  8
图框
 62
     6
100
AcDbMText
 10
1105.329704038389
 20
678.859919059449
 30
0.0
 40
2.651776162684904
 41
2.557913877927211
 71
     1
 72
     5
  1
6
  7
Romans字体
 73
     1
 44
1.0
1001
AcDbBlockRepETag
1070
     1
1071
       53
1005
18A91
  0
LINE
  5
18A92
330
13E17
100
AcDbEntity
  8
图框
 62
     6
100
AcDbLine
 10
1081.088565155284
 20
679.0347692601516
 30
0.0
 11
1081.088565155284
 21
675.5347692601515
 31
0.0
1001
AcDbBlockRepETag
1070
     1
1071
       54
1005
18A92
  0
MTEXT
  5
18A93
330
13E17
100
AcDbEntity
  8
图框
 62
     6
100
AcDbMText
 10
1055.900596365941
 20
678.859919059449
 30
0.0
 40
2.651776162684904
 41
2.557913877927211
 71
     1
 72
     5
  1
5
  7
Romans字体
 73
     1
 44
1.0
1001
AcDbBlockRepETag
1070
     1
1071
       55
1005
18A93
  0
LINE
  5
18A94
330
13E17
100
AcDbEntity
  8
图框
 62
     6
100
AcDbLine
 10
1031.553386436349
 20
679.0347692601516
 30
0.0
 11
1031.553386436349
 21
675.5347692601515
 31
0.0
1001
AcDbBlockRepETag
1070
     1
1071
       56
1005
18A94
  0
MTEXT
  5
18A95
330
13E17
100
AcDbEntity
  8
图框
 62
     6
100
AcDbMText
 10
1006.36541764698
 20
678.7312083656147
 30
0.0
 40
2.651776162684904
 41
2.557913877927211
 71
     1
 72
     5
  1
4
  7
Romans字体
 73
     1
 44
1.0
1001
AcDbBlockRepETag
1070
     1
1071
       57
1005
18A95
  0
LINE
  5
18A96
330
13E17
100
AcDbEntity
  8
图框
 62
     6
100
AcDbLine
 10
982.0182077173887
 20
679.0347692601516
 30
0.0
 11
982.0182077173887
 21
675.5347692601515
 31
0.0
1001
AcDbBlockRepETag
1070
     1
1071
       58
1005
18A96
  0
MTEXT
  5
18A97
330
13E17
100
AcDbEntity
  8
图框
 62
     6
100
AcDbMText
 10
956.8302389280352
 20
678.859919059449
 30
0.0
 40
2.651776162684904
 41
2.557913877927211
 71
     1
 72
     5
  1
3
  7
Romans字体
 73
     1
 44
1.0
1001
AcDbBlockRepETag
1070
     1
1071
       59
1005
18A97
  0
LINE
  5
18A98
330
13E17
100
AcDbEntity
  8
图框
 62
     6
100
AcDbLine
 10
932.4830289984245
 20
679.0347692601516
 30
0.0
 11
932.4830289984245
 21
675.5347692601515
 31
0.0
1001
AcDbBlockRepETag
1070
     1
1071
       60
1005
18A98
  0
MTEXT
  5
18A99
330
13E17
100
AcDbEntity
  8
图框
 62
     6
100
AcDbMText
 10
907.295060209082
 20
678.859919059449
 30
0.0
 40
2.651776162684904
 41
2.557913877927211
 71
     1
 72
     5
  1
2
  7
Romans字体
 73
     1
 44
1.0
1001
AcDbBlockRepETag
1070
     1
1071
       61
1005
18A99
  0
LINE
  5
18A9A
330
13E17
100
AcDbEntity
  8
图框
 62
     6
100
AcDbLine
 10
882.9478502794648
 20
678.7962435131815
 30
0.0
 11
882.9478502794648
 21
675.5347692601515
 31
0.0
1001
AcDbBlockRepETag
1070
     1
1071
       62
1005
18A9A
  0
MTEXT
  5
18A9B
330
13E17
100
AcDbEntity
  8
图框
 62
     6
100
AcDbMText
 10
862.6286629643733
 20
678.859919059449
 30
0.0
 40
2.651776162684904
 41
2.557913877927211
 71
     1
 72
     5
  1
1
  7
Romans字体
 73
     1
 44
1.0
1001
AcDbBlockRepETag
1070
     1
1071
       63
1005
18A9B
  0
LINE
  5
18A9C
330
13E17
100
AcDbEntity
  8
图框
370
    -3
100
AcDbLine
 10
836.9128518455394
 20
675.0207195125422
 30
0.0
 11
836.9128518455394
 21
686.7901958362482
 31
0.0
1001
AcDbBlockRepETag
1070
     1
1071
       64
1005
18A9C
  0
LINE
  5
18A9D
330
13E17
100
AcDbEntity
  8
图框
370
    50
100
AcDbLine
 10
836.9128518455394
 20
675.5347692601515
 30
0.0
 11
1126.928502610363
 21
675.5347692601515
 31
0.0
1001
AcDbBlockRepETag
1070
     1
1071
       65
1005
18A9D
  0
LINE
  5
18A9E
330
13E17
100
AcDbEntity
  8
图框
370
    -3
100
AcDbLine
 10
842.6237321475781
 20
675.5347692601515
 30
0.0
 11
842.6237321475781
 21
686.7901958362482
 31
0.0
1001
AcDbBlockRepETag
1070
     1
1071
       66
1005
18A9E
  0
LINE
  5
18A9F
330
13E17
100
AcDbEntity
  8
图框
370
    -3
100
AcDbLine
 10
848.3346124496179
 20
675.5347692601515
 30
0.0
 11
848.3346124496179
 21
686.7901958362482
 31
0.0
1001
AcDbBlockRepETag
1070
     1
1071
       67
1005
18A9F
  0
MTEXT
  5
18AA0
102
{ACAD_XDICTIONARY
360
18D0B
102
}
330
13E17
100
AcDbEntity
  8
图框
100
AcDbMText
 10
857.7903401027889
 20
686.7901958362482
 30
0.0
 40
1.958998408821398
 41
11.25542657609672
 71
     4
 72
     5
  1
\pi2.8203;档案员{\H0.7x;\P\pi1.4159;\Fromans|c134;Filing Clerk\fFangSong_GB2312|b0|i0|c134|p49; }
 11
-0.0000000000000002
 21
-1.0
 31
0.0
 73
     1
 44
1.0
1001
AcDbBlockRepETag
1070
     1
1071
       68
1005
18AA0
1001
ACAD
1000
ACAD_MTEXT_DEFINED_HEIGHT_BEGIN
1070
    46
1040
7.489694702258906
1000
ACAD_MTEXT_DEFINED_HEIGHT_END
  0
MTEXT
  5
18AA1
102
{ACAD_XDICTIONARY
360
18D0D
102
}
330
13E17
100
AcDbEntity
  8
图框
100
AcDbMText
 10
845.479172298598
 20
686.7901958362482
 30
0.0
 40
1.958998408821398
 41
11.25542657609672
 71
     4
 72
     5
  1
\pi0.7115;日期{\Fromans|c134;/Date}
 11
-0.0000000000000002
 21
-1.0
 31
0.0
 73
     1
 44
1.0
1001
AcDbBlockRepETag
1070
     1
1071
       69
1005
18AA1
1001
ACAD
1000
ACAD_MTEXT_DEFINED_HEIGHT_BEGIN
1070
    46
1040
5.710880302039671
1000
ACAD_MTEXT_DEFINED_HEIGHT_END
  0
LINE
  5
18AA2
330
13E17
100
AcDbEntity
  8
图框
370
    -3
100
AcDbLine
 10
854.0454927516588
 20
675.5347692601515
 30
0.0
 11
854.0454927516588
 21
686.7901958362482
 31
0.0
1001
AcDbBlockRepETag
1070
     1
1071
       70
1005
18AA2
  0
LINE
  5
18AA3
330
13E17
100
AcDbEntity
  8
图框
370
    -3
100
AcDbLine
 10
1036.653967466372
 20
531.3291676047914
 30
0.0
 11
1036.653967466372
 21
484.0126019753161
 31
0.0
1001
AcDbBlockRepETag
1070
     1
1071
       71
1005
18AA3
  0
LINE
  5
18AA4
330
13E17
100
AcDbEntity
  8
图框
370
    -3
100
AcDbLine
 10
1047.483315900763
 20
507.6708838011533
 30
0.0
 11
1047.483315900763
 21
491.8986945987308
 31
0.0
1001
AcDbBlockRepETag
1070
     1
1071
       72
1005
18AA4
  0
LINE
  5
18AA5
330
13E17
100
AcDbEntity
  8
图框
370
    -3
100
AcDbLine
 10
1058.312664335153
 20
507.6708838011533
 30
0.0
 11
1058.312664335153
 21
484.0347692601515
 31
0.0
1001
AcDbBlockRepETag
1070
     1
1071
       73
1005
18AA5
  0
LINE
  5
18AA6
330
13E17
100
AcDbEntity
  8
图框
370
    25
100
AcDbLine
 10
1048.474135214456
 20
488.1095628329926
 30
0.0
 11
1054.946420288459
 21
488.1095628329926
 31
0.0
1001
AcDbBlockRepETag
1070
     1
1071
       74
1005
18AA6
  0
LINE
  5
18AA7
330
13E17
100
AcDbEntity
  8
图框
370
    25
100
AcDbLine
 10
1054.232527365989
 20
487.0761716842634
 30
0.0
 11
1049.156490914508
 21
486.4576273751
 31
0.0
1001
AcDbBlockRepETag
1070
     1
1071
       75
1005
18AA7
  0
LINE
  5
18AA8
330
13E17
100
AcDbEntity
  8
图框
370
    25
100
AcDbLine
 10
1054.232527365989
 20
489.1429539817209
 30
0.0
 11
1049.156490914508
 21
489.7614982908846
 31
0.0
1001
AcDbBlockRepETag
1070
     1
1071
       76
1005
18AA8
  0
LINE
  5
18AA9
330
13E17
100
AcDbEntity
  8
图框
370
    25
100
AcDbLine
 10
1049.156490914508
 20
489.7614982908846
 30
0.0
 11
1049.156490914508
 21
486.4576273751
 31
0.0
1001
AcDbBlockRepETag
1070
     1
1071
       77
1005
18AA9
  0
LINE
  5
18AAA
330
13E17
100
AcDbEntity
  8
图框
370
    25
100
AcDbLine
 10
1054.232527365989
 20
489.1429539817209
 30
0.0
 11
1054.232527365989
 21
487.0761716842634
 31
0.0
1001
AcDbBlockRepETag
1070
     1
1071
       78
1005
18AAA
  0
CIRCLE
  5
18AAB
330
13E17
100
AcDbEntity
  8
图框
370
    25
100
AcDbCircle
 10
1042.502700458579
 20
488.1095628329926
 30
0.0
 40
1.651935457891863
1001
AcDbBlockRepETag
1070
     1
1071
       79
1005
18AAB
  0
CIRCLE
  5
18AAC
330
13E17
100
AcDbEntity
  8
图框
370
    25
100
AcDbCircle
 10
1042.502700458579
 20
488.1095628329926
 30
0.0
 40
1.033391148728775
1001
AcDbBlockRepETag
1070
     1
1071
       80
1005
18AAC
  0
LINE
  5
18AAD
330
13E17
100
AcDbEntity
  8
图框
370
    25
100
AcDbLine
 10
1040.136872078216
 20
488.1095628329926
 30
0.0
 11
1044.868528838943
 21
488.1095628329926
 31
0.0
1001
AcDbBlockRepETag
1070
     1
1071
       81
1005
18AAD
  0
LINE
  5
18AAE
330
13E17
100
AcDbEntity
  8
图框
370
    25
100
AcDbLine
 10
1042.502700458579
 20
490.475391213355
 30
0.0
 11
1042.502700458579
 21
485.743734452629
 31
0.0
1001
AcDbBlockRepETag
1070
     1
1071
       82
1005
18AAE
  0
LINE
  5
18AAF
330
13E17
100
AcDbEntity
  8
图框
370
    -3
100
AcDbLine
 10
1069.142012769546
 20
507.6708838011533
 30
0.0
 11
1069.142012769546
 21
491.8986945987308
 31
0.0
1001
AcDbBlockRepETag
1070
     1
1071
       83
1005
18AAF
  0
MTEXT
  5
18AB0
330
13E17
100
AcDbEntity
  8
图框
100
AcDbMText
 10
1086.643735910939
 20
526.8006839312707
 30
0.0
 40
2.154898249703542
 41
13.34474941400573
 71
     5
 72
     5
  1
图号{\Ftxt|c134;\P\Fromans|c134;\W0.65;Drawing No.}
 73
     1
 44
1.0
1001
AcDbBlockRepETag
1070
     1
1071
       84
1005
18AB0
1001
ACAD
1000
ACAD_MTEXT_DEFINED_HEIGHT_BEGIN
1070
    46
1040
9.056967347041776
1000
ACAD_MTEXT_DEFINED_HEIGHT_END
  0
LINE
  5
18AB1
330
13E17
100
AcDbEntity
  8
图框
370
    -3
100
AcDbLine
 10
1093.316110617942
 20
531.3291676047914
 30
0.0
 11
1093.316110617942
 21
495.8417418993347
 31
0.0
1001
AcDbBlockRepETag
1070
     1
1071
       85
1005
18AB1
  0
LINE
  5
18AB2
330
13E17
100
AcDbEntity
  8
图框
370
    -3
100
AcDbLine
 10
1047.473969770481
 20
531.3291676047914
 30
0.0
 11
1047.473969770481
 21
507.6708838011533
 31
0.0
1001
AcDbBlockRepETag
1070
     1
1071
       86
1005
18AB2
  0
MTEXT
  5
18AB3
330
13E17
100
AcDbEntity
  8
图框
100
AcDbMText
 10
1063.72733855235
 20
503.7278365005473
 30
0.0
 40
2.252848170144607
 41
10.82934843439208
 71
     5
 72
     5
  1
重量\P{\Fromans|c134;Weight}
 73
     1
 44
1.0
1001
AcDbBlockRepETag
1070
     1
1071
       87
1005
18AB3
1001
ACAD
1000
ACAD_MTEXT_DEFINED_HEIGHT_BEGIN
1070
    46
1040
7.886094601212128
1000
ACAD_MTEXT_DEFINED_HEIGHT_END
  0
LINE
  5
18AB4
330
13E17
100
AcDbEntity
  8
图框
370
    -3
100
AcDbLine
 10
1036.653967466372
 20
519.5000257029746
 30
0.0
 11
1079.971361203936
 21
519.5000257029746
 31
0.0
1001
AcDbBlockRepETag
1070
     1
1071
       88
1005
18AB4
  0
MTEXT
  5
18AB5
330
13E17
100
AcDbEntity
  8
图框
100
AcDbMText
 10
1074.556686986741
 20
503.7278365005473
 30
0.0
 40
2.252848170144607
 41
10.82934843438984
 71
     5
 72
     5
  1
数量\P{\Fromans|c134;Qty.}
 73
     1
 44
1.0
1001
AcDbBlockRepETag
1070
     1
1071
       89
1005
18AB5
1001
ACAD
1000
ACAD_MTEXT_DEFINED_HEIGHT_BEGIN
1070
    46
1040
7.886094601212141
1000
ACAD_MTEXT_DEFINED_HEIGHT_END
  0
LINE
  5
18AB6
330
13E17
100
AcDbEntity
  8
图框
370
    -3
100
AcDbLine
 10
1079.971361203936
 20
495.8417418993347
 30
0.0
 11
1126.928502610363
 21
495.8417418993342
 31
0.0
1001
AcDbBlockRepETag
1070
     1
1071
       90
1005
18AB6
  0
LINE
  5
18AB7
330
13E17
100
AcDbEntity
  8
图框
370
    -3
100
AcDbLine
 10
1079.971361203936
 20
504.7132992040975
 30
0.0
 11
1126.928502610363
 21
504.7132992040975
 31
0.0
1001
AcDbBlockRepETag
1070
     1
1071
       91
1005
18AB7
  0
MTEXT
  5
18AB8
330
13E17
100
AcDbEntity
  8
图框
100
AcDbMText
 10
1052.893317052817
 20
503.7278365005473
 30
0.0
 40
2.252848170144607
 41
10.83869456467139
 71
     5
 72
     5
  1
版本\P{\Fromans|c134;REV.}
 73
     1
 44
1.0
1001
AcDbBlockRepETag
1070
     1
1071
       92
1005
18AB8
1001
ACAD
1000
ACAD_MTEXT_DEFINED_HEIGHT_BEGIN
1070
    46
1040
7.886094601212101
1000
ACAD_MTEXT_DEFINED_HEIGHT_END
  0
MTEXT
  5
18AB9
330
13E17
100
AcDbEntity
  8
图框
100
AcDbMText
 10
1042.068641683568
 20
503.7278365005473
 30
0.0
 40
2.252848170144607
 41
10.8293484343908
 71
     5
 72
     5
  1
比例\P{\Fromans|c134;Scale}
 73
     1
 44
1.0
1001
AcDbBlockRepETag
1070
     1
1071
       93
1005
18AB9
1001
ACAD
1000
ACAD_MTEXT_DEFINED_HEIGHT_BEGIN
1070
    46
1040
7.886094601212136
1000
ACAD_MTEXT_DEFINED_HEIGHT_END
  0
LINE
  5
18ABA
330
13E17
100
AcDbEntity
  8
图框
370
    -3
100
AcDbLine
 10
1036.653967466372
 20
507.6708838011533
 30
0.0
 11
1079.971361203936
 21
507.6708838011533
 31
0.0
1001
AcDbBlockRepETag
1070
     1
1071
       94
1005
18ABA
  0
LINE
  5
18ABB
330
13E17
100
AcDbEntity
  8
图框
370
    -3
100
AcDbLine
 10
1036.653967466372
 20
491.8986945987308
 30
0.0
 11
1079.971361203936
 21
491.8986945987308
 31
0.0
1001
AcDbBlockRepETag
1070
     1
1071
       95
1005
18ABB
  0
LINE
  5
18ABC
330
13E17
100
AcDbEntity
  8
图框
370
    -3
100
AcDbLine
 10
1079.971361203936
 20
531.3291676047914
 30
0.0
 11
1079.971361203936
 21
484.0125999975168
 31
0.0
1001
AcDbBlockRepETag
1070
     1
1071
       96
1005
18ABC
  0
MTEXT
  5
18ABD
330
13E17
100
AcDbEntity
  8
图框
100
AcDbMText
 10
1042.063968618426
 20
525.4145966538832
 30
0.0
 40
2.252848170144607
 41
10.82000230410933
 71
     5
 72
     5
  1
表面处理\P{\Fromans|c134;Finish}
 73
     1
 44
1.0
1001
AcDbBlockRepETag
1070
     1
1071
       97
1005
18ABD
1001
ACAD
1000
ACAD_MTEXT_DEFINED_HEIGHT_BEGIN
1070
    46
1040
11.82914190181708
1000
ACAD_MTEXT_DEFINED_HEIGHT_END
  0
MTEXT
  5
18ABE
330
13E17
100
AcDbEntity
  8
图框
100
AcDbMText
 10
1042.063968618426
 20
513.5854547520639
 30
0.0
 40
2.252848170144607
 41
10.82000230410933
 71
     5
 72
     5
  1
材料\P{\Fromans|c134;Material}
 73
     1
 44
1.0
1001
AcDbBlockRepETag
1070
     1
1071
       98
1005
18ABE
1001
ACAD
1000
ACAD_MTEXT_DEFINED_HEIGHT_BEGIN
1070
    46
1040
11.8291419018212
1000
ACAD_MTEXT_DEFINED_HEIGHT_END
  0
LINE
  5
18ABF
330
13E17
100
AcDbEntity
  8
图框
370
    -3
100
AcDbLine
 10
1079.971361203936
 20
522.27220025775
 30
0.0
 11
1126.928502610363
 21
522.27220025775
 31
0.0
1001
AcDbBlockRepETag
1070
     1
1071
       99
1005
18ABF
  0
LINE
  5
18AC0
330
13E17
100
AcDbEntity
  8
图框
370
    -3
100
AcDbLine
 10
1079.971361203936
 20
513.5854547520641
 30
0.0
 11
1126.928502610363
 21
513.5854547520639
 31
0.0
1001
AcDbBlockRepETag
1070
     1
1071
      100
1005
18AC0
  0
MTEXT
  5
18AC1
330
13E17
100
AcDbEntity
  8
图框
100
AcDbMText
 10
1086.643735910939
 20
517.9288275049072
 30
0.0
 40
1.958998408821398
 41
13.34474941400573
 71
     5
 72
     5
  1
产品代号\P{\Fromans|c134;Part Code}
 73
     1
 44
1.0
1001
AcDbBlockRepETag
1070
     1
1071
      101
1005
18AC1
1001
ACAD
1000
ACAD_MTEXT_DEFINED_HEIGHT_BEGIN
1070
    46
1040
8.686745505685811
1000
ACAD_MTEXT_DEFINED_HEIGHT_END
  0
LINE
  5
18AC2
330
13E17
100
AcDbEntity
  8
图框
370
    -3
100
AcDbLine
 10
946.9285026103634
 20
525.7982263931411
 30
0.0
 11
1036.653967466372
 21
525.7982263931411
 31
0.0
1001
AcDbBlockRepETag
1070
     1
1071
      102
1005
18AC2
  0
LINE
  5
18AC3
330
13E17
100
AcDbEntity
  8
图框
370
    -3
100
AcDbLine
 10
946.9285026103634
 20
520.2672851814959
 30
0.0
 11
1036.653967466372
 21
520.2672851814959
 31
0.0
1001
AcDbBlockRepETag
1070
     1
1071
      103
1005
18AC3
  0
LINE
  5
18AC4
330
13E17
100
AcDbEntity
  8
图框
370
    35
100
AcDbLine
 10
946.9285026103634
 20
531.3291676047914
 30
0.0
 11
1126.928502610363
 21
531.3291676047914
 31
0.0
1001
AcDbBlockRepETag
1070
     1
1071
      104
1005
18AC4
  0
LINE
  5
18AC5
330
13E17
100
AcDbEntity
  8
图框
370
    -3
100
AcDbLine
 10
990.6727612856927
 20
509.2054027581959
 30
0.0
 11
990.6727612856927
 21
484.0347692601515
 31
0.0
1001
AcDbBlockRepETag
1070
     1
1071
      105
1005
18AC5
  0
MTEXT
  5
18AC6
102
{ACAD_XDICTIONARY
360
18D0F
102
}
330
13E17
100
AcDbEntity
  8
图框
100
AcDbMText
 10
997.1628169651232
 20
499.816589978722
 30
0.0
 40
2.252848170144607
 41
12.98011135886052
 71
     5
 72
     5
  1
{\fFangSong_GB2312|b0|i0|c134|p49;标准化}\PStand.
  7
Romans字体
 73
     1
 44
1.0
1001
AcDbBlockRepETag
1070
     1
1071
      106
1005
18AC6
1001
ACAD
1000
ACAD_MTEXT_DEFINED_HEIGHT_BEGIN
1070
    46
1040
6.19230880992475
1000
ACAD_MTEXT_DEFINED_HEIGHT_END
  0
LINE
  5
18AC7
330
13E17
100
AcDbEntity
  8
图框
370
    -3
100
AcDbLine
 10
975.4103773808022
 20
509.2054027581959
 30
0.0
 11
975.4103773808022
 21
484.0347692601515
 31
0.0
1001
AcDbBlockRepETag
1070
     1
1071
      107
1005
18AC7
  0
MTEXT
  5
18AC8
330
13E17
100
AcDbEntity
  8
图框
100
AcDbMText
 10
984.5089229802068
 20
511.9708733640202
 30
0.0
 40
2.448748011026752
 41
38.287899328693
 71
     5
 72
     5
  1
  变更描述{\Fromans|c134;/Description}
 73
     1
 44
1.0
1001
AcDbBlockRepETag
1070
     1
1071
      108
1005
18AC8
1001
ACAD
1000
ACAD_MTEXT_DEFINED_HEIGHT_BEGIN
1070
    46
1040
5.530941211648832
1000
ACAD_MTEXT_DEFINED_HEIGHT_END
  0
MTEXT
  5
18AC9
102
{ACAD_XDICTIONARY
360
18D11
102
}
330
13E17
100
AcDbEntity
  8
图框
100
AcDbMText
 10
1012.466086049227
 20
511.9708733640202
 30
0.0
 40
1.958998408821398
 41
17.6264268093469
 71
     5
 72
     5
  1
签名\P{\Fromans|c134;Signature} 
 73
     1
 44
1.0
1001
AcDbBlockRepETag
1070
     1
1071
      109
1005
18AC9
1001
ACAD
1000
ACAD_MTEXT_DEFINED_HEIGHT_BEGIN
1070
    46
1040
5.530941211648825
1000
ACAD_MTEXT_DEFINED_HEIGHT_END
  0
MTEXT
  5
18ACA
102
{ACAD_XDICTIONARY
360
18D13
102
}
330
13E17
100
AcDbEntity
  8
图框
100
AcDbMText
 10
960.7558556394856
 20
511.9708733640202
 30
0.0
 40
1.958998408821398
 41
9.218235352749283
 71
     5
 72
     5
  1
处数\P{\Fromans|c134;Number }
 73
     1
 44
1.0
1001
AcDbBlockRepETag
1070
     1
1071
      110
1005
18ACA
1001
ACAD
1000
ACAD_MTEXT_DEFINED_HEIGHT_BEGIN
1070
    46
1040
5.530941211648841
1000
ACAD_MTEXT_DEFINED_HEIGHT_END
  0
LINE
  5
18ACB
330
13E17
100
AcDbEntity
  8
图框
370
    -3
100
AcDbLine
 10
946.9285026103634
 20
514.7363439698449
 30
0.0
 11
1036.653967466372
 21
514.7363439698449
 31
0.0
1001
AcDbBlockRepETag
1070
     1
1071
      111
1005
18ACB
  0
LINE
  5
18ACC
330
13E17
100
AcDbEntity
  8
图框
370
    -3
100
AcDbLine
 10
946.9285026103634
 20
509.2054027581959
 30
0.0
 11
1036.653967466372
 21
509.2054027581959
 31
0.0
1001
AcDbBlockRepETag
1070
     1
1071
      112
1005
18ACC
  0
LINE
  5
18ACD
330
13E17
100
AcDbEntity
  8
图框
370
    -3
100
AcDbLine
 10
946.9285026103634
 20
502.9127443836848
 30
0.0
 11
1036.653967466372
 21
502.9127443836848
 31
0.0
1001
AcDbBlockRepETag
1070
     1
1071
      113
1005
18ACD
  0
LINE
  5
18ACE
330
13E17
100
AcDbEntity
  8
图框
370
    -3
100
AcDbLine
 10
946.9285026103634
 20
496.620086009173
 30
0.0
 11
1036.653967466372
 21
496.620086009173
 31
0.0
1001
AcDbBlockRepETag
1070
     1
1071
      114
1005
18ACE
  0
LINE
  5
18ACF
330
13E17
100
AcDbEntity
  8
图框
370
    35
380
     1
100
AcDbLine
 10
946.9285026103634
 20
531.3291676047914
 30
0.0
 11
946.9285026103634
 21
484.0347692601515
 31
0.0
1001
AcDbBlockRepETag
1070
     1
1071
      115
1005
18ACF
  0
LINE
  5
18AD0
330
13E17
100
AcDbEntity
  8
图框
370
    -3
100
AcDbLine
 10
1021.301636813399
 20
531.3291676047914
 30
0.0
 11
1021.301636813399
 21
484.0347692601515
 31
0.0
1001
AcDbBlockRepETag
1070
     1
1071
      116
1005
18AD0
  0
LINE
  5
18AD1
330
13E17
100
AcDbEntity
  8
图框
370
    -3
100
AcDbLine
 10
1003.652872644553
 20
531.3291676047914
 30
0.0
 11
1003.652872644553
 21
484.0347692601515
 31
0.0
1001
AcDbBlockRepETag
1070
     1
1071
      117
1005
18AD1
  0
LINE
  5
18AD2
330
13E17
100
AcDbEntity
  8
图框
370
    -3
100
AcDbLine
 10
965.3649733158603
 20
531.3291676047914
 30
0.0
 11
965.3649733158603
 21
509.2054027581959
 31
0.0
1001
AcDbBlockRepETag
1070
     1
1071
      118
1005
18AD2
  0
LINE
  5
18AD3
330
13E17
100
AcDbEntity
  8
图框
370
    -3
100
AcDbLine
 10
956.1467379631109
 20
531.3291676047914
 30
0.0
 11
956.1467379631109
 21
509.2054027581959
 31
0.0
1001
AcDbBlockRepETag
1070
     1
1071
      119
1005
18AD3
  0
MTEXT
  5
18AD4
102
{ACAD_XDICTIONARY
360
18D15
102
}
330
13E17
100
AcDbEntity
  8
图框
100
AcDbMText
 10
951.537620286737
 20
511.9708733640202
 30
0.0
 40
1.958998408821398
 41
9.218235352747692
 71
     5
 72
     5
  1
标记\P{\Fromans|c134;Mark}
 73
     1
 44
1.0
1001
AcDbBlockRepETag
1070
     1
1071
      120
1005
18AD4
1001
ACAD
1000
ACAD_MTEXT_DEFINED_HEIGHT_BEGIN
1070
    46
1040
5.530941211648832
1000
ACAD_MTEXT_DEFINED_HEIGHT_END
  0
MTEXT
  5
18AD5
102
{ACAD_XDICTIONARY
360
18D17
102
}
330
13E17
100
AcDbEntity
  8
图框
100
AcDbMText
 10
953.4185582897936
 20
493.4737568219182
 30
0.0
 40
2.252848170144607
 41
12.98011135886041
 71
     5
 72
     5
  1
审核\P{\Fromans|c134;Checked}
 73
     1
 44
1.0
1001
AcDbBlockRepETag
1070
     1
1071
      121
1005
18AD5
1001
ACAD
1000
ACAD_MTEXT_DEFINED_HEIGHT_BEGIN
1070
    46
1040
6.292658374510382
1000
ACAD_MTEXT_DEFINED_HEIGHT_END
  0
MTEXT
  5
18AD6
102
{ACAD_XDICTIONARY
360
18D19
102
}
330
13E17
100
AcDbEntity
  8
图框
100
AcDbMText
 10
953.4185582897936
 20
499.8775635376777
 30
0.0
 40
2.252848170144607
 41
12.98011135886041
 71
     5
 72
     5
  1
绘图\P{\Fromans|c134;Drawn\Ftxt|c134; }
 73
     1
 44
1.0
1001
AcDbBlockRepETag
1070
     1
1071
      122
1005
18AD6
1001
ACAD
1000
ACAD_MTEXT_DEFINED_HEIGHT_BEGIN
1070
    46
1040
6.070361692014189
1000
ACAD_MTEXT_DEFINED_HEIGHT_END
  0
ARC
  5
18AD7
330
13E17
100
AcDbEntity
  8
图框
 62
     4
370
    35
100
AcDbCircle
 10
1086.900627017421
 20
490.0179944151195
 30
0.0
 40
4.063310408393665
100
AcDbArc
 50
18.95237904564806
 51
161.0476209543519
1001
AcDbBlockRepETag
1070
     1
1071
      123
1005
18AD7
  0
ARC
  5
18AD8
330
13E17
100
AcDbEntity
  8
图框
 62
     4
370
    35
100
AcDbCircle
 10
1086.900627017421
 20
490.0179944151195
 30
0.0
 40
4.063310408393665
100
AcDbArc
 50
198.952379045648
 51
341.0476209543519
1001
AcDbBlockRepETag
1070
     1
1071
      124
1005
18AD8
  0
LINE
  5
18AD9
330
13E17
100
AcDbEntity
  8
图框
 62
     4
370
    35
100
AcDbLine
 10
1083.057593369548
 20
488.6983035966752
 30
0.0
 11
1090.74366066529
 21
488.6983035966752
 31
0.0
1001
AcDbBlockRepETag
1070
     1
1071
      125
1005
18AD9
  0
LINE
  5
18ADA
330
13E17
100
AcDbEntity
  8
图框
 62
     4
370
    35
100
AcDbLine
 10
1083.057593369548
 20
491.3376852335652
 30
0.0
 11
1090.74366066529
 21
491.3376852335652
 31
0.0
1001
AcDbBlockRepETag
1070
     1
1071
      126
1005
18ADA
  0
MTEXT
  5
18ADB
330
13E17
100
AcDbEntity
  8
图框
 62
     1
370
    20
100
AcDbMText
 10
1083.034582879669
 20
491.0506288081688
 30
0.0
 40
2.005930044038334
 41
5.047240019334847
 71
     1
 72
     5
  1
{\fArial|b0|i0|c0|p34;W}
  7
Chinese
 73
     1
 44
1.0
1001
AcDbBlockRepETag
1070
     1
1071
      127
1005
18ADB
  0
LINE
  5
18ADC
330
13E17
100
AcDbEntity
  8
图框
370
    -3
100
AcDbLine
 10
946.9285026103634
 20
490.327427634663
 30
0.0
 11
1036.653967466372
 21
490.327427634663
 31
0.0
1001
AcDbBlockRepETag
1070
     1
1071
      128
1005
18ADC
  0
LINE
  5
18ADD
330
13E17
100
AcDbEntity
  8
图框
370
    -3
100
AcDbLine
 10
959.9086139692238
 20
509.2054027581959
 30
0.0
 11
959.9086139692238
 21
484.0347692601515
 31
0.0
1001
AcDbBlockRepETag
1070
     1
1071
      129
1005
18ADD
  0
MTEXT
  5
18ADE
330
13E17
100
AcDbEntity
  8
图框
100
AcDbMText
 10
967.6594956750127
 20
506.0590735709403
 30
0.0
 40
2.252848170144607
 41
15.50176341157869
 71
     5
 72
     5
  1
姓名{\Fromans|c134;/Name\Ftxt|c134; }
 73
     1
 44
1.0
1001
AcDbBlockRepETag
1070
     1
1071
      130
1005
18ADE
1001
ACAD
1000
ACAD_MTEXT_DEFINED_HEIGHT_BEGIN
1070
    46
1040
6.292658374511246
1000
ACAD_MTEXT_DEFINED_HEIGHT_END
  0
MTEXT
  5
18ADF
330
13E17
100
AcDbEntity
  8
图框
100
AcDbMText
 10
983.0415693332476
 20
506.0590735709403
 30
0.0
 40
2.252848170144607
 41
15.26238390489042
 71
     5
 72
     5
  1
日期{\Fromans|c134;/Date}
 73
     1
 44
1.0
1001
AcDbBlockRepETag
1070
     1
1071
      131
1005
18ADF
1001
ACAD
1000
ACAD_MTEXT_DEFINED_HEIGHT_BEGIN
1070
    46
1040
6.2926583745112
1000
ACAD_MTEXT_DEFINED_HEIGHT_END
  0
LINE
  5
18AE0
330
13E17
100
AcDbEntity
  8
图框
370
    -3
100
AcDbLine
 10
946.9285026103634
 20
509.2054027581959
 30
0.0
 11
959.9086139692238
 21
502.9127443836848
 31
0.0
1001
AcDbBlockRepETag
1070
     1
1071
      132
1005
18AE0
  0
MTEXT
  5
18AE1
330
13E17
100
AcDbEntity
  8
图框
100
AcDbMText
 10
1012.931405110086
 20
506.0185715840725
 30
0.0
 40
2.252848170144607
 41
16.93492221063566
 71
     5
 72
     5
  1
姓名{\Fromans|c134;/Name}
 73
     1
 44
1.0
1001
AcDbBlockRepETag
1070
     1
1071
      133
1005
18AE1
  0
MTEXT
  5
18AE2
330
13E17
100
AcDbEntity
  8
图框
100
AcDbMText
 10
1028.977802139886
 20
506.0590735709403
 30
0.0
 40
2.252848170144607
 41
15.35233065297283
 71
     5
 72
     5
  1
日期{\Fromans|c134;/Date}
 73
     1
 44
1.0
1001
AcDbBlockRepETag
1070
     1
1071
      134
1005
18AE2
1001
ACAD
1000
ACAD_MTEXT_DEFINED_HEIGHT_BEGIN
1070
    46
1040
6.292658374511256
1000
ACAD_MTEXT_DEFINED_HEIGHT_END
  0
LINE
  5
18AE3
330
13E17
100
AcDbEntity
  8
图框
370
    -3
100
AcDbLine
 10
1003.652872644553
 20
502.9127443836848
 30
0.0
 11
990.6727612856927
 21
509.2054027581959
 31
0.0
1001
AcDbBlockRepETag
1070
     1
1071
      135
1005
18AE3
  0
MTEXT
  5
18AE4
102
{ACAD_XDICTIONARY
360
18D1B
102
}
330
13E17
100
AcDbEntity
  8
图框
100
AcDbMText
 10
997.1628169651232
 20
487.1810984474071
 30
0.0
 40
2.252848170144607
 41
12.98011135886052
 71
     5
 72
     5
  1
批准\P{\Fromans|c134;Approved}
 73
     1
 44
1.0
1001
AcDbBlockRepETag
1070
     1
1071
      136
1005
18AE4
1001
ACAD
1000
ACAD_MTEXT_DEFINED_HEIGHT_BEGIN
1070
    46
1040
6.292658374511517
1000
ACAD_MTEXT_DEFINED_HEIGHT_END
  0
MTEXT
  5
18AE5
102
{ACAD_XDICTIONARY
360
18D1D
102
}
330
13E17
100
AcDbEntity
  8
图框
100
AcDbMText
 10
953.4185582897936
 20
487.1810984474071
 30
0.0
 40
2.252848170144607
 41
12.98011135886041
 71
     5
 72
     5
  1
工艺\P{\Fromans|c134;Process}
 73
     1
 44
1.0
1001
AcDbBlockRepETag
1070
     1
1071
      137
1005
18AE5
1001
ACAD
1000
ACAD_MTEXT_DEFINED_HEIGHT_BEGIN
1070
    46
1040
6.292658374511495
1000
ACAD_MTEXT_DEFINED_HEIGHT_END
  0
MTEXT
  5
18AE6
102
{ACAD_XDICTIONARY
360
18D1F
102
}
330
13E17
100
AcDbEntity
  8
图框
100
AcDbMText
 10
1028.977802139886
 20
511.8287965307664
 30
0.0
 40
1.958998408821398
 41
15.3523306529728
 71
     5
 72
     5
  1
日期\P{\Fromans|c134;Date}
 73
     1
 44
1.0
1001
AcDbBlockRepETag
1070
     1
1071
      138
1005
18AE6
1001
ACAD
1000
ACAD_MTEXT_DEFINED_HEIGHT_BEGIN
1070
    46
1040
5.246787545140668
1000
ACAD_MTEXT_DEFINED_HEIGHT_END
  0
MTEXT
  5
18AE7
330
13E17
100
AcDbEntity
  8
图框
100
AcDbMText
 10
1086.643735910939
 20
509.1493769780809
 30
0.0
 40
2.154898249703542
 41
13.34474941400573
 71
     5
 72
     5
  1
产品料号\P{\Fromans|c134;Part No.}
 73
     1
 44
1.0
1001
AcDbBlockRepETag
1070
     1
1071
      139
1005
18AE7
1001
ACAD
1000
ACAD_MTEXT_DEFINED_HEIGHT_BEGIN
1070
    46
1040
8.87215554796615
1000
ACAD_MTEXT_DEFINED_HEIGHT_END
  0
MTEXT
  5
18AE8
330
13E17
100
AcDbEntity
  8
图框
100
AcDbMText
 10
1086.643735910939
 20
500.2775205517163
 30
0.0
 40
1.958998408821398
 41
13.34474941400573
 71
     5
 72
     5
  1
产品名称\P{\Fromans|c134;Part Name}
 73
     1
 44
1.0
1001
AcDbBlockRepETag
1070
     1
1071
      140
1005
18AE8
1001
ACAD
1000
ACAD_MTEXT_DEFINED_HEIGHT_BEGIN
1070
    46
1040
8.871557304763321
1000
ACAD_MTEXT_DEFINED_HEIGHT_END
  0
LINE
  5
18AE9
330
13E17
100
AcDbEntity
  8
图框
 62
     1
370
    18
100
AcDbLine
 10
833.4128518455365
 20
690.5347692601515
 30
0.0
 11
833.4128518455365
 21
480.5347692601515
 31
0.0
1001
AcDbBlockRepETag
1070
     1
1071
      141
1005
18AE9
  0
LINE
  5
18AEA
330
13E17
100
AcDbEntity
  8
图框
 62
     1
370
    18
100
AcDbLine
 10
833.4128518455365
 20
480.5347692601515
 30
0.0
 11
1130.411601781236
 21
480.5347692601515
 31
0.0
1001
AcDbBlockRepETag
1070
     1
1071
      142
1005
18AEA
  0
LINE
  5
18AEB
330
13E17
100
AcDbEntity
  8
图框
 62
     1
370
    18
100
AcDbLine
 10
833.4128518455365
 20
690.5347692601515
 30
0.0
 11
1130.411601781236
 21
690.5347692601515
 31
0.0
1001
AcDbBlockRepETag
1070
     1
1071
      143
1005
18AEB
  0
LINE
  5
18AEC
330
13E17
100
AcDbEntity
  8
图框
 62
     1
370
    18
100
AcDbLine
 10
1130.411601781236
 20
480.5347692601515
 30
0.0
 11
1130.411601781236
 21
690.5347692601515
 31
0.0
1001
AcDbBlockRepETag
1070
     1
1071
      144
1005
18AEC
  0
LINE
  5
18AED
330
13E17
100
AcDbEntity
  8
图框
370
    18
100
AcDbLine
 10
836.9128518455394
 20
686.7901958362482
 30
0.0
 11
861.5351874539182
 21
686.7901958362482
 31
0.0
1001
AcDbBlockRepETag
1070
     1
1071
      145
1005
18AED
  0
LINE
  5
18AEE
330
13E17
100
AcDbEntity
  8
图框
370
    50
100
AcDbLine
 10
1126.928502610363
 20
484.3410054693078
 30
0.0
 11
1126.928502610363
 21
675.5347692601515
 31
0.0
1001
AcDbBlockRepETag
1070
     1
1071
      146
1005
18AEE
  0
MTEXT
  5
18AEF
330
13E17
100
AcDbEntity
  8
图框
 62
     3
100
AcDbMText
 10
1052.897990117958
 20
495.8417418993364
 30
0.0
 40
2.2528
 41
15.50176341157864
 71
     5
 72
     5
  1
V1.0
  7
Romans字体
 73
     1
 44
1.0
1001
AcDbBlockRepETag
1070
     1
1071
      147
1005
18AEF
1001
ACAD
1000
ACAD_MTEXT_DEFINED_HEIGHT_BEGIN
1070
    46
1040
7.886094601211307
1000
ACAD_MTEXT_DEFINED_HEIGHT_END
  0
MTEXT
  5
18AF2
102
{ACAD_XDICTIONARY
360
18D21
102
}
330
13E17
100
AcDbEntity
  8
图框
 62
     3
100
AcDbMText
 10
967.6594956750133
 20
493.4737568219173
 30
0.0
 40
2.2528
 41
15.50176341157864
 71
     5
 72
     5
  1
ZM LIN
  7
Romans字体
 73
     1
 44
1.0
1001
AcDbBlockRepETag
1070
     1
1071
      150
1005
18AF2
1001
ACAD
1000
ACAD_MTEXT_DEFINED_HEIGHT_BEGIN
1070
    46
1040
6.292658374511018
1000
ACAD_MTEXT_DEFINED_HEIGHT_END
  0
MTEXT
  5
18AF6
330
13E17
100
AcDbEntity
  8
图框
 62
     3
100
AcDbMText
 10
983.041569333247
 20
493.4737568219181
 30
0.0
 40
2.2528
 41
15.50176341157864
 71
     5
 72
     5
  1
{\W0.7;26.12.2014}
  7
Romans字体
 73
     1
 44
1.0
1001
AcDbBlockRepETag
1070
     1
1071
      151
1005
18AF6
1001
ACAD
1000
ACAD_MTEXT_DEFINED_HEIGHT_BEGIN
1070
    46
1040
6.292658374511042
1000
ACAD_MTEXT_DEFINED_HEIGHT_END
  0
MTEXT
  5
18AF7
330
13E17
100
AcDbEntity
  8
图框
 62
     3
100
AcDbMText
 10
1029.022775513926
 20
487.1810984474072
 30
0.0
 40
2.2528
 41
15.50176341157864
 71
     5
 72
     5
  1
{\W0.7;26.12.2014}
  7
Romans字体
 73
     1
 44
1.0
1001
AcDbBlockRepETag
1070
     1
1071
      152
1005
18AF7
1001
ACAD
1000
ACAD_MTEXT_DEFINED_HEIGHT_BEGIN
1070
    46
1040
6.292658374511042
1000
ACAD_MTEXT_DEFINED_HEIGHT_END
  0
ENDBLK
  5
13EAE
330
13E17
100
AcDbEntity
  8
0
100
AcDbBlockEnd
  0
BLOCK
  5
18070
330
1806F
100
AcDbEntity
  8
0
100
AcDbBlockBegin
  2
*D3
 70
     1
 10
0.0
 20
0.0
 30
0.0
  3
*D3
  1

  0
LINE
  5
18B92
330
1806F
100
AcDbEntity
  8
DIM
 62
     6
370
    -2
100
AcDbLine
 10
397.6723446453706
 20
213.1596002972983
 30
0.0
 11
399.1346463908294
 21
213.1596002972983
 31
0.0
  0
LINE
  5
18B93
330
1806F
100
AcDbEntity
  8
DIM
 62
     6
370
    -2
100
AcDbLine
 10
397.6723446453706
 20
212.1596002972983
 30
0.0
 11
399.1346463908294
 21
212.1596002972983
 31
0.0
  0
LINE
  5
18B94
330
1806F
100
AcDbEntity
  8
DIM
 62
     1
370
    -2
100
AcDbLine
 10
398.6346463908294
 20
214.3596002972983
 30
0.0
 11
398.6346463908294
 21
215.5596002972983
 31
0.0
  0
LINE
  5
18B95
330
1806F
100
AcDbEntity
  8
DIM
 62
     1
370
    -2
100
AcDbLine
 10
398.6346463908294
 20
210.9596002972983
 30
0.0
 11
398.6346463908294
 21
206.4435288687268
 31
0.0
  0
SOLID
  5
18B96
330
1806F
100
AcDbEntity
  8
DIM
 62
     1
100
AcDbTrace
 10
398.4346463908293
 20
214.3596002972983
 30
0.0
 11
398.8346463908293
 21
214.3596002972983
 31
0.0
 12
398.6346463908294
 22
213.1596002972983
 32
0.0
 13
398.6346463908294
 23
213.1596002972983
 33
0.0
  0
SOLID
  5
18B97
330
1806F
100
AcDbEntity
  8
DIM
 62
     1
100
AcDbTrace
 10
398.4346463908293
 20
210.9596002972983
 30
0.0
 11
398.8346463908293
 21
210.9596002972983
 31
0.0
 12
398.6346463908294
 22
212.1596002972983
 32
0.0
 13
398.6346463908294
 23
212.1596002972983
 33
0.0
  0
MTEXT
  5
18B98
330
1806F
100
AcDbEntity
  8
DIM
 62
     4
100
AcDbMText
 10
397.3846463908293
 20
207.6667431544412
 30
0.0
 40
1.5
 41
0.0
 71
     5
 72
     1
  1
\A1;%%C1
  7
Romans字体
 11
0.0000000000000001
 21
1.0
 31
0.0
 73
     1
 44
1.0
  0
POINT
  5
18B99
330
1806F
100
AcDbEntity
  8
Defpoints
 62
     0
100
AcDbPoint
 10
397.4723446453706
 20
213.1596002972983
 30
0.0
  0
POINT
  5
18B9A
330
1806F
100
AcDbEntity
  8
Defpoints
 62
     0
100
AcDbPoint
 10
397.4723446453706
 20
212.1596002972983
 30
0.0
  0
POINT
  5
18B9B
330
1806F
100
AcDbEntity
  8
Defpoints
 62
     0
100
AcDbPoint
 10
398.6346463908294
 20
212.1596002972983
 30
0.0
  0
ENDBLK
  5
18071
330
1806F
100
AcDbEntity
  8
0
100
AcDbBlockEnd
  0
BLOCK
  5
1807D
330
1807C
100
AcDbEntity
  8
0
100
AcDbBlockBegin
  2
*D4
 70
     1
 10
0.0
 20
0.0
 30
0.0
  3
*D4
  1

  0
LINE
  5
18B9C
330
1807C
100
AcDbEntity
  8
DIM
 62
     6
370
    -2
100
AcDbLine
 10
382.7639930220593
 20
213.3846002972981
 30
0.0
 11
384.5678639467376
 21
213.3846002972981
 31
0.0
  0
LINE
  5
18B9D
330
1807C
100
AcDbEntity
  8
DIM
 62
     6
370
    -2
100
AcDbLine
 10
382.7639930220584
 20
211.9346002972983
 30
0.0
 11
384.5678639467376
 21
211.9346002972983
 31
0.0
  0
LINE
  5
18B9E
330
1807C
100
AcDbEntity
  8
DIM
 62
     1
370
    -2
100
AcDbLine
 10
384.0678639467376
 20
214.5846002972981
 30
0.0
 11
384.0678639467376
 21
215.7846002972981
 31
0.0
  0
LINE
  5
18B9F
330
1807C
100
AcDbEntity
  8
DIM
 62
     1
370
    -2
100
AcDbLine
 10
384.0678639467376
 20
210.7346002972983
 30
0.0
 11
384.0678639467376
 21
205.9060288687269
 31
0.0
  0
SOLID
  5
18BA0
330
1807C
100
AcDbEntity
  8
DIM
 62
     1
100
AcDbTrace
 10
383.8678639467376
 20
214.5846002972981
 30
0.0
 11
384.2678639467376
 21
214.5846002972981
 31
0.0
 12
384.0678639467376
 22
213.3846002972981
 32
0.0
 13
384.0678639467376
 23
213.3846002972981
 33
0.0
  0
SOLID
  5
18BA1
330
1807C
100
AcDbEntity
  8
DIM
 62
     1
100
AcDbTrace
 10
383.8678639467376
 20
210.7346002972983
 30
0.0
 11
384.2678639467376
 21
210.7346002972983
 31
0.0
 12
384.0678639467376
 22
211.9346002972983
 32
0.0
 13
384.0678639467376
 23
211.9346002972983
 33
0.0
  0
MTEXT
  5
18BA2
330
1807C
100
AcDbEntity
  8
DIM
 62
     4
100
AcDbMText
 10
382.8178639467375
 20
207.2631717258698
 30
0.0
 40
1.5
 41
0.0
 71
     5
 72
     1
  1
\A1;%%Cb
  7
Romans字体
 11
0.0000000000000001
 21
1.0
 31
0.0
 73
     1
 44
1.0
  0
POINT
  5
18BA3
330
1807C
100
AcDbEntity
  8
Defpoints
 62
     0
100
AcDbPoint
 10
382.5639930220593
 20
213.3846002972981
 30
0.0
  0
POINT
  5
18BA4
330
1807C
100
AcDbEntity
  8
Defpoints
 62
     0
100
AcDbPoint
 10
382.5639930220583
 20
211.9346002972983
 30
0.0
  0
POINT
  5
18BA5
330
1807C
100
AcDbEntity
  8
Defpoints
 62
     0
100
AcDbPoint
 10
384.0678639467376
 20
211.9346002972983
 30
0.0
  0
ENDBLK
  5
1807E
330
1807C
100
AcDbEntity
  8
0
100
AcDbBlockEnd
  0
BLOCK
  5
1808A
330
18089
100
AcDbEntity
  8
0
100
AcDbBlockBegin
  2
*D5
 70
     1
 10
0.0
 20
0.0
 30
0.0
  3
*D5
  1

  0
LINE
  5
18BA6
330
18089
100
AcDbEntity
  8
DIM
 62
     6
370
    -2
100
AcDbLine
 10
379.9671019134553
 20
211.2096002972978
 30
0.0
 11
379.9671019134553
 21
202.5334199287893
 31
0.0
  0
LINE
  5
18BA7
330
18089
100
AcDbEntity
  8
DIM
 62
     6
370
    -2
100
AcDbLine
 10
400.9671019134552
 20
212.2096002972982
 30
0.0
 11
400.9671019134552
 21
202.5334199287893
 31
0.0
  0
LINE
  5
18BA8
330
18089
100
AcDbEntity
  8
DIM
 62
     1
370
    -2
100
AcDbLine
 10
381.1671019134553
 20
203.0334199287893
 30
0.0
 11
399.7671019134553
 21
203.0334199287893
 31
0.0
  0
SOLID
  5
18BA9
330
18089
100
AcDbEntity
  8
DIM
 62
     1
100
AcDbTrace
 10
381.1671019134553
 20
203.2334199287893
 30
0.0
 11
381.1671019134553
 21
202.8334199287893
 31
0.0
 12
379.9671019134553
 22
203.0334199287893
 32
0.0
 13
379.9671019134553
 23
203.0334199287893
 33
0.0
  0
SOLID
  5
18BAA
330
18089
100
AcDbEntity
  8
DIM
 62
     1
100
AcDbTrace
 10
399.7671019134553
 20
203.2334199287893
 30
0.0
 11
399.7671019134553
 21
202.8334199287893
 31
0.0
 12
400.9671019134552
 22
203.0334199287893
 32
0.0
 13
400.9671019134552
 23
203.0334199287893
 33
0.0
  0
MTEXT
  5
18BAB
330
18089
100
AcDbEntity
  8
DIM
 62
     4
100
AcDbMText
 10
390.4671019134553
 20
204.2834199287893
 30
0.0
 40
1.5
 41
0.0
 71
     5
 72
     1
  1
\A1;21
  7
Romans字体
 73
     1
 44
1.0
  0
POINT
  5
18BAC
330
18089
100
AcDbEntity
  8
Defpoints
 62
     0
100
AcDbPoint
 10
379.9671019134553
 20
211.4096002972978
 30
0.0
  0
POINT
  5
18BAD
330
18089
100
AcDbEntity
  8
Defpoints
 62
     0
100
AcDbPoint
 10
400.9671019134552
 20
212.4096002972982
 30
0.0
  0
POINT
  5
18BAE
330
18089
100
AcDbEntity
  8
Defpoints
 62
     0
100
AcDbPoint
 10
400.9671019134552
 20
203.0334199287893
 30
0.0
  0
ENDBLK
  5
1808B
330
18089
100
AcDbEntity
  8
0
100
AcDbBlockEnd
  0
BLOCK
  5
18096
330
18095
100
AcDbEntity
  8
0
100
AcDbBlockBegin
  2
*D6
 70
     1
 10
0.0
 20
0.0
 30
0.0
  3
*D6
  1

  0
LINE
  5
18BAF
330
18095
100
AcDbEntity
  8
DIM
 62
     6
370
    -2
100
AcDbLine
 10
379.940306994155
 20
213.709600297298
 30
0.0
 11
378.3291718995339
 21
213.709600297298
 31
0.0
  0
LINE
  5
18BB0
330
18095
100
AcDbEntity
  8
DIM
 62
     6
370
    -2
100
AcDbLine
 10
379.940306994155
 20
211.6096002972981
 30
0.0
 11
378.3291718995339
 21
211.6096002972981
 31
0.0
  0
LINE
  5
18BB1
330
18095
100
AcDbEntity
  8
DIM
 62
     1
370
    -2
100
AcDbLine
 10
378.8291718995338
 20
214.909600297298
 30
0.0
 11
378.8291718995338
 21
216.109600297298
 31
0.0
  0
LINE
  5
18BB2
330
18095
100
AcDbEntity
  8
DIM
 62
     1
370
    -2
100
AcDbLine
 10
378.8291718995338
 20
210.4096002972981
 30
0.0
 11
378.8291718995338
 21
205.6435288687267
 31
0.0
  0
SOLID
  5
18BB3
330
18095
100
AcDbEntity
  8
DIM
 62
     1
100
AcDbTrace
 10
378.6291718995339
 20
214.909600297298
 30
0.0
 11
379.0291718995338
 21
214.909600297298
 31
0.0
 12
378.8291718995338
 22
213.709600297298
 32
0.0
 13
378.8291718995338
 23
213.709600297298
 33
0.0
  0
SOLID
  5
18BB4
330
18095
100
AcDbEntity
  8
DIM
 62
     1
100
AcDbTrace
 10
378.6291718995339
 20
210.4096002972981
 30
0.0
 11
379.0291718995338
 21
210.4096002972981
 31
0.0
 12
378.8291718995338
 22
211.6096002972981
 32
0.0
 13
378.8291718995338
 23
211.6096002972981
 33
0.0
  0
MTEXT
  5
18BB5
330
18095
100
AcDbEntity
  8
DIM
 62
     4
100
AcDbMText
 10
377.5791718995338
 20
206.9738860115839
 30
0.0
 40
1.5
 41
0.0
 71
     5
 72
     1
  1
\A1;%%Ca
  7
Romans字体
 11
0.0000000000000001
 21
1.0
 31
0.0
 73
     1
 44
1.0
  0
POINT
  5
18BB6
330
18095
100
AcDbEntity
  8
Defpoints
 62
     0
100
AcDbPoint
 10
380.140306994155
 20
213.709600297298
 30
0.0
  0
POINT
  5
18BB7
330
18095
100
AcDbEntity
  8
Defpoints
 62
     0
100
AcDbPoint
 10
380.140306994155
 20
211.6096002972981
 30
0.0
  0
POINT
  5
18BB8
330
18095
100
AcDbEntity
  8
Defpoints
 62
     0
100
AcDbPoint
 10
378.8291718995338
 20
211.6096002972981
 30
0.0
  0
ENDBLK
  5
18097
330
18095
100
AcDbEntity
  8
0
100
AcDbBlockEnd
  0
BLOCK
  5
180A3
330
180A2
100
AcDbEntity
  8
0
100
AcDbBlockBegin
  2
*D7
 70
     1
 10
0.0
 20
0.0
 30
0.0
  3
*D7
  1

  0
LINE
  5
18BB9
330
180A2
100
AcDbEntity
  8
DIM
 62
     6
370
    -2
100
AcDbLine
 10
379.7671019134553
 20
213.9096002972983
 30
0.0
 11
373.6029253889392
 21
213.9096002972983
 31
0.0
  0
LINE
  5
18BBA
330
180A2
100
AcDbEntity
  8
DIM
 62
     6
370
    -2
100
AcDbLine
 10
379.7671019134553
 20
211.4096002972978
 30
0.0
 11
373.6029253889392
 21
211.4096002972978
 31
0.0
  0
LINE
  5
18BBB
330
180A2
100
AcDbEntity
  8
DIM
 62
     1
370
    -2
100
AcDbLine
 10
374.1029253889392
 20
215.1096002972983
 30
0.0
 11
374.1029253889392
 21
216.3096002972983
 31
0.0
  0
LINE
  5
18BBC
330
180A2
100
AcDbEntity
  8
DIM
 62
     1
370
    -2
100
AcDbLine
 10
374.1029253889392
 20
210.2096002972978
 30
0.0
 11
374.1029253889392
 21
204.6346002972978
 31
0.0
  0
SOLID
  5
18BBD
330
180A2
100
AcDbEntity
  8
DIM
 62
     1
100
AcDbTrace
 10
373.9029253889392
 20
215.1096002972983
 30
0.0
 11
374.3029253889393
 21
215.1096002972983
 31
0.0
 12
374.1029253889392
 22
213.9096002972983
 32
0.0
 13
374.1029253889392
 23
213.9096002972983
 33
0.0
  0
SOLID
  5
18BBE
330
180A2
100
AcDbEntity
  8
DIM
 62
     1
100
AcDbTrace
 10
373.9029253889392
 20
210.2096002972978
 30
0.0
 11
374.3029253889393
 21
210.2096002972978
 31
0.0
 12
374.1029253889392
 22
211.4096002972978
 32
0.0
 13
374.1029253889392
 23
211.4096002972978
 33
0.0
  0
MTEXT
  5
18BBF
330
180A2
100
AcDbEntity
  8
DIM
 62
     4
100
AcDbMText
 10
372.8529253889391
 20
206.8221002972979
 30
0.0
 40
1.5
 41
0.0
 71
     5
 72
     1
  1
\A1;%%C2.5
  7
Romans字体
 11
0.0000000000000001
 21
1.0
 31
0.0
 73
     1
 44
1.0
  0
POINT
  5
18BC0
330
180A2
100
AcDbEntity
  8
Defpoints
 62
     0
100
AcDbPoint
 10
379.9671019134553
 20
213.9096002972983
 30
0.0
  0
POINT
  5
18BC1
330
180A2
100
AcDbEntity
  8
Defpoints
 62
     0
100
AcDbPoint
 10
379.9671019134553
 20
211.4096002972978
 30
0.0
  0
POINT
  5
18BC2
330
180A2
100
AcDbEntity
  8
Defpoints
 62
     0
100
AcDbPoint
 10
374.1029253889392
 20
211.4096002972978
 30
0.0
  0
ENDBLK
  5
180A4
330
180A2
100
AcDbEntity
  8
0
100
AcDbBlockEnd
  0
ENDSEC
  0
SECTION
  2
ENTITIES
  0
HATCH
  5
28AE
330
1F
100
AcDbEntity
  8
图层 1
 62
     7
100
AcDbHatch
 10
0.0
 20
0.0
 30
0.0
210
0.0
220
0.0
230
1.0
  2
SOLID
 70
     1
 71
     0
 91
        1
 92
        1
 93
        2
 72
     4
 94
        3
 73
     0
 74
     0
 95
       17
 96
       13
 40
0.0
 40
0.0
 40
0.0
 40
0.0
 40
0.3527780104152769
 40
0.3527780104152769
 40
0.3527780104152769
 40
0.7055560208305538
 40
0.7055560208305538
 40
0.7055560208305538
 40
1.058334031245828
 40
1.058334031245828
 40
1.058334031245828
 40
1.411112041661104
 40
1.411112041661104
 40
1.411112041661104
 40
1.411112041661104
 10
11.07013262565829
 20
29.50312817963231
 10
11.07013262565829
 20
29.50312817963231
 10
10.9431807732774
 20
29.50312817963231
 10
10.9431807732774
 20
29.50312817963231
 10
10.9431807732774
 20
29.50312817963231
 10
10.85843136843155
 20
29.22786486877117
 10
10.85843136843155
 20
29.22786486877117
 10
10.85843136843155
 20
29.22786486877117
 10
10.90080607085448
 20
29.2068497724476
 10
10.90080607085448
 20
29.2068497724476
 10
10.94455881238059
 20
29.31571486159919
 10
11.00346998404173
 20
29.40907701083995
 10
11.07013262565829
 20
29.50312817963231
 72
     1
 10
11.07013262565829
 20
29.50312817963231
 11
11.07013262565829
 21
29.50312817963231
 97
        0
 75
     0
 76
     1
 98
        0
450
        0
451
        0
460
0.0
461
0.0
452
        0
462
0.0
453
        0
470

  0
HATCH
  5
2C65
330
1F
100
AcDbEntity
  8
图层 1
 62
     7
100
AcDbHatch
 10
0.0
 20
0.0
 30
0.0
210
0.0
220
0.0
230
1.0
  2
SOLID
 70
     1
 71
     0
 91
        1
 92
        1
 93
        2
 72
     4
 94
        3
 73
     0
 74
     0
 95
       47
 96
       43
 40
0.0
 40
0.0
 40
0.0
 40
0.0
 40
0.3527780104152769
 40
0.3527780104152769
 40
0.3527780104152769
 40
0.7055560208305538
 40
0.7055560208305538
 40
0.7055560208305538
 40
1.058334031245828
 40
1.058334031245828
 40
1.058334031245828
 40
1.411112041661104
 40
1.411112041661104
 40
1.411112041661104
 40
1.763890052076384
 40
1.763890052076384
 40
1.763890052076384
 40
2.116668062491659
 40
2.116668062491659
 40
2.116668062491659
 40
2.469446072906936
 40
2.469446072906936
 40
2.469446072906936
 40
2.822224083322215
 40
2.822224083322215
 40
2.822224083322215
 40
3.175002093737492
 40
3.175002093737492
 40
3.175002093737492
 40
3.527780104152768
 40
3.527780104152768
 40
3.527780104152768
 40
3.880558114568044
 40
3.880558114568044
 40
3.880558114568044
 40
4.233336124983321
 40
4.233336124983321
 40
4.233336124983321
 40
4.586114135398599
 40
4.586114135398599
 40
4.586114135398599
 40
4.938892145813873
 40
4.938892145813873
 40
4.938892145813873
 40
4.938892145813873
 10
162.8986914070121
 20
257.4895347631509
 10
162.8986914070121
 20
257.4895347631509
 10
162.9200510131114
 20
257.4471600607279
 10
162.9200510131114
 20
257.4471600607279
 10
162.9200510131114
 20
257.4471600607279
 10
162.9200510131114
 20
257.404785358305
 10
162.9200510131114
 20
257.404785358305
 10
162.9200510131114
 20
257.404785358305
 10
162.8986914070121
 20
257.36258291077
 10
162.8986914070121
 20
257.36258291077
 10
162.8986914070121
 20
257.36258291077
 10
162.8986914070121
 20
257.320208208347
 10
162.8986914070121
 20
257.320208208347
 10
162.8986914070121
 20
257.320208208347
 10
162.8563167045891
 20
257.2990208571356
 10
162.8563167045891
 20
257.2990208571356
 10
162.8563167045891
 20
257.2990208571356
 10
162.8139420021662
 20
257.2563016449369
 10
162.8139420021662
 20
257.2563016449369
 10
162.8139420021662
 20
257.2563016449369
 10
162.7295371070961
 20
257.2563016449369
 10
162.7295371070961
 20
257.2563016449369
 10
162.7295371070961
 20
257.2563016449369
 10
162.6658027985738
 20
257.2778335059241
 10
162.6658027985738
 20
257.2778335059241
 10
162.6658027985738
 20
257.2778335059241
 10
162.6237726059267
 20
257.2990208571356
 10
162.6237726059267
 20
257.2990208571356
 10
162.6237726059267
 20
257.2990208571356
 10
162.5813979035038
 20
257.3413955595585
 10
162.5813979035038
 20
257.3413955595585
 10
162.5813979035038
 20
257.3413955595585
 10
162.5813979035038
 20
257.4895347631509
 10
162.5813979035038
 20
257.4895347631509
 10
162.5813979035038
 20
257.4895347631509
 10
162.6447877022503
 20
257.5525800521216
 10
162.6447877022503
 20
257.5525800521216
 10
162.6447877022503
 20
257.5525800521216
 10
162.7081775009967
 20
257.5525800521216
 10
162.7081775009967
 20
257.5525800521216
 10
162.8749202324821
 20
257.5424170137356
 10
162.7918933765152
 20
257.5939212252171
 10
162.8986914070121
 20
257.4895347631509
 72
     1
 10
162.8986914070121
 20
257.4895347631509
 11
162.8986914070121
 21
257.4895347631509
 97
        0
 75
     0
 76
     1
 98
        0
450
        0
451
        0
460
0.0
461
0.0
452
        0
462
0.0
453
        0
470

  0
HATCH
  5
2EE7
330
1F
100
AcDbEntity
  8
图层 1
 62
     7
100
AcDbHatch
 10
0.0
 20
0.0
 30
0.0
210
0.0
220
0.0
230
1.0
  2
SOLID
 70
     1
 71
     0
 91
        1
 92
        1
 93
        2
 72
     4
 94
        3
 73
     0
 74
     0
 95
       56
 96
       52
 40
0.0
 40
0.0
 40
0.0
 40
0.0
 40
0.3527780104152769
 40
0.3527780104152769
 40
0.3527780104152769
 40
0.7055560208305538
 40
0.7055560208305538
 40
0.7055560208305538
 40
1.058334031245828
 40
1.058334031245828
 40
1.058334031245828
 40
1.411112041661104
 40
1.411112041661104
 40
1.411112041661104
 40
1.763890052076384
 40
1.763890052076384
 40
1.763890052076384
 40
2.116668062491659
 40
2.116668062491659
 40
2.116668062491659
 40
2.469446072906936
 40
2.469446072906936
 40
2.469446072906936
 40
2.822224083322215
 40
2.822224083322215
 40
2.822224083322215
 40
3.175002093737492
 40
3.175002093737492
 40
3.175002093737492
 40
3.527780104152768
 40
3.527780104152768
 40
3.527780104152768
 40
3.880558114568044
 40
3.880558114568044
 40
3.880558114568044
 40
4.233336124983321
 40
4.233336124983321
 40
4.233336124983321
 40
4.586114135398599
 40
4.586114135398599
 40
4.586114135398599
 40
4.938892145813873
 40
4.938892145813873
 40
4.938892145813873
 40
5.291670156229153
 40
5.291670156229153
 40
5.291670156229153
 40
5.64444816664443
 40
5.64444816664443
 40
5.64444816664443
 40
5.997226177059705
 40
5.997226177059705
 40
5.997226177059705
 40
5.997226177059705
 10
185.4837187788815
 20
241.4451977396596
 10
185.4837187788815
 20
241.4451977396596
 10
185.4837187788815
 20
241.4028230372367
 10
185.4837187788815
 20
241.4028230372367
 10
185.4837187788815
 20
241.4028230372367
 10
185.5047338752051
 20
241.3604483348137
 10
185.5047338752051
 20
241.3604483348137
 10
185.4520238795082
 20
241.2782827532863
 10
185.4671823096433
 20
241.1897437409066
 10
185.335579575289
 20
241.2119646214456
 10
185.335579575289
 20
241.2119646214456
 10
185.2932048728662
 20
241.2119646214456
 10
185.2932048728662
 20
241.2119646214456
 10
185.2932048728662
 20
241.2119646214456
 10
185.2294705643439
 20
241.2334964824328
 10
185.2294705643439
 20
241.2334964824328
 10
185.2294705643439
 20
241.2334964824328
 10
185.1660807655974
 20
241.2543393238685
 10
185.1660807655974
 20
241.2543393238685
 10
185.1660807655974
 20
241.2543393238685
 10
185.1450656692739
 20
241.2758711848558
 10
185.1450656692739
 20
241.2758711848558
 10
185.1450656692739
 20
241.2758711848558
 10
185.1450656692739
 20
241.2967140262914
 10
185.1450656692739
 20
241.2967140262914
 10
185.1450656692739
 20
241.2967140262914
 10
185.1237060631745
 20
241.3604483348137
 10
185.1237060631745
 20
241.3604483348137
 10
185.1237060631745
 20
241.3604483348137
 10
185.1237060631745
 20
241.4028230372367
 10
185.1237060631745
 20
241.4028230372367
 10
185.1237060631745
 20
241.4028230372367
 10
185.1660807655974
 20
241.4875724420825
 10
185.1660807655974
 20
241.4875724420825
 10
185.1660807655974
 20
241.4875724420825
 10
185.2084554680203
 20
241.5085875384061
 10
185.2084554680203
 20
241.5085875384061
 10
185.2084554680203
 20
241.5085875384061
 10
185.2718452667668
 20
241.5297748896175
 10
185.2718452667668
 20
241.5297748896175
 10
185.2718452667668
 20
241.5297748896175
 10
185.3565946716127
 20
241.5297748896175
 10
185.3565946716127
 20
241.5297748896175
 10
185.3565946716127
 20
241.5297748896175
 10
185.4199844703592
 20
241.5085875384061
 10
185.4199844703592
 20
241.5085875384061
 10
185.4199844703592
 20
241.5085875384061
 10
185.4623591727821
 20
241.4875724420825
 10
185.4623591727821
 20
241.4875724420825
 10
185.4623591727821
 20
241.4875724420825
 10
185.4837187788815
 20
241.4451977396596
 10
185.4837187788815
 20
241.4451977396596
 72
     1
 10
185.4837187788815
 20
241.4451977396596
 11
185.4837187788815
 21
241.4451977396596
 97
        0
 75
     0
 76
     1
 98
        0
450
        0
451
        0
460
0.0
461
0.0
452
        0
462
0.0
453
        0
470

  0
HATCH
  5
2F93
330
1F
100
AcDbEntity
  8
图层 1
 62
     7
100
AcDbHatch
 10
0.0
 20
0.0
 30
0.0
210
0.0
220
0.0
230
1.0
  2
SOLID
 70
     1
 71
     0
 91
        1
 92
        1
 93
        2
 72
     4
 94
        3
 73
     0
 74
     0
 95
       38
 96
       34
 40
0.0
 40
0.0
 40
0.0
 40
0.0
 40
0.3527780104152769
 40
0.3527780104152769
 40
0.3527780104152769
 40
0.7055560208305538
 40
0.7055560208305538
 40
0.7055560208305538
 40
1.058334031245828
 40
1.058334031245828
 40
1.058334031245828
 40
1.411112041661104
 40
1.411112041661104
 40
1.411112041661104
 40
1.763890052076384
 40
1.763890052076384
 40
1.763890052076384
 40
2.116668062491659
 40
2.116668062491659
 40
2.116668062491659
 40
2.469446072906936
 40
2.469446072906936
 40
2.469446072906936
 40
2.822224083322215
 40
2.822224083322215
 40
2.822224083322215
 40
3.175002093737492
 40
3.175002093737492
 40
3.175002093737492
 40
3.527780104152768
 40
3.527780104152768
 40
3.527780104152768
 40
3.880558114568044
 40
3.880558114568044
 40
3.880558114568044
 40
3.880558114568044
 10
185.907121293335
 20
220.1937677098971
 10
185.9005756075949
 20
220.0449394867532
 10
185.9329595265197
 20
220.1136691870245
 10
185.864746590912
 20
219.9817219428946
 10
185.864746590912
 20
219.9817219428946
 10
185.822371888489
 20
219.9605345916831
 10
185.822371888489
 20
219.9605345916831
 10
185.822371888489
 20
219.9605345916831
 10
185.6528730787974
 20
219.9605345916831
 10
185.6528730787974
 20
219.9605345916831
 10
185.6528730787974
 20
219.9605345916831
 10
185.5894832800509
 20
220.002909294106
 10
185.5894832800509
 20
220.002909294106
 10
185.5894832800509
 20
220.002909294106
 10
185.5681236739515
 20
220.0240966453175
 10
185.5681236739515
 20
220.0240966453175
 10
185.5681236739515
 20
220.0240966453175
 10
185.5681236739515
 20
220.045283996529
 10
185.5681236739515
 20
220.045283996529
 10
185.5681236739515
 20
220.045283996529
 10
185.547108577628
 20
220.0876586989519
 10
185.547108577628
 20
220.0876586989519
 10
185.547108577628
 20
220.0876586989519
 10
185.547108577628
 20
220.1513930074742
 10
185.547108577628
 20
220.1513930074742
 10
185.547108577628
 20
220.1513930074742
 10
185.5894832800509
 20
220.23614241232
 10
185.5894832800509
 20
220.23614241232
 10
185.5894832800509
 20
220.23614241232
 10
185.6318579824738
 20
220.2573297635315
 10
185.6318579824738
 20
220.2573297635315
 10
185.7055830744942
 20
220.2566407439799
 10
185.8416644359337
 20
220.3310548555519
 10
185.907121293335
 20
220.1937677098971
 72
     1
 10
185.907121293335
 20
220.1937677098971
 11
185.907121293335
 21
220.1937677098971
 97
        0
 75
     0
 76
     1
 98
        0
450
        0
451
        0
460
0.0
461
0.0
452
        0
462
0.0
453
        0
470

  0
HATCH
  5
2FDE
330
1F
100
AcDbEntity
  8
图层 1
 62
     7
100
AcDbHatch
 10
0.0
 20
0.0
 30
0.0
210
0.0
220
0.0
230
1.0
  2
SOLID
 70
     1
 71
     0
 91
        1
 92
        1
 93
        2
 72
     4
 94
        3
 73
     0
 74
     0
 95
       50
 96
       46
 40
0.0
 40
0.0
 40
0.0
 40
0.0
 40
0.3527780104152769
 40
0.3527780104152769
 40
0.3527780104152769
 40
0.7055560208305538
 40
0.7055560208305538
 40
0.7055560208305538
 40
1.058334031245828
 40
1.058334031245828
 40
1.058334031245828
 40
1.411112041661104
 40
1.411112041661104
 40
1.411112041661104
 40
1.763890052076384
 40
1.763890052076384
 40
1.763890052076384
 40
2.116668062491659
 40
2.116668062491659
 40
2.116668062491659
 40
2.469446072906936
 40
2.469446072906936
 40
2.469446072906936
 40
2.822224083322215
 40
2.822224083322215
 40
2.822224083322215
 40
3.175002093737492
 40
3.175002093737492
 40
3.175002093737492
 40
3.527780104152768
 40
3.527780104152768
 40
3.527780104152768
 40
3.880558114568044
 40
3.880558114568044
 40
3.880558114568044
 40
4.233336124983321
 40
4.233336124983321
 40
4.233336124983321
 40
4.586114135398599
 40
4.586114135398599
 40
4.586114135398599
 40
4.938892145813873
 40
4.938892145813873
 40
4.938892145813873
 40
5.291670156229153
 40
5.291670156229153
 40
5.291670156229153
 40
5.291670156229153
 10
180.9117295442905
 20
208.9327766684477
 10
180.9117295442905
 20
208.9327766684477
 10
180.9117295442905
 20
208.7637946234197
 10
180.9117295442905
 20
208.7637946234197
 10
181.2273004989198
 20
208.6749111012643
 10
181.3833634273555
 20
208.6776671794706
 10
181.6948002646751
 20
208.5097186637701
 10
181.9542161258496
 20
208.4294478860095
 10
182.1388733656765
 20
208.2134402565853
 10
182.3297317814676
 20
208.02292635057
 10
182.3297317814676
 20
208.02292635057
 10
182.435496282637
 20
208.065301052993
 10
182.435496282637
 20
208.065301052993
 10
182.288390608372
 20
208.2733849575739
 10
182.3752070718726
 20
208.2134402565853
 10
182.1605774815516
 20
208.3824223016133
 10
182.1605774815516
 20
208.3824223016133
 10
182.1182027791287
 20
208.4247970040363
 10
182.1182027791287
 20
208.4247970040363
 10
182.1182027791287
 20
208.4247970040363
 10
182.0968431730294
 20
208.467516216235
 10
182.0968431730294
 20
208.467516216235
 10
182.0968431730294
 20
208.467516216235
 10
182.0544684706064
 20
208.4883590576707
 10
182.0544684706064
 20
208.4883590576707
 10
182.0544684706064
 20
208.4883590576707
 10
181.9910786718599
 20
208.5305615052057
 10
181.9910786718599
 20
208.5305615052057
 10
181.9910786718599
 20
208.5305615052057
 10
181.948703969437
 20
208.552093366193
 10
181.948703969437
 20
208.552093366193
 10
181.948703969437
 20
208.552093366193
 10
181.9063292670141
 20
208.5729362076286
 10
181.9063292670141
 20
208.5729362076286
 10
181.9063292670141
 20
208.5729362076286
 10
181.8639545645911
 20
208.6156554198274
 10
181.8639545645911
 20
208.6156554198274
 10
181.8639545645911
 20
208.6156554198274
 10
181.821924371944
 20
208.6368427710388
 10
181.821924371944
 20
208.6368427710388
 10
181.6637943848536
 20
208.6742220817127
 10
181.5452830219797
 20
208.8092699138248
 10
181.3771622513911
 20
208.8061693258427
 10
181.2803550043924
 20
208.8573290275484
 10
181.0126709085988
 20
208.8971199066528
 10
180.9117295442905
 20
208.9327766684477
 72
     1
 10
180.9117295442905
 20
208.9327766684477
 11
180.9117295442905
 21
208.9327766684477
 97
        0
 75
     0
 76
     1
 98
        0
450
        0
451
        0
460
0.0
461
0.0
452
        0
462
0.0
453
        0
470

  0
HATCH
  5
35C8
330
1F
100
AcDbEntity
  8
图层 1
 62
     7
100
AcDbHatch
 10
0.0
 20
0.0
 30
0.0
210
0.0
220
0.0
230
1.0
  2
SOLID
 70
     1
 71
     0
 91
        1
 92
        1
 93
        2
 72
     4
 94
        3
 73
     0
 74
     0
 95
       38
 96
       34
 40
0.0
 40
0.0
 40
0.0
 40
0.0
 40
0.3527780104152769
 40
0.3527780104152769
 40
0.3527780104152769
 40
0.7055560208305538
 40
0.7055560208305538
 40
0.7055560208305538
 40
1.058334031245828
 40
1.058334031245828
 40
1.058334031245828
 40
1.411112041661104
 40
1.411112041661104
 40
1.411112041661104
 40
1.763890052076384
 40
1.763890052076384
 40
1.763890052076384
 40
2.116668062491659
 40
2.116668062491659
 40
2.116668062491659
 40
2.469446072906936
 40
2.469446072906936
 40
2.469446072906936
 40
2.822224083322215
 40
2.822224083322215
 40
2.822224083322215
 40
3.175002093737492
 40
3.175002093737492
 40
3.175002093737492
 40
3.527780104152768
 40
3.527780104152768
 40
3.527780104152768
 40
3.880558114568044
 40
3.880558114568044
 40
3.880558114568044
 40
3.880558114568044
 10
189.145513185819
 20
166.8326485368285
 10
189.207869455238
 20
166.740492171803
 10
189.1317327947871
 20
166.6833035490209
 10
189.103138483396
 20
166.6209472796017
 10
189.103138483396
 20
166.6209472796017
 10
189.0607637809731
 20
166.5997599283903
 10
189.0607637809731
 20
166.5997599283903
 10
189.0607637809731
 20
166.5997599283903
 10
188.9973739822266
 20
166.5785725771788
 10
188.9973739822266
 20
166.5785725771788
 10
188.9973739822266
 20
166.5785725771788
 10
188.9549992798037
 20
166.5997599283903
 10
188.9549992798037
 20
166.5997599283903
 10
188.9549992798037
 20
166.5997599283903
 10
188.8916094810572
 20
166.5997599283903
 10
188.8916094810572
 20
166.5997599283903
 10
188.8916094810572
 20
166.5997599283903
 10
188.8492347786343
 20
166.6209472796017
 10
188.8492347786343
 20
166.6209472796017
 10
188.8492347786343
 20
166.6209472796017
 10
188.8278751725349
 20
166.6633219820247
 10
188.8278751725349
 20
166.6633219820247
 10
188.8278751725349
 20
166.6633219820247
 10
188.8068600762114
 20
166.6845093332361
 10
188.8068600762114
 20
166.6845093332361
 10
188.8068600762114
 20
166.6845093332361
 10
188.8068600762114
 20
166.8326485368285
 10
188.8068600762114
 20
166.8326485368285
 10
188.8068600762114
 20
166.8326485368285
 10
188.8702498749578
 20
166.896038335575
 10
188.8702498749578
 20
166.896038335575
 10
189.0228677056355
 20
166.8819134347673
 10
189.0686875058164
 20
166.9411691162043
 10
189.145513185819
 20
166.8326485368285
 72
     1
 10
189.145513185819
 20
166.8326485368285
 11
189.145513185819
 21
166.8326485368285
 97
        0
 75
     0
 76
     1
 98
        0
450
        0
451
        0
460
0.0
461
0.0
452
        0
462
0.0
453
        0
470

  0
HATCH
  5
35D8
330
1F
100
AcDbEntity
  8
图层 1
 62
     7
100
AcDbHatch
 10
0.0
 20
0.0
 30
0.0
210
0.0
220
0.0
230
1.0
  2
SOLID
 70
     1
 71
     0
 91
        1
 92
        1
 93
        2
 72
     4
 94
        3
 73
     0
 74
     0
 95
       68
 96
       64
 40
0.0
 40
0.0
 40
0.0
 40
0.0
 40
0.3527780104152769
 40
0.3527780104152769
 40
0.3527780104152769
 40
0.7055560208305538
 40
0.7055560208305538
 40
0.7055560208305538
 40
1.058334031245828
 40
1.058334031245828
 40
1.058334031245828
 40
1.411112041661104
 40
1.411112041661104
 40
1.411112041661104
 40
1.763890052076384
 40
1.763890052076384
 40
1.763890052076384
 40
2.116668062491659
 40
2.116668062491659
 40
2.116668062491659
 40
2.469446072906936
 40
2.469446072906936
 40
2.469446072906936
 40
2.822224083322215
 40
2.822224083322215
 40
2.822224083322215
 40
3.175002093737492
 40
3.175002093737492
 40
3.175002093737492
 40
3.527780104152768
 40
3.527780104152768
 40
3.527780104152768
 40
3.880558114568044
 40
3.880558114568044
 40
3.880558114568044
 40
4.233336124983321
 40
4.233336124983321
 40
4.233336124983321
 40
4.586114135398599
 40
4.586114135398599
 40
4.586114135398599
 40
4.938892145813873
 40
4.938892145813873
 40
4.938892145813873
 40
5.291670156229153
 40
5.291670156229153
 40
5.291670156229153
 40
5.64444816664443
 40
5.64444816664443
 40
5.64444816664443
 40
5.997226177059705
 40
5.997226177059705
 40
5.997226177059705
 40
6.350004187474984
 40
6.350004187474984
 40
6.350004187474984
 40
6.702782197890257
 40
6.702782197890257
 40
6.702782197890257
 40
7.055560208305537
 40
7.055560208305537
 40
7.055560208305537
 40
7.408338218720808
 40
7.408338218720808
 40
7.408338218720808
 40
7.408338218720808
 10
174.7732543591544
 20
135.4846705078077
 10
174.7732543591544
 20
135.4846705078077
 10
174.7732543591544
 20
135.3789060066383
 10
174.7732543591544
 20
135.3789060066383
 10
174.7732543591544
 20
135.3789060066383
 10
174.8156290615773
 20
135.3789060066383
 10
174.8156290615773
 20
135.3789060066383
 10
174.8156290615773
 20
135.3789060066383
 10
174.8580037640002
 20
135.3578909103147
 10
174.8580037640002
 20
135.3578909103147
 10
174.8580037640002
 20
135.3578909103147
 10
174.9213935627468
 20
135.3578909103147
 10
174.9213935627468
 20
135.3578909103147
 10
174.9213935627468
 20
135.3578909103147
 10
174.9637682651697
 20
135.3365313042154
 10
174.9637682651697
 20
135.3365313042154
 10
174.9637682651697
 20
135.3365313042154
 10
174.9847833614933
 20
135.3365313042154
 10
174.9847833614933
 20
135.3365313042154
 10
174.9847833614933
 20
135.3365313042154
 10
175.0271580639162
 20
135.3155162078918
 10
175.0271580639162
 20
135.3155162078918
 10
175.0271580639162
 20
135.3155162078918
 10
175.0485176700155
 20
135.2941566017924
 10
175.0485176700155
 20
135.2941566017924
 10
175.0485176700155
 20
135.2941566017924
 10
175.0695327663391
 20
135.2941566017924
 10
175.0695327663391
 20
135.2941566017924
 10
175.0695327663391
 20
135.2941566017924
 10
175.0908923724385
 20
135.2731415054689
 10
175.0908923724385
 20
135.2731415054689
 10
175.0908923724385
 20
135.2731415054689
 10
175.1332670748614
 20
135.2731415054689
 10
175.1332670748614
 20
135.2731415054689
 10
175.1332670748614
 20
135.2731415054689
 10
175.154282171185
 20
135.2517818993695
 10
175.154282171185
 20
135.2517818993695
 10
175.154282171185
 20
135.2517818993695
 10
175.154282171185
 20
135.3578909103147
 10
175.154282171185
 20
135.3578909103147
 10
175.154282171185
 20
135.3578909103147
 10
175.1332670748614
 20
135.3789060066383
 10
175.1332670748614
 20
135.3789060066383
 10
175.1332670748614
 20
135.3789060066383
 10
175.0908923724385
 20
135.3789060066383
 10
175.0908923724385
 20
135.3789060066383
 10
175.0908923724385
 20
135.3789060066383
 10
175.0908923724385
 20
135.3999211029619
 10
175.0908923724385
 20
135.3999211029619
 10
175.0908923724385
 20
135.3999211029619
 10
175.0695327663391
 20
135.3999211029619
 10
175.0695327663391
 20
135.3999211029619
 10
175.0695327663391
 20
135.3999211029619
 10
175.0271580639162
 20
135.4212807090612
 10
175.0271580639162
 20
135.4212807090612
 10
175.0271580639162
 20
135.4212807090612
 10
175.0061429675926
 20
135.4212807090612
 10
175.0061429675926
 20
135.4212807090612
 10
175.0061429675926
 20
135.4212807090612
 10
174.9637682651697
 20
135.4422958053848
 10
174.9637682651697
 20
135.4422958053848
 10
174.8996894468716
 20
135.4498750204523
 10
174.8394002361073
 20
135.4860485469109
 10
174.7732543591544
 20
135.4846705078077
 72
     1
 10
174.7732543591544
 20
135.4846705078077
 11
174.7732543591544
 21
135.4846705078077
 97
        0
 75
     0
 76
     1
 98
        0
450
        0
451
        0
460
0.0
461
0.0
452
        0
462
0.0
453
        0
470

  0
HATCH
  5
3807
330
1F
100
AcDbEntity
  8
图层 1
 62
     7
100
AcDbHatch
 10
0.0
 20
0.0
 30
0.0
210
0.0
220
0.0
230
1.0
  2
SOLID
 70
     1
 71
     0
 91
        1
 92
        1
 93
        2
 72
     4
 94
        3
 73
     0
 74
     0
 95
       29
 96
       25
 40
0.0
 40
0.0
 40
0.0
 40
0.0
 40
0.3527780104152769
 40
0.3527780104152769
 40
0.3527780104152769
 40
0.7055560208305538
 40
0.7055560208305538
 40
0.7055560208305538
 40
1.058334031245828
 40
1.058334031245828
 40
1.058334031245828
 40
1.411112041661104
 40
1.411112041661104
 40
1.411112041661104
 40
1.763890052076384
 40
1.763890052076384
 40
1.763890052076384
 40
2.116668062491659
 40
2.116668062491659
 40
2.116668062491659
 40
2.469446072906936
 40
2.469446072906936
 40
2.469446072906936
 40
2.822224083322215
 40
2.822224083322215
 40
2.822224083322215
 40
2.822224083322215
 10
175.4929352807925
 20
164.0174869039101
 10
175.4929352807925
 20
164.0174869039101
 10
175.5139503771161
 20
163.9751122014871
 10
175.5139503771161
 20
163.9751122014871
 10
175.5139503771161
 20
163.9751122014871
 10
175.5139503771161
 20
163.9327374990642
 10
175.5139503771161
 20
163.9327374990642
 10
175.5139503771161
 20
163.9327374990642
 10
175.4929352807925
 20
163.8903627966413
 10
175.4929352807925
 20
163.8903627966413
 10
175.4929352807925
 20
163.8903627966413
 10
175.471920184469
 20
163.8691754454298
 10
175.471920184469
 20
163.8691754454298
 10
175.471920184469
 20
163.8691754454298
 10
175.4505605783696
 20
163.8269729978948
 10
175.4505605783696
 20
163.8269729978948
 10
175.3571984291289
 20
163.7715069239916
 10
175.272449024283
 20
163.8195660377152
 10
175.1966568736079
 20
163.8691754454298
 10
175.208370205985
 20
163.9930267098286
 10
175.1563492298397
 20
164.0216210212197
 10
175.2600466723544
 20
164.0596893514451
 10
175.3330827448232
 20
164.1094710140476
 10
175.4357466580104
 20
164.0753645462439
 10
175.4929352807925
 20
164.0174869039101
 72
     1
 10
175.4929352807925
 20
164.0174869039101
 11
175.4929352807925
 21
164.0174869039101
 97
        0
 75
     0
 76
     1
 98
        0
450
        0
451
        0
460
0.0
461
0.0
452
        0
462
0.0
453
        0
470

  0
HATCH
  5
3895
330
1F
100
AcDbEntity
  8
图层 1
 62
     7
100
AcDbHatch
 10
0.0
 20
0.0
 30
0.0
210
0.0
220
0.0
230
1.0
  2
SOLID
 70
     1
 71
     0
 91
        1
 92
        1
 93
        2
 72
     4
 94
        3
 73
     0
 74
     0
 95
       11
 96
        7
 40
0.0
 40
0.0
 40
0.0
 40
0.0
 40
0.3527780104152769
 40
0.3527780104152769
 40
0.3527780104152769
 40
0.7055560208305538
 40
0.7055560208305538
 40
0.7055560208305538
 40
0.7055560208305538
 10
174.9213935627468
 20
174.5369206529582
 10
174.9213935627468
 20
174.5369206529582
 10
174.9213935627468
 20
174.3043765542958
 10
174.9213935627468
 20
174.3043765542958
 10
174.9213935627468
 20
174.3043765542958
 10
174.9213935627468
 20
174.5369206529582
 10
174.9213935627468
 20
174.5369206529582
 72
     1
 10
174.9213935627468
 20
174.5369206529582
 11
174.9213935627468
 21
174.5369206529582
 97
        0
 75
     0
 76
     1
 98
        0
450
        0
451
        0
460
0.0
461
0.0
452
        0
462
0.0
453
        0
470

  0
HATCH
  5
3943
330
1F
100
AcDbEntity
  8
图层 1
 62
     7
100
AcDbHatch
 10
0.0
 20
0.0
 30
0.0
210
0.0
220
0.0
230
1.0
  2
SOLID
 70
     1
 71
     0
 91
        1
 92
        1
 93
        2
 72
     4
 94
        3
 73
     0
 74
     0
 95
      131
 96
      127
 40
0.0
 40
0.0
 40
0.0
 40
0.0
 40
0.3527780104152769
 40
0.3527780104152769
 40
0.3527780104152769
 40
0.7055560208305538
 40
0.7055560208305538
 40
0.7055560208305538
 40
1.058334031245828
 40
1.058334031245828
 40
1.058334031245828
 40
1.411112041661104
 40
1.411112041661104
 40
1.411112041661104
 40
1.763890052076384
 40
1.763890052076384
 40
1.763890052076384
 40
2.116668062491659
 40
2.116668062491659
 40
2.116668062491659
 40
2.469446072906936
 40
2.469446072906936
 40
2.469446072906936
 40
2.822224083322215
 40
2.822224083322215
 40
2.822224083322215
 40
3.175002093737492
 40
3.175002093737492
 40
3.175002093737492
 40
3.527780104152768
 40
3.527780104152768
 40
3.527780104152768
 40
3.880558114568044
 40
3.880558114568044
 40
3.880558114568044
 40
4.233336124983321
 40
4.233336124983321
 40
4.233336124983321
 40
4.586114135398599
 40
4.586114135398599
 40
4.586114135398599
 40
4.938892145813873
 40
4.938892145813873
 40
4.938892145813873
 40
5.291670156229153
 40
5.291670156229153
 40
5.291670156229153
 40
5.64444816664443
 40
5.64444816664443
 40
5.64444816664443
 40
5.997226177059705
 40
5.997226177059705
 40
5.997226177059705
 40
6.350004187474984
 40
6.350004187474984
 40
6.350004187474984
 40
6.702782197890257
 40
6.702782197890257
 40
6.702782197890257
 40
7.055560208305537
 40
7.055560208305537
 40
7.055560208305537
 40
7.408338218720808
 40
7.408338218720808
 40
7.408338218720808
 40
7.76111622913609
 40
7.76111622913609
 40
7.76111622913609
 40
8.113894239551369
 40
8.113894239551369
 40
8.113894239551369
 40
8.466672249966642
 40
8.466672249966642
 40
8.466672249966642
 40
8.819450260381922
 40
8.819450260381922
 40
8.819450260381922
 40
9.172228270797198
 40
9.172228270797198
 40
9.172228270797198
 40
9.525006281212476
 40
9.525006281212476
 40
9.525006281212476
 40
9.877784291627751
 40
9.877784291627751
 40
9.877784291627751
 40
10.23056230204303
 40
10.23056230204303
 40
10.23056230204303
 40
10.58334031245831
 40
10.58334031245831
 40
10.58334031245831
 40
10.93611832287358
 40
10.93611832287358
 40
10.93611832287358
 40
11.28889633328886
 40
11.28889633328886
 40
11.28889633328886
 40
11.64167434370414
 40
11.64167434370414
 40
11.64167434370414
 40
11.99445235411941
 40
11.99445235411941
 40
11.99445235411941
 40
12.34723036453469
 40
12.34723036453469
 40
12.34723036453469
 40
12.70000837494997
 40
12.70000837494997
 40
12.70000837494997
 40
13.05278638536524
 40
13.05278638536524
 40
13.05278638536524
 40
13.40556439578052
 40
13.40556439578052
 40
13.40556439578052
 40
13.7583424061958
 40
13.7583424061958
 40
13.7583424061958
 40
14.11112041661107
 40
14.11112041661107
 40
14.11112041661107
 40
14.46389842702635
 40
14.46389842702635
 40
14.46389842702635
 40
14.81667643744163
 40
14.81667643744163
 40
14.81667643744163
 40
14.81667643744163
 10
173.3972823146245
 20
126.8274843518258
 10
173.3972823146245
 20
126.8274843518258
 10
173.3972823146245
 20
126.7217198506564
 10
173.3972823146245
 20
126.7217198506564
 10
173.3972823146245
 20
126.7217198506564
 10
173.4186419207238
 20
126.7217198506564
 10
173.4186419207238
 20
126.7217198506564
 10
173.4186419207238
 20
126.7217198506564
 10
173.4820317194703
 20
126.7007047543328
 10
173.4820317194703
 20
126.7007047543328
 10
173.4820317194703
 20
126.7007047543328
 10
173.5244064218933
 20
126.6793451482334
 10
173.5244064218933
 20
126.6793451482334
 10
173.5244064218933
 20
126.6793451482334
 10
173.5877962206398
 20
126.6793451482334
 10
173.5877962206398
 20
126.6793451482334
 10
173.5877962206398
 20
126.6793451482334
 10
173.6301709230627
 20
126.6583300519099
 10
173.6301709230627
 20
126.6583300519099
 10
173.7955356154449
 20
126.5911506456296
 10
173.759706598762
 20
126.6380039751379
 10
173.9478089363468
 20
126.5525655507404
 10
173.9478089363468
 20
126.5525655507404
 10
173.9688240326703
 20
126.4464565397952
 10
173.9688240326703
 20
126.4464565397952
 10
173.9688240326703
 20
126.4464565397952
 10
174.0325583411926
 20
126.5101908483175
 10
174.0325583411926
 20
126.5101908483175
 10
174.0325583411926
 20
126.5101908483175
 10
174.0749330436156
 20
126.5101908483175
 10
174.0749330436156
 20
126.5101908483175
 10
174.0749330436156
 20
126.5101908483175
 10
174.1593379386856
 20
126.4678161458946
 10
174.1593379386856
 20
126.4678161458946
 10
174.1593379386856
 20
126.4678161458946
 10
174.180697544785
 20
126.4464565397952
 10
174.180697544785
 20
126.4464565397952
 10
174.2464989119621
 20
126.3982251711837
 10
174.3298702777047
 20
126.3716979184474
 10
174.3922265471239
 20
126.3196769423022
 10
174.608234176548
 20
126.2059887162895
 10
174.7749769080334
 20
126.0278771622029
 10
174.9637682651697
 20
125.8749148217494
 10
174.9637682651697
 20
125.8749148217494
 10
175.0061429675926
 20
125.9172895241723
 10
175.0061429675926
 20
125.9172895241723
 10
174.961356696739
 20
125.9631093243532
 10
174.782211613325
 20
126.1246844092016
 10
174.7308796567315
 20
126.1501781326105
 10
174.7308796567315
 20
126.1501781326105
 10
174.6885049543085
 20
126.1925528350335
 10
174.6885049543085
 20
126.1925528350335
 10
174.6885049543085
 20
126.1925528350335
 10
174.667489857985
 20
126.2349275374564
 10
174.667489857985
 20
126.2349275374564
 10
174.667489857985
 20
126.2349275374564
 10
174.625115155562
 20
126.2559426337799
 10
174.625115155562
 20
126.2559426337799
 10
174.625115155562
 20
126.2559426337799
 10
174.5827404531391
 20
126.2983173362029
 10
174.5827404531391
 20
126.2983173362029
 10
174.5827404531391
 20
126.2983173362029
 10
174.5403657507162
 20
126.3196769423022
 10
174.5403657507162
 20
126.3196769423022
 10
174.5403657507162
 20
126.3196769423022
 10
174.4979910482932
 20
126.3620516447252
 10
174.4979910482932
 20
126.3620516447252
 10
174.4735308542117
 20
126.3875453681341
 10
174.3247026310678
 20
126.4695386947736
 10
174.2864620459544
 20
126.4888312422181
 10
174.2864620459544
 20
126.4888312422181
 10
174.2654469496308
 20
126.5101908483175
 10
174.2654469496308
 20
126.5101908483175
 10
174.2654469496308
 20
126.5101908483175
 10
174.2230722472079
 20
126.5312059446411
 10
174.2230722472079
 20
126.5312059446411
 10
174.2230722472079
 20
126.5312059446411
 10
174.2017126411085
 20
126.5525655507404
 10
174.2017126411085
 20
126.5525655507404
 10
174.2017126411085
 20
126.5525655507404
 10
174.1383228423621
 20
126.573580647064
 10
174.1383228423621
 20
126.573580647064
 10
174.1383228423621
 20
126.573580647064
 10
174.1169632362627
 20
126.5945957433876
 10
174.1169632362627
 20
126.5945957433876
 10
174.1169632362627
 20
126.5945957433876
 10
174.0959481399391
 20
126.7007047543328
 10
174.0959481399391
 20
126.7007047543328
 10
174.0959481399391
 20
126.7007047543328
 10
174.0325583411926
 20
126.6369704458105
 10
174.0325583411926
 20
126.6369704458105
 10
174.0325583411926
 20
126.6369704458105
 10
173.9901836387697
 20
126.6369704458105
 10
173.9901836387697
 20
126.6369704458105
 10
173.9901836387697
 20
126.6369704458105
 10
173.9054342339239
 20
126.6793451482334
 10
173.9054342339239
 20
126.6793451482334
 10
173.9054342339239
 20
126.6793451482334
 10
173.8420444351773
 20
126.7007047543328
 10
173.8420444351773
 20
126.7007047543328
 10
173.8420444351773
 20
126.7007047543328
 10
173.7996697327544
 20
126.7217198506564
 10
173.7996697327544
 20
126.7217198506564
 10
173.7996697327544
 20
126.7217198506564
 10
173.7572950303315
 20
126.7217198506564
 10
173.7572950303315
 20
126.7217198506564
 10
173.7572950303315
 20
126.7217198506564
 10
173.6725456254856
 20
126.7640945530793
 10
173.6725456254856
 20
126.7640945530793
 10
173.6725456254856
 20
126.7640945530793
 10
173.6515305291621
 20
126.7640945530793
 10
173.6515305291621
 20
126.7640945530793
 10
173.6515305291621
 20
126.7640945530793
 10
173.5667811243162
 20
126.7851096494029
 10
173.5667811243162
 20
126.7851096494029
 10
173.5667811243162
 20
126.7851096494029
 10
173.5033913255697
 20
126.8064692555022
 10
173.5033913255697
 20
126.8064692555022
 10
173.5033913255697
 20
126.8064692555022
 10
173.4396570170474
 20
126.8064692555022
 10
173.4396570170474
 20
126.8064692555022
 10
173.4396570170474
 20
126.8064692555022
 10
173.4186419207238
 20
126.8274843518258
 10
173.4186419207238
 20
126.8274843518258
 10
173.4186419207238
 20
126.8274843518258
 10
173.3972823146245
 20
126.8274843518258
 10
173.3972823146245
 20
126.8274843518258
 72
     1
 10
173.3972823146245
 20
126.8274843518258
 11
173.3972823146245
 21
126.8274843518258
 97
        0
 75
     0
 76
     1
 98
        0
450
        0
451
        0
460
0.0
461
0.0
452
        0
462
0.0
453
        0
470

  0
HATCH
  5
4842
330
1F
100
AcDbEntity
  8
图层 1
 62
     7
100
AcDbHatch
 10
0.0
 20
0.0
 30
0.0
210
0.0
220
0.0
230
1.0
  2
SOLID
 70
     1
 71
     0
 91
        1
 92
        1
 93
        2
 72
     4
 94
        3
 73
     0
 74
     0
 95
       47
 96
       43
 40
0.0
 40
0.0
 40
0.0
 40
0.0
 40
0.3527780104152769
 40
0.3527780104152769
 40
0.3527780104152769
 40
0.7055560208305538
 40
0.7055560208305538
 40
0.7055560208305538
 40
1.058334031245828
 40
1.058334031245828
 40
1.058334031245828
 40
1.411112041661104
 40
1.411112041661104
 40
1.411112041661104
 40
1.763890052076384
 40
1.763890052076384
 40
1.763890052076384
 40
2.116668062491659
 40
2.116668062491659
 40
2.116668062491659
 40
2.469446072906936
 40
2.469446072906936
 40
2.469446072906936
 40
2.822224083322215
 40
2.822224083322215
 40
2.822224083322215
 40
3.175002093737492
 40
3.175002093737492
 40
3.175002093737492
 40
3.527780104152768
 40
3.527780104152768
 40
3.527780104152768
 40
3.880558114568044
 40
3.880558114568044
 40
3.880558114568044
 40
4.233336124983321
 40
4.233336124983321
 40
4.233336124983321
 40
4.586114135398599
 40
4.586114135398599
 40
4.586114135398599
 40
4.938892145813873
 40
4.938892145813873
 40
4.938892145813873
 40
4.938892145813873
 10
180.1920486226523
 20
255.6479577566324
 10
180.1920486226523
 20
255.6479577566324
 10
180.2130637189759
 20
255.6055830542095
 10
180.2130637189759
 20
255.6055830542095
 10
180.2130637189759
 20
255.6055830542095
 10
180.2130637189759
 20
255.5210059042515
 10
180.2130637189759
 20
255.5210059042515
 10
180.2130637189759
 20
255.5210059042515
 10
180.1920486226523
 20
255.4786312018286
 10
180.1920486226523
 20
255.4786312018286
 10
180.1920486226523
 20
255.4786312018286
 10
180.1496739202294
 20
255.4359119896299
 10
180.1496739202294
 20
255.4359119896299
 10
180.1496739202294
 20
255.4359119896299
 10
180.1283143141301
 20
255.4147246384184
 10
180.1283143141301
 20
255.4147246384184
 10
180.1283143141301
 20
255.4147246384184
 10
180.0225498129606
 20
255.4147246384184
 10
180.0225498129606
 20
255.4147246384184
 10
180.0225498129606
 20
255.4147246384184
 10
179.9591600142141
 20
255.4359119896299
 10
179.9591600142141
 20
255.4359119896299
 10
179.9591600142141
 20
255.4359119896299
 10
179.9167853117912
 20
255.4570993408414
 10
179.9167853117912
 20
255.4570993408414
 10
179.9167853117912
 20
255.4570993408414
 10
179.8957702154676
 20
255.4786312018286
 10
179.8957702154676
 20
255.4786312018286
 10
179.8957702154676
 20
255.4786312018286
 10
179.8744106093683
 20
255.4994740432643
 10
179.8744106093683
 20
255.4994740432643
 10
179.8744106093683
 20
255.4994740432643
 10
179.8744106093683
 20
255.6479577566324
 10
179.8744106093683
 20
255.6479577566324
 10
179.9608825630931
 20
255.7323626517025
 10
180.045631967939
 20
255.7085914771726
 10
180.1496739202294
 20
255.7115198102668
 10
180.1496739202294
 20
255.7115198102668
 10
180.170689016553
 20
255.6688005980681
 10
180.170689016553
 20
255.6688005980681
 10
180.170689016553
 20
255.6688005980681
 10
180.1920486226523
 20
255.6479577566324
 10
180.1920486226523
 20
255.6479577566324
 72
     1
 10
180.1920486226523
 20
255.6479577566324
 11
180.1920486226523
 21
255.6479577566324
 97
        0
 75
     0
 76
     1
 98
        0
450
        0
451
        0
460
0.0
461
0.0
452
        0
462
0.0
453
        0
470

  0
MTEXT
  5
12C4B
102
{ACAD_XDICTIONARY
360
18D07
102
}
330
1F
100
AcDbEntity
  8
打标文字
 62
     3
100
AcDbMText
 10
414.0304513295677
 20
217.8212484004254
 30
0.0
 40
0.75
 41
21.56370451087032
 71
     1
 72
     5
  3
\A1;技术参数:\P- 材料: 铜合金\P- 表面处理: 镀金\P- 额定电流: {\Fromans|c134;9A\P}- 接触电阻: ≤{\Fromans|c134;3mΩ\P}- 线径范围: {\Fromans|c134;0.03-1.0mm\H0.7x;\S2^ ;\H1.4286x;(32-18 AWG)\H0.99998x;\P}- 可插拔次数: ≥{\Fromans|c134;500\P\PTechnical specification:\P- Material: copper a
  1
lloy\P- Surface: hard-gold plated\P- Rated current: 9A}\P{\Fromans|c134;- Contact resistance: }≤{\Fromans|c134;3mΩ\P- Wire gauge: 0.03-1.0mm\H0.7x;\S2^ ;\H1.4286x;(32-18 AWG)\P\H0.99998x;- Mating cycles: }≥{\Fromans|c134;500}
 73
     1
 44
1.0
1001
ACAD
1000
ACAD_MTEXT_DEFINED_HEIGHT_BEGIN
1070
    46
1040
26.95590277395973
1000
ACAD_MTEXT_DEFINED_HEIGHT_END
  0
LINE
  5
12C63
330
1F
100
AcDbEntity
  8
图框
 62
     1
100
AcDbLine
 10
435.5941558404381
 20
233.3235003656423
 30
0.0
 11
435.5941558404381
 21
223.5586222508842
 31
0.0
  0
LINE
  5
13093
330
1F
100
AcDbEntity
  8
图框
 62
     1
370
    18
100
AcDbLine
 10
362.2152431492315
 20
237.0734202942363
 30
0.0
 11
436.4649306331561
 21
237.0734202942363
 31
0.0
1001
AcDbBlockRepETag
1070
     1
1071
      143
1005
13093
  0
MTEXT
  5
13EBA
330
1F
100
AcDbEntity
  8
图框
 62
     3
100
AcDbMText
 10
431.3926068354284
 20
193.9219347709595
 30
0.0
 40
0.746378394635083
 41
8.403098007973925
 71
     5
 72
     5
  1
M23-MC9G-XX
  7
Romans字体
 73
     1
 44
1.0
1001
ACAD
1000
ACAD_MTEXT_DEFINED_HEIGHT_BEGIN
1070
    46
1040
2.17168637897189
1000
ACAD_MTEXT_DEFINED_HEIGHT_END
  0
MTEXT
  5
13EBB
330
1F
100
AcDbEntity
  8
图框
 62
     3
100
AcDbMText
 10
431.3926068354284
 20
191.7270721366755
 30
0.0
 40
0.746378394635083
 41
8.403098007973925
 71
     5
 72
     5
  1
-
  7
Romans字体
 73
     1
 44
1.0
1001
ACAD
1000
ACAD_MTEXT_DEFINED_HEIGHT_BEGIN
1070
    46
1040
2.218038889596384
1000
ACAD_MTEXT_DEFINED_HEIGHT_END
  0
MTEXT
  5
13EBC
330
1F
100
AcDbEntity
  8
图框
 62
     3
100
AcDbMText
 10
414.3791905828015
 20
188.4001633630821
 30
0.0
 40
0.746378394635083
 41
2.707337111777107
 71
     5
 72
     5
  1
4:1 
  7
Romans字体
 73
     1
 44
1.0
1001
ACAD
1000
ACAD_MTEXT_DEFINED_HEIGHT_BEGIN
1070
    46
1040
1.971523652617974
1000
ACAD_MTEXT_DEFINED_HEIGHT_END
  0
MTEXT
  5
13EBD
330
1F
100
AcDbEntity
  8
图框
 62
     3
100
AcDbMText
 10
419.7938648063562
 20
188.4001633630821
 30
0.0
 40
0.746378394635083
 41
2.707337111777531
 71
     5
 72
     5
  1
- 
  7
Romans字体
 73
     1
 44
1.0
1001
ACAD
1000
ACAD_MTEXT_DEFINED_HEIGHT_BEGIN
1070
    46
1040
1.971523652617952
1000
ACAD_MTEXT_DEFINED_HEIGHT_END
  0
INSERT
  5
13EBE
102
{ACAD_XDICTIONARY
360
14D51
102
}
330
1F
100
AcDbEntity
  8
DIM
100
AcDbBlockReference
  2
*U1
 10
153.862029855959
 20
64.43972774266922
 30
0.0
 41
0.2500000002935963
 42
0.2500000002935963
 43
0.2500000002935995
  0
HATCH
  5
18029
330
1F
100
AcDbEntity
  8
hat
100
AcDbHatch
 10
0.0
 20
0.0
 30
0.0
210
0.0
220
0.0
230
1.0
  2
ANSI31
 70
     0
 71
     0
 91
        3
 92
        5
 93
       14
 72
     1
 10
387.2671019134547
 20
212.0346002972982
 11
387.6275396781537
 21
212.0346002972982
 72
     4
 94
        3
 73
     0
 74
     0
 95
        9
 96
        5
 40
1.086138391187599
 40
1.086138391187599
 40
1.086138391187599
 40
1.086138391187599
 40
1.387769497737342
 40
1.784305050606356
 40
1.784305050606356
 40
1.784305050606356
 40
1.784305050606356
 10
387.6275396781536
 20
212.0346002972987
 10
387.5928451578282
 20
212.125987206276
 10
387.5608969518652
 20
212.3362368424569
 10
387.7040221474187
 20
212.5418598291454
 10
387.7790936988445
 20
212.6596002972982
 72
     1
 10
387.7790936988445
 20
212.6596002972982
 11
386.6856808585827
 21
212.6596002972982
 72
     1
 10
386.6856808585827
 20
212.6596002972982
 11
386.2671019134546
 21
211.9346002972984
 72
     1
 10
386.2671019134546
 20
211.9346002972984
 11
382.5639930220611
 21
211.9346002972983
 72
     2
 10
382.5639930220605
 20
211.4346002972984
 40
0.4999999999999547
 50
89.99999999993486
 51
120.0000000038997
 73
     1
 72
     1
 10
382.3139930220311
 20
211.8676129991736
 11
381.8671019134551
 21
211.6096002972985
 72
     1
 10
381.8671019134551
 20
211.6096002972985
 11
380.140306994155
 21
211.6096002972985
 72
     1
 10
380.140306994155
 20
211.6096002972985
 11
379.9671019134553
 21
211.5096002972986
 72
     1
 10
379.9671019134553
 20
211.5096002972986
 11
379.9671019134553
 21
211.4096002972983
 72
     1
 10
379.9671019134553
 20
211.4096002972983
 11
382.2171019134554
 21
211.4096002972983
 72
     1
 10
382.2171019134554
 20
211.4096002972983
 11
382.4671019134553
 21
211.6596002972983
 72
     1
 10
382.4671019134553
 20
211.6596002972983
 11
386.8921019134547
 21
211.6596002972983
 72
     1
 10
386.8921019134547
 20
211.6596002972983
 11
387.2671019134547
 21
212.0346002972982
 97
        0
 92
        5
 93
        8
 72
     4
 94
        3
 73
     0
 74
     0
 95
        9
 96
        5
 40
0.4043006850668942
 40
0.4043006850668942
 40
0.4043006850668942
 40
0.4043006850668942
 40
0.7130611565782729
 40
1.086138391187599
 40
1.086138391187599
 40
1.086138391187599
 40
1.086138391187599
 10
387.7790936988445
 20
212.6596002972982
 10
387.8375477957031
 20
212.751278337766
 10
387.9583061531946
 20
212.9550080383598
 10
387.9163429166126
 20
213.1671875529059
 10
387.8680452642709
 20
213.2846002972937
 72
     1
 10
387.8680452642693
 20
213.2846002972982
 11
387.2671019134547
 21
213.2846002972983
 72
     1
 10
387.2671019134547
 20
213.2846002972983
 11
386.8921019134548
 21
213.6596002972983
 72
     1
 10
386.8921019134548
 20
213.6596002972983
 11
386.2171019134555
 21
213.6596002972983
 72
     1
 10
386.2171019134555
 20
213.6596002972983
 11
386.2171019134553
 21
213.3846002972986
 72
     1
 10
386.2171019134553
 20
213.3846002972986
 11
386.2671019134548
 21
213.3846002972991
 72
     1
 10
386.2671019134548
 20
213.3846002972991
 11
386.6856808585837
 21
212.6596002972982
 72
     1
 10
386.6856808585837
 20
212.6596002972982
 11
387.7790936988444
 21
212.6596002972982
 97
        0
 92
        7
 72
     1
 73
     1
 93
       10
 10
385.7171019134554
 20
213.3846002972986
 42
0.0
 10
385.7171019134554
 20
213.6596002972983
 42
0.0
 10
382.4671019134555
 20
213.6596002972983
 42
0.0
 10
382.2171019134554
 20
213.9096002972983
 42
0.0
 10
379.9671019134553
 20
213.9096002972983
 42
0.0
 10
379.9671019134553
 20
213.8096002972984
 42
0.0
 10
380.1403069941549
 20
213.7096002972984
 42
0.0
 10
381.8671019134555
 20
213.7096002972985
 42
0.0
 10
382.3139930220293
 20
213.4515875954243
 42
0.1316524976050539
 10
382.5639930220593
 20
213.3846002972991
 42
0.0
 97
        0
 75
     0
 76
     1
 52
0.0
 41
2.0
 77
     0
 78
     1
 53
45.0
 43
44.1817014642205
 44
-0.0766583310576152
 45
-0.1767766952966369
 46
0.1767766952966369
 79
     0
 47
0.0117022552403955
 98
        3
 10
387.1730237419149
 20
212.3341569766116
 10
387.1583727804988
 20
212.8904214237313
 10
385.0633045842503
 20
213.4979206579286
1001
ACAD
1010
0.0
1020
0.0
1030
0.0
  0
LINE
  5
1802A
330
1F
100
AcDbEntity
  8
0
100
AcDbLine
 10
379.9671019134553
 20
211.4096002972983
 30
0.0
 11
379.9671019134553
 21
213.9096002972983
 31
0.0
  0
LINE
  5
1802B
330
1F
100
AcDbEntity
  8
0
100
AcDbLine
 10
380.140306994155
 20
211.6096002972985
 30
0.0
 11
380.140306994155
 21
213.7096002972985
 31
0.0
  0
LINE
  5
1802C
330
1F
100
AcDbEntity
  8
0
100
AcDbLine
 10
381.8671019134551
 20
211.6096002972985
 30
0.0
 11
381.8671019134551
 21
213.7096002972985
 31
0.0
  0
LINE
  5
1802D
330
1F
100
AcDbEntity
  8
0
100
AcDbLine
 10
382.3139930220247
 20
213.451587595427
 30
0.0
 11
382.3139930220256
 21
211.8676129991694
 31
0.0
  0
LINE
  5
1802E
330
1F
100
AcDbEntity
  8
0
100
AcDbLine
 10
382.5639930220593
 20
213.3846002972991
 30
0.0
 11
382.5639930220593
 21
211.9346002972983
 31
0.0
  0
LINE
  5
1802F
330
1F
100
AcDbEntity
  8
0
100
AcDbLine
 10
382.4671019134555
 20
211.6596002972983
 30
0.0
 11
382.2171019134554
 21
211.4096002972983
 31
0.0
  0
LINE
  5
18030
330
1F
100
AcDbEntity
  8
0
100
AcDbLine
 10
382.4671019134555
 20
213.6596002972983
 30
0.0
 11
382.2171019134554
 21
213.9096002972983
 31
0.0
  0
LINE
  5
18031
330
1F
100
AcDbEntity
  8
0
100
AcDbLine
 10
385.7171019134554
 20
213.3846002972991
 30
0.0
 11
385.7171019134554
 21
213.6596002972983
 31
0.0
  0
LINE
  5
18032
330
1F
100
AcDbEntity
  8
0
100
AcDbLine
 10
386.2171019134553
 20
213.3846002972991
 30
0.0
 11
386.2171019134553
 21
213.6596002972983
 31
0.0
  0
LINE
  5
18033
330
1F
100
AcDbEntity
  8
0
100
AcDbLine
 10
386.2671019134547
 20
211.9346002972983
 30
0.0
 11
386.2671019134547
 21
213.3846002972991
 31
0.0
  0
LINE
  5
18034
330
1F
100
AcDbEntity
  8
0
100
AcDbLine
 10
380.140306994155
 20
211.6096002972985
 30
0.0
 11
379.9671019134553
 21
211.5096002972986
 31
0.0
  0
LINE
  5
18035
330
1F
100
AcDbEntity
  8
0
100
AcDbLine
 10
380.140306994155
 20
213.7096002972985
 30
0.0
 11
379.9671019134553
 21
213.8096002972984
 31
0.0
  0
LINE
  5
18036
330
1F
100
AcDbEntity
  8
0
100
AcDbLine
 10
386.6856808585832
 20
212.6596002972992
 30
0.0
 11
386.2671019134538
 21
211.934600297297
 31
0.0
  0
LINE
  5
18037
330
1F
100
AcDbEntity
  8
0
100
AcDbLine
 10
382.3139930220311
 20
211.8676129991736
 30
0.0
 11
381.8671019134551
 21
211.6096002972985
 31
0.0
  0
LINE
  5
18038
330
1F
100
AcDbEntity
  8
0
100
AcDbLine
 10
382.3139930220293
 20
213.4515875954243
 30
0.0
 11
381.8685889413833
 21
213.7087417613238
 31
0.0
  0
LINE
  5
18039
330
1F
100
AcDbEntity
  8
0
100
AcDbLine
 10
386.6856808585832
 20
212.6596002972992
 30
0.0
 11
386.2671019134547
 21
213.3846002972991
 31
0.0
  0
LINE
  5
1803A
330
1F
100
AcDbEntity
  8
0
100
AcDbLine
 10
387.2671019134547
 20
212.0346002972982
 30
0.0
 11
386.8921019134547
 21
211.6596002972983
 31
0.0
  0
LINE
  5
1803B
330
1F
100
AcDbEntity
  8
0
100
AcDbLine
 10
387.2671019134547
 20
213.2846002972982
 30
0.0
 11
386.8921019134547
 21
213.6596002972983
 31
0.0
  0
LINE
  5
1803C
330
1F
100
AcDbEntity
  8
0
100
AcDbLine
 10
382.2171019134554
 20
211.4096002972983
 30
0.0
 11
379.9671019134553
 21
211.4096002972983
 31
0.0
  0
LINE
  5
1803D
330
1F
100
AcDbEntity
  8
0
100
AcDbLine
 10
381.8671019134551
 20
211.6096002972985
 30
0.0
 11
380.140306994155
 21
211.6096002972985
 31
0.0
  0
LINE
  5
1803E
330
1F
100
AcDbEntity
  8
0
100
AcDbLine
 10
386.8921019134547
 20
211.6596002972983
 30
0.0
 11
382.4671019134555
 21
211.6596002972983
 31
0.0
  0
LINE
  5
1803F
330
1F
100
AcDbEntity
  8
0
100
AcDbLine
 10
386.2671019134547
 20
211.9346002972983
 30
0.0
 11
382.5639930220611
 21
211.9346002972983
 31
0.0
  0
ARC
  5
18040
330
1F
100
AcDbEntity
  8
0
100
AcDbCircle
 10
382.5639930220611
 20
211.4346002972983
 30
0.0
 40
0.5
100
AcDbArc
 50
90.0
 51
120.0000000039073
  0
LINE
  5
18041
330
1F
100
AcDbEntity
  8
0
100
AcDbLine
 10
388.2671019134548
 20
212.0346002972982
 30
0.0
 11
387.2671019134547
 21
212.0346002972982
 31
0.0
  0
LINE
  5
18042
330
1F
100
AcDbEntity
  8
0
100
AcDbLine
 10
388.2671019134548
 20
213.2846002972982
 30
0.0
 11
387.2671019134547
 21
213.2846002972982
 31
0.0
  0
LINE
  5
18043
330
1F
100
AcDbEntity
  8
0
100
AcDbLine
 10
386.2671019134547
 20
213.3846002972991
 30
0.0
 11
386.2171019134553
 21
213.3846002972986
 31
0.0
  0
LINE
  5
18044
330
1F
100
AcDbEntity
  8
0
100
AcDbLine
 10
385.7171019134554
 20
213.3846002972986
 30
0.0
 11
382.5639930220593
 21
213.3846002972991
 31
0.0
  0
ARC
  5
18045
330
1F
100
AcDbEntity
  8
0
100
AcDbCircle
 10
382.5639930220593
 20
213.8846002972991
 30
0.0
 40
0.5
100
AcDbArc
 50
239.9999999960329
 51
270.0
  0
LINE
  5
18046
330
1F
100
AcDbEntity
  8
0
100
AcDbLine
 10
386.8921019134547
 20
213.6596002972983
 30
0.0
 11
386.2171019134553
 21
213.6596002972983
 31
0.0
  0
LINE
  5
18047
330
1F
100
AcDbEntity
  8
0
100
AcDbLine
 10
385.7171019134554
 20
213.6596002972983
 30
0.0
 11
382.4671019134555
 21
213.6596002972983
 31
0.0
  0
LINE
  5
18048
330
1F
100
AcDbEntity
  8
0
100
AcDbLine
 10
381.8671019134551
 20
213.7096002972985
 30
0.0
 11
380.140306994155
 21
213.7096002972985
 31
0.0
  0
LINE
  5
18049
330
1F
100
AcDbEntity
  8
0
100
AcDbLine
 10
382.2171019134554
 20
213.9096002972983
 30
0.0
 11
379.9671019134553
 21
213.9096002972983
 31
0.0
  0
SPLINE
  5
1804A
330
1F
100
AcDbEntity
  8
0
100
AcDbSpline
210
0.0
220
0.0
230
1.0
 70
     8
 71
     3
 72
     9
 73
     5
 74
     0
 42
0.0000000001
 43
0.0000000001
 40
0.0
 40
0.0
 40
0.0
 40
0.0
 40
0.7031928901000001
 40
1.0
 40
1.0
 40
1.0
 40
1.0
 10
385.9671019134554
 20
213.6278461338983
 30
0.0
 10
386.0262633056552
 20
213.6278461338983
 30
0.0
 10
386.110572700855
 20
213.6357701102983
 30
0.0
 10
386.1929170531555
 20
213.6535200266985
 30
0.0
 10
386.2171019134553
 20
213.6596002972983
 30
0.0
  0
SPLINE
  5
1804B
330
1F
100
AcDbEntity
  8
0
100
AcDbSpline
210
0.0
220
0.0
230
1.0
 70
     8
 71
     3
 72
     9
 73
     5
 74
     0
 42
0.0000000001
 43
0.0000000001
 40
0.0
 40
0.0
 40
0.0
 40
0.0
 40
0.2967761299
 40
1.0
 40
1.0
 40
1.0
 40
1.0
 10
385.7171019134554
 20
213.6596002972983
 30
0.0
 10
385.7412841891552
 20
213.6535203200983
 30
0.0
 10
385.8236283653549
 20
213.6357696506983
 30
0.0
 10
385.9079379058555
 20
213.6278461338983
 30
0.0
 10
385.9671019134554
 20
213.6278461338983
 30
0.0
  0
SPLINE
  5
1804C
330
1F
100
AcDbEntity
  8
0
100
AcDbSpline
210
0.0
220
0.0
230
1.0
 70
     8
 71
     3
 72
     9
 73
     5
 74
     0
 42
0.0000000001
 43
0.0000000001
 40
0.0
 40
0.0
 40
0.0
 40
0.0
 40
0.3007860895
 40
1.0
 40
1.0
 40
1.0
 40
1.0
 10
386.2171019134553
 20
213.3846002972986
 30
0.0
 10
386.1931412981555
 20
213.3759537366986
 30
0.0
 10
386.1117715391555
 20
213.3506144761986
 30
0.0
 10
386.0265320734549
 20
213.3384351387985
 30
0.0
 10
385.9671019134554
 20
213.3384351387985
 30
0.0
  0
SPLINE
  5
1804D
330
1F
100
AcDbEntity
  8
0
100
AcDbSpline
210
0.0
220
0.0
230
1.0
 70
     8
 71
     3
 72
     9
 73
     5
 74
     0
 42
0.0000000001
 43
0.0000000001
 40
0.0
 40
0.0
 40
0.0
 40
0.0
 40
0.6992338701000002
 40
1.0
 40
1.0
 40
1.0
 40
1.0
 10
385.9671019134554
 20
213.3384351387985
 30
0.0
 10
385.9076700840548
 20
213.3384351387985
 30
0.0
 10
385.8224307816551
 20
213.3506155940986
 30
0.0
 10
385.7410610185548
 20
213.3759546417986
 30
0.0
 10
385.7171019134554
 20
213.3846002972986
 30
0.0
  0
LINE
  5
1804E
330
1F
100
AcDbEntity
  8
CEN
 48
2.0
100
AcDbLine
 10
402.0102376595548
 20
212.6596002972982
 30
0.0
 11
379.5513398197333
 21
212.6596002972982
 31
0.0
  0
LINE
  5
1804F
330
1F
100
AcDbEntity
  8
CEN
 48
0.03
100
AcDbLine
 10
385.9671019134554
 20
213.2462935352513
 30
0.0
 11
385.9671019134554
 21
213.8572903312474
 31
0.0
  0
LINE
  5
18050
330
1F
100
AcDbEntity
  8
0
100
AcDbLine
 10
388.2671019134548
 20
212.0346002972982
 30
0.0
 11
388.2671019134548
 21
213.2846002972982
 31
0.0
  0
LINE
  5
18051
330
1F
100
AcDbEntity
  8
0
100
AcDbLine
 10
393.0671019134549
 20
211.6596002972983
 30
0.0
 11
388.6421019134547
 21
211.6596002972983
 31
0.0
  0
LINE
  5
18052
330
1F
100
AcDbEntity
  8
0
100
AcDbLine
 10
388.6421019134547
 20
211.6596002972983
 30
0.0
 11
393.0671019134549
 21
211.6596002972983
 31
0.0
  0
LINE
  5
18053
330
1F
100
AcDbEntity
  8
0
100
AcDbLine
 10
394.7671019134546
 20
212.0596002972979
 30
0.0
 11
393.4671019134555
 21
212.0596002972979
 31
0.0
  0
LINE
  5
18054
330
1F
100
AcDbEntity
  8
0
100
AcDbLine
 10
393.4671019134555
 20
212.0596002972979
 30
0.0
 11
394.7671019134546
 21
212.0596002972979
 31
0.0
  0
LINE
  5
18055
330
1F
100
AcDbEntity
  8
0
100
AcDbLine
 10
400.5340892115551
 20
212.1596002972983
 30
0.0
 11
394.8671019134551
 21
212.1596002972983
 31
0.0
  0
LINE
  5
18056
330
1F
100
AcDbEntity
  8
0
100
AcDbLine
 10
400.5340892115551
 20
213.1596002972983
 30
0.0
 11
394.8671019134551
 21
213.1596002972983
 31
0.0
  0
LINE
  5
18057
330
1F
100
AcDbEntity
  8
0
100
AcDbLine
 10
394.7671019134546
 20
213.2596002972982
 30
0.0
 11
393.4671019134555
 21
213.2596002972982
 31
0.0
  0
LINE
  5
18058
330
1F
100
AcDbEntity
  8
0
100
AcDbLine
 10
393.4671019134555
 20
213.2596002972982
 30
0.0
 11
394.7671019134546
 21
213.2596002972982
 31
0.0
  0
LINE
  5
18059
330
1F
100
AcDbEntity
  8
0
100
AcDbLine
 10
388.6421019134547
 20
213.6596002972983
 30
0.0
 11
393.0671019134549
 21
213.6596002972983
 31
0.0
  0
LINE
  5
1805A
330
1F
100
AcDbEntity
  8
0
100
AcDbLine
 10
393.0671019134549
 20
213.6596002972983
 30
0.0
 11
393.0671019134549
 21
211.6596002972983
 31
0.0
  0
LINE
  5
1805B
330
1F
100
AcDbEntity
  8
0
100
AcDbLine
 10
393.4671019134555
 20
213.2596002972982
 30
0.0
 11
393.4671019134555
 21
212.0596002972979
 31
0.0
  0
LINE
  5
1805C
330
1F
100
AcDbEntity
  8
0
100
AcDbLine
 10
394.8671019134551
 20
212.1596002972983
 30
0.0
 11
394.7671019134546
 21
212.0596002972979
 31
0.0
  0
LINE
  5
1805D
330
1F
100
AcDbEntity
  8
0
100
AcDbLine
 10
394.7671019134546
 20
213.2596002972982
 30
0.0
 11
394.8671019134551
 21
213.1596002972983
 31
0.0
  0
LINE
  5
1805E
330
1F
100
AcDbEntity
  8
0
100
AcDbLine
 10
394.7671019134546
 20
212.0596002972979
 30
0.0
 11
394.7671019134546
 21
213.2596002972982
 31
0.0
  0
LINE
  5
1805F
330
1F
100
AcDbEntity
  8
0
100
AcDbLine
 10
394.8671019134551
 20
212.1596002972983
 30
0.0
 11
394.8671019134551
 21
213.1596002972983
 31
0.0
  0
LINE
  5
18060
330
1F
100
AcDbEntity
  8
0
100
AcDbLine
 10
400.5340892115551
 20
212.1596002972983
 30
0.0
 11
400.5340892115551
 21
213.1596002972983
 31
0.0
  0
LINE
  5
18061
330
1F
100
AcDbEntity
  8
0
100
AcDbLine
 10
400.9671019134552
 20
212.4096002972982
 30
0.0
 11
400.9671019134552
 21
212.9096002972982
 31
0.0
  0
ARC
  5
18062
330
1F
100
AcDbEntity
  8
0
100
AcDbCircle
 10
393.0671019134549
 20
212.0596002972979
 30
0.0
 40
0.4
100
AcDbArc
 50
270.0
 51
0.0
  0
ARC
  5
18063
330
1F
100
AcDbEntity
  8
0
100
AcDbCircle
 10
393.0671019134549
 20
213.2596002972982
 30
0.0
 40
0.4
100
AcDbArc
 50
0.0
 51
90.0
  0
ARC
  5
18064
330
1F
100
AcDbEntity
  8
0
100
AcDbCircle
 10
400.5340892115551
 20
212.6596002972982
 30
0.0
 40
0.5
100
AcDbArc
 50
30.00000000000922
 51
90.0
  0
ARC
  5
18065
330
1F
100
AcDbEntity
  8
0
100
AcDbCircle
 10
400.5340892115551
 20
212.6596002972982
 30
0.0
 40
0.5
100
AcDbArc
 50
270.0
 51
329.9999999999908
  0
DIMENSION
  5
18066
330
1F
100
AcDbEntity
  8
DIM
100
AcDbDimension
  2
*D3
 10
398.6346463908294
 20
212.1596002972983
 30
0.0
 11
398.6346463908293
 21
207.6667431544412
 31
0.0
 70
   160
  1
%%C<>
 71
     5
 42
-1.0
  3
01
100
AcDbAlignedDimension
 13
397.4723446453706
 23
213.1596002972983
 33
0.0
 14
397.4723446453706
 24
212.1596002972983
 34
0.0
 50
90.0
100
AcDbRotatedDimension
1001
ACAD_DSTYLE_DIMINSPECT
1070
   394
1070
     4
1070
   393
1070
     1
1001
ACAD
1000
DSTYLE
1002
{
1070
    49
1040
0.18
1070
    50
1040
1.570796326794893
1002
}
  0
LINE
  5
18067
330
1F
100
AcDbEntity
  8
0
100
AcDbLine
 10
388.6421019134547
 20
211.6596002972983
 30
0.0
 11
388.6421019134547
 21
213.6596002972983
 31
0.0
  0
LINE
  5
18068
330
1F
100
AcDbEntity
  8
0
100
AcDbLine
 10
388.2671019134548
 20
212.0346002972982
 30
0.0
 11
388.6421019134547
 21
211.6596002972983
 31
0.0
  0
LINE
  5
18069
330
1F
100
AcDbEntity
  8
0
100
AcDbLine
 10
388.6421019134547
 20
213.6596002972983
 30
0.0
 11
388.2671019134548
 21
213.2846002972982
 31
0.0
  0
SPLINE
  5
1806A
330
1F
100
AcDbEntity
  8
DIM
100
AcDbSpline
210
0.0
220
0.0
230
1.0
 70
     8
 71
     3
 72
    10
 73
     6
 74
     0
 42
0.0000000001
 43
0.0000000001
 40
0.4043006850668942
 40
0.4043006850668942
 40
0.4043006850668942
 40
0.4043006850668942
 40
0.7773779196762212
 40
1.482673944056613
 40
1.784305050606356
 40
1.784305050606356
 40
1.784305050606356
 40
1.784305050606356
 10
387.8680452642709
 20
213.2846002972937
 30
0.0
 10
387.9163429166126
 20
213.1671875529059
 30
0.0
 10
387.9827106633426
 20
212.8316110476202
 30
0.0
 10
387.5467680286289
 20
212.4292186196967
 30
0.0
 10
387.5928451578282
 20
212.125987206276
 30
0.0
 10
387.6275396781536
 20
212.0346002972987
 30
0.0
  0
DIMENSION
  5
1806B
330
1F
100
AcDbEntity
  8
DIM
100
AcDbDimension
  2
*D4
 10
384.0678639467376
 20
211.9346002972983
 30
0.0
 11
384.0678639467375
 21
207.2631717258698
 31
0.0
 70
   160
  1
%%Cb
 71
     5
 42
1.449999999999761
  3
01
100
AcDbAlignedDimension
 13
382.5639930220593
 23
213.3846002972981
 33
0.0
 14
382.5639930220583
 24
211.9346002972983
 34
0.0
 50
90.0
100
AcDbRotatedDimension
1001
ACAD_DSTYLE_DIMINSPECT
1070
   394
1070
     4
1070
   393
1070
     1
1001
ACAD
1000
DSTYLE
1002
{
1070
    49
1040
0.18
1070
    50
1040
1.570796326794893
1002
}
  0
DIMENSION
  5
1806C
330
1F
100
AcDbEntity
  8
DIM
100
AcDbDimension
  2
*D5
 10
400.9671019134552
 20
203.0334199287893
 30
0.0
 11
390.4671019134553
 21
203.0334199287893
 31
0.0
 70
   160
 71
     5
 42
20.99999999999994
  3
01
100
AcDbAlignedDimension
 13
379.9671019134553
 23
211.4096002972978
 33
0.0
 14
400.9671019134552
 24
212.4096002972982
 34
0.0
100
AcDbRotatedDimension
1001
ACAD
1000
DSTYLE
1002
{
1070
    49
1040
0.18
1070
    50
1040
1.570796326794893
1002
}
  0
DIMENSION
  5
1806D
330
1F
100
AcDbEntity
  8
DIM
100
AcDbDimension
  2
*D6
 10
378.8291718995338
 20
211.6096002972981
 30
0.0
 11
378.8291718995338
 21
206.9738860115839
 31
0.0
 70
   160
  1
%%Ca
 71
     5
 42
2.099999999999909
  3
01
100
AcDbAlignedDimension
 13
380.140306994155
 23
213.709600297298
 33
0.0
 14
380.140306994155
 24
211.6096002972981
 34
0.0
 50
90.0
100
AcDbRotatedDimension
1001
ACAD
1000
DSTYLE
1002
{
1070
    49
1040
0.18
1070
    50
1040
1.570796326794893
1002
}
  0
DIMENSION
  5
1806E
330
1F
100
AcDbEntity
  8
DIM
100
AcDbDimension
  2
*D7
 10
374.1029253889392
 20
211.4096002972978
 30
0.0
 11
372.8529253889391
 21
206.8221002972979
 31
0.0
 70
    32
  1
%%C<>
 71
     5
 42
2.50000000000048
  3
01
100
AcDbAlignedDimension
 13
379.9671019134553
 23
213.9096002972983
 33
0.0
 14
379.9671019134553
 24
211.4096002972978
 34
0.0
 50
90.0
100
AcDbRotatedDimension
  0
LINE
  5
181CE
330
1F
100
AcDbEntity
  8
粗实线
  6
Continuous
 62
     7
100
AcDbLine
 10
369.8580801159175
 20
190.7454488060647
 30
0.0
 11
368.4594576873175
 21
190.0591046061653
 31
0.0
  0
LINE
  5
181CF
330
1F
100
AcDbEntity
  8
粗实线
  6
Continuous
 62
     7
100
AcDbLine
 10
376.712683948918
 20
193.8307201456654
 30
0.0
 11
373.9620598393182
 21
192.4809098857648
 31
0.0
  0
LINE
  5
181D0
330
1F
100
AcDbEntity
  8
粗实线
  6
Continuous
 62
     7
100
AcDbLine
 10
372.8742423948177
 20
191.9470866191648
 30
0.0
 11
372.4235751678176
 21
191.7259312658649
 31
0.0
  0
LINE
  5
181D1
330
1F
100
AcDbEntity
  8
粗实线
  6
Continuous
 62
     7
100
AcDbLine
 10
372.4234898045194
 20
191.7258809844651
 30
0.0
 11
370.0045846391601
 21
190.5496005043049
 31
0.0
  0
LINE
  5
181D2
330
1F
100
AcDbEntity
  8
粗实线
  6
Continuous
 62
     7
100
AcDbLine
 10
373.6249869737181
 20
191.8977790679654
 30
0.0
 11
373.272549648818
 21
191.7248279491649
 31
0.0
  0
LINE
  5
181D3
330
1F
100
AcDbEntity
  8
粗实线
  6
Continuous
 62
     7
100
AcDbLine
 10
377.9456379785175
 20
193.9901986575648
 30
0.0
 11
377.1375450198179
 21
193.5936442308646
 31
0.0
  0
LINE
  5
181D4
330
1F
100
AcDbEntity
  8
粗实线
  6
Continuous
 62
     7
100
AcDbLine
 10
381.5745090408187
 20
195.659598062465
 30
0.0
 11
378.051853246318
 21
193.930929678865
 31
0.0
  0
LINE
  5
181D5
330
1F
100
AcDbEntity
  8
粗实线
  6
Continuous
 62
     7
100
AcDbLine
 10
382.0150517497174
 20
194.7618664089649
 30
0.0
 11
378.4923959552185
 21
193.0331980253648
 31
0.0
  0
LINE
  5
181D6
330
1F
100
AcDbEntity
  8
粗实线
  6
Continuous
 62
     7
100
AcDbLine
 10
378.4742892292185
 20
192.9129206733649
 30
0.0
 11
377.6661962705181
 21
192.5163662467646
 31
0.0
  0
LINE
  5
181D7
330
1F
100
AcDbEntity
  8
粗实线
  6
Continuous
 62
     7
100
AcDbLine
 10
374.1764674513185
 20
190.776008110365
 30
0.0
 11
373.8232280349182
 21
190.6026633822646
 31
0.0
  0
LINE
  5
181D8
330
1F
100
AcDbEntity
  8
粗实线
  6
Continuous
 62
     7
100
AcDbLine
 10
373.2107094440504
 20
189.8951008092852
 30
0.0
 11
370.8856700569382
 21
188.7541371974156
 31
0.0
  0
LINE
  5
181D9
330
1F
100
AcDbEntity
  8
粗实线
  6
Continuous
 62
     7
100
AcDbLine
 10
377.593769366718
 20
192.0352568387651
 30
0.0
 11
374.8431452571182
 21
190.6854465788654
 31
0.0
  0
LINE
  5
181DA
330
1F
100
AcDbEntity
  8
粗实线
  6
Continuous
 62
     7
100
AcDbLine
 10
373.7553278127185
 20
190.1516233122655
 30
0.0
 11
373.2107094440504
 21
189.8951008092852
 31
0.0
  0
LINE
  5
181DB
330
1F
100
AcDbEntity
  8
粗实线
  6
Continuous
 62
     7
100
AcDbLine
 10
370.9594368882177
 20
188.5011196723652
 30
0.0
 11
369.5608144596179
 21
187.8147754724649
 31
0.0
  0
ARC
  5
181DC
330
1F
100
AcDbEntity
  8
粗实线
  6
Continuous
 62
     7
100
AcDbCircle
 10
381.7947738994178
 20
195.2107308629655
 30
0.0
 40
0.5000029540000001
100
AcDbArc
 50
296.1392507671144
 51
116.1367971926297
  0
SPLINE
  5
181DD
330
1F
100
AcDbEntity
  8
粗实线
  6
Continuous
 62
     7
100
AcDbSpline
210
0.0
220
0.0
230
1.0
 70
     8
 71
     3
 72
    20
 73
    16
 74
     0
 42
0.0000000001
 43
0.0000000001
 40
0.0
 40
0.0
 40
0.0
 40
0.0
 40
0.1207724788
 40
0.185701524
 40
0.2530021502
 40
0.3917304728
 40
0.4617844433000001
 40
0.5311000413000003
 40
0.5988858759000001
 40
0.6644512191000001
 40
0.7867095491000004
 40
0.8434259636
 40
0.8973923385999999
 40
0.9492644348999995
 40
1.0
 40
1.0
 40
1.0
 40
1.0
 10
374.4026025482186
 20
190.6621172383655
 30
0.0
 10
374.3154619078183
 20
190.6890457329653
 30
0.0
 10
374.1882922504179
 20
190.7547164802652
 30
0.0
 10
374.0394670275179
 20
190.8749461309652
 30
0.0
 10
373.8976049167182
 20
191.0231150733651
 30
0.0
 10
373.7816756335184
 20
191.1990983792646
 30
0.0
 10
373.6972556952175
 20
191.3917636195654
 30
0.0
 10
373.6512233036179
 20
191.5416635237651
 30
0.0
 10
373.6239403549177
 20
191.6927045218652
 30
0.0
 10
373.6136987937177
 20
191.8857434783648
 30
0.0
 10
373.6408620334174
 20
192.0718031223649
 30
0.0
 10
373.7094318014174
 20
192.2346792978649
 30
0.0
 10
373.7774431195181
 20
192.3378328347651
 30
0.0
 10
373.8616855406186
 20
192.4219922826649
 30
0.0
 10
373.9276689481181
 20
192.464018536665
 30
0.0
 10
373.962065476118
 20
192.4808983994651
 30
0.0
  0
SPLINE
  5
181DE
330
1F
100
AcDbEntity
  8
粗实线
  6
Continuous
 62
     7
100
AcDbSpline
210
0.0
220
0.0
230
1.0
 70
     8
 71
     3
 72
     9
 73
     5
 74
     0
 42
0.0000000001
 43
0.0000000001
 40
0.0
 40
0.0
 40
0.0
 40
0.0
 40
0.2481157629
 40
1.0
 40
1.0
 40
1.0
 40
1.0
 10
377.2713256007178
 20
193.8677934280648
 30
0.0
 10
377.2902219175182
 20
193.8619540246653
 30
0.0
 10
377.3655531390184
 20
193.835785314165
 30
0.0
 10
377.4372722984177
 20
193.7994735531655
 30
0.0
 10
377.4880653836177
 20
193.7676577875653
 30
0.0
  0
SPLINE
  5
181DF
330
1F
100
AcDbEntity
  8
粗实线
  6
Continuous
 62
     7
100
AcDbSpline
210
0.0
220
0.0
230
1.0
 70
     8
 71
     3
 72
    13
 73
     9
 74
     0
 42
0.0000000001
 43
0.0000000001
 40
0.0
 40
0.0
 40
0.0
 40
0.0
 40
0.2541000396
 40
0.5040999442000002
 40
0.6284464009000002
 40
0.7524414509000003
 40
0.8761881531999996
 40
1.0
 40
1.0
 40
1.0
 40
1.0
 10
378.0182004798177
 20
192.6861596812649
 30
0.0
 10
378.0113618726178
 20
192.617830060365
 30
0.0
 10
377.9835837368179
 20
192.4831727031649
 30
0.0
 10
377.9107295857182
 20
192.3277074123651
 30
0.0
 10
377.8309132063173
 20
192.2188024687646
 30
0.0
 10
377.7610006580186
 20
192.1460774036648
 30
0.0
 10
377.6818634944181
 20
192.0837720426651
 30
0.0
 10
377.6238077988179
 20
192.049997560165
 30
0.0
 10
377.593769366718
 20
192.0352568387651
 30
0.0
  0
SPLINE
  5
181E0
330
1F
100
AcDbEntity
  8
粗实线
  6
Continuous
 62
     7
100
AcDbSpline
210
0.0
220
0.0
230
1.0
 70
     8
 71
     3
 72
    21
 73
    17
 74
     0
 42
0.0000000001
 43
0.0000000001
 40
0.0
 40
0.0
 40
0.0
 40
0.0
 40
0.1207275155
 40
0.1856329507
 40
0.252911441
 40
0.3219000797
 40
0.3918248667
 40
0.5309123054000004
 40
0.5986735030000001
 40
0.6642181515
 40
0.7270206169
 40
0.7867798983
 40
0.8434792651
 40
0.8974288320999999
 40
0.9492825969
 40
1.0
 40
1.0
 40
1.0
 40
1.0
 10
369.0101360735176
 20
187.7856137967654
 30
0.0
 10
368.9012176855182
 20
187.8192721243648
 30
0.0
 10
368.7422558889182
 20
187.9013590511648
 30
0.0
 10
368.5562596501183
 20
188.0516205214652
 30
0.0
 10
368.4244756997183
 20
188.189221866265
 30
0.0
 10
368.3074470373182
 20
188.3454045690649
 30
0.0
 10
368.1751331719175
 20
188.5726131739646
 30
0.0
 10
368.0826645546182
 20
188.8200715383653
 30
0.0
 10
368.0368276711184
 20
189.0736838343654
 30
0.0
 10
368.0269886386183
 20
189.2591550683654
 30
0.0
 10
368.0417695144175
 20
189.4367589381653
 30
0.0
 10
368.0809107434185
 20
189.6021623849654
 30
0.0
 10
368.1436164821176
 20
189.751241601365
 30
0.0
 10
368.2286123724176
 20
189.8801728407651
 30
0.0
 10
368.3339084118185
 20
189.985372296165
 30
0.0
 10
368.4163586425182
 20
190.0379410024651
 30
0.0
 10
368.459350983118
 20
190.0590417543652
 30
0.0
  0
SPLINE
  5
181E1
330
1F
100
AcDbEntity
  8
粗实线
  6
Continuous
 62
     7
100
AcDbSpline
210
0.0
220
0.0
230
1.0
 70
     8
 71
     3
 72
     9
 73
     5
 74
     0
 42
0.0000000001
 43
0.0000000001
 40
0.2879964095491311
 40
0.2879964095491311
 40
0.2879964095491311
 40
0.2879964095491311
 40
0.4208794292000002
 40
0.4536755298560379
 40
0.4536755298560379
 40
0.4536755298560379
 40
0.4536755298560379
 10
372.09095970283
 20
190.9192159951955
 30
0.0
 10
372.0990570536384
 20
190.9767028686477
 30
0.0
 10
372.0994692196242
 20
191.0489259459853
 30
0.0
 10
372.0893947919009
 20
191.1104506541722
 30
0.0
 10
372.0865483304184
 20
191.121469954365
 30
0.0
  0
SPLINE
  5
181E2
330
1F
100
AcDbEntity
  8
粗实线
  6
Continuous
 62
     7
100
AcDbSpline
210
0.0
220
0.0
230
1.0
 70
     8
 71
     3
 72
    11
 73
     7
 74
     0
 42
0.0000000001
 43
0.0000000001
 40
0.0
 40
0.0
 40
0.0
 40
0.0
 40
0.2642884224
 40
0.5171229717000001
 40
0.7609349692000002
 40
1.0
 40
1.0
 40
1.0
 40
1.0
 10
374.4026025482186
 20
190.6621172383655
 30
0.0
 10
374.4405913999186
 20
190.6503777952647
 30
0.0
 10
374.5169072610175
 20
190.6332017828652
 30
0.0
 10
374.6319061005185
 20
190.6279798017648
 30
0.0
 10
374.7420899690175
 20
190.6443418966654
 30
0.0
 10
374.8108514513175
 20
190.6696128652655
 30
0.0
 10
374.8431396204184
 20
190.6854580651651
 30
0.0
  0
SPLINE
  5
181E3
330
1F
100
AcDbEntity
  8
粗实线
  6
Continuous
 62
     7
100
AcDbSpline
210
0.0
220
0.0
230
1.0
 70
     8
 71
     3
 72
    11
 73
     7
 74
     0
 42
0.0000000001
 43
0.0000000001
 40
0.0
 40
0.0
 40
0.0
 40
0.0
 40
0.2643297186
 40
0.5171181535000004
 40
0.7609188111
 40
1.0
 40
1.0
 40
1.0
 40
1.0
 10
369.0101360735176
 20
187.7856137967654
 30
0.0
 10
369.0576400197175
 20
187.7709339670653
 30
0.0
 10
369.1530537828181
 20
187.7494488763649
 30
0.0
 10
369.2968328928178
 20
187.7429494692649
 30
0.0
 10
369.4345834317179
 20
187.763415217765
 30
0.0
 10
369.5205502815176
 20
187.7950241907655
 30
0.0
 10
369.5609211638181
 20
187.8148383241649
 30
0.0
  0
SPLINE
  5
181E4
330
1F
100
AcDbEntity
  8
粗实线
  6
Continuous
 62
     7
100
AcDbSpline
210
0.0
220
0.0
230
1.0
 70
     8
 71
     3
 72
    11
 73
     7
 74
     0
 42
0.0000000001
 43
0.0000000001
 40
0.0
 40
0.0
 40
0.0
 40
0.0
 40
0.2489080944
 40
0.4980276825
 40
0.7481419625
 40
1.0
 40
1.0
 40
1.0
 40
1.0
 10
376.712683948918
 20
193.8307201456654
 30
0.0
 10
376.7553424606183
 20
193.8516539026648
 30
0.0
 10
376.8451639200181
 20
193.8850539420653
 30
0.0
 10
376.9870996056186
 20
193.9075011852654
 30
0.0
 10
377.1312188796179
 20
193.9026344586653
 30
0.0
 10
377.2253877503177
 20
193.8819892971649
 30
0.0
 10
377.2713256007178
 20
193.8677934280648
 30
0.0
  0
SPLINE
  5
181E5
330
1F
100
AcDbEntity
  8
粗实线
  6
Continuous
 62
     7
100
AcDbSpline
210
0.0
220
0.0
230
1.0
 70
     8
 71
     3
 72
    11
 73
     7
 74
     0
 42
0.0000000001
 43
0.0000000001
 40
0.0
 40
0.0
 40
0.0
 40
0.0
 40
0.2110248614
 40
0.4361858459000001
 40
0.6956530524
 40
1.0
 40
1.0
 40
1.0
 40
1.0
 10
372.0300863477174
 20
191.2010791454648
 30
0.0
 10
372.0369342673181
 20
191.1989605510651
 30
0.0
 10
372.0504042594181
 20
191.1919014062649
 30
0.0
 10
372.0664283306184
 20
191.1740338120651
 30
0.0
 10
372.0786236967184
 20
191.1499432206653
 30
0.0
 10
372.0841433250176
 20
191.131524467565
 30
0.0
 10
372.0865483304175
 20
191.121469954365
 30
0.0
  0
SPLINE
  5
181E6
330
1F
100
AcDbEntity
  8
粗实线
  6
Continuous
 62
     7
100
AcDbSpline
210
0.0
220
0.0
230
1.0
 70
     8
 71
     3
 72
    14
 73
    10
 74
     0
 42
0.0000000001
 43
0.0000000001
 40
0.0
 40
0.0
 40
0.0
 40
0.0
 40
0.2822169279
 40
0.4197851918000002
 40
0.5515545701
 40
0.6758102523
 40
0.7916870853
 40
0.8993796127999999
 40
1.0
 40
1.0
 40
1.0
 40
1.0
 10
372.0931096453174
 20
190.9387989269651
 30
0.0
 10
372.0899154631176
 20
190.9062179463652
 30
0.0
 10
372.0823922187179
 20
190.857926176165
 30
0.0
 10
372.065812240418
 20
190.796075852865
 30
0.0
 10
372.0501311681179
 20
190.7531161793648
 30
0.0
 10
372.0309508788183
 20
190.7143561674655
 30
0.0
 10
372.0081246731175
 20
190.6808800706647
 30
0.0
 10
371.9816668205182
 20
190.6538469534651
 30
0.0
 10
371.9612772641182
 20
190.6404066560652
 30
0.0
 10
371.9507989658183
 20
190.6352646540651
 30
0.0
  0
SPLINE
  5
181E7
330
1F
100
AcDbEntity
  8
粗实线
  6
Continuous
 62
     7
100
AcDbSpline
210
0.0
220
0.0
230
1.0
 70
     8
 71
     3
 72
     9
 73
     5
 74
     0
 42
0.0000000001
 43
0.0000000001
 40
0.0
 40
0.0
 40
0.0
 40
0.0
 40
0.5009092683000002
 40
1.0
 40
1.0
 40
1.0
 40
1.0
 10
371.9507989658183
 20
190.6352646540651
 30
0.0
 10
371.9358045548184
 20
190.6279064659645
 30
0.0
 10
371.9027711635177
 20
190.6186423621646
 30
0.0
 10
371.8687855231179
 20
190.6229254823655
 30
0.0
 10
371.8528865325176
 20
190.627842335365
 30
0.0
  0
SPLINE
  5
181E8
330
1F
100
AcDbEntity
  8
粗实线
  6
Continuous
 62
     7
100
AcDbSpline
210
0.0
220
0.0
230
1.0
 70
     8
 71
     3
 72
    11
 73
     7
 74
     0
 42
0.0000000001
 43
0.0000000001
 40
0.0
 40
0.0
 40
0.0
 40
0.0
 40
0.2394583478
 40
0.4835425058000001
 40
0.7363372498000002
 40
1.0
 40
1.0
 40
1.0
 40
1.0
 10
377.9456392849176
 20
193.9901959965653
 30
0.0
 10
377.9645291472176
 20
193.9994733840648
 30
0.0
 10
378.0047048504181
 20
194.0143365561651
 30
0.0
 10
378.0690306125185
 20
194.0244005965649
 30
0.0
 10
378.1361908672177
 20
194.0220971042652
 30
0.0
 10
378.1808502459177
 20
194.0127464729647
 30
0.0
 10
378.2030958768179
 20
194.0062588153649
 30
0.0
  0
SPLINE
  5
181E9
330
1F
100
AcDbEntity
  8
粗实线
  6
Continuous
 62
     7
100
AcDbSpline
210
0.0
220
0.0
230
1.0
 70
     8
 71
     3
 72
    13
 73
     9
 74
     0
 42
0.0000000001
 43
0.0000000001
 40
0.0
 40
0.0
 40
0.0
 40
0.0
 40
0.1142881741
 40
0.2298593895
 40
0.3478940471
 40
0.4693886698
 40
0.7249889569
 40
1.0
 40
1.0
 40
1.0
 40
1.0
 10
373.7553221759177
 20
190.1516347985651
 30
0.0
 10
373.7794294073179
 20
190.1634652588653
 30
0.0
 10
373.8261535255175
 20
190.1910594984655
 30
0.0
 10
373.8895451102187
 20
190.2431359834653
 30
0.0
 10
373.9457023762176
 20
190.3052495203654
 30
0.0
 10
374.0109949179174
 20
190.4019421490646
 30
0.0
 10
374.0703145585182
 20
190.545034708465
 30
0.0
 10
374.0909910546185
 20
190.6690281824646
 30
0.0
 10
374.0955364194184
 20
190.7334859122655
 30
0.0
  0
SPLINE
  5
181EA
330
1F
100
AcDbEntity
  8
粗实线
  6
Continuous
 62
     7
100
AcDbSpline
210
0.0
220
0.0
230
1.0
 70
     8
 71
     3
 72
     9
 73
     5
 74
     0
 42
0.0000000001
 43
0.0000000001
 40
0.0
 40
0.0
 40
0.0
 40
0.0
 40
0.2592440992
 40
1.0
 40
1.0
 40
1.0
 40
1.0
 10
373.5420532815175
 20
191.8605690810653
 30
0.0
 10
373.5238600626186
 20
191.8726773617653
 30
0.0
 10
373.4522045702183
 20
191.9170811417651
 30
0.0
 10
373.3744466879185
 20
191.951979135765
 30
0.0
 10
373.314785103718
 20
191.9704159597648
 30
0.0
  0
SPLINE
  5
181EB
330
1F
100
AcDbEntity
  8
粗实线
  6
Continuous
 62
     7
100
AcDbSpline
210
0.0
220
0.0
230
1.0
 70
     8
 71
     3
 72
    11
 73
     7
 74
     0
 42
0.0000000001
 43
0.0000000001
 40
0.0
 40
0.0
 40
0.0
 40
0.0
 40
0.239080469
 40
0.4828824504
 40
0.7356717899000002
 40
1.0
 40
1.0
 40
1.0
 40
1.0
 10
369.858084265518
 20
190.7454403485651
 30
0.0
 10
369.8984499878176
 20
190.7652424614651
 30
0.0
 10
369.984403126518
 20
190.7968301737654
 30
0.0
 10
370.1221257955182
 20
190.8172758898652
 30
0.0
 10
370.2658729143183
 20
190.8107690013646
 30
0.0
 10
370.3612651707177
 20
190.7892870311651
 30
0.0
 10
370.4087585021176
 20
190.774610481765
 30
0.0
  0
SPLINE
  5
181EC
330
1F
100
AcDbEntity
  8
粗实线
  6
Continuous
 62
     7
100
AcDbSpline
210
0.0
220
0.0
230
1.0
 70
     8
 71
     3
 72
    13
 73
     9
 74
     0
 42
0.0000000001
 43
0.0000000001
 40
0.0
 40
0.0
 40
0.0
 40
0.0
 40
0.1164904223
 40
0.2339475894
 40
0.3532788214
 40
0.4752928424000002
 40
0.7294222481999999
 40
0.8436920740218001
 40
0.8436920740218001
 40
0.8436920740218001
 40
0.8436920740218001
 10
370.9594327386181
 20
188.5011281298647
 30
0.0
 10
370.9852674533181
 20
188.5138018021651
 30
0.0
 10
371.035521797418
 20
188.5427429272648
 30
0.0
 10
371.1049221641175
 20
188.596037629365
 30
0.0
 10
371.1679106610179
 20
188.6587389259647
 30
0.0
 10
371.2434771033183
 20
188.755365292265
 30
0.0
 10
371.3004743583102
 20
188.8634812172007
 30
0.0
 10
371.3307902965249
 20
188.9495810257379
 30
0.0
 10
371.3390561062748
 20
188.976626754926
 30
0.0
  0
SPLINE
  5
181ED
330
1F
100
AcDbEntity
  8
粗实线
  6
Continuous
 62
     7
100
AcDbSpline
210
0.0
220
0.0
230
1.0
 70
     8
 71
     3
 72
     8
 73
     4
 74
     0
 42
0.0000000001
 43
0.0000000001
 40
0.8022818813189376
 40
0.8022818813189376
 40
0.8022818813189376
 40
0.8022818813189376
 40
1.0
 40
1.0
 40
1.0
 40
1.0
 10
370.4413066380581
 20
190.7639125336175
 30
0.0
 10
370.4305180712741
 20
190.7676704106278
 30
0.0
 10
370.4196667390476
 20
190.7712395815773
 30
0.0
 10
370.4087585021176
 20
190.774610481765
 30
0.0
  0
SPLINE
  5
181EE
330
1F
100
AcDbEntity
  8
粗实线
  6
Continuous
 62
     7
100
AcDbSpline
210
0.0
220
0.0
230
1.0
 70
     8
 71
     3
 72
    11
 73
     7
 74
     0
 42
0.0000000001
 43
0.0000000001
 40
0.0
 40
0.0
 40
0.0
 40
0.0
 40
0.2390650308
 40
0.4828770283
 40
0.7357115776000001
 40
1.0
 40
1.0
 40
1.0
 40
1.0
 10
372.8742480316183
 20
191.9470751328652
 30
0.0
 10
372.9065362007184
 20
191.9629203328648
 30
0.0
 10
372.9752976830174
 20
191.988191301465
 30
0.0
 10
373.0854815515182
 20
192.0045533962646
 30
0.0
 10
373.2004803909182
 20
191.9993314151651
 30
0.0
 10
373.2767962520179
 20
191.9821554027647
 30
0.0
 10
373.314785103718
 20
191.9704159597648
 30
0.0
  0
SPLINE
  5
181EF
330
1F
100
AcDbEntity
  8
粗实线
  6
Continuous
 62
     7
100
AcDbSpline
210
0.0
220
0.0
230
1.0
 70
     8
 71
     3
 72
    11
 73
     7
 74
     0
 42
0.0000000001
 43
0.0000000001
 40
0.0
 40
0.0
 40
0.0
 40
0.0
 40
0.239643643
 40
0.4837733991000003
 40
0.7362813511000002
 40
1.0
 40
1.0
 40
1.0
 40
1.0
 10
378.4742879229185
 20
192.9129233343654
 30
0.0
 10
378.4930693055181
 20
192.9221474441654
 30
0.0
 10
378.5291954498177
 20
192.9446710794653
 30
0.0
 10
378.5762810271177
 20
192.9890073668646
 30
0.0
 10
378.6154595544182
 20
193.043040577665
 30
0.0
 10
378.6353827124182
 20
193.0837363310655
 30
0.0
 10
378.6438824539179
 20
193.1051364919646
 30
0.0
  0
SPLINE
  5
181F0
330
1F
100
AcDbEntity
  8
粗实线
  6
Continuous
 62
     7
100
AcDbSpline
210
0.0
220
0.0
230
1.0
 70
     8
 71
     3
 72
    11
 73
     7
 74
     0
 42
0.0000000001
 43
0.0000000001
 40
0.0
 40
0.0
 40
0.0
 40
0.0
 40
0.2642884224
 40
0.5171229717000001
 40
0.7609349692000002
 40
1.0
 40
1.0
 40
1.0
 40
1.0
 10
373.314785103718
 20
190.1282939717647
 30
0.0
 10
373.3527739555181
 20
190.1165545286647
 30
0.0
 10
373.4290898166179
 20
190.0993785162653
 30
0.0
 10
373.5440886560178
 20
190.0941565351648
 30
0.0
 10
373.6542725245187
 20
190.1105186300654
 30
0.0
 10
373.7230340068187
 20
190.1357895985654
 30
0.0
 10
373.7553221759177
 20
190.1516347985651
 30
0.0
  0
SPLINE
  5
181F1
330
1F
100
AcDbEntity
  8
粗实线
  6
Continuous
 62
     7
100
AcDbSpline
210
0.0
220
0.0
230
1.0
 70
     8
 71
     3
 72
    11
 73
     7
 74
     0
 42
0.0000000001
 43
0.0000000001
 40
0.0
 40
0.0
 40
0.0
 40
0.0
 40
0.2641518671
 40
0.5170993963
 40
0.7609739522
 40
1.0
 40
1.0
 40
1.0
 40
1.0
 10
373.547888841918
 20
190.5880825444654
 30
0.0
 10
373.5716194579187
 20
190.5807492294651
 30
0.0
 10
373.6193172122181
 20
190.5700350310651
 30
0.0
 10
373.6911936732182
 20
190.566736478965
 30
0.0
 10
373.7600681334176
 20
190.5769823472654
 30
0.0
 10
373.8030530762177
 20
190.5927582849652
 30
0.0
 10
373.8232266741185
 20
190.6026661541653
 30
0.0
  0
SPLINE
  5
181F2
330
1F
100
AcDbEntity
  8
粗实线
  6
Continuous
 62
     7
100
AcDbSpline
210
0.0
220
0.0
230
1.0
 70
     8
 71
     3
 72
    20
 73
    16
 74
     0
 42
0.0000000001
 43
0.0000000001
 40
0.0
 40
0.0
 40
0.0
 40
0.0
 40
0.0498521391
 40
0.1018482436
 40
0.1563452541
 40
0.2135880494
 40
0.273730043
 40
0.3368292504
 40
0.4707311359000001
 40
0.6120786999
 40
0.7540032857
 40
0.8223918370999998
 40
0.8871653028
 40
0.9468507258999999
 40
1.0
 40
1.0
 40
1.0
 40
1.0
 10
371.8528865325176
 20
190.627842335365
 30
0.0
 10
371.8418080085181
 20
190.6312684317651
 30
0.0
 10
371.8199621267182
 20
190.6410580770651
 30
0.0
 10
371.7906278627185
 20
190.6629882138648
 30
0.0
 10
371.7652566220182
 20
190.6917422223649
 30
0.0
 10
371.7450142346176
 20
190.726499504365
 30
0.0
 10
371.730875167918
 20
190.7662803349646
 30
0.0
 10
371.7210567938179
 20
190.8255606125647
 30
0.0
 10
371.728155350818
 20
190.9053362813655
 30
0.0
 10
371.7630823982187
 20
190.9968607686649
 30
0.0
 10
371.8085460434182
 20
191.0655957628649
 30
0.0
 10
371.8511697307182
 20
191.1134148607651
 30
0.0
 10
371.8840870298178
 20
191.1440017716648
 30
0.0
 10
371.9170456046182
 20
191.1690204959649
 30
0.0
 10
371.9397001733183
 20
191.1824547541653
 30
0.0
 10
371.9507989658183
 20
191.1879012504649
 30
0.0
  0
SPLINE
  5
181F3
330
1F
100
AcDbEntity
  8
粗实线
  6
Continuous
 62
     7
100
AcDbSpline
210
0.0
220
0.0
230
1.0
 70
     8
 71
     3
 72
    18
 73
    14
 74
     0
 42
0.0000000001
 43
0.0000000001
 40
0.0
 40
0.0
 40
0.0
 40
0.0
 40
0.1208325318
 40
0.1858068345
 40
0.2531283518
 40
0.3919289039
 40
0.5311333889000001
 40
0.6642835132
 40
0.7866023231
 40
0.8433474279999998
 40
0.8973421463999999
 40
0.9492401378
 40
1.0
 40
1.0
 40
1.0
 40
1.0
 10
378.209963603918
 20
192.8989230690648
 30
0.0
 10
378.1576797383183
 20
192.9150800055648
 30
0.0
 10
378.0813709093187
 20
192.9544834437655
 30
0.0
 10
377.9920819659179
 20
193.0266206784652
 30
0.0
 10
377.906955570818
 20
193.1155416170648
 30
0.0
 10
377.8200811964185
 20
193.2474047159647
 30
0.0
 10
377.7543901278174
 20
193.4233371622648
 30
0.0
 10
377.7321414778186
 20
193.6024403089648
 30
0.0
 10
377.7529293637186
 20
193.7447115636649
 30
0.0
 10
377.7940588557182
 20
193.8424635795653
 30
0.0
 10
377.8348661882179
 20
193.9043539726652
 30
0.0
 10
377.8854262519187
 20
193.9548338300654
 30
0.0
 10
377.925005112818
 20
193.9800619252654
 30
0.0
 10
377.9456392849176
 20
193.9901959965653
 30
0.0
  0
SPLINE
  5
181F4
330
1F
100
AcDbEntity
  8
粗实线
  6
Continuous
 62
     7
100
AcDbSpline
210
0.0
220
0.0
230
1.0
 70
     8
 71
     3
 72
    18
 73
    14
 74
     0
 42
0.0000000001
 43
0.0000000001
 40
0.0
 40
0.0
 40
0.0
 40
0.0
 40
0.1208325318
 40
0.1858068345
 40
0.2531283518
 40
0.3919289039
 40
0.5311333889000001
 40
0.6642835132
 40
0.7866023231
 40
0.8433474279999998
 40
0.8973421463999999
 40
0.9492401378
 40
1.0
 40
1.0
 40
1.0
 40
1.0
 10
378.2721246007183
 20
193.0215333551649
 30
0.0
 10
378.2285547127182
 20
193.034997468865
 30
0.0
 10
378.1649640219181
 20
193.0678336673653
 30
0.0
 10
378.0905565690178
 20
193.1279480296651
 30
0.0
 10
378.0196179065175
 20
193.2020488118649
 30
0.0
 10
377.947222594518
 20
193.3119347275648
 30
0.0
 10
377.8924800373177
 20
193.4585450994653
 30
0.0
 10
377.873939495718
 20
193.6077977216654
 30
0.0
 10
377.8912627339183
 20
193.7263571005649
 30
0.0
 10
377.9255373105177
 20
193.8078171138648
 30
0.0
 10
377.9595434209174
 20
193.8593924414652
 30
0.0
 10
378.001676807418
 20
193.9014589892648
 30
0.0
 10
378.0346591915182
 20
193.9224824019655
 30
0.0
 10
378.0518543349177
 20
193.930927461365
 30
0.0
  0
SPLINE
  5
181F5
330
1F
100
AcDbEntity
  8
粗实线
  6
Continuous
 62
     7
100
AcDbSpline
210
0.0
220
0.0
230
1.0
 70
     8
 71
     3
 72
    20
 73
    16
 74
     0
 42
0.0000000001
 43
0.0000000001
 40
0.0
 40
0.0
 40
0.0
 40
0.0
 40
0.1207724788
 40
0.185701524
 40
0.2530021502
 40
0.3917304728
 40
0.4617844433000001
 40
0.5311000413000003
 40
0.5988858759000001
 40
0.6644512191000001
 40
0.7867095491000004
 40
0.8434259636
 40
0.8973923385999999
 40
0.9492644348999995
 40
1.0
 40
1.0
 40
1.0
 40
1.0
 10
370.4451273480496
 20
188.7308078568602
 30
0.0
 10
370.3579867076046
 20
188.7577363514154
 30
0.0
 10
370.2308170501598
 20
188.823407098749
 30
0.0
 10
370.0819918272707
 20
188.9436367494153
 30
0.0
 10
369.9401297164929
 20
189.0918056918602
 30
0.0
 10
369.8242004332711
 20
189.2677889978598
 30
0.0
 10
369.7397804949384
 20
189.4604542380828
 30
0.0
 10
369.6937481033825
 20
189.6103541423043
 30
0.0
 10
369.6664651546048
 20
189.7613951403048
 30
0.0
 10
369.6562235934931
 20
189.9544340968603
 30
0.0
 10
369.6833868331602
 20
190.1404937408605
 30
0.0
 10
369.7519566012712
 20
190.303369916416
 30
0.0
 10
369.8199679193828
 20
190.4065234533048
 30
0.0
 10
369.9042103403832
 20
190.4906829010826
 30
0.0
 10
369.9701937479373
 20
190.5327091551933
 30
0.0
 10
370.0045902758262
 20
190.5495890179707
 30
0.0
  0
SPLINE
  5
181F6
330
1F
100
AcDbEntity
  8
粗实线
  6
Continuous
 62
     7
100
AcDbSpline
210
0.0
220
0.0
230
1.0
 70
     8
 71
     3
 72
    21
 73
    17
 74
     0
 42
0.0000000001
 43
0.0000000001
 40
0.0
 40
0.0
 40
0.0
 40
0.0
 40
0.1207290599
 40
0.1856355241
 40
0.2529151028
 40
0.3219047826
 40
0.3918304522
 40
0.5309187341000003
 40
0.5986797681000004
 40
0.6642238125
 40
0.7270252745
 40
0.7867832565000003
 40
0.8434812173999999
 40
0.8974295455
 40
0.9492825565999998
 40
1.0
 40
1.0
 40
1.0
 40
1.0
 10
370.4087585021176
 20
188.4719579966648
 30
0.0
 10
370.2998340039181
 20
188.5056182124652
 30
0.0
 10
370.1408636008178
 20
188.5877115282654
 30
0.0
 10
369.9548593473179
 20
188.7379850872646
 30
0.0
 10
369.8230708091184
 20
188.8755976720648
 30
0.0
 10
369.7060398206182
 20
189.0317928102648
 30
0.0
 10
369.5737266161184
 20
189.259018036665
 30
0.0
 10
369.4812638008177
 20
189.5064927482652
 30
0.0
 10
369.4354390228178
 20
189.7601187396647
 30
0.0
 10
369.4256119647187
 20
189.9455970807647
 30
0.0
 10
369.440407430318
 20
190.1232048442651
 30
0.0
 10
369.479565605218
 20
190.2886084029649
 30
0.0
 10
369.5422901876178
 20
190.4376834514649
 30
0.0
 10
369.6273062074184
 20
190.5666058447649
 30
0.0
 10
369.7326229543183
 20
190.6717914034651
 30
0.0
 10
369.8150860323182
 20
190.7243468112654
 30
0.0
 10
369.858084265518
 20
190.7454403485651
 30
0.0
  0
SPLINE
  5
181F7
330
1F
100
AcDbEntity
  8
粗实线
  6
Continuous
 62
     7
100
AcDbSpline
210
0.0
220
0.0
230
1.0
 70
     8
 71
     3
 72
    18
 73
    14
 74
     0
 42
0.0000000001
 43
0.0000000001
 40
0.0
 40
0.0
 40
0.0
 40
0.0
 40
0.1208325318
 40
0.1858068345
 40
0.2531283518
 40
0.3919289039
 40
0.5311333889000001
 40
0.6642835132
 40
0.7866023231
 40
0.8433474279999998
 40
0.8973421463999999
 40
0.9492401378
 40
1.0
 40
1.0
 40
1.0
 40
1.0
 10
381.7947803953182
 20
194.7502017387649
 30
0.0
 10
381.751210507318
 20
194.7636658524651
 30
0.0
 10
381.6876198165179
 20
194.7965020509654
 30
0.0
 10
381.6132123636186
 20
194.8566164132652
 30
0.0
 10
381.5422737010182
 20
194.930717195465
 30
0.0
 10
381.4698783890186
 20
195.040603111165
 30
0.0
 10
381.4151358319183
 20
195.1872134830654
 30
0.0
 10
381.3965952902187
 20
195.3364661052654
 30
0.0
 10
381.4139185285181
 20
195.455025484165
 30
0.0
 10
381.4481931051183
 20
195.5364854974649
 30
0.0
 10
381.4821992155181
 20
195.5880608250653
 30
0.0
 10
381.5243326019178
 20
195.6301273728648
 30
0.0
 10
381.557314986018
 20
195.6511507855647
 30
0.0
 10
381.5745101295183
 20
195.6595958449651
 30
0.0
  0
SPLINE
  5
181F8
330
1F
100
AcDbEntity
  8
粗实线
  6
Continuous
 62
     7
100
AcDbSpline
210
0.0
220
0.0
230
1.0
 70
     8
 71
     3
 72
    20
 73
    16
 74
     0
 42
0.0000000001
 43
0.0000000001
 40
0.0
 40
0.0
 40
0.0
 40
0.0
 40
0.1207724788
 40
0.185701524
 40
0.2530021502
 40
0.3917304728
 40
0.4617844433000001
 40
0.5311000413000003
 40
0.5988858759000001
 40
0.6644512191000001
 40
0.7867095491000004
 40
0.8434259636
 40
0.8973923385999999
 40
0.9492644348999995
 40
1.0
 40
1.0
 40
1.0
 40
1.0
 10
373.314785103718
 20
190.1282939717647
 30
0.0
 10
373.2276444633177
 20
190.1552224663653
 30
0.0
 10
373.1004748059182
 20
190.2208932136653
 30
0.0
 10
372.9516495830182
 20
190.3411228643652
 30
0.0
 10
372.8097874722176
 20
190.4892918067652
 30
0.0
 10
372.6938581890177
 20
190.6652751126647
 30
0.0
 10
372.6094382507187
 20
190.8579403529655
 30
0.0
 10
372.5634058591182
 20
191.0078402571651
 30
0.0
 10
372.5361229104179
 20
191.1588812552653
 30
0.0
 10
372.5258813492179
 20
191.3519202117648
 30
0.0
 10
372.5530445889186
 20
191.5379798557649
 30
0.0
 10
372.6216143569187
 20
191.700856031265
 30
0.0
 10
372.6896256751175
 20
191.8040095681651
 30
0.0
 10
372.773868096118
 20
191.888169016065
 30
0.0
 10
372.8398515036175
 20
191.930195270065
 30
0.0
 10
372.8742480316183
 20
191.9470751328652
 30
0.0
  0
SPLINE
  5
181F9
330
1F
100
AcDbEntity
  8
粗实线
  6
Continuous
 62
     7
100
AcDbSpline
210
0.0
220
0.0
230
1.0
 70
     8
 71
     3
 72
    18
 73
    14
 74
     0
 42
0.0000000001
 43
0.0000000001
 40
0.0
 40
0.0
 40
0.0
 40
0.0
 40
0.1208325318
 40
0.1858068345
 40
0.2531283518
 40
0.3919289039
 40
0.5311333889000001
 40
0.6642835132
 40
0.7866023231
 40
0.8433474279999998
 40
0.8973421463999999
 40
0.9492401378
 40
1.0
 40
1.0
 40
1.0
 40
1.0
 10
373.547888841918
 20
190.5880825444654
 30
0.0
 10
373.4934264819182
 20
190.6049126865653
 30
0.0
 10
373.4139381184184
 20
190.6459579347655
 30
0.0
 10
373.3209288023179
 20
190.7211008875655
 30
0.0
 10
373.2322554740182
 20
190.8137268653653
 30
0.0
 10
373.1417613340187
 20
190.9510842599646
 30
0.0
 10
373.0733331376183
 20
191.1343472248653
 30
0.0
 10
373.0501574606175
 20
191.3209130026651
 30
0.0
 10
373.0718115083178
 20
191.4691122262646
 30
0.0
 10
373.1146547291179
 20
191.5709372429654
 30
0.0
 10
373.1571623671176
 20
191.6354064023652
 30
0.0
 10
373.2098291002182
 20
191.6879895871651
 30
0.0
 10
373.2510570803175
 20
191.7142688530647
 30
0.0
 10
373.2725510096176
 20
191.7248251772651
 30
0.0
  0
SPLINE
  5
181FA
330
1F
100
AcDbEntity
  8
粗实线
  6
Continuous
 62
     7
100
AcDbSpline
210
0.0
220
0.0
230
1.0
 70
     8
 71
     3
 72
    11
 73
     7
 74
     0
 42
0.0000000001
 43
0.0000000001
 40
0.0
 40
0.0
 40
0.0
 40
0.0
 40
0.2643282101
 40
0.5171175496
 40
0.760919531
 40
1.0
 40
1.0
 40
1.0
 40
1.0
 10
377.1532266578184
 20
192.0119274981651
 30
0.0
 10
377.1912213229176
 20
192.0001862585649
 30
0.0
 10
377.2675351281183
 20
191.9830006824648
 30
0.0
 10
377.3825328231183
 20
191.9777951716649
 30
0.0
 10
377.4927109583174
 20
191.9941517445648
 30
0.0
 10
377.5614734693178
 20
192.0194219143649
 30
0.0
 10
377.5937660471179
 20
192.0352636046653
 30
0.0
  0
SPLINE
  5
181FB
330
1F
100
AcDbEntity
  8
粗实线
  6
Continuous
 62
     7
100
AcDbSpline
210
0.0
220
0.0
230
1.0
 70
     8
 71
     3
 72
    11
 73
     7
 74
     0
 42
0.0000000001
 43
0.0000000001
 40
0.0
 40
0.0
 40
0.0
 40
0.0
 40
0.2964131863
 40
0.496613378
 40
0.6786796745999999
 40
1.0
 40
1.0
 40
1.0
 40
1.0
 10
371.9507989658183
 20
191.1879012504649
 30
0.0
 10
371.9580792454186
 20
191.1914738927652
 30
0.0
 10
371.9706118096178
 20
191.1968300152647
 30
0.0
 10
371.9885140862177
 20
191.2019464325647
 30
0.0
 10
372.0075637176184
 20
191.2048349856648
 30
0.0
 10
372.0216880074182
 20
191.2036774056649
 30
0.0
 10
372.0300863477174
 20
191.2010791454648
 30
0.0
  0
SPLINE
  5
181FC
330
1F
100
AcDbEntity
  8
粗实线
  6
Continuous
 62
     7
100
AcDbSpline
210
0.0
220
0.0
230
1.0
 70
     8
 71
     3
 72
    21
 73
    17
 74
     0
 42
0.0000000001
 43
0.0000000001
 40
0.0
 40
0.0
 40
0.0
 40
0.0
 40
0.0572681634
 40
0.1115567376
 40
0.1639408004
 40
0.2162299342
 40
0.270224914
 40
0.3272727195
 40
0.3572414689
 40
0.3881912647
 40
0.4529246666000001
 40
0.5913330489000001
 40
0.7350951925000003
 40
0.8059079540999999
 40
0.8743096414
 40
1.0
 40
1.0
 40
1.0
 40
1.0
 10
382.0639454072177
 20
195.1125539900648
 30
0.0
 10
382.0763204153179
 20
195.108729823365
 30
0.0
 10
382.1013038685184
 20
195.1037486919648
 30
0.0
 10
382.1387361031181
 20
195.1052450143651
 30
0.0
 10
382.1734431855181
 20
195.1162447931654
 30
0.0
 10
382.2037705543177
 20
195.1362544936653
 30
0.0
 10
382.2284331731177
 20
195.1642891896652
 30
0.0
 10
382.2432689637176
 20
195.1928515173648
 30
0.0
 10
382.2517280582184
 20
195.218191116265
 30
0.0
 10
382.2580275633178
 20
195.2459495747651
 30
0.0
 10
382.262286657418
 20
195.2990027157645
 30
0.0
 10
382.2487972671175
 20
195.3776194652654
 30
0.0
 10
382.2135440013177
 20
195.4504437953654
 30
0.0
 10
382.1739818218182
 20
195.5010541006648
 30
0.0
 10
382.1303722977178
 20
195.5422760013651
 30
0.0
 10
382.0911056848187
 20
195.5646913264653
 30
0.0
 10
382.0639454072177
 20
195.5730844870648
 30
0.0
  0
SPLINE
  5
181FD
330
1F
100
AcDbEntity
  8
粗实线
  6
Continuous
 62
     7
100
AcDbSpline
210
0.0
220
0.0
230
1.0
 70
     8
 71
     3
 72
    20
 73
    16
 74
     0
 42
0.0000000001
 43
0.0000000001
 40
0.0
 40
0.0
 40
0.0
 40
0.0
 40
0.0507349425
 40
0.1026058446
 40
0.1565727866
 40
0.2132903101
 40
0.335547009
 40
0.4011136683000001
 40
0.4688980820000002
 40
0.6080343538000001
 40
0.6779841499
 40
0.7469976334
 40
0.8143004256999999
 40
0.8792292847999998
 40
1.0
 40
1.0
 40
1.0
 40
1.0
 10
376.7126872687182
 20
193.8307133797651
 30
0.0
 10
376.678288682018
 20
193.8138385498649
 30
0.0
 10
376.6123179607181
 20
193.7717933691654
 30
0.0
 10
376.5280657663176
 20
193.6876488923651
 30
0.0
 10
376.4600482648181
 20
193.5844955166647
 30
0.0
 10
376.3915024604181
 20
193.421609124265
 30
0.0
 10
376.3643038952182
 20
193.2355635667653
 30
0.0
 10
376.3745758174179
 20
193.0425019766652
 30
0.0
 10
376.4112280065179
 20
192.8395273385648
 30
0.0
 10
376.4852016183182
 20
192.6415800702651
 30
0.0
 10
376.5910516252176
 20
192.4597945036647
 30
0.0
 10
376.6846765260185
 20
192.3348394574649
 30
0.0
 10
376.790107328318
 20
192.2247491157648
 30
0.0
 10
376.938910739918
 20
192.1045303534654
 30
0.0
 10
377.066087059318
 20
192.0388556708646
 30
0.0
 10
377.1532266578184
 20
192.0119274981651
 30
0.0
  0
SPLINE
  5
181FE
330
1F
100
AcDbEntity
  8
粗实线
  6
Continuous
 62
     7
100
AcDbSpline
210
0.0
220
0.0
230
1.0
 70
     8
 71
     3
 72
    11
 73
     7
 74
     0
 42
0.0000000001
 43
0.0000000001
 40
0.0
 40
0.0
 40
0.0
 40
0.0
 40
0.2642884007
 40
0.5171229082
 40
0.7609349381000003
 40
1.0
 40
1.0
 40
1.0
 40
1.0
 10
377.4018706451176
 20
192.5023686424655
 30
0.0
 10
377.4246639572181
 20
192.4953249762646
 30
0.0
 10
377.4704534729177
 20
192.4850193619646
 30
0.0
 10
377.5394527831182
 20
192.481886184665
 30
0.0
 10
377.6055631144178
 20
192.4917034406652
 30
0.0
 10
377.6468200137175
 20
192.506866028765
 30
0.0
 10
377.6661929194184
 20
192.5163731527653
 30
0.0
  0
SPLINE
  5
181FF
330
1F
100
AcDbEntity
  8
粗实线
  6
Continuous
 62
     7
100
AcDbSpline
210
0.0
220
0.0
230
1.0
 70
     8
 71
     3
 72
    19
 73
    15
 74
     0
 42
0.0000000001
 43
0.0000000001
 40
0.0
 40
0.0
 40
0.0
 40
0.0
 40
0.0507474308
 40
0.102631661
 40
0.1566106602
 40
0.2133403417
 40
0.3356272707
 40
0.4012079506
 40
0.4690096413
 40
0.6081779287
 40
0.7469386982000003
 40
0.8142550654999999
 40
0.8791992993999999
 40
1.0
 40
1.0
 40
1.0
 40
1.0
 10
377.1375483709186
 20
193.593637324965
 30
0.0
 10
377.1169104556181
 20
193.5835094059647
 30
0.0
 10
377.0773204162184
 20
193.5582936518648
 30
0.0
 10
377.0267749652181
 20
193.5077979555652
 30
0.0
 10
376.9859681866179
 20
193.4459059239651
 30
0.0
 10
376.9448262942175
 20
193.3481796887653
 30
0.0
 10
376.9285286189175
 20
193.2365474422648
 30
0.0
 10
376.9346729072182
 20
193.1207151949655
 30
0.0
 10
376.9566850435182
 20
192.9989085116648
 30
0.0
 10
377.0119980441184
 20
192.850820225465
 30
0.0
 10
377.0988615019184
 20
192.7189862438652
 30
0.0
 10
377.1839912109177
 20
192.6300626426654
 30
0.0
 10
377.273283476518
 20
192.5579299894651
 30
0.0
 10
377.3495862728183
 20
192.518525735565
 30
0.0
 10
377.4018706451176
 20
192.5023686424655
 30
0.0
  0
SPLINE
  5
18200
330
1F
100
AcDbEntity
  8
粗实线
  6
Continuous
 62
     7
100
AcDbSpline
210
0.0
220
0.0
230
1.0
 70
     8
 71
     3
 72
    11
 73
     7
 74
     0
 42
0.0000000001
 43
0.0000000001
 40
0.0
 40
0.0
 40
0.0
 40
0.0
 40
0.2641518671
 40
0.5170993963
 40
0.7609739522
 40
1.0
 40
1.0
 40
1.0
 40
1.0
 10
378.209963603918
 20
192.8989230690648
 30
0.0
 10
378.2327449953178
 20
192.8918830866649
 30
0.0
 10
378.2785348394178
 20
192.8815974561647
 30
0.0
 10
378.3475362420182
 20
192.8784308461653
 30
0.0
 10
378.4136557237185
 20
192.8882668797649
 30
0.0
 10
378.4549212689186
 20
192.9034117798654
 30
0.0
 10
378.4742879229185
 20
192.9129233343654
 30
0.0
  0
SPLINE
  5
18201
330
1F
100
AcDbEntity
  8
粗实线
  6
Continuous
 62
     7
100
AcDbSpline
210
0.0
220
0.0
230
1.0
 70
     8
 71
     3
 72
    11
 73
     7
 74
     0
 42
0.0000000001
 43
0.0000000001
 40
0.0
 40
0.0
 40
0.0
 40
0.0
 40
0.2641518671
 40
0.5170993963
 40
0.7609739522
 40
1.0
 40
1.0
 40
1.0
 40
1.0
 10
378.2721246007183
 20
193.0215333551649
 30
0.0
 10
378.2911090936183
 20
193.015666703165
 30
0.0
 10
378.329267297018
 20
193.0070953443654
 30
0.0
 10
378.3867684658186
 20
193.0044565027655
 30
0.0
 10
378.4418680339181
 20
193.0126531973654
 30
0.0
 10
378.476255988218
 20
193.0252739474651
 30
0.0
 10
378.4923948665179
 20
193.0332002428648
 30
0.0
  0
SPLINE
  5
18202
330
1F
100
AcDbEntity
  8
粗实线
  6
Continuous
 62
     7
100
AcDbSpline
210
0.0
220
0.0
230
1.0
 70
     8
 71
     3
 72
    11
 73
     7
 74
     0
 42
0.0000000001
 43
0.0000000001
 40
0.0
 40
0.0
 40
0.0
 40
0.0
 40
0.2641518671
 40
0.5170993963
 40
0.7609739522
 40
1.0
 40
1.0
 40
1.0
 40
1.0
 10
381.7947803953182
 20
194.7502017387649
 30
0.0
 10
381.813764888118
 20
194.7443350867651
 30
0.0
 10
381.8519230916178
 20
194.7357637279654
 30
0.0
 10
381.9094242604175
 20
194.7331248863655
 30
0.0
 10
381.964523828518
 20
194.7413215809655
 30
0.0
 10
381.9989117828179
 20
194.7539423310653
 30
0.0
 10
382.0150506611177
 20
194.7618686264648
 30
0.0
  0
SPLINE
  5
18203
330
1F
100
AcDbEntity
  8
粗实线
  6
Continuous
 62
     7
100
AcDbSpline
210
0.0
220
0.0
230
1.0
 70
     8
 71
     3
 72
    21
 73
    17
 74
     0
 42
0.0000000001
 43
0.0000000001
 40
0.0
 40
0.0
 40
0.0
 40
0.0
 40
0.1256903586
 40
0.1940920459
 40
0.2649048075
 40
0.4086669511000001
 40
0.5470753334000003
 40
0.6118087353
 40
0.6427585311000003
 40
0.6727272805000001
 40
0.729775086
 40
0.7837700658
 40
0.8360591996
 40
0.8884432623999998
 40
0.9427318365999999
 40
1.0
 40
1.0
 40
1.0
 40
1.0
 10
382.0639454072177
 20
195.1125539900648
 30
0.0
 10
382.0367851295183
 20
195.1209471506651
 30
0.0
 10
381.9975185166182
 20
195.1433624758655
 30
0.0
 10
381.953908992518
 20
195.1845843764648
 30
0.0
 10
381.9143468130175
 20
195.2351946817651
 30
0.0
 10
381.8790935472176
 20
195.3080190119651
 30
0.0
 10
381.865604156918
 20
195.386635761365
 30
0.0
 10
381.8698632510183
 20
195.4396889024654
 30
0.0
 10
381.8761627561185
 20
195.4674473608655
 30
0.0
 10
381.8846218506175
 20
195.4927869598649
 30
0.0
 10
381.8994576412175
 20
195.5213492874653
 30
0.0
 10
381.9241202600175
 20
195.5493839834652
 30
0.0
 10
381.954447628818
 20
195.5693936840651
 30
0.0
 10
381.9891547113181
 20
195.5803934628646
 30
0.0
 10
382.0265869458186
 20
195.5818897851648
 30
0.0
 10
382.0515703990182
 20
195.5769086538646
 30
0.0
 10
382.0639454072177
 20
195.5730844870648
 30
0.0
  0
SPLINE
  5
18204
330
1F
100
AcDbEntity
  8
粗实线
  6
Continuous
 62
     7
100
AcDbSpline
210
0.0
220
0.0
230
1.0
 70
     8
 71
     3
 72
    11
 73
     7
 74
     0
 42
0.0000000001
 43
0.0000000001
 40
0.0
 40
0.0
 40
0.0
 40
0.0
 40
0.2642884224
 40
0.5171229717000001
 40
0.7609349692000002
 40
1.0
 40
1.0
 40
1.0
 40
1.0
 10
370.4451273480496
 20
188.7308078568602
 30
0.0
 10
370.4831161997159
 20
188.7190684137489
 30
0.0
 10
370.5594320608276
 20
188.7018924014158
 30
0.0
 10
370.6744309002712
 20
188.6966704201929
 30
0.0
 10
370.7846147688275
 20
188.7130325150823
 30
0.0
 10
370.8533762510493
 20
188.7383034837492
 30
0.0
 10
370.8856644201602
 20
188.7541486837493
 30
0.0
  0
SPLINE
  5
18205
330
1F
100
AcDbEntity
  8
粗实线
  6
Continuous
 62
     7
100
AcDbSpline
210
0.0
220
0.0
230
1.0
 70
     8
 71
     3
 72
    11
 73
     7
 74
     0
 42
0.0000000001
 43
0.0000000001
 40
0.0
 40
0.0
 40
0.0
 40
0.0
 40
0.2643282101
 40
0.5171175496
 40
0.760919531
 40
1.0
 40
1.0
 40
1.0
 40
1.0
 10
370.4087585021176
 20
188.4719579966648
 30
0.0
 10
370.4562518335175
 20
188.4572814472647
 30
0.0
 10
370.5516440899179
 20
188.4357994770651
 30
0.0
 10
370.695391208718
 20
188.4292925885655
 30
0.0
 10
370.8331138777181
 20
188.4497383046653
 30
0.0
 10
370.9190670164177
 20
188.4813260169647
 30
0.0
 10
370.9594327386181
 20
188.5011281298647
 30
0.0
  0
LINE
  5
18462
330
1F
100
AcDbEntity
  8
图框
370
    -3
100
AcDbLine
 10
379.1122506893159
 20
231.9712781406445
 30
0.0
 11
385.9718166136732
 21
231.9712781406445
 31
0.0
  0
LINE
  5
18463
330
1F
100
AcDbEntity
  8
图框
370
    -3
100
AcDbLine
 10
363.0902430630584
 20
230.6190559538291
 30
0.0
 11
402.644808612007
 21
230.6190559538303
 31
0.0
  0
LINE
  5
18464
330
1F
100
AcDbEntity
  8
图框
370
    -3
100
AcDbLine
 10
363.0902430630584
 20
229.2668337670132
 30
0.0
 11
402.644808612007
 21
229.2668337670132
 31
0.0
  0
MTEXT
  5
18465
330
1F
100
AcDbEntity
  8
图框
100
AcDbMText
 10
382.542092723556
 20
232.647389234087
 30
0.0
 40
0.6000023545570477
 41
6.859684067146692
 71
     5
 72
     5
  1
{\fFangSong_GB2312|b0|i0|c134|p49;\C4;线径\Fromans|c134;/Wire Gauge}
  7
Romans字体
 73
     1
 44
1.0
1001
ACAD
1000
ACAD_MTEXT_DEFINED_HEIGHT_BEGIN
1070
    46
1040
1.352222186885061
1000
ACAD_MTEXT_DEFINED_HEIGHT_END
  0
LINE
  5
18466
330
1F
100
AcDbEntity
  8
图框
370
    -3
100
AcDbLine
 10
363.0902430630584
 20
227.9146115801981
 30
0.0
 11
402.644808612007
 21
227.9146115801981
 31
0.0
  0
MTEXT
  5
18467
330
1F
100
AcDbEntity
  8
图框
100
AcDbMText
 10
384.4968642746744
 20
231.2951320132778
 30
0.0
 40
0.6000023545570477
 41
2.949904677997924
 71
     5
 72
     5
  1
{\C4;AWG}
  7
Romans字体
 73
     1
 44
1.0
1001
ACAD
1000
ACAD_MTEXT_DEFINED_HEIGHT_BEGIN
1070
    46
1040
1.352152118895874
1000
ACAD_MTEXT_DEFINED_HEIGHT_END
  0
MTEXT
  5
18468
330
1F
100
AcDbEntity
  8
图框
100
AcDbMText
 10
381.0670813124955
 20
231.2951670472371
 30
0.0
 40
0.6000023545570477
 41
3.909661246359366
 71
     5
 72
     5
  1
\A1;{\C4;mm\H0.7x;\S2^  ;}
  7
Romans字体
 73
     1
 44
1.0
1001
ACAD
1000
ACAD_MTEXT_DEFINED_HEIGHT_BEGIN
1070
    46
1040
1.352222186814757
1000
ACAD_MTEXT_DEFINED_HEIGHT_END
  0
MTEXT
  5
18469
330
1F
100
AcDbEntity
  8
图框
100
AcDbMText
 10
381.067081312829
 20
229.9429448604214
 30
0.0
 40
0.6000023545570477
 41
3.909661247026225
 71
     5
 72
     5
  1
{\C4;0.03-0.34}
  7
Romans字体
 73
     1
 44
1.0
1001
ACAD
1000
ACAD_MTEXT_DEFINED_HEIGHT_BEGIN
1070
    46
1040
1.3522221868165
1000
ACAD_MTEXT_DEFINED_HEIGHT_END
  0
MTEXT
  5
1846A
330
1F
100
AcDbEntity
  8
图框
100
AcDbMText
 10
381.067081312829
 20
228.5907226736055
 30
0.0
 40
0.6000023545570477
 41
3.909661247026225
 71
     5
 72
     5
  1
{\C4;0.14-1.0}
  7
Romans字体
 73
     1
 44
1.0
1001
ACAD
1000
ACAD_MTEXT_DEFINED_HEIGHT_BEGIN
1070
    46
1040
1.352222186815229
1000
ACAD_MTEXT_DEFINED_HEIGHT_END
  0
MTEXT
  5
1846B
330
1F
100
AcDbEntity
  8
图框
100
AcDbMText
 10
384.4968642750077
 20
229.9429448604215
 30
0.0
 40
0.6000023545570477
 41
2.949904678664851
 71
     5
 72
     5
  1
{\C4;32-22}
  7
Romans字体
 73
     1
 44
1.0
1001
ACAD
1000
ACAD_MTEXT_DEFINED_HEIGHT_BEGIN
1070
    46
1040
1.352222186816635
1000
ACAD_MTEXT_DEFINED_HEIGHT_END
  0
MTEXT
  5
1846C
330
1F
100
AcDbEntity
  8
图框
100
AcDbMText
 10
384.4968642753412
 20
228.5907226736055
 30
0.0
 40
0.6000023545570477
 41
2.949904677998123
 71
     5
 72
     5
  1
{\C4;26-18}
  7
Romans字体
 73
     1
 44
1.0
1001
ACAD
1000
ACAD_MTEXT_DEFINED_HEIGHT_BEGIN
1070
    46
1040
1.352222186815164
1000
ACAD_MTEXT_DEFINED_HEIGHT_END
  0
MTEXT
  5
1846D
330
1F
100
AcDbEntity
  8
图框
100
AcDbMText
 10
372.1788336895575
 20
231.9712381049358
 30
0.0
 40
0.6000023545570477
 41
6.066833998183262
 71
     5
 72
     5
  1
{\fFangSong_GB2312|b0|i0|c134|p49;\C4;产品料号\Fromans|c134;\PPart NO.}
  7
Romans字体
 73
     1
 44
1.0
1001
ACAD
1000
ACAD_MTEXT_DEFINED_HEIGHT_BEGIN
1070
    46
1040
2.704364302212839
1000
ACAD_MTEXT_DEFINED_HEIGHT_END
  0
MTEXT
  5
1846E
330
1F
100
AcDbEntity
  8
图框
100
AcDbMText
 10
387.188268476538
 20
231.971238104936
 30
0.0
 40
0.6000023545570477
 41
2.432903725729715
 71
     5
 72
     5
  1
{\C4;a}
  7
Romans字体
 73
     1
 44
1.0
1001
ACAD
1000
ACAD_MTEXT_DEFINED_HEIGHT_BEGIN
1070
    46
1040
2.704364302212435
1000
ACAD_MTEXT_DEFINED_HEIGHT_END
  0
MTEXT
  5
1846F
330
1F
100
AcDbEntity
  8
图框
100
AcDbMText
 10
366.1178298770955
 20
229.9429448604211
 30
0.0
 40
0.6000023545570477
 41
6.055173628074227
 71
     5
 72
     5
  1
{\C4;M23-MC9G-0.34}
  7
Romans字体
 73
     1
 44
1.0
1001
ACAD
1000
ACAD_MTEXT_DEFINED_HEIGHT_BEGIN
1070
    46
1040
1.3522221868162
1000
ACAD_MTEXT_DEFINED_HEIGHT_END
  0
MTEXT
  5
18470
330
1F
100
AcDbEntity
  8
图框
100
AcDbMText
 10
387.188268476538
 20
229.9429448604214
 30
0.0
 40
0.6000023545570477
 41
2.43290372572948
 71
     5
 72
     5
  1
{\C4;1.7}
  7
Romans字体
 73
     1
 44
1.0
1001
ACAD
1000
ACAD_MTEXT_DEFINED_HEIGHT_BEGIN
1070
    46
1040
1.352222186816667
1000
ACAD_MTEXT_DEFINED_HEIGHT_END
  0
MTEXT
  5
18471
330
1F
100
AcDbEntity
  8
图框
100
AcDbMText
 10
387.188268476538
 20
228.5907226736055
 30
0.0
 40
0.6000023545570477
 41
2.432903725729469
 71
     5
 72
     5
  1
{\C4;2.1}
  7
Romans字体
 73
     1
 44
1.0
1001
ACAD
1000
ACAD_MTEXT_DEFINED_HEIGHT_BEGIN
1070
    46
1040
1.352222186815196
1000
ACAD_MTEXT_DEFINED_HEIGHT_END
  0
MTEXT
  5
18472
330
1F
100
AcDbEntity
  8
图框
100
AcDbMText
 10
389.6211722019342
 20
231.971238104936
 30
0.0
 40
0.6000023545570477
 41
2.432903725062574
 71
     5
 72
     5
  1
{\C4;b}
  7
Romans字体
 73
     1
 44
1.0
1001
ACAD
1000
ACAD_MTEXT_DEFINED_HEIGHT_BEGIN
1070
    46
1040
2.704364302212435
1000
ACAD_MTEXT_DEFINED_HEIGHT_END
  0
MTEXT
  5
18473
330
1F
100
AcDbEntity
  8
图框
100
AcDbMText
 10
389.6211722019342
 20
228.5907226736055
 30
0.0
 40
0.6000023545570477
 41
2.432903725062509
 71
     5
 72
     5
  1
{\C4;1.45}
  7
Romans字体
 73
     1
 44
1.0
1001
ACAD
1000
ACAD_MTEXT_DEFINED_HEIGHT_BEGIN
1070
    46
1040
1.352222186815196
1000
ACAD_MTEXT_DEFINED_HEIGHT_END
  0
MTEXT
  5
18474
330
1F
100
AcDbEntity
  8
图框
100
AcDbMText
 10
389.6211722019342
 20
229.9429448604215
 30
0.0
 40
0.6000023545570477
 41
2.432903725062594
 71
     5
 72
     5
  1
{\C4;0.9}
  7
Romans字体
 73
     1
 44
1.0
1001
ACAD
1000
ACAD_MTEXT_DEFINED_HEIGHT_BEGIN
1070
    46
1040
1.35222218681682
1000
ACAD_MTEXT_DEFINED_HEIGHT_END
  0
LINE
  5
18475
330
1F
100
AcDbEntity
  8
图框
370
    35
380
     1
100
AcDbLine
 10
388.4047203394027
 20
233.3235003275295
 30
0.0
 11
388.4047203394026
 21
227.9146115801981
 31
0.0
  0
LINE
  5
18476
330
1F
100
AcDbEntity
  8
图框
370
    -3
100
AcDbLine
 10
385.9718166143397
 20
233.3235003275295
 30
0.0
 11
385.9718166143402
 21
227.9146115801981
 31
0.0
  0
LINE
  5
18477
330
1F
100
AcDbEntity
  8
图框
370
    -3
100
AcDbLine
 10
383.0219119363422
 20
231.9712881442129
 30
0.0
 11
383.021911936342
 21
227.9146115801981
 31
0.0
  0
LINE
  5
18479
330
1F
100
AcDbEntity
  8
图框
370
    -3
100
AcDbLine
 10
379.112250689316
 20
227.9146115801981
 30
0.0
 11
379.1122506893158
 21
233.3235003275294
 31
0.0
  0
LINE
  5
1847A
330
1F
100
AcDbEntity
  8
图框
370
    -3
100
AcDbLine
 10
385.9718166136731
 20
233.3234202560424
 30
0.0
 11
385.9718166136736
 21
227.9146115801981
 31
0.0
  0
LINE
  5
1847B
330
1F
100
AcDbEntity
  8
图框
370
    -3
100
AcDbLine
 10
383.0219119356753
 20
231.9712080727256
 30
0.0
 11
383.0219119356751
 21
227.9146115801981
 31
0.0
  0
LINE
  5
1847C
330
1F
100
AcDbEntity
  8
图框
370
    -3
100
AcDbLine
 10
369.1454166904659
 20
227.9146115801981
 30
0.0
 11
369.1454166904658
 21
233.3234202560422
 31
0.0
  0
LINE
  5
1847D
330
1F
100
AcDbEntity
  8
图框
370
    -3
100
AcDbLine
 10
375.2122506886489
 20
227.9146115801981
 30
0.0
 11
375.212250688649
 21
233.3234202560424
 31
0.0
  0
LINE
  5
1847E
330
1F
100
AcDbEntity
  8
图框
370
    35
380
     1
100
AcDbLine
 10
396.6663268104192
 20
233.3234202560424
 30
0.0
 11
396.6663268104192
 21
227.9146115801981
 31
0.0
  0
MTEXT
  5
1847F
330
1F
100
AcDbEntity
  8
图框
100
AcDbMText
 10
366.1178298767622
 20
231.971283142428
 30
0.0
 40
0.6000023545570477
 41
6.055173627407532
 71
     5
 72
     5
  1
{\fFangSong_GB2312|b0|i0|c134|p49;\C4;产品代号\P\Fromans|c134;Part code}
  7
Romans字体
 73
     1
 44
1.0
1001
ACAD
1000
ACAD_MTEXT_DEFINED_HEIGHT_BEGIN
1070
    46
1040
2.704274227227298
1000
ACAD_MTEXT_DEFINED_HEIGHT_END
  0
MTEXT
  5
18480
330
1F
100
AcDbEntity
  8
图框
100
AcDbMText
 10
372.1788336902242
 20
229.9429448604211
 30
0.0
 40
0.6000023545570477
 41
6.066833998183262
 71
     5
 72
     5
  1
{\C4;1010312102501}
  7
Romans字体
 73
     1
 44
1.0
1001
ACAD
1000
ACAD_MTEXT_DEFINED_HEIGHT_BEGIN
1070
    46
1040
1.352222186816343
1000
ACAD_MTEXT_DEFINED_HEIGHT_END
  0
MTEXT
  5
18481
330
1F
100
AcDbEntity
  8
图框
100
AcDbMText
 10
377.1670813124957
 20
229.9429448604196
 30
0.0
 40
0.6000023545570477
 41
3.90966124635945
 71
     5
 72
     5
  1
{\C4;0.35}
  7
Romans字体
 73
     1
 44
1.0
1001
ACAD
1000
ACAD_MTEXT_DEFINED_HEIGHT_BEGIN
1070
    46
1040
1.352222186816528
1000
ACAD_MTEXT_DEFINED_HEIGHT_END
  0
MTEXT
  5
18482
330
1F
100
AcDbEntity
  8
图框
100
AcDbMText
 10
377.1670813124957
 20
232.6473491983418
 30
0.0
 40
0.6000023545570477
 41
3.909661246359441
 71
     5
 72
     5
  1
{\fFangSong_GB2312|b0|i0|c134|p49;\C4;重量\Fromans|c134;/Weight}
  7
Romans字体
 73
     1
 44
1.0
1001
ACAD
1000
ACAD_MTEXT_DEFINED_HEIGHT_BEGIN
1070
    46
1040
1.352142115397727
1000
ACAD_MTEXT_DEFINED_HEIGHT_END
  0
MTEXT
  5
18483
330
1F
100
AcDbEntity
  8
图框
100
AcDbMText
 10
377.1670813124957
 20
231.2951670472355
 30
0.0
 40
0.6000023545570477
 41
3.909661246359381
 71
     5
 72
     5
  1
{\C4;g}
  7
Romans字体
 73
     1
 44
1.0
1001
ACAD
1000
ACAD_MTEXT_DEFINED_HEIGHT_BEGIN
1070
    46
1040
1.352222186814967
1000
ACAD_MTEXT_DEFINED_HEIGHT_END
  0
MTEXT
  5
18484
330
1F
100
AcDbEntity
  8
图框
100
AcDbMText
 10
377.1670813124955
 20
228.5907226736031
 30
0.0
 40
0.6000023545570477
 41
3.90966124635945
 71
     5
 72
     5
  1
{\C4;0.3}
  7
Romans字体
 73
     1
 44
1.0
1001
ACAD
1000
ACAD_MTEXT_DEFINED_HEIGHT_BEGIN
1070
    46
1040
1.352222186816528
1000
ACAD_MTEXT_DEFINED_HEIGHT_END
  0
MTEXT
  5
18485
330
1F
100
AcDbEntity
  8
图框
100
AcDbMText
 10
393.7519754374422
 20
231.971238104936
 30
0.0
 40
0.6000023545570477
 41
5.828702745953783
 71
     5
 72
     5
  1
{\fFangSong_GB2312|b0|i0|c134|p49;\C4;剥线长度\Fromans|c134;\PStripping length}
  7
Romans字体
 73
     1
 44
1.0
1001
ACAD
1000
ACAD_MTEXT_DEFINED_HEIGHT_BEGIN
1070
    46
1040
2.704364302212259
1000
ACAD_MTEXT_DEFINED_HEIGHT_END
  0
LINE
  5
18486
330
1F
100
AcDbEntity
  8
图框
370
    35
380
     1
100
AcDbLine
 10
390.8376240644654
 20
233.3234202560424
 30
0.0
 11
390.8376240644654
 21
227.9146115801981
 31
0.0
  0
MTEXT
  5
18487
330
1F
100
AcDbEntity
  8
图框
100
AcDbMText
 10
393.7519754374422
 20
229.9429448604215
 30
0.0
 40
0.6000023545570477
 41
5.828702745953751
 71
     5
 72
     5
  1
{\C4;4mm}
  7
Romans字体
 73
     1
 44
1.0
1001
ACAD
1000
ACAD_MTEXT_DEFINED_HEIGHT_BEGIN
1070
    46
1040
1.35222218681682
1000
ACAD_MTEXT_DEFINED_HEIGHT_END
  0
MTEXT
  5
18488
330
1F
100
AcDbEntity
  8
图框
100
AcDbMText
 10
393.7519754374422
 20
228.5907226736047
 30
0.0
 40
0.6000023545570477
 41
5.828702745953751
 71
     5
 72
     5
  1
{\C4;4mm}
  7
Romans字体
 73
     1
 44
1.0
1001
ACAD
1000
ACAD_MTEXT_DEFINED_HEIGHT_BEGIN
1070
    46
1040
1.352222186816735
1000
ACAD_MTEXT_DEFINED_HEIGHT_END
  0
LINE
  5
18489
330
1F
100
AcDbEntity
  8
图框
370
    35
100
AcDbLine
 10
363.0902430630584
 20
233.3234202560416
 30
0.0
 11
402.644808612007
 21
233.3234202560428
 31
0.0
  0
LINE
  5
1848A
330
1F
100
AcDbEntity
  8
图框
370
    35
380
     1
100
AcDbLine
 10
363.0902430630584
 20
233.3234202560426
 30
0.0
 11
363.0902430630584
 21
227.9146115801981
 31
0.0
  0
LINE
  5
1848C
330
1F
100
AcDbEntity
  8
图框
370
    -3
100
AcDbLine
 10
375.2122506886489
 20
231.9712781406431
 30
0.0
 11
379.1219119356754
 21
231.9712781406431
 31
0.0
  0
MTEXT
  5
1848D
330
1F
100
AcDbEntity
  8
图框
100
AcDbMText
 10
366.1178298770955
 20
228.5907226736051
 30
0.0
 40
0.6000023545570477
 41
6.055173628074227
 71
     5
 72
     5
  1
{\C4;M23-MC9G-1.0}
  7
Romans字体
 73
     1
 44
1.0
1001
ACAD
1000
ACAD_MTEXT_DEFINED_HEIGHT_BEGIN
1070
    46
1040
1.3522221868162
1000
ACAD_MTEXT_DEFINED_HEIGHT_END
  0
MTEXT
  5
1848E
330
1F
100
AcDbEntity
  8
图框
100
AcDbMText
 10
372.1788336902242
 20
228.5907226736048
 30
0.0
 40
0.6000023545570477
 41
6.066833998183262
 71
     5
 72
     5
  1
{\C4;1010312102801}
  7
Romans字体
 73
     1
 44
1.0
1001
ACAD
1000
ACAD_MTEXT_DEFINED_HEIGHT_BEGIN
1070
    46
1040
1.352222186816343
1000
ACAD_MTEXT_DEFINED_HEIGHT_END
  0
MTEXT
  5
1850C
330
1F
100
AcDbEntity
  8
图框
100
AcDbMText
 10
399.6603983343928
 20
231.9712381049365
 30
0.0
 40
0.6000023545570477
 41
5.968820555228251
 71
     5
 72
     5
  1
{\fFangSong_GB2312|b0|i0|c134|p49;\C4;标识图\Fromans|c134;\PIdentification No.}
  7
Romans字体
 73
     1
 44
1.0
1001
ACAD
1000
ACAD_MTEXT_DEFINED_HEIGHT_BEGIN
1070
    46
1040
2.704364302212074
1000
ACAD_MTEXT_DEFINED_HEIGHT_END
  0
MTEXT
  5
1850D
330
1F
100
AcDbEntity
  8
图框
100
AcDbMText
 10
399.6603983343928
 20
229.9429448604219
 30
0.0
 40
0.6000023545570477
 41
5.968820555228393
 71
     5
 72
     5
  1
{\C4;No.1}
  7
Romans字体
 73
     1
 44
1.0
1001
ACAD
1000
ACAD_MTEXT_DEFINED_HEIGHT_BEGIN
1070
    46
1040
1.352222186816975
1000
ACAD_MTEXT_DEFINED_HEIGHT_END
  0
MTEXT
  5
1850E
330
1F
100
AcDbEntity
  8
图框
100
AcDbMText
 10
399.6603983343928
 20
228.5907226736058
 30
0.0
 40
0.6000023545570477
 41
5.968820555228393
 71
     5
 72
     5
  1
{\C4;No.2}
  7
Romans字体
 73
     1
 44
1.0
1001
ACAD
1000
ACAD_MTEXT_DEFINED_HEIGHT_BEGIN
1070
    46
1040
1.352222186815287
1000
ACAD_MTEXT_DEFINED_HEIGHT_END
  0
MTEXT
  5
1850F
330
1F
100
AcDbEntity
  8
文本
100
AcDbMText
 10
404.0278901225366
 20
232.7550956546059
 30
0.0
 40
0.5886392622387912
 41
2.766163023469334
 71
     5
 72
     5
  1
No.
  7
Romans字体
 73
     1
 44
1.0
1001
ACAD
1000
ACAD_MTEXT_DEFINED_HEIGHT_BEGIN
1070
    46
1040
1.136649202873579
1000
ACAD_MTEXT_DEFINED_HEIGHT_END
  0
LINE
  5
18510
330
1F
100
AcDbEntity
  8
图框
 62
     1
100
AcDbLine
 10
402.6448086120065
 20
232.1867710531692
 30
0.0
 11
414.4512089050873
 21
232.1867710531692
 31
0.0
  0
MTEXT
  5
18511
330
1F
100
AcDbEntity
  8
图框
100
AcDbMText
 10
404.0278901231391
 20
226.6226966329297
 30
0.0
 40
0.6000023545570477
 41
2.76616302226454
 71
     5
 72
     5
  1
{\fFangSong_GB2312|b0|i0|c134|p49;\C4;标示图\Fromans|c134;\PMarked\PGraph\P\P\P\fFangSong_GB2312|b0|i0|c134|p49;比例\P\Fromans|c134;Scale 2:1}
  7
Romans字体
 73
     1
 44
1.0
1001
ACAD
1000
ACAD_MTEXT_DEFINED_HEIGHT_BEGIN
1070
    46
1040
11.12814884047883
1000
ACAD_MTEXT_DEFINED_HEIGHT_END
  0
LINE
  5
18512
330
1F
100
AcDbEntity
  8
图框
 62
     1
100
AcDbLine
 10
409.9310902696791
 20
233.3235003274484
 30
0.0
 11
409.9310902696791
 21
221.0586222126903
 31
0.0
  0
LINE
  5
18513
330
1F
100
AcDbEntity
  8
图框
 62
     1
100
AcDbLine
 10
414.4512089050873
 20
233.3235003274484
 30
0.0
 11
414.4512089050873
 21
221.0586222126903
 31
0.0
  0
MTEXT
  5
18514
330
1F
100
AcDbEntity
  8
文本
100
AcDbMText
 10
407.6710309519754
 20
232.8913090750926
 30
0.0
 40
0.5886392622387912
 41
4.520118635407889
 71
     5
 72
     5
  1
No.1
  7
Romans字体
 73
     1
 44
1.0
1001
ACAD
1000
ACAD_MTEXT_DEFINED_HEIGHT_BEGIN
1070
    46
1040
0.8642223618998389
1000
ACAD_MTEXT_DEFINED_HEIGHT_END
  0
LINE
  5
18515
330
1F
100
AcDbEntity
  8
图框
 62
     1
100
AcDbLine
 10
402.6448086120065
 20
221.0586222126903
 30
0.0
 11
414.4512089050873
 21
221.0586222126903
 31
0.0
  0
MTEXT
  5
18516
330
1F
100
AcDbEntity
  8
文本
100
AcDbMText
 10
412.1911495873835
 20
232.7550956546058
 30
0.0
 40
0.5886392622387912
 41
4.520118635407952
 71
     5
 72
     5
  1
No.2
  7
Romans字体
 73
     1
 44
1.0
1001
ACAD
1000
ACAD_MTEXT_DEFINED_HEIGHT_BEGIN
1070
    46
1040
1.136649202873404
1000
ACAD_MTEXT_DEFINED_HEIGHT_END
  0
LINE
  5
18517
330
1F
100
AcDbEntity
  8
图框
 62
     1
100
AcDbLine
 10
405.4109716342712
 20
233.3235003274485
 30
0.0
 11
405.4109716342712
 21
221.0586222126903
 31
0.0
  0
LINE
  5
18518
330
1F
100
AcDbEntity
  8
图框
 62
     1
100
AcDbLine
 10
402.6448086120065
 20
233.3235003274484
 30
0.0
 11
414.4512089050873
 21
233.3235003274484
 31
0.0
  0
LINE
  5
18519
330
1F
100
AcDbEntity
  8
图框
 62
     1
100
AcDbLine
 10
402.6448086120065
 20
233.3235003274484
 30
0.0
 11
402.6448086120065
 21
221.0586222126903
 31
0.0
  0
LINE
  5
18547
330
1F
100
AcDbEntity
  8
图框
370
    35
380
     1
100
AcDbLine
 10
402.6448086120065
 20
233.3234202560424
 30
0.0
 11
402.6448086120065
 21
227.9146115801981
 31
0.0
  0
LINE
  5
18626
330
1F
100
AcDbEntity
  8
0
100
AcDbLine
 10
412.7865314160581
 20
221.3281399356983
 30
0.0
 11
411.5365314160579
 21
221.3281399356983
 31
0.0
  0
LINE
  5
18627
330
1F
100
AcDbEntity
  8
0
100
AcDbLine
 10
412.7865314160581
 20
222.4531399356983
 30
0.0
 11
411.5365314160579
 21
222.4531399356983
 31
0.0
  0
LINE
  5
18628
330
1F
100
AcDbEntity
  8
0
100
AcDbLine
 10
412.6615314160581
 20
222.5781399356983
 30
0.0
 11
411.6615314160581
 21
222.5781399356983
 31
0.0
  0
LINE
  5
18629
330
1F
100
AcDbEntity
  8
0
100
AcDbLine
 10
412.6615314160581
 20
222.5781399356983
 30
0.0
 11
412.7865314160581
 21
222.4531399356983
 31
0.0
  0
LINE
  5
1862A
330
1F
100
AcDbEntity
  8
0
100
AcDbLine
 10
411.5365314160579
 20
222.4531399356983
 30
0.0
 11
411.6615314160581
 21
222.5781399356983
 31
0.0
  0
LINE
  5
1862B
330
1F
100
AcDbEntity
  8
0
100
AcDbLine
 10
412.6615314160581
 20
224.790639935698
 30
0.0
 11
411.6615314160581
 21
224.790639935698
 31
0.0
  0
LINE
  5
1862C
330
1F
100
AcDbEntity
  8
0
100
AcDbLine
 10
412.4740314160581
 20
224.978139935698
 30
0.0
 11
411.8490314160576
 21
224.978139935698
 31
0.0
  0
LINE
  5
1862D
330
1F
100
AcDbEntity
  8
0
100
AcDbLine
 10
412.4740314160581
 20
225.478139935698
 30
0.0
 11
411.8490314160576
 21
225.478139935698
 31
0.0
  0
LINE
  5
1862E
330
1F
100
AcDbEntity
  8
0
100
AcDbLine
 10
412.4740314160581
 20
224.978139935698
 30
0.0
 11
412.6615314160581
 21
224.790639935698
 31
0.0
  0
LINE
  5
1862F
330
1F
100
AcDbEntity
  8
0
100
AcDbLine
 10
411.6615314160581
 20
224.790639935698
 30
0.0
 11
411.8490314160576
 21
224.978139935698
 31
0.0
  0
LINE
  5
18630
330
1F
100
AcDbEntity
  8
0
100
AcDbLine
 10
412.7865314160581
 20
222.4531399356983
 30
0.0
 11
412.7865314160581
 21
221.3281399356983
 31
0.0
  0
LINE
  5
18631
330
1F
100
AcDbEntity
  8
0
100
AcDbLine
 10
412.6615314160581
 20
227.8781399356981
 30
0.0
 11
412.6615314160581
 21
225.665639935698
 31
0.0
  0
LINE
  5
18632
330
1F
100
AcDbEntity
  8
0
100
AcDbLine
 10
412.6615314160581
 20
224.790639935698
 30
0.0
 11
412.6615314160581
 21
222.5781399356983
 31
0.0
  0
LINE
  5
18633
330
1F
100
AcDbEntity
  8
0
100
AcDbLine
 10
412.6615314160581
 20
225.665639935698
 30
0.0
 11
412.6615314160581
 21
227.8781399356981
 31
0.0
  0
LINE
  5
18634
330
1F
100
AcDbEntity
  8
0
100
AcDbLine
 10
412.4740314160581
 20
225.478139935698
 30
0.0
 11
412.4740314160581
 21
224.978139935698
 31
0.0
  0
LINE
  5
18635
330
1F
100
AcDbEntity
  8
0
100
AcDbLine
 10
412.4615314160583
 20
228.728139935698
 30
0.0
 11
412.4615314160583
 21
228.0781399356984
 31
0.0
  0
LINE
  5
18636
330
1F
100
AcDbEntity
  8
0
100
AcDbLine
 10
412.4615314160583
 20
228.0781399356984
 30
0.0
 11
412.4615314160583
 21
228.728139935698
 31
0.0
  0
LINE
  5
18637
330
1F
100
AcDbEntity
  8
0
100
AcDbLine
 10
412.4115314160579
 20
231.6116335847482
 30
0.0
 11
412.4115314160579
 21
228.7781399356981
 31
0.0
  0
LINE
  5
18638
330
1F
100
AcDbEntity
  8
0
100
AcDbLine
 10
411.911531416058
 20
231.6116335847482
 30
0.0
 11
411.911531416058
 21
228.7781399356981
 31
0.0
  0
LINE
  5
18639
330
1F
100
AcDbEntity
  8
0
100
AcDbLine
 10
411.8615314160582
 20
228.728139935698
 30
0.0
 11
411.8615314160582
 21
228.0781399356984
 31
0.0
  0
LINE
  5
1863A
330
1F
100
AcDbEntity
  8
0
100
AcDbLine
 10
411.8615314160582
 20
228.0781399356984
 30
0.0
 11
411.8615314160582
 21
228.728139935698
 31
0.0
  0
LINE
  5
1863B
330
1F
100
AcDbEntity
  8
0
100
AcDbLine
 10
411.8490314160576
 20
225.478139935698
 30
0.0
 11
411.8490314160576
 21
224.978139935698
 31
0.0
  0
LINE
  5
1863C
330
1F
100
AcDbEntity
  8
0
100
AcDbLine
 10
411.6615314160581
 20
224.790639935698
 30
0.0
 11
411.6615314160581
 21
222.5781399356983
 31
0.0
  0
LINE
  5
1863D
330
1F
100
AcDbEntity
  8
0
100
AcDbLine
 10
411.6615314160581
 20
225.665639935698
 30
0.0
 11
411.6615314160581
 21
227.8781399356981
 31
0.0
  0
LINE
  5
1863E
330
1F
100
AcDbEntity
  8
0
100
AcDbLine
 10
411.5365314160579
 20
222.4531399356983
 30
0.0
 11
411.5365314160579
 21
221.3281399356983
 31
0.0
  0
LINE
  5
1863F
330
1F
100
AcDbEntity
  8
0
100
AcDbLine
 10
411.6615314160581
 20
227.8781399356981
 30
0.0
 11
412.6615314160581
 21
227.8781399356981
 31
0.0
  0
LINE
  5
18640
330
1F
100
AcDbEntity
  8
0
100
AcDbLine
 10
411.8615314160582
 20
228.0781399356984
 30
0.0
 11
412.4615314160583
 21
228.0781399356984
 31
0.0
  0
LINE
  5
18641
330
1F
100
AcDbEntity
  8
0
100
AcDbLine
 10
412.4115314160579
 20
228.7781399356981
 30
0.0
 11
412.4615314160583
 21
228.728139935698
 31
0.0
  0
LINE
  5
18642
330
1F
100
AcDbEntity
  8
0
100
AcDbLine
 10
411.8615314160582
 20
228.728139935698
 30
0.0
 11
411.911531416058
 21
228.7781399356981
 31
0.0
  0
LINE
  5
18643
330
1F
100
AcDbEntity
  8
0
100
AcDbLine
 10
412.4615314160583
 20
228.728139935698
 30
0.0
 11
411.8615314160582
 21
228.728139935698
 31
0.0
  0
LINE
  5
18644
330
1F
100
AcDbEntity
  8
0
100
AcDbLine
 10
412.4115314160579
 20
228.7781399356981
 30
0.0
 11
411.911531416058
 21
228.7781399356981
 31
0.0
  0
LINE
  5
18645
330
1F
100
AcDbEntity
  8
0
100
AcDbLine
 10
412.4115314160579
 20
231.6116335847482
 30
0.0
 11
411.911531416058
 21
231.6116335847482
 31
0.0
  0
LINE
  5
18646
330
1F
100
AcDbEntity
  8
0
100
AcDbLine
 10
412.2865314160581
 20
231.8281399356983
 30
0.0
 11
412.0365314160578
 21
231.8281399356983
 31
0.0
  0
ARC
  5
18647
330
1F
100
AcDbEntity
  8
0
100
AcDbCircle
 10
412.4615314160583
 20
227.8781399356981
 30
0.0
 40
0.2
100
AcDbArc
 50
0.0
 51
90.0
  0
ARC
  5
18648
330
1F
100
AcDbEntity
  8
0
100
AcDbCircle
 10
411.8615314160582
 20
227.8781399356981
 30
0.0
 40
0.2
100
AcDbArc
 50
90.0
 51
180.0
  0
CIRCLE
  5
18649
330
1F
100
AcDbEntity
  8
0
100
AcDbCircle
 10
412.1615314160581
 20
224.3281399356984
 30
0.0
 40
0.125
  0
ARC
  5
1864A
330
1F
100
AcDbEntity
  8
0
100
AcDbCircle
 10
412.1615314160581
 20
231.6116335847482
 30
0.0
 40
0.25
100
AcDbArc
 50
120.0000000000076
 51
180.0
  0
ARC
  5
1864B
330
1F
100
AcDbEntity
  8
0
100
AcDbCircle
 10
412.1615314160581
 20
231.6116335847482
 30
0.0
 40
0.25
100
AcDbArc
 50
0.0
 51
59.99999999999239
  0
LINE
  5
1864C
330
1F
100
AcDbEntity
  8
0
100
AcDbLine
 10
412.6615314160581
 20
225.665639935698
 30
0.0
 11
411.6615314160581
 21
225.665639935698
 31
0.0
  0
LINE
  5
1864D
330
1F
100
AcDbEntity
  8
0
100
AcDbLine
 10
412.4740314160581
 20
225.478139935698
 30
0.0
 11
412.6615314160581
 21
225.665639935698
 31
0.0
  0
LINE
  5
1864E
330
1F
100
AcDbEntity
  8
0
100
AcDbLine
 10
411.6615314160581
 20
225.665639935698
 30
0.0
 11
411.8490314160576
 21
225.478139935698
 31
0.0
  0
LINE
  5
18768
330
1F
100
AcDbEntity
  8
0
100
AcDbLine
 10
408.4571943761352
 20
221.3281399356983
 30
0.0
 11
407.2071943761351
 21
221.3281399356983
 31
0.0
  0
LINE
  5
18769
330
1F
100
AcDbEntity
  8
0
100
AcDbLine
 10
408.4571943761352
 20
222.353139935698
 30
0.0
 11
407.2071943761351
 21
222.353139935698
 31
0.0
  0
LINE
  5
1876A
330
1F
100
AcDbEntity
  8
0
100
AcDbLine
 10
408.2321943761352
 20
222.5781399356983
 30
0.0
 11
407.4321943761352
 21
222.5781399356983
 31
0.0
  0
LINE
  5
1876B
330
1F
100
AcDbEntity
  8
0
100
AcDbLine
 10
408.4571943761352
 20
222.353139935698
 30
0.0
 11
408.2321943761352
 21
222.5781399356983
 31
0.0
  0
LINE
  5
1876C
330
1F
100
AcDbEntity
  8
0
100
AcDbLine
 10
407.2071943761351
 20
222.353139935698
 30
0.0
 11
407.4321943761352
 21
222.5781399356983
 31
0.0
  0
LINE
  5
1876D
330
1F
100
AcDbEntity
  8
0
100
AcDbLine
 10
408.2321943761352
 20
224.4031399356982
 30
0.0
 11
407.4321943761352
 21
224.4031399356982
 31
0.0
  0
LINE
  5
1876E
330
1F
100
AcDbEntity
  8
0
100
AcDbLine
 10
408.3321943761352
 20
224.5031399356981
 30
0.0
 11
407.3321943761348
 21
224.5031399356981
 31
0.0
  0
LINE
  5
1876F
330
1F
100
AcDbEntity
  8
0
100
AcDbLine
 10
408.3321943761352
 20
224.790639935698
 30
0.0
 11
407.3321943761348
 21
224.790639935698
 31
0.0
  0
LINE
  5
18770
330
1F
100
AcDbEntity
  8
0
100
AcDbLine
 10
407.4321943761352
 20
224.4031399356982
 30
0.0
 11
407.3321943761348
 21
224.5031399356981
 31
0.0
  0
LINE
  5
18771
330
1F
100
AcDbEntity
  8
0
100
AcDbLine
 10
408.2321943761352
 20
224.4031399356982
 30
0.0
 11
408.3321943761352
 21
224.5031399356981
 31
0.0
  0
LINE
  5
18772
330
1F
100
AcDbEntity
  8
0
100
AcDbLine
 10
408.1446943761352
 20
224.978139935698
 30
0.0
 11
407.5196943761348
 21
224.978139935698
 31
0.0
  0
LINE
  5
18773
330
1F
100
AcDbEntity
  8
0
100
AcDbLine
 10
408.1446943761352
 20
225.478139935698
 30
0.0
 11
407.5196943761348
 21
225.478139935698
 31
0.0
  0
LINE
  5
18774
330
1F
100
AcDbEntity
  8
0
100
AcDbLine
 10
408.1446943761352
 20
224.978139935698
 30
0.0
 11
408.3321943761352
 21
224.790639935698
 31
0.0
  0
LINE
  5
18775
330
1F
100
AcDbEntity
  8
0
100
AcDbLine
 10
407.3321943761348
 20
224.790639935698
 30
0.0
 11
407.5196943761348
 21
224.978139935698
 31
0.0
  0
LINE
  5
18776
330
1F
100
AcDbEntity
  8
0
100
AcDbLine
 10
408.4571943761352
 20
221.3281399356983
 30
0.0
 11
408.4571943761352
 21
222.353139935698
 31
0.0
  0
LINE
  5
18777
330
1F
100
AcDbEntity
  8
0
100
AcDbLine
 10
408.3321943761352
 20
224.790639935698
 30
0.0
 11
408.3321943761352
 21
224.5031399356981
 31
0.0
  0
LINE
  5
18778
330
1F
100
AcDbEntity
  8
0
100
AcDbLine
 10
408.3321943761352
 20
224.5031399356981
 30
0.0
 11
408.3321943761352
 21
224.790639935698
 31
0.0
  0
LINE
  5
18779
330
1F
100
AcDbEntity
  8
0
100
AcDbLine
 10
408.2321943761352
 20
222.5781399356983
 30
0.0
 11
408.2321943761352
 21
224.4031399356982
 31
0.0
  0
LINE
  5
1877A
330
1F
100
AcDbEntity
  8
0
100
AcDbLine
 10
408.1446943761352
 20
225.478139935698
 30
0.0
 11
408.1446943761352
 21
224.978139935698
 31
0.0
  0
LINE
  5
1877B
330
1F
100
AcDbEntity
  8
0
100
AcDbLine
 10
408.1321943761353
 20
228.728139935698
 30
0.0
 11
408.1321943761353
 21
228.0781399356984
 31
0.0
  0
LINE
  5
1877C
330
1F
100
AcDbEntity
  8
0
100
AcDbLine
 10
408.1321943761353
 20
228.0781399356984
 30
0.0
 11
408.1321943761353
 21
228.728139935698
 31
0.0
  0
LINE
  5
1877D
330
1F
100
AcDbEntity
  8
0
100
AcDbLine
 10
408.0821943761351
 20
231.6116335847482
 30
0.0
 11
408.0821943761351
 21
228.7781399356981
 31
0.0
  0
LINE
  5
1877E
330
1F
100
AcDbEntity
  8
0
100
AcDbLine
 10
407.5821943761352
 20
231.6116335847482
 30
0.0
 11
407.5821943761352
 21
228.7781399356981
 31
0.0
  0
LINE
  5
1877F
330
1F
100
AcDbEntity
  8
0
100
AcDbLine
 10
407.5321943761351
 20
228.728139935698
 30
0.0
 11
407.5321943761351
 21
228.0781399356984
 31
0.0
  0
LINE
  5
18780
330
1F
100
AcDbEntity
  8
0
100
AcDbLine
 10
407.5321943761351
 20
228.0781399356984
 30
0.0
 11
407.5321943761351
 21
228.728139935698
 31
0.0
  0
LINE
  5
18781
330
1F
100
AcDbEntity
  8
0
100
AcDbLine
 10
407.5196943761348
 20
225.478139935698
 30
0.0
 11
407.5196943761348
 21
224.978139935698
 31
0.0
  0
LINE
  5
18782
330
1F
100
AcDbEntity
  8
0
100
AcDbLine
 10
407.4321943761352
 20
222.5781399356983
 30
0.0
 11
407.4321943761352
 21
224.4031399356982
 31
0.0
  0
LINE
  5
18783
330
1F
100
AcDbEntity
  8
0
100
AcDbLine
 10
407.3321943761348
 20
224.790639935698
 30
0.0
 11
407.3321943761348
 21
224.5031399356981
 31
0.0
  0
LINE
  5
18784
330
1F
100
AcDbEntity
  8
0
100
AcDbLine
 10
407.3321943761348
 20
224.5031399356981
 30
0.0
 11
407.3321943761348
 21
224.790639935698
 31
0.0
  0
LINE
  5
18785
330
1F
100
AcDbEntity
  8
0
100
AcDbLine
 10
407.2071943761351
 20
222.353139935698
 30
0.0
 11
407.2071943761351
 21
221.3281399356983
 31
0.0
  0
LINE
  5
18786
330
1F
100
AcDbEntity
  8
0
100
AcDbLine
 10
407.2071943761351
 20
221.3281399356983
 30
0.0
 11
407.2071943761351
 21
222.353139935698
 31
0.0
  0
LINE
  5
18787
330
1F
100
AcDbEntity
  8
0
100
AcDbLine
 10
407.3321943761348
 20
227.8781399356981
 30
0.0
 11
408.3321943761352
 21
227.8781399356981
 31
0.0
  0
LINE
  5
18788
330
1F
100
AcDbEntity
  8
0
100
AcDbLine
 10
407.5321943761351
 20
228.0781399356984
 30
0.0
 11
408.1321943761353
 21
228.0781399356984
 31
0.0
  0
LINE
  5
18789
330
1F
100
AcDbEntity
  8
0
100
AcDbLine
 10
408.0821943761351
 20
228.7781399356981
 30
0.0
 11
408.1321943761353
 21
228.728139935698
 31
0.0
  0
LINE
  5
1878A
330
1F
100
AcDbEntity
  8
0
100
AcDbLine
 10
407.5821943761352
 20
228.7781399356981
 30
0.0
 11
407.5321943761351
 21
228.728139935698
 31
0.0
  0
LINE
  5
1878B
330
1F
100
AcDbEntity
  8
0
100
AcDbLine
 10
408.1321943761353
 20
228.728139935698
 30
0.0
 11
407.5321943761351
 21
228.728139935698
 31
0.0
  0
LINE
  5
1878C
330
1F
100
AcDbEntity
  8
0
100
AcDbLine
 10
408.0821943761351
 20
228.7781399356981
 30
0.0
 11
407.5821943761352
 21
228.7781399356981
 31
0.0
  0
LINE
  5
1878D
330
1F
100
AcDbEntity
  8
0
100
AcDbLine
 10
408.0821943761351
 20
231.6116335847482
 30
0.0
 11
407.5821943761352
 21
231.6116335847482
 31
0.0
  0
LINE
  5
1878E
330
1F
100
AcDbEntity
  8
0
100
AcDbLine
 10
407.9571943761352
 20
231.8281399356983
 30
0.0
 11
407.707194376135
 21
231.8281399356983
 31
0.0
  0
ARC
  5
1878F
330
1F
100
AcDbEntity
  8
0
100
AcDbCircle
 10
408.1321943761353
 20
227.8781399356981
 30
0.0
 40
0.2
100
AcDbArc
 50
0.0
 51
90.0
  0
ARC
  5
18790
330
1F
100
AcDbEntity
  8
0
100
AcDbCircle
 10
407.5321943761351
 20
227.8781399356981
 30
0.0
 40
0.2
100
AcDbArc
 50
90.0
 51
180.0
  0
CIRCLE
  5
18791
330
1F
100
AcDbEntity
  8
0
100
AcDbCircle
 10
407.832194376135
 20
224.228139935698
 30
0.0
 40
0.15
  0
ARC
  5
18792
330
1F
100
AcDbEntity
  8
0
100
AcDbCircle
 10
407.832194376135
 20
231.6116335847482
 30
0.0
 40
0.25
100
AcDbArc
 50
120.0000000000076
 51
180.0
  0
ARC
  5
18793
330
1F
100
AcDbEntity
  8
0
100
AcDbCircle
 10
407.832194376135
 20
231.6116335847482
 30
0.0
 40
0.25
100
AcDbArc
 50
0.0
 51
59.99999999999241
  0
LINE
  5
18794
330
1F
100
AcDbEntity
  8
0
100
AcDbLine
 10
408.3321943761352
 20
227.8781399356981
 30
0.0
 11
408.3321943761352
 21
225.665639935698
 31
0.0
  0
LINE
  5
18795
330
1F
100
AcDbEntity
  8
0
100
AcDbLine
 10
408.3321943761352
 20
225.665639935698
 30
0.0
 11
408.3321943761352
 21
227.8781399356981
 31
0.0
  0
LINE
  5
18796
330
1F
100
AcDbEntity
  8
0
100
AcDbLine
 10
407.3321943761348
 20
227.8781399356981
 30
0.0
 11
407.3321943761348
 21
225.665639935698
 31
0.0
  0
LINE
  5
18797
330
1F
100
AcDbEntity
  8
0
100
AcDbLine
 10
407.3321943761348
 20
225.665639935698
 30
0.0
 11
407.3321943761348
 21
227.8781399356981
 31
0.0
  0
LINE
  5
18798
330
1F
100
AcDbEntity
  8
0
100
AcDbLine
 10
408.3321943761352
 20
225.665639935698
 30
0.0
 11
407.3321943761348
 21
225.665639935698
 31
0.0
  0
LINE
  5
18799
330
1F
100
AcDbEntity
  8
0
100
AcDbLine
 10
407.3321943761348
 20
225.665639935698
 30
0.0
 11
407.5196943761348
 21
225.478139935698
 31
0.0
  0
LINE
  5
1879A
330
1F
100
AcDbEntity
  8
0
100
AcDbLine
 10
408.3321943761352
 20
225.665639935698
 30
0.0
 11
408.1446943761352
 21
225.478139935698
 31
0.0
  0
ENDSEC
  0
SECTION
  2
OBJECTS
  0
DICTIONARY
  5
C
330
0
100
AcDbDictionary
281
     1
  3
ACAD_2007HEADERVARS_RT
350
18D23
  3
ACAD_COLOR
350
4FFE
  3
ACAD_GROUP
350
D
  3
ACAD_LAYOUT
350
1A
  3
ACAD_MATERIAL
350
4FE5
  3
ACAD_MLEADERSTYLE
350
5022
  3
ACAD_MLINESTYLE
350
17
  3
ACAD_PLOTSETTINGS
350
19
  3
ACAD_PLOTSTYLENAME
350
E
  3
ACAD_RENDER_PLOT_SETTINGS
350
6537
  3
ACAD_SCALELIST
350
5000
  3
ACAD_TABLESTYLE
350
4FE3
  3
ACAD_VISUALSTYLE
350
2A
  3
ACDB_RECOMPOSE_DATA
350
50EC
  3
AcDbVariableDictionary
350
5108
  3
ASE_INDEX_DICTIONARY
350
11ACE
  3
lxx_dict
350
13F82
  0
DICTIONARY
  5
50EE
330
8
100
AcDbDictionary
280
     1
281
     1
  0
DICTIONARY
  5
50B8
330
2
100
AcDbDictionary
280
     1
281
     1
  3
ACAD_LAYERFILTERS
360
67BE
  3
ACAD_LAYERSTATES
360
50B9
  3
ACLYDICTIONARY
360
67BD
  0
DICTIONARY
  5
50D0
330
10
100
AcDbDictionary
280
     1
281
     1
  3
ADSK_XREC_LAYER_RECONCILED
360
50D1
  0
DICTIONARY
  5
50D2
330
3B
100
AcDbDictionary
280
     1
281
     1
  3
ADSK_XREC_LAYER_RECONCILED
360
50D3
  0
DICTIONARY
  5
50AF
330
50AE
100
AcDbDictionary
280
     1
281
     1
  3
ADSK_XREC_LAYER_RECONCILED
360
50D4
  0
DICTIONARY
  5
67C0
330
1F
100
AcDbDictionary
280
     1
281
     1
  3
ACAD_SORTENTS
360
67C1
  0
DICTIONARY
  5
18AF3
330
13E17
100
AcDbDictionary
280
     1
281
     1
  3
ACAD_ENHANCEDBLOCK
360
18AF4
  3
AcDbDynamicBlockRoundTripPurgePreventer
360
18AF8
  0
DICTIONARY
  5
18D09
330
18A5F
100
AcDbDictionary
280
     1
281
     1
  3
ACAD_MTEXT_2008_RT
360
18D27
  0
DICTIONARY
  5
18D0B
330
18AA0
100
AcDbDictionary
280
     1
281
     1
  3
ACAD_MTEXT_2008_RT
360
18D28
  0
DICTIONARY
  5
18D0D
330
18AA1
100
AcDbDictionary
280
     1
281
     1
  3
ACAD_MTEXT_2008_RT
360
18D29
  0
DICTIONARY
  5
18D0F
330
18AC6
100
AcDbDictionary
280
     1
281
     1
  3
ACAD_MTEXT_2008_RT
360
18D2A
  0
DICTIONARY
  5
18D11
330
18AC9
100
AcDbDictionary
280
     1
281
     1
  3
ACAD_MTEXT_2008_RT
360
18D2B
  0
DICTIONARY
  5
18D13
330
18ACA
100
AcDbDictionary
280
     1
281
     1
  3
ACAD_MTEXT_2008_RT
360
18D2C
  0
DICTIONARY
  5
18D15
330
18AD4
100
AcDbDictionary
280
     1
281
     1
  3
ACAD_MTEXT_2008_RT
360
18D2D
  0
DICTIONARY
  5
18D17
330
18AD5
100
AcDbDictionary
280
     1
281
     1
  3
ACAD_MTEXT_2008_RT
360
18D2E
  0
DICTIONARY
  5
18D19
330
18AD6
100
AcDbDictionary
280
     1
281
     1
  3
ACAD_MTEXT_2008_RT
360
18D2F
  0
DICTIONARY
  5
18D1B
330
18AE4
100
AcDbDictionary
280
     1
281
     1
  3
ACAD_MTEXT_2008_RT
360
18D30
  0
DICTIONARY
  5
18D1D
330
18AE5
100
AcDbDictionary
280
     1
281
     1
  3
ACAD_MTEXT_2008_RT
360
18D31
  0
DICTIONARY
  5
18D1F
330
18AE6
100
AcDbDictionary
280
     1
281
     1
  3
ACAD_MTEXT_2008_RT
360
18D32
  0
DICTIONARY
  5
18D21
330
18AF2
100
AcDbDictionary
280
     1
281
     1
  3
ACAD_MTEXT_2008_RT
360
18D33
  0
DICTIONARY
  5
18D07
330
12C4B
100
AcDbDictionary
280
     1
281
     1
  3
ACAD_MTEXT_2008_RT
360
18D26
  0
DICTIONARY
  5
14D51
330
13EBE
100
AcDbDictionary
280
     1
281
     1
  0
DICTIONARY
  5
18D23
102
{ACAD_REACTORS
330
C
102
}
330
C
100
AcDbDictionary
281
     1
  3
DIMLTYPE
350
18D24
  0
DICTIONARY
  5
4FFE
102
{ACAD_REACTORS
330
C
102
}
330
C
100
AcDbDictionary
281
     1
  0
DICTIONARY
  5
D
102
{ACAD_REACTORS
330
C
102
}
330
C
100
AcDbDictionary
281
     1
  0
DICTIONARY
  5
1A
102
{ACAD_REACTORS
330
C
102
}
330
C
100
AcDbDictionary
281
     1
  3
Layout1
350
1E
  3
Layout2
350
26
  3
Model
350
22
  0
DICTIONARY
  5
4FE5
102
{ACAD_REACTORS
330
C
102
}
330
C
100
AcDbDictionary
281
     1
  3
ByBlock
350
4FEE
  3
ByLayer
350
4FE6
  3
Global
350
4FF6
  0
DICTIONARY
  5
5022
102
{ACAD_REACTORS
330
C
102
}
330
C
100
AcDbDictionary
281
     1
  3
Standard
350
5023
  0
DICTIONARY
  5
17
102
{ACAD_REACTORS
330
C
102
}
330
C
100
AcDbDictionary
281
     1
  3
Standard
350
18
  0
DICTIONARY
  5
19
102
{ACAD_REACTORS
330
C
102
}
330
C
100
AcDbDictionary
281
     1
  0
ACDBDICTIONARYWDFLT
  5
E
102
{ACAD_REACTORS
330
C
102
}
330
C
100
AcDbDictionary
281
     1
  3
Normal
350
F
  3
Style 1
350
11B6F
100
AcDbDictionaryWithDefault
340
F
  0
DICTIONARY
  5
6537
102
{ACAD_REACTORS
330
C
102
}
330
C
100
AcDbDictionary
281
     1
  3
{1DC63513-1B1A-422F-9880-65CFD2B8D533}
350
6538
  0
DICTIONARY
  5
5000
102
{ACAD_REACTORS
330
C
102
}
330
C
100
AcDbDictionary
281
     1
  3
A0
350
5001
  3
A1
350
5002
  3
A2
350
5003
  3
A3
350
5004
  3
A4
350
5005
  3
A5
350
5006
  3
A6
350
5007
  3
A7
350
5008
  3
A8
350
5009
  3
A9
350
500A
  3
B0
350
500B
  3
B1
350
500C
  3
B2
350
500D
  3
B3
350
500E
  3
B4
350
500F
  3
B5
350
5010
  3
B6
350
5011
  3
B7
350
5012
  3
B8
350
5013
  3
B9
350
5014
  3
C0
350
5015
  3
C1
350
5016
  3
C2
350
5017
  3
C3
350
5018
  3
C4
350
5019
  3
C5
350
501A
  3
C6
350
501B
  3
C7
350
501C
  3
C8
350
501D
  3
C9
350
501E
  3
D0
350
501F
  3
D1
350
5020
  3
D2
350
5021
  0
DICTIONARY
  5
4FE3
102
{ACAD_REACTORS
330
C
102
}
330
C
100
AcDbDictionary
281
     1
  3
Standard
350
4FFF
  0
DICTIONARY
  5
2A
102
{ACAD_REACTORS
330
C
102
}
330
C
100
AcDbDictionary
281
     1
  3
2dWireframe
350
2F
  3
3D Hidden
350
31
  3
3dWireframe
350
30
  3
Basic
350
32
  3
Brighten
350
36
  3
ColorChange
350
3A
  3
Conceptual
350
34
  3
Dim
350
35
  3
Facepattern
350
39
  3
Flat
350
2B
  3
FlatWithEdges
350
2C
  3
Gouraud
350
2D
  3
GouraudWithEdges
350
2E
  3
Linepattern
350
38
  3
Realistic
350
33
  3
Thicken
350
37
  0
XRECORD
  5
50EC
102
{ACAD_REACTORS
330
C
102
}
330
C
100
AcDbXrecord
280
     1
 90
        1
330
4FFF
330
12C4B
330
18A5F
330
18AA0
330
18AA1
330
18AC6
330
18AC9
330
18ACA
330
18AD4
330
18AD5
330
18AD6
330
18AE4
330
18AE5
330
18AE6
330
18AF2
  0
DICTIONARY
  5
5108
102
{ACAD_REACTORS
330
C
102
}
330
C
100
AcDbDictionary
281
     1
  3
CANNOSCALE
350
510B
  3
CMLEADERSTYLE
350
510A
  3
CTABLESTYLE
350
5109
  3
DIMASSOC
350
510E
  3
INDEXCTL
350
510D
  3
LIGHTINGUNITS
350
13FA0
  3
MSLTSCALE
350
13F9F
  3
SORTENTS
350
510C
  0
DICTIONARY
  5
11ACE
102
{ACAD_REACTORS
330
C
102
}
330
C
100
AcDbDictionary
281
     1
  3
ASEBlockHierarchyIndexRecord
350
11ACF
1001
DCO15
1040
1901191674.187
  0
DICTIONARY
  5
13F82
102
{ACAD_REACTORS
330
C
102
}
330
C
100
AcDbDictionary
281
     1
  3
lxx_dimth
350
13F83
  0
DICTIONARY
  5
67BE
102
{ACAD_REACTORS
330
50B8
102
}
330
50B8
100
AcDbDictionary
281
     1
  0
DICTIONARY
  5
50B9
102
{ACAD_REACTORS
330
50B8
102
}
330
50B8
100
AcDbDictionary
281
     1
  0
DICTIONARY
  5
67BD
102
{ACAD_REACTORS
330
50B8
102
}
330
50B8
100
AcDbDictionary
281
     1
1001
ACAD
1000
<All
  0
XRECORD
  5
50D1
102
{ACAD_REACTORS
330
50D0
102
}
330
50D0
100
AcDbXrecord
280
     1
290
     1
  0
XRECORD
  5
50D3
102
{ACAD_REACTORS
330
50D2
102
}
330
50D2
100
AcDbXrecord
280
     1
290
     1
  0
XRECORD
  5
50D4
102
{ACAD_REACTORS
330
50AF
102
}
330
50AF
100
AcDbXrecord
280
     1
290
     1
  0
SORTENTSTABLE
  5
67C1
102
{ACAD_REACTORS
330
67C0
102
}
330
67C0
100
AcDbSortentsTable
330
1F
331
12C4B
  5
1307F
331
13EBE
  5
13EBE
331
13EBD
  5
13EBD
331
13EBC
  5
13EBC
331
3895
  5
3943
331
13EBB
  5
13EBB
331
13EBA
  5
13EBA
331
2C65
  5
2EE7
331
35D8
  5
3807
331
2F93
  5
2FDE
331
13093
  5
12B2B
331
3807
  5
3895
331
4842
  5
4E94
331
12C63
  5
13097
331
28AE
  5
2A38
331
2EE7
  5
2F93
331
35C8
  5
35D8
331
3943
  5
4842
331
2FDE
  5
35C8
  0
ACAD_EVALUATION_GRAPH
  5
18AF4
102
{ACAD_REACTORS
330
18AF3
102
}
330
18AF3
100
AcDbEvalGraph
 96
        0
 97
        0
  0
ACDB_DYNAMICBLOCKPURGEPREVENTER_VERSION
  5
18AF8
102
{ACAD_REACTORS
330
18AF3
102
}
330
18AF3
100
AcDbDynamicBlockPurgePreventer
 70
     1
  0
XRECORD
  5
18D27
102
{ACAD_REACTORS
330
18D09
102
}
330
18D09
100
AcDbXrecord
280
     1
 40
2554.0
  1
\pxqc;HQ ZHANG
  0
XRECORD
  5
18D28
102
{ACAD_REACTORS
330
18D0B
102
}
330
18D0B
100
AcDbXrecord
280
     1
 40
382080.0
  1
\pxqc;档案员{\H0.7x;\P\Fromans|c134;Filing Clerk\fFangSong_GB2312|b0|i0|c134|p49; }
  0
XRECORD
  5
18D29
102
{ACAD_REACTORS
330
18D0D
102
}
330
18D0D
100
AcDbXrecord
280
     1
 40
48245.0
  1
\pxqc;日期{\Fromans|c134;/Date}
  0
XRECORD
  5
18D2A
102
{ACAD_REACTORS
330
18D0F
102
}
330
18D0F
100
AcDbXrecord
280
     1
 40
71634.0
  1
\pxsm0.7;{\fFangSong_GB2312|b0|i0|c134|p49;标准化}\PStand.
  0
XRECORD
  5
18D2B
102
{ACAD_REACTORS
330
18D11
102
}
330
18D11
100
AcDbXrecord
280
     1
 40
48353.0
  1
\pxsm0.7;签名\P{\Fromans|c134;Signature} 
  0
XRECORD
  5
18D2C
102
{ACAD_REACTORS
330
18D13
102
}
330
18D13
100
AcDbXrecord
280
     1
 40
38427.0
  1
\pxsm0.7,qc;处数\P{\Fromans|c134;Number }
  0
XRECORD
  5
18D2D
102
{ACAD_REACTORS
330
18D15
102
}
330
18D15
100
AcDbXrecord
280
     1
 40
31190.0
  1
\pxsm0.7;标记\P{\Fromans|c134;Mark}
  0
XRECORD
  5
18D2E
102
{ACAD_REACTORS
330
18D17
102
}
330
18D17
100
AcDbXrecord
280
     1
 40
39355.0
  1
\pxsm0.7;审核\P{\Fromans|c134;Checked}
  0
XRECORD
  5
18D2F
102
{ACAD_REACTORS
330
18D19
102
}
330
18D19
100
AcDbXrecord
280
     1
 40
66730.0
  1
\pxsm0.7;绘图\P{\Fromans|c134;Drawn\Ftxt|c134; }
  0
XRECORD
  5
18D30
102
{ACAD_REACTORS
330
18D1B
102
}
330
18D1B
100
AcDbXrecord
280
     1
 40
43787.0
  1
\pxsm0.7;批准\P{\Fromans|c134;Approved}
  0
XRECORD
  5
18D31
102
{ACAD_REACTORS
330
18D1D
102
}
330
18D1D
100
AcDbXrecord
280
     1
 40
40691.0
  1
\pxsm0.7;工艺\P{\Fromans|c134;Process}
  0
XRECORD
  5
18D32
102
{ACAD_REACTORS
330
18D1F
102
}
330
18D1F
100
AcDbXrecord
280
     1
 40
30977.0
  1
\pxsm0.7;日期\P{\Fromans|c134;Date}
  0
XRECORD
  5
18D33
102
{ACAD_REACTORS
330
18D21
102
}
330
18D21
100
AcDbXrecord
280
     1
 40
1477.0
  1
\pxqc;ZM LIN
  0
XRECORD
  5
18D26
102
{ACAD_REACTORS
330
18D07
102
}
330
18D07
100
AcDbXrecord
280
     1
 40
9482049.0
  1
\A1;\pxql;技术参数:\P\pq*;- 材料: 铜合金\P- 表面处理: 镀金\P\pql;- 额定电流: {\Fromans|c134;9A\P}- 接触电阻: ≤{\Fromans|c134;3mΩ\P}- 线径范围: {\Fromans|c134;0.03-1.0mm\H0.7x;\S2^ ;\H1.4286x;(32-18 AWG)\H0.99998x;\P\pq*;}- 可插拔次数: ≥{\Fromans|c134;500\P\P\pql;Technical specificat
  1
ion:\P- Material: copper alloy\P- Surface: hard-gold plated\P- Rated current: 9A}\P{\Fromans|c134;- Contact resistance: }≤{\Fromans|c134;3mΩ\P- Wire gauge: 0.03-1.0mm\H0.7x;\S2^ ;\H1.4286x;(32-18 AWG)\P\H0.99998x;- Mating cycles: }≥{\Fromans|c134;500}
  0
XRECORD
  5
18D24
102
{ACAD_REACTORS
330
18D23
102
}
330
18D23
100
AcDbXrecord
280
     1
340
15
  0
LAYOUT
  5
1E
102
{ACAD_REACTORS
330
1A
102
}
330
1A
100
AcDbPlotSettings
  1

  2
none_device
  4

  6

 40
0.0
 41
0.0
 42
0.0
 43
0.0
 44
0.0
 45
0.0
 46
0.0
 47
0.0
 48
0.0
 49
0.0
140
0.0
141
0.0
142
1.0
143
1.0
 70
   688
 72
     0
 73
     0
 74
     5
  7

 75
    16
147
1.0
 76
     0
 77
     2
 78
   300
148
0.0
149
0.0
100
AcDbLayout
  1
Layout1
 70
     1
 71
     1
 10
0.0
 20
0.0
 11
12.0
 21
9.0
 12
0.0
 22
0.0
 32
0.0
 14
1.000000000000000E+20
 24
1.000000000000000E+20
 34
1.000000000000000E+20
 15
-1.000000000000000E+20
 25
-1.000000000000000E+20
 35
-1.000000000000000E+20
146
0.0
 13
0.0
 23
0.0
 33
0.0
 16
1.0
 26
0.0
 36
0.0
 17
0.0
 27
1.0
 37
0.0
 76
     0
330
1B
  0
LAYOUT
  5
26
102
{ACAD_REACTORS
330
1A
102
}
330
1A
100
AcDbPlotSettings
  1

  2
none_device
  4

  6

 40
0.0
 41
0.0
 42
0.0
 43
0.0
 44
0.0
 45
0.0
 46
0.0
 47
0.0
 48
0.0
 49
0.0
140
0.0
141
0.0
142
1.0
143
1.0
 70
   688
 72
     0
 73
     0
 74
     5
  7

 75
    16
147
1.0
 76
     0
 77
     2
 78
   300
148
0.0
149
0.0
100
AcDbLayout
  1
Layout2
 70
     1
 71
     2
 10
0.0
 20
0.0
 11
0.0
 21
0.0
 12
0.0
 22
0.0
 32
0.0
 14
0.0
 24
0.0
 34
0.0
 15
0.0
 25
0.0
 35
0.0
146
0.0
 13
0.0
 23
0.0
 33
0.0
 16
1.0
 26
0.0
 36
0.0
 17
0.0
 27
1.0
 37
0.0
 76
     0
330
23
  0
LAYOUT
  5
22
102
{ACAD_REACTORS
330
1A
102
}
330
1A
100
AcDbPlotSettings
  1

  2
Adobe PDF Converter.pc3
  4
A4
  6

 40
3.174999952316281
 41
3.174999952316281
 42
3.17498779296875
 43
3.175003051757812
 44
297.0318298339844
 45
209.9733276367186
 46
0.0000000000000076
 47
1.630241740247063
 48
246.9897427644609
 49
39.36804549891383
140
544.952097801264
141
244.7492402188181
142
1.0
143
1.025046328645055
 70
  3764
 72
     1
 73
     0
 74
     4
  7
monochrome.ctb
 75
     0
147
0.9755656618192436
 76
     1
 77
     2
 78
   300
148
-246.9897427644609
149
-39.36804549891383
100
AcDbLayout
  1
Model
 70
     1
 71
     0
 10
0.0
 20
0.0
 11
12.0
 21
9.0
 12
0.0
 22
0.0
 32
0.0
 14
1.000000000000000E+20
 24
1.000000000000000E+20
 34
1.000000000000000E+20
 15
-1.000000000000000E+20
 25
-1.000000000000000E+20
 35
-1.000000000000000E+20
146
0.0
 13
0.0
 23
0.0
 33
0.0
 16
1.0
 26
0.0
 36
0.0
 17
0.0
 27
1.0
 37
0.0
 76
     0
330
1F
331
29
1001
ACAD_PSEXT
1000
Adobe PDF Converter.pc3
1000
Adobe PDF Converter
1000
桌面\*.pdf
1000

1070
     0
  0
MATERIAL
  5
4FEE
102
{ACAD_XDICTIONARY
360
4FEF
102
}
102
{ACAD_REACTORS
330
4FE5
102
}
330
4FE5
100
AcDbMaterial
  1
ByBlock
 72
     0
 43
0.0208333333333333
 43
0.0
 43
0.0
 43
0.0
 43
0.0
 43
0.0208333333333333
 43
0.0
 43
0.0
 43
0.0
 43
0.0
 43
1.0
 43
0.0
 43
0.0
 43
0.0
 43
0.0
 43
1.0
 77
     0
 47
0.0208333333333333
 47
0.0
 47
0.0
 47
0.0
 47
0.0
 47
0.0208333333333333
 47
0.0
 47
0.0
 47
0.0
 47
0.0
 47
1.0
 47
0.0
 47
0.0
 47
0.0
 47
0.0
 47
1.0
171
     0
 49
0.0208333333333333
 49
0.0
 49
0.0
 49
0.0
 49
0.0
 49
0.0208333333333333
 49
0.0
 49
0.0
 49
0.0
 49
0.0
 49
1.0
 49
0.0
 49
0.0
 49
0.0
 49
0.0
 49
1.0
175
     0
142
0.0208333333333333
142
0.0
142
0.0
142
0.0
142
0.0
142
0.0208333333333333
142
0.0
142
0.0
142
0.0
142
0.0
142
1.0
142
0.0
142
0.0
142
0.0
142
0.0
142
1.0
179
     0
144
0.0208333333333333
144
0.0
144
0.0
144
0.0
144
0.0
144
0.0208333333333333
144
0.0
144
0.0
144
0.0
144
0.0
144
1.0
144
0.0
144
0.0
144
0.0
144
0.0
144
1.0
147
0.0208333333333333
147
0.0
147
0.0
147
0.0
147
0.0
147
0.0208333333333333
147
0.0
147
0.0
147
0.0
147
0.0
147
1.0
147
0.0
147
0.0
147
0.0
147
0.0
147
1.0
  0
MATERIAL
  5
4FE6
102
{ACAD_XDICTIONARY
360
4FE7
102
}
102
{ACAD_REACTORS
330
4FE5
102
}
330
4FE5
100
AcDbMaterial
  1
ByLayer
 72
     0
 43
0.0208333333333333
 43
0.0
 43
0.0
 43
0.0
 43
0.0
 43
0.0208333333333333
 43
0.0
 43
0.0
 43
0.0
 43
0.0
 43
1.0
 43
0.0
 43
0.0
 43
0.0
 43
0.0
 43
1.0
 77
     0
 47
0.0208333333333333
 47
0.0
 47
0.0
 47
0.0
 47
0.0
 47
0.0208333333333333
 47
0.0
 47
0.0
 47
0.0
 47
0.0
 47
1.0
 47
0.0
 47
0.0
 47
0.0
 47
0.0
 47
1.0
171
     0
 49
0.0208333333333333
 49
0.0
 49
0.0
 49
0.0
 49
0.0
 49
0.0208333333333333
 49
0.0
 49
0.0
 49
0.0
 49
0.0
 49
1.0
 49
0.0
 49
0.0
 49
0.0
 49
0.0
 49
1.0
175
     0
142
0.0208333333333333
142
0.0
142
0.0
142
0.0
142
0.0
142
0.0208333333333333
142
0.0
142
0.0
142
0.0
142
0.0
142
1.0
142
0.0
142
0.0
142
0.0
142
0.0
142
1.0
179
     0
144
0.0208333333333333
144
0.0
144
0.0
144
0.0
144
0.0
144
0.0208333333333333
144
0.0
144
0.0
144
0.0
144
0.0
144
1.0
144
0.0
144
0.0
144
0.0
144
0.0
144
1.0
147
0.0208333333333333
147
0.0
147
0.0
147
0.0
147
0.0
147
0.0208333333333333
147
0.0
147
0.0
147
0.0
147
0.0
147
1.0
147
0.0
147
0.0
147
0.0
147
0.0
147
1.0
  0
MATERIAL
  5
4FF6
102
{ACAD_XDICTIONARY
360
4FF7
102
}
102
{ACAD_REACTORS
330
4FE5
102
}
330
4FE5
100
AcDbMaterial
  1
Global
 72
     0
 43
0.0208333333333333
 43
0.0
 43
0.0
 43
0.0
 43
0.0
 43
0.0208333333333333
 43
0.0
 43
0.0
 43
0.0
 43
0.0
 43
1.0
 43
0.0
 43
0.0
 43
0.0
 43
0.0
 43
1.0
 77
     0
 47
0.0208333333333333
 47
0.0
 47
0.0
 47
0.0
 47
0.0
 47
0.0208333333333333
 47
0.0
 47
0.0
 47
0.0
 47
0.0
 47
1.0
 47
0.0
 47
0.0
 47
0.0
 47
0.0
 47
1.0
171
     0
 49
0.0208333333333333
 49
0.0
 49
0.0
 49
0.0
 49
0.0
 49
0.0208333333333333
 49
0.0
 49
0.0
 49
0.0
 49
0.0
 49
1.0
 49
0.0
 49
0.0
 49
0.0
 49
0.0
 49
1.0
175
     0
142
0.0208333333333333
142
0.0
142
0.0
142
0.0
142
0.0
142
0.0208333333333333
142
0.0
142
0.0
142
0.0
142
0.0
142
1.0
142
0.0
142
0.0
142
0.0
142
0.0
142
1.0
179
     0
144
0.0208333333333333
144
0.0
144
0.0
144
0.0
144
0.0
144
0.0208333333333333
144
0.0
144
0.0
144
0.0
144
0.0
144
1.0
144
0.0
144
0.0
144
0.0
144
0.0
144
1.0
147
0.0208333333333333
147
0.0
147
0.0
147
0.0
147
0.0
147
0.0208333333333333
147
0.0
147
0.0
147
0.0
147
0.0
147
1.0
147
0.0
147
0.0
147
0.0
147
0.0
147
1.0
  0
MLEADERSTYLE
  5
5023
102
{ACAD_REACTORS
330
5022
102
}
330
5022
100
AcDbMLeaderStyle
170
     2
171
     1
172
     0
 90
        2
 40
0.0
 41
0.0
173
     1
 91
-1056964608
340
14
 92
       -2
290
     1
 42
0.09
291
     1
 43
0.36
  3
Standard
 44
0.18
300

342
11
174
     1
178
     6
175
     1
176
     0
 93
-1056964608
 45
0.18
292
     0
297
     0
 46
0.18
 94
-1056964608
 47
1.0
 49
1.0
140
1.0
293
     1
141
0.0
294
     1
177
     0
142
1.0
295
     0
296
     0
143
0.125
1001
ACAD_MLEADERVER
1070
     2
  0
MLINESTYLE
  5
18
102
{ACAD_REACTORS
330
17
102
}
330
17
100
AcDbMlineStyle
  2
STANDARD
 70
     0
  3

 62
   256
 51
90.0
 52
90.0
 71
     2
 49
0.5
 62
   256
  6
BYLAYER
 49
-0.5
 62
   256
  6
BYLAYER
  0
ACDBPLACEHOLDER
  5
F
102
{ACAD_REACTORS
330
E
102
}
330
E
  0
ACDBPLACEHOLDER
  5
11B6F
102
{ACAD_REACTORS
330
E
102
}
330
E
  0
MENTALRAYRENDERSETTINGS
  5
6538
102
{ACAD_REACTORS
330
6537
102
}
330
6537
100
AcDbRenderSettings
 90
        2
  1
中
290
     1
290
     1
290
     1
290
     1
  1

  1
渲染质量好于“低级”。包括纹理过滤并且强制双面处于激活状态。处理中等级反锯齿和 5 反射/折射的光线跟踪深度。
 90
        0
100
AcDbMentalRayRenderSettings
 90
        2
 90
        0
 90
        1
 70
     2
 40
3.0
 40
3.0
 40
0.0500000007450581
 40
0.0500000007450581
 40
0.0500000007450581
 40
0.0500000007450581
 70
     0
290
     0
290
     1
 90
        5
 90
        5
 90
        5
290
     0
 90
      500
290
     0
 40
1.0
 90
    10000
 90
        5
 90
        5
 90
        5
290
     0
 90
      200
290
     0
290
     0
290
     0
 40
0.1
 40
1.0
 40
1500.0
 70
     0
 70
     0
 40
10.0
 70
     0
 70
     0
290
     0
  1

 90
       32
 70
     0
 90
     1048
290
     0
 40
1.0
  0
SCALE
  5
5001
102
{ACAD_REACTORS
330
5000
102
}
330
5000
100
AcDbScale
 70
     0
300
1:1
140
1.0
141
1.0
290
     1
  0
SCALE
  5
5002
102
{ACAD_REACTORS
330
5000
102
}
330
5000
100
AcDbScale
 70
     0
300
1:2
140
1.0
141
2.0
290
     0
  0
SCALE
  5
5003
102
{ACAD_REACTORS
330
5000
102
}
330
5000
100
AcDbScale
 70
     0
300
1:4
140
1.0
141
4.0
290
     0
  0
SCALE
  5
5004
102
{ACAD_REACTORS
330
5000
102
}
330
5000
100
AcDbScale
 70
     0
300
1:5
140
1.0
141
5.0
290
     0
  0
SCALE
  5
5005
102
{ACAD_REACTORS
330
5000
102
}
330
5000
100
AcDbScale
 70
     0
300
1:8
140
1.0
141
8.0
290
     0
  0
SCALE
  5
5006
102
{ACAD_REACTORS
330
5000
102
}
330
5000
100
AcDbScale
 70
     0
300
1:10
140
1.0
141
10.0
290
     0
  0
SCALE
  5
5007
102
{ACAD_REACTORS
330
5000
102
}
330
5000
100
AcDbScale
 70
     0
300
1:16
140
1.0
141
16.0
290
     0
  0
SCALE
  5
5008
102
{ACAD_REACTORS
330
5000
102
}
330
5000
100
AcDbScale
 70
     0
300
1:20
140
1.0
141
20.0
290
     0
  0
SCALE
  5
5009
102
{ACAD_REACTORS
330
5000
102
}
330
5000
100
AcDbScale
 70
     0
300
1:30
140
1.0
141
30.0
290
     0
  0
SCALE
  5
500A
102
{ACAD_REACTORS
330
5000
102
}
330
5000
100
AcDbScale
 70
     0
300
1:40
140
1.0
141
40.0
290
     0
  0
SCALE
  5
500B
102
{ACAD_REACTORS
330
5000
102
}
330
5000
100
AcDbScale
 70
     0
300
1:50
140
1.0
141
50.0
290
     0
  0
SCALE
  5
500C
102
{ACAD_REACTORS
330
5000
102
}
330
5000
100
AcDbScale
 70
     0
300
1:100
140
1.0
141
100.0
290
     0
  0
SCALE
  5
500D
102
{ACAD_REACTORS
330
5000
102
}
330
5000
100
AcDbScale
 70
     0
300
2:1
140
2.0
141
1.0
290
     0
  0
SCALE
  5
500E
102
{ACAD_REACTORS
330
5000
102
}
330
5000
100
AcDbScale
 70
     0
300
4:1
140
4.0
141
1.0
290
     0
  0
SCALE
  5
500F
102
{ACAD_REACTORS
330
5000
102
}
330
5000
100
AcDbScale
 70
     0
300
8:1
140
8.0
141
1.0
290
     0
  0
SCALE
  5
5010
102
{ACAD_REACTORS
330
5000
102
}
330
5000
100
AcDbScale
 70
     0
300
10:1
140
10.0
141
1.0
290
     0
  0
SCALE
  5
5011
102
{ACAD_REACTORS
330
5000
102
}
330
5000
100
AcDbScale
 70
     0
300
100:1
140
100.0
141
1.0
290
     0
  0
SCALE
  5
5012
102
{ACAD_REACTORS
330
5000
102
}
330
5000
100
AcDbScale
 70
     0
300
1/128" = 1'-0"
140
0.0078125
141
12.0
290
     0
  0
SCALE
  5
5013
102
{ACAD_REACTORS
330
5000
102
}
330
5000
100
AcDbScale
 70
     0
300
1/64" = 1'-0"
140
0.015625
141
12.0
290
     0
  0
SCALE
  5
5014
102
{ACAD_REACTORS
330
5000
102
}
330
5000
100
AcDbScale
 70
     0
300
1/32" = 1'-0"
140
0.03125
141
12.0
290
     0
  0
SCALE
  5
5015
102
{ACAD_REACTORS
330
5000
102
}
330
5000
100
AcDbScale
 70
     0
300
1/16" = 1'-0"
140
0.0625
141
12.0
290
     0
  0
SCALE
  5
5016
102
{ACAD_REACTORS
330
5000
102
}
330
5000
100
AcDbScale
 70
     0
300
3/32" = 1'-0"
140
0.09375
141
12.0
290
     0
  0
SCALE
  5
5017
102
{ACAD_REACTORS
330
5000
102
}
330
5000
100
AcDbScale
 70
     0
300
1/8" = 1'-0"
140
0.125
141
12.0
290
     0
  0
SCALE
  5
5018
102
{ACAD_REACTORS
330
5000
102
}
330
5000
100
AcDbScale
 70
     0
300
3/16" = 1'-0"
140
0.1875
141
12.0
290
     0
  0
SCALE
  5
5019
102
{ACAD_REACTORS
330
5000
102
}
330
5000
100
AcDbScale
 70
     0
300
1/4" = 1'-0"
140
0.25
141
12.0
290
     0
  0
SCALE
  5
501A
102
{ACAD_REACTORS
330
5000
102
}
330
5000
100
AcDbScale
 70
     0
300
3/8" = 1'-0"
140
0.375
141
12.0
290
     0
  0
SCALE
  5
501B
102
{ACAD_REACTORS
330
5000
102
}
330
5000
100
AcDbScale
 70
     0
300
1/2" = 1'-0"
140
0.5
141
12.0
290
     0
  0
SCALE
  5
501C
102
{ACAD_REACTORS
330
5000
102
}
330
5000
100
AcDbScale
 70
     0
300
3/4" = 1'-0"
140
0.75
141
12.0
290
     0
  0
SCALE
  5
501D
102
{ACAD_REACTORS
330
5000
102
}
330
5000
100
AcDbScale
 70
     0
300
1" = 1'-0"
140
1.0
141
12.0
290
     0
  0
SCALE
  5
501E
102
{ACAD_REACTORS
330
5000
102
}
330
5000
100
AcDbScale
 70
     0
300
1-1/2" = 1'-0"
140
1.5
141
12.0
290
     0
  0
SCALE
  5
501F
102
{ACAD_REACTORS
330
5000
102
}
330
5000
100
AcDbScale
 70
     0
300
3" = 1'-0"
140
3.0
141
12.0
290
     0
  0
SCALE
  5
5020
102
{ACAD_REACTORS
330
5000
102
}
330
5000
100
AcDbScale
 70
     0
300
6" = 1'-0"
140
6.0
141
12.0
290
     0
  0
SCALE
  5
5021
102
{ACAD_REACTORS
330
5000
102
}
330
5000
100
AcDbScale
 70
     0
300
1'-0" = 1'-0"
140
12.0
141
12.0
290
     0
  0
TABLESTYLE
  5
4FFF
102
{ACAD_XDICTIONARY
360
50D6
102
}
102
{ACAD_REACTORS
330
4FE3
102
}
330
4FE3
100
AcDbTableStyle
  3
Standard
 70
     0
 71
     0
 40
0.06
 41
0.06
280
     0
281
     0
  7
Standard
140
0.18
170
     2
 62
     0
 63
     7
283
     0
274
    -2
284
     1
 64
     0
275
    -2
285
     1
 65
     0
276
    -2
286
     1
 66
     0
277
    -2
287
     1
 67
     0
278
    -2
288
     1
 68
     0
279
    -2
289
     1
 69
     0
  7
Standard
140
0.25
170
     5
 62
     0
 63
     7
283
     0
274
    -2
284
     1
 64
     0
275
    -2
285
     1
 65
     0
276
    -2
286
     1
 66
     0
277
    -2
287
     1
 67
     0
278
    -2
288
     1
 68
     0
279
    -2
289
     1
 69
     0
  7
Standard
140
0.18
170
     5
 62
     0
 63
     7
283
     0
274
    -2
284
     1
 64
     0
275
    -2
285
     1
 65
     0
276
    -2
286
     1
 66
     0
277
    -2
287
     1
 67
     0
278
    -2
288
     1
 68
     0
279
    -2
289
     1
 69
     0
  0
VISUALSTYLE
  5
2F
102
{ACAD_REACTORS
330
2A
102
}
330
2A
100
AcDbVisualStyle
  2
2dWireframe
 70
     4
 71
     0
 72
     2
 73
     0
 90
        0
 40
-0.6
 41
-30.0
 62
     5
 63
     7
 74
     1
 91
        4
 64
     7
 65
   257
 75
     1
175
     1
 42
1.0
 92
        0
 66
   257
 43
1.0
 76
     1
 77
     6
 78
     2
 67
     7
 79
     5
170
     0
171
     0
290
     0
174
     0
 93
        1
 44
0.0
173
     0
291
     0
 45
0.0
1001
ACAD
1000
AcDbSavedByObjectVersion
1070
     0
1000
AcDbSavedByObjectVersion
1070
     0
1000
AcDbSavedByObjectVersion
1070
     0
1000
AcDbSavedByObjectVersion
1070
     0
1000
AcDbSavedByObjectVersion
1070
     0
1000
AcDbSavedByObjectVersion
1070
     0
1000
AcDbSavedByObjectVersion
1070
     0
1000
AcDbSavedByObjectVersion
1070
     0
1000
AcDbSavedByObjectVersion
1070
     0
1000
AcDbSavedByObjectVersion
1070
     0
1000
AcDbSavedByObjectVersion
1070
     0
1000
AcDbSavedByObjectVersion
1070
     0
1000
AcDbSavedByObjectVersion
1070
     0
1000
AcDbSavedByObjectVersion
1070
     0
1000
AcDbSavedByObjectVersion
1070
     0
1000
AcDbSavedByObjectVersion
1070
     0
1000
AcDbSavedByObjectVersion
1070
     0
1000
AcDbSavedByObjectVersion
1070
     0
1000
AcDbSavedByObjectVersion
1070
     0
1000
AcDbSavedByObjectVersion
1070
     0
1000
AcDbSavedByObjectVersion
1070
     0
1000
AcDbSavedByObjectVersion
1070
     0
1000
AcDbSavedByObjectVersion
1070
     0
1000
AcDbSavedByObjectVersion
1070
     0
1000
AcDbSavedByObjectVersion
1070
     0
1000
AcDbSavedByObjectVersion
1070
     0
1000
AcDbSavedByObjectVersion
1070
     0
1000
AcDbSavedByObjectVersion
1070
     0
1000
AcDbSavedByObjectVersion
1070
     0
1000
AcDbSavedByObjectVersion
1070
     0
1000
AcDbSavedByObjectVersion
1070
     0
1000
AcDbSavedByObjectVersion
1070
     0
1000
AcDbSavedByObjectVersion
1070
     0
1000
AcDbSavedByObjectVersion
1070
     0
1000
AcDbSavedByObjectVersion
1070
     0
1000
AcDbSavedByObjectVersion
1070
     0
1000
AcDbSavedByObjectVersion
1070
     0
1000
AcDbSavedByObjectVersion
1070
     0
1000
AcDbSavedByObjectVersion
1070
     0
1000
AcDbSavedByObjectVersion
1070
     0
1000
AcDbSavedByObjectVersion
1070
     0
1000
AcDbSavedByObjectVersion
1070
     0
1000
AcDbSavedByObjectVersion
1070
     0
1000
AcDbSavedByObjectVersion
1070
     0
1000
AcDbSavedByObjectVersion
1070
     0
1000
AcDbSavedByObjectVersion
1070
     0
1000
AcDbSavedByObjectVersion
1070
     0
  0
VISUALSTYLE
  5
31
102
{ACAD_REACTORS
330
2A
102
}
330
2A
100
AcDbVisualStyle
  2
3D Hidden
 70
     6
 71
     1
 72
     2
 73
     2
 90
        0
 40
-0.6
 41
-30.0
 62
     5
 63
     7
 74
     2
 91
        2
 64
     7
 65
   257
 75
     2
175
     1
 42
40.0
 92
        0
 66
   257
 43
1.0
 76
     1
 77
     6
 78
     2
 67
     7
 79
     3
170
     0
171
     0
290
     0
174
     0
 93
        1
 44
0.0
173
     0
291
     0
 45
0.0
1001
ACAD
1000
AcDbSavedByObjectVersion
1070
     0
1000
AcDbSavedByObjectVersion
1070
     0
1000
AcDbSavedByObjectVersion
1070
     0
1000
AcDbSavedByObjectVersion
1070
     0
1000
AcDbSavedByObjectVersion
1070
     0
1000
AcDbSavedByObjectVersion
1070
     0
1000
AcDbSavedByObjectVersion
1070
     0
1000
AcDbSavedByObjectVersion
1070
     0
1000
AcDbSavedByObjectVersion
1070
     0
1000
AcDbSavedByObjectVersion
1070
     0
1000
AcDbSavedByObjectVersion
1070
     0
1000
AcDbSavedByObjectVersion
1070
     0
1000
AcDbSavedByObjectVersion
1070
     0
1000
AcDbSavedByObjectVersion
1070
     0
1000
AcDbSavedByObjectVersion
1070
     0
1000
AcDbSavedByObjectVersion
1070
     0
1000
AcDbSavedByObjectVersion
1070
     0
1000
AcDbSavedByObjectVersion
1070
     0
1000
AcDbSavedByObjectVersion
1070
     0
1000
AcDbSavedByObjectVersion
1070
     0
1000
AcDbSavedByObjectVersion
1070
     0
1000
AcDbSavedByObjectVersion
1070
     0
1000
AcDbSavedByObjectVersion
1070
     0
1000
AcDbSavedByObjectVersion
1070
     0
1000
AcDbSavedByObjectVersion
1070
     0
1000
AcDbSavedByObjectVersion
1070
     0
1000
AcDbSavedByObjectVersion
1070
     0
1000
AcDbSavedByObjectVersion
1070
     0
1000
AcDbSavedByObjectVersion
1070
     0
1000
AcDbSavedByObjectVersion
1070
     0
1000
AcDbSavedByObjectVersion
1070
     0
1000
AcDbSavedByObjectVersion
1070
     0
1000
AcDbSavedByObjectVersion
1070
     0
1000
AcDbSavedByObjectVersion
1070
     0
1000
AcDbSavedByObjectVersion
1070
     0
1000
AcDbSavedByObjectVersion
1070
     0
1000
AcDbSavedByObjectVersion
1070
     0
1000
AcDbSavedByObjectVersion
1070
     0
1000
AcDbSavedByObjectVersion
1070
     0
1000
AcDbSavedByObjectVersion
1070
     0
1000
AcDbSavedByObjectVersion
1070
     0
1000
AcDbSavedByObjectVersion
1070
     0
1000
AcDbSavedByObjectVersion
1070
     0
1000
AcDbSavedByObjectVersion
1070
     0
1000
AcDbSavedByObjectVersion
1070
     0
1000
AcDbSavedByObjectVersion
1070
     0
1000
AcDbSavedByObjectVersion
1070
     0
  0
VISUALSTYLE
  5
30
102
{ACAD_REACTORS
330
2A
102
}
330
2A
100
AcDbVisualStyle
  2
3dWireframe
 70
     5
 71
     0
 72
     2
 73
     0
 90
        0
 40
-0.6
 41
-30.0
 62
     5
 63
     7
 74
     1
 91
        4
 64
     7
 65
   257
 75
     1
175
     1
 42
1.0
 92
        0
 66
   257
 43
1.0
 76
     1
 77
     6
 78
     2
 67
     7
 79
     5
170
     0
171
     0
290
     0
174
     0
 93
        1
 44
0.0
173
     0
291
     0
 45
0.0
1001
ACAD
1000
AcDbSavedByObjectVersion
1070
     0
1000
AcDbSavedByObjectVersion
1070
     0
1000
AcDbSavedByObjectVersion
1070
     0
1000
AcDbSavedByObjectVersion
1070
     0
1000
AcDbSavedByObjectVersion
1070
     0
1000
AcDbSavedByObjectVersion
1070
     0
1000
AcDbSavedByObjectVersion
1070
     0
1000
AcDbSavedByObjectVersion
1070
     0
1000
AcDbSavedByObjectVersion
1070
     0
1000
AcDbSavedByObjectVersion
1070
     0
1000
AcDbSavedByObjectVersion
1070
     0
1000
AcDbSavedByObjectVersion
1070
     0
1000
AcDbSavedByObjectVersion
1070
     0
1000
AcDbSavedByObjectVersion
1070
     0
1000
AcDbSavedByObjectVersion
1070
     0
1000
AcDbSavedByObjectVersion
1070
     0
1000
AcDbSavedByObjectVersion
1070
     0
1000
AcDbSavedByObjectVersion
1070
     0
1000
AcDbSavedByObjectVersion
1070
     0
1000
AcDbSavedByObjectVersion
1070
     0
1000
AcDbSavedByObjectVersion
1070
     0
1000
AcDbSavedByObjectVersion
1070
     0
1000
AcDbSavedByObjectVersion
1070
     0
1000
AcDbSavedByObjectVersion
1070
     0
1000
AcDbSavedByObjectVersion
1070
     0
1000
AcDbSavedByObjectVersion
1070
     0
1000
AcDbSavedByObjectVersion
1070
     0
1000
AcDbSavedByObjectVersion
1070
     0
1000
AcDbSavedByObjectVersion
1070
     0
1000
AcDbSavedByObjectVersion
1070
     0
1000
AcDbSavedByObjectVersion
1070
     0
1000
AcDbSavedByObjectVersion
1070
     0
1000
AcDbSavedByObjectVersion
1070
     0
1000
AcDbSavedByObjectVersion
1070
     0
1000
AcDbSavedByObjectVersion
1070
     0
1000
AcDbSavedByObjectVersion
1070
     0
1000
AcDbSavedByObjectVersion
1070
     0
1000
AcDbSavedByObjectVersion
1070
     0
1000
AcDbSavedByObjectVersion
1070
     0
1000
AcDbSavedByObjectVersion
1070
     0
1000
AcDbSavedByObjectVersion
1070
     0
1000
AcDbSavedByObjectVersion
1070
     0
1000
AcDbSavedByObjectVersion
1070
     0
1000
AcDbSavedByObjectVersion
1070
     0
1000
AcDbSavedByObjectVersion
1070
     0
1000
AcDbSavedByObjectVersion
1070
     0
1000
AcDbSavedByObjectVersion
1070
     0
  0
VISUALSTYLE
  5
32
102
{ACAD_REACTORS
330
2A
102
}
330
2A
100
AcDbVisualStyle
  2
Basic
 70
     7
 71
     1
 72
     0
 73
     1
 90
        0
 40
-0.6
 41
-30.0
 62
     5
 63
     7
 74
     0
 91
        4
 64
     7
 65
   257
 75
     1
175
     1
 42
1.0
 92
        8
 66
     7
 43
1.0
 76
     1
 77
     6
 78
     2
 67
     7
 79
     5
170
     0
171
     0
290
     0
174
     0
 93
        1
 44
0.0
173
     0
291
     1
 45
0.0
1001
ACAD
1000
AcDbSavedByObjectVersion
1070
     0
1000
AcDbSavedByObjectVersion
1070
     0
1000
AcDbSavedByObjectVersion
1070
     0
1000
AcDbSavedByObjectVersion
1070
     0
1000
AcDbSavedByObjectVersion
1070
     0
1000
AcDbSavedByObjectVersion
1070
     0
1000
AcDbSavedByObjectVersion
1070
     0
1000
AcDbSavedByObjectVersion
1070
     0
1000
AcDbSavedByObjectVersion
1070
     0
1000
AcDbSavedByObjectVersion
1070
     0
1000
AcDbSavedByObjectVersion
1070
     0
1000
AcDbSavedByObjectVersion
1070
     0
1000
AcDbSavedByObjectVersion
1070
     0
1000
AcDbSavedByObjectVersion
1070
     0
1000
AcDbSavedByObjectVersion
1070
     0
1000
AcDbSavedByObjectVersion
1070
     0
1000
AcDbSavedByObjectVersion
1070
     0
1000
AcDbSavedByObjectVersion
1070
     0
1000
AcDbSavedByObjectVersion
1070
     0
1000
AcDbSavedByObjectVersion
1070
     0
1000
AcDbSavedByObjectVersion
1070
     0
1000
AcDbSavedByObjectVersion
1070
     0
1000
AcDbSavedByObjectVersion
1070
     0
1000
AcDbSavedByObjectVersion
1070
     0
1000
AcDbSavedByObjectVersion
1070
     0
1000
AcDbSavedByObjectVersion
1070
     0
1000
AcDbSavedByObjectVersion
1070
     0
1000
AcDbSavedByObjectVersion
1070
     0
1000
AcDbSavedByObjectVersion
1070
     0
1000
AcDbSavedByObjectVersion
1070
     0
1000
AcDbSavedByObjectVersion
1070
     0
1000
AcDbSavedByObjectVersion
1070
     0
1000
AcDbSavedByObjectVersion
1070
     0
1000
AcDbSavedByObjectVersion
1070
     0
1000
AcDbSavedByObjectVersion
1070
     0
1000
AcDbSavedByObjectVersion
1070
     0
1000
AcDbSavedByObjectVersion
1070
     0
1000
AcDbSavedByObjectVersion
1070
     0
1000
AcDbSavedByObjectVersion
1070
     0
1000
AcDbSavedByObjectVersion
1070
     0
1000
AcDbSavedByObjectVersion
1070
     0
1000
AcDbSavedByObjectVersion
1070
     0
1000
AcDbSavedByObjectVersion
1070
     0
1000
AcDbSavedByObjectVersion
1070
     0
1000
AcDbSavedByObjectVersion
1070
     0
1000
AcDbSavedByObjectVersion
1070
     0
1000
AcDbSavedByObjectVersion
1070
     0
  0
VISUALSTYLE
  5
36
102
{ACAD_REACTORS
330
2A
102
}
330
2A
100
AcDbVisualStyle
  2
Brighten
 70
    12
 71
     2
 72
     2
 73
     0
 90
        0
 40
-0.6
 41
-30.0
 62
     5
 63
     7
 74
     1
 91
        4
 64
     7
 65
   257
 75
     1
175
     1
 42
1.0
 92
        8
 66
     7
 43
1.0
 76
     1
 77
     6
 78
     2
 67
     7
 79
     5
170
     0
171
     0
290
     0
174
     0
 93
        1
 44
50.0
173
     0
291
     1
 45
0.0
1001
ACAD
1000
AcDbSavedByObjectVersion
1070
     0
1000
AcDbSavedByObjectVersion
1070
     0
1000
AcDbSavedByObjectVersion
1070
     0
1000
AcDbSavedByObjectVersion
1070
     0
1000
AcDbSavedByObjectVersion
1070
     0
1000
AcDbSavedByObjectVersion
1070
     0
1000
AcDbSavedByObjectVersion
1070
     0
1000
AcDbSavedByObjectVersion
1070
     0
1000
AcDbSavedByObjectVersion
1070
     0
1000
AcDbSavedByObjectVersion
1070
     0
1000
AcDbSavedByObjectVersion
1070
     0
1000
AcDbSavedByObjectVersion
1070
     0
1000
AcDbSavedByObjectVersion
1070
     0
1000
AcDbSavedByObjectVersion
1070
     0
1000
AcDbSavedByObjectVersion
1070
     0
1000
AcDbSavedByObjectVersion
1070
     0
1000
AcDbSavedByObjectVersion
1070
     0
1000
AcDbSavedByObjectVersion
1070
     0
1000
AcDbSavedByObjectVersion
1070
     0
1000
AcDbSavedByObjectVersion
1070
     0
1000
AcDbSavedByObjectVersion
1070
     0
1000
AcDbSavedByObjectVersion
1070
     0
1000
AcDbSavedByObjectVersion
1070
     0
1000
AcDbSavedByObjectVersion
1070
     0
1000
AcDbSavedByObjectVersion
1070
     0
1000
AcDbSavedByObjectVersion
1070
     0
1000
AcDbSavedByObjectVersion
1070
     0
1000
AcDbSavedByObjectVersion
1070
     0
1000
AcDbSavedByObjectVersion
1070
     0
1000
AcDbSavedByObjectVersion
1070
     0
1000
AcDbSavedByObjectVersion
1070
     0
1000
AcDbSavedByObjectVersion
1070
     0
1000
AcDbSavedByObjectVersion
1070
     0
1000
AcDbSavedByObjectVersion
1070
     0
1000
AcDbSavedByObjectVersion
1070
     0
1000
AcDbSavedByObjectVersion
1070
     0
1000
AcDbSavedByObjectVersion
1070
     0
1000
AcDbSavedByObjectVersion
1070
     0
1000
AcDbSavedByObjectVersion
1070
     0
1000
AcDbSavedByObjectVersion
1070
     0
1000
AcDbSavedByObjectVersion
1070
     0
1000
AcDbSavedByObjectVersion
1070
     0
1000
AcDbSavedByObjectVersion
1070
     0
1000
AcDbSavedByObjectVersion
1070
     0
1000
AcDbSavedByObjectVersion
1070
     0
1000
AcDbSavedByObjectVersion
1070
     0
1000
AcDbSavedByObjectVersion
1070
     0
  0
VISUALSTYLE
  5
3A
102
{ACAD_REACTORS
330
2A
102
}
330
2A
100
AcDbVisualStyle
  2
ColorChange
 70
    16
 71
     2
 72
     2
 73
     3
 90
        0
 40
-0.6
 41
-30.0
 62
     5
 63
     8
 74
     1
 91
        4
 64
     7
 65
   257
 75
     1
175
     1
 42
1.0
 92
        8
 66
     8
 43
1.0
 76
     1
 77
     6
 78
     2
 67
     7
 79
     5
170
     0
171
     0
290
     0
174
     0
 93
        1
 44
0.0
173
     0
291
     1
 45
0.0
1001
ACAD
1000
AcDbSavedByObjectVersion
1070
     0
1000
AcDbSavedByObjectVersion
1070
     0
1000
AcDbSavedByObjectVersion
1070
     0
1000
AcDbSavedByObjectVersion
1070
     0
1000
AcDbSavedByObjectVersion
1070
     0
1000
AcDbSavedByObjectVersion
1070
     0
1000
AcDbSavedByObjectVersion
1070
     0
1000
AcDbSavedByObjectVersion
1070
     0
1000
AcDbSavedByObjectVersion
1070
     0
1000
AcDbSavedByObjectVersion
1070
     0
1000
AcDbSavedByObjectVersion
1070
     0
1000
AcDbSavedByObjectVersion
1070
     0
1000
AcDbSavedByObjectVersion
1070
     0
1000
AcDbSavedByObjectVersion
1070
     0
1000
AcDbSavedByObjectVersion
1070
     0
1000
AcDbSavedByObjectVersion
1070
     0
1000
AcDbSavedByObjectVersion
1070
     0
1000
AcDbSavedByObjectVersion
1070
     0
1000
AcDbSavedByObjectVersion
1070
     0
1000
AcDbSavedByObjectVersion
1070
     0
1000
AcDbSavedByObjectVersion
1070
     0
1000
AcDbSavedByObjectVersion
1070
     0
1000
AcDbSavedByObjectVersion
1070
     0
1000
AcDbSavedByObjectVersion
1070
     0
1000
AcDbSavedByObjectVersion
1070
     0
1000
AcDbSavedByObjectVersion
1070
     0
1000
AcDbSavedByObjectVersion
1070
     0
1000
AcDbSavedByObjectVersion
1070
     0
1000
AcDbSavedByObjectVersion
1070
     0
1000
AcDbSavedByObjectVersion
1070
     0
1000
AcDbSavedByObjectVersion
1070
     0
1000
AcDbSavedByObjectVersion
1070
     0
1000
AcDbSavedByObjectVersion
1070
     0
1000
AcDbSavedByObjectVersion
1070
     0
1000
AcDbSavedByObjectVersion
1070
     0
1000
AcDbSavedByObjectVersion
1070
     0
1000
AcDbSavedByObjectVersion
1070
     0
1000
AcDbSavedByObjectVersion
1070
     0
1000
AcDbSavedByObjectVersion
1070
     0
1000
AcDbSavedByObjectVersion
1070
     0
1000
AcDbSavedByObjectVersion
1070
     0
1000
AcDbSavedByObjectVersion
1070
     0
1000
AcDbSavedByObjectVersion
1070
     0
1000
AcDbSavedByObjectVersion
1070
     0
1000
AcDbSavedByObjectVersion
1070
     0
1000
AcDbSavedByObjectVersion
1070
     0
1000
AcDbSavedByObjectVersion
1070
     0
  0
VISUALSTYLE
  5
34
102
{ACAD_REACTORS
330
2A
102
}
330
2A
100
AcDbVisualStyle
  2
Conceptual
 70
     9
 71
     3
 72
     2
 73
     0
 90
        0
 40
-0.6
 41
-30.0
 62
     5
 63
     7
 74
     2
 91
        2
 64
     7
 65
   257
 75
     1
175
     1
 42
40.0
 92
        8
 66
     7
 43
1.0
 76
     1
 77
     6
 78
     2
 67
     7
 79
     3
170
     0
171
     0
290
     0
174
     0
 93
        1
 44
0.0
173
     0
291
     0
 45
0.0
1001
ACAD
1000
AcDbSavedByObjectVersion
1070
     0
1000
AcDbSavedByObjectVersion
1070
     0
1000
AcDbSavedByObjectVersion
1070
     0
1000
AcDbSavedByObjectVersion
1070
     0
1000
AcDbSavedByObjectVersion
1070
     0
1000
AcDbSavedByObjectVersion
1070
     0
1000
AcDbSavedByObjectVersion
1070
     0
1000
AcDbSavedByObjectVersion
1070
     0
1000
AcDbSavedByObjectVersion
1070
     0
1000
AcDbSavedByObjectVersion
1070
     0
1000
AcDbSavedByObjectVersion
1070
     0
1000
AcDbSavedByObjectVersion
1070
     0
1000
AcDbSavedByObjectVersion
1070
     0
1000
AcDbSavedByObjectVersion
1070
     0
1000
AcDbSavedByObjectVersion
1070
     0
1000
AcDbSavedByObjectVersion
1070
     0
1000
AcDbSavedByObjectVersion
1070
     0
1000
AcDbSavedByObjectVersion
1070
     0
1000
AcDbSavedByObjectVersion
1070
     0
1000
AcDbSavedByObjectVersion
1070
     0
1000
AcDbSavedByObjectVersion
1070
     0
1000
AcDbSavedByObjectVersion
1070
     0
1000
AcDbSavedByObjectVersion
1070
     0
1000
AcDbSavedByObjectVersion
1070
     0
1000
AcDbSavedByObjectVersion
1070
     0
1000
AcDbSavedByObjectVersion
1070
     0
1000
AcDbSavedByObjectVersion
1070
     0
1000
AcDbSavedByObjectVersion
1070
     0
1000
AcDbSavedByObjectVersion
1070
     0
1000
AcDbSavedByObjectVersion
1070
     0
1000
AcDbSavedByObjectVersion
1070
     0
1000
AcDbSavedByObjectVersion
1070
     0
1000
AcDbSavedByObjectVersion
1070
     0
1000
AcDbSavedByObjectVersion
1070
     0
1000
AcDbSavedByObjectVersion
1070
     0
1000
AcDbSavedByObjectVersion
1070
     0
1000
AcDbSavedByObjectVersion
1070
     0
1000
AcDbSavedByObjectVersion
1070
     0
1000
AcDbSavedByObjectVersion
1070
     0
1000
AcDbSavedByObjectVersion
1070
     0
1000
AcDbSavedByObjectVersion
1070
     0
1000
AcDbSavedByObjectVersion
1070
     0
1000
AcDbSavedByObjectVersion
1070
     0
1000
AcDbSavedByObjectVersion
1070
     0
1000
AcDbSavedByObjectVersion
1070
     0
1000
AcDbSavedByObjectVersion
1070
     0
1000
AcDbSavedByObjectVersion
1070
     0
  0
VISUALSTYLE
  5
35
102
{ACAD_REACTORS
330
2A
102
}
330
2A
100
AcDbVisualStyle
  2
Dim
 70
    11
 71
     2
 72
     2
 73
     0
 90
        0
 40
-0.6
 41
-30.0
 62
     5
 63
     7
 74
     1
 91
        4
 64
     7
 65
   257
 75
     1
175
     1
 42
1.0
 92
        8
 66
     7
 43
1.0
 76
     1
 77
     6
 78
     2
 67
     7
 79
     5
170
     0
171
     0
290
     0
174
     0
 93
        1
 44
-50.0
173
     0
291
     1
 45
0.0
1001
ACAD
1000
AcDbSavedByObjectVersion
1070
     0
1000
AcDbSavedByObjectVersion
1070
     0
1000
AcDbSavedByObjectVersion
1070
     0
1000
AcDbSavedByObjectVersion
1070
     0
1000
AcDbSavedByObjectVersion
1070
     0
1000
AcDbSavedByObjectVersion
1070
     0
1000
AcDbSavedByObjectVersion
1070
     0
1000
AcDbSavedByObjectVersion
1070
     0
1000
AcDbSavedByObjectVersion
1070
     0
1000
AcDbSavedByObjectVersion
1070
     0
1000
AcDbSavedByObjectVersion
1070
     0
1000
AcDbSavedByObjectVersion
1070
     0
1000
AcDbSavedByObjectVersion
1070
     0
1000
AcDbSavedByObjectVersion
1070
     0
1000
AcDbSavedByObjectVersion
1070
     0
1000
AcDbSavedByObjectVersion
1070
     0
1000
AcDbSavedByObjectVersion
1070
     0
1000
AcDbSavedByObjectVersion
1070
     0
1000
AcDbSavedByObjectVersion
1070
     0
1000
AcDbSavedByObjectVersion
1070
     0
1000
AcDbSavedByObjectVersion
1070
     0
1000
AcDbSavedByObjectVersion
1070
     0
1000
AcDbSavedByObjectVersion
1070
     0
1000
AcDbSavedByObjectVersion
1070
     0
1000
AcDbSavedByObjectVersion
1070
     0
1000
AcDbSavedByObjectVersion
1070
     0
1000
AcDbSavedByObjectVersion
1070
     0
1000
AcDbSavedByObjectVersion
1070
     0
1000
AcDbSavedByObjectVersion
1070
     0
1000
AcDbSavedByObjectVersion
1070
     0
1000
AcDbSavedByObjectVersion
1070
     0
1000
AcDbSavedByObjectVersion
1070
     0
1000
AcDbSavedByObjectVersion
1070
     0
1000
AcDbSavedByObjectVersion
1070
     0
1000
AcDbSavedByObjectVersion
1070
     0
1000
AcDbSavedByObjectVersion
1070
     0
1000
AcDbSavedByObjectVersion
1070
     0
1000
AcDbSavedByObjectVersion
1070
     0
1000
AcDbSavedByObjectVersion
1070
     0
1000
AcDbSavedByObjectVersion
1070
     0
1000
AcDbSavedByObjectVersion
1070
     0
1000
AcDbSavedByObjectVersion
1070
     0
1000
AcDbSavedByObjectVersion
1070
     0
1000
AcDbSavedByObjectVersion
1070
     0
1000
AcDbSavedByObjectVersion
1070
     0
1000
AcDbSavedByObjectVersion
1070
     0
1000
AcDbSavedByObjectVersion
1070
     0
  0
VISUALSTYLE
  5
39
102
{ACAD_REACTORS
330
2A
102
}
330
2A
100
AcDbVisualStyle
  2
Facepattern
 70
    15
 71
     2
 72
     2
 73
     0
 90
        0
 40
-0.6
 41
-30.0
 62
     5
 63
     7
 74
     1
 91
        4
 64
     7
 65
   257
 75
     1
175
     1
 42
1.0
 92
        8
 66
     7
 43
1.0
 76
     1
 77
     6
 78
     2
 67
     7
 79
     5
170
     0
171
     0
290
     0
174
     0
 93
        1
 44
0.0
173
     0
291
     1
 45
0.0
1001
ACAD
1000
AcDbSavedByObjectVersion
1070
     0
1000
AcDbSavedByObjectVersion
1070
     0
1000
AcDbSavedByObjectVersion
1070
     0
1000
AcDbSavedByObjectVersion
1070
     0
1000
AcDbSavedByObjectVersion
1070
     0
1000
AcDbSavedByObjectVersion
1070
     0
1000
AcDbSavedByObjectVersion
1070
     0
1000
AcDbSavedByObjectVersion
1070
     0
1000
AcDbSavedByObjectVersion
1070
     0
1000
AcDbSavedByObjectVersion
1070
     0
1000
AcDbSavedByObjectVersion
1070
     0
1000
AcDbSavedByObjectVersion
1070
     0
1000
AcDbSavedByObjectVersion
1070
     0
1000
AcDbSavedByObjectVersion
1070
     0
1000
AcDbSavedByObjectVersion
1070
     0
1000
AcDbSavedByObjectVersion
1070
     0
1000
AcDbSavedByObjectVersion
1070
     0
1000
AcDbSavedByObjectVersion
1070
     0
1000
AcDbSavedByObjectVersion
1070
     0
1000
AcDbSavedByObjectVersion
1070
     0
1000
AcDbSavedByObjectVersion
1070
     0
1000
AcDbSavedByObjectVersion
1070
     0
1000
AcDbSavedByObjectVersion
1070
     0
1000
AcDbSavedByObjectVersion
1070
     0
1000
AcDbSavedByObjectVersion
1070
     0
1000
AcDbSavedByObjectVersion
1070
     0
1000
AcDbSavedByObjectVersion
1070
     0
1000
AcDbSavedByObjectVersion
1070
     0
1000
AcDbSavedByObjectVersion
1070
     0
1000
AcDbSavedByObjectVersion
1070
     0
1000
AcDbSavedByObjectVersion
1070
     0
1000
AcDbSavedByObjectVersion
1070
     0
1000
AcDbSavedByObjectVersion
1070
     0
1000
AcDbSavedByObjectVersion
1070
     0
1000
AcDbSavedByObjectVersion
1070
     0
1000
AcDbSavedByObjectVersion
1070
     0
1000
AcDbSavedByObjectVersion
1070
     0
1000
AcDbSavedByObjectVersion
1070
     0
1000
AcDbSavedByObjectVersion
1070
     0
1000
AcDbSavedByObjectVersion
1070
     0
1000
AcDbSavedByObjectVersion
1070
     0
1000
AcDbSavedByObjectVersion
1070
     0
1000
AcDbSavedByObjectVersion
1070
     0
1000
AcDbSavedByObjectVersion
1070
     0
1000
AcDbSavedByObjectVersion
1070
     0
1000
AcDbSavedByObjectVersion
1070
     0
1000
AcDbSavedByObjectVersion
1070
     0
  0
VISUALSTYLE
  5
2B
102
{ACAD_REACTORS
330
2A
102
}
330
2A
100
AcDbVisualStyle
  2
Flat
 70
     0
 71
     2
 72
     1
 73
     1
 90
        2
 40
-0.6
 41
30.0
 62
     5
 63
     7
 74
     0
 91
        4
 64
     7
 65
   257
 75
     1
175
     1
 42
1.0
 92
        8
 66
     7
 43
1.0
 76
     1
 77
     6
 78
     2
 67
     7
 79
     5
170
     0
171
     0
290
     0
174
     0
 93
       13
 44
0.0
173
     0
291
     1
 45
0.0
1001
ACAD
1000
AcDbSavedByObjectVersion
1070
     0
1000
AcDbSavedByObjectVersion
1070
     0
1000
AcDbSavedByObjectVersion
1070
     0
1000
AcDbSavedByObjectVersion
1070
     0
1000
AcDbSavedByObjectVersion
1070
     0
1000
AcDbSavedByObjectVersion
1070
     0
1000
AcDbSavedByObjectVersion
1070
     0
1000
AcDbSavedByObjectVersion
1070
     0
1000
AcDbSavedByObjectVersion
1070
     0
1000
AcDbSavedByObjectVersion
1070
     0
1000
AcDbSavedByObjectVersion
1070
     0
1000
AcDbSavedByObjectVersion
1070
     0
1000
AcDbSavedByObjectVersion
1070
     0
1000
AcDbSavedByObjectVersion
1070
     0
1000
AcDbSavedByObjectVersion
1070
     0
1000
AcDbSavedByObjectVersion
1070
     0
1000
AcDbSavedByObjectVersion
1070
     0
1000
AcDbSavedByObjectVersion
1070
     0
1000
AcDbSavedByObjectVersion
1070
     0
1000
AcDbSavedByObjectVersion
1070
     0
1000
AcDbSavedByObjectVersion
1070
     0
1000
AcDbSavedByObjectVersion
1070
     0
1000
AcDbSavedByObjectVersion
1070
     0
1000
AcDbSavedByObjectVersion
1070
     0
1000
AcDbSavedByObjectVersion
1070
     0
1000
AcDbSavedByObjectVersion
1070
     0
1000
AcDbSavedByObjectVersion
1070
     0
1000
AcDbSavedByObjectVersion
1070
     0
1000
AcDbSavedByObjectVersion
1070
     0
1000
AcDbSavedByObjectVersion
1070
     0
1000
AcDbSavedByObjectVersion
1070
     0
1000
AcDbSavedByObjectVersion
1070
     0
1000
AcDbSavedByObjectVersion
1070
     0
1000
AcDbSavedByObjectVersion
1070
     0
1000
AcDbSavedByObjectVersion
1070
     0
1000
AcDbSavedByObjectVersion
1070
     0
1000
AcDbSavedByObjectVersion
1070
     0
1000
AcDbSavedByObjectVersion
1070
     0
1000
AcDbSavedByObjectVersion
1070
     0
1000
AcDbSavedByObjectVersion
1070
     0
1000
AcDbSavedByObjectVersion
1070
     0
1000
AcDbSavedByObjectVersion
1070
     0
1000
AcDbSavedByObjectVersion
1070
     0
1000
AcDbSavedByObjectVersion
1070
     0
1000
AcDbSavedByObjectVersion
1070
     0
1000
AcDbSavedByObjectVersion
1070
     0
1000
AcDbSavedByObjectVersion
1070
     0
  0
VISUALSTYLE
  5
2C
102
{ACAD_REACTORS
330
2A
102
}
330
2A
100
AcDbVisualStyle
  2
FlatWithEdges
 70
     1
 71
     2
 72
     1
 73
     1
 90
        2
 40
-0.6
 41
30.0
 62
     5
 63
     7
 74
     1
 91
        4
 64
     7
 65
   257
 75
     1
175
     1
 42
1.0
 92
        0
 66
   257
 43
1.0
 76
     1
 77
     6
 78
     2
 67
     7
 79
     5
170
     0
171
     0
290
     0
174
     0
 93
       13
 44
0.0
173
     0
291
     1
 45
0.0
1001
ACAD
1000
AcDbSavedByObjectVersion
1070
     0
1000
AcDbSavedByObjectVersion
1070
     0
1000
AcDbSavedByObjectVersion
1070
     0
1000
AcDbSavedByObjectVersion
1070
     0
1000
AcDbSavedByObjectVersion
1070
     0
1000
AcDbSavedByObjectVersion
1070
     0
1000
AcDbSavedByObjectVersion
1070
     0
1000
AcDbSavedByObjectVersion
1070
     0
1000
AcDbSavedByObjectVersion
1070
     0
1000
AcDbSavedByObjectVersion
1070
     0
1000
AcDbSavedByObjectVersion
1070
     0
1000
AcDbSavedByObjectVersion
1070
     0
1000
AcDbSavedByObjectVersion
1070
     0
1000
AcDbSavedByObjectVersion
1070
     0
1000
AcDbSavedByObjectVersion
1070
     0
1000
AcDbSavedByObjectVersion
1070
     0
1000
AcDbSavedByObjectVersion
1070
     0
1000
AcDbSavedByObjectVersion
1070
     0
1000
AcDbSavedByObjectVersion
1070
     0
1000
AcDbSavedByObjectVersion
1070
     0
1000
AcDbSavedByObjectVersion
1070
     0
1000
AcDbSavedByObjectVersion
1070
     0
1000
AcDbSavedByObjectVersion
1070
     0
1000
AcDbSavedByObjectVersion
1070
     0
1000
AcDbSavedByObjectVersion
1070
     0
1000
AcDbSavedByObjectVersion
1070
     0
1000
AcDbSavedByObjectVersion
1070
     0
1000
AcDbSavedByObjectVersion
1070
     0
1000
AcDbSavedByObjectVersion
1070
     0
1000
AcDbSavedByObjectVersion
1070
     0
1000
AcDbSavedByObjectVersion
1070
     0
1000
AcDbSavedByObjectVersion
1070
     0
1000
AcDbSavedByObjectVersion
1070
     0
1000
AcDbSavedByObjectVersion
1070
     0
1000
AcDbSavedByObjectVersion
1070
     0
1000
AcDbSavedByObjectVersion
1070
     0
1000
AcDbSavedByObjectVersion
1070
     0
1000
AcDbSavedByObjectVersion
1070
     0
1000
AcDbSavedByObjectVersion
1070
     0
1000
AcDbSavedByObjectVersion
1070
     0
1000
AcDbSavedByObjectVersion
1070
     0
1000
AcDbSavedByObjectVersion
1070
     0
1000
AcDbSavedByObjectVersion
1070
     0
1000
AcDbSavedByObjectVersion
1070
     0
1000
AcDbSavedByObjectVersion
1070
     0
1000
AcDbSavedByObjectVersion
1070
     0
1000
AcDbSavedByObjectVersion
1070
     0
  0
VISUALSTYLE
  5
2D
102
{ACAD_REACTORS
330
2A
102
}
330
2A
100
AcDbVisualStyle
  2
Gouraud
 70
     2
 71
     2
 72
     2
 73
     1
 90
        2
 40
-0.6
 41
30.0
 62
     5
 63
     7
 74
     0
 91
        4
 64
     7
 65
   257
 75
     1
175
     1
 42
1.0
 92
        0
 66
     7
 43
1.0
 76
     1
 77
     6
 78
     2
 67
     7
 79
     5
170
     0
171
     0
290
     0
174
     0
 93
       13
 44
0.0
173
     0
291
     1
 45
0.0
1001
ACAD
1000
AcDbSavedByObjectVersion
1070
     0
1000
AcDbSavedByObjectVersion
1070
     0
1000
AcDbSavedByObjectVersion
1070
     0
1000
AcDbSavedByObjectVersion
1070
     0
1000
AcDbSavedByObjectVersion
1070
     0
1000
AcDbSavedByObjectVersion
1070
     0
1000
AcDbSavedByObjectVersion
1070
     0
1000
AcDbSavedByObjectVersion
1070
     0
1000
AcDbSavedByObjectVersion
1070
     0
1000
AcDbSavedByObjectVersion
1070
     0
1000
AcDbSavedByObjectVersion
1070
     0
1000
AcDbSavedByObjectVersion
1070
     0
1000
AcDbSavedByObjectVersion
1070
     0
1000
AcDbSavedByObjectVersion
1070
     0
1000
AcDbSavedByObjectVersion
1070
     0
1000
AcDbSavedByObjectVersion
1070
     0
1000
AcDbSavedByObjectVersion
1070
     0
1000
AcDbSavedByObjectVersion
1070
     0
1000
AcDbSavedByObjectVersion
1070
     0
1000
AcDbSavedByObjectVersion
1070
     0
1000
AcDbSavedByObjectVersion
1070
     0
1000
AcDbSavedByObjectVersion
1070
     0
1000
AcDbSavedByObjectVersion
1070
     0
1000
AcDbSavedByObjectVersion
1070
     0
1000
AcDbSavedByObjectVersion
1070
     0
1000
AcDbSavedByObjectVersion
1070
     0
1000
AcDbSavedByObjectVersion
1070
     0
1000
AcDbSavedByObjectVersion
1070
     0
1000
AcDbSavedByObjectVersion
1070
     0
1000
AcDbSavedByObjectVersion
1070
     0
1000
AcDbSavedByObjectVersion
1070
     0
1000
AcDbSavedByObjectVersion
1070
     0
1000
AcDbSavedByObjectVersion
1070
     0
1000
AcDbSavedByObjectVersion
1070
     0
1000
AcDbSavedByObjectVersion
1070
     0
1000
AcDbSavedByObjectVersion
1070
     0
1000
AcDbSavedByObjectVersion
1070
     0
1000
AcDbSavedByObjectVersion
1070
     0
1000
AcDbSavedByObjectVersion
1070
     0
1000
AcDbSavedByObjectVersion
1070
     0
1000
AcDbSavedByObjectVersion
1070
     0
1000
AcDbSavedByObjectVersion
1070
     0
1000
AcDbSavedByObjectVersion
1070
     0
1000
AcDbSavedByObjectVersion
1070
     0
1000
AcDbSavedByObjectVersion
1070
     0
1000
AcDbSavedByObjectVersion
1070
     0
1000
AcDbSavedByObjectVersion
1070
     0
  0
VISUALSTYLE
  5
2E
102
{ACAD_REACTORS
330
2A
102
}
330
2A
100
AcDbVisualStyle
  2
GouraudWithEdges
 70
     3
 71
     2
 72
     2
 73
     1
 90
        2
 40
-0.6
 41
30.0
 62
     5
 63
     7
 74
     1
 91
        4
 64
     7
 65
   257
 75
     1
175
     1
 42
1.0
 92
        0
 66
   257
 43
1.0
 76
     1
 77
     6
 78
     2
 67
     7
 79
     5
170
     0
171
     0
290
     0
174
     0
 93
       13
 44
0.0
173
     0
291
     1
 45
0.0
1001
ACAD
1000
AcDbSavedByObjectVersion
1070
     0
1000
AcDbSavedByObjectVersion
1070
     0
1000
AcDbSavedByObjectVersion
1070
     0
1000
AcDbSavedByObjectVersion
1070
     0
1000
AcDbSavedByObjectVersion
1070
     0
1000
AcDbSavedByObjectVersion
1070
     0
1000
AcDbSavedByObjectVersion
1070
     0
1000
AcDbSavedByObjectVersion
1070
     0
1000
AcDbSavedByObjectVersion
1070
     0
1000
AcDbSavedByObjectVersion
1070
     0
1000
AcDbSavedByObjectVersion
1070
     0
1000
AcDbSavedByObjectVersion
1070
     0
1000
AcDbSavedByObjectVersion
1070
     0
1000
AcDbSavedByObjectVersion
1070
     0
1000
AcDbSavedByObjectVersion
1070
     0
1000
AcDbSavedByObjectVersion
1070
     0
1000
AcDbSavedByObjectVersion
1070
     0
1000
AcDbSavedByObjectVersion
1070
     0
1000
AcDbSavedByObjectVersion
1070
     0
1000
AcDbSavedByObjectVersion
1070
     0
1000
AcDbSavedByObjectVersion
1070
     0
1000
AcDbSavedByObjectVersion
1070
     0
1000
AcDbSavedByObjectVersion
1070
     0
1000
AcDbSavedByObjectVersion
1070
     0
1000
AcDbSavedByObjectVersion
1070
     0
1000
AcDbSavedByObjectVersion
1070
     0
1000
AcDbSavedByObjectVersion
1070
     0
1000
AcDbSavedByObjectVersion
1070
     0
1000
AcDbSavedByObjectVersion
1070
     0
1000
AcDbSavedByObjectVersion
1070
     0
1000
AcDbSavedByObjectVersion
1070
     0
1000
AcDbSavedByObjectVersion
1070
     0
1000
AcDbSavedByObjectVersion
1070
     0
1000
AcDbSavedByObjectVersion
1070
     0
1000
AcDbSavedByObjectVersion
1070
     0
1000
AcDbSavedByObjectVersion
1070
     0
1000
AcDbSavedByObjectVersion
1070
     0
1000
AcDbSavedByObjectVersion
1070
     0
1000
AcDbSavedByObjectVersion
1070
     0
1000
AcDbSavedByObjectVersion
1070
     0
1000
AcDbSavedByObjectVersion
1070
     0
1000
AcDbSavedByObjectVersion
1070
     0
1000
AcDbSavedByObjectVersion
1070
     0
1000
AcDbSavedByObjectVersion
1070
     0
1000
AcDbSavedByObjectVersion
1070
     0
1000
AcDbSavedByObjectVersion
1070
     0
1000
AcDbSavedByObjectVersion
1070
     0
  0
VISUALSTYLE
  5
38
102
{ACAD_REACTORS
330
2A
102
}
330
2A
100
AcDbVisualStyle
  2
Linepattern
 70
    14
 71
     2
 72
     2
 73
     0
 90
        0
 40
-0.6
 41
-30.0
 62
     5
 63
     7
 74
     1
 91
        4
 64
     7
 65
   257
 75
     7
175
     7
 42
1.0
 92
        8
 66
     7
 43
1.0
 76
     1
 77
     6
 78
     2
 67
     7
 79
     5
170
     0
171
     0
290
     0
174
     0
 93
        1
 44
0.0
173
     0
291
     1
 45
0.0
1001
ACAD
1000
AcDbSavedByObjectVersion
1070
     0
1000
AcDbSavedByObjectVersion
1070
     0
1000
AcDbSavedByObjectVersion
1070
     0
1000
AcDbSavedByObjectVersion
1070
     0
1000
AcDbSavedByObjectVersion
1070
     0
1000
AcDbSavedByObjectVersion
1070
     0
1000
AcDbSavedByObjectVersion
1070
     0
1000
AcDbSavedByObjectVersion
1070
     0
1000
AcDbSavedByObjectVersion
1070
     0
1000
AcDbSavedByObjectVersion
1070
     0
1000
AcDbSavedByObjectVersion
1070
     0
1000
AcDbSavedByObjectVersion
1070
     0
1000
AcDbSavedByObjectVersion
1070
     0
1000
AcDbSavedByObjectVersion
1070
     0
1000
AcDbSavedByObjectVersion
1070
     0
1000
AcDbSavedByObjectVersion
1070
     0
1000
AcDbSavedByObjectVersion
1070
     0
1000
AcDbSavedByObjectVersion
1070
     0
1000
AcDbSavedByObjectVersion
1070
     0
1000
AcDbSavedByObjectVersion
1070
     0
1000
AcDbSavedByObjectVersion
1070
     0
1000
AcDbSavedByObjectVersion
1070
     0
1000
AcDbSavedByObjectVersion
1070
     0
1000
AcDbSavedByObjectVersion
1070
     0
1000
AcDbSavedByObjectVersion
1070
     0
1000
AcDbSavedByObjectVersion
1070
     0
1000
AcDbSavedByObjectVersion
1070
     0
1000
AcDbSavedByObjectVersion
1070
     0
1000
AcDbSavedByObjectVersion
1070
     0
1000
AcDbSavedByObjectVersion
1070
     0
1000
AcDbSavedByObjectVersion
1070
     0
1000
AcDbSavedByObjectVersion
1070
     0
1000
AcDbSavedByObjectVersion
1070
     0
1000
AcDbSavedByObjectVersion
1070
     0
1000
AcDbSavedByObjectVersion
1070
     0
1000
AcDbSavedByObjectVersion
1070
     0
1000
AcDbSavedByObjectVersion
1070
     0
1000
AcDbSavedByObjectVersion
1070
     0
1000
AcDbSavedByObjectVersion
1070
     0
1000
AcDbSavedByObjectVersion
1070
     0
1000
AcDbSavedByObjectVersion
1070
     0
1000
AcDbSavedByObjectVersion
1070
     0
1000
AcDbSavedByObjectVersion
1070
     0
1000
AcDbSavedByObjectVersion
1070
     0
1000
AcDbSavedByObjectVersion
1070
     0
1000
AcDbSavedByObjectVersion
1070
     0
1000
AcDbSavedByObjectVersion
1070
     0
  0
VISUALSTYLE
  5
33
102
{ACAD_REACTORS
330
2A
102
}
330
2A
100
AcDbVisualStyle
  2
Realistic
 70
     8
 71
     2
 72
     2
 73
     0
 90
        0
 40
-0.6
 41
-30.0
 62
     5
 63
     7
 74
     1
 91
        0
 64
     7
 65
   257
 75
     1
175
     1
 42
1.0
 92
        8
 66
     8
 43
1.0
 76
     1
 77
     6
 78
     2
 67
     7
 79
     5
170
     0
171
     0
290
     0
174
     0
 93
       13
 44
0.0
173
     0
291
     0
 45
0.0
1001
ACAD
1000
AcDbSavedByObjectVersion
1070
     0
1000
AcDbSavedByObjectVersion
1070
     0
1000
AcDbSavedByObjectVersion
1070
     0
1000
AcDbSavedByObjectVersion
1070
     0
1000
AcDbSavedByObjectVersion
1070
     0
1000
AcDbSavedByObjectVersion
1070
     0
1000
AcDbSavedByObjectVersion
1070
     0
1000
AcDbSavedByObjectVersion
1070
     0
1000
AcDbSavedByObjectVersion
1070
     0
1000
AcDbSavedByObjectVersion
1070
     0
1000
AcDbSavedByObjectVersion
1070
     0
1000
AcDbSavedByObjectVersion
1070
     0
1000
AcDbSavedByObjectVersion
1070
     0
1000
AcDbSavedByObjectVersion
1070
     0
1000
AcDbSavedByObjectVersion
1070
     0
1000
AcDbSavedByObjectVersion
1070
     0
1000
AcDbSavedByObjectVersion
1070
     0
1000
AcDbSavedByObjectVersion
1070
     0
1000
AcDbSavedByObjectVersion
1070
     0
1000
AcDbSavedByObjectVersion
1070
     0
1000
AcDbSavedByObjectVersion
1070
     0
1000
AcDbSavedByObjectVersion
1070
     0
1000
AcDbSavedByObjectVersion
1070
     0
1000
AcDbSavedByObjectVersion
1070
     0
1000
AcDbSavedByObjectVersion
1070
     0
1000
AcDbSavedByObjectVersion
1070
     0
1000
AcDbSavedByObjectVersion
1070
     0
1000
AcDbSavedByObjectVersion
1070
     0
1000
AcDbSavedByObjectVersion
1070
     0
1000
AcDbSavedByObjectVersion
1070
     0
1000
AcDbSavedByObjectVersion
1070
     0
1000
AcDbSavedByObjectVersion
1070
     0
1000
AcDbSavedByObjectVersion
1070
     0
1000
AcDbSavedByObjectVersion
1070
     0
1000
AcDbSavedByObjectVersion
1070
     0
1000
AcDbSavedByObjectVersion
1070
     0
1000
AcDbSavedByObjectVersion
1070
     0
1000
AcDbSavedByObjectVersion
1070
     0
1000
AcDbSavedByObjectVersion
1070
     0
1000
AcDbSavedByObjectVersion
1070
     0
1000
AcDbSavedByObjectVersion
1070
     0
1000
AcDbSavedByObjectVersion
1070
     0
1000
AcDbSavedByObjectVersion
1070
     0
1000
AcDbSavedByObjectVersion
1070
     0
1000
AcDbSavedByObjectVersion
1070
     0
1000
AcDbSavedByObjectVersion
1070
     0
1000
AcDbSavedByObjectVersion
1070
     0
  0
VISUALSTYLE
  5
37
102
{ACAD_REACTORS
330
2A
102
}
330
2A
100
AcDbVisualStyle
  2
Thicken
 70
    13
 71
     2
 72
     2
 73
     0
 90
        0
 40
-0.6
 41
-30.0
 62
     5
 63
     7
 74
     1
 91
        4
 64
     7
 65
   257
 75
     1
175
     1
 42
1.0
 92
       12
 66
     7
 43
1.0
 76
     1
 77
     6
 78
     2
 67
     7
 79
     5
170
     0
171
     0
290
     0
174
     0
 93
        1
 44
0.0
173
     0
291
     1
 45
0.0
1001
ACAD
1000
AcDbSavedByObjectVersion
1070
     0
1000
AcDbSavedByObjectVersion
1070
     0
1000
AcDbSavedByObjectVersion
1070
     0
1000
AcDbSavedByObjectVersion
1070
     0
1000
AcDbSavedByObjectVersion
1070
     0
1000
AcDbSavedByObjectVersion
1070
     0
1000
AcDbSavedByObjectVersion
1070
     0
1000
AcDbSavedByObjectVersion
1070
     0
1000
AcDbSavedByObjectVersion
1070
     0
1000
AcDbSavedByObjectVersion
1070
     0
1000
AcDbSavedByObjectVersion
1070
     0
1000
AcDbSavedByObjectVersion
1070
     0
1000
AcDbSavedByObjectVersion
1070
     0
1000
AcDbSavedByObjectVersion
1070
     0
1000
AcDbSavedByObjectVersion
1070
     0
1000
AcDbSavedByObjectVersion
1070
     0
1000
AcDbSavedByObjectVersion
1070
     0
1000
AcDbSavedByObjectVersion
1070
     0
1000
AcDbSavedByObjectVersion
1070
     0
1000
AcDbSavedByObjectVersion
1070
     0
1000
AcDbSavedByObjectVersion
1070
     0
1000
AcDbSavedByObjectVersion
1070
     0
1000
AcDbSavedByObjectVersion
1070
     0
1000
AcDbSavedByObjectVersion
1070
     0
1000
AcDbSavedByObjectVersion
1070
     0
1000
AcDbSavedByObjectVersion
1070
     0
1000
AcDbSavedByObjectVersion
1070
     0
1000
AcDbSavedByObjectVersion
1070
     0
1000
AcDbSavedByObjectVersion
1070
     0
1000
AcDbSavedByObjectVersion
1070
     0
1000
AcDbSavedByObjectVersion
1070
     0
1000
AcDbSavedByObjectVersion
1070
     0
1000
AcDbSavedByObjectVersion
1070
     0
1000
AcDbSavedByObjectVersion
1070
     0
1000
AcDbSavedByObjectVersion
1070
     0
1000
AcDbSavedByObjectVersion
1070
     0
1000
AcDbSavedByObjectVersion
1070
     0
1000
AcDbSavedByObjectVersion
1070
     0
1000
AcDbSavedByObjectVersion
1070
     0
1000
AcDbSavedByObjectVersion
1070
     0
1000
AcDbSavedByObjectVersion
1070
     0
1000
AcDbSavedByObjectVersion
1070
     0
1000
AcDbSavedByObjectVersion
1070
     0
1000
AcDbSavedByObjectVersion
1070
     0
1000
AcDbSavedByObjectVersion
1070
     0
1000
AcDbSavedByObjectVersion
1070
     0
1000
AcDbSavedByObjectVersion
1070
     0
  0
DICTIONARYVAR
  5
510B
102
{ACAD_REACTORS
330
5108
102
}
330
5108
100
DictionaryVariables
280
     0
  1
1:1
  0
DICTIONARYVAR
  5
510A
102
{ACAD_REACTORS
330
5108
102
}
330
5108
100
DictionaryVariables
280
     0
  1
STANDARD
  0
DICTIONARYVAR
  5
5109
102
{ACAD_REACTORS
330
5108
102
}
330
5108
100
DictionaryVariables
280
     0
  1
STANDARD
  0
DICTIONARYVAR
  5
510E
102
{ACAD_REACTORS
330
5108
102
}
330
5108
100
DictionaryVariables
280
     0
  1
1
  0
DICTIONARYVAR
  5
510D
102
{ACAD_REACTORS
330
5108
102
}
330
5108
100
DictionaryVariables
280
     0
  1
0
  0
DICTIONARYVAR
  5
13FA0
102
{ACAD_REACTORS
330
5108
102
}
330
5108
100
DictionaryVariables
280
     0
  1
0
  0
DICTIONARYVAR
  5
13F9F
102
{ACAD_REACTORS
330
5108
102
}
330
5108
100
DictionaryVariables
280
     0
  1
0
  0
DICTIONARYVAR
  5
510C
102
{ACAD_REACTORS
330
5108
102
}
330
5108
100
DictionaryVariables
280
     0
  1
127
  0
XRECORD
  5
11ACF
102
{ACAD_REACTORS
330
11ACE
102
}
330
11ACE
100
AcDbXrecord
280
     1
330
0
  0
VLO-VL
  5
13F83
102
{ACAD_REACTORS
330
13F82
102
}
330
13F82
100
vlo_VL
 90
   -64512
 91
       12
 92
        1
 40
2.5
300
(&VLO-R . 0)
  0
DICTIONARY
  5
4FEF
330
4FEE
100
AcDbDictionary
280
     1
281
     1
  3
ACAD_XREC_ROUNDTRIP
360
7C2C
  3
BUMPTILE
360
4FF1
  3
DIFFUSETILE
360
4FF0
  3
OPACITYTILE
360
4FF4
  3
REFLECTIONTILE
360
4FF3
  3
REFRACTIONTILE
360
4FF5
  3
SPECULARTILE
360
4FF2
  0
DICTIONARY
  5
4FE7
330
4FE6
100
AcDbDictionary
280
     1
281
     1
  3
ACAD_XREC_ROUNDTRIP
360
7C2B
  3
BUMPTILE
360
4FE9
  3
DIFFUSETILE
360
4FE8
  3
OPACITYTILE
360
4FEC
  3
REFLECTIONTILE
360
4FEB
  3
REFRACTIONTILE
360
4FED
  3
SPECULARTILE
360
4FEA
  0
DICTIONARY
  5
4FF7
330
4FF6
100
AcDbDictionary
280
     1
281
     1
  3
ACAD_XREC_ROUNDTRIP
360
7C2D
  3
BUMPTILE
360
4FF9
  3
DIFFUSETILE
360
4FF8
  3
OPACITYTILE
360
4FFC
  3
REFLECTIONTILE
360
4FFB
  3
REFRACTIONTILE
360
4FFD
  3
SPECULARTILE
360
4FFA
  0
DICTIONARY
  5
50D6
330
4FFF
100
AcDbDictionary
280
     1
281
     1
  3
ACAD_ROUNDTRIP_2008_TABLESTYLE_CELLSTYLEMAP
360
18D06
  3
ACAD_XREC_ROUNDTRIP
360
18D25
  0
XRECORD
  5
7C2C
102
{ACAD_REACTORS
330
4FEF
102
}
330
4FEF
100
AcDbXrecord
280
     1
102
MATERIAL
148
0.0
149
0.0
149
0.0
 93
        0
 94
      127
282
     0
 72
     0
 77
     0
171
     0
175
     0
179
     0
273
     0
  0
XRECORD
  5
4FF1
102
{ACAD_REACTORS
330
4FEF
102
}
330
4FEF
100
AcDbXrecord
280
     1
270
     1
271
     1
  0
XRECORD
  5
4FF0
102
{ACAD_REACTORS
330
4FEF
102
}
330
4FEF
100
AcDbXrecord
280
     1
270
     1
271
     1
  0
XRECORD
  5
4FF4
102
{ACAD_REACTORS
330
4FEF
102
}
330
4FEF
100
AcDbXrecord
280
     1
270
     1
271
     1
  0
XRECORD
  5
4FF3
102
{ACAD_REACTORS
330
4FEF
102
}
330
4FEF
100
AcDbXrecord
280
     1
270
     1
271
     1
  0
XRECORD
  5
4FF5
102
{ACAD_REACTORS
330
4FEF
102
}
330
4FEF
100
AcDbXrecord
280
     1
270
     1
271
     1
  0
XRECORD
  5
4FF2
102
{ACAD_REACTORS
330
4FEF
102
}
330
4FEF
100
AcDbXrecord
280
     1
270
     1
271
     1
  0
XRECORD
  5
7C2B
102
{ACAD_REACTORS
330
4FE7
102
}
330
4FE7
100
AcDbXrecord
280
     1
102
MATERIAL
148
0.0
149
0.0
149
0.0
 93
        0
 94
      127
282
     0
 72
     0
 77
     0
171
     0
175
     0
179
     0
273
     0
  0
XRECORD
  5
4FE9
102
{ACAD_REACTORS
330
4FE7
102
}
330
4FE7
100
AcDbXrecord
280
     1
270
     1
271
     1
  0
XRECORD
  5
4FE8
102
{ACAD_REACTORS
330
4FE7
102
}
330
4FE7
100
AcDbXrecord
280
     1
270
     1
271
     1
  0
XRECORD
  5
4FEC
102
{ACAD_REACTORS
330
4FE7
102
}
330
4FE7
100
AcDbXrecord
280
     1
270
     1
271
     1
  0
XRECORD
  5
4FEB
102
{ACAD_REACTORS
330
4FE7
102
}
330
4FE7
100
AcDbXrecord
280
     1
270
     1
271
     1
  0
XRECORD
  5
4FED
102
{ACAD_REACTORS
330
4FE7
102
}
330
4FE7
100
AcDbXrecord
280
     1
270
     1
271
     1
  0
XRECORD
  5
4FEA
102
{ACAD_REACTORS
330
4FE7
102
}
330
4FE7
100
AcDbXrecord
280
     1
270
     1
271
     1
  0
XRECORD
  5
7C2D
102
{ACAD_REACTORS
330
4FF7
102
}
330
4FF7
100
AcDbXrecord
280
     1
102
MATERIAL
148
0.0
149
0.0
149
0.0
 93
        0
 94
      127
282
     0
 72
     0
 77
     0
171
     0
175
     0
179
     0
273
     0
  0
XRECORD
  5
4FF9
102
{ACAD_REACTORS
330
4FF7
102
}
330
4FF7
100
AcDbXrecord
280
     1
270
     1
271
     1
  0
XRECORD
  5
4FF8
102
{ACAD_REACTORS
330
4FF7
102
}
330
4FF7
100
AcDbXrecord
280
     1
270
     1
271
     1
  0
XRECORD
  5
4FFC
102
{ACAD_REACTORS
330
4FF7
102
}
330
4FF7
100
AcDbXrecord
280
     1
270
     1
271
     1
  0
XRECORD
  5
4FFB
102
{ACAD_REACTORS
330
4FF7
102
}
330
4FF7
100
AcDbXrecord
280
     1
270
     1
271
     1
  0
XRECORD
  5
4FFD
102
{ACAD_REACTORS
330
4FF7
102
}
330
4FF7
100
AcDbXrecord
280
     1
270
     1
271
     1
  0
XRECORD
  5
4FFA
102
{ACAD_REACTORS
330
4FF7
102
}
330
4FF7
100
AcDbXrecord
280
     1
270
     1
271
     1
  0
CELLSTYLEMAP
  5
18D06
102
{ACAD_REACTORS
330
50D6
102
}
330
50D6
100
AcDbCellStyleMap
 90
        3
300
CELLSTYLE
  1
TABLEFORMAT_BEGIN
 90
        5
170
     1
 91
        0
 92
    32768
 62
   257
 93
        1
300
CONTENTFORMAT
  1
CONTENTFORMAT_BEGIN
 90
        0
 91
        0
 92
      512
 93
        0
300

 40
0.0
140
1.0
 94
        5
 62
     0
340
11
144
0.25
309
CONTENTFORMAT_END
171
     1
301
MARGIN
  1
CELLMARGIN_BEGIN
 40
0.06
 40
0.06
 40
0.06
 40
0.06
 40
0.18
 40
0.18
309
CELLMARGIN_END
 94
        6
 95
        1
302
GRIDFORMAT
  1
GRIDFORMAT_BEGIN
 90
        0
 91
        1
 62
     0
 92
       -2
340
0
 93
        0
 40
0.045
309
GRIDFORMAT_END
 95
        2
302
GRIDFORMAT
  1
GRIDFORMAT_BEGIN
 90
        0
 91
        1
 62
     0
 92
       -2
340
0
 93
        0
 40
0.045
309
GRIDFORMAT_END
 95
        4
302
GRIDFORMAT
  1
GRIDFORMAT_BEGIN
 90
        0
 91
        1
 62
     0
 92
       -2
340
0
 93
        0
 40
0.045
309
GRIDFORMAT_END
 95
        8
302
GRIDFORMAT
  1
GRIDFORMAT_BEGIN
 90
        0
 91
        1
 62
     0
 92
       -2
340
0
 93
        0
 40
0.045
309
GRIDFORMAT_END
 95
       16
302
GRIDFORMAT
  1
GRIDFORMAT_BEGIN
 90
        0
 91
        1
 62
     0
 92
       -2
340
0
 93
        0
 40
0.045
309
GRIDFORMAT_END
 95
       32
302
GRIDFORMAT
  1
GRIDFORMAT_BEGIN
 90
        0
 91
        1
 62
     0
 92
       -2
340
0
 93
        0
 40
0.045
309
GRIDFORMAT_END
309
TABLEFORMAT_END
  1
CELLSTYLE_BEGIN
 90
        1
 91
        1
300
_TITLE
309
CELLSTYLE_END
300
CELLSTYLE
  1
TABLEFORMAT_BEGIN
 90
        5
170
     1
 91
        0
 92
        0
 62
   257
 93
        1
300
CONTENTFORMAT
  1
CONTENTFORMAT_BEGIN
 90
        0
 91
        0
 92
      512
 93
        0
300

 40
0.0
140
1.0
 94
        5
 62
     0
340
11
144
0.18
309
CONTENTFORMAT_END
171
     1
301
MARGIN
  1
CELLMARGIN_BEGIN
 40
0.06
 40
0.06
 40
0.06
 40
0.06
 40
0.18
 40
0.18
309
CELLMARGIN_END
 94
        6
 95
        1
302
GRIDFORMAT
  1
GRIDFORMAT_BEGIN
 90
        0
 91
        1
 62
     0
 92
       -2
340
0
 93
        0
 40
0.045
309
GRIDFORMAT_END
 95
        2
302
GRIDFORMAT
  1
GRIDFORMAT_BEGIN
 90
        0
 91
        1
 62
     0
 92
       -2
340
0
 93
        0
 40
0.045
309
GRIDFORMAT_END
 95
        4
302
GRIDFORMAT
  1
GRIDFORMAT_BEGIN
 90
        0
 91
        1
 62
     0
 92
       -2
340
0
 93
        0
 40
0.045
309
GRIDFORMAT_END
 95
        8
302
GRIDFORMAT
  1
GRIDFORMAT_BEGIN
 90
        0
 91
        1
 62
     0
 92
       -2
340
0
 93
        0
 40
0.045
309
GRIDFORMAT_END
 95
       16
302
GRIDFORMAT
  1
GRIDFORMAT_BEGIN
 90
        0
 91
        1
 62
     0
 92
       -2
340
0
 93
        0
 40
0.045
309
GRIDFORMAT_END
 95
       32
302
GRIDFORMAT
  1
GRIDFORMAT_BEGIN
 90
        0
 91
        1
 62
     0
 92
       -2
340
0
 93
        0
 40
0.045
309
GRIDFORMAT_END
309
TABLEFORMAT_END
  1
CELLSTYLE_BEGIN
 90
        2
 91
        1
300
_HEADER
309
CELLSTYLE_END
300
CELLSTYLE
  1
TABLEFORMAT_BEGIN
 90
        5
170
     1
 91
        0
 92
        0
 62
   257
 93
        1
300
CONTENTFORMAT
  1
CONTENTFORMAT_BEGIN
 90
        0
 91
        0
 92
      512
 93
        0
300

 40
0.0
140
1.0
 94
        2
 62
     0
340
11
144
0.18
309
CONTENTFORMAT_END
171
     1
301
MARGIN
  1
CELLMARGIN_BEGIN
 40
0.06
 40
0.06
 40
0.06
 40
0.06
 40
0.18
 40
0.18
309
CELLMARGIN_END
 94
        6
 95
        1
302
GRIDFORMAT
  1
GRIDFORMAT_BEGIN
 90
        0
 91
        1
 62
     0
 92
       -2
340
0
 93
        0
 40
0.045
309
GRIDFORMAT_END
 95
        2
302
GRIDFORMAT
  1
GRIDFORMAT_BEGIN
 90
        0
 91
        1
 62
     0
 92
       -2
340
0
 93
        0
 40
0.045
309
GRIDFORMAT_END
 95
        4
302
GRIDFORMAT
  1
GRIDFORMAT_BEGIN
 90
        0
 91
        1
 62
     0
 92
       -2
340
0
 93
        0
 40
0.045
309
GRIDFORMAT_END
 95
        8
302
GRIDFORMAT
  1
GRIDFORMAT_BEGIN
 90
        0
 91
        1
 62
     0
 92
       -2
340
0
 93
        0
 40
0.045
309
GRIDFORMAT_END
 95
       16
302
GRIDFORMAT
  1
GRIDFORMAT_BEGIN
 90
        0
 91
        1
 62
     0
 92
       -2
340
0
 93
        0
 40
0.045
309
GRIDFORMAT_END
 95
       32
302
GRIDFORMAT
  1
GRIDFORMAT_BEGIN
 90
        0
 91
        1
 62
     0
 92
       -2
340
0
 93
        0
 40
0.045
309
GRIDFORMAT_END
309
TABLEFORMAT_END
  1
CELLSTYLE_BEGIN
 90
        3
 91
        2
300
_DATA
309
CELLSTYLE_END
  0
XRECORD
  5
18D25
102
{ACAD_REACTORS
330
50D6
102
}
330
50D6
100
AcDbXrecord
280
     1
102
ACAD_ROUNDTRIP_PRE2007_TABLESTYLE
 90
      512
 91
        0
  1

 92
      512
 93
        0
  2

 94
      512
 95
        0
  3

  0
ENDSEC
  0
EOF
