  0
SECTION
  2
HEADER
  9
$ACADVER
  1
AC1021
  9
$ACADMAINTVER
 70
    25
  9
$DWGCODEPAGE
  3
ANSI_936
  9
$LASTSAVEDBY
  1
14609
  9
$INSBASE
 10
0.0
 20
0.0
 30
0.0
  9
$EXTMIN
 10
908.1905486387409
 20
202.7481171989575
 30
0.0
  9
$EXTMAX
 10
1098.269748597596
 20
337.1481171989602
 30
0.0
  9
$LIMMIN
 10
0.0
 20
0.0
  9
$LIMMAX
 10
12.0
 20
9.0
  9
$ORTHOMODE
 70
     1
  9
$REGENMODE
 70
     1
  9
$FILLMODE
 70
     1
  9
$QTEXTMODE
 70
     0
  9
$MIRRTEXT
 70
     1
  9
$LTSCALE
 40
1.0
  9
$ATTMODE
 70
     1
  9
$TEXTSIZE
 40
0.2
  9
$TRACEWID
 40
0.05
  9
$TEXTSTYLE
  7
Standard
  9
$CLAYER
  8
0
  9
$CELTYPE
  6
ByLayer
  9
$CECOLOR
 62
   256
  9
$CELTSCALE
 40
1.0
  9
$DISPSILH
 70
     0
  9
$DIMSCALE
 40
1.0
  9
$DIMASZ
 40
3.0
  9
$DIMEXO
 40
0.2
  9
$DIMDLI
 40
0.2
  9
$DIMRND
 40
0.0
  9
$DIMDLE
 40
0.0
  9
$DIMEXE
 40
0.5
  9
$DIMTP
 40
0.0
  9
$DIMTM
 40
0.0
  9
$DIMTXT
 40
3.5
  9
$DIMCEN
 40
0.0
  9
$DIMTSZ
 40
0.0
  9
$DIMTOL
 70
     0
  9
$DIMLIM
 70
     0
  9
$DIMTIH
 70
     0
  9
$DIMTOH
 70
     0
  9
$DIMSE1
 70
     0
  9
$DIMSE2
 70
     0
  9
$DIMTAD
 70
     1
  9
$DIMZIN
 70
     8
  9
$DIMBLK
  1

  9
$DIMASO
 70
     1
  9
$DIMSHO
 70
     1
  9
$DIMPOST
  1

  9
$DIMAPOST
  1

  9
$DIMALT
 70
     0
  9
$DIMALTD
 70
     2
  9
$DIMALTF
 40
25.4
  9
$DIMLFAC
 40
1.0
  9
$DIMTOFL
 70
     0
  9
$DIMTVP
 40
0.0
  9
$DIMTIX
 70
     0
  9
$DIMSOXD
 70
     0
  9
$DIMSAH
 70
     0
  9
$DIMBLK1
  1

  9
$DIMBLK2
  1

  9
$DIMSTYLE
  2
01
  9
$DIMCLRD
 70
     1
  9
$DIMCLRE
 70
     6
  9
$DIMCLRT
 70
     4
  9
$DIMTFAC
 40
1.0
  9
$DIMGAP
 40
0.5
  9
$DIMJUST
 70
     0
  9
$DIMSD1
 70
     0
  9
$DIMSD2
 70
     0
  9
$DIMTOLJ
 70
     1
  9
$DIMTZIN
 70
     0
  9
$DIMALTZ
 70
     0
  9
$DIMALTTZ
 70
     0
  9
$DIMUPT
 70
     0
  9
$DIMDEC
 70
     1
  9
$DIMTDEC
 70
     1
  9
$DIMALTU
 70
     2
  9
$DIMALTTD
 70
     2
  9
$DIMTXSTY
  7
Romans字体
  9
$DIMAUNIT
 70
     0
  9
$DIMADEC
 70
     2
  9
$DIMALTRND
 40
0.0
  9
$DIMAZIN
 70
     2
  9
$DIMDSEP
 70
    46
  9
$DIMATFIT
 70
     3
  9
$DIMFRAC
 70
     0
  9
$DIMLDRBLK
  1

  9
$DIMLUNIT
 70
     2
  9
$DIMLWD
 70
    -2
  9
$DIMLWE
 70
    -2
  9
$DIMTMOVE
 70
     0
  9
$DIMFXL
 40
1.0
  9
$DIMFXLON
 70
     0
  9
$DIMJOGANG
 40
0.7853981633974483
  9
$DIMTFILL
 70
     0
  9
$DIMTFILLCLR
 70
     0
  9
$DIMARCSYM
 70
     0
  9
$DIMLTYPE
  6

  9
$DIMLTEX1
  6

  9
$DIMLTEX2
  6

  9
$LUNITS
 70
     2
  9
$LUPREC
 70
     4
  9
$SKETCHINC
 40
0.1
  9
$FILLETRAD
 40
0.5
  9
$AUNITS
 70
     0
  9
$AUPREC
 70
     0
  9
$MENU
  1
.
  9
$ELEVATION
 40
0.0
  9
$PELEVATION
 40
0.0
  9
$THICKNESS
 40
0.0
  9
$LIMCHECK
 70
     0
  9
$CHAMFERA
 40
0.5
  9
$CHAMFERB
 40
0.5
  9
$CHAMFERC
 40
1.0
  9
$CHAMFERD
 40
0.0
  9
$SKPOLY
 70
     0
  9
$TDCREATE
 40
2456524.383632987
  9
$TDUCREATE
 40
2456524.050299653
  9
$TDUPDATE
 40
2460346.543608090
  9
$TDUUPDATE
 40
2460346.210274757
  9
$TDINDWG
 40
1.1537200926
  9
$TDUSRTIMER
 40
1.1536989931
  9
$USRTIMER
 70
     1
  9
$ANGBASE
 50
0.0
  9
$ANGDIR
 70
     0
  9
$PDMODE
 70
     0
  9
$PDSIZE
 40
0.0
  9
$PLINEWID
 40
0.0
  9
$SPLFRAME
 70
     0
  9
$SPLINETYPE
 70
     6
  9
$SPLINESEGS
 70
     8
  9
$HANDSEED
  5
1CD28
  9
$SURFTAB1
 70
     6
  9
$SURFTAB2
 70
     6
  9
$SURFTYPE
 70
     6
  9
$SURFU
 70
     6
  9
$SURFV
 70
     6
  9
$UCSBASE
  2

  9
$UCSNAME
  2

  9
$UCSORG
 10
0.0
 20
0.0
 30
0.0
  9
$UCSXDIR
 10
1.0
 20
0.0
 30
0.0
  9
$UCSYDIR
 10
0.0
 20
1.0
 30
0.0
  9
$UCSORTHOREF
  2

  9
$UCSORTHOVIEW
 70
     0
  9
$UCSORGTOP
 10
0.0
 20
0.0
 30
0.0
  9
$UCSORGBOTTOM
 10
0.0
 20
0.0
 30
0.0
  9
$UCSORGLEFT
 10
0.0
 20
0.0
 30
0.0
  9
$UCSORGRIGHT
 10
0.0
 20
0.0
 30
0.0
  9
$UCSORGFRONT
 10
0.0
 20
0.0
 30
0.0
  9
$UCSORGBACK
 10
0.0
 20
0.0
 30
0.0
  9
$PUCSBASE
  2

  9
$PUCSNAME
  2

  9
$PUCSORG
 10
0.0
 20
0.0
 30
0.0
  9
$PUCSXDIR
 10
1.0
 20
0.0
 30
0.0
  9
$PUCSYDIR
 10
0.0
 20
1.0
 30
0.0
  9
$PUCSORTHOREF
  2

  9
$PUCSORTHOVIEW
 70
     0
  9
$PUCSORGTOP
 10
0.0
 20
0.0
 30
0.0
  9
$PUCSORGBOTTOM
 10
0.0
 20
0.0
 30
0.0
  9
$PUCSORGLEFT
 10
0.0
 20
0.0
 30
0.0
  9
$PUCSORGRIGHT
 10
0.0
 20
0.0
 30
0.0
  9
$PUCSORGFRONT
 10
0.0
 20
0.0
 30
0.0
  9
$PUCSORGBACK
 10
0.0
 20
0.0
 30
0.0
  9
$USERI1
 70
     0
  9
$USERI2
 70
     0
  9
$USERI3
 70
     0
  9
$USERI4
 70
     0
  9
$USERI5
 70
     0
  9
$USERR1
 40
0.0
  9
$USERR2
 40
0.0
  9
$USERR3
 40
0.0
  9
$USERR4
 40
0.0
  9
$USERR5
 40
0.0
  9
$WORLDVIEW
 70
     1
  9
$SHADEDGE
 70
     3
  9
$SHADEDIF
 70
    70
  9
$TILEMODE
 70
     1
  9
$MAXACTVP
 70
    64
  9
$PINSBASE
 10
0.0
 20
0.0
 30
0.0
  9
$PLIMCHECK
 70
     0
  9
$PEXTMIN
 10
1.000000000000000E+20
 20
1.000000000000000E+20
 30
1.000000000000000E+20
  9
$PEXTMAX
 10
-1.000000000000000E+20
 20
-1.000000000000000E+20
 30
-1.000000000000000E+20
  9
$PLIMMIN
 10
0.0
 20
0.0
  9
$PLIMMAX
 10
12.0
 20
9.0
  9
$UNITMODE
 70
     0
  9
$VISRETAIN
 70
     1
  9
$PLINEGEN
 70
     0
  9
$PSLTSCALE
 70
     1
  9
$TREEDEPTH
 70
  3020
  9
$CMLSTYLE
  2
Standard
  9
$CMLJUST
 70
     0
  9
$CMLSCALE
 40
1.0
  9
$PROXYGRAPHICS
 70
     1
  9
$MEASUREMENT
 70
     0
  9
$CELWEIGHT
370
    -1
  9
$ENDCAPS
280
     0
  9
$JOINSTYLE
280
     0
  9
$LWDISPLAY
290
     1
  9
$INSUNITS
 70
     4
  9
$HYPERLINKBASE
  1

  9
$STYLESHEET
  1
MONOCHROME.CTB
  9
$XEDIT
290
     1
  9
$CEPSNTYPE
380
     0
  9
$PSTYLEMODE
290
     1
  9
$FINGERPRINTGUID
  2
{4A02065B-8BB3-4A96-9036-502DC906C165}
  9
$VERSIONGUID
  2
{52B55BF8-A1C3-4618-A8DF-4D83A58243F8}
  9
$EXTNAMES
290
     1
  9
$PSVPSCALE
 40
0.0
  9
$OLESTARTUP
290
     0
  9
$SORTENTS
280
   127
  9
$INDEXCTL
280
     0
  9
$HIDETEXT
280
     0
  9
$XCLIPFRAME
290
     0
  9
$HALOGAP
280
     0
  9
$OBSCOLOR
 70
   257
  9
$OBSLTYPE
280
     0
  9
$INTERSECTIONDISPLAY
280
     0
  9
$INTERSECTIONCOLOR
 70
   257
  9
$DIMASSOC
280
     1
  9
$PROJECTNAME
  1

  9
$CAMERADISPLAY
290
     0
  9
$LENSLENGTH
 40
50.0
  9
$CAMERAHEIGHT
 40
0.0
  9
$STEPSPERSEC
 40
2.0
  9
$STEPSIZE
 40
6.0
  9
$3DDWFPREC
 40
2.0
  9
$PSOLWIDTH
 40
0.25
  9
$PSOLHEIGHT
 40
4.0
  9
$LOFTANG1
 40
1.570796326794896
  9
$LOFTANG2
 40
1.570796326794896
  9
$LOFTMAG1
 40
0.0
  9
$LOFTMAG2
 40
0.0
  9
$LOFTPARAM
 70
     7
  9
$LOFTNORMALS
280
     1
  9
$LATITUDE
 40
37.795
  9
$LONGITUDE
 40
-122.394
  9
$NORTHDIRECTION
 40
0.0
  9
$TIMEZONE
 70
 -8000
  9
$LIGHTGLYPHDISPLAY
280
     1
  9
$TILEMODELIGHTSYNCH
280
     1
  9
$CMATERIAL
347
4FE6
  9
$SOLIDHIST
280
     1
  9
$SHOWHIST
280
     1
  9
$DWFFRAME
280
     2
  9
$DGNFRAME
280
     0
  9
$REALWORLDSCALE
290
     1
  9
$INTERFERECOLOR
 62
     1
  9
$INTERFEREOBJVS
345
33
  9
$INTERFEREVPVS
346
30
  9
$CSHADOW
280
     0
  9
$SHADOWPLANELOCATION
 40
0.0
  0
ENDSEC
  0
SECTION
  2
CLASSES
  0
CLASS
  1
ACDBDICTIONARYWDFLT
  2
AcDbDictionaryWithDefault
  3
ObjectDBX Classes
 90
        0
 91
        1
280
     0
281
     0
  0
CLASS
  1
VISUALSTYLE
  2
AcDbVisualStyle
  3
ObjectDBX Classes
 90
     4095
 91
       16
280
     0
281
     0
  0
CLASS
  1
MATERIAL
  2
AcDbMaterial
  3
ObjectDBX Classes
 90
     1153
 91
        3
280
     0
281
     0
  0
CLASS
  1
TABLESTYLE
  2
AcDbTableStyle
  3
ObjectDBX Classes
 90
     4095
 91
        1
280
     0
281
     0
  0
CLASS
  1
SCALE
  2
AcDbScale
  3
ObjectDBX Classes
 90
     1153
 91
       33
280
     0
281
     0
  0
CLASS
  1
MLEADERSTYLE
  2
AcDbMLeaderStyle
  3
ACDB_MLEADERSTYLE_CLASS
 90
     4095
 91
        1
280
     0
281
     0
  0
CLASS
  1
CELLSTYLEMAP
  2
AcDbCellStyleMap
  3
ObjectDBX Classes
 90
     1152
 91
        2
280
     0
281
     0
  0
CLASS
  1
DICTIONARYVAR
  2
AcDbDictionaryVar
  3
ObjectDBX Classes
 90
        0
 91
        8
280
     0
281
     0
  0
CLASS
  1
SORTENTSTABLE
  2
AcDbSortentsTable
  3
ObjectDBX Classes
 90
        0
 91
        2
280
     0
281
     0
  0
CLASS
  1
ACAD_EVALUATION_GRAPH
  2
AcDbEvalGraph
  3
ObjectDBX Classes
 90
     1153
 91
        0
280
     0
281
     0
  0
CLASS
  1
ACAECUSTOBJ
  2
AcAeEditorObj
  3
AcAeEditorObj
 90
     1024
 91
        0
280
     0
281
     0
  0
CLASS
  1
ACDB_DYNAMICBLOCKPURGEPREVENTER_VERSION
  2
AcDbDynamicBlockPurgePreventer
  3
ObjectDBX Classes
 90
     1153
 91
        0
280
     0
281
     0
  0
CLASS
  1
MENTALRAYRENDERSETTINGS
  2
AcDbMentalRayRenderSettings
  3
SCENEOE
 90
     1024
 91
        1
280
     0
281
     0
  0
CLASS
  1
ACDB_BLOCKREPRESENTATION_DATA
  2
AcDbBlockRepresentationData
  3
ObjectDBX Classes
 90
     1153
 91
        0
280
     0
281
     0
  0
CLASS
  1
DIMASSOC
  2
AcDbDimAssoc
  3
"AcDbDimAssoc|Product Desc:     AcDim ARX App For Dimension|Company:          Autodesk, Inc.|WEB Address:      www.autodesk.com"
 90
        0
 91
        0
280
     0
281
     0
  0
ENDSEC
  0
SECTION
  2
TABLES
  0
TABLE
  2
VPORT
  5
8
102
{ACAD_XDICTIONARY
360
50EE
102
}
330
0
100
AcDbSymbolTable
 70
     1
  0
VPORT
  5
29
330
8
100
AcDbSymbolTableRecord
100
AcDbViewportTableRecord
  2
*Active
 70
     0
 10
0.0
 20
0.0
 11
1.0
 21
1.0
 12
916.730806268112
 22
119.3607526373059
 13
0.0
 23
0.0
 14
0.5
 24
0.5
 15
0.5
 25
0.5
 16
0.0
 26
0.0
 36
1.0
 17
104.9654968719086
 27
148.5022307685978
 37
0.0
 40
147.3171217760381
 41
1.967136150234741
 42
50.0
 43
0.0
 44
0.0
 50
0.0
 51
0.0
 71
     0
 72
   100
 73
     1
 74
     3
 75
     0
 76
     0
 77
     0
 78
     0
281
     0
 65
     1
110
0.0
120
0.0
130
0.0
111
1.0
121
0.0
131
0.0
112
0.0
122
1.0
132
0.0
 79
     0
146
0.0
348
2F
 60
     3
 61
     5
292
     1
282
     1
141
0.0
142
0.0
 63
   250
421
  3355443
  0
ENDTAB
  0
TABLE
  2
LTYPE
  5
5
330
0
100
AcDbSymbolTable
 70
     2
  0
LTYPE
  5
14
330
5
100
AcDbSymbolTableRecord
100
AcDbLinetypeTableRecord
  2
ByBlock
 70
     0
  3

 72
    65
 73
     0
 40
0.0
  0
LTYPE
  5
15
330
5
100
AcDbSymbolTableRecord
100
AcDbLinetypeTableRecord
  2
ByLayer
 70
     0
  3

 72
    65
 73
     0
 40
0.0
  0
LTYPE
  5
16
330
5
100
AcDbSymbolTableRecord
100
AcDbLinetypeTableRecord
  2
Continuous
 70
     0
  3
Solid line
 72
    65
 73
     0
 40
0.0
  0
LTYPE
  5
67BA
330
5
100
AcDbSymbolTableRecord
100
AcDbLinetypeTableRecord
  2
CENTER
 70
     0
  3
Center ____ _ ____ _ ____ _ ____ _ ____ _ ____
 72
    65
 73
     4
 40
2.0
 49
1.25
 74
     0
 49
-0.25
 74
     0
 49
0.25
 74
     0
 49
-0.25
 74
     0
  0
ENDTAB
  0
TABLE
  2
LAYER
  5
2
102
{ACAD_XDICTIONARY
360
50B8
102
}
330
0
100
AcDbSymbolTable
 70
    15
  0
LAYER
  5
10
102
{ACAD_XDICTIONARY
360
50D0
102
}
330
2
100
AcDbSymbolTableRecord
100
AcDbLayerTableRecord
  2
0
 70
     0
 62
     7
  6
Continuous
370
    15
390
F
347
4FF6
  0
LAYER
  5
3B
102
{ACAD_XDICTIONARY
360
50D2
102
}
330
2
100
AcDbSymbolTableRecord
100
AcDbLayerTableRecord
  2
图层 1
 70
     0
 62
     7
  6
Continuous
370
    -3
390
F
347
4FF6
  0
LAYER
  5
50AE
102
{ACAD_XDICTIONARY
360
50AF
102
}
330
2
100
AcDbSymbolTableRecord
100
AcDbLayerTableRecord
  2
图框
 70
     0
 62
     7
  6
Continuous
370
    20
390
F
347
4FF6
  0
LAYER
  5
5141
330
2
100
AcDbSymbolTableRecord
100
AcDbLayerTableRecord
  2
Defpoints
 70
     0
 62
     7
  6
Continuous
290
     0
370
    -3
390
F
347
4FF6
  0
LAYER
  5
5144
330
2
100
AcDbSymbolTableRecord
100
AcDbLayerTableRecord
  2
DIM
 70
     0
 62
     3
  6
Continuous
370
    15
390
F
347
4FF6
1001
AcAecLayerStandard
1000

1000

  0
LAYER
  5
52F3
330
2
100
AcDbSymbolTableRecord
100
AcDbLayerTableRecord
  2
打标文字
 70
     0
 62
     3
  6
Continuous
370
    20
390
F
347
4FF6
  0
LAYER
  5
67B7
330
2
100
AcDbSymbolTableRecord
100
AcDbLayerTableRecord
  2
CEN
 70
     0
 62
     1
  6
CENTER
370
    15
390
F
347
4FF6
1001
AcAecLayerStandard
1000

1000

  0
LAYER
  5
11B6B
330
2
100
AcDbSymbolTableRecord
100
AcDbLayerTableRecord
  2
hat
 70
     0
 62
     6
  6
Continuous
370
    15
390
F
347
4FF6
1001
AcAecLayerStandard
1000

1000

  0
LAYER
  5
17660
330
2
100
AcDbSymbolTableRecord
100
AcDbLayerTableRecord
  2
5
 70
     0
 62
     7
  6
Continuous
370
    -3
390
F
347
4FF6
  0
LAYER
  5
18517
102
{ACAD_XDICTIONARY
360
18518
102
}
330
2
100
AcDbSymbolTableRecord
100
AcDbLayerTableRecord
  2
hatch
 70
     0
 62
    56
  6
Continuous
370
     0
390
F
347
4FF6
  0
LAYER
  5
18519
102
{ACAD_XDICTIONARY
360
1851A
102
}
330
2
100
AcDbSymbolTableRecord
100
AcDbLayerTableRecord
  2
02___PRT_ALL_AXES
 70
     0
 62
     7
  6
Continuous
370
    -3
390
F
347
4FF6
  0
LAYER
  5
1851B
102
{ACAD_XDICTIONARY
360
1851C
102
}
330
2
100
AcDbSymbolTableRecord
100
AcDbLayerTableRecord
  2
CHSM650-240_DXF_CONTINUOUS_LINE
 70
     0
 62
     7
  6
Continuous
370
    -3
390
F
347
4FF6
  0
LAYER
  5
188F5
330
2
100
AcDbSymbolTableRecord
100
AcDbLayerTableRecord
  2
2
 70
     0
 62
     7
  6
Continuous
370
    -3
390
F
347
4FF6
  0
LAYER
  5
1980F
102
{ACAD_XDICTIONARY
360
19810
102
}
330
2
100
AcDbSymbolTableRecord
100
AcDbLayerTableRecord
  2
cavity
 70
     0
 62
     3
  6
Continuous
370
    -3
390
F
347
4FF6
  0
LAYER
  5
19811
102
{ACAD_XDICTIONARY
360
19812
102
}
330
2
100
AcDbSymbolTableRecord
100
AcDbLayerTableRecord
  2
center
 70
     0
 62
     1
  6
CENTER
370
    15
390
F
347
4FF6
  0
ENDTAB
  0
TABLE
  2
STYLE
  5
3
330
0
100
AcDbSymbolTable
 70
     6
  0
STYLE
  5
11
330
3
100
AcDbSymbolTableRecord
100
AcDbTextStyleTableRecord
  2
Standard
 70
     0
 40
0.0
 41
0.75
 50
0.0
 71
     0
 42
0.2
  3

  4

1001
ACAD
1000
仿宋_GB2312
1071
    34353
  0
STYLE
  5
FD48
330
3
100
AcDbSymbolTableRecord
100
AcDbTextStyleTableRecord
  2
Romans字体
 70
     0
 40
0.0
 41
0.75
 50
0.0
 71
     0
 42
0.2
  3
romans.shx
  4

  0
STYLE
  5
11080
330
3
100
AcDbSymbolTableRecord
100
AcDbTextStyleTableRecord
  2
工程字
 70
     0
 40
0.0
 41
1.0
 50
0.0
 71
     0
 42
3.5
  3
gbenor.shx
  4
gbcbig.shx
  0
STYLE
  5
11081
330
3
100
AcDbSymbolTableRecord
100
AcDbTextStyleTableRecord
  2
Chinese
 70
     0
 40
0.0
 41
1.0
 50
0.0
 71
     0
 42
2.5
  3

  4

1001
ACAD
1000
PMingLiU
1071
    34834
  0
STYLE
  5
19813
330
3
100
AcDbSymbolTableRecord
100
AcDbTextStyleTableRecord
  2
特别的
 70
     0
 40
0.0
 41
0.55
 50
0.0
 71
     0
 42
0.2
  3

  4

1001
ACAD
1000
SimSun
1071
    34306
  0
STYLE
  5
19814
330
3
100
AcDbSymbolTableRecord
100
AcDbTextStyleTableRecord
  2
3.5
 70
     0
 40
3.5
 41
0.7
 50
0.0
 71
     0
 42
3.5
  3

  4

1001
ACAD
1000
仿宋_GB2312
1071
    34353
  0
ENDTAB
  0
TABLE
  2
VIEW
  5
6
330
0
100
AcDbSymbolTable
 70
     0
  0
ENDTAB
  0
TABLE
  2
UCS
  5
7
330
0
100
AcDbSymbolTable
 70
     0
  0
ENDTAB
  0
TABLE
  2
APPID
  5
9
330
0
100
AcDbSymbolTable
 70
    18
  0
APPID
  5
12
330
9
100
AcDbSymbolTableRecord
100
AcDbRegAppTableRecord
  2
ACAD
 70
     0
  0
APPID
  5
5024
330
9
100
AcDbSymbolTableRecord
100
AcDbRegAppTableRecord
  2
ACAD_MLEADERVER
 70
     0
  0
APPID
  5
50B5
330
9
100
AcDbSymbolTableRecord
100
AcDbRegAppTableRecord
  2
AcDbDynamicBlockGUID
 70
     0
  0
APPID
  5
50B6
330
9
100
AcDbSymbolTableRecord
100
AcDbRegAppTableRecord
  2
AcDbBlockRepETag
 70
     0
  0
APPID
  5
50B7
330
9
100
AcDbSymbolTableRecord
100
AcDbRegAppTableRecord
  2
ACAD_PSEXT
 70
     0
  0
APPID
  5
50CF
330
9
100
AcDbSymbolTableRecord
100
AcDbRegAppTableRecord
  2
AcadAnnoPO
 70
     0
  0
APPID
  5
5146
330
9
100
AcDbSymbolTableRecord
100
AcDbRegAppTableRecord
  2
AcAecLayerStandard
 70
     0
  0
APPID
  5
5147
330
9
100
AcDbSymbolTableRecord
100
AcDbRegAppTableRecord
  2
ACAD_DSTYLE_DIMJAG
 70
     0
  0
APPID
  5
5148
330
9
100
AcDbSymbolTableRecord
100
AcDbRegAppTableRecord
  2
ACAD_DSTYLE_DIMTALN
 70
     0
  0
APPID
  5
52AD
330
9
100
AcDbSymbolTableRecord
100
AcDbRegAppTableRecord
  2
ACAUTHENVIRON
 70
     0
  0
APPID
  5
52B0
330
9
100
AcDbSymbolTableRecord
100
AcDbRegAppTableRecord
  2
AcDbDynamicBlockTrueName
 70
     0
  0
APPID
  5
67C6
330
9
100
AcDbSymbolTableRecord
100
AcDbRegAppTableRecord
  2
ACAD_EXEMPT_FROM_CAD_STANDARDS
 70
     0
  0
APPID
  5
6838
330
9
100
AcDbSymbolTableRecord
100
AcDbRegAppTableRecord
  2
ACAD_NAV_VCDISPLAY
 70
     0
  0
APPID
  5
70A9
330
9
100
AcDbSymbolTableRecord
100
AcDbRegAppTableRecord
  2
DCO15
 70
     0
  0
APPID
  5
8725
330
9
100
AcDbSymbolTableRecord
100
AcDbRegAppTableRecord
  2
AcDbBlockRepBTag
 70
     0
  0
APPID
  5
FE64
330
9
100
AcDbSymbolTableRecord
100
AcDbRegAppTableRecord
  2
ACAD_DSTYLE_DIMRADIAL_EXTENSION
 70
     0
  0
APPID
  5
FF93
330
9
100
AcDbSymbolTableRecord
100
AcDbRegAppTableRecord
  2
ACAD_DSTYLE_DIMBREAK
 70
     0
  0
APPID
  5
18520
330
9
100
AcDbSymbolTableRecord
100
AcDbRegAppTableRecord
  2
ACAD_DSTYLE_DIMINSPECT
 70
     0
  0
ENDTAB
  0
TABLE
  2
DIMSTYLE
  5
A
330
0
100
AcDbSymbolTable
 70
     8
100
AcDbDimStyleTable
 71
     2
340
5145
340
27
  0
DIMSTYLE
105
27
330
A
100
AcDbSymbolTableRecord
100
AcDbDimStyleTableRecord
  2
Standard
 70
     0
340
11
  0
DIMSTYLE
105
5145
330
A
100
AcDbSymbolTableRecord
100
AcDbDimStyleTableRecord
  2
01
 70
     0
 41
3.0
 42
0.2
 43
0.2
 44
0.5
 73
     0
 74
     0
 77
     1
 78
     8
 79
     2
140
3.5
141
0.0
147
0.5
176
     1
177
     6
178
     4
179
     2
271
     1
272
     1
340
FD48
1001
ACAD_DSTYLE_DIMJAG
1070
   388
1040
1.5
1001
ACAD_DSTYLE_DIMTALN
1070
   392
1070
     0
  0
DIMSTYLE
105
1851D
330
A
100
AcDbSymbolTableRecord
100
AcDbDimStyleTableRecord
  2
02
 70
     0
 40
0.65
 41
3.5
 42
1.0
 43
0.1
 44
1.0
 47
0.01
 48
0.000000001
 73
     0
 74
     0
 77
     1
 78
     8
 79
     2
140
4.5
141
0.0
146
0.7
147
1.5
176
     1
177
     6
178
     4
179
     2
271
     2
272
     2
284
     8
340
11
1001
ACAD_DSTYLE_DIMJAG
1070
   388
1040
1.5
1001
ACAD_DSTYLE_DIMTALN
1070
   392
1070
     0
  0
DIMSTYLE
105
1851E
330
A
100
AcDbSymbolTableRecord
100
AcDbDimStyleTableRecord
  2
lin01-1-1
 70
     0
 41
1.5
 42
0.5
 44
0.8
 47
0.01
 48
0.01
 73
     0
 74
     0
 77
     1
 78
     8
 79
     2
140
1.5
147
0.3
176
     1
177
     6
178
     4
179
     1
271
     1
272
     1
284
     8
340
11
1001
ACAD_DSTYLE_DIMBREAK
1070
   391
1040
3.75
1001
ACAD_DSTYLE_DIMJAG
1070
   388
1040
1.5
1001
ACAD_DSTYLE_DIMTALN
1070
   392
1070
     0
  0
DIMSTYLE
105
1851F
330
A
100
AcDbSymbolTableRecord
100
AcDbDimStyleTableRecord
  2
02-1
 70
     0
 40
0.65
 41
2.5
 42
0.0
 43
0.1
 44
2.0
 47
0.01
 48
0.000000001
 73
     0
 74
     0
 77
     1
 78
     8
 79
     2
140
3.5
141
0.0
146
0.7
147
1.5
176
     6
177
     6
178
     2
179
     2
271
     2
272
     2
284
     8
340
11
371
     0
372
     0
1001
ACAD_DSTYLE_DIMBREAK
1070
   391
1040
3.75
1001
ACAD_DSTYLE_DIMJAG
1070
   388
1040
1.5
1001
ACAD_DSTYLE_DIMTALN
1070
   392
1070
     0
  0
DIMSTYLE
105
188F6
330
A
100
AcDbSymbolTableRecord
100
AcDbDimStyleTableRecord
  2
DSTYLE1
 70
     0
 41
3.0
 42
0.0
 44
2.0
 45
0.001
 47
0.1
 73
     0
 74
     0
 77
     1
 78
    11
140
3.5
143
0.039370079
147
1.0
271
     3
272
     3
274
     0
279
     2
340
11
  0
DIMSTYLE
105
19815
330
A
100
AcDbSymbolTableRecord
100
AcDbDimStyleTableRecord
  2
1
 70
     0
 40
0.65
 41
5.0
 42
0.0
 43
0.1
 44
1.5
 47
0.01
 48
0.000000001
 73
     0
 74
     0
 77
     1
 78
     8
 79
     2
140
7.0
141
0.0
146
0.7
147
1.5
176
     6
177
     6
178
     2
179
     2
271
     2
272
     2
284
     8
340
11
371
    -1
372
    -1
1001
ACAD_DSTYLE_DIMBREAK
1070
   391
1040
0.5
1001
ACAD_DSTYLE_DIMJAG
1070
   388
1040
0.5
1001
ACAD_DSTYLE_DIMTALN
1070
   392
1070
     0
  0
DIMSTYLE
105
19816
102
{ACAD_REACTORS
330
1CAAD
330
1CAAE
330
1CAAF
330
1CAB0
330
1CAB1
102
}
330
A
100
AcDbSymbolTableRecord
100
AcDbDimStyleTableRecord
  2
01-高度0.6
 70
     0
 41
1.0
 42
0.15
 43
0.2
 44
1.0
 73
     0
 74
     0
 78
     8
 79
     2
140
1.8
141
0.0
147
0.3
176
     1
177
     6
178
     4
179
     2
271
     2
272
     2
340
11
1001
ACAD_DSTYLE_DIMJAG
1070
   388
1040
1.0
1001
ACAD_DSTYLE_DIMBREAK
1070
   391
1040
2.0
1001
ACAD_DSTYLE_DIMTALN
1070
   392
1070
     0
  0
ENDTAB
  0
TABLE
  2
BLOCK_RECORD
  5
1
330
0
100
AcDbSymbolTable
 70
    10
  0
BLOCK_RECORD
  5
1F
102
{ACAD_XDICTIONARY
360
67C0
102
}
330
1
100
AcDbSymbolTableRecord
100
AcDbBlockTableRecord
  2
*Model_Space
340
22
 70
     0
280
     1
281
     0
  0
BLOCK_RECORD
  5
1B
330
1
100
AcDbSymbolTableRecord
100
AcDbBlockTableRecord
  2
*Paper_Space
340
1E
 70
     0
280
     1
281
     0
  0
BLOCK_RECORD
  5
23
330
1
100
AcDbSymbolTableRecord
100
AcDbBlockTableRecord
  2
*Paper_Space0
340
26
 70
     0
280
     1
281
     0
  0
BLOCK_RECORD
  5
10FE8
102
{ACAD_XDICTIONARY
360
1CCB7
102
}
330
1
100
AcDbSymbolTableRecord
100
AcDbBlockTableRecord
  2
A4图框-NEW
340
0
310
2800000020000000200000000100080000000000000400000000000000000000000000000000000000000000000080000080000000808000800000008000800080800000C0C0C000C0DCC000F0CAA6000020400000206000002080000020A0000020C0000020E00000400000004020000040400000406000004080000040A0
310
000040C0000040E00000600000006020000060400000606000006080000060A0000060C0000060E00000800000008020000080400000806000008080000080A0000080C0000080E00000A0000000A0200000A0400000A0600000A0800000A0A00000A0C00000A0E00000C0000000C0200000C0400000C0600000C0800000C0
310
A00000C0C00000C0E00000E0000000E0200000E0400000E0600000E0800000E0A00000E0C00000E0E00040000000400020004000400040006000400080004000A0004000C0004000E00040200000402020004020400040206000402080004020A0004020C0004020E000404000004040200040404000404060004040800040
310
40A0004040C0004040E00040600000406020004060400040606000406080004060A0004060C0004060E00040800000408020004080400040806000408080004080A0004080C0004080E00040A0000040A0200040A0400040A0600040A0800040A0A00040A0C00040A0E00040C0000040C0200040C0400040C0600040C08000
310
40C0A00040C0C00040C0E00040E0000040E0200040E0400040E0600040E0800040E0A00040E0C00040E0E00080000000800020008000400080006000800080008000A0008000C0008000E00080200000802020008020400080206000802080008020A0008020C0008020E00080400000804020008040400080406000804080
310
008040A0008040C0008040E00080600000806020008060400080606000806080008060A0008060C0008060E00080800000808020008080400080806000808080008080A0008080C0008080E00080A0000080A0200080A0400080A0600080A0800080A0A00080A0C00080A0E00080C0000080C0200080C0400080C0600080C0
310
800080C0A00080C0C00080C0E00080E0000080E0200080E0400080E0600080E0800080E0A00080E0C00080E0E000C0000000C0002000C0004000C0006000C0008000C000A000C000C000C000E000C0200000C0202000C0204000C0206000C0208000C020A000C020C000C020E000C0400000C0402000C0404000C0406000C0
310
408000C040A000C040C000C040E000C0600000C0602000C0604000C0606000C0608000C060A000C060C000C060E000C0800000C0802000C0804000C0806000C0808000C080A000C080C000C080E000C0A00000C0A02000C0A04000C0A06000C0A08000C0A0A000C0A0C000C0A0E000C0C00000C0C02000C0C04000C0C06000
310
C0C08000C0C0A000F0FBFF00A4A0A000808080000000FF0000FF000000FFFF00FF000000FF00FF00FFFF0000FFFFFF0000000000000000000000000000000000000000000000000000000000000000000000000000000000000000000000000000000000000000000000000000000000000000000000000000000000000000
310
000000000000000000000000000000000000000000000000000000000000000000000000000000000000000000000000000000000000000000000000000000000000000000000000000000000000000000000000000000000000000000000000000000000000000000000000000000000000F9F9F9F9F9F9F9F9F9F9F9F9F9
310
F9F9F9F9F9F9F9F9F9F9F9F9F9F9FF00000000F9FF000000000000000000FFFFFFFFFFFFFFFFFFFFFFFFF9FAFAFAFF00000000F9FF000000000000000000FFFFFFFFFFFFFFFFFFFFFFFFFFFFFFFFFF00000000F9FD000000000000000000FFFFFFFFFFFFFFFFFFFFFFFFFFFFFFFFFF00000000F9FF000000000000000000FF
310
FFFFFFFFFFFFFFFFFFFFFFFFFFFFFFFF00000000F9FD000000000000000000FFFFFFFFFFFFFFFFFFFFFFFFFFFFFFFFFF00000000F9FF00000000000000000000000000000000000000000000000000FF00000000F9FD00000000000000000000000000000000000000000000000000FF00000000F9FF000000000000000000
310
00000000000000000000000000000000FF00000000F9FD00000000000000000000000000000000000000000000000000FF00000000F9FF00000000000000000000000000000000000000000000000000FF00000000F9FD00000000000000000000000000000000000000000000000000FF00000000F9FD0000000000000000
310
0000000000000000000000000000000000FF00000000F9FF00000000000000000000000000000000000000000000000000FF00000000F9FD00000000000000000000000000000000000000000000000000FF00000000F9FF00000000000000000000000000000000000000000000000000FF00000000F9FD00000000000000
310
000000000000000000000000000000000000FF00000000F9FF00000000000000000000000000000000000000000000000000FF00000000F9FFFFFFFFFFFFFFFFFFFFFFFFFFFFFFFFFFFFFFFFFFFFFFFFFFFFFF00000000F9FFFFFFF9F9F9F9F9F9F9F9F9F9F9F9F9F9F9F9F9F9F9F9F9F9F9F9000000000000000000000000
310
00000000000000000000000000000000000000000000000000000000000000000000000000000000000000000000000000000000000000000000000000000000000000000000000000000000000000000000000000000000000000000000000000000000000000000000000000000000000000000000000000000000000000
310
0000000000000000000000000000000000000000000000000000000000000000000000000000000000000000000000000000000000000000
102
{BLKREFS
331
19F55
102
}
 70
     4
280
     1
281
     0
1001
AcDbDynamicBlockGUID
1000
{E9AAC300-33E7-4CF2-AE01-871B42F4ECC8}
1001
AcDbBlockRepETag
1070
     1
1071
      149
  0
BLOCK_RECORD
  5
1849E
330
1
100
AcDbSymbolTableRecord
100
AcDbBlockTableRecord
  2
SF0_BL1
340
0
 70
     0
280
     1
281
     0
  0
BLOCK_RECORD
  5
184A6
102
{ACAD_XDICTIONARY
360
184A7
102
}
330
1
100
AcDbSymbolTableRecord
100
AcDbBlockTableRecord
  2
A$C072E188C
340
0
 70
     1
280
     1
281
     0
  0
BLOCK_RECORD
  5
19746
102
{ACAD_XDICTIONARY
360
19747
102
}
330
1
100
AcDbSymbolTableRecord
100
AcDbBlockTableRecord
  2
A4
340
0
310
2800000020000000200000000100080000000000000400000000000000000000000000000000000000000000000080000080000000808000800000008000800080800000C0C0C000C0DCC000F0CAA6000020400000206000002080000020A0000020C0000020E00000400000004020000040400000406000004080000040A0
310
000040C0000040E00000600000006020000060400000606000006080000060A0000060C0000060E00000800000008020000080400000806000008080000080A0000080C0000080E00000A0000000A0200000A0400000A0600000A0800000A0A00000A0C00000A0E00000C0000000C0200000C0400000C0600000C0800000C0
310
A00000C0C00000C0E00000E0000000E0200000E0400000E0600000E0800000E0A00000E0C00000E0E00040000000400020004000400040006000400080004000A0004000C0004000E00040200000402020004020400040206000402080004020A0004020C0004020E000404000004040200040404000404060004040800040
310
40A0004040C0004040E00040600000406020004060400040606000406080004060A0004060C0004060E00040800000408020004080400040806000408080004080A0004080C0004080E00040A0000040A0200040A0400040A0600040A0800040A0A00040A0C00040A0E00040C0000040C0200040C0400040C0600040C08000
310
40C0A00040C0C00040C0E00040E0000040E0200040E0400040E0600040E0800040E0A00040E0C00040E0E00080000000800020008000400080006000800080008000A0008000C0008000E00080200000802020008020400080206000802080008020A0008020C0008020E00080400000804020008040400080406000804080
310
008040A0008040C0008040E00080600000806020008060400080606000806080008060A0008060C0008060E00080800000808020008080400080806000808080008080A0008080C0008080E00080A0000080A0200080A0400080A0600080A0800080A0A00080A0C00080A0E00080C0000080C0200080C0400080C0600080C0
310
800080C0A00080C0C00080C0E00080E0000080E0200080E0400080E0600080E0800080E0A00080E0C00080E0E000C0000000C0002000C0004000C0006000C0008000C000A000C000C000C000E000C0200000C0202000C0204000C0206000C0208000C020A000C020C000C020E000C0400000C0402000C0404000C0406000C0
310
408000C040A000C040C000C040E000C0600000C0602000C0604000C0606000C0608000C060A000C060C000C060E000C0800000C0802000C0804000C0806000C0808000C080A000C080C000C080E000C0A00000C0A02000C0A04000C0A06000C0A08000C0A0A000C0A0C000C0A0E000C0C00000C0C02000C0C04000C0C06000
310
C0C08000C0C0A000F0FBFF00A4A0A000808080000000FF0000FF000000FFFF00FF000000FF00FF00FFFF0000FFFFFF0000000000000000000000000000000000000000000000000000000000000000000000000000000000000000000000000000000000000000000000000000000000000000000000000000000000000000
310
000000000000000000000000000000000000000000000000000000000000000000000000000000000000000000000000000000000000000000000000000000000000000000000000000000000000000000000000000000000000000000000000000000000000000000000000000000000000F9F9F9F9F9F9F9F9F9F9F9F9F9
310
F9F9F9F9F9F9F9F9F9F9F9F9F9F9F900000000F9FFFFFFFFFFFFFFFFFFFFFFFFFFFFFFFFFFFFFFFFFFFFFFFFFFFFF900000000F9FF000000000000000000FFFFFFFFFFFFFFFFFFFFFFFFFFFFFFFFF900000000F9FF000000000000000000FFFFFFFFFFFFFFFFFFFFFFFFFFFFFFFFF900000000F9FF000000000000000000FF
310
FFFFFFFFFFFFFFFFFFFFFFFFFFFFFFF900000000F9FF000000000000000000FFFFFFFFFFFFFFFFFFFFFFFFFFFFFFFFF900000000F9FF00000000000000000000000000000000000000000000000000F900000000F9FF00000000000000000000000000000000000000000000000000F900000000F9FF000000000000000000
310
00000000000000000000000000000000F900000000F9FF00000000000000000000000000000000000000000000000000F900000000F9FF00000000000000000000000000000000000000000000000000F900000000F9FF00000000000000000000000000000000000000000000000000F900000000F9FF0000000000000000
310
0000000000000000000000000000000000F900000000F9FF00000000000000000000000000000000000000000000000000F900000000F9FF00000000000000000000000000000000000000000000000000F900000000F9FF00000000000000000000000000000000000000000000000000F900000000F9FF00000000000000
310
000000000000000000000000000000000000F900000000F9FF00000000000000000000000000000000000000000000000000F900000000F9FFFFFFFFFFFFFFFFFFFFFFFFFFFFFFFFFFFFFFFFFFFFFFFFFFFFF900000000F9F9F9F9F9F9F9F9F9F9F9F9F9F9F9F9F9F9F9F9F9F9F9F9F9F9F9F9000000000000000000000000
310
00000000000000000000000000000000000000000000000000000000000000000000000000000000000000000000000000000000000000000000000000000000000000000000000000000000000000000000000000000000000000000000000000000000000000000000000000000000000000000000000000000000000000
310
0000000000000000000000000000000000000000000000000000000000000000000000000000000000000000000000000000000000000000
 70
     4
280
     1
281
     0
1001
AcDbDynamicBlockGUID
1000
{C39B5FF5-B2B9-4C32-BC51-D5A7A62E0827}
1001
AcDbBlockRepETag
1070
     1
1071
      133
  0
BLOCK_RECORD
  5
1CAC5
330
1
100
AcDbSymbolTableRecord
100
AcDbBlockTableRecord
  2
*D5
340
0
 70
     0
280
     1
281
     0
  0
BLOCK_RECORD
  5
1CAD2
330
1
100
AcDbSymbolTableRecord
100
AcDbBlockTableRecord
  2
*D6
340
0
 70
     0
280
     1
281
     0
  0
BLOCK_RECORD
  5
1CADF
330
1
100
AcDbSymbolTableRecord
100
AcDbBlockTableRecord
  2
*D7
340
0
 70
     0
280
     1
281
     0
  0
BLOCK_RECORD
  5
1CAEC
330
1
100
AcDbSymbolTableRecord
100
AcDbBlockTableRecord
  2
*D8
340
0
 70
     0
280
     1
281
     0
  0
BLOCK_RECORD
  5
1CAF9
330
1
100
AcDbSymbolTableRecord
100
AcDbBlockTableRecord
  2
*D9
340
0
 70
     0
280
     1
281
     0
  0
ENDTAB
  0
ENDSEC
  0
SECTION
  2
BLOCKS
  0
BLOCK
  5
20
330
1F
100
AcDbEntity
  8
0
100
AcDbBlockBegin
  2
*Model_Space
 70
     0
 10
0.0
 20
0.0
 30
0.0
  3
*Model_Space
  1

  0
ENDBLK
  5
21
330
1F
100
AcDbEntity
  8
0
100
AcDbBlockEnd
  0
BLOCK
  5
1C
330
1B
100
AcDbEntity
 67
     1
  8
0
100
AcDbBlockBegin
  2
*Paper_Space
 70
     0
 10
0.0
 20
0.0
 30
0.0
  3
*Paper_Space
  1

  0
ENDBLK
  5
1D
330
1B
100
AcDbEntity
 67
     1
  8
0
100
AcDbBlockEnd
  0
BLOCK
  5
24
330
23
100
AcDbEntity
 67
     1
  8
0
100
AcDbBlockBegin
  2
*Paper_Space0
 70
     0
 10
0.0
 20
0.0
 30
0.0
  3
*Paper_Space0
  1

  0
ENDBLK
  5
25
330
23
100
AcDbEntity
 67
     1
  8
0
100
AcDbBlockEnd
  0
BLOCK
  5
10FEA
330
10FE8
100
AcDbEntity
  8
0
100
AcDbBlockBegin
  2
A4图框-NEW
 70
     0
 10
0.0
 20
0.0
 30
0.0
  3
A4图框-NEW
  1

  0
MTEXT
  5
1CC22
102
{ACAD_XDICTIONARY
360
1CD10
102
}
330
10FE8
100
AcDbEntity
  8
图框
 62
     3
100
AcDbMText
 10
967.6594956750133
 20
499.7664151964293
 30
0.0
 40
2.985513575034151
 41
15.50176341157864
 46
6.292658374511018
 71
     5
 72
     5
  1
DN YE
  7
Romans字体
 73
     1
 44
1.0
1001
AcDbBlockRepETag
1070
     1
1071
        0
1005
1CC22
1001
ACAD
1000
ACAD_MTEXT_DEFINED_HEIGHT_BEGIN
1070
    46
1040
6.292658374511018
1000
ACAD_MTEXT_DEFINED_HEIGHT_END
  0
MTEXT
  5
1CC23
330
10FE8
100
AcDbEntity
  8
图框
 62
     3
100
AcDbMText
 10
983.041569333247
 20
499.7664151964293
 30
0.0
 40
2.487927979195124
 41
15.26238390489051
 46
6.292658374511042
 71
     5
 72
     5
  1
{\W0.7;23.12.2020}
  7
Romans字体
 73
     1
 44
1.0
1001
AcDbBlockRepETag
1070
     1
1071
        1
1005
1CC23
1001
ACAD
1000
ACAD_MTEXT_DEFINED_HEIGHT_BEGIN
1070
    46
1040
6.292658374511042
1000
ACAD_MTEXT_DEFINED_HEIGHT_END
  0
MTEXT
  5
1CC24
330
10FE8
100
AcDbEntity
  8
图框
 62
     3
100
AcDbMText
 10
1012.477254728976
 20
487.1810984474071
 30
0.0
 40
2.985513575034151
 41
17.64876416884615
 46
6.292658374511455
 71
     5
 72
     5
  1
HQ ZHANG
  7
Romans字体
 73
     1
 44
1.0
1001
AcDbBlockRepETag
1070
     1
1071
        2
1005
1CC24
1001
ACAD
1000
ACAD_MTEXT_DEFINED_HEIGHT_BEGIN
1070
    46
1040
6.292658374511455
1000
ACAD_MTEXT_DEFINED_HEIGHT_END
  0
MTEXT
  5
1CC25
330
10FE8
100
AcDbEntity
  8
图框
 62
     3
100
AcDbMText
 10
1028.977802139886
 20
487.1810984474071
 30
0.0
 40
2.487927979195124
 41
15.35233065297276
 46
6.292658374511495
 71
     5
 72
     5
  1
{\W0.7;23.12.2020}
  7
Romans字体
 73
     1
 44
1.0
1001
AcDbBlockRepETag
1070
     1
1071
        3
1005
1CC25
1001
ACAD
1000
ACAD_MTEXT_DEFINED_HEIGHT_BEGIN
1070
    46
1040
6.292658374511495
1000
ACAD_MTEXT_DEFINED_HEIGHT_END
  0
MTEXT
  5
1CC26
330
10FE8
100
AcDbEntity
  8
图框
 62
     3
100
AcDbMText
 10
1063.722665487208
 20
525.4145966538831
 30
0.0
 40
2.985513575034151
 41
32.4973914334545
 46
11.82914190181707
 71
     5
 72
     5
  1
-
  7
Romans字体
 73
     1
 44
1.0
1001
AcDbBlockRepETag
1070
     1
1071
        4
1005
1CC26
1001
ACAD
1000
ACAD_MTEXT_DEFINED_HEIGHT_BEGIN
1070
    46
1040
11.82914190181707
1000
ACAD_MTEXT_DEFINED_HEIGHT_END
  0
MTEXT
  5
1CC27
330
10FE8
100
AcDbEntity
  8
图框
 62
     3
100
AcDbMText
 10
1063.727338552349
 20
513.5854547520641
 30
0.0
 40
2.985513575034151
 41
32.48804530317308
 46
11.82914190182139
 71
     5
 72
     5
  1
-
  7
Romans字体
 73
     1
 44
1.0
1001
AcDbBlockRepETag
1070
     1
1071
        5
1005
1CC27
1001
ACAD
1000
ACAD_MTEXT_DEFINED_HEIGHT_BEGIN
1070
    46
1040
11.82914190182139
1000
ACAD_MTEXT_DEFINED_HEIGHT_END
  0
MTEXT
  5
1CC28
330
10FE8
100
AcDbEntity
  8
图框
 62
     3
100
AcDbMText
 10
1110.122306614152
 20
526.8006839312707
 30
0.0
 40
2.985513575034151
 41
33.61239199242139
 46
9.05696734704178
 71
     5
 72
     5
  1
-
  7
Romans字体
 73
     1
 44
1.0
1001
AcDbBlockRepETag
1070
     1
1071
        6
1005
1CC28
1001
ACAD
1000
ACAD_MTEXT_DEFINED_HEIGHT_BEGIN
1070
    46
1040
9.05696734704178
1000
ACAD_MTEXT_DEFINED_HEIGHT_END
  0
MTEXT
  5
1CC29
330
10FE8
100
AcDbEntity
  8
图框
 62
     3
100
AcDbMText
 10
1110.122306614152
 20
500.2775205517162
 30
0.0
 40
2.985513575034151
 41
115.7913269717294
 46
8.871557304763419
 71
     5
 72
     5
  1
350A{\fSimSun|b0|i0|c134|p2;冠簧冷压母插针}
  7
Romans字体
 73
     1
 44
1.0
1001
AcDbBlockRepETag
1070
     1
1071
        7
1005
1CC29
1001
ACAD
1000
ACAD_MTEXT_DEFINED_HEIGHT_BEGIN
1070
    46
1040
8.871557304763419
1000
ACAD_MTEXT_DEFINED_HEIGHT_END
  0
MTEXT
  5
1CC2A
330
10FE8
100
AcDbEntity
  8
图框
 62
     3
100
AcDbMText
 10
967.6594956750133
 20
493.4737568219182
 30
0.0
 40
2.985513575034151
 41
15.50176341157864
 46
6.292658374510335
 71
     5
 72
     5
  1
HZ LAN
  7
Romans字体
 73
     1
 44
1.0
1001
AcDbBlockRepETag
1070
     1
1071
        8
1005
1CC2A
1001
ACAD
1000
ACAD_MTEXT_DEFINED_HEIGHT_BEGIN
1070
    46
1040
6.292658374510335
1000
ACAD_MTEXT_DEFINED_HEIGHT_END
  0
MTEXT
  5
1CC2B
330
10FE8
100
AcDbEntity
  8
图框
 62
     3
100
AcDbMText
 10
983.041569333247
 20
493.2441970450405
 30
0.0
 40
2.487927979195124
 41
15.26238390489051
 46
6.751777928266487
 71
     5
 72
     5
  1
{\W0.7;23.12.2020}
  7
Romans字体
 73
     1
 44
1.0
1001
AcDbBlockRepETag
1070
     1
1071
        9
1005
1CC2B
1001
ACAD
1000
ACAD_MTEXT_DEFINED_HEIGHT_BEGIN
1070
    46
1040
6.751777928266487
1000
ACAD_MTEXT_DEFINED_HEIGHT_END
  0
MTEXT
  5
1CC2C
330
10FE8
100
AcDbEntity
  8
图框
 62
     3
100
AcDbMText
 10
1012.477254728976
 20
499.7664151964291
 30
0.0
 40
2.985513575034151
 41
17.64876416884615
 46
6.292658374511397
 71
     5
 72
     5
  1
-
  7
Romans字体
 73
     1
 44
1.0
1001
AcDbBlockRepETag
1070
     1
1071
       10
1005
1CC2C
1001
ACAD
1000
ACAD_MTEXT_DEFINED_HEIGHT_BEGIN
1070
    46
1040
6.292658374511397
1000
ACAD_MTEXT_DEFINED_HEIGHT_END
  0
MTEXT
  5
1CC2D
330
10FE8
100
AcDbEntity
  8
图框
 62
     3
100
AcDbMText
 10
1028.977802139886
 20
499.7664151964289
 30
0.0
 40
2.487927979195124
 41
15.35233065297265
 46
6.292658374511382
 71
     5
 72
     5
  1
-
  7
Romans字体
 73
     1
 44
1.0
1001
AcDbBlockRepETag
1070
     1
1071
       11
1005
1CC2D
1001
ACAD
1000
ACAD_MTEXT_DEFINED_HEIGHT_BEGIN
1070
    46
1040
6.292658374511382
1000
ACAD_MTEXT_DEFINED_HEIGHT_END
  0
MTEXT
  5
1CC2E
330
10FE8
100
AcDbEntity
  8
图框
 62
     3
100
AcDbMText
 10
967.6594956750133
 20
487.1810984474071
 30
0.0
 40
2.985513575034151
 41
15.50176341157863
 46
6.292658374511478
 71
     5
 72
     5
  1
-
  7
Romans字体
 73
     1
 44
1.0
1001
AcDbBlockRepETag
1070
     1
1071
       12
1005
1CC2E
1001
ACAD
1000
ACAD_MTEXT_DEFINED_HEIGHT_BEGIN
1070
    46
1040
6.292658374511478
1000
ACAD_MTEXT_DEFINED_HEIGHT_END
  0
MTEXT
  5
1CC2F
330
10FE8
100
AcDbEntity
  8
图框
 62
     3
100
AcDbMText
 10
983.041569333247
 20
487.1810984474071
 30
0.0
 40
2.487927979195124
 41
15.26238390489062
 46
6.292658374511495
 71
     5
 72
     5
  1
-
  7
Romans字体
 73
     1
 44
1.0
1001
AcDbBlockRepETag
1070
     1
1071
       13
1005
1CC2F
1001
ACAD
1000
ACAD_MTEXT_DEFINED_HEIGHT_BEGIN
1070
    46
1040
6.292658374511495
1000
ACAD_MTEXT_DEFINED_HEIGHT_END
  0
MTEXT
  5
1CC30
330
10FE8
100
AcDbEntity
  8
图框
 62
     3
100
AcDbMText
 10
1074.556686986741
 20
495.8417418993361
 30
0.0
 40
2.985513575034151
 41
10.82934843438978
 46
7.886094601210427
 71
     5
 72
     5
  1
-
  7
Romans字体
 73
     1
 44
1.0
1001
AcDbBlockRepETag
1070
     1
1071
       14
1005
1CC30
1001
ACAD
1000
ACAD_MTEXT_DEFINED_HEIGHT_BEGIN
1070
    46
1040
7.886094601210427
1000
ACAD_MTEXT_DEFINED_HEIGHT_END
  0
LINE
  5
1CC31
330
10FE8
100
AcDbEntity
  8
图框
370
    -3
100
AcDbLine
 10
1036.653967466372
 20
499.7847891999413
 30
0.0
 11
1079.971361203936
 21
499.7847891999413
 31
0.0
1001
AcDbBlockRepETag
1070
     1
1071
       15
1005
1CC31
  0
MTEXT
  5
1CC32
330
10FE8
100
AcDbEntity
  8
图框
 62
     1
370
    20
100
AcDbMText
 10
1108.26336443907
 20
491.5162596080882
 30
0.0
 40
2.699054613030988
 41
82.30831305643079
 46
0.0
 71
     5
 72
     5
  1
{\fSimHei|b0|i0|c134|p2;厦门唯恩电气有限公司}
 73
     1
 44
1.0
1001
AcDbBlockRepETag
1070
     1
1071
       16
1005
1CC32
  0
MTEXT
  5
1CC33
330
10FE8
100
AcDbEntity
  8
图框
 62
     3
370
    20
100
AcDbMText
 10
1108.435451459908
 20
487.298967726064
 30
0.0
 40
1.652482416141417
 41
68.08558693693567
 46
0.0
 71
     5
 72
     5
  1
{\fArial Narrow|b0|i0|c0|p34;XIAMEN WAIN ELECTRICAL CO.LTD}
  7
工程字
 73
     1
 44
1.0
1001
AcDbBlockRepETag
1070
     1
1071
       17
1005
1CC33
  0
MTEXT
  5
1CC34
330
10FE8
100
AcDbEntity
  8
图框
 62
     1
370
    20
100
AcDbMText
 10
1085.711816899387
 20
491.0944802995856
 30
0.0
 40
2.005930044038334
 41
5.047240019334847
 46
0.0
 71
     1
 72
     5
  1
{\fArial|b0|i0|c0|p34;A}
  7
Chinese
 73
     1
 44
1.0
1001
AcDbBlockRepETag
1070
     1
1071
       18
1005
1CC34
  0
MTEXT
  5
1CC35
330
10FE8
100
AcDbEntity
  8
图框
 62
     1
370
    20
100
AcDbMText
 10
1088.213485935716
 20
491.0944802995856
 30
0.0
 40
2.005930044038334
 41
5.047240019334847
 46
0.0
 71
     1
 72
     5
  1
{\fArial|b0|i0|c0|p34;I}
  7
Chinese
 73
     1
 44
1.0
1001
AcDbBlockRepETag
1070
     1
1071
       19
1005
1CC35
  0
MTEXT
  5
1CC36
330
10FE8
100
AcDbEntity
  8
图框
 62
     1
370
    20
100
AcDbMText
 10
1089.142375222864
 20
491.0822866326808
 30
0.0
 40
2.005930044038334
 41
5.047240019334847
 46
0.0
 71
     1
 72
     5
  1
{\fArial|b0|i0|c0|p34;N}
  7
Chinese
 73
     1
 44
1.0
1001
AcDbBlockRepETag
1070
     1
1071
       20
1005
1CC36
  0
MTEXT
  5
1CC37
330
10FE8
100
AcDbEntity
  8
图框
100
AcDbMText
 10
1069.142012769545
 20
487.9667319294409
 30
0.0
 40
2.252848170144607
 41
21.65869686878327
 46
7.863925338579296
 71
     5
 72
     5
  1
{\W0.5;\C1;All Dimensions in mm\POriginal Size DIN A 4}
  7
Romans字体
 73
     1
 44
1.0
1001
AcDbBlockRepETag
1070
     1
1071
       21
1005
1CC37
1001
ACAD
1000
ACAD_MTEXT_DEFINED_HEIGHT_BEGIN
1070
    46
1040
7.863925338579296
1000
ACAD_MTEXT_DEFINED_HEIGHT_END
  0
MTEXT
  5
1CC38
330
10FE8
100
AcDbEntity
  8
图框
  6
ByBlock
 62
     6
370
    18
100
AcDbMText
 10
1127.40434942308
 20
508.7896535755975
 30
0.0
 40
2.651776162684904
 41
2.557913877927211
 46
0.0
 71
     1
 72
     5
  1
A
  7
Romans字体
 11
0.0000000000000001
 21
1.0
 31
0.0
 73
     1
 44
1.0
1001
AcDbBlockRepETag
1070
     1
1071
       22
1005
1CC38
  0
MTEXT
  5
1CC39
330
10FE8
100
AcDbEntity
  8
图框
 62
     6
100
AcDbMText
 10
1127.40434942308
 20
556.3746573232886
 30
0.0
 40
2.651776162684904
 41
2.557913877927211
 46
0.0
 71
     1
 72
     5
  1
B
  7
Romans字体
 11
0.0000000000000001
 21
1.0
 31
0.0
 73
     1
 44
1.0
1001
AcDbBlockRepETag
1070
     1
1071
       23
1005
1CC39
  0
MTEXT
  5
1CC3A
330
10FE8
100
AcDbEntity
  8
图框
 62
     6
100
AcDbMText
 10
1127.40434942308
 20
607.5539372630998
 30
0.0
 40
2.651776162684904
 41
2.557913877927211
 46
0.0
 71
     1
 72
     5
  1
C
  7
Romans字体
 11
0.0000000000000001
 21
1.0
 31
0.0
 73
     1
 44
1.0
1001
AcDbBlockRepETag
1070
     1
1071
       24
1005
1CC3A
  0
MTEXT
  5
1CC3B
330
10FE8
100
AcDbEntity
  8
图框
 62
     6
100
AcDbMText
 10
1127.40434942308
 20
658.7332172029115
 30
0.0
 40
2.651776162684904
 41
2.557913877927211
 46
0.0
 71
     1
 72
     5
  1
D
  7
Romans字体
 11
0.0000000000000001
 21
1.0
 31
0.0
 73
     1
 44
1.0
1001
AcDbBlockRepETag
1070
     1
1071
       25
1005
1CC3B
  0
LINE
  5
1CC3C
330
10FE8
100
AcDbEntity
  8
图框
 62
     6
100
AcDbLine
 10
1130.411601781241
 20
634.0726090796082
 30
0.0
 11
1126.928502610363
 21
634.0726090796082
 31
0.0
1001
AcDbBlockRepETag
1070
     1
1071
       26
1005
1CC3C
  0
LINE
  5
1CC3D
330
10FE8
100
AcDbEntity
  8
图框
 62
     6
100
AcDbLine
 10
1130.411601781241
 20
582.89332913979
 30
0.0
 11
1126.928502610363
 21
582.89332913979
 31
0.0
1001
AcDbBlockRepETag
1070
     1
1071
       27
1005
1CC3D
  0
MTEXT
  5
1CC3E
330
10FE8
100
AcDbEntity
  8
图框
 62
     6
100
AcDbMText
 10
1105.329704038389
 20
483.6164543011163
 30
0.0
 40
2.651776162684904
 41
2.557913877927211
 46
0.0
 71
     1
 72
     5
  1
6
  7
Romans字体
 73
     1
 44
1.0
1001
AcDbBlockRepETag
1070
     1
1071
       28
1005
1CC3E
  0
LINE
  5
1CC3F
330
10FE8
100
AcDbEntity
  8
图框
 62
     6
100
AcDbLine
 10
1081.088565155284
 20
484.0347692601515
 30
0.0
 11
1081.088565155284
 21
480.5347692601475
 31
0.0
1001
AcDbBlockRepETag
1070
     1
1071
       29
1005
1CC3F
  0
MTEXT
  5
1CC40
330
10FE8
100
AcDbEntity
  8
图框
 62
     6
100
AcDbMText
 10
1055.900596365941
 20
483.520053108993
 30
0.0
 40
2.651776162684904
 41
2.557913877927211
 46
0.0
 71
     1
 72
     5
  1
5
  7
Romans字体
 73
     1
 44
1.0
1001
AcDbBlockRepETag
1070
     1
1071
       30
1005
1CC40
  0
LINE
  5
1CC41
330
10FE8
100
AcDbEntity
  8
图框
 62
     6
100
AcDbLine
 10
1031.553386436349
 20
484.0347692601515
 30
0.0
 11
1031.553386436349
 21
480.5347692601475
 31
0.0
1001
AcDbBlockRepETag
1070
     1
1071
       31
1005
1CC41
  0
MTEXT
  5
1CC42
330
10FE8
100
AcDbEntity
  8
图框
 62
     6
100
AcDbMText
 10
1006.383180575197
 20
483.5687958215896
 30
0.0
 40
2.651776162684904
 41
2.557913877927211
 46
0.0
 71
     1
 72
     5
  1
4
  7
Romans字体
 73
     1
 44
1.0
1001
AcDbBlockRepETag
1070
     1
1071
       32
1005
1CC42
  0
LINE
  5
1CC43
330
10FE8
100
AcDbEntity
  8
图框
 62
     6
100
AcDbLine
 10
982.0182077173887
 20
484.0347692601515
 30
0.0
 11
982.0182077173887
 21
480.5347692601475
 31
0.0
1001
AcDbBlockRepETag
1070
     1
1071
       33
1005
1CC43
  0
MTEXT
  5
1CC44
330
10FE8
100
AcDbEntity
  8
图框
 62
     6
100
AcDbMText
 10
956.8302389280352
 20
483.5989680297948
 30
0.0
 40
2.651776162684904
 41
2.557913877927211
 46
0.0
 71
     1
 72
     5
  1
3
  7
Romans字体
 73
     1
 44
1.0
1001
AcDbBlockRepETag
1070
     1
1071
       34
1005
1CC44
  0
LINE
  5
1CC45
330
10FE8
100
AcDbEntity
  8
图框
 62
     6
100
AcDbLine
 10
932.4830289984245
 20
484.0347692601515
 30
0.0
 11
932.4830289984245
 21
480.5347692601475
 31
0.0
1001
AcDbBlockRepETag
1070
     1
1071
       35
1005
1CC45
  0
MTEXT
  5
1CC46
330
10FE8
100
AcDbEntity
  8
图框
 62
     6
100
AcDbMText
 10
906.0252349826365
 20
483.6475250013156
 30
0.0
 40
2.651776162684904
 41
2.557913877927211
 46
0.0
 71
     1
 72
     5
  1
2
  7
Romans字体
 73
     1
 44
1.0
1001
AcDbBlockRepETag
1070
     1
1071
       36
1005
1CC46
  0
LINE
  5
1CC47
330
10FE8
100
AcDbEntity
  8
图框
 62
     6
100
AcDbLine
 10
882.9478502794648
 20
484.0347692601515
 30
0.0
 11
882.9478502794648
 21
480.5347692601475
 31
0.0
1001
AcDbBlockRepETag
1070
     1
1071
       37
1005
1CC47
  0
MTEXT
  5
1CC48
330
10FE8
100
AcDbEntity
  8
图框
 62
     6
100
AcDbMText
 10
857.7598814901191
 20
483.651829494754
 30
0.0
 40
2.651776162684904
 41
2.557913877927211
 46
0.0
 71
     1
 72
     5
  1
1
  7
Romans字体
 73
     1
 44
1.0
1001
AcDbBlockRepETag
1070
     1
1071
       38
1005
1CC48
  0
LINE
  5
1CC49
330
10FE8
100
AcDbEntity
  8
图框
370
    50
100
AcDbLine
 10
836.8548209370597
 20
484.0347692601515
 30
0.0
 11
1126.928502610363
 21
484.0347692601515
 31
0.0
1001
AcDbBlockRepETag
1070
     1
1071
       39
1005
1CC49
  0
LINE
  5
1CC4A
330
10FE8
100
AcDbEntity
  8
图框
370
    50
100
AcDbLine
 10
836.9128518455362
 20
484.0178684310246
 30
0.0
 11
836.9128518455394
 21
675.0207195125422
 31
0.0
1001
AcDbBlockRepETag
1070
     1
1071
       40
1005
1CC4A
  0
MTEXT
  5
1CC4B
330
10FE8
100
AcDbEntity
  8
图框
 62
     6
100
AcDbMText
 10
833.8475685789031
 20
658.7332172029115
 30
0.0
 40
2.651776162684904
 41
2.557913877927211
 46
0.0
 71
     1
 72
     5
  1
D
  7
Romans字体
 11
0.0000000000000001
 21
1.0
 31
0.0
 73
     1
 44
1.0
1001
AcDbBlockRepETag
1070
     1
1071
       41
1005
1CC4B
  0
LINE
  5
1CC4C
330
10FE8
100
AcDbEntity
  8
图框
 62
     6
100
AcDbLine
 10
836.9128518455386
 20
634.0726090796082
 30
0.0
 11
833.4128518455365
 21
634.0726090796082
 31
0.0
1001
AcDbBlockRepETag
1070
     1
1071
       42
1005
1CC4C
  0
MTEXT
  5
1CC4D
330
10FE8
100
AcDbEntity
  8
图框
 62
     6
100
AcDbMText
 10
833.9039177480142
 20
607.5539372630998
 30
0.0
 40
2.651776162684904
 41
2.557913877927211
 46
0.0
 71
     1
 72
     5
  1
C
  7
Romans字体
 11
0.0000000000000001
 21
1.0
 31
0.0
 73
     1
 44
1.0
1001
AcDbBlockRepETag
1070
     1
1071
       43
1005
1CC4D
  0
LINE
  5
1CC4E
330
10FE8
100
AcDbEntity
  8
图框
 62
     6
100
AcDbLine
 10
836.9128518455378
 20
582.89332913979
 30
0.0
 11
833.4128518455365
 21
582.89332913979
 31
0.0
1001
AcDbBlockRepETag
1070
     1
1071
       44
1005
1CC4E
  0
MTEXT
  5
1CC4F
330
10FE8
100
AcDbEntity
  8
图框
 62
     6
100
AcDbMText
 10
833.9039177480142
 20
556.3746573232886
 30
0.0
 40
2.651776162684904
 41
2.557913877927211
 46
0.0
 71
     1
 72
     5
  1
B
  7
Romans字体
 11
0.0000000000000001
 21
1.0
 31
0.0
 73
     1
 44
1.0
1001
AcDbBlockRepETag
1070
     1
1071
       45
1005
1CC4F
  0
LINE
  5
1CC50
330
10FE8
100
AcDbEntity
  8
图框
 62
     6
100
AcDbLine
 10
836.9128518455367
 20
531.714049199969
 30
0.0
 11
833.4128518455365
 21
531.714049199969
 31
0.0
1001
AcDbBlockRepETag
1070
     1
1071
       46
1005
1CC50
  0
MTEXT
  5
1CC51
330
10FE8
100
AcDbEntity
  8
图框
 62
     6
100
AcDbMText
 10
833.9039177480142
 20
508.7896535755975
 30
0.0
 40
2.651776162684904
 41
2.557913877927211
 46
0.0
 71
     1
 72
     5
  1
A
  7
Romans字体
 11
0.0000000000000001
 21
1.0
 31
0.0
 73
     1
 44
1.0
1001
AcDbBlockRepETag
1070
     1
1071
       47
1005
1CC51
  0
LINE
  5
1CC52
330
10FE8
100
AcDbEntity
  8
图框
370
    -3
100
AcDbLine
 10
836.9128518455394
 20
675.0207195125422
 30
0.0
 11
836.9128518455394
 21
684.5021384922564
 31
0.0
1001
AcDbBlockRepETag
1070
     1
1071
       48
1005
1CC52
  0
LINE
  5
1CC53
330
10FE8
100
AcDbEntity
  8
图框
370
    -3
100
AcDbLine
 10
842.6237321475781
 20
675.5347692601515
 30
0.0
 11
842.6237321475781
 21
685.0161882398658
 31
0.0
1001
AcDbBlockRepETag
1070
     1
1071
       49
1005
1CC53
  0
LINE
  5
1CC54
330
10FE8
100
AcDbEntity
  8
图框
370
    -3
100
AcDbLine
 10
848.3346124496179
 20
675.5347692601515
 30
0.0
 11
848.3346124496179
 21
685.0161882398658
 31
0.0
1001
AcDbBlockRepETag
1070
     1
1071
       50
1005
1CC54
  0
LINE
  5
1CC55
330
10FE8
100
AcDbEntity
  8
图框
370
    -3
100
AcDbLine
 10
854.0454927516588
 20
675.5347692601515
 30
0.0
 11
854.0454927516588
 21
685.0161882398658
 31
0.0
1001
AcDbBlockRepETag
1070
     1
1071
       51
1005
1CC55
  0
LINE
  5
1CC56
330
10FE8
100
AcDbEntity
  8
图框
370
    -3
100
AcDbLine
 10
861.5351874539182
 20
675.5347692601515
 30
0.0
 11
861.5351874539182
 21
686.7901958362482
 31
0.0
1001
AcDbBlockRepETag
1070
     1
1071
       52
1005
1CC56
  0
MTEXT
  5
1CC57
330
10FE8
100
AcDbEntity
  8
图框
 62
     6
100
AcDbMText
 10
1105.329704038389
 20
678.859919059449
 30
0.0
 40
2.651776162684904
 41
2.557913877927211
 46
0.0
 71
     1
 72
     5
  1
6
  7
Romans字体
 73
     1
 44
1.0
1001
AcDbBlockRepETag
1070
     1
1071
       53
1005
1CC57
  0
LINE
  5
1CC58
330
10FE8
100
AcDbEntity
  8
图框
 62
     6
100
AcDbLine
 10
1081.088565155284
 20
679.0347692601516
 30
0.0
 11
1081.088565155284
 21
675.5347692601515
 31
0.0
1001
AcDbBlockRepETag
1070
     1
1071
       54
1005
1CC58
  0
MTEXT
  5
1CC59
330
10FE8
100
AcDbEntity
  8
图框
 62
     6
100
AcDbMText
 10
1055.900596365941
 20
678.859919059449
 30
0.0
 40
2.651776162684904
 41
2.557913877927211
 46
0.0
 71
     1
 72
     5
  1
5
  7
Romans字体
 73
     1
 44
1.0
1001
AcDbBlockRepETag
1070
     1
1071
       55
1005
1CC59
  0
LINE
  5
1CC5A
330
10FE8
100
AcDbEntity
  8
图框
 62
     6
100
AcDbLine
 10
1031.553386436349
 20
679.0347692601516
 30
0.0
 11
1031.553386436349
 21
675.5347692601515
 31
0.0
1001
AcDbBlockRepETag
1070
     1
1071
       56
1005
1CC5A
  0
MTEXT
  5
1CC5B
330
10FE8
100
AcDbEntity
  8
图框
 62
     6
100
AcDbMText
 10
1006.36541764698
 20
678.7312083656147
 30
0.0
 40
2.651776162684904
 41
2.557913877927211
 46
0.0
 71
     1
 72
     5
  1
4
  7
Romans字体
 73
     1
 44
1.0
1001
AcDbBlockRepETag
1070
     1
1071
       57
1005
1CC5B
  0
LINE
  5
1CC5C
330
10FE8
100
AcDbEntity
  8
图框
 62
     6
100
AcDbLine
 10
982.0182077173887
 20
679.0347692601516
 30
0.0
 11
982.0182077173887
 21
675.5347692601515
 31
0.0
1001
AcDbBlockRepETag
1070
     1
1071
       58
1005
1CC5C
  0
MTEXT
  5
1CC5D
330
10FE8
100
AcDbEntity
  8
图框
 62
     6
100
AcDbMText
 10
956.8302389280352
 20
678.859919059449
 30
0.0
 40
2.651776162684904
 41
2.557913877927211
 46
0.0
 71
     1
 72
     5
  1
3
  7
Romans字体
 73
     1
 44
1.0
1001
AcDbBlockRepETag
1070
     1
1071
       59
1005
1CC5D
  0
LINE
  5
1CC5E
330
10FE8
100
AcDbEntity
  8
图框
 62
     6
100
AcDbLine
 10
932.4830289984245
 20
679.0347692601516
 30
0.0
 11
932.4830289984245
 21
675.5347692601515
 31
0.0
1001
AcDbBlockRepETag
1070
     1
1071
       60
1005
1CC5E
  0
MTEXT
  5
1CC5F
330
10FE8
100
AcDbEntity
  8
图框
 62
     6
100
AcDbMText
 10
907.295060209082
 20
678.859919059449
 30
0.0
 40
2.651776162684904
 41
2.557913877927211
 46
0.0
 71
     1
 72
     5
  1
2
  7
Romans字体
 73
     1
 44
1.0
1001
AcDbBlockRepETag
1070
     1
1071
       61
1005
1CC5F
  0
LINE
  5
1CC60
330
10FE8
100
AcDbEntity
  8
图框
 62
     6
100
AcDbLine
 10
882.9478502794648
 20
678.7962435131815
 30
0.0
 11
882.9478502794648
 21
675.5347692601515
 31
0.0
1001
AcDbBlockRepETag
1070
     1
1071
       62
1005
1CC60
  0
MTEXT
  5
1CC61
330
10FE8
100
AcDbEntity
  8
图框
 62
     6
100
AcDbMText
 10
862.6286629643733
 20
678.859919059449
 30
0.0
 40
2.651776162684904
 41
2.557913877927211
 46
0.0
 71
     1
 72
     5
  1
1
  7
Romans字体
 73
     1
 44
1.0
1001
AcDbBlockRepETag
1070
     1
1071
       63
1005
1CC61
  0
LINE
  5
1CC62
330
10FE8
100
AcDbEntity
  8
图框
370
    -3
100
AcDbLine
 10
836.9128518455394
 20
675.0207195125422
 30
0.0
 11
836.9128518455394
 21
686.7901958362482
 31
0.0
1001
AcDbBlockRepETag
1070
     1
1071
       64
1005
1CC62
  0
LINE
  5
1CC63
330
10FE8
100
AcDbEntity
  8
图框
370
    50
100
AcDbLine
 10
836.9128518455394
 20
675.5347692601515
 30
0.0
 11
1126.928502610363
 21
675.5347692601515
 31
0.0
1001
AcDbBlockRepETag
1070
     1
1071
       65
1005
1CC63
  0
LINE
  5
1CC64
330
10FE8
100
AcDbEntity
  8
图框
370
    -3
100
AcDbLine
 10
842.6237321475781
 20
675.5347692601515
 30
0.0
 11
842.6237321475781
 21
686.7901958362482
 31
0.0
1001
AcDbBlockRepETag
1070
     1
1071
       66
1005
1CC64
  0
LINE
  5
1CC65
330
10FE8
100
AcDbEntity
  8
图框
370
    -3
100
AcDbLine
 10
848.3346124496179
 20
675.5347692601515
 30
0.0
 11
848.3346124496179
 21
686.7901958362482
 31
0.0
1001
AcDbBlockRepETag
1070
     1
1071
       67
1005
1CC65
  0
MTEXT
  5
1CC66
102
{ACAD_XDICTIONARY
360
1CD12
102
}
330
10FE8
100
AcDbEntity
  8
图框
100
AcDbMText
 10
857.7903401027889
 20
686.7901958362482
 30
0.0
 40
1.958998408821398
 41
11.25542657609672
 46
7.489694702258906
 71
     4
 72
     5
  1
\pi2.8203;档案员{\H0.7x;\P\pi1.4159;\Fromans|c134;Filing Clerk\fFangSong_GB2312|b0|i0|c134|p49; }
 11
-0.0000000000000002
 21
-1.0
 31
0.0
 73
     1
 44
1.0
1001
AcDbBlockRepETag
1070
     1
1071
       68
1005
1CC66
1001
ACAD
1000
ACAD_MTEXT_DEFINED_HEIGHT_BEGIN
1070
    46
1040
7.489694702258906
1000
ACAD_MTEXT_DEFINED_HEIGHT_END
  0
MTEXT
  5
1CC67
102
{ACAD_XDICTIONARY
360
1CD14
102
}
330
10FE8
100
AcDbEntity
  8
图框
100
AcDbMText
 10
845.479172298598
 20
686.7901958362482
 30
0.0
 40
1.958998408821398
 41
11.25542657609672
 46
5.710880302039671
 71
     4
 72
     5
  1
\pi0.7115;日期{\Fromans|c134;/Date}
 11
-0.0000000000000002
 21
-1.0
 31
0.0
 73
     1
 44
1.0
1001
AcDbBlockRepETag
1070
     1
1071
       69
1005
1CC67
1001
ACAD
1000
ACAD_MTEXT_DEFINED_HEIGHT_BEGIN
1070
    46
1040
5.710880302039671
1000
ACAD_MTEXT_DEFINED_HEIGHT_END
  0
LINE
  5
1CC68
330
10FE8
100
AcDbEntity
  8
图框
370
    -3
100
AcDbLine
 10
854.0454927516588
 20
675.5347692601515
 30
0.0
 11
854.0454927516588
 21
686.7901958362482
 31
0.0
1001
AcDbBlockRepETag
1070
     1
1071
       70
1005
1CC68
  0
LINE
  5
1CC69
330
10FE8
100
AcDbEntity
  8
图框
370
    -3
100
AcDbLine
 10
1036.653967466372
 20
531.3291676047914
 30
0.0
 11
1036.653967466372
 21
484.0126019753161
 31
0.0
1001
AcDbBlockRepETag
1070
     1
1071
       71
1005
1CC69
  0
LINE
  5
1CC6A
330
10FE8
100
AcDbEntity
  8
图框
370
    -3
100
AcDbLine
 10
1047.483315900763
 20
507.6708838011533
 30
0.0
 11
1047.483315900763
 21
491.8986945987308
 31
0.0
1001
AcDbBlockRepETag
1070
     1
1071
       72
1005
1CC6A
  0
LINE
  5
1CC6B
330
10FE8
100
AcDbEntity
  8
图框
370
    -3
100
AcDbLine
 10
1058.312664335153
 20
507.6708838011533
 30
0.0
 11
1058.312664335153
 21
484.0347692601515
 31
0.0
1001
AcDbBlockRepETag
1070
     1
1071
       73
1005
1CC6B
  0
LINE
  5
1CC6C
330
10FE8
100
AcDbEntity
  8
图框
370
    25
100
AcDbLine
 10
1048.474135214456
 20
488.1095628329926
 30
0.0
 11
1054.946420288459
 21
488.1095628329926
 31
0.0
1001
AcDbBlockRepETag
1070
     1
1071
       74
1005
1CC6C
  0
LINE
  5
1CC6D
330
10FE8
100
AcDbEntity
  8
图框
370
    25
100
AcDbLine
 10
1054.232527365989
 20
487.0761716842634
 30
0.0
 11
1049.156490914508
 21
486.4576273751
 31
0.0
1001
AcDbBlockRepETag
1070
     1
1071
       75
1005
1CC6D
  0
LINE
  5
1CC6E
330
10FE8
100
AcDbEntity
  8
图框
370
    25
100
AcDbLine
 10
1054.232527365989
 20
489.1429539817209
 30
0.0
 11
1049.156490914508
 21
489.7614982908846
 31
0.0
1001
AcDbBlockRepETag
1070
     1
1071
       76
1005
1CC6E
  0
LINE
  5
1CC6F
330
10FE8
100
AcDbEntity
  8
图框
370
    25
100
AcDbLine
 10
1049.156490914508
 20
489.7614982908846
 30
0.0
 11
1049.156490914508
 21
486.4576273751
 31
0.0
1001
AcDbBlockRepETag
1070
     1
1071
       77
1005
1CC6F
  0
LINE
  5
1CC70
330
10FE8
100
AcDbEntity
  8
图框
370
    25
100
AcDbLine
 10
1054.232527365989
 20
489.1429539817209
 30
0.0
 11
1054.232527365989
 21
487.0761716842634
 31
0.0
1001
AcDbBlockRepETag
1070
     1
1071
       78
1005
1CC70
  0
CIRCLE
  5
1CC71
330
10FE8
100
AcDbEntity
  8
图框
370
    25
100
AcDbCircle
 10
1042.502700458579
 20
488.1095628329926
 30
0.0
 40
1.651935457891863
1001
AcDbBlockRepETag
1070
     1
1071
       79
1005
1CC71
  0
CIRCLE
  5
1CC72
330
10FE8
100
AcDbEntity
  8
图框
370
    25
100
AcDbCircle
 10
1042.502700458579
 20
488.1095628329926
 30
0.0
 40
1.033391148728775
1001
AcDbBlockRepETag
1070
     1
1071
       80
1005
1CC72
  0
LINE
  5
1CC73
330
10FE8
100
AcDbEntity
  8
图框
370
    25
100
AcDbLine
 10
1040.136872078216
 20
488.1095628329926
 30
0.0
 11
1044.868528838943
 21
488.1095628329926
 31
0.0
1001
AcDbBlockRepETag
1070
     1
1071
       81
1005
1CC73
  0
LINE
  5
1CC74
330
10FE8
100
AcDbEntity
  8
图框
370
    25
100
AcDbLine
 10
1042.502700458579
 20
490.475391213355
 30
0.0
 11
1042.502700458579
 21
485.743734452629
 31
0.0
1001
AcDbBlockRepETag
1070
     1
1071
       82
1005
1CC74
  0
LINE
  5
1CC75
330
10FE8
100
AcDbEntity
  8
图框
370
    -3
100
AcDbLine
 10
1069.142012769546
 20
507.6708838011533
 30
0.0
 11
1069.142012769546
 21
491.8986945987308
 31
0.0
1001
AcDbBlockRepETag
1070
     1
1071
       83
1005
1CC75
  0
MTEXT
  5
1CC76
330
10FE8
100
AcDbEntity
  8
图框
100
AcDbMText
 10
1086.643735910939
 20
526.8006839312707
 30
0.0
 40
2.154898249703542
 41
13.34474941400573
 46
9.056967347041775
 71
     5
 72
     5
  1
图号{\Ftxt|c134;\P\Fromans|c134;\W0.65;Drawing No.}
 73
     1
 44
1.0
1001
AcDbBlockRepETag
1070
     1
1071
       84
1005
1CC76
1001
ACAD
1000
ACAD_MTEXT_DEFINED_HEIGHT_BEGIN
1070
    46
1040
9.056967347041775
1000
ACAD_MTEXT_DEFINED_HEIGHT_END
  0
LINE
  5
1CC77
330
10FE8
100
AcDbEntity
  8
图框
370
    -3
100
AcDbLine
 10
1093.316110617942
 20
531.3291676047914
 30
0.0
 11
1093.316110617942
 21
495.8417418993347
 31
0.0
1001
AcDbBlockRepETag
1070
     1
1071
       85
1005
1CC77
  0
LINE
  5
1CC78
330
10FE8
100
AcDbEntity
  8
图框
370
    -3
100
AcDbLine
 10
1047.473969770481
 20
531.3291676047914
 30
0.0
 11
1047.473969770481
 21
507.6708838011533
 31
0.0
1001
AcDbBlockRepETag
1070
     1
1071
       86
1005
1CC78
  0
MTEXT
  5
1CC79
330
10FE8
100
AcDbEntity
  8
图框
100
AcDbMText
 10
1063.72733855235
 20
503.7278365005473
 30
0.0
 40
2.252848170144607
 41
10.82934843439208
 46
7.886094601212128
 71
     5
 72
     5
  1
重量\P{\Fromans|c134;Weight}
 73
     1
 44
1.0
1001
AcDbBlockRepETag
1070
     1
1071
       87
1005
1CC79
1001
ACAD
1000
ACAD_MTEXT_DEFINED_HEIGHT_BEGIN
1070
    46
1040
7.886094601212128
1000
ACAD_MTEXT_DEFINED_HEIGHT_END
  0
LINE
  5
1CC7A
330
10FE8
100
AcDbEntity
  8
图框
370
    -3
100
AcDbLine
 10
1036.653967466372
 20
519.5000257029746
 30
0.0
 11
1079.971361203936
 21
519.5000257029746
 31
0.0
1001
AcDbBlockRepETag
1070
     1
1071
       88
1005
1CC7A
  0
MTEXT
  5
1CC7B
330
10FE8
100
AcDbEntity
  8
图框
100
AcDbMText
 10
1074.556686986741
 20
503.7278365005473
 30
0.0
 40
2.252848170144607
 41
10.82934843438984
 46
7.886094601212141
 71
     5
 72
     5
  1
数量\P{\Fromans|c134;Qty.}
 73
     1
 44
1.0
1001
AcDbBlockRepETag
1070
     1
1071
       89
1005
1CC7B
1001
ACAD
1000
ACAD_MTEXT_DEFINED_HEIGHT_BEGIN
1070
    46
1040
7.886094601212141
1000
ACAD_MTEXT_DEFINED_HEIGHT_END
  0
LINE
  5
1CC7C
330
10FE8
100
AcDbEntity
  8
图框
370
    -3
100
AcDbLine
 10
1079.971361203936
 20
495.8417418993347
 30
0.0
 11
1126.928502610363
 21
495.8417418993342
 31
0.0
1001
AcDbBlockRepETag
1070
     1
1071
       90
1005
1CC7C
  0
LINE
  5
1CC7D
330
10FE8
100
AcDbEntity
  8
图框
370
    -3
100
AcDbLine
 10
1079.971361203936
 20
504.7132992040975
 30
0.0
 11
1126.928502610363
 21
504.7132992040975
 31
0.0
1001
AcDbBlockRepETag
1070
     1
1071
       91
1005
1CC7D
  0
MTEXT
  5
1CC7E
330
10FE8
100
AcDbEntity
  8
图框
100
AcDbMText
 10
1052.893317052817
 20
503.7278365005473
 30
0.0
 40
2.252848170144607
 41
10.83869456467139
 46
7.886094601212101
 71
     5
 72
     5
  1
版本\P{\Fromans|c134;REV.}
 73
     1
 44
1.0
1001
AcDbBlockRepETag
1070
     1
1071
       92
1005
1CC7E
1001
ACAD
1000
ACAD_MTEXT_DEFINED_HEIGHT_BEGIN
1070
    46
1040
7.886094601212101
1000
ACAD_MTEXT_DEFINED_HEIGHT_END
  0
MTEXT
  5
1CC7F
330
10FE8
100
AcDbEntity
  8
图框
100
AcDbMText
 10
1042.068641683568
 20
503.7278365005473
 30
0.0
 40
2.252848170144607
 41
10.8293484343908
 46
7.886094601212136
 71
     5
 72
     5
  1
比例\P{\Fromans|c134;Scale}
 73
     1
 44
1.0
1001
AcDbBlockRepETag
1070
     1
1071
       93
1005
1CC7F
1001
ACAD
1000
ACAD_MTEXT_DEFINED_HEIGHT_BEGIN
1070
    46
1040
7.886094601212136
1000
ACAD_MTEXT_DEFINED_HEIGHT_END
  0
LINE
  5
1CC80
330
10FE8
100
AcDbEntity
  8
图框
370
    -3
100
AcDbLine
 10
1036.653967466372
 20
507.6708838011533
 30
0.0
 11
1079.971361203936
 21
507.6708838011533
 31
0.0
1001
AcDbBlockRepETag
1070
     1
1071
       94
1005
1CC80
  0
LINE
  5
1CC81
330
10FE8
100
AcDbEntity
  8
图框
370
    -3
100
AcDbLine
 10
1036.653967466372
 20
491.8986945987308
 30
0.0
 11
1079.971361203936
 21
491.8986945987308
 31
0.0
1001
AcDbBlockRepETag
1070
     1
1071
       95
1005
1CC81
  0
LINE
  5
1CC82
330
10FE8
100
AcDbEntity
  8
图框
370
    -3
100
AcDbLine
 10
1079.971361203936
 20
531.3291676047914
 30
0.0
 11
1079.971361203936
 21
484.0125999975168
 31
0.0
1001
AcDbBlockRepETag
1070
     1
1071
       96
1005
1CC82
  0
MTEXT
  5
1CC83
330
10FE8
100
AcDbEntity
  8
图框
100
AcDbMText
 10
1042.063968618426
 20
525.4145966538832
 30
0.0
 40
2.252848170144607
 41
10.82000230410933
 46
11.82914190181708
 71
     5
 72
     5
  1
表面处理\P{\Fromans|c134;Finish}
 73
     1
 44
1.0
1001
AcDbBlockRepETag
1070
     1
1071
       97
1005
1CC83
1001
ACAD
1000
ACAD_MTEXT_DEFINED_HEIGHT_BEGIN
1070
    46
1040
11.82914190181708
1000
ACAD_MTEXT_DEFINED_HEIGHT_END
  0
MTEXT
  5
1CC84
330
10FE8
100
AcDbEntity
  8
图框
100
AcDbMText
 10
1042.063968618426
 20
513.5854547520639
 30
0.0
 40
2.252848170144607
 41
10.82000230410933
 46
11.8291419018212
 71
     5
 72
     5
  1
材料\P{\Fromans|c134;Material}
 73
     1
 44
1.0
1001
AcDbBlockRepETag
1070
     1
1071
       98
1005
1CC84
1001
ACAD
1000
ACAD_MTEXT_DEFINED_HEIGHT_BEGIN
1070
    46
1040
11.8291419018212
1000
ACAD_MTEXT_DEFINED_HEIGHT_END
  0
LINE
  5
1CC85
330
10FE8
100
AcDbEntity
  8
图框
370
    -3
100
AcDbLine
 10
1079.971361203936
 20
522.27220025775
 30
0.0
 11
1126.928502610363
 21
522.27220025775
 31
0.0
1001
AcDbBlockRepETag
1070
     1
1071
       99
1005
1CC85
  0
LINE
  5
1CC86
330
10FE8
100
AcDbEntity
  8
图框
370
    -3
100
AcDbLine
 10
1079.971361203936
 20
513.5854547520641
 30
0.0
 11
1126.928502610363
 21
513.5854547520639
 31
0.0
1001
AcDbBlockRepETag
1070
     1
1071
      100
1005
1CC86
  0
MTEXT
  5
1CC87
330
10FE8
100
AcDbEntity
  8
图框
100
AcDbMText
 10
1086.643735910939
 20
517.9288275049072
 30
0.0
 40
1.958998408821398
 41
13.34474941400573
 46
8.686745505685811
 71
     5
 72
     5
  1
产品代号\P{\Fromans|c134;Part Code}
 73
     1
 44
1.0
1001
AcDbBlockRepETag
1070
     1
1071
      101
1005
1CC87
1001
ACAD
1000
ACAD_MTEXT_DEFINED_HEIGHT_BEGIN
1070
    46
1040
8.686745505685811
1000
ACAD_MTEXT_DEFINED_HEIGHT_END
  0
LINE
  5
1CC88
330
10FE8
100
AcDbEntity
  8
图框
370
    -3
100
AcDbLine
 10
946.9285026103634
 20
525.7982263931411
 30
0.0
 11
1036.653967466372
 21
525.7982263931411
 31
0.0
1001
AcDbBlockRepETag
1070
     1
1071
      102
1005
1CC88
  0
LINE
  5
1CC89
330
10FE8
100
AcDbEntity
  8
图框
370
    -3
100
AcDbLine
 10
946.9285026103634
 20
520.2672851814959
 30
0.0
 11
1036.653967466372
 21
520.2672851814959
 31
0.0
1001
AcDbBlockRepETag
1070
     1
1071
      103
1005
1CC89
  0
LINE
  5
1CC8A
330
10FE8
100
AcDbEntity
  8
图框
370
    35
100
AcDbLine
 10
946.9285026103634
 20
531.3291676047914
 30
0.0
 11
1126.928502610363
 21
531.3291676047914
 31
0.0
1001
AcDbBlockRepETag
1070
     1
1071
      104
1005
1CC8A
  0
LINE
  5
1CC8B
330
10FE8
100
AcDbEntity
  8
图框
370
    -3
100
AcDbLine
 10
990.6727612856927
 20
509.2054027581959
 30
0.0
 11
990.6727612856927
 21
484.0347692601515
 31
0.0
1001
AcDbBlockRepETag
1070
     1
1071
      105
1005
1CC8B
  0
MTEXT
  5
1CC8C
102
{ACAD_XDICTIONARY
360
1CD16
102
}
330
10FE8
100
AcDbEntity
  8
图框
100
AcDbMText
 10
997.1628169651232
 20
499.816589978722
 30
0.0
 40
2.252848170144607
 41
12.98011135886052
 46
6.19230880992475
 71
     5
 72
     5
  1
{\fSimSun|b0|i0|c134|p2;标准化}\PStand.
  7
Romans字体
 73
     1
 44
1.0
1001
AcDbBlockRepETag
1070
     1
1071
      106
1005
1CC8C
1001
ACAD
1000
ACAD_MTEXT_DEFINED_HEIGHT_BEGIN
1070
    46
1040
6.19230880992475
1000
ACAD_MTEXT_DEFINED_HEIGHT_END
  0
LINE
  5
1CC8D
330
10FE8
100
AcDbEntity
  8
图框
370
    -3
100
AcDbLine
 10
975.4103773808022
 20
509.2054027581959
 30
0.0
 11
975.4103773808022
 21
484.0347692601515
 31
0.0
1001
AcDbBlockRepETag
1070
     1
1071
      107
1005
1CC8D
  0
MTEXT
  5
1CC8E
330
10FE8
100
AcDbEntity
  8
图框
100
AcDbMText
 10
984.5089229802068
 20
511.9708733640202
 30
0.0
 40
2.448748011026752
 41
38.287899328693
 46
5.530941211648832
 71
     5
 72
     5
  1
  变更描述{\Fromans|c134;/Description}
 73
     1
 44
1.0
1001
AcDbBlockRepETag
1070
     1
1071
      108
1005
1CC8E
1001
ACAD
1000
ACAD_MTEXT_DEFINED_HEIGHT_BEGIN
1070
    46
1040
5.530941211648832
1000
ACAD_MTEXT_DEFINED_HEIGHT_END
  0
MTEXT
  5
1CC8F
102
{ACAD_XDICTIONARY
360
1CD18
102
}
330
10FE8
100
AcDbEntity
  8
图框
100
AcDbMText
 10
1012.477254728976
 20
511.9708733640202
 30
0.0
 40
1.958998408821398
 41
17.64876416884548
 46
5.530941211648825
 71
     5
 72
     5
  1
签名\P{\Fromans|c134;Signature} 
 73
     1
 44
1.0
1001
AcDbBlockRepETag
1070
     1
1071
      109
1005
1CC8F
1001
ACAD
1000
ACAD_MTEXT_DEFINED_HEIGHT_BEGIN
1070
    46
1040
5.530941211648825
1000
ACAD_MTEXT_DEFINED_HEIGHT_END
  0
MTEXT
  5
1CC90
102
{ACAD_XDICTIONARY
360
1CD1A
102
}
330
10FE8
100
AcDbEntity
  8
图框
100
AcDbMText
 10
960.7558556394856
 20
511.9708733640202
 30
0.0
 40
1.958998408821398
 41
9.218235352749283
 46
5.530941211648841
 71
     5
 72
     5
  1
处数\P{\Fromans|c134;Number }
 73
     1
 44
1.0
1001
AcDbBlockRepETag
1070
     1
1071
      110
1005
1CC90
1001
ACAD
1000
ACAD_MTEXT_DEFINED_HEIGHT_BEGIN
1070
    46
1040
5.530941211648841
1000
ACAD_MTEXT_DEFINED_HEIGHT_END
  0
LINE
  5
1CC91
330
10FE8
100
AcDbEntity
  8
图框
370
    -3
100
AcDbLine
 10
946.9285026103634
 20
514.7363439698449
 30
0.0
 11
1036.653967466372
 21
514.7363439698449
 31
0.0
1001
AcDbBlockRepETag
1070
     1
1071
      111
1005
1CC91
  0
LINE
  5
1CC92
330
10FE8
100
AcDbEntity
  8
图框
370
    -3
100
AcDbLine
 10
946.9285026103634
 20
509.2054027581959
 30
0.0
 11
1036.653967466372
 21
509.2054027581959
 31
0.0
1001
AcDbBlockRepETag
1070
     1
1071
      112
1005
1CC92
  0
LINE
  5
1CC93
330
10FE8
100
AcDbEntity
  8
图框
370
    -3
100
AcDbLine
 10
946.9285026103634
 20
502.9127443836848
 30
0.0
 11
1036.653967466372
 21
502.9127443836848
 31
0.0
1001
AcDbBlockRepETag
1070
     1
1071
      113
1005
1CC93
  0
LINE
  5
1CC94
330
10FE8
100
AcDbEntity
  8
图框
370
    -3
100
AcDbLine
 10
946.9285026103634
 20
496.620086009173
 30
0.0
 11
1036.653967466372
 21
496.620086009173
 31
0.0
1001
AcDbBlockRepETag
1070
     1
1071
      114
1005
1CC94
  0
LINE
  5
1CC95
330
10FE8
100
AcDbEntity
  8
图框
370
    35
380
     1
100
AcDbLine
 10
946.9285026103634
 20
531.3291676047914
 30
0.0
 11
946.9285026103634
 21
484.0347692601515
 31
0.0
1001
AcDbBlockRepETag
1070
     1
1071
      115
1005
1CC95
  0
LINE
  5
1CC96
330
10FE8
100
AcDbEntity
  8
图框
370
    -3
100
AcDbLine
 10
1021.301636813399
 20
531.3291676047914
 30
0.0
 11
1021.301636813399
 21
484.0347692601515
 31
0.0
1001
AcDbBlockRepETag
1070
     1
1071
      116
1005
1CC96
  0
LINE
  5
1CC97
330
10FE8
100
AcDbEntity
  8
图框
370
    -3
100
AcDbLine
 10
1003.652872644553
 20
531.3291676047914
 30
0.0
 11
1003.652872644553
 21
484.0347692601515
 31
0.0
1001
AcDbBlockRepETag
1070
     1
1071
      117
1005
1CC97
  0
LINE
  5
1CC98
330
10FE8
100
AcDbEntity
  8
图框
370
    -3
100
AcDbLine
 10
965.3649733158603
 20
531.3291676047914
 30
0.0
 11
965.3649733158603
 21
509.2054027581959
 31
0.0
1001
AcDbBlockRepETag
1070
     1
1071
      118
1005
1CC98
  0
LINE
  5
1CC99
330
10FE8
100
AcDbEntity
  8
图框
370
    -3
100
AcDbLine
 10
956.1467379631109
 20
531.3291676047914
 30
0.0
 11
956.1467379631109
 21
509.2054027581959
 31
0.0
1001
AcDbBlockRepETag
1070
     1
1071
      119
1005
1CC99
  0
MTEXT
  5
1CC9A
102
{ACAD_XDICTIONARY
360
1CD1C
102
}
330
10FE8
100
AcDbEntity
  8
图框
100
AcDbMText
 10
951.537620286737
 20
511.9708733640202
 30
0.0
 40
1.958998408821398
 41
9.218235352747692
 46
5.530941211648832
 71
     5
 72
     5
  1
标记\P{\Fromans|c134;Mark}
 73
     1
 44
1.0
1001
AcDbBlockRepETag
1070
     1
1071
      120
1005
1CC9A
1001
ACAD
1000
ACAD_MTEXT_DEFINED_HEIGHT_BEGIN
1070
    46
1040
5.530941211648832
1000
ACAD_MTEXT_DEFINED_HEIGHT_END
  0
MTEXT
  5
1CC9B
102
{ACAD_XDICTIONARY
360
1CD1E
102
}
330
10FE8
100
AcDbEntity
  8
图框
100
AcDbMText
 10
953.4185582897936
 20
493.4737568219182
 30
0.0
 40
2.252848170144607
 41
12.98011135886041
 46
6.292658374510382
 71
     5
 72
     5
  1
审核\P{\Fromans|c134;Checked}
 73
     1
 44
1.0
1001
AcDbBlockRepETag
1070
     1
1071
      121
1005
1CC9B
1001
ACAD
1000
ACAD_MTEXT_DEFINED_HEIGHT_BEGIN
1070
    46
1040
6.292658374510382
1000
ACAD_MTEXT_DEFINED_HEIGHT_END
  0
MTEXT
  5
1CC9C
102
{ACAD_XDICTIONARY
360
1CD20
102
}
330
10FE8
100
AcDbEntity
  8
图框
100
AcDbMText
 10
953.4185582897936
 20
499.8775635376777
 30
0.0
 40
2.252848170144607
 41
12.98011135886041
 46
6.070361692014189
 71
     5
 72
     5
  1
绘图\P{\Fromans|c134;Drawn\Ftxt|c134; }
 73
     1
 44
1.0
1001
AcDbBlockRepETag
1070
     1
1071
      122
1005
1CC9C
1001
ACAD
1000
ACAD_MTEXT_DEFINED_HEIGHT_BEGIN
1070
    46
1040
6.070361692014189
1000
ACAD_MTEXT_DEFINED_HEIGHT_END
  0
ARC
  5
1CC9D
330
10FE8
100
AcDbEntity
  8
图框
 62
     4
370
    35
100
AcDbCircle
 10
1086.900627017421
 20
490.0179944151195
 30
0.0
 40
4.063310408393665
100
AcDbArc
 50
18.95237904564806
 51
161.0476209543519
1001
AcDbBlockRepETag
1070
     1
1071
      123
1005
1CC9D
  0
ARC
  5
1CC9E
330
10FE8
100
AcDbEntity
  8
图框
 62
     4
370
    35
100
AcDbCircle
 10
1086.900627017421
 20
490.0179944151195
 30
0.0
 40
4.063310408393665
100
AcDbArc
 50
198.952379045648
 51
341.0476209543519
1001
AcDbBlockRepETag
1070
     1
1071
      124
1005
1CC9E
  0
LINE
  5
1CC9F
330
10FE8
100
AcDbEntity
  8
图框
 62
     4
370
    35
100
AcDbLine
 10
1083.057593369548
 20
488.6983035966752
 30
0.0
 11
1090.74366066529
 21
488.6983035966752
 31
0.0
1001
AcDbBlockRepETag
1070
     1
1071
      125
1005
1CC9F
  0
LINE
  5
1CCA0
330
10FE8
100
AcDbEntity
  8
图框
 62
     4
370
    35
100
AcDbLine
 10
1083.057593369548
 20
491.3376852335652
 30
0.0
 11
1090.74366066529
 21
491.3376852335652
 31
0.0
1001
AcDbBlockRepETag
1070
     1
1071
      126
1005
1CCA0
  0
MTEXT
  5
1CCA1
330
10FE8
100
AcDbEntity
  8
图框
 62
     1
370
    20
100
AcDbMText
 10
1083.034582879669
 20
491.0506288081688
 30
0.0
 40
2.005930044038334
 41
5.047240019334847
 46
0.0
 71
     1
 72
     5
  1
{\fArial|b0|i0|c0|p34;W}
  7
Chinese
 73
     1
 44
1.0
1001
AcDbBlockRepETag
1070
     1
1071
      127
1005
1CCA1
  0
LINE
  5
1CCA2
330
10FE8
100
AcDbEntity
  8
图框
370
    -3
100
AcDbLine
 10
946.9285026103634
 20
490.327427634663
 30
0.0
 11
1036.653967466372
 21
490.327427634663
 31
0.0
1001
AcDbBlockRepETag
1070
     1
1071
      128
1005
1CCA2
  0
LINE
  5
1CCA3
330
10FE8
100
AcDbEntity
  8
图框
370
    -3
100
AcDbLine
 10
959.9086139692238
 20
509.2054027581959
 30
0.0
 11
959.9086139692238
 21
484.0347692601515
 31
0.0
1001
AcDbBlockRepETag
1070
     1
1071
      129
1005
1CCA3
  0
MTEXT
  5
1CCA4
330
10FE8
100
AcDbEntity
  8
图框
100
AcDbMText
 10
967.6594956750129
 20
506.0590735709403
 30
0.0
 40
2.252848170144607
 41
15.50176341157869
 46
6.292658374511246
 71
     5
 72
     5
  1
姓名{\Fromans|c134;/Name\Ftxt|c134; }
 73
     1
 44
1.0
1001
AcDbBlockRepETag
1070
     1
1071
      130
1005
1CCA4
1001
ACAD
1000
ACAD_MTEXT_DEFINED_HEIGHT_BEGIN
1070
    46
1040
6.292658374511246
1000
ACAD_MTEXT_DEFINED_HEIGHT_END
  0
MTEXT
  5
1CCA5
330
10FE8
100
AcDbEntity
  8
图框
100
AcDbMText
 10
983.0415693332477
 20
506.0590735709403
 30
0.0
 40
2.252848170144607
 41
15.26238390489042
 46
6.2926583745112
 71
     5
 72
     5
  1
日期{\Fromans|c134;/Date}
 73
     1
 44
1.0
1001
AcDbBlockRepETag
1070
     1
1071
      131
1005
1CCA5
1001
ACAD
1000
ACAD_MTEXT_DEFINED_HEIGHT_BEGIN
1070
    46
1040
6.2926583745112
1000
ACAD_MTEXT_DEFINED_HEIGHT_END
  0
LINE
  5
1CCA6
330
10FE8
100
AcDbEntity
  8
图框
370
    -3
100
AcDbLine
 10
946.9285026103634
 20
509.2054027581959
 30
0.0
 11
959.9086139692238
 21
502.9127443836848
 31
0.0
1001
AcDbBlockRepETag
1070
     1
1071
      132
1005
1CCA6
  0
MTEXT
  5
1CCA7
330
10FE8
100
AcDbEntity
  8
图框
100
AcDbMText
 10
1012.931405110086
 20
506.0185715840725
 30
0.0
 40
2.252848170144607
 41
16.93492221063566
 46
0.0
 71
     5
 72
     5
  1
姓名{\Fromans|c134;/Name}
 73
     1
 44
1.0
1001
AcDbBlockRepETag
1070
     1
1071
      133
1005
1CCA7
  0
MTEXT
  5
1CCA8
330
10FE8
100
AcDbEntity
  8
图框
100
AcDbMText
 10
1028.977802139886
 20
506.0590735709403
 30
0.0
 40
2.252848170144607
 41
15.35233065297283
 46
6.292658374511256
 71
     5
 72
     5
  1
日期{\Fromans|c134;/Date}
 73
     1
 44
1.0
1001
AcDbBlockRepETag
1070
     1
1071
      134
1005
1CCA8
1001
ACAD
1000
ACAD_MTEXT_DEFINED_HEIGHT_BEGIN
1070
    46
1040
6.292658374511256
1000
ACAD_MTEXT_DEFINED_HEIGHT_END
  0
LINE
  5
1CCA9
330
10FE8
100
AcDbEntity
  8
图框
370
    -3
100
AcDbLine
 10
1003.652872644553
 20
502.9127443836848
 30
0.0
 11
990.6727612856927
 21
509.2054027581959
 31
0.0
1001
AcDbBlockRepETag
1070
     1
1071
      135
1005
1CCA9
  0
MTEXT
  5
1CCAA
102
{ACAD_XDICTIONARY
360
1CD22
102
}
330
10FE8
100
AcDbEntity
  8
图框
100
AcDbMText
 10
997.1628169651232
 20
487.1810984474071
 30
0.0
 40
2.252848170144607
 41
12.98011135886052
 46
6.292658374511517
 71
     5
 72
     5
  1
批准\P{\Fromans|c134;Approved}
 73
     1
 44
1.0
1001
AcDbBlockRepETag
1070
     1
1071
      136
1005
1CCAA
1001
ACAD
1000
ACAD_MTEXT_DEFINED_HEIGHT_BEGIN
1070
    46
1040
6.292658374511517
1000
ACAD_MTEXT_DEFINED_HEIGHT_END
  0
MTEXT
  5
1CCAB
102
{ACAD_XDICTIONARY
360
1CD24
102
}
330
10FE8
100
AcDbEntity
  8
图框
100
AcDbMText
 10
953.4185582897936
 20
487.1810984474071
 30
0.0
 40
2.252848170144607
 41
12.98011135886041
 46
6.292658374511495
 71
     5
 72
     5
  1
工艺\P{\Fromans|c134;Process}
 73
     1
 44
1.0
1001
AcDbBlockRepETag
1070
     1
1071
      137
1005
1CCAB
1001
ACAD
1000
ACAD_MTEXT_DEFINED_HEIGHT_BEGIN
1070
    46
1040
6.292658374511495
1000
ACAD_MTEXT_DEFINED_HEIGHT_END
  0
MTEXT
  5
1CCAC
102
{ACAD_XDICTIONARY
360
1CD26
102
}
330
10FE8
100
AcDbEntity
  8
图框
100
AcDbMText
 10
1028.977802139886
 20
511.9708733640202
 30
0.0
 40
1.958998408821398
 41
15.3523306529728
 46
5.530941211648912
 71
     5
 72
     5
  1
日期\P{\Fromans|c134;Date}
 73
     1
 44
1.0
1001
AcDbBlockRepETag
1070
     1
1071
      138
1005
1CCAC
1001
ACAD
1000
ACAD_MTEXT_DEFINED_HEIGHT_BEGIN
1070
    46
1040
5.530941211648912
1000
ACAD_MTEXT_DEFINED_HEIGHT_END
  0
MTEXT
  5
1CCAD
330
10FE8
100
AcDbEntity
  8
图框
100
AcDbMText
 10
1086.643735910939
 20
509.1493769780809
 30
0.0
 40
2.154898249703542
 41
13.34474941400573
 46
8.87215554796615
 71
     5
 72
     5
  1
产品料号\P{\Fromans|c134;Part No.}
 73
     1
 44
1.0
1001
AcDbBlockRepETag
1070
     1
1071
      139
1005
1CCAD
1001
ACAD
1000
ACAD_MTEXT_DEFINED_HEIGHT_BEGIN
1070
    46
1040
8.87215554796615
1000
ACAD_MTEXT_DEFINED_HEIGHT_END
  0
MTEXT
  5
1CCAE
330
10FE8
100
AcDbEntity
  8
图框
100
AcDbMText
 10
1086.643735910939
 20
500.2775205517163
 30
0.0
 40
1.958998408821398
 41
13.34474941400573
 46
8.871557304763321
 71
     5
 72
     5
  1
产品名称\P{\Fromans|c134;Part Name}
 73
     1
 44
1.0
1001
AcDbBlockRepETag
1070
     1
1071
      140
1005
1CCAE
1001
ACAD
1000
ACAD_MTEXT_DEFINED_HEIGHT_BEGIN
1070
    46
1040
8.871557304763321
1000
ACAD_MTEXT_DEFINED_HEIGHT_END
  0
LINE
  5
1CCAF
330
10FE8
100
AcDbEntity
  8
图框
 62
     1
370
    18
100
AcDbLine
 10
833.4128518455365
 20
690.5347692601515
 30
0.0
 11
833.4128518455365
 21
480.5347692601515
 31
0.0
1001
AcDbBlockRepETag
1070
     1
1071
      141
1005
1CCAF
  0
LINE
  5
1CCB0
330
10FE8
100
AcDbEntity
  8
图框
 62
     1
370
    18
100
AcDbLine
 10
833.4128518455365
 20
480.5347692601515
 30
0.0
 11
1130.411601781236
 21
480.5347692601515
 31
0.0
1001
AcDbBlockRepETag
1070
     1
1071
      142
1005
1CCB0
  0
LINE
  5
1CCB1
330
10FE8
100
AcDbEntity
  8
图框
 62
     1
370
    18
100
AcDbLine
 10
833.4128518455365
 20
690.5347692601515
 30
0.0
 11
1130.411601781236
 21
690.5347692601515
 31
0.0
1001
AcDbBlockRepETag
1070
     1
1071
      143
1005
1CCB1
  0
LINE
  5
1CCB2
330
10FE8
100
AcDbEntity
  8
图框
 62
     1
370
    18
100
AcDbLine
 10
1130.411601781236
 20
480.5347692601515
 30
0.0
 11
1130.411601781236
 21
690.5347692601515
 31
0.0
1001
AcDbBlockRepETag
1070
     1
1071
      144
1005
1CCB2
  0
LINE
  5
1CCB3
330
10FE8
100
AcDbEntity
  8
图框
370
    18
100
AcDbLine
 10
836.9128518455394
 20
686.7901958362482
 30
0.0
 11
861.5351874539182
 21
686.7901958362482
 31
0.0
1001
AcDbBlockRepETag
1070
     1
1071
      145
1005
1CCB3
  0
LINE
  5
1CCB4
330
10FE8
100
AcDbEntity
  8
图框
370
    50
100
AcDbLine
 10
1126.928502610363
 20
484.3410054693078
 30
0.0
 11
1126.928502610363
 21
675.5347692601515
 31
0.0
1001
AcDbBlockRepETag
1070
     1
1071
      146
1005
1CCB4
  0
MTEXT
  5
1CCB5
330
10FE8
100
AcDbEntity
  8
图框
 62
     3
100
AcDbMText
 10
1052.897990117958
 20
495.8417418993364
 30
0.0
 40
2.985513575034151
 41
10.82934843439114
 46
7.886094601211307
 71
     5
 72
     5
  1
V1.1
  7
Romans字体
 73
     1
 44
1.0
1001
AcDbBlockRepETag
1070
     1
1071
      147
1005
1CCB5
1001
ACAD
1000
ACAD_MTEXT_DEFINED_HEIGHT_BEGIN
1070
    46
1040
7.886094601211307
1000
ACAD_MTEXT_DEFINED_HEIGHT_END
  0
LINE
  5
1CCB6
330
10FE8
100
AcDbEntity
  8
图框
 62
     6
100
AcDbLine
 10
1126.911601781236
 20
531.714049199969
 30
0.0
 11
1130.411601781236
 21
531.714049199969
 31
0.0
1001
AcDbBlockRepETag
1070
     1
1071
      148
1005
1CCB6
  0
ENDBLK
  5
1107F
330
10FE8
100
AcDbEntity
  8
0
100
AcDbBlockEnd
  0
BLOCK
  5
1849F
330
1849E
100
AcDbEntity
  8
CHSM650-240_DXF_CONTINUOUS_LINE
  6
Continuous
 62
     2
100
AcDbBlockBegin
  2
SF0_BL1
 70
     0
 10
68.31934377979999
 20
165.1734619998
 30
0.0
  3
SF0_BL1
  1

  0
TEXT
  5
184A0
330
1849E
100
AcDbEntity
  8
CHSM650-240_DXF_CONTINUOUS_LINE
  6
Continuous
 62
     2
100
AcDbText
 10
69.2646437798
 20
168.9979981919
 30
0.0
 40
2.5
  1
0.8
 50
270.0
100
AcDbText
  0
LINE
  5
184A1
330
1849E
100
AcDbEntity
  8
CHSM650-240_DXF_CONTINUOUS_LINE
  6
Continuous
 62
     2
100
AcDbLine
 10
68.3127437798
 20
167.826795828
 30
0.0
 11
68.3127437798
 21
163.5132964968
 31
0.0
  0
LINE
  5
184A2
330
1849E
100
AcDbEntity
  8
CHSM650-240_DXF_CONTINUOUS_LINE
  6
Continuous
 62
     2
100
AcDbLine
 10
68.3127437798
 20
167.826795828
 30
0.0
 11
64.5771437798
 21
165.6700461624
 31
0.0
  0
LINE
  5
184A3
330
1849E
100
AcDbEntity
  8
CHSM650-240_DXF_CONTINUOUS_LINE
  6
Continuous
 62
     2
100
AcDbLine
 10
64.5771437798
 20
165.6700461624
 30
0.0
 11
68.3127437798
 21
163.5132964968
 31
0.0
  0
LINE
  5
184A4
330
1849E
100
AcDbEntity
  8
CHSM650-240_DXF_CONTINUOUS_LINE
  6
Continuous
 62
     2
100
AcDbLine
 10
68.3127437798
 20
163.5132964968
 30
0.0
 11
72.06154377979999
 21
161.3489258077
 31
0.0
  0
ENDBLK
  5
184A5
330
1849E
100
AcDbEntity
  8
0
  6
ByBlock
 62
     0
100
AcDbBlockEnd
  0
BLOCK
  5
184A9
330
184A6
100
AcDbEntity
  8
0
 62
     2
370
     0
100
AcDbBlockBegin
  2
A$C072E188C
 70
     0
 10
0.0
 20
0.0
 30
0.0
  3
A$C072E188C
  1

  0
MTEXT
  5
184AA
330
184A6
100
AcDbEntity
  8
DIM
 62
     2
370
     0
100
AcDbMText
 10
-0.4117831297207887
 20
2.823589715820616
 30
0.0
 40
2.5
 41
2.5
 46
0.0
 71
     1
 72
     5
  1
1
 73
     1
 44
1.0
  0
LINE
  5
184AB
330
184A6
100
AcDbEntity
  8
DIM
 62
     2
370
     0
100
AcDbLine
 10
-2.404076915157925
 20
0.0
 30
0.0
 11
2.404076915157925
 21
0.0
 31
0.0
  0
LINE
  5
184AC
330
184A6
100
AcDbEntity
  8
DIM
 62
     2
370
     0
100
AcDbLine
 10
2.404076915157925
 20
0.0
 30
0.0
 11
0.0
 21
4.208578035514618
 31
0.0
  0
LINE
  5
184AD
330
184A6
100
AcDbEntity
  8
DIM
 62
     2
370
     0
100
AcDbLine
 10
-2.404076915157925
 20
0.0
 30
0.0
 11
0.0
 21
4.208578035514618
 31
0.0
  0
ENDBLK
  5
184AE
330
184A6
100
AcDbEntity
  8
0
 62
     2
370
     0
100
AcDbBlockEnd
  0
BLOCK
  5
19748
330
19746
100
AcDbEntity
  8
0
100
AcDbBlockBegin
  2
A4
 70
     0
 10
0.0
 20
0.0
 30
0.0
  3
A4
  1

  0
LWPOLYLINE
  5
19749
330
19746
100
AcDbEntity
  8
图框
 62
     1
370
    18
100
AcDbPolyline
 90
        4
 70
     1
 43
0.0
 10
-303.2148965494912
 20
209.0016965501909
 10
-303.2148965494912
 20
0.0
 10
0.0
 20
0.0
 10
0.0
 20
209.0016965501909
1001
AcDbBlockRepETag
1070
     1
1071
        0
1005
19749
  0
MTEXT
  5
1974A
330
19746
100
AcDbEntity
  8
图框
  6
ByBlock
 62
     0
370
    18
100
AcDbMText
 10
-3.070193773118261
 20
28.84625550303008
 30
0.0
 40
2.707277505427174
 41
2.611450694813113
 46
0.0
 71
     1
 72
     5
  1
A
 11
0.0000000000000001
 21
1.0
 31
0.0
 73
     1
 44
1.0
1001
AcDbBlockRepETag
1070
     1
1071
        1
1005
1974A
  0
MTEXT
  5
1974B
330
19746
100
AcDbEntity
  8
图框
  6
ByBlock
 62
     0
370
    18
100
AcDbMText
 10
-3.070193773118261
 20
77.42720741541052
 30
0.0
 40
2.707277505427174
 41
2.611450694813113
 46
0.0
 71
     1
 72
     5
  1
B
 11
0.0000000000000001
 21
1.0
 31
0.0
 73
     1
 44
1.0
1001
AcDbBlockRepETag
1070
     1
1071
        2
1005
1974B
  0
MTEXT
  5
1974C
330
19746
100
AcDbEntity
  8
图框
  6
ByBlock
 62
     0
370
    18
100
AcDbMText
 10
-3.070193773118261
 20
129.6776632701471
 30
0.0
 40
2.707277505427174
 41
2.611450694813113
 46
0.0
 71
     1
 72
     5
  1
C
 11
0.0000000000000001
 21
1.0
 31
0.0
 73
     1
 44
1.0
1001
AcDbBlockRepETag
1070
     1
1071
        3
1005
1974C
  0
MTEXT
  5
1974D
330
19746
100
AcDbEntity
  8
图框
  6
ByBlock
 62
     0
370
    18
100
AcDbMText
 10
-3.070193773118261
 20
181.9281191248847
 30
0.0
 40
2.707277505427174
 41
2.611450694813113
 46
0.0
 71
     1
 72
     5
  1
D
 11
0.0000000000000001
 21
1.0
 31
0.0
 73
     1
 44
1.0
1001
AcDbBlockRepETag
1070
     1
1071
        4
1005
1974D
  0
LINE
  5
1974E
330
19746
100
AcDbEntity
  8
图框
  6
ByBlock
 62
     0
370
    18
100
AcDbLine
 10
0.0000000000045475
 20
52.25045585474345
 30
0.0
 11
-3.248733006515976
 21
52.25045585474345
 31
0.0
1001
AcDbBlockRepETag
1070
     1
1071
        5
1005
1974E
  0
LINE
  5
1974F
330
19746
100
AcDbEntity
  8
图框
  6
ByBlock
 62
     0
370
    18
100
AcDbLine
 10
0.0000000000045475
 20
156.751367564234
 30
0.0
 11
-3.248733006515976
 21
156.751367564234
 31
0.0
1001
AcDbBlockRepETag
1070
     1
1071
        6
1005
1974F
  0
LINE
  5
19750
330
19746
100
AcDbEntity
  8
图框
  6
ByBlock
 62
     0
370
    18
100
AcDbLine
 10
0.0000000000045475
 20
104.50091170949
 30
0.0
 11
-3.248733006515976
 21
104.50091170949
 31
0.0
1001
AcDbBlockRepETag
1070
     1
1071
        7
1005
19750
  0
LINE
  5
19751
330
19746
100
AcDbEntity
  8
图框
370
    50
100
AcDbLine
 10
-3.248733006515976
 20
198.3129987556103
 30
0.0
 11
-3.248733006515976
 21
3.248733006515066
 31
0.0
1001
AcDbBlockRepETag
1070
     1
1071
        8
1005
19751
  0
MTEXT
  5
19752
330
19746
100
AcDbEntity
  8
图框
  6
ByBlock
 62
     0
370
    18
100
AcDbMText
 10
-25.60685871913211
 20
3.05375999971693
 30
0.0
 40
2.707277505427174
 41
2.611450694813113
 46
0.0
 71
     1
 72
     5
  1
6
 73
     1
 44
1.0
1001
AcDbBlockRepETag
1070
     1
1071
        9
1005
19752
  0
LINE
  5
19753
330
19746
100
AcDbEntity
  8
图框
370
    18
100
AcDbLine
 10
-50.35536160095853
 20
3.248733006515066
 30
0.0
 11
-50.35536160095853
 21
-0.000000000003638
 31
0.0
1001
AcDbBlockRepETag
1070
     1
1071
       10
1005
19753
  0
MTEXT
  5
19754
330
19746
100
AcDbEntity
  8
图框
  6
ByBlock
 62
     0
370
    18
100
AcDbMText
 10
-76.07051142029559
 20
3.05375999971693
 30
0.0
 40
2.707277505427174
 41
2.611450694813113
 46
0.0
 71
     1
 72
     5
  1
5
 73
     1
 44
1.0
1001
AcDbBlockRepETag
1070
     1
1071
       11
1005
19754
  0
LINE
  5
19755
330
19746
100
AcDbEntity
  8
图框
370
    18
100
AcDbLine
 10
-100.9273054023188
 20
3.248733006515066
 30
0.0
 11
-100.9273054023188
 21
-0.000000000003638
 31
0.0
1001
AcDbBlockRepETag
1070
     1
1071
       12
1005
19755
  0
MTEXT
  5
19756
330
19746
100
AcDbEntity
  8
图框
  6
ByBlock
 62
     0
370
    18
100
AcDbMText
 10
-126.6243205176042
 20
2.91765135899095
 30
0.0
 40
2.707277505427174
 41
2.611450694813113
 46
0.0
 71
     1
 72
     5
  1
4
 73
     1
 44
1.0
1001
AcDbBlockRepETag
1070
     1
1071
       13
1005
19756
  0
LINE
  5
19757
330
19746
100
AcDbEntity
  8
图框
370
    18
100
AcDbLine
 10
-151.4992492037045
 20
3.248733006515066
 30
0.0
 11
-151.4992492037045
 21
-0.000000000003638
 31
0.0
1001
AcDbBlockRepETag
1070
     1
1071
       14
1005
19757
  0
MTEXT
  5
19758
330
19746
100
AcDbEntity
  8
图框
  6
ByBlock
 62
     0
370
    18
100
AcDbMText
 10
-177.2143990230533
 20
3.05375999971693
 30
0.0
 40
2.707277505427174
 41
2.611450694813113
 46
0.0
 71
     1
 72
     5
  1
3
 73
     1
 44
1.0
1001
AcDbBlockRepETag
1070
     1
1071
       15
1005
19758
  0
LINE
  5
19759
330
19746
100
AcDbEntity
  8
图框
370
    18
100
AcDbLine
 10
-202.0711930050948
 20
3.248733006515066
 30
0.0
 11
-202.0711930050948
 21
-0.000000000003638
 31
0.0
1001
AcDbBlockRepETag
1070
     1
1071
       16
1005
19759
  0
MTEXT
  5
1975A
330
19746
100
AcDbEntity
  8
图框
  6
ByBlock
 62
     0
370
    18
100
AcDbMText
 10
-229.0827453337215
 20
3.331892869585772
 30
0.0
 40
2.707277505427174
 41
2.611450694813113
 46
0.0
 71
     1
 72
     5
  1
2
 73
     1
 44
1.0
1001
AcDbBlockRepETag
1070
     1
1071
       17
1005
1975A
  0
LINE
  5
1975B
330
19746
100
AcDbEntity
  8
图框
370
    18
100
AcDbLine
 10
-252.6431368064805
 20
3.248733006515066
 30
0.0
 11
-252.6431368064805
 21
-0.000000000003638
 31
0.0
1001
AcDbBlockRepETag
1070
     1
1071
       18
1005
1975B
  0
MTEXT
  5
1975C
330
19746
100
AcDbEntity
  8
图框
  6
ByBlock
 62
     0
370
    18
100
AcDbMText
 10
-278.3582866258198
 20
3.05375999971693
 30
0.0
 40
2.707277505427174
 41
2.611450694813113
 46
0.0
 71
     1
 72
     5
  1
1
 73
     1
 44
1.0
1001
AcDbBlockRepETag
1070
     1
1071
       19
1005
1975C
  0
LINE
  5
1975D
330
19746
100
AcDbEntity
  8
图框
370
    50
100
AcDbLine
 10
-3.248733006515976
 20
3.248733006515066
 30
0.0
 11
-299.7008874762591
 21
3.248733006515066
 31
0.0
1001
AcDbBlockRepETag
1070
     1
1071
       20
1005
1975D
  0
LINE
  5
1975E
330
19746
100
AcDbEntity
  8
图框
370
    50
100
AcDbLine
 10
-299.7008874762591
 20
3.248733006515066
 30
0.0
 11
-3.248733006515976
 21
3.248733006515066
 31
0.0
1001
AcDbBlockRepETag
1070
     1
1071
       21
1005
1975E
  0
LINE
  5
1975F
330
19746
100
AcDbEntity
  8
图框
370
    50
100
AcDbLine
 10
-299.7008874762591
 20
3.248733006515066
 30
0.0
 11
-299.700887476256
 21
198.3129987556103
 31
0.0
1001
AcDbBlockRepETag
1070
     1
1071
       22
1005
1975F
  0
MTEXT
  5
19760
330
19746
100
AcDbEntity
  8
图框
  6
ByBlock
 62
     0
370
    18
100
AcDbMText
 10
-302.7710812493773
 20
181.9281191248847
 30
0.0
 40
2.707277505427174
 41
2.611450694813113
 46
0.0
 71
     1
 72
     5
  1
D
 11
0.0000000000000001
 21
1.0
 31
0.0
 73
     1
 44
1.0
1001
AcDbBlockRepETag
1070
     1
1071
       23
1005
19760
  0
LINE
  5
19761
330
19746
100
AcDbEntity
  8
图框
  6
ByBlock
 62
     0
370
    18
100
AcDbLine
 10
-299.7008874762591
 20
156.751367564234
 30
0.0
 11
-303.0844922931087
 21
156.751367564234
 31
0.0
1001
AcDbBlockRepETag
1070
     1
1071
       24
1005
19761
  0
MTEXT
  5
19762
330
19746
100
AcDbEntity
  8
图框
  6
ByBlock
 62
     0
370
    18
100
AcDbMText
 10
-302.7710812493773
 20
129.6776632701471
 30
0.0
 40
2.707277505427174
 41
2.611450694813113
 46
0.0
 71
     1
 72
     5
  1
C
 11
0.0000000000000001
 21
1.0
 31
0.0
 73
     1
 44
1.0
1001
AcDbBlockRepETag
1070
     1
1071
       25
1005
19762
  0
LINE
  5
19763
330
19746
100
AcDbEntity
  8
图框
  6
ByBlock
 62
     0
370
    18
100
AcDbLine
 10
-299.7008874762591
 20
104.50091170949
 30
0.0
 11
-303.0844922931087
 21
104.50091170949
 31
0.0
1001
AcDbBlockRepETag
1070
     1
1071
       26
1005
19763
  0
MTEXT
  5
19764
330
19746
100
AcDbEntity
  8
图框
  6
ByBlock
 62
     0
370
    18
100
AcDbMText
 10
-302.7710812493773
 20
77.42720741541052
 30
0.0
 40
2.707277505427174
 41
2.611450694813113
 46
0.0
 71
     1
 72
     5
  1
B
 11
0.0000000000000001
 21
1.0
 31
0.0
 73
     1
 44
1.0
1001
AcDbBlockRepETag
1070
     1
1071
       27
1005
19764
  0
LINE
  5
19765
330
19746
100
AcDbEntity
  8
图框
  6
ByBlock
 62
     0
370
    18
100
AcDbLine
 10
-299.7008874762591
 20
52.25045585474345
 30
0.0
 11
-303.0844922931087
 21
52.25045585474345
 31
0.0
1001
AcDbBlockRepETag
1070
     1
1071
       28
1005
19765
  0
MTEXT
  5
19766
330
19746
100
AcDbEntity
  8
图框
  6
ByBlock
 62
     0
370
    18
100
AcDbMText
 10
-302.7710812493773
 20
28.84625550303008
 30
0.0
 40
2.707277505427174
 41
2.611450694813113
 46
0.0
 71
     1
 72
     5
  1
A
 11
0.0000000000000001
 21
1.0
 31
0.0
 73
     1
 44
1.0
1001
AcDbBlockRepETag
1070
     1
1071
       29
1005
19766
  0
LINE
  5
19767
330
19746
100
AcDbEntity
  8
图框
370
    -3
100
AcDbLine
 10
-299.700887476256
 20
198.3129987556103
 30
0.0
 11
-299.700887476256
 21
207.9928626462792
 31
0.0
1001
AcDbBlockRepETag
1070
     1
1071
       30
1005
19767
  0
LINE
  5
19768
330
19746
100
AcDbEntity
  8
图框
370
    -3
100
AcDbLine
 10
-293.8704791652309
 20
198.3129987556103
 30
0.0
 11
-293.8704791652309
 21
207.9928626462792
 31
0.0
1001
AcDbBlockRepETag
1070
     1
1071
       31
1005
19768
  0
LINE
  5
19769
330
19746
100
AcDbEntity
  8
图框
370
    -3
100
AcDbLine
 10
-288.0400708542047
 20
198.3129987556103
 30
0.0
 11
-288.0400708542047
 21
207.9928626462792
 31
0.0
1001
AcDbBlockRepETag
1070
     1
1071
       32
1005
19769
  0
LINE
  5
1976A
330
19746
100
AcDbEntity
  8
图框
370
    -3
100
AcDbLine
 10
-282.2096625431764
 20
198.3129987556103
 30
0.0
 11
-282.2096625431764
 21
207.9928626462792
 31
0.0
1001
AcDbBlockRepETag
1070
     1
1071
       33
1005
1976A
  0
LINE
  5
1976B
330
19746
100
AcDbEntity
  8
图框
370
    -3
100
AcDbLine
 10
-274.5632094694702
 20
198.3129987556103
 30
0.0
 11
-274.5632094694702
 21
207.9928626462792
 31
0.0
1001
AcDbBlockRepETag
1070
     1
1071
       34
1005
1976B
  0
LINE
  5
1976C
330
19746
100
AcDbEntity
  8
图框
370
    -3
100
AcDbLine
 10
-299.700887476256
 20
207.9928626462792
 30
0.0
 11
-274.5632094694702
 21
207.9928626462792
 31
0.0
1001
AcDbBlockRepETag
1070
     1
1071
       35
1005
1976C
  0
MTEXT
  5
1976D
330
19746
100
AcDbEntity
  8
图框
  6
ByBlock
 62
     0
370
    18
100
AcDbMText
 10
-25.60685871913211
 20
201.9867597153443
 30
0.0
 40
2.707277505427174
 41
2.611450694813113
 46
0.0
 71
     1
 72
     5
  1
6
 73
     1
 44
1.0
1001
AcDbBlockRepETag
1070
     1
1071
       36
1005
1976D
  0
LINE
  5
1976E
330
19746
100
AcDbEntity
  8
图框
  6
ByBlock
 62
     0
370
    18
100
AcDbLine
 10
-50.35536160095853
 20
202.1817327221484
 30
0.0
 11
-50.35536160095853
 21
198.3129987556103
 31
0.0
1001
AcDbBlockRepETag
1070
     1
1071
       37
1005
1976E
  0
MTEXT
  5
1976F
330
19746
100
AcDbEntity
  8
图框
  6
ByBlock
 62
     0
370
    18
100
AcDbMText
 10
-76.07051142029559
 20
201.9867597153443
 30
0.0
 40
2.707277505427174
 41
2.611450694813113
 46
0.0
 71
     1
 72
     5
  1
5
 73
     1
 44
1.0
1001
AcDbBlockRepETag
1070
     1
1071
       38
1005
1976F
  0
LINE
  5
19770
330
19746
100
AcDbEntity
  8
图框
  6
ByBlock
 62
     0
370
    18
100
AcDbLine
 10
-100.9273054023188
 20
202.1817327221484
 30
0.0
 11
-100.9273054023188
 21
198.3129987556103
 31
0.0
1001
AcDbBlockRepETag
1070
     1
1071
       39
1005
19770
  0
MTEXT
  5
19771
330
19746
100
AcDbEntity
  8
图框
  6
ByBlock
 62
     0
370
    18
100
AcDbMText
 10
-126.6424552216831
 20
201.8553551228192
 30
0.0
 40
2.707277505427174
 41
2.611450694813113
 46
0.0
 71
     1
 72
     5
  1
4
 73
     1
 44
1.0
1001
AcDbBlockRepETag
1070
     1
1071
       40
1005
19771
  0
LINE
  5
19772
330
19746
100
AcDbEntity
  8
图框
  6
ByBlock
 62
     0
370
    18
100
AcDbLine
 10
-151.4992492037045
 20
202.1817327221484
 30
0.0
 11
-151.4992492037045
 21
198.3129987556103
 31
0.0
1001
AcDbBlockRepETag
1070
     1
1071
       41
1005
19772
  0
MTEXT
  5
19773
330
19746
100
AcDbEntity
  8
图框
  6
ByBlock
 62
     0
370
    18
100
AcDbMText
 10
-177.2143990230533
 20
201.9867597153443
 30
0.0
 40
2.707277505427174
 41
2.611450694813113
 46
0.0
 71
     1
 72
     5
  1
3
 73
     1
 44
1.0
1001
AcDbBlockRepETag
1070
     1
1071
       42
1005
19773
  0
LINE
  5
19774
330
19746
100
AcDbEntity
  8
图框
  6
ByBlock
 62
     0
370
    18
100
AcDbLine
 10
-202.0711930050948
 20
202.1817327221484
 30
0.0
 11
-202.0711930050948
 21
198.3129987556103
 31
0.0
1001
AcDbBlockRepETag
1070
     1
1071
       43
1005
19774
  0
MTEXT
  5
19775
330
19746
100
AcDbEntity
  8
图框
  6
ByBlock
 62
     0
370
    18
100
AcDbMText
 10
-227.7863428244318
 20
201.9867597153443
 30
0.0
 40
2.707277505427174
 41
2.611450694813113
 46
0.0
 71
     1
 72
     5
  1
2
 73
     1
 44
1.0
1001
AcDbBlockRepETag
1070
     1
1071
       44
1005
19775
  0
LINE
  5
19776
330
19746
100
AcDbEntity
  8
图框
  6
ByBlock
 62
     0
370
    18
100
AcDbLine
 10
-252.6431368064805
 20
202.1817327221484
 30
0.0
 11
-252.6431368064805
 21
198.3129987556103
 31
0.0
1001
AcDbBlockRepETag
1070
     1
1071
       45
1005
19776
  0
MTEXT
  5
19777
330
19746
100
AcDbEntity
  8
图框
  6
ByBlock
 62
     0
370
    18
100
AcDbMText
 10
-273.387602165506
 20
201.9867597153443
 30
0.0
 40
2.707277505427174
 41
2.611450694813113
 46
0.0
 71
     1
 72
     5
  1
1
 73
     1
 44
1.0
1001
AcDbBlockRepETag
1070
     1
1071
       46
1005
19777
  0
LINE
  5
19778
330
19746
100
AcDbEntity
  8
图框
370
    -3
100
AcDbLine
 10
-299.700887476256
 20
198.3129987556103
 30
0.0
 11
-299.700887476256
 21
207.9928626462792
 31
0.0
1001
AcDbBlockRepETag
1070
     1
1071
       47
1005
19778
  0
LINE
  5
19779
330
19746
100
AcDbEntity
  8
图框
370
    50
100
AcDbLine
 10
-299.700887476256
 20
198.3129987556103
 30
0.0
 11
-3.248733006515976
 21
198.3129987556103
 31
0.0
1001
AcDbBlockRepETag
1070
     1
1071
       48
1005
19779
  0
LINE
  5
1977A
330
19746
100
AcDbEntity
  8
图框
370
    -3
100
AcDbLine
 10
-293.8704791652309
 20
198.3129987556103
 30
0.0
 11
-293.8704791652309
 21
207.9928626462792
 31
0.0
1001
AcDbBlockRepETag
1070
     1
1071
       49
1005
1977A
  0
LINE
  5
1977B
330
19746
100
AcDbEntity
  8
图框
370
    -3
100
AcDbLine
 10
-288.0400708542047
 20
198.3129987556103
 30
0.0
 11
-288.0400708542047
 21
207.9928626462792
 31
0.0
1001
AcDbBlockRepETag
1070
     1
1071
       50
1005
1977B
  0
MTEXT
  5
1977C
102
{ACAD_XDICTIONARY
360
1CCFA
102
}
330
19746
100
AcDbEntity
  8
图框
100
AcDbMText
 10
-275.4596122799183
 20
210.0251307685897
 30
0.0
 40
1.9
 41
13.61312830580164
 46
0.0
 71
     1
 72
     5
  1
\pi4.0837;档案员{\fFangSong_GB2312|b0|i0|c134|p49;\H0.7x;\P\pi2.7691;Filing Clerk }
 11
-0.0000000000000002
 21
-1.0
 31
0.0
 73
     1
 44
1.0
1001
AcDbBlockRepETag
1070
     1
1071
       51
1005
1977C
  0
MTEXT
  5
1977D
330
19746
100
AcDbEntity
  8
图框
100
AcDbMText
 10
-289.643354132179
 20
207.7789529018669
 30
0.0
 40
1.85
 41
14.3296087429491
 46
7.89743972280874
 71
     1
 72
     5
  1
{\fFangSong_GB2312|b0|i0|c134|p49;日期/Date}
 11
-0.0000000000000002
 21
-1.0
 31
0.0
 73
     1
 44
1.0
1001
AcDbBlockRepETag
1070
     1
1071
       52
1005
1977D
1001
ACAD
1000
ACAD_MTEXT_DEFINED_HEIGHT_BEGIN
1070
    46
1040
7.89743972280874
1000
ACAD_MTEXT_DEFINED_HEIGHT_END
  0
LINE
  5
1977E
330
19746
100
AcDbEntity
  8
图框
370
    -3
100
AcDbLine
 10
-282.2096625431764
 20
198.3129987556103
 30
0.0
 11
-282.2096625431764
 21
207.9928626462792
 31
0.0
1001
AcDbBlockRepETag
1070
     1
1071
       53
1005
1977E
  0
LINE
  5
1977F
330
19746
100
AcDbEntity
  8
图框
370
    -3
100
AcDbLine
 10
-299.700887476256
 20
207.9928626462792
 30
0.0
 11
-274.5632094694702
 21
207.9928626462792
 31
0.0
1001
AcDbBlockRepETag
1070
     1
1071
       54
1005
1977F
  0
LINE
  5
19780
330
19746
100
AcDbEntity
  8
图框
370
    -3
100
AcDbLine
 10
-95.65547965621409
 20
51.53299718117978
 30
0.0
 11
-95.65547965621409
 21
3.226101763186306
 31
0.0
1001
AcDbBlockRepETag
1070
     1
1071
       55
1005
19780
  0
LINE
  5
19781
330
19746
100
AcDbEntity
  8
图框
370
    -3
100
AcDbLine
 10
-84.59947431631553
 20
27.37954846258481
 30
0.0
 11
-84.59947431631553
 21
11.27724931685816
 31
0.0
1001
AcDbBlockRepETag
1070
     1
1071
       56
1005
19781
  0
LINE
  5
19782
330
19746
100
AcDbEntity
  8
图框
370
    -3
100
AcDbLine
 10
-73.54346897641881
 20
27.37954846258481
 30
0.0
 11
-73.54346897641881
 21
3.248733006515066
 31
0.0
1001
AcDbBlockRepETag
1070
     1
1071
       57
1005
19782
  0
LINE
  5
19783
330
19746
100
AcDbEntity
  8
图框
370
    25
100
AcDbLine
 10
-83.58791727856555
 20
7.408811498148682
 30
0.0
 11
-76.98016808912439
 21
7.408811498148682
 31
0.0
1001
AcDbBlockRepETag
1070
     1
1071
       58
1005
19783
  0
LINE
  5
19784
330
19746
100
AcDbEntity
  8
图框
370
    25
100
AcDbLine
 10
-77.70900270099014
 20
6.353791602190088
 30
0.0
 11
-82.89127995922923
 21
5.722301238156888
 31
0.0
1001
AcDbBlockRepETag
1070
     1
1071
       59
1005
19784
  0
LINE
  5
19785
330
19746
100
AcDbEntity
  8
图框
370
    25
100
AcDbLine
 10
-77.70900270099014
 20
8.46383139410682
 30
0.0
 11
-82.89127995922923
 21
9.095321758140018
 31
0.0
1001
AcDbBlockRepETag
1070
     1
1071
       60
1005
19785
  0
LINE
  5
19786
330
19746
100
AcDbEntity
  8
图框
370
    25
100
AcDbLine
 10
-82.89127995922923
 20
9.095321758140018
 30
0.0
 11
-82.89127995922923
 21
5.722301238156888
 31
0.0
1001
AcDbBlockRepETag
1070
     1
1071
       61
1005
19786
  0
LINE
  5
19787
330
19746
100
AcDbEntity
  8
图框
370
    25
100
AcDbLine
 10
-77.70900270099014
 20
8.46383139410682
 30
0.0
 11
-77.70900270099014
 21
6.353791602190088
 31
0.0
1001
AcDbBlockRepETag
1070
     1
1071
       62
1005
19787
  0
CIRCLE
  5
19788
330
19746
100
AcDbEntity
  8
图框
370
    25
100
AcDbCircle
 10
-89.68433341549213
 20
7.408811498148682
 30
0.0
 40
1.686510259991201
1001
AcDbBlockRepETag
1070
     1
1071
       63
1005
19788
  0
CIRCLE
  5
19789
330
19746
100
AcDbEntity
  8
图框
370
    25
100
AcDbCircle
 10
-89.68433341549213
 20
7.408811498148682
 30
0.0
 40
1.055019895958462
1001
AcDbBlockRepETag
1070
     1
1071
       64
1005
19789
  0
LINE
  5
1978A
330
19746
100
AcDbEntity
  8
图框
370
    25
100
AcDbLine
 10
-92.09967828735191
 20
7.408811498148682
 30
0.0
 11
-87.26898854363232
 21
7.408811498148682
 31
0.0
1001
AcDbBlockRepETag
1070
     1
1071
       65
1005
1978A
  0
LINE
  5
1978B
330
19746
100
AcDbEntity
  8
图框
370
    25
100
AcDbLine
 10
-89.68433341549213
 20
9.824156370006678
 30
0.0
 11
-89.68433341549213
 21
4.99346662628932
 31
0.0
1001
AcDbBlockRepETag
1070
     1
1071
       66
1005
1978B
  0
LINE
  5
1978C
330
19746
100
AcDbEntity
  8
图框
370
    -3
100
AcDbLine
 10
-62.48746363651753
 20
27.37954846258481
 30
0.0
 11
-62.48746363651753
 21
11.27724931685816
 31
0.0
1001
AcDbBlockRepETag
1070
     1
1071
       67
1005
1978C
  0
MTEXT
  5
1978D
330
19746
100
AcDbEntity
  8
图框
100
AcDbMText
 10
-44.50483033434919
 20
46.82783085037999
 30
0.0
 40
2.2
 41
17.28936801007842
 46
0.0
 71
     5
 72
     5
  1
{\fFangSong_GB2312|b0|i0|c134|p49;图号\PDrawing No.}
 73
     1
 44
1.0
1001
AcDbBlockRepETag
1070
     1
1071
       68
1005
1978D
  0
LINE
  5
1978E
330
19746
100
AcDbEntity
  8
图框
370
    -3
100
AcDbLine
 10
-37.80740494985457
 20
51.53299718117978
 30
0.0
 11
-37.80740494985457
 21
15.302824103288
 31
0.0
1001
AcDbBlockRepETag
1070
     1
1071
       69
1005
1978E
  0
LINE
  5
1978F
330
19746
100
AcDbEntity
  8
图框
370
    -3
100
AcDbLine
 10
-84.60901605993241
 20
51.53299718117978
 30
0.0
 11
-84.60901605993241
 21
27.37954846258481
 31
0.0
1001
AcDbBlockRepETag
1070
     1
1071
       70
1005
1978F
  0
MTEXT
  5
19790
330
19746
100
AcDbEntity
  8
图框
100
AcDbMText
 10
-67.78404260571004
 20
23.22673946473287
 30
0.0
 40
2.299999999999998
 41
17.28936801007842
 46
0.0
 71
     5
 72
     5
  1
{\fFangSong_GB2312|b0|i0|c134|p49;重量\PWeight}
 73
     1
 44
1.0
1001
AcDbBlockRepETag
1070
     1
1071
       71
1005
19790
  0
LINE
  5
19791
330
19746
100
AcDbEntity
  8
图框
370
    -3
100
AcDbLine
 10
-95.65547965621409
 20
39.45627282188435
 30
0.0
 11
-51.43145829661989
 21
39.45627282188435
 31
0.0
1001
AcDbBlockRepETag
1070
     1
1071
       72
1005
19791
  0
MTEXT
  5
19792
330
19746
100
AcDbEntity
  8
图框
100
AcDbMText
 10
-56.7932467736464
 20
23.46845439006302
 30
0.0
 40
2.299999999999998
 41
17.28936801007842
 46
0.0
 71
     5
 72
     5
  1
{\fFangSong_GB2312|b0|i0|c134|p49;数量\PQty.}
 73
     1
 44
1.0
1001
AcDbBlockRepETag
1070
     1
1071
       73
1005
19792
  0
LINE
  5
19793
330
19746
100
AcDbEntity
  8
图框
370
    -3
100
AcDbLine
 10
-51.43145829661989
 20
15.302824103288
 30
0.0
 11
-3.248733006515976
 21
15.302824103288
 31
0.0
1001
AcDbBlockRepETag
1070
     1
1071
       74
1005
19793
  0
LINE
  5
19794
330
19746
100
AcDbEntity
  8
图框
370
    -3
100
AcDbLine
 10
-51.43145829661989
 20
24.36006199058238
 30
0.0
 11
-3.248733006515976
 21
24.36006199058238
 31
0.0
1001
AcDbBlockRepETag
1070
     1
1071
       75
1005
19794
  0
MTEXT
  5
19795
330
19746
100
AcDbEntity
  8
图框
100
AcDbMText
 10
-78.97020155255723
 20
23.22673946473287
 30
0.0
 40
2.299999999999998
 41
17.28936801007842
 46
0.0
 71
     5
 72
     5
  1
{\fFangSong_GB2312|b0|i0|c134|p49;版本\PREV.}
 73
     1
 44
1.0
1001
AcDbBlockRepETag
1070
     1
1071
       76
1005
19795
  0
MTEXT
  5
19796
330
19746
100
AcDbEntity
  8
图框
100
AcDbMText
 10
-90.10909894000088
 20
23.22673946473287
 30
0.0
 40
2.299999999999998
 41
17.28936801007842
 46
0.0
 71
     5
 72
     5
  1
{\fFangSong_GB2312|b1|i0|c134|p49;比例\P\fFangSong_GB2312|b0|i0|c134|p49;Scale}
 73
     1
 44
1.0
1001
AcDbBlockRepETag
1070
     1
1071
       77
1005
19796
  0
LINE
  5
19797
330
19746
100
AcDbEntity
  8
图框
370
    -3
100
AcDbLine
 10
-95.65547965621409
 20
27.37954846258481
 30
0.0
 11
-51.43145829661989
 21
27.37954846258481
 31
0.0
1001
AcDbBlockRepETag
1070
     1
1071
       78
1005
19797
  0
LINE
  5
19798
330
19746
100
AcDbEntity
  8
图框
370
    -3
100
AcDbLine
 10
-95.65547965621409
 20
19.32839888972057
 30
0.0
 11
-51.43145829661989
 21
19.32839888972057
 31
0.0
1001
AcDbBlockRepETag
1070
     1
1071
       79
1005
19798
  0
LINE
  5
19799
330
19746
100
AcDbEntity
  8
图框
370
    -3
100
AcDbLine
 10
-95.65547965621409
 20
11.27724931685816
 30
0.0
 11
-51.43145829661989
 21
11.27724931685816
 31
0.0
1001
AcDbBlockRepETag
1070
     1
1071
       80
1005
19799
  0
LINE
  5
1979A
330
19746
100
AcDbEntity
  8
图框
370
    -3
100
AcDbLine
 10
-51.43145829661989
 20
51.53299718117978
 30
0.0
 11
-51.43145829661989
 21
3.226099743992107
 31
0.0
1001
AcDbBlockRepETag
1070
     1
1071
       81
1005
1979A
  0
MTEXT
  5
1979B
330
19746
100
AcDbEntity
  8
图框
100
AcDbMText
 10
-90.1444233190732
 20
45.35786127313076
 30
0.0
 40
2.299999999999998
 41
17.28936801007842
 46
0.0
 71
     5
 72
     5
  1
{\fFangSong_GB2312|b0|i0|c134|p49;表面处理Finish}
 73
     1
 44
1.0
1001
AcDbBlockRepETag
1070
     1
1071
       82
1005
1979B
  0
MTEXT
  5
1979C
330
19746
100
AcDbEntity
  8
图框
100
AcDbMText
 10
-89.98715703761446
 20
33.29533932877166
 30
0.0
 40
2.299999999999998
 41
17.28936801007842
 46
0.0
 71
     5
 72
     5
  1
{\fFangSong_GB2312|b0|i0|c134|p49;材料\PMaterial}
 73
     1
 44
1.0
1001
AcDbBlockRepETag
1070
     1
1071
       83
1005
1979C
  0
LINE
  5
1979D
330
19746
100
AcDbEntity
  8
图框
370
    -3
100
AcDbLine
 10
-51.43145829661989
 20
42.2864686426592
 30
0.0
 11
-3.248733006515976
 21
42.2864686426592
 31
0.0
1001
AcDbBlockRepETag
1070
     1
1071
       84
1005
1979D
  0
LINE
  5
1979E
330
19746
100
AcDbEntity
  8
图框
370
    -3
100
AcDbLine
 10
-51.43145829661989
 20
33.4179106422348
 30
0.0
 11
-3.248733006515976
 21
33.4179106422348
 31
0.0
1001
AcDbBlockRepETag
1070
     1
1071
       85
1005
1979E
  0
MTEXT
  5
1979F
330
19746
100
AcDbEntity
  8
图框
100
AcDbMText
 10
-44.49064553457357
 20
37.88290870096215
 30
0.0
 40
2.0
 41
17.28936801007842
 46
0.0
 71
     5
 72
     5
  1
{\fFangSong_GB2312|b0|i0|c134|p49;产品代号\PPart Code}
 73
     1
 44
1.0
1001
AcDbBlockRepETag
1070
     1
1071
       86
1005
1979F
  0
LINE
  5
197A0
330
19746
100
AcDbEntity
  8
图框
370
    -3
100
AcDbLine
 10
-187.2588872465149
 20
45.8862940631534
 30
0.0
 11
-95.65547965621409
 21
45.8862940631534
 31
0.0
1001
AcDbBlockRepETag
1070
     1
1071
       87
1005
197A0
  0
LINE
  5
197A1
330
19746
100
AcDbEntity
  8
图框
370
    -3
100
AcDbLine
 10
-187.2588872465149
 20
40.23959094513202
 30
0.0
 11
-95.65547965621409
 21
40.23959094513202
 31
0.0
1001
AcDbBlockRepETag
1070
     1
1071
       88
1005
197A1
  0
LINE
  5
197A2
330
19746
100
AcDbEntity
  8
图框
370
    35
100
AcDbLine
 10
-187.2588872465149
 20
51.53299718117978
 30
0.0
 11
-3.248733006515976
 21
51.53299718117978
 31
0.0
1001
AcDbBlockRepETag
1070
     1
1071
       89
1005
197A2
  0
LINE
  5
197A3
330
19746
100
AcDbEntity
  8
图框
370
    -3
100
AcDbLine
 10
-142.5990667195065
 20
28.94618470907971
 30
0.0
 11
-142.5990667195065
 21
3.248733006515066
 31
0.0
1001
AcDbBlockRepETag
1070
     1
1071
       90
1005
197A3
  0
MTEXT
  5
197A4
102
{ACAD_XDICTIONARY
360
1CCFC
102
}
330
19746
100
AcDbEntity
  8
图框
100
AcDbMText
 10
-135.9561748265769
 20
19.06273530277031
 30
0.0
 40
2.299999999999998
 41
17.28936801007842
 46
0.0
 71
     5
 72
     5
  1
标准化{\fFangSong_GB2312|b0|i0|c134|p49;\PStand.}
 73
     1
 44
1.0
1001
AcDbBlockRepETag
1070
     1
1071
       91
1005
197A4
  0
LINE
  5
197A5
330
19746
100
AcDbEntity
  8
图框
370
    -3
100
AcDbLine
 10
-158.1808904067164
 20
28.94618470907971
 30
0.0
 11
-158.1808904067164
 21
3.248733006515066
 31
0.0
1001
AcDbBlockRepETag
1070
     1
1071
       92
1005
197A5
  0
MTEXT
  5
197A6
330
19746
100
AcDbEntity
  8
图框
100
AcDbMText
 10
-150.7920026057454
 20
31.84090517503546
 30
0.0
 40
2.5
 41
37.16636630945561
 46
10.30371199453346
 71
     5
 72
     5
  1
{\fFangSong_GB2312|b0|i0|c134|p49;\H0.8x; 变更描述/Description}
 73
     1
 44
1.0
1001
AcDbBlockRepETag
1070
     1
1071
       93
1005
197A6
1001
ACAD
1000
ACAD_MTEXT_DEFINED_HEIGHT_BEGIN
1070
    46
1040
10.30371199453346
1000
ACAD_MTEXT_DEFINED_HEIGHT_END
  0
MTEXT
  5
197A7
102
{ACAD_XDICTIONARY
360
1CCFE
102
}
330
19746
100
AcDbEntity
  8
图框
100
AcDbMText
 10
-119.9966215483446
 20
31.81337244555516
 30
0.0
 40
2.0
 41
17.28936801007842
 46
0.0
 71
     5
 72
     5
  1
签名{\fFangSong_GB2312|b0|i0|c134|p49;\PSignature }
 73
     1
 44
1.0
1001
AcDbBlockRepETag
1070
     1
1071
       94
1005
197A7
  0
MTEXT
  5
197A8
102
{ACAD_XDICTIONARY
360
1CD00
102
}
330
19746
100
AcDbEntity
  8
图框
100
AcDbMText
 10
-173.0343616143536
 20
29.07925480875338
 30
0.0
 40
2.0
 41
17.28936801007842
 46
0.0
 71
     5
 72
     5
  1
处数{\fFangSong_GB2312|b0|i0|c134|p49;\PNumber\H0.9491x; \P\P }
 73
     1
 44
1.0
1001
AcDbBlockRepETag
1070
     1
1071
       95
1005
197A8
  0
LINE
  5
197A9
330
19746
100
AcDbEntity
  8
图框
370
    -3
100
AcDbLine
 10
-187.2588872465149
 20
34.59288782710473
 30
0.0
 11
-95.65547965621409
 21
34.59288782710473
 31
0.0
1001
AcDbBlockRepETag
1070
     1
1071
       96
1005
197A9
  0
LINE
  5
197AA
330
19746
100
AcDbEntity
  8
图框
370
    -3
100
AcDbLine
 10
-187.2588872465149
 20
28.94618470907971
 30
0.0
 11
-95.65547965621409
 21
28.94618470907971
 31
0.0
1001
AcDbBlockRepETag
1070
     1
1071
       97
1005
197AA
  0
LINE
  5
197AB
330
19746
100
AcDbEntity
  8
图框
370
    -3
100
AcDbLine
 10
-187.2588872465149
 20
22.52182178343856
 30
0.0
 11
-95.65547965621409
 21
22.52182178343856
 31
0.0
1001
AcDbBlockRepETag
1070
     1
1071
       98
1005
197AB
  0
LINE
  5
197AC
330
19746
100
AcDbEntity
  8
图框
370
    -3
100
AcDbLine
 10
-187.2588872465149
 20
16.09745885779694
 30
0.0
 11
-95.65547965621409
 21
16.09745885779694
 31
0.0
1001
AcDbBlockRepETag
1070
     1
1071
       99
1005
197AC
  0
LINE
  5
197AD
330
19746
100
AcDbEntity
  8
图框
370
    35
380
     1
100
AcDbLine
 10
-187.2588872465149
 20
51.53299718117978
 30
0.0
 11
-187.2588872465149
 21
3.248733006515066
 31
0.0
1001
AcDbBlockRepETag
1070
     1
1071
      100
1005
197AD
  0
LINE
  5
197AE
330
19746
100
AcDbEntity
  8
图框
370
    -3
100
AcDbLine
 10
-111.3291326656708
 20
51.53299718117978
 30
0.0
 11
-111.3291326656708
 21
3.248733006515066
 31
0.0
1001
AcDbBlockRepETag
1070
     1
1071
      101
1005
197AE
  0
LINE
  5
197AF
330
19746
100
AcDbEntity
  8
图框
370
    -3
100
AcDbLine
 10
-129.3472832566813
 20
51.53299718117978
 30
0.0
 11
-129.3472832566813
 21
3.248733006515066
 31
0.0
1001
AcDbBlockRepETag
1070
     1
1071
      102
1005
197AF
  0
LINE
  5
197B0
330
19746
100
AcDbEntity
  8
图框
370
    -3
100
AcDbLine
 10
-168.4365435197642
 20
51.53299718117978
 30
0.0
 11
-168.4365435197642
 21
28.94618470907971
 31
0.0
1001
AcDbBlockRepETag
1070
     1
1071
      103
1005
197B0
  0
LINE
  5
197B1
330
19746
100
AcDbEntity
  8
图框
370
    -3
100
AcDbLine
 10
-177.84771538314
 20
51.53299718117978
 30
0.0
 11
-177.84771538314
 21
28.94618470907971
 31
0.0
1001
AcDbBlockRepETag
1070
     1
1071
      104
1005
197B1
  0
MTEXT
  5
197B2
102
{ACAD_XDICTIONARY
360
1CD02
102
}
330
19746
100
AcDbEntity
  8
图框
100
AcDbMText
 10
-182.5265049148974
 20
31.52148063531195
 30
0.0
 40
2.0
 41
17.28936801007842
 46
0.0
 71
     5
 72
     5
  1
标记{\fFangSong_GB2312|b0|i0|c134|p49;\PMark}
 73
     1
 44
1.0
1001
AcDbBlockRepETag
1070
     1
1071
      105
1005
197B2
  0
MTEXT
  5
197B3
102
{ACAD_XDICTIONARY
360
1CD04
102
}
330
19746
100
AcDbEntity
  8
图框
100
AcDbMText
 10
-180.552682381483
 20
12.82378897022636
 30
0.0
 40
2.299999999999998
 41
17.28936801007842
 46
0.0
 71
     5
 72
     5
  1
审核{\fFangSong_GB2312|b0|i0|c134|p49;\PChecked}
 73
     1
 44
1.0
1001
AcDbBlockRepETag
1070
     1
1071
      106
1005
197B3
  0
MTEXT
  5
197B4
102
{ACAD_XDICTIONARY
360
1CD06
102
}
330
19746
100
AcDbEntity
  8
图框
100
AcDbMText
 10
-180.5892215157932
 20
19.1709171910079
 30
0.0
 40
2.299999999999998
 41
17.28936801007842
 46
0.0
 71
     5
 72
     5
  1
绘图{\fFangSong_GB2312|b0|i0|c134|p49;\PDrawn }
 73
     1
 44
1.0
1001
AcDbBlockRepETag
1070
     1
1071
      107
1005
197B4
  0
MTEXT
  5
197B5
330
19746
100
AcDbEntity
  8
图框
 62
     1
370
    20
100
AcDbMText
 10
-22.84271650818846
 20
10.88681000979113
 30
0.0
 40
2.75554548781367
 41
84.03101573313689
 46
0.0
 71
     5
 72
     5
  1
{\fSimHei|b0|i0|c134|p2;厦门唯恩电气有限公司}
 73
     1
 44
1.0
1001
AcDbBlockRepETag
1070
     1
1071
      108
1005
197B5
  0
MTEXT
  5
197B6
330
19746
100
AcDbEntity
  8
图框
 62
     3
370
    20
100
AcDbMText
 10
-22.66702772757162
 20
6.581250737222488
 30
0.0
 40
1.68706866600837
 41
69.51060973847154
 46
0.0
 71
     5
 72
     5
  1
{\fArial Narrow|b0|i0|c0|p34;XIAMEN WAIN ELECTRICAL CO.LTD}
  7
工程字
 73
     1
 44
1.0
1001
AcDbBlockRepETag
1070
     1
1071
      109
1005
197B6
  0
ARC
  5
197B7
330
19746
100
AcDbEntity
  8
图框
 62
     4
370
    35
100
AcDbCircle
 10
-44.65257334671605
 20
9.357186314109183
 30
0.0
 40
4.148354985993361
100
AcDbArc
 50
18.95237904565114
 51
161.0476209543488
1001
AcDbBlockRepETag
1070
     1
1071
      110
1005
197B7
  0
ARC
  5
197B8
330
19746
100
AcDbEntity
  8
图框
 62
     4
370
    35
100
AcDbCircle
 10
-44.65257334671605
 20
9.357186314109183
 30
0.0
 40
4.148354985993361
100
AcDbArc
 50
198.9523790456511
 51
341.0476209543489
1001
AcDbBlockRepETag
1070
     1
1071
      111
1005
197B8
  0
LINE
  5
197B9
330
19746
100
AcDbEntity
  8
图框
 62
     4
370
    35
100
AcDbLine
 10
-48.5760412071977
 20
8.009874532229332
 30
0.0
 11
-40.72910548623712
 21
8.009874532229332
 31
0.0
1001
AcDbBlockRepETag
1070
     1
1071
      112
1005
197B9
  0
LINE
  5
197BA
330
19746
100
AcDbEntity
  8
图框
 62
     4
370
    35
100
AcDbLine
 10
-48.5760412071977
 20
10.70449809598994
 30
0.0
 11
-40.72910548623712
 21
10.70449809598994
 31
0.0
1001
AcDbBlockRepETag
1070
     1
1071
      113
1005
197BA
  0
MTEXT
  5
197BB
330
19746
100
AcDbEntity
  8
图框
 62
     1
370
    20
100
AcDbMText
 10
-48.59953330374628
 20
10.4114336155867
 30
0.0
 40
2.047913908460159
 41
5.152878120377273
 46
0.0
 71
     1
 72
     5
  1
{\fArial|b0|i0|c0|p34;W}
  7
Chinese
 73
     1
 44
1.0
1001
AcDbBlockRepETag
1070
     1
1071
      114
1005
197BB
  0
MTEXT
  5
197BC
330
19746
100
AcDbEntity
  8
图框
 62
     1
370
    20
100
AcDbMText
 10
-45.86626511152917
 20
10.45620291322257
 30
0.0
 40
2.047913908460159
 41
5.152878120377273
 46
0.0
 71
     1
 72
     5
  1
{\fArial|b0|i0|c0|p34;A}
  7
Chinese
 73
     1
 44
1.0
1001
AcDbBlockRepETag
1070
     1
1071
      115
1005
197BC
  0
MTEXT
  5
197BD
330
19746
100
AcDbEntity
  8
图框
 62
     1
370
    20
100
AcDbMText
 10
-43.31223645579938
 20
10.45620291322257
 30
0.0
 40
2.047913908460159
 41
5.152878120377273
 46
0.0
 71
     1
 72
     5
  1
{\fArial|b0|i0|c0|p34;I}
  7
Chinese
 73
     1
 44
1.0
1001
AcDbBlockRepETag
1070
     1
1071
      116
1005
197BD
  0
MTEXT
  5
197BE
330
19746
100
AcDbEntity
  8
图框
 62
     1
370
    20
100
AcDbMText
 10
-42.36390563228724
 20
10.4437540343979
 30
0.0
 40
2.047913908460159
 41
5.152878120377273
 46
0.0
 71
     1
 72
     5
  1
{\fArial|b0|i0|c0|p34;N}
  7
Chinese
 73
     1
 44
1.0
1001
AcDbBlockRepETag
1070
     1
1071
      117
1005
197BE
  0
LINE
  5
197BF
330
19746
100
AcDbEntity
  8
图框
370
    -3
100
AcDbLine
 10
-187.2588872465149
 20
9.673095932156682
 30
0.0
 11
-95.65547965621409
 21
9.673095932156682
 31
0.0
1001
AcDbBlockRepETag
1070
     1
1071
      118
1005
197BF
  0
LINE
  5
197C0
330
19746
100
AcDbEntity
  8
图框
370
    -3
100
AcDbLine
 10
-174.0071037836896
 20
28.94618470907971
 30
0.0
 11
-174.0071037836896
 21
3.248733006515066
 31
0.0
1001
AcDbBlockRepETag
1070
     1
1071
      119
1005
197C0
  0
MTEXT
  5
197C1
330
19746
100
AcDbEntity
  8
图框
100
AcDbMText
 10
-165.8762400878122
 20
25.6926535578823
 30
0.0
 40
2.299999999999998
 41
17.28936801007842
 46
0.0
 71
     5
 72
     5
  1
{\fFangSong_GB2312|b0|i0|c134|p49;姓名/Name }
 73
     1
 44
1.0
1001
AcDbBlockRepETag
1070
     1
1071
      120
1005
197C1
  0
MTEXT
  5
197C2
330
19746
100
AcDbEntity
  8
图框
100
AcDbMText
 10
-150.2906886936334
 20
25.79467373610623
 30
0.0
 40
2.299999999999998
 41
17.28936801007842
 46
0.0
 71
     5
 72
     5
  1
{\fFangSong_GB2312|b0|i0|c134|p49;日期/Date}
 73
     1
 44
1.0
1001
AcDbBlockRepETag
1070
     1
1071
      121
1005
197C2
  0
LINE
  5
197C3
330
19746
100
AcDbEntity
  8
图框
370
    -3
100
AcDbLine
 10
-187.2588872465149
 20
28.94618470907971
 30
0.0
 11
-174.0071037836896
 21
22.52182178343856
 31
0.0
1001
AcDbBlockRepETag
1070
     1
1071
      122
1005
197C3
  0
MTEXT
  5
197C4
330
19746
100
AcDbEntity
  8
图框
100
AcDbMText
 10
-119.8745522695071
 20
25.6926535578823
 30
0.0
 40
2.299999999999998
 41
17.28936801007842
 46
0.0
 71
     5
 72
     5
  1
{\fFangSong_GB2312|b0|i0|c134|p49;姓名/Name }
 73
     1
 44
1.0
1001
AcDbBlockRepETag
1070
     1
1071
      123
1005
197C4
  0
MTEXT
  5
197C5
330
19746
100
AcDbEntity
  8
图框
100
AcDbMText
 10
-103.382336612136
 20
25.79467373610623
 30
0.0
 40
2.299999999999998
 41
17.28936801007842
 46
0.0
 71
     5
 72
     5
  1
{\fFangSong_GB2312|b0|i0|c134|p49;日期/Date}
 73
     1
 44
1.0
1001
AcDbBlockRepETag
1070
     1
1071
      124
1005
197C5
  0
LINE
  5
197C6
330
19746
100
AcDbEntity
  8
图框
370
    -3
100
AcDbLine
 10
-129.3472832566813
 20
22.52182178343856
 30
0.0
 11
-142.5990667195065
 21
28.94618470907971
 31
0.0
1001
AcDbBlockRepETag
1070
     1
1071
      125
1005
197C6
  0
MTEXT
  5
197C7
102
{ACAD_XDICTIONARY
360
1CD08
102
}
330
19746
100
AcDbEntity
  8
图框
100
AcDbMText
 10
-135.9372784425231
 20
6.516067819300588
 30
0.0
 40
2.299999999999998
 41
17.28936801007842
 46
0.0
 71
     5
 72
     5
  1
批准{\fFangSong_GB2312|b0|i0|c134|p49;\PApproved}
 73
     1
 44
1.0
1001
AcDbBlockRepETag
1070
     1
1071
      126
1005
197C7
  0
MTEXT
  5
197C8
102
{ACAD_XDICTIONARY
360
1CD0A
102
}
330
19746
100
AcDbEntity
  8
图框
100
AcDbMText
 10
-180.552682381483
 20
6.399426044586107
 30
0.0
 40
2.299999999999998
 41
17.28936801007842
 46
0.0
 71
     5
 72
     5
  1
工艺{\fFangSong_GB2312|b0|i0|c134|p49;\PProcess}
 73
     1
 44
1.0
1001
AcDbBlockRepETag
1070
     1
1071
      127
1005
197C8
  0
MTEXT
  5
197C9
102
{ACAD_XDICTIONARY
360
1CD0C
102
}
330
19746
100
AcDbEntity
  8
图框
100
AcDbMText
 10
-103.3275614896101
 20
31.81337244555471
 30
0.0
 40
2.0
 41
17.28936801007842
 46
0.0
 71
     5
 72
     5
  1
日期{\fFangSong_GB2312|b0|i0|c134|p49;\PDate}
 73
     1
 44
1.0
1001
AcDbBlockRepETag
1070
     1
1071
      128
1005
197C9
  0
MTEXT
  5
197CA
330
19746
100
AcDbEntity
  8
图框
100
AcDbMText
 10
-44.49064553457357
 20
29.01435070053776
 30
0.0
 40
2.2
 41
17.28936801007842
 46
0.0
 71
     5
 72
     5
  1
{\fFangSong_GB2312|b0|i0|c134|p49;产品料号\PPart No.}
 73
     1
 44
1.0
1001
AcDbBlockRepETag
1070
     1
1071
      129
1005
197CA
  0
MTEXT
  5
197CB
330
19746
100
AcDbEntity
  8
图框
100
AcDbMText
 10
-44.49064553457357
 20
19.95650204888534
 30
0.0
 40
2.0
 41
17.28936801007842
 46
0.0
 71
     5
 72
     5
  1
{\fFangSong_GB2312|b0|i0|c134|p49;产品名称\PPart Name}
 73
     1
 44
1.0
1001
AcDbBlockRepETag
1070
     1
1071
      130
1005
197CB
  0
MTEXT
  5
197CC
330
19746
100
AcDbEntity
  8
图框
 62
     6
390
19817
100
AcDbMText
 10
-28.75996983298682
 20
204.5099265968805
 30
0.0
 40
2.799999999999998
 41
52.97790861188243
 46
0.0
 71
     5
 72
     5
  1
{\C4;编号No.:WN.GC018-T05    版本Rev.:A00}
  7
3.5
 73
     1
 44
1.0
1001
AcDbBlockRepETag
1070
     1
1071
      132
1005
197CC
  0
ENDBLK
  5
197CD
330
19746
100
AcDbEntity
  8
0
100
AcDbBlockEnd
  0
BLOCK
  5
1CAC6
330
1CAC5
100
AcDbEntity
  8
0
100
AcDbBlockBegin
  2
*D5
 70
     1
 10
0.0
 20
0.0
 30
0.0
  3
*D5
  1

  0
LINE
  5
1CB06
330
1CAC5
100
AcDbEntity
  8
cavity
 62
     6
370
    -2
100
AcDbLine
 10
951.9292075484854
 20
269.5133101472379
 30
0.0
 11
941.8352369220468
 21
269.5133101472379
 31
0.0
  0
LINE
  5
1CB07
330
1CAC5
100
AcDbEntity
  8
cavity
 62
     6
370
    -2
100
AcDbLine
 10
951.9292075484854
 20
289.0133101472379
 30
0.0
 11
941.8352369220468
 21
289.0133101472379
 31
0.0
  0
LINE
  5
1CB08
330
1CAC5
100
AcDbEntity
  8
cavity
 62
     1
370
    -2
100
AcDbLine
 10
942.8352369220467
 20
270.5133101472378
 30
0.0
 11
942.8352369220467
 21
276.6427696066973
 31
0.0
  0
LINE
  5
1CB09
330
1CAC5
100
AcDbEntity
  8
cavity
 62
     1
370
    -2
100
AcDbLine
 10
942.8352369220467
 20
288.0133101472379
 30
0.0
 11
942.8352369220467
 21
281.8838506877784
 31
0.0
  0
SOLID
  5
1CB0A
330
1CAC5
100
AcDbEntity
  8
cavity
 62
     1
100
AcDbTrace
 10
942.6685702553802
 20
270.5133101472378
 30
0.0
 11
943.0019035887134
 21
270.5133101472378
 31
0.0
 12
942.8352369220467
 22
269.5133101472379
 32
0.0
 13
942.8352369220467
 23
269.5133101472379
 33
0.0
  0
SOLID
  5
1CB0B
330
1CAC5
100
AcDbEntity
  8
cavity
 62
     1
100
AcDbTrace
 10
942.6685702553802
 20
288.0133101472379
 30
0.0
 11
943.0019035887134
 21
288.0133101472379
 31
0.0
 12
942.8352369220467
 22
289.0133101472379
 32
0.0
 13
942.8352369220467
 23
289.0133101472379
 33
0.0
  0
MTEXT
  5
1CB0C
330
1CAC5
100
AcDbEntity
  8
cavity
 62
     4
370
     0
100
AcDbMText
 10
942.8352369220467
 20
279.263310147238
 30
0.0
 40
1.8
 41
0.0
 46
0.0
 71
     5
 72
     1
  1
\A1;%%c19.5
 11
0.0000000000000001
 21
1.0
 31
0.0
 73
     1
 44
1.0
  0
POINT
  5
1CB0D
330
1CAC5
100
AcDbEntity
  8
Defpoints
 62
     0
100
AcDbPoint
 10
952.0792075484854
 20
269.5133101472379
 30
0.0
  0
POINT
  5
1CB0E
330
1CAC5
100
AcDbEntity
  8
Defpoints
 62
     0
100
AcDbPoint
 10
952.0792075484854
 20
289.0133101472379
 30
0.0
  0
POINT
  5
1CB0F
330
1CAC5
100
AcDbEntity
  8
Defpoints
 62
     0
100
AcDbPoint
 10
942.8352369220467
 20
289.0133101472379
 30
0.0
  0
ENDBLK
  5
1CAC7
330
1CAC5
100
AcDbEntity
  8
0
100
AcDbBlockEnd
  0
BLOCK
  5
1CAD3
330
1CAD2
100
AcDbEntity
  8
0
100
AcDbBlockBegin
  2
*D6
 70
     1
 10
0.0
 20
0.0
 30
0.0
  3
*D6
  1

  0
LINE
  5
1CB10
330
1CAD2
100
AcDbEntity
  8
cavity
 62
     6
370
    -2
100
AcDbLine
 10
951.5792075484855
 20
269.8633101472379
 30
0.0
 11
951.5792075484855
 21
260.8419907369698
 31
0.0
  0
LINE
  5
1CB11
330
1CAD2
100
AcDbEntity
  8
cavity
 62
     6
370
    -2
100
AcDbLine
 10
1005.079211548488
 20
272.7633101472375
 30
0.0
 11
1005.079211548488
 21
260.8419907369698
 31
0.0
  0
LINE
  5
1CB12
330
1CAD2
100
AcDbEntity
  8
cavity
 62
     1
370
    -2
100
AcDbLine
 10
952.5792075484854
 20
261.8419907369698
 30
0.0
 11
976.3325879268649
 21
261.8419907369698
 31
0.0
  0
LINE
  5
1CB13
330
1CAD2
100
AcDbEntity
  8
cavity
 62
     1
370
    -2
100
AcDbLine
 10
1004.079211548488
 20
261.8419907369698
 30
0.0
 11
980.3258311701084
 21
261.8419907369698
 31
0.0
  0
SOLID
  5
1CB14
330
1CAD2
100
AcDbEntity
  8
cavity
 62
     1
100
AcDbTrace
 10
952.5792075484854
 20
262.0086574036364
 30
0.0
 11
952.5792075484854
 21
261.6753240703031
 31
0.0
 12
951.5792075484855
 22
261.8419907369698
 32
0.0
 13
951.5792075484855
 23
261.8419907369698
 33
0.0
  0
SOLID
  5
1CB15
330
1CAD2
100
AcDbEntity
  8
cavity
 62
     1
100
AcDbTrace
 10
1004.079211548488
 20
262.0086574036364
 30
0.0
 11
1004.079211548488
 21
261.6753240703031
 31
0.0
 12
1005.079211548488
 22
261.8419907369698
 32
0.0
 13
1005.079211548488
 23
261.8419907369698
 33
0.0
  0
MTEXT
  5
1CB16
330
1CAD2
100
AcDbEntity
  8
cavity
 62
     4
370
     0
100
AcDbMText
 10
978.3292095484867
 20
261.8419907369698
 30
0.0
 40
1.8
 41
0.0
 46
0.0
 71
     5
 72
     1
  1
\A1;53.5
 73
     1
 44
1.0
  0
POINT
  5
1CB17
330
1CAD2
100
AcDbEntity
  8
Defpoints
 62
     0
100
AcDbPoint
 10
951.5792075484855
 20
270.0133101472379
 30
0.0
  0
POINT
  5
1CB18
330
1CAD2
100
AcDbEntity
  8
Defpoints
 62
     0
100
AcDbPoint
 10
1005.079211548488
 20
272.9133101472375
 30
0.0
  0
POINT
  5
1CB19
330
1CAD2
100
AcDbEntity
  8
Defpoints
 62
     0
100
AcDbPoint
 10
1005.079211548488
 20
261.8419907369698
 30
0.0
  0
ENDBLK
  5
1CAD4
330
1CAD2
100
AcDbEntity
  8
0
100
AcDbBlockEnd
  0
BLOCK
  5
1CAE0
330
1CADF
100
AcDbEntity
  8
0
100
AcDbBlockBegin
  2
*D7
 70
     1
 10
0.0
 20
0.0
 30
0.0
  3
*D7
  1

  0
LINE
  5
1CB1A
330
1CADF
100
AcDbEntity
  8
cavity
 62
     6
370
    -2
100
AcDbLine
 10
1003.497157548488
 20
276.5133101472379
 30
0.0
 11
1011.004760586293
 21
276.5133101472379
 31
0.0
  0
LINE
  5
1CB1B
330
1CADF
100
AcDbEntity
  8
cavity
 62
     6
370
    -2
100
AcDbLine
 10
1003.497157548488
 20
282.0133101472379
 30
0.0
 11
1011.004760586293
 21
282.0133101472379
 31
0.0
  0
LINE
  5
1CB1C
330
1CADF
100
AcDbEntity
  8
cavity
 62
     1
370
    -2
100
AcDbLine
 10
1010.004760586293
 20
277.5133101472379
 30
0.0
 11
1010.004760586293
 21
281.0133101472379
 31
0.0
  0
LINE
  5
1CB1D
330
1CADF
100
AcDbEntity
  8
cavity
 62
     1
370
    -2
100
AcDbLine
 10
1010.004760586293
 20
282.0133101472379
 30
0.0
 11
1010.004760586293
 21
284.0786059999194
 31
0.0
  0
SOLID
  5
1CB1E
330
1CADF
100
AcDbEntity
  8
cavity
 62
     1
100
AcDbTrace
 10
1009.838093919626
 20
277.5133101472379
 30
0.0
 11
1010.17142725296
 21
277.5133101472379
 31
0.0
 12
1010.004760586293
 22
276.5133101472379
 32
0.0
 13
1010.004760586293
 23
276.5133101472379
 33
0.0
  0
SOLID
  5
1CB1F
330
1CADF
100
AcDbEntity
  8
cavity
 62
     1
100
AcDbTrace
 10
1009.838093919626
 20
281.0133101472379
 30
0.0
 11
1010.17142725296
 21
281.0133101472379
 31
0.0
 12
1010.004760586293
 22
282.0133101472379
 32
0.0
 13
1010.004760586293
 23
282.0133101472379
 33
0.0
  0
MTEXT
  5
1CB20
330
1CADF
100
AcDbEntity
  8
cavity
 62
     4
370
     0
100
AcDbMText
 10
1010.004760586293
 20
286.2321195134331
 30
0.0
 40
1.8
 41
0.0
 46
0.0
 71
     5
 72
     1
  1
\A1;%%C5.5
 11
0.0000000000000001
 21
1.0
 31
0.0
 73
     1
 44
1.0
  0
POINT
  5
1CB21
330
1CADF
100
AcDbEntity
  8
Defpoints
 62
     0
100
AcDbPoint
 10
1003.347157548488
 20
276.5133101472379
 30
0.0
  0
POINT
  5
1CB22
330
1CADF
100
AcDbEntity
  8
Defpoints
 62
     0
100
AcDbPoint
 10
1003.347157548488
 20
282.0133101472379
 30
0.0
  0
POINT
  5
1CB23
330
1CADF
100
AcDbEntity
  8
Defpoints
 62
     0
100
AcDbPoint
 10
1010.004760586293
 20
282.0133101472379
 30
0.0
  0
ENDBLK
  5
1CAE1
330
1CADF
100
AcDbEntity
  8
0
100
AcDbBlockEnd
  0
BLOCK
  5
1CAED
330
1CAEC
100
AcDbEntity
  8
0
100
AcDbBlockBegin
  2
*D8
 70
     1
 10
0.0
 20
0.0
 30
0.0
  3
*D8
  1

  0
LINE
  5
1CB24
330
1CAEC
100
AcDbEntity
  8
cavity
 62
     6
370
    -2
100
AcDbLine
 10
1002.129212548486
 20
275.0133101472378
 30
0.0
 11
1015.933412801725
 21
275.0133101472378
 31
0.0
  0
LINE
  5
1CB25
330
1CAEC
100
AcDbEntity
  8
cavity
 62
     6
370
    -2
100
AcDbLine
 10
1002.129212548486
 20
283.5133101472379
 30
0.0
 11
1015.933412801725
 21
283.5133101472379
 31
0.0
  0
LINE
  5
1CB26
330
1CAEC
100
AcDbEntity
  8
cavity
 62
     1
370
    -2
100
AcDbLine
 10
1014.933412801725
 20
276.0133101472379
 30
0.0
 11
1014.933412801725
 21
277.1097966337243
 31
0.0
  0
LINE
  5
1CB27
330
1CAEC
100
AcDbEntity
  8
cavity
 62
     1
370
    -2
100
AcDbLine
 10
1014.933412801725
 20
282.5133101472379
 30
0.0
 11
1014.933412801725
 21
281.4168236607514
 31
0.0
  0
SOLID
  5
1CB28
330
1CAEC
100
AcDbEntity
  8
cavity
 62
     1
100
AcDbTrace
 10
1014.766746135058
 20
276.0133101472379
 30
0.0
 11
1015.100079468391
 21
276.0133101472379
 31
0.0
 12
1014.933412801725
 22
275.0133101472378
 32
0.0
 13
1014.933412801725
 23
275.0133101472378
 33
0.0
  0
SOLID
  5
1CB29
330
1CAEC
100
AcDbEntity
  8
cavity
 62
     1
100
AcDbTrace
 10
1014.766746135058
 20
282.5133101472379
 30
0.0
 11
1015.100079468391
 21
282.5133101472379
 31
0.0
 12
1014.933412801725
 22
283.5133101472379
 32
0.0
 13
1014.933412801725
 23
283.5133101472379
 33
0.0
  0
MTEXT
  5
1CB2A
330
1CAEC
100
AcDbEntity
  8
cavity
 62
     4
370
     0
100
AcDbMText
 10
1014.933412801725
 20
279.263310147238
 30
0.0
 40
1.8
 41
0.0
 46
0.0
 71
     5
 72
     1
  1
\A1;%%C8.5
 11
0.0000000000000001
 21
1.0
 31
0.0
 73
     1
 44
1.0
  0
POINT
  5
1CB2B
330
1CAEC
100
AcDbEntity
  8
Defpoints
 62
     0
100
AcDbPoint
 10
1001.979212548486
 20
275.0133101472378
 30
0.0
  0
POINT
  5
1CB2C
330
1CAEC
100
AcDbEntity
  8
Defpoints
 62
     0
100
AcDbPoint
 10
1001.979212548486
 20
283.5133101472379
 30
0.0
  0
POINT
  5
1CB2D
330
1CAEC
100
AcDbEntity
  8
Defpoints
 62
     0
100
AcDbPoint
 10
1014.933412801725
 20
283.5133101472379
 30
0.0
  0
ENDBLK
  5
1CAEE
330
1CAEC
100
AcDbEntity
  8
0
100
AcDbBlockEnd
  0
BLOCK
  5
1CAFA
330
1CAF9
100
AcDbEntity
  8
0
100
AcDbBlockBegin
  2
*D9
 70
     1
 10
0.0
 20
0.0
 30
0.0
  3
*D9
  1

  0
LINE
  5
1CB2E
330
1CAF9
100
AcDbEntity
  8
cavity
 62
     6
370
    -2
100
AcDbLine
 10
982.7292075484853
 20
268.263310147236
 30
0.0
 11
1020.755983815459
 21
268.263310147236
 31
0.0
  0
LINE
  5
1CB2F
330
1CAF9
100
AcDbEntity
  8
cavity
 62
     6
370
    -2
100
AcDbLine
 10
982.7292075484853
 20
290.2631389545362
 30
0.0
 11
1020.755983815459
 21
290.2631389545362
 31
0.0
  0
LINE
  5
1CB30
330
1CAF9
100
AcDbEntity
  8
cavity
 62
     1
370
    -2
100
AcDbLine
 10
1019.755983815459
 20
269.2633101472361
 30
0.0
 11
1019.755983815459
 21
277.573089415751
 31
0.0
  0
LINE
  5
1CB31
330
1CAF9
100
AcDbEntity
  8
cavity
 62
     1
370
    -2
100
AcDbLine
 10
1019.755983815459
 20
289.2631389545363
 30
0.0
 11
1019.755983815459
 21
280.9533596860212
 31
0.0
  0
SOLID
  5
1CB32
330
1CAF9
100
AcDbEntity
  8
cavity
 62
     1
100
AcDbTrace
 10
1019.589317148792
 20
269.2633101472361
 30
0.0
 11
1019.922650482125
 21
269.2633101472361
 31
0.0
 12
1019.755983815459
 22
268.263310147236
 32
0.0
 13
1019.755983815459
 23
268.263310147236
 33
0.0
  0
SOLID
  5
1CB33
330
1CAF9
100
AcDbEntity
  8
cavity
 62
     1
100
AcDbTrace
 10
1019.589317148792
 20
289.2631389545363
 30
0.0
 11
1019.922650482125
 21
289.2631389545363
 31
0.0
 12
1019.755983815459
 22
290.2631389545362
 32
0.0
 13
1019.755983815459
 23
290.2631389545362
 33
0.0
  0
MTEXT
  5
1CB34
330
1CAF9
100
AcDbEntity
  8
cavity
 62
     4
370
     0
100
AcDbMText
 10
1019.755983815459
 20
279.2632245508863
 30
0.0
 40
1.8
 41
0.0
 46
0.0
 71
     5
 72
     1
  1
\A1;%%C22
 11
0.0000000000000001
 21
1.0
 31
0.0
 73
     1
 44
1.0
  0
POINT
  5
1CB35
330
1CAF9
100
AcDbEntity
  8
Defpoints
 62
     0
100
AcDbPoint
 10
982.5792075484852
 20
268.263310147236
 30
0.0
  0
POINT
  5
1CB36
330
1CAF9
100
AcDbEntity
  8
Defpoints
 62
     0
100
AcDbPoint
 10
982.5792075484852
 20
290.2631389545362
 30
0.0
  0
POINT
  5
1CB37
330
1CAF9
100
AcDbEntity
  8
Defpoints
 62
     0
100
AcDbPoint
 10
1019.755983815459
 20
290.2631389545362
 30
0.0
  0
ENDBLK
  5
1CAFB
330
1CAF9
100
AcDbEntity
  8
0
100
AcDbBlockEnd
  0
ENDSEC
  0
SECTION
  2
ENTITIES
  0
HATCH
  5
28AE
330
1F
100
AcDbEntity
  8
图层 1
 62
     7
100
AcDbHatch
 10
0.0
 20
0.0
 30
0.0
210
0.0
220
0.0
230
1.0
  2
SOLID
 70
     1
 71
     0
 91
        1
 92
        1
 93
        2
 72
     4
 94
        3
 73
     0
 74
     0
 95
       17
 96
       13
 40
0.0
 40
0.0
 40
0.0
 40
0.0
 40
0.3527780104152769
 40
0.3527780104152769
 40
0.3527780104152769
 40
0.7055560208305538
 40
0.7055560208305538
 40
0.7055560208305538
 40
1.058334031245828
 40
1.058334031245828
 40
1.058334031245828
 40
1.411112041661104
 40
1.411112041661104
 40
1.411112041661104
 40
1.411112041661104
 10
11.07013262565829
 20
29.50312817963231
 10
11.07013262565829
 20
29.50312817963231
 10
10.9431807732774
 20
29.50312817963231
 10
10.9431807732774
 20
29.50312817963231
 10
10.9431807732774
 20
29.50312817963231
 10
10.85843136843155
 20
29.22786486877117
 10
10.85843136843155
 20
29.22786486877117
 10
10.85843136843155
 20
29.22786486877117
 10
10.90080607085448
 20
29.2068497724476
 10
10.90080607085448
 20
29.2068497724476
 10
10.94455881238059
 20
29.31571486159919
 10
11.00346998404173
 20
29.40907701083995
 10
11.07013262565829
 20
29.50312817963231
 72
     1
 10
11.07013262565829
 20
29.50312817963231
 11
11.07013262565829
 21
29.50312817963231
 97
        0
 75
     0
 76
     1
 98
        0
450
        0
451
        0
460
0.0
461
0.0
452
        0
462
0.0
453
        0
470

  0
HATCH
  5
2C65
330
1F
100
AcDbEntity
  8
图层 1
 62
     7
100
AcDbHatch
 10
0.0
 20
0.0
 30
0.0
210
0.0
220
0.0
230
1.0
  2
SOLID
 70
     1
 71
     0
 91
        1
 92
        1
 93
        2
 72
     4
 94
        3
 73
     0
 74
     0
 95
       47
 96
       43
 40
0.0
 40
0.0
 40
0.0
 40
0.0
 40
0.3527780104152769
 40
0.3527780104152769
 40
0.3527780104152769
 40
0.7055560208305538
 40
0.7055560208305538
 40
0.7055560208305538
 40
1.058334031245828
 40
1.058334031245828
 40
1.058334031245828
 40
1.411112041661104
 40
1.411112041661104
 40
1.411112041661104
 40
1.763890052076384
 40
1.763890052076384
 40
1.763890052076384
 40
2.116668062491659
 40
2.116668062491659
 40
2.116668062491659
 40
2.469446072906936
 40
2.469446072906936
 40
2.469446072906936
 40
2.822224083322215
 40
2.822224083322215
 40
2.822224083322215
 40
3.175002093737492
 40
3.175002093737492
 40
3.175002093737492
 40
3.527780104152768
 40
3.527780104152768
 40
3.527780104152768
 40
3.880558114568044
 40
3.880558114568044
 40
3.880558114568044
 40
4.233336124983321
 40
4.233336124983321
 40
4.233336124983321
 40
4.586114135398599
 40
4.586114135398599
 40
4.586114135398599
 40
4.938892145813873
 40
4.938892145813873
 40
4.938892145813873
 40
4.938892145813873
 10
162.8986914070121
 20
257.4895347631509
 10
162.8986914070121
 20
257.4895347631509
 10
162.9200510131114
 20
257.4471600607279
 10
162.9200510131114
 20
257.4471600607279
 10
162.9200510131114
 20
257.4471600607279
 10
162.9200510131114
 20
257.404785358305
 10
162.9200510131114
 20
257.404785358305
 10
162.9200510131114
 20
257.404785358305
 10
162.8986914070121
 20
257.36258291077
 10
162.8986914070121
 20
257.36258291077
 10
162.8986914070121
 20
257.36258291077
 10
162.8986914070121
 20
257.320208208347
 10
162.8986914070121
 20
257.320208208347
 10
162.8986914070121
 20
257.320208208347
 10
162.8563167045891
 20
257.2990208571356
 10
162.8563167045891
 20
257.2990208571356
 10
162.8563167045891
 20
257.2990208571356
 10
162.8139420021662
 20
257.2563016449369
 10
162.8139420021662
 20
257.2563016449369
 10
162.8139420021662
 20
257.2563016449369
 10
162.7295371070961
 20
257.2563016449369
 10
162.7295371070961
 20
257.2563016449369
 10
162.7295371070961
 20
257.2563016449369
 10
162.6658027985738
 20
257.2778335059241
 10
162.6658027985738
 20
257.2778335059241
 10
162.6658027985738
 20
257.2778335059241
 10
162.6237726059267
 20
257.2990208571356
 10
162.6237726059267
 20
257.2990208571356
 10
162.6237726059267
 20
257.2990208571356
 10
162.5813979035038
 20
257.3413955595585
 10
162.5813979035038
 20
257.3413955595585
 10
162.5813979035038
 20
257.3413955595585
 10
162.5813979035038
 20
257.4895347631509
 10
162.5813979035038
 20
257.4895347631509
 10
162.5813979035038
 20
257.4895347631509
 10
162.6447877022503
 20
257.5525800521216
 10
162.6447877022503
 20
257.5525800521216
 10
162.6447877022503
 20
257.5525800521216
 10
162.7081775009967
 20
257.5525800521216
 10
162.7081775009967
 20
257.5525800521216
 10
162.8749202324821
 20
257.5424170137356
 10
162.7918933765152
 20
257.5939212252171
 10
162.8986914070121
 20
257.4895347631509
 72
     1
 10
162.8986914070121
 20
257.4895347631509
 11
162.8986914070121
 21
257.4895347631509
 97
        0
 75
     0
 76
     1
 98
        0
450
        0
451
        0
460
0.0
461
0.0
452
        0
462
0.0
453
        0
470

  0
HATCH
  5
2EE7
330
1F
100
AcDbEntity
  8
图层 1
 62
     7
100
AcDbHatch
 10
0.0
 20
0.0
 30
0.0
210
0.0
220
0.0
230
1.0
  2
SOLID
 70
     1
 71
     0
 91
        1
 92
        1
 93
        2
 72
     4
 94
        3
 73
     0
 74
     0
 95
       56
 96
       52
 40
0.0
 40
0.0
 40
0.0
 40
0.0
 40
0.3527780104152769
 40
0.3527780104152769
 40
0.3527780104152769
 40
0.7055560208305538
 40
0.7055560208305538
 40
0.7055560208305538
 40
1.058334031245828
 40
1.058334031245828
 40
1.058334031245828
 40
1.411112041661104
 40
1.411112041661104
 40
1.411112041661104
 40
1.763890052076384
 40
1.763890052076384
 40
1.763890052076384
 40
2.116668062491659
 40
2.116668062491659
 40
2.116668062491659
 40
2.469446072906936
 40
2.469446072906936
 40
2.469446072906936
 40
2.822224083322215
 40
2.822224083322215
 40
2.822224083322215
 40
3.175002093737492
 40
3.175002093737492
 40
3.175002093737492
 40
3.527780104152768
 40
3.527780104152768
 40
3.527780104152768
 40
3.880558114568044
 40
3.880558114568044
 40
3.880558114568044
 40
4.233336124983321
 40
4.233336124983321
 40
4.233336124983321
 40
4.586114135398599
 40
4.586114135398599
 40
4.586114135398599
 40
4.938892145813873
 40
4.938892145813873
 40
4.938892145813873
 40
5.291670156229153
 40
5.291670156229153
 40
5.291670156229153
 40
5.64444816664443
 40
5.64444816664443
 40
5.64444816664443
 40
5.997226177059705
 40
5.997226177059705
 40
5.997226177059705
 40
5.997226177059705
 10
185.4837187788815
 20
241.4451977396596
 10
185.4837187788815
 20
241.4451977396596
 10
185.4837187788815
 20
241.4028230372367
 10
185.4837187788815
 20
241.4028230372367
 10
185.4837187788815
 20
241.4028230372367
 10
185.5047338752051
 20
241.3604483348137
 10
185.5047338752051
 20
241.3604483348137
 10
185.4520238795082
 20
241.2782827532863
 10
185.4671823096433
 20
241.1897437409066
 10
185.335579575289
 20
241.2119646214456
 10
185.335579575289
 20
241.2119646214456
 10
185.2932048728662
 20
241.2119646214456
 10
185.2932048728662
 20
241.2119646214456
 10
185.2932048728662
 20
241.2119646214456
 10
185.2294705643439
 20
241.2334964824328
 10
185.2294705643439
 20
241.2334964824328
 10
185.2294705643439
 20
241.2334964824328
 10
185.1660807655974
 20
241.2543393238685
 10
185.1660807655974
 20
241.2543393238685
 10
185.1660807655974
 20
241.2543393238685
 10
185.1450656692739
 20
241.2758711848558
 10
185.1450656692739
 20
241.2758711848558
 10
185.1450656692739
 20
241.2758711848558
 10
185.1450656692739
 20
241.2967140262914
 10
185.1450656692739
 20
241.2967140262914
 10
185.1450656692739
 20
241.2967140262914
 10
185.1237060631745
 20
241.3604483348137
 10
185.1237060631745
 20
241.3604483348137
 10
185.1237060631745
 20
241.3604483348137
 10
185.1237060631745
 20
241.4028230372367
 10
185.1237060631745
 20
241.4028230372367
 10
185.1237060631745
 20
241.4028230372367
 10
185.1660807655974
 20
241.4875724420825
 10
185.1660807655974
 20
241.4875724420825
 10
185.1660807655974
 20
241.4875724420825
 10
185.2084554680203
 20
241.5085875384061
 10
185.2084554680203
 20
241.5085875384061
 10
185.2084554680203
 20
241.5085875384061
 10
185.2718452667668
 20
241.5297748896175
 10
185.2718452667668
 20
241.5297748896175
 10
185.2718452667668
 20
241.5297748896175
 10
185.3565946716127
 20
241.5297748896175
 10
185.3565946716127
 20
241.5297748896175
 10
185.3565946716127
 20
241.5297748896175
 10
185.4199844703592
 20
241.5085875384061
 10
185.4199844703592
 20
241.5085875384061
 10
185.4199844703592
 20
241.5085875384061
 10
185.4623591727821
 20
241.4875724420825
 10
185.4623591727821
 20
241.4875724420825
 10
185.4623591727821
 20
241.4875724420825
 10
185.4837187788815
 20
241.4451977396596
 10
185.4837187788815
 20
241.4451977396596
 72
     1
 10
185.4837187788815
 20
241.4451977396596
 11
185.4837187788815
 21
241.4451977396596
 97
        0
 75
     0
 76
     1
 98
        0
450
        0
451
        0
460
0.0
461
0.0
452
        0
462
0.0
453
        0
470

  0
HATCH
  5
2F93
330
1F
100
AcDbEntity
  8
图层 1
 62
     7
100
AcDbHatch
 10
0.0
 20
0.0
 30
0.0
210
0.0
220
0.0
230
1.0
  2
SOLID
 70
     1
 71
     0
 91
        1
 92
        1
 93
        2
 72
     4
 94
        3
 73
     0
 74
     0
 95
       38
 96
       34
 40
0.0
 40
0.0
 40
0.0
 40
0.0
 40
0.3527780104152769
 40
0.3527780104152769
 40
0.3527780104152769
 40
0.7055560208305538
 40
0.7055560208305538
 40
0.7055560208305538
 40
1.058334031245828
 40
1.058334031245828
 40
1.058334031245828
 40
1.411112041661104
 40
1.411112041661104
 40
1.411112041661104
 40
1.763890052076384
 40
1.763890052076384
 40
1.763890052076384
 40
2.116668062491659
 40
2.116668062491659
 40
2.116668062491659
 40
2.469446072906936
 40
2.469446072906936
 40
2.469446072906936
 40
2.822224083322215
 40
2.822224083322215
 40
2.822224083322215
 40
3.175002093737492
 40
3.175002093737492
 40
3.175002093737492
 40
3.527780104152768
 40
3.527780104152768
 40
3.527780104152768
 40
3.880558114568044
 40
3.880558114568044
 40
3.880558114568044
 40
3.880558114568044
 10
185.907121293335
 20
220.1937677098971
 10
185.9005756075949
 20
220.0449394867532
 10
185.9329595265197
 20
220.1136691870245
 10
185.864746590912
 20
219.9817219428946
 10
185.864746590912
 20
219.9817219428946
 10
185.822371888489
 20
219.9605345916831
 10
185.822371888489
 20
219.9605345916831
 10
185.822371888489
 20
219.9605345916831
 10
185.6528730787974
 20
219.9605345916831
 10
185.6528730787974
 20
219.9605345916831
 10
185.6528730787974
 20
219.9605345916831
 10
185.5894832800509
 20
220.002909294106
 10
185.5894832800509
 20
220.002909294106
 10
185.5894832800509
 20
220.002909294106
 10
185.5681236739515
 20
220.0240966453175
 10
185.5681236739515
 20
220.0240966453175
 10
185.5681236739515
 20
220.0240966453175
 10
185.5681236739515
 20
220.045283996529
 10
185.5681236739515
 20
220.045283996529
 10
185.5681236739515
 20
220.045283996529
 10
185.547108577628
 20
220.0876586989519
 10
185.547108577628
 20
220.0876586989519
 10
185.547108577628
 20
220.0876586989519
 10
185.547108577628
 20
220.1513930074742
 10
185.547108577628
 20
220.1513930074742
 10
185.547108577628
 20
220.1513930074742
 10
185.5894832800509
 20
220.23614241232
 10
185.5894832800509
 20
220.23614241232
 10
185.5894832800509
 20
220.23614241232
 10
185.6318579824738
 20
220.2573297635315
 10
185.6318579824738
 20
220.2573297635315
 10
185.7055830744942
 20
220.2566407439799
 10
185.8416644359337
 20
220.3310548555519
 10
185.907121293335
 20
220.1937677098971
 72
     1
 10
185.907121293335
 20
220.1937677098971
 11
185.907121293335
 21
220.1937677098971
 97
        0
 75
     0
 76
     1
 98
        0
450
        0
451
        0
460
0.0
461
0.0
452
        0
462
0.0
453
        0
470

  0
HATCH
  5
2FDE
330
1F
100
AcDbEntity
  8
图层 1
 62
     7
100
AcDbHatch
 10
0.0
 20
0.0
 30
0.0
210
0.0
220
0.0
230
1.0
  2
SOLID
 70
     1
 71
     0
 91
        1
 92
        1
 93
        2
 72
     4
 94
        3
 73
     0
 74
     0
 95
       50
 96
       46
 40
0.0
 40
0.0
 40
0.0
 40
0.0
 40
0.3527780104152769
 40
0.3527780104152769
 40
0.3527780104152769
 40
0.7055560208305538
 40
0.7055560208305538
 40
0.7055560208305538
 40
1.058334031245828
 40
1.058334031245828
 40
1.058334031245828
 40
1.411112041661104
 40
1.411112041661104
 40
1.411112041661104
 40
1.763890052076384
 40
1.763890052076384
 40
1.763890052076384
 40
2.116668062491659
 40
2.116668062491659
 40
2.116668062491659
 40
2.469446072906936
 40
2.469446072906936
 40
2.469446072906936
 40
2.822224083322215
 40
2.822224083322215
 40
2.822224083322215
 40
3.175002093737492
 40
3.175002093737492
 40
3.175002093737492
 40
3.527780104152768
 40
3.527780104152768
 40
3.527780104152768
 40
3.880558114568044
 40
3.880558114568044
 40
3.880558114568044
 40
4.233336124983321
 40
4.233336124983321
 40
4.233336124983321
 40
4.586114135398599
 40
4.586114135398599
 40
4.586114135398599
 40
4.938892145813873
 40
4.938892145813873
 40
4.938892145813873
 40
5.291670156229153
 40
5.291670156229153
 40
5.291670156229153
 40
5.291670156229153
 10
180.9117295442905
 20
208.9327766684477
 10
180.9117295442905
 20
208.9327766684477
 10
180.9117295442905
 20
208.7637946234197
 10
180.9117295442905
 20
208.7637946234197
 10
181.2273004989198
 20
208.6749111012643
 10
181.3833634273555
 20
208.6776671794706
 10
181.6948002646751
 20
208.5097186637701
 10
181.9542161258496
 20
208.4294478860095
 10
182.1388733656765
 20
208.2134402565853
 10
182.3297317814676
 20
208.02292635057
 10
182.3297317814676
 20
208.02292635057
 10
182.435496282637
 20
208.065301052993
 10
182.435496282637
 20
208.065301052993
 10
182.288390608372
 20
208.2733849575739
 10
182.3752070718726
 20
208.2134402565853
 10
182.1605774815516
 20
208.3824223016133
 10
182.1605774815516
 20
208.3824223016133
 10
182.1182027791287
 20
208.4247970040363
 10
182.1182027791287
 20
208.4247970040363
 10
182.1182027791287
 20
208.4247970040363
 10
182.0968431730294
 20
208.467516216235
 10
182.0968431730294
 20
208.467516216235
 10
182.0968431730294
 20
208.467516216235
 10
182.0544684706064
 20
208.4883590576707
 10
182.0544684706064
 20
208.4883590576707
 10
182.0544684706064
 20
208.4883590576707
 10
181.9910786718599
 20
208.5305615052057
 10
181.9910786718599
 20
208.5305615052057
 10
181.9910786718599
 20
208.5305615052057
 10
181.948703969437
 20
208.552093366193
 10
181.948703969437
 20
208.552093366193
 10
181.948703969437
 20
208.552093366193
 10
181.9063292670141
 20
208.5729362076286
 10
181.9063292670141
 20
208.5729362076286
 10
181.9063292670141
 20
208.5729362076286
 10
181.8639545645911
 20
208.6156554198274
 10
181.8639545645911
 20
208.6156554198274
 10
181.8639545645911
 20
208.6156554198274
 10
181.821924371944
 20
208.6368427710388
 10
181.821924371944
 20
208.6368427710388
 10
181.6637943848536
 20
208.6742220817127
 10
181.5452830219797
 20
208.8092699138248
 10
181.3771622513911
 20
208.8061693258427
 10
181.2803550043924
 20
208.8573290275484
 10
181.0126709085988
 20
208.8971199066528
 10
180.9117295442905
 20
208.9327766684477
 72
     1
 10
180.9117295442905
 20
208.9327766684477
 11
180.9117295442905
 21
208.9327766684477
 97
        0
 75
     0
 76
     1
 98
        0
450
        0
451
        0
460
0.0
461
0.0
452
        0
462
0.0
453
        0
470

  0
HATCH
  5
35C8
330
1F
100
AcDbEntity
  8
图层 1
 62
     7
100
AcDbHatch
 10
0.0
 20
0.0
 30
0.0
210
0.0
220
0.0
230
1.0
  2
SOLID
 70
     1
 71
     0
 91
        1
 92
        1
 93
        2
 72
     4
 94
        3
 73
     0
 74
     0
 95
       38
 96
       34
 40
0.0
 40
0.0
 40
0.0
 40
0.0
 40
0.3527780104152769
 40
0.3527780104152769
 40
0.3527780104152769
 40
0.7055560208305538
 40
0.7055560208305538
 40
0.7055560208305538
 40
1.058334031245828
 40
1.058334031245828
 40
1.058334031245828
 40
1.411112041661104
 40
1.411112041661104
 40
1.411112041661104
 40
1.763890052076384
 40
1.763890052076384
 40
1.763890052076384
 40
2.116668062491659
 40
2.116668062491659
 40
2.116668062491659
 40
2.469446072906936
 40
2.469446072906936
 40
2.469446072906936
 40
2.822224083322215
 40
2.822224083322215
 40
2.822224083322215
 40
3.175002093737492
 40
3.175002093737492
 40
3.175002093737492
 40
3.527780104152768
 40
3.527780104152768
 40
3.527780104152768
 40
3.880558114568044
 40
3.880558114568044
 40
3.880558114568044
 40
3.880558114568044
 10
189.145513185819
 20
166.8326485368285
 10
189.207869455238
 20
166.740492171803
 10
189.1317327947871
 20
166.6833035490209
 10
189.103138483396
 20
166.6209472796017
 10
189.103138483396
 20
166.6209472796017
 10
189.0607637809731
 20
166.5997599283903
 10
189.0607637809731
 20
166.5997599283903
 10
189.0607637809731
 20
166.5997599283903
 10
188.9973739822266
 20
166.5785725771788
 10
188.9973739822266
 20
166.5785725771788
 10
188.9973739822266
 20
166.5785725771788
 10
188.9549992798037
 20
166.5997599283903
 10
188.9549992798037
 20
166.5997599283903
 10
188.9549992798037
 20
166.5997599283903
 10
188.8916094810572
 20
166.5997599283903
 10
188.8916094810572
 20
166.5997599283903
 10
188.8916094810572
 20
166.5997599283903
 10
188.8492347786343
 20
166.6209472796017
 10
188.8492347786343
 20
166.6209472796017
 10
188.8492347786343
 20
166.6209472796017
 10
188.8278751725349
 20
166.6633219820247
 10
188.8278751725349
 20
166.6633219820247
 10
188.8278751725349
 20
166.6633219820247
 10
188.8068600762114
 20
166.6845093332361
 10
188.8068600762114
 20
166.6845093332361
 10
188.8068600762114
 20
166.6845093332361
 10
188.8068600762114
 20
166.8326485368285
 10
188.8068600762114
 20
166.8326485368285
 10
188.8068600762114
 20
166.8326485368285
 10
188.8702498749578
 20
166.896038335575
 10
188.8702498749578
 20
166.896038335575
 10
189.0228677056355
 20
166.8819134347673
 10
189.0686875058164
 20
166.9411691162043
 10
189.145513185819
 20
166.8326485368285
 72
     1
 10
189.145513185819
 20
166.8326485368285
 11
189.145513185819
 21
166.8326485368285
 97
        0
 75
     0
 76
     1
 98
        0
450
        0
451
        0
460
0.0
461
0.0
452
        0
462
0.0
453
        0
470

  0
HATCH
  5
35D8
330
1F
100
AcDbEntity
  8
图层 1
 62
     7
100
AcDbHatch
 10
0.0
 20
0.0
 30
0.0
210
0.0
220
0.0
230
1.0
  2
SOLID
 70
     1
 71
     0
 91
        1
 92
        1
 93
        2
 72
     4
 94
        3
 73
     0
 74
     0
 95
       68
 96
       64
 40
0.0
 40
0.0
 40
0.0
 40
0.0
 40
0.3527780104152769
 40
0.3527780104152769
 40
0.3527780104152769
 40
0.7055560208305538
 40
0.7055560208305538
 40
0.7055560208305538
 40
1.058334031245828
 40
1.058334031245828
 40
1.058334031245828
 40
1.411112041661104
 40
1.411112041661104
 40
1.411112041661104
 40
1.763890052076384
 40
1.763890052076384
 40
1.763890052076384
 40
2.116668062491659
 40
2.116668062491659
 40
2.116668062491659
 40
2.469446072906936
 40
2.469446072906936
 40
2.469446072906936
 40
2.822224083322215
 40
2.822224083322215
 40
2.822224083322215
 40
3.175002093737492
 40
3.175002093737492
 40
3.175002093737492
 40
3.527780104152768
 40
3.527780104152768
 40
3.527780104152768
 40
3.880558114568044
 40
3.880558114568044
 40
3.880558114568044
 40
4.233336124983321
 40
4.233336124983321
 40
4.233336124983321
 40
4.586114135398599
 40
4.586114135398599
 40
4.586114135398599
 40
4.938892145813873
 40
4.938892145813873
 40
4.938892145813873
 40
5.291670156229153
 40
5.291670156229153
 40
5.291670156229153
 40
5.64444816664443
 40
5.64444816664443
 40
5.64444816664443
 40
5.997226177059705
 40
5.997226177059705
 40
5.997226177059705
 40
6.350004187474984
 40
6.350004187474984
 40
6.350004187474984
 40
6.702782197890257
 40
6.702782197890257
 40
6.702782197890257
 40
7.055560208305537
 40
7.055560208305537
 40
7.055560208305537
 40
7.408338218720808
 40
7.408338218720808
 40
7.408338218720808
 40
7.408338218720808
 10
174.7732543591544
 20
135.4846705078077
 10
174.7732543591544
 20
135.4846705078077
 10
174.7732543591544
 20
135.3789060066383
 10
174.7732543591544
 20
135.3789060066383
 10
174.7732543591544
 20
135.3789060066383
 10
174.8156290615773
 20
135.3789060066383
 10
174.8156290615773
 20
135.3789060066383
 10
174.8156290615773
 20
135.3789060066383
 10
174.8580037640002
 20
135.3578909103147
 10
174.8580037640002
 20
135.3578909103147
 10
174.8580037640002
 20
135.3578909103147
 10
174.9213935627468
 20
135.3578909103147
 10
174.9213935627468
 20
135.3578909103147
 10
174.9213935627468
 20
135.3578909103147
 10
174.9637682651697
 20
135.3365313042154
 10
174.9637682651697
 20
135.3365313042154
 10
174.9637682651697
 20
135.3365313042154
 10
174.9847833614933
 20
135.3365313042154
 10
174.9847833614933
 20
135.3365313042154
 10
174.9847833614933
 20
135.3365313042154
 10
175.0271580639162
 20
135.3155162078918
 10
175.0271580639162
 20
135.3155162078918
 10
175.0271580639162
 20
135.3155162078918
 10
175.0485176700155
 20
135.2941566017924
 10
175.0485176700155
 20
135.2941566017924
 10
175.0485176700155
 20
135.2941566017924
 10
175.0695327663391
 20
135.2941566017924
 10
175.0695327663391
 20
135.2941566017924
 10
175.0695327663391
 20
135.2941566017924
 10
175.0908923724385
 20
135.2731415054689
 10
175.0908923724385
 20
135.2731415054689
 10
175.0908923724385
 20
135.2731415054689
 10
175.1332670748614
 20
135.2731415054689
 10
175.1332670748614
 20
135.2731415054689
 10
175.1332670748614
 20
135.2731415054689
 10
175.154282171185
 20
135.2517818993695
 10
175.154282171185
 20
135.2517818993695
 10
175.154282171185
 20
135.2517818993695
 10
175.154282171185
 20
135.3578909103147
 10
175.154282171185
 20
135.3578909103147
 10
175.154282171185
 20
135.3578909103147
 10
175.1332670748614
 20
135.3789060066383
 10
175.1332670748614
 20
135.3789060066383
 10
175.1332670748614
 20
135.3789060066383
 10
175.0908923724385
 20
135.3789060066383
 10
175.0908923724385
 20
135.3789060066383
 10
175.0908923724385
 20
135.3789060066383
 10
175.0908923724385
 20
135.3999211029619
 10
175.0908923724385
 20
135.3999211029619
 10
175.0908923724385
 20
135.3999211029619
 10
175.0695327663391
 20
135.3999211029619
 10
175.0695327663391
 20
135.3999211029619
 10
175.0695327663391
 20
135.3999211029619
 10
175.0271580639162
 20
135.4212807090612
 10
175.0271580639162
 20
135.4212807090612
 10
175.0271580639162
 20
135.4212807090612
 10
175.0061429675926
 20
135.4212807090612
 10
175.0061429675926
 20
135.4212807090612
 10
175.0061429675926
 20
135.4212807090612
 10
174.9637682651697
 20
135.4422958053848
 10
174.9637682651697
 20
135.4422958053848
 10
174.8996894468716
 20
135.4498750204523
 10
174.8394002361073
 20
135.4860485469109
 10
174.7732543591544
 20
135.4846705078077
 72
     1
 10
174.7732543591544
 20
135.4846705078077
 11
174.7732543591544
 21
135.4846705078077
 97
        0
 75
     0
 76
     1
 98
        0
450
        0
451
        0
460
0.0
461
0.0
452
        0
462
0.0
453
        0
470

  0
HATCH
  5
3807
330
1F
100
AcDbEntity
  8
图层 1
 62
     7
100
AcDbHatch
 10
0.0
 20
0.0
 30
0.0
210
0.0
220
0.0
230
1.0
  2
SOLID
 70
     1
 71
     0
 91
        1
 92
        1
 93
        2
 72
     4
 94
        3
 73
     0
 74
     0
 95
       29
 96
       25
 40
0.0
 40
0.0
 40
0.0
 40
0.0
 40
0.3527780104152769
 40
0.3527780104152769
 40
0.3527780104152769
 40
0.7055560208305538
 40
0.7055560208305538
 40
0.7055560208305538
 40
1.058334031245828
 40
1.058334031245828
 40
1.058334031245828
 40
1.411112041661104
 40
1.411112041661104
 40
1.411112041661104
 40
1.763890052076384
 40
1.763890052076384
 40
1.763890052076384
 40
2.116668062491659
 40
2.116668062491659
 40
2.116668062491659
 40
2.469446072906936
 40
2.469446072906936
 40
2.469446072906936
 40
2.822224083322215
 40
2.822224083322215
 40
2.822224083322215
 40
2.822224083322215
 10
175.4929352807925
 20
164.0174869039101
 10
175.4929352807925
 20
164.0174869039101
 10
175.5139503771161
 20
163.9751122014871
 10
175.5139503771161
 20
163.9751122014871
 10
175.5139503771161
 20
163.9751122014871
 10
175.5139503771161
 20
163.9327374990642
 10
175.5139503771161
 20
163.9327374990642
 10
175.5139503771161
 20
163.9327374990642
 10
175.4929352807925
 20
163.8903627966413
 10
175.4929352807925
 20
163.8903627966413
 10
175.4929352807925
 20
163.8903627966413
 10
175.471920184469
 20
163.8691754454298
 10
175.471920184469
 20
163.8691754454298
 10
175.471920184469
 20
163.8691754454298
 10
175.4505605783696
 20
163.8269729978948
 10
175.4505605783696
 20
163.8269729978948
 10
175.3571984291289
 20
163.7715069239916
 10
175.272449024283
 20
163.8195660377152
 10
175.1966568736079
 20
163.8691754454298
 10
175.208370205985
 20
163.9930267098286
 10
175.1563492298397
 20
164.0216210212197
 10
175.2600466723544
 20
164.0596893514451
 10
175.3330827448232
 20
164.1094710140476
 10
175.4357466580104
 20
164.0753645462439
 10
175.4929352807925
 20
164.0174869039101
 72
     1
 10
175.4929352807925
 20
164.0174869039101
 11
175.4929352807925
 21
164.0174869039101
 97
        0
 75
     0
 76
     1
 98
        0
450
        0
451
        0
460
0.0
461
0.0
452
        0
462
0.0
453
        0
470

  0
HATCH
  5
3895
330
1F
100
AcDbEntity
  8
图层 1
 62
     7
100
AcDbHatch
 10
0.0
 20
0.0
 30
0.0
210
0.0
220
0.0
230
1.0
  2
SOLID
 70
     1
 71
     0
 91
        1
 92
        1
 93
        2
 72
     4
 94
        3
 73
     0
 74
     0
 95
       11
 96
        7
 40
0.0
 40
0.0
 40
0.0
 40
0.0
 40
0.3527780104152769
 40
0.3527780104152769
 40
0.3527780104152769
 40
0.7055560208305538
 40
0.7055560208305538
 40
0.7055560208305538
 40
0.7055560208305538
 10
174.9213935627468
 20
174.5369206529582
 10
174.9213935627468
 20
174.5369206529582
 10
174.9213935627468
 20
174.3043765542958
 10
174.9213935627468
 20
174.3043765542958
 10
174.9213935627468
 20
174.3043765542958
 10
174.9213935627468
 20
174.5369206529582
 10
174.9213935627468
 20
174.5369206529582
 72
     1
 10
174.9213935627468
 20
174.5369206529582
 11
174.9213935627468
 21
174.5369206529582
 97
        0
 75
     0
 76
     1
 98
        0
450
        0
451
        0
460
0.0
461
0.0
452
        0
462
0.0
453
        0
470

  0
HATCH
  5
3943
330
1F
100
AcDbEntity
  8
图层 1
 62
     7
100
AcDbHatch
 10
0.0
 20
0.0
 30
0.0
210
0.0
220
0.0
230
1.0
  2
SOLID
 70
     1
 71
     0
 91
        1
 92
        1
 93
        2
 72
     4
 94
        3
 73
     0
 74
     0
 95
      131
 96
      127
 40
0.0
 40
0.0
 40
0.0
 40
0.0
 40
0.3527780104152769
 40
0.3527780104152769
 40
0.3527780104152769
 40
0.7055560208305538
 40
0.7055560208305538
 40
0.7055560208305538
 40
1.058334031245828
 40
1.058334031245828
 40
1.058334031245828
 40
1.411112041661104
 40
1.411112041661104
 40
1.411112041661104
 40
1.763890052076384
 40
1.763890052076384
 40
1.763890052076384
 40
2.116668062491659
 40
2.116668062491659
 40
2.116668062491659
 40
2.469446072906936
 40
2.469446072906936
 40
2.469446072906936
 40
2.822224083322215
 40
2.822224083322215
 40
2.822224083322215
 40
3.175002093737492
 40
3.175002093737492
 40
3.175002093737492
 40
3.527780104152768
 40
3.527780104152768
 40
3.527780104152768
 40
3.880558114568044
 40
3.880558114568044
 40
3.880558114568044
 40
4.233336124983321
 40
4.233336124983321
 40
4.233336124983321
 40
4.586114135398599
 40
4.586114135398599
 40
4.586114135398599
 40
4.938892145813873
 40
4.938892145813873
 40
4.938892145813873
 40
5.291670156229153
 40
5.291670156229153
 40
5.291670156229153
 40
5.64444816664443
 40
5.64444816664443
 40
5.64444816664443
 40
5.997226177059705
 40
5.997226177059705
 40
5.997226177059705
 40
6.350004187474984
 40
6.350004187474984
 40
6.350004187474984
 40
6.702782197890257
 40
6.702782197890257
 40
6.702782197890257
 40
7.055560208305537
 40
7.055560208305537
 40
7.055560208305537
 40
7.408338218720808
 40
7.408338218720808
 40
7.408338218720808
 40
7.76111622913609
 40
7.76111622913609
 40
7.76111622913609
 40
8.113894239551369
 40
8.113894239551369
 40
8.113894239551369
 40
8.466672249966642
 40
8.466672249966642
 40
8.466672249966642
 40
8.819450260381922
 40
8.819450260381922
 40
8.819450260381922
 40
9.172228270797198
 40
9.172228270797198
 40
9.172228270797198
 40
9.525006281212476
 40
9.525006281212476
 40
9.525006281212476
 40
9.877784291627751
 40
9.877784291627751
 40
9.877784291627751
 40
10.23056230204303
 40
10.23056230204303
 40
10.23056230204303
 40
10.58334031245831
 40
10.58334031245831
 40
10.58334031245831
 40
10.93611832287358
 40
10.93611832287358
 40
10.93611832287358
 40
11.28889633328886
 40
11.28889633328886
 40
11.28889633328886
 40
11.64167434370414
 40
11.64167434370414
 40
11.64167434370414
 40
11.99445235411941
 40
11.99445235411941
 40
11.99445235411941
 40
12.34723036453469
 40
12.34723036453469
 40
12.34723036453469
 40
12.70000837494997
 40
12.70000837494997
 40
12.70000837494997
 40
13.05278638536524
 40
13.05278638536524
 40
13.05278638536524
 40
13.40556439578052
 40
13.40556439578052
 40
13.40556439578052
 40
13.7583424061958
 40
13.7583424061958
 40
13.7583424061958
 40
14.11112041661107
 40
14.11112041661107
 40
14.11112041661107
 40
14.46389842702635
 40
14.46389842702635
 40
14.46389842702635
 40
14.81667643744163
 40
14.81667643744163
 40
14.81667643744163
 40
14.81667643744163
 10
173.3972823146245
 20
126.8274843518258
 10
173.3972823146245
 20
126.8274843518258
 10
173.3972823146245
 20
126.7217198506564
 10
173.3972823146245
 20
126.7217198506564
 10
173.3972823146245
 20
126.7217198506564
 10
173.4186419207238
 20
126.7217198506564
 10
173.4186419207238
 20
126.7217198506564
 10
173.4186419207238
 20
126.7217198506564
 10
173.4820317194703
 20
126.7007047543328
 10
173.4820317194703
 20
126.7007047543328
 10
173.4820317194703
 20
126.7007047543328
 10
173.5244064218933
 20
126.6793451482334
 10
173.5244064218933
 20
126.6793451482334
 10
173.5244064218933
 20
126.6793451482334
 10
173.5877962206398
 20
126.6793451482334
 10
173.5877962206398
 20
126.6793451482334
 10
173.5877962206398
 20
126.6793451482334
 10
173.6301709230627
 20
126.6583300519099
 10
173.6301709230627
 20
126.6583300519099
 10
173.7955356154449
 20
126.5911506456296
 10
173.759706598762
 20
126.6380039751379
 10
173.9478089363468
 20
126.5525655507404
 10
173.9478089363468
 20
126.5525655507404
 10
173.9688240326703
 20
126.4464565397952
 10
173.9688240326703
 20
126.4464565397952
 10
173.9688240326703
 20
126.4464565397952
 10
174.0325583411926
 20
126.5101908483175
 10
174.0325583411926
 20
126.5101908483175
 10
174.0325583411926
 20
126.5101908483175
 10
174.0749330436156
 20
126.5101908483175
 10
174.0749330436156
 20
126.5101908483175
 10
174.0749330436156
 20
126.5101908483175
 10
174.1593379386856
 20
126.4678161458946
 10
174.1593379386856
 20
126.4678161458946
 10
174.1593379386856
 20
126.4678161458946
 10
174.180697544785
 20
126.4464565397952
 10
174.180697544785
 20
126.4464565397952
 10
174.2464989119621
 20
126.3982251711837
 10
174.3298702777047
 20
126.3716979184474
 10
174.3922265471239
 20
126.3196769423022
 10
174.608234176548
 20
126.2059887162895
 10
174.7749769080334
 20
126.0278771622029
 10
174.9637682651697
 20
125.8749148217494
 10
174.9637682651697
 20
125.8749148217494
 10
175.0061429675926
 20
125.9172895241723
 10
175.0061429675926
 20
125.9172895241723
 10
174.961356696739
 20
125.9631093243532
 10
174.782211613325
 20
126.1246844092016
 10
174.7308796567315
 20
126.1501781326105
 10
174.7308796567315
 20
126.1501781326105
 10
174.6885049543085
 20
126.1925528350335
 10
174.6885049543085
 20
126.1925528350335
 10
174.6885049543085
 20
126.1925528350335
 10
174.667489857985
 20
126.2349275374564
 10
174.667489857985
 20
126.2349275374564
 10
174.667489857985
 20
126.2349275374564
 10
174.625115155562
 20
126.2559426337799
 10
174.625115155562
 20
126.2559426337799
 10
174.625115155562
 20
126.2559426337799
 10
174.5827404531391
 20
126.2983173362029
 10
174.5827404531391
 20
126.2983173362029
 10
174.5827404531391
 20
126.2983173362029
 10
174.5403657507162
 20
126.3196769423022
 10
174.5403657507162
 20
126.3196769423022
 10
174.5403657507162
 20
126.3196769423022
 10
174.4979910482932
 20
126.3620516447252
 10
174.4979910482932
 20
126.3620516447252
 10
174.4735308542117
 20
126.3875453681341
 10
174.3247026310678
 20
126.4695386947736
 10
174.2864620459544
 20
126.4888312422181
 10
174.2864620459544
 20
126.4888312422181
 10
174.2654469496308
 20
126.5101908483175
 10
174.2654469496308
 20
126.5101908483175
 10
174.2654469496308
 20
126.5101908483175
 10
174.2230722472079
 20
126.5312059446411
 10
174.2230722472079
 20
126.5312059446411
 10
174.2230722472079
 20
126.5312059446411
 10
174.2017126411085
 20
126.5525655507404
 10
174.2017126411085
 20
126.5525655507404
 10
174.2017126411085
 20
126.5525655507404
 10
174.1383228423621
 20
126.573580647064
 10
174.1383228423621
 20
126.573580647064
 10
174.1383228423621
 20
126.573580647064
 10
174.1169632362627
 20
126.5945957433876
 10
174.1169632362627
 20
126.5945957433876
 10
174.1169632362627
 20
126.5945957433876
 10
174.0959481399391
 20
126.7007047543328
 10
174.0959481399391
 20
126.7007047543328
 10
174.0959481399391
 20
126.7007047543328
 10
174.0325583411926
 20
126.6369704458105
 10
174.0325583411926
 20
126.6369704458105
 10
174.0325583411926
 20
126.6369704458105
 10
173.9901836387697
 20
126.6369704458105
 10
173.9901836387697
 20
126.6369704458105
 10
173.9901836387697
 20
126.6369704458105
 10
173.9054342339239
 20
126.6793451482334
 10
173.9054342339239
 20
126.6793451482334
 10
173.9054342339239
 20
126.6793451482334
 10
173.8420444351773
 20
126.7007047543328
 10
173.8420444351773
 20
126.7007047543328
 10
173.8420444351773
 20
126.7007047543328
 10
173.7996697327544
 20
126.7217198506564
 10
173.7996697327544
 20
126.7217198506564
 10
173.7996697327544
 20
126.7217198506564
 10
173.7572950303315
 20
126.7217198506564
 10
173.7572950303315
 20
126.7217198506564
 10
173.7572950303315
 20
126.7217198506564
 10
173.6725456254856
 20
126.7640945530793
 10
173.6725456254856
 20
126.7640945530793
 10
173.6725456254856
 20
126.7640945530793
 10
173.6515305291621
 20
126.7640945530793
 10
173.6515305291621
 20
126.7640945530793
 10
173.6515305291621
 20
126.7640945530793
 10
173.5667811243162
 20
126.7851096494029
 10
173.5667811243162
 20
126.7851096494029
 10
173.5667811243162
 20
126.7851096494029
 10
173.5033913255697
 20
126.8064692555022
 10
173.5033913255697
 20
126.8064692555022
 10
173.5033913255697
 20
126.8064692555022
 10
173.4396570170474
 20
126.8064692555022
 10
173.4396570170474
 20
126.8064692555022
 10
173.4396570170474
 20
126.8064692555022
 10
173.4186419207238
 20
126.8274843518258
 10
173.4186419207238
 20
126.8274843518258
 10
173.4186419207238
 20
126.8274843518258
 10
173.3972823146245
 20
126.8274843518258
 10
173.3972823146245
 20
126.8274843518258
 72
     1
 10
173.3972823146245
 20
126.8274843518258
 11
173.3972823146245
 21
126.8274843518258
 97
        0
 75
     0
 76
     1
 98
        0
450
        0
451
        0
460
0.0
461
0.0
452
        0
462
0.0
453
        0
470

  0
HATCH
  5
4842
330
1F
100
AcDbEntity
  8
图层 1
 62
     7
100
AcDbHatch
 10
0.0
 20
0.0
 30
0.0
210
0.0
220
0.0
230
1.0
  2
SOLID
 70
     1
 71
     0
 91
        1
 92
        1
 93
        2
 72
     4
 94
        3
 73
     0
 74
     0
 95
       47
 96
       43
 40
0.0
 40
0.0
 40
0.0
 40
0.0
 40
0.3527780104152769
 40
0.3527780104152769
 40
0.3527780104152769
 40
0.7055560208305538
 40
0.7055560208305538
 40
0.7055560208305538
 40
1.058334031245828
 40
1.058334031245828
 40
1.058334031245828
 40
1.411112041661104
 40
1.411112041661104
 40
1.411112041661104
 40
1.763890052076384
 40
1.763890052076384
 40
1.763890052076384
 40
2.116668062491659
 40
2.116668062491659
 40
2.116668062491659
 40
2.469446072906936
 40
2.469446072906936
 40
2.469446072906936
 40
2.822224083322215
 40
2.822224083322215
 40
2.822224083322215
 40
3.175002093737492
 40
3.175002093737492
 40
3.175002093737492
 40
3.527780104152768
 40
3.527780104152768
 40
3.527780104152768
 40
3.880558114568044
 40
3.880558114568044
 40
3.880558114568044
 40
4.233336124983321
 40
4.233336124983321
 40
4.233336124983321
 40
4.586114135398599
 40
4.586114135398599
 40
4.586114135398599
 40
4.938892145813873
 40
4.938892145813873
 40
4.938892145813873
 40
4.938892145813873
 10
180.1920486226523
 20
255.6479577566324
 10
180.1920486226523
 20
255.6479577566324
 10
180.2130637189759
 20
255.6055830542095
 10
180.2130637189759
 20
255.6055830542095
 10
180.2130637189759
 20
255.6055830542095
 10
180.2130637189759
 20
255.5210059042515
 10
180.2130637189759
 20
255.5210059042515
 10
180.2130637189759
 20
255.5210059042515
 10
180.1920486226523
 20
255.4786312018286
 10
180.1920486226523
 20
255.4786312018286
 10
180.1920486226523
 20
255.4786312018286
 10
180.1496739202294
 20
255.4359119896299
 10
180.1496739202294
 20
255.4359119896299
 10
180.1496739202294
 20
255.4359119896299
 10
180.1283143141301
 20
255.4147246384184
 10
180.1283143141301
 20
255.4147246384184
 10
180.1283143141301
 20
255.4147246384184
 10
180.0225498129606
 20
255.4147246384184
 10
180.0225498129606
 20
255.4147246384184
 10
180.0225498129606
 20
255.4147246384184
 10
179.9591600142141
 20
255.4359119896299
 10
179.9591600142141
 20
255.4359119896299
 10
179.9591600142141
 20
255.4359119896299
 10
179.9167853117912
 20
255.4570993408414
 10
179.9167853117912
 20
255.4570993408414
 10
179.9167853117912
 20
255.4570993408414
 10
179.8957702154676
 20
255.4786312018286
 10
179.8957702154676
 20
255.4786312018286
 10
179.8957702154676
 20
255.4786312018286
 10
179.8744106093683
 20
255.4994740432643
 10
179.8744106093683
 20
255.4994740432643
 10
179.8744106093683
 20
255.4994740432643
 10
179.8744106093683
 20
255.6479577566324
 10
179.8744106093683
 20
255.6479577566324
 10
179.9608825630931
 20
255.7323626517025
 10
180.045631967939
 20
255.7085914771726
 10
180.1496739202294
 20
255.7115198102668
 10
180.1496739202294
 20
255.7115198102668
 10
180.170689016553
 20
255.6688005980681
 10
180.170689016553
 20
255.6688005980681
 10
180.170689016553
 20
255.6688005980681
 10
180.1920486226523
 20
255.6479577566324
 10
180.1920486226523
 20
255.6479577566324
 72
     1
 10
180.1920486226523
 20
255.6479577566324
 11
180.1920486226523
 21
255.6479577566324
 97
        0
 75
     0
 76
     1
 98
        0
450
        0
451
        0
460
0.0
461
0.0
452
        0
462
0.0
453
        0
470

  0
MTEXT
  5
19F50
102
{ACAD_XDICTIONARY
360
1CD0E
102
}
330
1F
100
AcDbEntity
  8
打标文字
 62
     3
100
AcDbMText
 10
1047.493425850153
 20
316.0812296510124
 30
0.0
 40
1.919999999999999
 41
55.20308354782804
 46
69.0071111013369
 71
     1
 72
     5
  3
\A1;{\f仿宋_GB2312|b0|i0|c134|p49;技术参数}:\P- {\f仿宋_GB2312|b0|i0|c134|p49;材料}: {\f仿宋_GB2312|b0|i0|c134|p49;铜合金}\P- {\f仿宋_GB2312|b0|i0|c134|p49;表面处理}: {\f仿宋_GB2312|b0|i0|c134|p49;镀银}\P- {\f仿宋_GB2312|b0|i0|c134|p49;额定电流}: 350A\P- {\f仿宋_GB2312|b0|i0|c134|p4
  3
9;接触电阻}: ≤0.3mΩ\P- {\f仿宋_GB2312|b0|i0|c134|p49;线径范围}: 16mm{\H0.7x;\S2^ ;}\P- {\f仿宋_GB2312|b0|i0|c134|p49;剥线长度}: 26mm\P- {\f仿宋_GB2312|b0|i0|c134|p49;冷压模具}: {\f仿宋_GB2312|b0|i0|c134|p49;按照} DIN 46 235\P- {\f仿宋_GB2312|b0|i0|c134|p49;压力要求}: 130kN\P- {\f仿宋_
  3
GB2312|b0|i0|c134|p49;可插拔次数}: {\f仿宋_GB2312|b0|i0|c134|p49;≥}500\P\PTechnical specification:\P- Material: copper alloy\P- Surface: hard-silver plated\P- Rated current: 350A\P- Contact resistance: ≤0.3mΩ\P- Wire gauge: 16mm{\H0.7x;\S2^ ;}\P- Stripping l
  1
ength: 26mm\P- Crimp dies: acc. to DIN 46 235\P- Pressing force: 130kN\P- Mating cycles: {\f仿宋_GB2312|b0|i0|c134|p49;≥}500
  7
Romans字体
 73
     1
 44
1.0
1001
ACAD
1000
ACAD_MTEXT_DEFINED_HEIGHT_BEGIN
1070
    46
1040
107.8236110958389
1000
ACAD_MTEXT_DEFINED_HEIGHT_END
  0
MTEXT
  5
19F51
330
1F
100
AcDbEntity
  8
图框
 62
     3
100
AcDbMText
 10
1085.284600525027
 20
226.6803148648863
 30
0.0
 40
1.910728690265811
 41
21.51193090041325
 46
5.559517130168039
 71
     5
 72
     5
  1
CHSF350-16G
  7
Romans字体
 73
     1
 44
1.0
1001
ACAD
1000
ACAD_MTEXT_DEFINED_HEIGHT_BEGIN
1070
    46
1040
8.686745515887562
1000
ACAD_MTEXT_DEFINED_HEIGHT_END
  0
MTEXT
  5
19F52
330
1F
100
AcDbEntity
  8
图框
 62
     3
100
AcDbMText
 10
1085.284600525027
 20
221.0614665211188
 30
0.0
 40
1.910728690265811
 41
21.51193090041325
 46
5.67817955736675
 71
     5
 72
     5
  1
1010291201501
  7
Romans字体
 73
     1
 44
1.0
1001
ACAD
1000
ACAD_MTEXT_DEFINED_HEIGHT_BEGIN
1070
    46
1040
8.872155558385545
1000
ACAD_MTEXT_DEFINED_HEIGHT_END
  0
MTEXT
  5
19F53
330
1F
100
AcDbEntity
  8
图框
 62
     3
100
AcDbMText
 10
1041.730254918302
 20
212.5445800607198
 30
0.0
 40
1.910728690265811
 41
6.930783006149401
 46
5.047100550702023
 71
     5
 72
     5
  1
1:1 
  7
Romans字体
 73
     1
 44
1.0
1001
ACAD
1000
ACAD_MTEXT_DEFINED_HEIGHT_BEGIN
1070
    46
1040
7.88609461047191
1000
ACAD_MTEXT_DEFINED_HEIGHT_END
  0
MTEXT
  5
19F54
330
1F
100
AcDbEntity
  8
图框
 62
     3
100
AcDbMText
 10
1055.591820930602
 20
212.5445800607198
 30
0.0
 40
1.910728690265811
 41
6.930783006150482
 46
5.047100550701959
 71
     5
 72
     5
  1
61.8g
  7
Romans字体
 73
     1
 44
1.0
1001
ACAD
1000
ACAD_MTEXT_DEFINED_HEIGHT_BEGIN
1070
    46
1040
7.886094610471809
1000
ACAD_MTEXT_DEFINED_HEIGHT_END
  0
INSERT
  5
19F55
330
1F
100
AcDbEntity
  8
DIM
100
AcDbBlockReference
  2
A4图框-NEW
 10
374.8063234575852
 20
-104.7941351275371
 30
0.0
 41
0.6400000000000148
 42
0.6400000000000006
 43
0.6400000000000003
  0
LINE
  5
1CA9A
330
1F
100
AcDbEntity
  8
02___PRT_ALL_AXES
  6
Continuous
 62
     7
100
AcDbLine
 10
951.5792075484855
 20
270.0133101472379
 30
0.0
 11
952.0792075484854
 21
269.5133101472379
 31
0.0
  0
LINE
  5
1CA9B
330
1F
100
AcDbEntity
  8
02___PRT_ALL_AXES
  6
Continuous
 62
     7
100
AcDbLine
 10
978.0792075484852
 20
268.2633101472378
 30
0.0
 11
982.5792075484852
 21
268.2633101472378
 31
0.0
  0
LINE
  5
1CA9C
330
1F
100
AcDbEntity
  8
02___PRT_ALL_AXES
  6
Continuous
 62
     7
100
AcDbLine
 10
952.0792075484854
 20
269.5133101472379
 30
0.0
 11
977.5792075484854
 21
269.5133101472379
 31
0.0
  0
LINE
  5
1CA9D
330
1F
100
AcDbEntity
  8
02___PRT_ALL_AXES
  6
Continuous
 62
     7
100
AcDbLine
 10
977.5792075484854
 20
268.7633101472378
 30
0.0
 11
978.0792075484852
 21
268.2633101472378
 31
0.0
  0
LINE
  5
1CA9E
330
1F
100
AcDbEntity
  8
0
  6
Continuous
 62
     7
100
AcDbLine
 10
978.0792075484852
 20
273.7180418940383
 30
0.0
 11
982.5792075484852
 21
273.7180418940383
 31
0.0
  0
LINE
  5
1CA9F
330
1F
100
AcDbEntity
  8
0
  6
Continuous
 62
     7
100
AcDbLine
 10
982.5792075484852
 20
268.2634813400377
 30
0.0
 11
982.5792075484852
 21
290.263138954438
 31
0.0
  0
LINE
  5
1CAA0
330
1F
100
AcDbEntity
  8
0
  6
Continuous
 62
     7
100
AcDbLine
 10
978.0792075484852
 20
290.2633101472379
 30
0.0
 11
978.0792075484852
 21
284.8085784004374
 31
0.0
  0
LINE
  5
1CAA1
330
1F
100
AcDbEntity
  8
0
  6
Continuous
 62
     7
100
AcDbLine
 10
978.0792075484852
 20
268.2633101472378
 30
0.0
 11
978.0792075484852
 21
273.7180418940383
 31
0.0
  0
LINE
  5
1CAA2
330
1F
100
AcDbEntity
  8
0
  6
Continuous
 62
     7
100
AcDbLine
 10
977.5792075484854
 20
268.7633101472378
 30
0.0
 11
977.5792075484854
 21
289.7633101472379
 31
0.0
  0
LINE
  5
1CAA3
330
1F
100
AcDbEntity
  8
0
  6
Continuous
 62
     7
100
AcDbLine
 10
978.0792075484852
 20
284.8085784004374
 30
0.0
 11
982.5792075484852
 21
284.8085784004374
 31
0.0
  0
LINE
  5
1CAA4
330
1F
100
AcDbEntity
  8
02___PRT_ALL_AXES
  6
Continuous
 62
     7
100
AcDbLine
 10
977.5792075484854
 20
289.7633101472379
 30
0.0
 11
978.0792075484852
 21
290.2633101472379
 31
0.0
  0
LINE
  5
1CAA5
330
1F
100
AcDbEntity
  8
02___PRT_ALL_AXES
  6
Continuous
 62
     7
100
AcDbLine
 10
952.0792075484854
 20
289.0133101472379
 30
0.0
 11
977.5792075484854
 21
289.0133101472379
 31
0.0
  0
LINE
  5
1CAA6
330
1F
100
AcDbEntity
  8
02___PRT_ALL_AXES
  6
Continuous
 62
     7
100
AcDbLine
 10
978.0792075484852
 20
290.2633101472379
 30
0.0
 11
982.5792075484852
 21
290.2633101472379
 31
0.0
  0
LINE
  5
1CAA7
330
1F
100
AcDbEntity
  8
02___PRT_ALL_AXES
  6
Continuous
 62
     7
100
AcDbLine
 10
952.0792075484854
 20
269.5133101472379
 30
0.0
 11
952.0792075484854
 21
289.0133101472379
 31
0.0
  0
LINE
  5
1CAA8
330
1F
100
AcDbEntity
  8
02___PRT_ALL_AXES
  6
Continuous
 62
     7
100
AcDbLine
 10
951.5792075484855
 20
270.0133101472379
 30
0.0
 11
951.5792075484855
 21
288.5133101472379
 31
0.0
  0
LINE
  5
1CAA9
330
1F
100
AcDbEntity
  8
02___PRT_ALL_AXES
  6
Continuous
 62
     7
100
AcDbLine
 10
951.5792075484855
 20
288.5133101472379
 30
0.0
 11
952.0792075484854
 21
289.0133101472379
 31
0.0
  0
ARC
  5
1CAAA
330
1F
100
AcDbEntity
  8
0
  6
Continuous
 62
     7
100
AcDbCircle
 10
994.5206908405856
 20
276.4950199271384
 30
0.0
 40
18.4238331336
100
AcDbArc
 50
153.1767728495023
 51
156.8591768818501
  0
ARC
  5
1CAAB
330
1F
100
AcDbEntity
  8
0
  6
Continuous
 62
     7
100
AcDbCircle
 10
994.5206908405856
 20
282.0316003674374
 30
0.0
 40
18.4238331336
100
AcDbArc
 50
203.1408231181497
 51
206.8232271504977
  0
LINE
  5
1CAAC
330
1F
100
AcDbEntity
  8
center
  6
CENTER
 62
     1
 48
0.005
100
AcDbLine
 10
1007.754207548485
 20
279.2633101472379
 30
0.0
 11
948.9042075484862
 21
279.2633101472379
 31
0.0
  0
DIMENSION
  5
1CAAD
330
1F
100
AcDbEntity
  8
cavity
370
     0
100
AcDbDimension
  2
*D5
 10
942.8352369220467
 20
289.0133101472379
 30
0.0
 11
942.8352369220467
 21
279.263310147238
 31
0.0
 70
    32
  1
%%c19.5
 71
     5
 42
19.5
 73
     0
 74
     0
 75
     0
  3
01-高度0.6
100
AcDbAlignedDimension
 13
952.0792075484854
 23
269.5133101472379
 33
0.0
 14
952.0792075484854
 24
289.0133101472379
 34
0.0
 50
90.0
100
AcDbRotatedDimension
  0
DIMENSION
  5
1CAAE
330
1F
100
AcDbEntity
  8
cavity
370
     0
100
AcDbDimension
  2
*D6
 10
1005.079211548488
 20
261.8419907369698
 30
0.0
 11
978.3292095484867
 21
261.8419907369698
 31
0.0
 70
    32
 71
     5
 42
53.50000400000237
 73
     0
 74
     0
 75
     0
  3
01-高度0.6
100
AcDbAlignedDimension
 13
951.5792075484855
 23
270.0133101472379
 33
0.0
 14
1005.079211548488
 24
272.9133101472375
 34
0.0
100
AcDbRotatedDimension
  0
DIMENSION
  5
1CAAF
330
1F
100
AcDbEntity
  8
cavity
370
     0
100
AcDbDimension
  2
*D7
 10
1010.004760586293
 20
282.0133101472379
 30
0.0
 11
1010.004760586293
 21
286.2321195134331
 31
0.0
 70
   160
  1
%%C<>
 71
     5
 42
5.5
 73
     0
 74
     0
 75
     0
  3
01-高度0.6
100
AcDbAlignedDimension
 13
1003.347157548488
 23
276.5133101472379
 33
0.0
 14
1003.347157548488
 24
282.0133101472379
 34
0.0
 50
90.0
100
AcDbRotatedDimension
  0
DIMENSION
  5
1CAB0
330
1F
100
AcDbEntity
  8
cavity
370
     0
100
AcDbDimension
  2
*D8
 10
1014.933412801725
 20
283.5133101472379
 30
0.0
 11
1014.933412801725
 21
279.263310147238
 31
0.0
 70
    32
  1
%%C<>
 71
     5
 42
8.5
 73
     0
 74
     0
 75
     0
  3
01-高度0.6
100
AcDbAlignedDimension
 13
1001.979212548486
 23
275.0133101472378
 33
0.0
 14
1001.979212548486
 24
283.5133101472379
 34
0.0
 50
90.0
100
AcDbRotatedDimension
  0
DIMENSION
  5
1CAB1
330
1F
100
AcDbEntity
  8
cavity
370
     0
100
AcDbDimension
  2
*D9
 10
1019.755983815459
 20
290.2631389545362
 30
0.0
 11
1019.755983815459
 21
279.2632245508863
 31
0.0
 70
    32
  1
%%C<>
 71
     5
 42
21.99982880730022
 73
     0
 74
     0
 75
     0
  3
01-高度0.6
100
AcDbAlignedDimension
 13
982.5792075484852
 23
268.263310147236
 33
0.0
 14
982.5792075484852
 24
290.2631389545362
 34
0.0
 50
90.0
100
AcDbRotatedDimension
  0
HATCH
  5
1CAB2
330
1F
100
AcDbEntity
  8
cavity
 62
     1
370
     0
100
AcDbHatch
 10
0.0
 20
0.0
 30
0.0
210
0.0
220
0.0
230
1.0
  2
ANSI31
 70
     0
 71
     1
 91
        2
 92
        5
 93
        7
 72
     1
 10
1003.347157548488
 20
282.0133101472379
 11
1005.079209548487
 21
283.0133089925391
 72
     1
 10
1005.079209548487
 20
283.0133089925391
 11
1005.079209548487
 21
285.6133101472382
 72
     1
 10
1005.079209548487
 20
285.6133101472382
 11
1004.079214548487
 21
285.6133101472382
 72
     1
 10
1004.079214548487
 20
285.6133101472382
 11
1001.979212548486
 21
283.5133101472379
 72
     1
 10
1001.979212548486
 20
283.5133101472379
 11
990.3803484381899
 21
283.5133101472379
 72
     4
 94
        3
 73
     0
 74
     0
 95
        8
 96
        4
 40
2.67922110738025
 40
2.67922110738025
 40
2.67922110738025
 40
2.67922110738025
 40
3.08213644593335
 40
3.08213644593335
 40
3.08213644593335
 40
3.08213644593335
 10
990.3803484381899
 20
283.5133101472379
 10
990.3185971328152
 20
282.8638393272452
 10
990.2626943348744
 20
282.3794456337891
 10
990.2140520490915
 20
282.0133101472377
 72
     1
 10
990.217149910311
 20
282.0133101472379
 11
1003.347157548488
 21
282.0133101472379
 97
        7
330
1CABB
330
1CAB7
330
1CAB4
330
1CAB9
330
1CAC2
330
1CABE
330
1CAC0
 92
        5
 93
        7
 72
     4
 94
        3
 73
     0
 74
     0
 95
        8
 96
        4
 40
9.616623761482713
 40
9.616623761482713
 40
9.616623761482713
 40
9.616623761482713
 40
10.36635576295293
 40
10.36635576295293
 40
10.36635576295293
 40
10.36635576295293
 10
990.2916286014363
 20
276.5133101472338
 10
990.2113504911833
 20
276.1317451447277
 10
990.1353354911838
 20
275.6462933151341
 10
990.0766083770026
 20
275.0133101472378
 72
     1
 10
990.0766083770026
 20
275.0133101472378
 11
1001.979212548486
 21
275.0133101472378
 72
     1
 10
1001.979212548486
 20
275.0133101472378
 11
1004.079214548487
 21
272.9133101472375
 72
     1
 10
1004.079214548487
 20
272.9133101472375
 11
1005.079209548487
 21
272.9133101472375
 72
     1
 10
1005.079209548487
 20
272.9133101472375
 11
1005.079209548487
 21
275.5133113019367
 72
     1
 10
1005.079209548487
 20
275.5133113019367
 11
1003.347157548488
 21
276.5133101472379
 72
     1
 10
1003.347157548488
 20
276.5133101472379
 11
990.2916286014374
 21
276.513310147237
 97
        7
330
1CABF
330
1CAC2
330
1CABA
330
1CAB3
330
1CAB8
330
1CABB
330
1CAC1
 75
     0
 76
     1
 52
0.0
 41
0.5
 77
     0
 78
     1
 53
45.0
 43
-4942.73806798696
 44
-175.8045207852951
 45
-1.122532015133643
 46
1.122532015133643
 79
     0
 47
0.0570541527364396
 98
        2
 10
997.0514288712351
 20
282.382093599363
 10
997.5653680057442
 20
275.8208669853256
1001
ACAD
1010
0.0
1020
0.0
1030
0.0
  0
LINE
  5
1CAB3
102
{ACAD_REACTORS
330
1CAB2
102
}
330
1F
100
AcDbEntity
  8
0
  6
Continuous
 62
     7
100
AcDbLine
 10
1001.979212548486
 20
275.0133101472378
 30
0.0
 11
1004.079214548487
 21
272.9133101472375
 31
0.0
  0
LINE
  5
1CAB4
102
{ACAD_REACTORS
330
1CAB2
102
}
330
1F
100
AcDbEntity
  8
0
  6
Continuous
 62
     7
100
AcDbLine
 10
1004.079214548487
 20
285.6133101472382
 30
0.0
 11
1001.979212548486
 21
283.5133101472379
 31
0.0
  0
LWPOLYLINE
  5
1CAB5
330
1F
100
AcDbEntity
  8
0
  6
Continuous
 62
     7
100
AcDbPolyline
 90
       59
 70
     0
 43
0.0
 10
983.0792175484853
 20
283.5133101472379
 10
983.067367548486
 20
283.513450147238
 42
-0.0061475592
 10
983.055427548486
 20
283.513880147238
 42
-0.0059699127
 10
983.0433775484863
 20
283.514600147238
 42
-0.0059269938
 10
983.0312475484856
 20
283.5156201472377
 42
-0.006058446
 10
983.0190275484866
 20
283.5169501472369
 42
-0.0061222448
 10
983.0067575484855
 20
283.5185901472373
 42
-0.0061693761
 10
982.9944175484863
 20
283.5205601472366
 42
-0.0062030618
 10
982.9820375484864
 20
283.5228401472372
 42
-0.0062683612
 10
982.9696175484853
 20
283.5254701472381
 42
-0.0063072592
 10
982.9571875484866
 20
283.5284301472379
 42
-0.006363462
 10
982.9447475484862
 20
283.5317301472364
 42
-0.0063980643
 10
982.9323075484856
 20
283.5353801472369
 42
-0.0064517486
 10
982.9198875484866
 20
283.5393801472378
 42
-0.006484201
 10
982.9074975484868
 20
283.5437201472373
 42
-0.0065331527
 10
982.8951675484852
 20
283.5484201472368
 42
-0.006562591
 10
982.8828875484862
 20
283.5534701472365
 42
-0.0066068973
 10
982.8706875484853
 20
283.5588701472383
 42
-0.0066332512
 10
982.8585775484855
 20
283.5646201472368
 42
-0.0066724329
 10
982.8465775484868
 20
283.570730147237
 42
-0.006695448
 10
982.8346875484852
 20
283.5771801472378
 42
-0.0067292089
 10
982.8229475484873
 20
283.583980147237
 42
-0.0067487044
 10
982.8113475484855
 20
283.5911201472367
 42
-0.0067767462
 10
982.7999075484871
 20
283.5985901472372
 42
-0.0067925534
 10
982.7886575484875
 20
283.6064001472382
 42
-0.0068146329
 10
982.7775975484868
 20
283.6145301472365
 42
-0.0068266139
 10
982.7667375484862
 20
283.622970147238
 42
-0.0068425291
 10
982.7561075484876
 20
283.6317301472367
 42
-0.0068505822
 10
982.7457075484867
 20
283.6407801472373
 42
-0.0068602048
 10
982.7355575484864
 20
283.6501301472377
 42
-0.0068642367
 10
982.7256575484854
 20
283.659760147238
 42
-0.0068674043
 10
982.7160375484869
 20
283.6696601472372
 42
-0.0068674057
 10
982.7066875484863
 20
283.6798101472372
 42
-0.0068642406
 10
982.6976275484859
 20
283.6902101472382
 42
-0.0068602016
 10
982.6888775484873
 20
283.7008401472371
 42
-0.0068505623
 10
982.680427548486
 20
283.7117001472374
 42
-0.0068425307
 10
982.6722975484875
 20
283.7227601472381
 42
-0.0068266741
 10
982.6644975484864
 20
283.7340101472377
 42
-0.0068146116
 10
982.657017548486
 20
283.7454401472363
 42
-0.0067923149
 10
982.6498775484862
 20
283.757040147238
 42
-0.0067768027
 10
982.6430775484872
 20
283.7687901472376
 42
-0.0067495412
 10
982.6366275484863
 20
283.7806701472377
 42
-0.006728974
 10
982.630517548486
 20
283.7926801472363
 42
-0.0066924282
 10
982.6247675484875
 20
283.8047901472377
 42
-0.0066732547
 10
982.619367548486
 20
283.8169901472369
 42
-0.0066438572
 10
982.6143175484862
 20
283.8292701472377
 42
-0.006603895
 10
982.6096175484867
 20
283.8416001472373
 42
-0.0065258167
 10
982.6052775484852
 20
283.8539801472375
 42
-0.006543832
 10
982.6012775484864
 20
283.8664101472363
 42
-0.0066084298
 10
982.5976375484854
 20
283.8788701472381
 42
-0.006414276
 10
982.5943275484856
 20
283.8912901472371
 42
-0.0059892834
 10
982.5913775484872
 20
283.9036301472383
 42
-0.0064948248
 10
982.5887475484863
 20
283.9161401472369
 42
-0.0075597274
 10
982.5864475484863
 20
283.9288901472368
 42
-0.0058499361
 10
982.5844875484866
 20
283.9408501472366
 42
-0.0023086809
 10
982.5828875484873
 20
283.9516501472366
 42
-0.0078950144
 10
982.5815175484853
 20
283.965350147238
 42
-0.013359949
 10
982.5802875484873
 20
283.9861801472375
 42
-0.0066970611
 10
982.5792075484852
 20
284.0133101472379
 42
-0.003631995
  0
LWPOLYLINE
  5
1CAB6
330
1F
100
AcDbEntity
  8
0
  6
Continuous
 62
     7
100
AcDbPolyline
 90
       59
 70
     0
 43
0.0
 10
982.5792075484852
 20
274.5133101472378
 10
982.5793475484855
 20
274.5251601472368
 42
-0.0061478044
 10
982.5797775484856
 20
274.5371001472372
 42
-0.0059701379
 10
982.5804975484855
 20
274.5491501472365
 42
-0.0059272038
 10
982.5815175484853
 20
274.5612801472375
 42
-0.0060586467
 10
982.5828475484863
 20
274.5734901472364
 42
-0.0061224322
 10
982.5844875484866
 20
274.5857701472373
 42
-0.0061695494
 10
982.586457548486
 20
274.5981101472366
 42
-0.0062032192
 10
982.5887475484863
 20
274.6104901472366
 42
-0.0062685036
 10
982.5913675484876
 20
274.6229001472379
 42
-0.0063073843
 10
982.5943275484856
 20
274.6353401472383
 42
-0.0063635702
 10
982.5976375484854
 20
274.6477801472369
 42
-0.0063981539
 10
982.6012775484864
 20
274.6602201472374
 42
-0.0064518199
 10
982.6052775484852
 20
274.6726301472366
 42
-0.0064842523
 10
982.6096175484867
 20
274.6850201472366
 42
-0.0065331844
 10
982.6143175484862
 20
274.6973601472377
 42
-0.0065626019
 10
982.619367548486
 20
274.709630147237
 42
-0.006606888
 10
982.6247675484875
 20
274.721830147238
 42
-0.0066332203
 10
982.630517548486
 20
274.7339401472377
 42
-0.006672381
 10
982.6366275484863
 20
274.7459501472381
 42
-0.0066953744
 10
982.6430775484872
 20
274.7578301472381
 42
-0.006729114
 10
982.6498775484862
 20
274.7695801472377
 42
-0.006748588
 10
982.657017548486
 20
274.7811801472376
 42
-0.0067766093
 10
982.6644975484864
 20
274.792610147238
 42
-0.0067923947
 10
982.6722975484875
 20
274.8038601472376
 42
-0.0068144519
 10
982.680427548486
 20
274.8149201472383
 42
-0.0068264148
 10
982.6888775484873
 20
274.8257801472368
 42
-0.0068423186
 10
982.6976275484859
 20
274.8364101472375
 42
-0.0068503423
 10
982.7066875484863
 20
274.8468101472367
 42
-0.006859914
 10
982.7160375484869
 20
274.8569601472368
 42
-0.0068639729
 10
982.7256575484854
 20
274.8668601472377
 42
-0.0068672692
 10
982.7355575484864
 20
274.8764901472363
 42
-0.0068673684
 10
982.7457075484867
 20
274.8858401472366
 42
-0.0068642937
 10
982.7561075484876
 20
274.8948901472372
 42
-0.0068602894
 10
982.7667375484862
 20
274.9036501472378
 42
-0.0068506304
 10
982.7775975484868
 20
274.9120901472374
 42
-0.0068425937
 10
982.7886575484875
 20
274.9202201472376
 42
-0.0068267458
 10
982.7999075484871
 20
274.928020147237
 42
-0.0068146879
 10
982.8113475484855
 20
274.9355001472372
 42
-0.0067923916
 10
982.8229475484873
 20
274.9426401472369
 42
-0.0067768808
 10
982.8346875484852
 20
274.9494401472379
 42
-0.0067496212
 10
982.8465775484868
 20
274.9558901472369
 42
-0.0067290556
 10
982.8585775484855
 20
274.9620001472371
 42
-0.0066925106
 10
982.8706875484853
 20
274.9677501472374
 42
-0.0066733379
 10
982.8828875484862
 20
274.9731501472374
 42
-0.006643941
 10
982.8951675484852
 20
274.9782001472372
 42
-0.0066039789
 10
982.9074975484868
 20
274.9829001472367
 42
-0.0065258998
 10
982.9198775484867
 20
274.987240147238
 42
-0.0065439154
 10
982.9323075484856
 20
274.991240147237
 42
-0.006608514
 10
982.9447675484875
 20
274.9948801472378
 42
-0.0064143574
 10
982.9571875484866
 20
274.9981901472378
 42
-0.005989359
 10
982.9695275484876
 20
275.0011401472379
 42
-0.006494906
 10
982.9820375484864
 20
275.0037701472369
 42
-0.0075598208
 10
982.9947875484862
 20
275.006070147237
 42
-0.0058500072
 10
983.0067575484855
 20
275.0080301472366
 42
-0.0023087087
 10
983.0175575484856
 20
275.009630147238
 42
-0.0078951082
 10
983.0312475484856
 20
275.011000147238
 42
-0.013360101
 10
983.0520775484867
 20
275.0122301472379
 42
-0.0066971339
 10
983.0792175484853
 20
275.0133101472378
 42
-0.0036320334
  0
LINE
  5
1CAB7
102
{ACAD_REACTORS
330
1CAB2
102
}
330
1F
100
AcDbEntity
  8
0
  6
Continuous
 62
     7
100
AcDbLine
 10
1005.079211548488
 20
285.6133101472382
 30
0.0
 11
1004.079214548487
 21
285.6133101472382
 31
0.0
  0
LINE
  5
1CAB8
102
{ACAD_REACTORS
330
1CAB2
102
}
330
1F
100
AcDbEntity
  8
0
  6
Continuous
 62
     7
100
AcDbLine
 10
1004.079214548487
 20
272.9133101472375
 30
0.0
 11
1005.079211548488
 21
272.9133101472375
 31
0.0
  0
LINE
  5
1CAB9
102
{ACAD_REACTORS
330
1CAB2
102
}
330
1F
100
AcDbEntity
  8
0
  6
Continuous
 62
     7
100
AcDbLine
 10
1001.979212548486
 20
283.5133101472379
 30
0.0
 11
983.0792175484853
 21
283.5133101472379
 31
0.0
  0
LINE
  5
1CABA
102
{ACAD_REACTORS
330
1CAB2
102
}
330
1F
100
AcDbEntity
  8
0
  6
Continuous
 62
     7
100
AcDbLine
 10
983.0792175484853
 20
275.0133101472378
 30
0.0
 11
1001.979212548486
 21
275.0133101472378
 31
0.0
  0
LINE
  5
1CABB
102
{ACAD_REACTORS
330
1CAB2
102
}
330
1F
100
AcDbEntity
  8
0
  6
Continuous
 62
     7
100
AcDbLine
 10
1005.079209548487
 20
272.9133101472375
 30
0.0
 11
1005.079209548487
 21
285.6133101472382
 31
0.0
  0
LINE
  5
1CABC
330
1F
100
AcDbEntity
  8
0
  6
Continuous
 62
     7
100
AcDbLine
 10
983.0792175484853
 20
275.0133101472378
 30
0.0
 11
983.0792175484843
 21
283.5133101472379
 31
0.0
  0
LINE
  5
1CABD
330
1F
100
AcDbEntity
  8
0
  6
Continuous
 62
     7
100
AcDbLine
 10
1003.347157548487
 20
276.5133101472379
 30
0.0
 11
1003.347157548488
 21
282.0133101472379
 31
0.0
  0
LINE
  5
1CABE
102
{ACAD_REACTORS
330
1CAB2
102
}
330
1F
100
AcDbEntity
  8
0
  6
Continuous
 62
     7
100
AcDbLine
 10
1003.347157548488
 20
282.0133101472379
 30
0.0
 11
990.2140520490924
 21
282.0133101472379
 31
0.0
  0
LINE
  5
1CABF
102
{ACAD_REACTORS
330
1CAB2
102
}
330
1F
100
AcDbEntity
  8
0
  6
Continuous
 62
     7
100
AcDbLine
 10
990.2916286014384
 20
276.513310147237
 30
0.0
 11
1003.347157548488
 21
276.5133101472379
 31
0.0
  0
LINE
  5
1CAC0
102
{ACAD_REACTORS
330
1CAB2
102
}
330
1F
100
AcDbEntity
  8
0
  6
Continuous
 62
     7
100
AcDbLine
 10
1005.079211548488
 20
283.0133101472378
 30
0.0
 11
1003.347157548488
 21
282.0133101472379
 31
0.0
  0
LINE
  5
1CAC1
102
{ACAD_REACTORS
330
1CAB2
102
}
330
1F
100
AcDbEntity
  8
0
  6
Continuous
 62
     7
100
AcDbLine
 10
1003.347157548488
 20
276.5133101472379
 30
0.0
 11
1005.079211548488
 21
275.5133101472379
 31
0.0
  0
SPLINE
  5
1CAC2
102
{ACAD_REACTORS
330
1CAB2
102
}
330
1F
100
AcDbEntity
  8
center
  6
CENTER
 62
     1
 48
0.001
100
AcDbSpline
210
0.0
220
0.0
230
1.0
 70
     8
 71
     3
 72
    10
 73
     6
 74
     0
 42
0.0000000001
 43
0.0000000001
 40
2.67922110738025
 40
2.67922110738025
 40
2.67922110738025
 40
2.67922110738025
 40
4.188690153137365
 40
7.320395739865444
 40
10.36635576295293
 40
10.36635576295293
 40
10.36635576295293
 40
10.36635576295293
 10
990.3803484381899
 20
283.5133101472379
 30
0.0
 10
990.149005336851
 20
281.0801535877928
 30
0.0
 10
989.6900816483807
 20
280.722705854643
 30
0.0
 10
991.3778356170764
 20
277.861833321665
 30
0.0
 10
990.3152008896809
 20
277.5849509747845
 30
0.0
 10
990.0766083770026
 20
275.0133101472378
 30
0.0
  0
CIRCLE
  5
1CAC3
330
1F
100
AcDbEntity
  8
02___PRT_ALL_AXES
  6
Continuous
 62
     7
100
AcDbCircle
 10
980.0792075484855
 20
279.2633101471869
 30
0.0
 40
1.0
  0
LINE
  5
1CAC4
330
1F
100
AcDbEntity
  8
center
  6
CENTER
 62
     1
 48
0.001
100
AcDbLine
 10
980.0792075484855
 20
277.063310147188
 30
0.0
 11
980.0792075484855
 21
281.4633101471876
 31
0.0
  0
ENDSEC
  0
SECTION
  2
OBJECTS
  0
DICTIONARY
  5
C
330
0
100
AcDbDictionary
281
     1
  3
ACAD_COLOR
350
4FFE
  3
ACAD_GROUP
350
D
  3
ACAD_LAYOUT
350
1A
  3
ACAD_MATERIAL
350
4FE5
  3
ACAD_MLEADERSTYLE
350
5022
  3
ACAD_MLINESTYLE
350
17
  3
ACAD_PLOTSETTINGS
350
19
  3
ACAD_PLOTSTYLENAME
350
E
  3
ACAD_RENDER_PLOT_SETTINGS
350
6537
  3
ACAD_SCALELIST
350
5000
  3
ACAD_TABLESTYLE
350
4FE3
  3
ACAD_VISUALSTYLE
350
2A
  3
ACDB_RECOMPOSE_DATA
350
50EC
  3
AcDbVariableDictionary
350
5108
  3
ASE_INDEX_DICTIONARY
350
13AB8
  0
DICTIONARY
  5
50EE
330
8
100
AcDbDictionary
280
     1
281
     1
  0
DICTIONARY
  5
50B8
330
2
100
AcDbDictionary
280
     1
281
     1
  3
ACAD_LAYERFILTERS
360
1A6CE
  3
ACAD_LAYERSTATES
360
50B9
  3
ACLYDICTIONARY
360
1A6CD
  0
DICTIONARY
  5
50D0
330
10
100
AcDbDictionary
280
     1
281
     1
  3
ADSK_XREC_LAYER_RECONCILED
360
50D1
  0
DICTIONARY
  5
50D2
330
3B
100
AcDbDictionary
280
     1
281
     1
  3
ADSK_XREC_LAYER_RECONCILED
360
50D3
  0
DICTIONARY
  5
50AF
330
50AE
100
AcDbDictionary
280
     1
281
     1
  3
ADSK_XREC_LAYER_RECONCILED
360
50D4
  0
DICTIONARY
  5
18518
330
18517
100
AcDbDictionary
280
     1
281
     1
  0
DICTIONARY
  5
1851A
330
18519
100
AcDbDictionary
280
     1
281
     1
  0
DICTIONARY
  5
1851C
330
1851B
100
AcDbDictionary
280
     1
281
     1
  0
DICTIONARY
  5
19810
330
1980F
100
AcDbDictionary
280
     1
281
     1
  0
DICTIONARY
  5
19812
330
19811
100
AcDbDictionary
280
     1
281
     1
  0
DICTIONARY
  5
67C0
330
1F
100
AcDbDictionary
280
     1
281
     1
  3
ACAD_SORTENTS
360
67C1
  0
DICTIONARY
  5
1CCB7
330
10FE8
100
AcDbDictionary
280
     1
281
     1
  0
DICTIONARY
  5
184A7
330
184A6
100
AcDbDictionary
280
     1
281
     1
  3
ACAD_SORTENTS
360
184A8
  0
DICTIONARY
  5
19747
330
19746
100
AcDbDictionary
280
     1
281
     1
  0
DICTIONARY
  5
1CD10
330
1CC22
100
AcDbDictionary
280
     1
281
     1
  3
ACAD_MTEXT_2008_RT
360
1CD11
  0
DICTIONARY
  5
1CD12
330
1CC66
100
AcDbDictionary
280
     1
281
     1
  3
ACAD_MTEXT_2008_RT
360
1CD13
  0
DICTIONARY
  5
1CD14
330
1CC67
100
AcDbDictionary
280
     1
281
     1
  3
ACAD_MTEXT_2008_RT
360
1CD15
  0
DICTIONARY
  5
1CD16
330
1CC8C
100
AcDbDictionary
280
     1
281
     1
  3
ACAD_MTEXT_2008_RT
360
1CD17
  0
DICTIONARY
  5
1CD18
330
1CC8F
100
AcDbDictionary
280
     1
281
     1
  3
ACAD_MTEXT_2008_RT
360
1CD19
  0
DICTIONARY
  5
1CD1A
330
1CC90
100
AcDbDictionary
280
     1
281
     1
  3
ACAD_MTEXT_2008_RT
360
1CD1B
  0
DICTIONARY
  5
1CD1C
330
1CC9A
100
AcDbDictionary
280
     1
281
     1
  3
ACAD_MTEXT_2008_RT
360
1CD1D
  0
DICTIONARY
  5
1CD1E
330
1CC9B
100
AcDbDictionary
280
     1
281
     1
  3
ACAD_MTEXT_2008_RT
360
1CD1F
  0
DICTIONARY
  5
1CD20
330
1CC9C
100
AcDbDictionary
280
     1
281
     1
  3
ACAD_MTEXT_2008_RT
360
1CD21
  0
DICTIONARY
  5
1CD22
330
1CCAA
100
AcDbDictionary
280
     1
281
     1
  3
ACAD_MTEXT_2008_RT
360
1CD23
  0
DICTIONARY
  5
1CD24
330
1CCAB
100
AcDbDictionary
280
     1
281
     1
  3
ACAD_MTEXT_2008_RT
360
1CD25
  0
DICTIONARY
  5
1CD26
330
1CCAC
100
AcDbDictionary
280
     1
281
     1
  3
ACAD_MTEXT_2008_RT
360
1CD27
  0
DICTIONARY
  5
1CCFA
330
1977C
100
AcDbDictionary
280
     1
281
     1
  3
ACAD_MTEXT_2008_RT
360
1CCFB
  0
DICTIONARY
  5
1CCFC
330
197A4
100
AcDbDictionary
280
     1
281
     1
  3
ACAD_MTEXT_2008_RT
360
1CCFD
  0
DICTIONARY
  5
1CCFE
330
197A7
100
AcDbDictionary
280
     1
281
     1
  3
ACAD_MTEXT_2008_RT
360
1CCFF
  0
DICTIONARY
  5
1CD00
330
197A8
100
AcDbDictionary
280
     1
281
     1
  3
ACAD_MTEXT_2008_RT
360
1CD01
  0
DICTIONARY
  5
1CD02
330
197B2
100
AcDbDictionary
280
     1
281
     1
  3
ACAD_MTEXT_2008_RT
360
1CD03
  0
DICTIONARY
  5
1CD04
330
197B3
100
AcDbDictionary
280
     1
281
     1
  3
ACAD_MTEXT_2008_RT
360
1CD05
  0
DICTIONARY
  5
1CD06
330
197B4
100
AcDbDictionary
280
     1
281
     1
  3
ACAD_MTEXT_2008_RT
360
1CD07
  0
DICTIONARY
  5
1CD08
330
197C7
100
AcDbDictionary
280
     1
281
     1
  3
ACAD_MTEXT_2008_RT
360
1CD09
  0
DICTIONARY
  5
1CD0A
330
197C8
100
AcDbDictionary
280
     1
281
     1
  3
ACAD_MTEXT_2008_RT
360
1CD0B
  0
DICTIONARY
  5
1CD0C
330
197C9
100
AcDbDictionary
280
     1
281
     1
  3
ACAD_MTEXT_2008_RT
360
1CD0D
  0
DICTIONARY
  5
1CD0E
330
19F50
100
AcDbDictionary
280
     1
281
     1
  3
ACAD_MTEXT_2008_RT
360
1CD0F
  0
DICTIONARY
  5
4FFE
102
{ACAD_REACTORS
330
C
102
}
330
C
100
AcDbDictionary
281
     1
  0
DICTIONARY
  5
D
102
{ACAD_REACTORS
330
C
102
}
330
C
100
AcDbDictionary
281
     1
  0
DICTIONARY
  5
1A
102
{ACAD_REACTORS
330
C
102
}
330
C
100
AcDbDictionary
281
     1
  3
Layout1
350
1E
  3
Layout2
350
26
  3
Model
350
22
  0
DICTIONARY
  5
4FE5
102
{ACAD_REACTORS
330
C
102
}
330
C
100
AcDbDictionary
281
     1
  3
ByBlock
350
4FEE
  3
ByLayer
350
4FE6
  3
Global
350
4FF6
  0
DICTIONARY
  5
5022
102
{ACAD_REACTORS
330
C
102
}
330
C
100
AcDbDictionary
281
     1
  3
Standard
350
5023
  0
DICTIONARY
  5
17
102
{ACAD_REACTORS
330
C
102
}
330
C
100
AcDbDictionary
281
     1
  3
Standard
350
18
  0
DICTIONARY
  5
19
102
{ACAD_REACTORS
330
C
102
}
330
C
100
AcDbDictionary
281
     1
  0
ACDBDICTIONARYWDFLT
  5
E
102
{ACAD_REACTORS
330
C
102
}
330
C
100
AcDbDictionary
281
     1
  3
Normal
350
F
  3
Style 1
350
19817
100
AcDbDictionaryWithDefault
340
F
  0
DICTIONARY
  5
6537
102
{ACAD_REACTORS
330
C
102
}
330
C
100
AcDbDictionary
281
     1
  3
{1DC63513-1B1A-422F-9880-65CFD2B8D533}
350
6538
  0
DICTIONARY
  5
5000
102
{ACAD_REACTORS
330
C
102
}
330
C
100
AcDbDictionary
281
     1
  3
A0
350
5001
  3
A1
350
5002
  3
A2
350
5003
  3
A3
350
5004
  3
A4
350
5005
  3
A5
350
5006
  3
A6
350
5007
  3
A7
350
5008
  3
A8
350
5009
  3
A9
350
500A
  3
B0
350
500B
  3
B1
350
500C
  3
B2
350
500D
  3
B3
350
500E
  3
B4
350
500F
  3
B5
350
5010
  3
B6
350
5011
  3
B7
350
5012
  3
B8
350
5013
  3
B9
350
5014
  3
C0
350
5015
  3
C1
350
5016
  3
C2
350
5017
  3
C3
350
5018
  3
C4
350
5019
  3
C5
350
501A
  3
C6
350
501B
  3
C7
350
501C
  3
C8
350
501D
  3
C9
350
501E
  3
D0
350
501F
  3
D1
350
5020
  3
D2
350
5021
  0
DICTIONARY
  5
4FE3
102
{ACAD_REACTORS
330
C
102
}
330
C
100
AcDbDictionary
281
     1
  3
Standard
350
4FFF
  0
DICTIONARY
  5
2A
102
{ACAD_REACTORS
330
C
102
}
330
C
100
AcDbDictionary
281
     1
  3
2dWireframe
350
2F
  3
3D Hidden
350
31
  3
3dWireframe
350
30
  3
Basic
350
32
  3
Brighten
350
36
  3
ColorChange
350
3A
  3
Conceptual
350
34
  3
Dim
350
35
  3
Facepattern
350
39
  3
Flat
350
2B
  3
FlatWithEdges
350
2C
  3
Gouraud
350
2D
  3
GouraudWithEdges
350
2E
  3
Linepattern
350
38
  3
Realistic
350
33
  3
Thicken
350
37
  0
XRECORD
  5
50EC
102
{ACAD_REACTORS
330
C
102
}
330
C
100
AcDbXrecord
280
     1
 90
        1
330
4FFF
330
1977C
330
197A4
330
197A7
330
197A8
330
197B2
330
197B3
330
197B4
330
197C7
330
197C8
330
197C9
330
19F50
330
1CC22
330
1CC66
330
1CC67
330
1CC8C
330
1CC8F
330
1CC90
330
1CC9A
330
1CC9B
330
1CC9C
330
1CCAA
330
1CCAB
330
1CCAC
  0
DICTIONARY
  5
5108
102
{ACAD_REACTORS
330
C
102
}
330
C
100
AcDbDictionary
281
     1
  3
CANNOSCALE
350
510B
  3
CMLEADERSTYLE
350
510A
  3
CTABLESTYLE
350
5109
  3
DIMASSOC
350
510E
  3
INDEXCTL
350
510D
  3
LIGHTINGUNITS
350
1C52F
  3
MSLTSCALE
350
1C52E
  3
SORTENTS
350
510C
  0
DICTIONARY
  5
13AB8
102
{ACAD_REACTORS
330
C
102
}
330
C
100
AcDbDictionary
281
     1
  3
ASEBlockHierarchyIndexRecord
350
13AB9
1001
DCO15
1040
1903428683.781
  0
DICTIONARY
  5
1A6CE
102
{ACAD_REACTORS
330
50B8
102
}
330
50B8
100
AcDbDictionary
281
     1
  0
DICTIONARY
  5
50B9
102
{ACAD_REACTORS
330
50B8
102
}
330
50B8
100
AcDbDictionary
281
     1
  0
DICTIONARY
  5
1A6CD
102
{ACAD_REACTORS
330
50B8
102
}
330
50B8
100
AcDbDictionary
281
     1
1001
ACAD
1000
<All
  0
XRECORD
  5
50D1
102
{ACAD_REACTORS
330
50D0
102
}
330
50D0
100
AcDbXrecord
280
     1
290
     1
  0
XRECORD
  5
50D3
102
{ACAD_REACTORS
330
50D2
102
}
330
50D2
100
AcDbXrecord
280
     1
290
     1
  0
XRECORD
  5
50D4
102
{ACAD_REACTORS
330
50AF
102
}
330
50AF
100
AcDbXrecord
280
     1
290
     1
  0
SORTENTSTABLE
  5
67C1
102
{ACAD_REACTORS
330
67C0
102
}
330
67C0
100
AcDbSortentsTable
330
1F
331
35D8
  5
3807
331
2F93
  5
2FDE
331
2EE7
  5
2F93
331
35C8
  5
35D8
331
28AE
  5
2A38
331
2FDE
  5
35C8
331
3943
  5
4842
331
2C65
  5
2EE7
331
3895
  5
3943
331
4842
  5
4E94
331
3807
  5
3895
  0
SORTENTSTABLE
  5
184A8
102
{ACAD_REACTORS
330
184A7
102
}
330
184A7
100
AcDbSortentsTable
330
184A6
  0
XRECORD
  5
1CD11
102
{ACAD_REACTORS
330
1CD10
102
}
330
1CD10
100
AcDbXrecord
280
     1
 40
1021.0
  1
\pxqc;DN YE
  0
XRECORD
  5
1CD13
102
{ACAD_REACTORS
330
1CD12
102
}
330
1CD12
100
AcDbXrecord
280
     1
 40
1262561.0
  1
\pxqc;档案员{\H0.7x;\P\Fromans|c134;Filing Clerk\fFangSong_GB2312|b0|i0|c134|p49; }
  0
XRECORD
  5
1CD15
102
{ACAD_REACTORS
330
1CD14
102
}
330
1CD14
100
AcDbXrecord
280
     1
 40
650528.0
  1
\pxqc;日期{\Fromans|c134;/Date}
  0
XRECORD
  5
1CD17
102
{ACAD_REACTORS
330
1CD16
102
}
330
1CD16
100
AcDbXrecord
280
     1
 40
1836818.0
  1
\pxsm0.7;{\fFangSong_GB2312|b0|i0|c134|p49;标准化}\PStand.
  0
XRECORD
  5
1CD19
102
{ACAD_REACTORS
330
1CD18
102
}
330
1CD18
100
AcDbXrecord
280
     1
 40
118135.0
  1
\pxsm0.7;签名\P{\Fromans|c134;Signature} 
  0
XRECORD
  5
1CD1B
102
{ACAD_REACTORS
330
1CD1A
102
}
330
1CD1A
100
AcDbXrecord
280
     1
 40
108939.0
  1
\pxsm0.7,qc;处数\P{\Fromans|c134;Number }
  0
XRECORD
  5
1CD1D
102
{ACAD_REACTORS
330
1CD1C
102
}
330
1CD1C
100
AcDbXrecord
280
     1
 40
125762.0
  1
\pxsm0.7;标记\P{\Fromans|c134;Mark}
  0
XRECORD
  5
1CD1F
102
{ACAD_REACTORS
330
1CD1E
102
}
330
1CD1E
100
AcDbXrecord
280
     1
 40
111973.0
  1
\pxsm0.7;审核\P{\Fromans|c134;Checked}
  0
XRECORD
  5
1CD21
102
{ACAD_REACTORS
330
1CD20
102
}
330
1CD20
100
AcDbXrecord
280
     1
 40
137968.0
  1
\pxsm0.7;绘图\P{\Fromans|c134;Drawn\Ftxt|c134; }
  0
XRECORD
  5
1CD23
102
{ACAD_REACTORS
330
1CD22
102
}
330
1CD22
100
AcDbXrecord
280
     1
 40
106320.0
  1
\pxsm0.7;批准\P{\Fromans|c134;Approved}
  0
XRECORD
  5
1CD25
102
{ACAD_REACTORS
330
1CD24
102
}
330
1CD24
100
AcDbXrecord
280
     1
 40
127283.0
  1
\pxsm0.7;工艺\P{\Fromans|c134;Process}
  0
XRECORD
  5
1CD27
102
{ACAD_REACTORS
330
1CD26
102
}
330
1CD26
100
AcDbXrecord
280
     1
 40
106220.0
  1
\pxsm0.7;日期\P{\Fromans|c134;Date}
  0
XRECORD
  5
1CCFB
102
{ACAD_REACTORS
330
1CCFA
102
}
330
1CCFA
100
AcDbXrecord
280
     1
 40
1153181.0
  1
\pxqc;{\fFangSong_GB2312|b0|i0|c134|p49;档案员\H0.7x;\PFiling Clerk }
  0
XRECORD
  5
1CCFD
102
{ACAD_REACTORS
330
1CCFC
102
}
330
1CCFC
100
AcDbXrecord
280
     1
 40
223847.0
  1
\pxsm0.7;{\fFangSong_GB2312|b0|i0|c134|p49;标准化\PStand.}
  0
XRECORD
  5
1CCFF
102
{ACAD_REACTORS
330
1CCFE
102
}
330
1CCFE
100
AcDbXrecord
280
     1
 40
182524.0
  1
\pxsm0.7;{\fFangSong_GB2312|b0|i0|c134|p49;签名\PSignature }
  0
XRECORD
  5
1CD01
102
{ACAD_REACTORS
330
1CD00
102
}
330
1CD00
100
AcDbXrecord
280
     1
 40
223177.0
  1
\pxsm0.7;{\fFangSong_GB2312|b0|i0|c134|p49;处数\PNumber\H0.9491x; \P\ps*;\P }
  0
XRECORD
  5
1CD03
102
{ACAD_REACTORS
330
1CD02
102
}
330
1CD02
100
AcDbXrecord
280
     1
 40
178981.0
  1
\pxsm0.7;{\fFangSong_GB2312|b0|i0|c134|p49;标记\PMark}
  0
XRECORD
  5
1CD05
102
{ACAD_REACTORS
330
1CD04
102
}
330
1CD04
100
AcDbXrecord
280
     1
 40
170588.0
  1
\pxsm0.7;{\fFangSong_GB2312|b0|i0|c134|p49;审核\PChecked}
  0
XRECORD
  5
1CD07
102
{ACAD_REACTORS
330
1CD06
102
}
330
1CD06
100
AcDbXrecord
280
     1
 40
164366.0
  1
\pxsm0.7;{\fFangSong_GB2312|b0|i0|c134|p49;绘图\PDrawn }
  0
XRECORD
  5
1CD09
102
{ACAD_REACTORS
330
1CD08
102
}
330
1CD08
100
AcDbXrecord
280
     1
 40
167861.0
  1
\pxsm0.7;{\fFangSong_GB2312|b0|i0|c134|p49;批准\PApproved}
  0
XRECORD
  5
1CD0B
102
{ACAD_REACTORS
330
1CD0A
102
}
330
1CD0A
100
AcDbXrecord
280
     1
 40
186962.0
  1
\pxsm0.7;{\fFangSong_GB2312|b0|i0|c134|p49;工艺\PProcess}
  0
XRECORD
  5
1CD0D
102
{ACAD_REACTORS
330
1CD0C
102
}
330
1CD0C
100
AcDbXrecord
280
     1
 40
159192.0
  1
\pxsm0.7;{\fFangSong_GB2312|b0|i0|c134|p49;日期\PDate}
  0
XRECORD
  5
1CD0F
102
{ACAD_REACTORS
330
1CD0E
102
}
330
1CD0E
100
AcDbXrecord
280
     1
 40
607037892.0
  1
\A1;\pxql;{\f仿宋_GB2312|b0|i0|c134|p49;技术参数}:\P\pq*;- {\f仿宋_GB2312|b0|i0|c134|p49;材料}: {\f仿宋_GB2312|b0|i0|c134|p49;铜合金}\P- {\f仿宋_GB2312|b0|i0|c134|p49;表面处理}: {\f仿宋_GB2312|b0|i0|c134|p49;镀银}\P\pql;- {\f仿宋_GB2312|b0|i0|c134|p49;额定电流}: 350A\P- {\f仿宋_GB23
  1
12|b0|i0|c134|p49;接触电阻}: ≤0.3mΩ\P- {\f仿宋_GB2312|b0|i0|c134|p49;线径范围}: 16mm{\H0.7x;\S2^ ;}\P- {\f仿宋_GB2312|b0|i0|c134|p49;剥线长度}: 26mm\P- {\f仿宋_GB2312|b0|i0|c134|p49;冷压模具}: {\f仿宋_GB2312|b0|i0|c134|p49;按照} DIN 46 235\P- {\f仿宋_GB2312|b0|i0|c134|p49;压力要求}:
  1
 130kN\P\pq*;- {\f仿宋_GB2312|b0|i0|c134|p49;可插拔次数}: {\f仿宋_GB2312|b0|i0|c134|p49;≥}500\P\P\pql;Technical specification:\P- Material: copper alloy\P- Surface: hard-silver plated\P- Rated current: 350A\P- Contact resistance: ≤0.3mΩ\P- Wire gauge: 16mm{\H
  1
0.7x;\S2^ ;}\P- Stripping length: 26mm\P- Crimp dies: acc. to DIN 46 235\P- Pressing force: 130kN\P- Mating cycles: {\f仿宋_GB2312|b0|i0|c134|p49;≥}500
  0
LAYOUT
  5
1E
102
{ACAD_REACTORS
330
1A
102
}
330
1A
100
AcDbPlotSettings
  1

  2
none_device
  4

  6

 40
0.0
 41
0.0
 42
0.0
 43
0.0
 44
0.0
 45
0.0
 46
0.0
 47
0.0
 48
0.0
 49
0.0
140
0.0
141
0.0
142
1.0
143
1.0
 70
   688
 72
     0
 73
     0
 74
     5
  7

 75
    16
147
1.0
 76
     0
 77
     2
 78
   300
148
0.0
149
0.0
100
AcDbLayout
  1
Layout1
 70
     1
 71
     1
 10
0.0
 20
0.0
 11
12.0
 21
9.0
 12
0.0
 22
0.0
 32
0.0
 14
1.000000000000000E+20
 24
1.000000000000000E+20
 34
1.000000000000000E+20
 15
-1.000000000000000E+20
 25
-1.000000000000000E+20
 35
-1.000000000000000E+20
146
0.0
 13
0.0
 23
0.0
 33
0.0
 16
1.0
 26
0.0
 36
0.0
 17
0.0
 27
1.0
 37
0.0
 76
     0
330
1B
  0
LAYOUT
  5
26
102
{ACAD_REACTORS
330
1A
102
}
330
1A
100
AcDbPlotSettings
  1

  2
none_device
  4

  6

 40
0.0
 41
0.0
 42
0.0
 43
0.0
 44
0.0
 45
0.0
 46
0.0
 47
0.0
 48
0.0
 49
0.0
140
0.0
141
0.0
142
1.0
143
1.0
 70
   688
 72
     0
 73
     0
 74
     5
  7

 75
    16
147
1.0
 76
     0
 77
     2
 78
   300
148
0.0
149
0.0
100
AcDbLayout
  1
Layout2
 70
     1
 71
     2
 10
0.0
 20
0.0
 11
0.0
 21
0.0
 12
0.0
 22
0.0
 32
0.0
 14
0.0
 24
0.0
 34
0.0
 15
0.0
 25
0.0
 35
0.0
146
0.0
 13
0.0
 23
0.0
 33
0.0
 16
1.0
 26
0.0
 36
0.0
 17
0.0
 27
1.0
 37
0.0
 76
     0
330
23
  0
LAYOUT
  5
22
102
{ACAD_REACTORS
330
1A
102
}
330
1A
100
AcDbPlotSettings
  1

  2
Adobe PDF Converter.pc3
  4
A4
  6

 40
3.174999952316281
 41
3.174999952316281
 42
3.17498779296875
 43
3.175003051757812
 44
297.0318298339844
 45
209.9733276367186
 46
0.0000000000000076
 47
1.630241740247063
 48
246.9897427644609
 49
39.36804549891383
140
544.952097801264
141
244.7492402188181
142
1.0
143
1.025046328645055
 70
  3764
 72
     1
 73
     0
 74
     4
  7
monochrome.ctb
 75
     0
147
0.9755656618192436
 76
     1
 77
     2
 78
   300
148
-246.9897427644609
149
-39.36804549891383
100
AcDbLayout
  1
Model
 70
     1
 71
     0
 10
0.0
 20
0.0
 11
12.0
 21
9.0
 12
0.0
 22
0.0
 32
0.0
 14
1.000000000000000E+20
 24
1.000000000000000E+20
 34
1.000000000000000E+20
 15
-1.000000000000000E+20
 25
-1.000000000000000E+20
 35
-1.000000000000000E+20
146
0.0
 13
0.0
 23
0.0
 33
0.0
 16
1.0
 26
0.0
 36
0.0
 17
0.0
 27
1.0
 37
0.0
 76
     0
330
1F
331
29
1001
ACAD_PSEXT
1000
Adobe PDF Converter.pc3
1000
Adobe PDF Converter
1000
桌面\*.pdf
1000

1070
     0
  0
MATERIAL
  5
4FEE
102
{ACAD_XDICTIONARY
360
4FEF
102
}
102
{ACAD_REACTORS
330
4FE5
102
}
330
4FE5
100
AcDbMaterial
  1
ByBlock
 72
     0
 43
0.0208333333333333
 43
0.0
 43
0.0
 43
0.0
 43
0.0
 43
0.0208333333333333
 43
0.0
 43
0.0
 43
0.0
 43
0.0
 43
1.0
 43
0.0
 43
0.0
 43
0.0
 43
0.0
 43
1.0
 77
     0
 47
0.0208333333333333
 47
0.0
 47
0.0
 47
0.0
 47
0.0
 47
0.0208333333333333
 47
0.0
 47
0.0
 47
0.0
 47
0.0
 47
1.0
 47
0.0
 47
0.0
 47
0.0
 47
0.0
 47
1.0
171
     0
 49
0.0208333333333333
 49
0.0
 49
0.0
 49
0.0
 49
0.0
 49
0.0208333333333333
 49
0.0
 49
0.0
 49
0.0
 49
0.0
 49
1.0
 49
0.0
 49
0.0
 49
0.0
 49
0.0
 49
1.0
175
     0
142
0.0208333333333333
142
0.0
142
0.0
142
0.0
142
0.0
142
0.0208333333333333
142
0.0
142
0.0
142
0.0
142
0.0
142
1.0
142
0.0
142
0.0
142
0.0
142
0.0
142
1.0
179
     0
144
0.0208333333333333
144
0.0
144
0.0
144
0.0
144
0.0
144
0.0208333333333333
144
0.0
144
0.0
144
0.0
144
0.0
144
1.0
144
0.0
144
0.0
144
0.0
144
0.0
144
1.0
147
0.0208333333333333
147
0.0
147
0.0
147
0.0
147
0.0
147
0.0208333333333333
147
0.0
147
0.0
147
0.0
147
0.0
147
1.0
147
0.0
147
0.0
147
0.0
147
0.0
147
1.0
  0
MATERIAL
  5
4FE6
102
{ACAD_XDICTIONARY
360
4FE7
102
}
102
{ACAD_REACTORS
330
4FE5
102
}
330
4FE5
100
AcDbMaterial
  1
ByLayer
 72
     0
 43
0.0208333333333333
 43
0.0
 43
0.0
 43
0.0
 43
0.0
 43
0.0208333333333333
 43
0.0
 43
0.0
 43
0.0
 43
0.0
 43
1.0
 43
0.0
 43
0.0
 43
0.0
 43
0.0
 43
1.0
 77
     0
 47
0.0208333333333333
 47
0.0
 47
0.0
 47
0.0
 47
0.0
 47
0.0208333333333333
 47
0.0
 47
0.0
 47
0.0
 47
0.0
 47
1.0
 47
0.0
 47
0.0
 47
0.0
 47
0.0
 47
1.0
171
     0
 49
0.0208333333333333
 49
0.0
 49
0.0
 49
0.0
 49
0.0
 49
0.0208333333333333
 49
0.0
 49
0.0
 49
0.0
 49
0.0
 49
1.0
 49
0.0
 49
0.0
 49
0.0
 49
0.0
 49
1.0
175
     0
142
0.0208333333333333
142
0.0
142
0.0
142
0.0
142
0.0
142
0.0208333333333333
142
0.0
142
0.0
142
0.0
142
0.0
142
1.0
142
0.0
142
0.0
142
0.0
142
0.0
142
1.0
179
     0
144
0.0208333333333333
144
0.0
144
0.0
144
0.0
144
0.0
144
0.0208333333333333
144
0.0
144
0.0
144
0.0
144
0.0
144
1.0
144
0.0
144
0.0
144
0.0
144
0.0
144
1.0
147
0.0208333333333333
147
0.0
147
0.0
147
0.0
147
0.0
147
0.0208333333333333
147
0.0
147
0.0
147
0.0
147
0.0
147
1.0
147
0.0
147
0.0
147
0.0
147
0.0
147
1.0
  0
MATERIAL
  5
4FF6
102
{ACAD_XDICTIONARY
360
4FF7
102
}
102
{ACAD_REACTORS
330
4FE5
102
}
330
4FE5
100
AcDbMaterial
  1
Global
 72
     0
 43
0.0208333333333333
 43
0.0
 43
0.0
 43
0.0
 43
0.0
 43
0.0208333333333333
 43
0.0
 43
0.0
 43
0.0
 43
0.0
 43
1.0
 43
0.0
 43
0.0
 43
0.0
 43
0.0
 43
1.0
 77
     0
 47
0.0208333333333333
 47
0.0
 47
0.0
 47
0.0
 47
0.0
 47
0.0208333333333333
 47
0.0
 47
0.0
 47
0.0
 47
0.0
 47
1.0
 47
0.0
 47
0.0
 47
0.0
 47
0.0
 47
1.0
171
     0
 49
0.0208333333333333
 49
0.0
 49
0.0
 49
0.0
 49
0.0
 49
0.0208333333333333
 49
0.0
 49
0.0
 49
0.0
 49
0.0
 49
1.0
 49
0.0
 49
0.0
 49
0.0
 49
0.0
 49
1.0
175
     0
142
0.0208333333333333
142
0.0
142
0.0
142
0.0
142
0.0
142
0.0208333333333333
142
0.0
142
0.0
142
0.0
142
0.0
142
1.0
142
0.0
142
0.0
142
0.0
142
0.0
142
1.0
179
     0
144
0.0208333333333333
144
0.0
144
0.0
144
0.0
144
0.0
144
0.0208333333333333
144
0.0
144
0.0
144
0.0
144
0.0
144
1.0
144
0.0
144
0.0
144
0.0
144
0.0
144
1.0
147
0.0208333333333333
147
0.0
147
0.0
147
0.0
147
0.0
147
0.0208333333333333
147
0.0
147
0.0
147
0.0
147
0.0
147
1.0
147
0.0
147
0.0
147
0.0
147
0.0
147
1.0
  0
MLEADERSTYLE
  5
5023
102
{ACAD_REACTORS
330
5022
102
}
330
5022
100
AcDbMLeaderStyle
170
     2
171
     1
172
     0
 90
        2
 40
0.0
 41
0.0
173
     1
 91
-1056964608
340
14
 92
       -2
290
     1
 42
0.09
291
     1
 43
0.36
  3
Standard
 44
0.18
300

342
11
174
     1
178
     6
175
     1
176
     0
 93
-1056964608
 45
0.18
292
     0
297
     0
 46
0.18
 94
-1056964608
 47
1.0
 49
1.0
140
1.0
293
     1
141
0.0
294
     1
177
     0
142
1.0
295
     0
296
     0
143
0.125
1001
ACAD_MLEADERVER
1070
     2
  0
MLINESTYLE
  5
18
102
{ACAD_REACTORS
330
17
102
}
330
17
100
AcDbMlineStyle
  2
STANDARD
 70
     0
  3

 62
   256
 51
90.0
 52
90.0
 71
     2
 49
0.5
 62
   256
  6
BYLAYER
 49
-0.5
 62
   256
  6
BYLAYER
  0
ACDBPLACEHOLDER
  5
F
102
{ACAD_REACTORS
330
E
102
}
330
E
  0
ACDBPLACEHOLDER
  5
19817
102
{ACAD_REACTORS
330
E
102
}
330
E
  0
MENTALRAYRENDERSETTINGS
  5
6538
102
{ACAD_REACTORS
330
6537
102
}
330
6537
100
AcDbRenderSettings
 90
        2
  1
中
290
     1
290
     1
290
     1
290
     1
  1

  1
渲染质量好于“低级”。包括纹理过滤并且强制双面处于激活状态。处理中等级反锯齿和 5 反射/折射的光线跟踪深度。
 90
        0
100
AcDbMentalRayRenderSettings
 90
        2
 90
        0
 90
        1
 70
     2
 40
3.0
 40
3.0
 40
0.0500000007450581
 40
0.0500000007450581
 40
0.0500000007450581
 40
0.0500000007450581
 70
     0
290
     0
290
     1
 90
        5
 90
        5
 90
        5
290
     0
 90
      500
290
     0
 40
1.0
 90
    10000
 90
        5
 90
        5
 90
        5
290
     0
 90
      200
290
     0
290
     0
290
     0
 40
0.1
 40
1.0
 40
1500.0
 70
     0
 70
     0
 40
10.0
 70
     0
 70
     0
290
     0
  1

 90
       32
 70
     0
 90
     1048
290
     0
 40
1.0
  0
SCALE
  5
5001
102
{ACAD_REACTORS
330
5000
102
}
330
5000
100
AcDbScale
 70
     0
300
1:1
140
1.0
141
1.0
290
     1
  0
SCALE
  5
5002
102
{ACAD_REACTORS
330
5000
102
}
330
5000
100
AcDbScale
 70
     0
300
1:2
140
1.0
141
2.0
290
     0
  0
SCALE
  5
5003
102
{ACAD_REACTORS
330
5000
102
}
330
5000
100
AcDbScale
 70
     0
300
1:4
140
1.0
141
4.0
290
     0
  0
SCALE
  5
5004
102
{ACAD_REACTORS
330
5000
102
}
330
5000
100
AcDbScale
 70
     0
300
1:5
140
1.0
141
5.0
290
     0
  0
SCALE
  5
5005
102
{ACAD_REACTORS
330
5000
102
}
330
5000
100
AcDbScale
 70
     0
300
1:8
140
1.0
141
8.0
290
     0
  0
SCALE
  5
5006
102
{ACAD_REACTORS
330
5000
102
}
330
5000
100
AcDbScale
 70
     0
300
1:10
140
1.0
141
10.0
290
     0
  0
SCALE
  5
5007
102
{ACAD_REACTORS
330
5000
102
}
330
5000
100
AcDbScale
 70
     0
300
1:16
140
1.0
141
16.0
290
     0
  0
SCALE
  5
5008
102
{ACAD_REACTORS
330
5000
102
}
330
5000
100
AcDbScale
 70
     0
300
1:20
140
1.0
141
20.0
290
     0
  0
SCALE
  5
5009
102
{ACAD_REACTORS
330
5000
102
}
330
5000
100
AcDbScale
 70
     0
300
1:30
140
1.0
141
30.0
290
     0
  0
SCALE
  5
500A
102
{ACAD_REACTORS
330
5000
102
}
330
5000
100
AcDbScale
 70
     0
300
1:40
140
1.0
141
40.0
290
     0
  0
SCALE
  5
500B
102
{ACAD_REACTORS
330
5000
102
}
330
5000
100
AcDbScale
 70
     0
300
1:50
140
1.0
141
50.0
290
     0
  0
SCALE
  5
500C
102
{ACAD_REACTORS
330
5000
102
}
330
5000
100
AcDbScale
 70
     0
300
1:100
140
1.0
141
100.0
290
     0
  0
SCALE
  5
500D
102
{ACAD_REACTORS
330
5000
102
}
330
5000
100
AcDbScale
 70
     0
300
2:1
140
2.0
141
1.0
290
     0
  0
SCALE
  5
500E
102
{ACAD_REACTORS
330
5000
102
}
330
5000
100
AcDbScale
 70
     0
300
4:1
140
4.0
141
1.0
290
     0
  0
SCALE
  5
500F
102
{ACAD_REACTORS
330
5000
102
}
330
5000
100
AcDbScale
 70
     0
300
8:1
140
8.0
141
1.0
290
     0
  0
SCALE
  5
5010
102
{ACAD_REACTORS
330
5000
102
}
330
5000
100
AcDbScale
 70
     0
300
10:1
140
10.0
141
1.0
290
     0
  0
SCALE
  5
5011
102
{ACAD_REACTORS
330
5000
102
}
330
5000
100
AcDbScale
 70
     0
300
100:1
140
100.0
141
1.0
290
     0
  0
SCALE
  5
5012
102
{ACAD_REACTORS
330
5000
102
}
330
5000
100
AcDbScale
 70
     0
300
1/128" = 1'-0"
140
0.0078125
141
12.0
290
     0
  0
SCALE
  5
5013
102
{ACAD_REACTORS
330
5000
102
}
330
5000
100
AcDbScale
 70
     0
300
1/64" = 1'-0"
140
0.015625
141
12.0
290
     0
  0
SCALE
  5
5014
102
{ACAD_REACTORS
330
5000
102
}
330
5000
100
AcDbScale
 70
     0
300
1/32" = 1'-0"
140
0.03125
141
12.0
290
     0
  0
SCALE
  5
5015
102
{ACAD_REACTORS
330
5000
102
}
330
5000
100
AcDbScale
 70
     0
300
1/16" = 1'-0"
140
0.0625
141
12.0
290
     0
  0
SCALE
  5
5016
102
{ACAD_REACTORS
330
5000
102
}
330
5000
100
AcDbScale
 70
     0
300
3/32" = 1'-0"
140
0.09375
141
12.0
290
     0
  0
SCALE
  5
5017
102
{ACAD_REACTORS
330
5000
102
}
330
5000
100
AcDbScale
 70
     0
300
1/8" = 1'-0"
140
0.125
141
12.0
290
     0
  0
SCALE
  5
5018
102
{ACAD_REACTORS
330
5000
102
}
330
5000
100
AcDbScale
 70
     0
300
3/16" = 1'-0"
140
0.1875
141
12.0
290
     0
  0
SCALE
  5
5019
102
{ACAD_REACTORS
330
5000
102
}
330
5000
100
AcDbScale
 70
     0
300
1/4" = 1'-0"
140
0.25
141
12.0
290
     0
  0
SCALE
  5
501A
102
{ACAD_REACTORS
330
5000
102
}
330
5000
100
AcDbScale
 70
     0
300
3/8" = 1'-0"
140
0.375
141
12.0
290
     0
  0
SCALE
  5
501B
102
{ACAD_REACTORS
330
5000
102
}
330
5000
100
AcDbScale
 70
     0
300
1/2" = 1'-0"
140
0.5
141
12.0
290
     0
  0
SCALE
  5
501C
102
{ACAD_REACTORS
330
5000
102
}
330
5000
100
AcDbScale
 70
     0
300
3/4" = 1'-0"
140
0.75
141
12.0
290
     0
  0
SCALE
  5
501D
102
{ACAD_REACTORS
330
5000
102
}
330
5000
100
AcDbScale
 70
     0
300
1" = 1'-0"
140
1.0
141
12.0
290
     0
  0
SCALE
  5
501E
102
{ACAD_REACTORS
330
5000
102
}
330
5000
100
AcDbScale
 70
     0
300
1-1/2" = 1'-0"
140
1.5
141
12.0
290
     0
  0
SCALE
  5
501F
102
{ACAD_REACTORS
330
5000
102
}
330
5000
100
AcDbScale
 70
     0
300
3" = 1'-0"
140
3.0
141
12.0
290
     0
  0
SCALE
  5
5020
102
{ACAD_REACTORS
330
5000
102
}
330
5000
100
AcDbScale
 70
     0
300
6" = 1'-0"
140
6.0
141
12.0
290
     0
  0
SCALE
  5
5021
102
{ACAD_REACTORS
330
5000
102
}
330
5000
100
AcDbScale
 70
     0
300
1'-0" = 1'-0"
140
12.0
141
12.0
290
     0
  0
TABLESTYLE
  5
4FFF
102
{ACAD_XDICTIONARY
360
50D6
102
}
102
{ACAD_REACTORS
330
4FE3
102
}
330
4FE3
100
AcDbTableStyle
  3
Standard
 70
     0
 71
     0
 40
0.06
 41
0.06
280
     0
281
     0
  7
Standard
140
0.18
170
     2
 62
     0
 63
     7
283
     0
 90
      512
 91
        0
  1

274
    -2
284
     1
 64
     0
275
    -2
285
     1
 65
     0
276
    -2
286
     1
 66
     0
277
    -2
287
     1
 67
     0
278
    -2
288
     1
 68
     0
279
    -2
289
     1
 69
     0
  7
Standard
140
0.25
170
     5
 62
     0
 63
     7
283
     0
 90
      512
 91
        0
  1

274
    -2
284
     1
 64
     0
275
    -2
285
     1
 65
     0
276
    -2
286
     1
 66
     0
277
    -2
287
     1
 67
     0
278
    -2
288
     1
 68
     0
279
    -2
289
     1
 69
     0
  7
Standard
140
0.18
170
     5
 62
     0
 63
     7
283
     0
 90
      512
 91
        0
  1

274
    -2
284
     1
 64
     0
275
    -2
285
     1
 65
     0
276
    -2
286
     1
 66
     0
277
    -2
287
     1
 67
     0
278
    -2
288
     1
 68
     0
279
    -2
289
     1
 69
     0
  0
VISUALSTYLE
  5
2F
102
{ACAD_REACTORS
330
2A
102
}
330
2A
100
AcDbVisualStyle
  2
2dWireframe
 70
     4
 71
     0
 72
     2
 73
     0
 90
        0
 40
-0.6
 41
-30.0
 62
     5
 63
     7
 74
     1
 91
        4
 64
     7
 65
   257
 75
     1
175
     1
 42
1.0
 92
        0
 66
   257
 43
1.0
 76
     1
 77
     6
 78
     2
 67
     7
 79
     5
170
     0
171
     0
290
     0
174
     0
 93
        1
 44
0.0
173
     0
291
     0
 45
0.0
1001
ACAD
1000
AcDbSavedByObjectVersion
1070
     0
1000
AcDbSavedByObjectVersion
1070
     0
1000
AcDbSavedByObjectVersion
1070
     0
1000
AcDbSavedByObjectVersion
1070
     0
1000
AcDbSavedByObjectVersion
1070
     0
1000
AcDbSavedByObjectVersion
1070
     0
1000
AcDbSavedByObjectVersion
1070
     0
1000
AcDbSavedByObjectVersion
1070
     0
1000
AcDbSavedByObjectVersion
1070
     0
1000
AcDbSavedByObjectVersion
1070
     0
1000
AcDbSavedByObjectVersion
1070
     0
1000
AcDbSavedByObjectVersion
1070
     0
1000
AcDbSavedByObjectVersion
1070
     0
1000
AcDbSavedByObjectVersion
1070
     0
1000
AcDbSavedByObjectVersion
1070
     0
1000
AcDbSavedByObjectVersion
1070
     0
1000
AcDbSavedByObjectVersion
1070
     0
1000
AcDbSavedByObjectVersion
1070
     0
1000
AcDbSavedByObjectVersion
1070
     0
1000
AcDbSavedByObjectVersion
1070
     0
1000
AcDbSavedByObjectVersion
1070
     0
1000
AcDbSavedByObjectVersion
1070
     0
1000
AcDbSavedByObjectVersion
1070
     0
1000
AcDbSavedByObjectVersion
1070
     0
1000
AcDbSavedByObjectVersion
1070
     0
1000
AcDbSavedByObjectVersion
1070
     0
1000
AcDbSavedByObjectVersion
1070
     0
1000
AcDbSavedByObjectVersion
1070
     0
1000
AcDbSavedByObjectVersion
1070
     0
1000
AcDbSavedByObjectVersion
1070
     0
1000
AcDbSavedByObjectVersion
1070
     0
1000
AcDbSavedByObjectVersion
1070
     0
1000
AcDbSavedByObjectVersion
1070
     0
1000
AcDbSavedByObjectVersion
1070
     0
1000
AcDbSavedByObjectVersion
1070
     0
1000
AcDbSavedByObjectVersion
1070
     0
1000
AcDbSavedByObjectVersion
1070
     0
1000
AcDbSavedByObjectVersion
1070
     0
1000
AcDbSavedByObjectVersion
1070
     0
1000
AcDbSavedByObjectVersion
1070
     0
1000
AcDbSavedByObjectVersion
1070
     0
1000
AcDbSavedByObjectVersion
1070
     0
1000
AcDbSavedByObjectVersion
1070
     0
1000
AcDbSavedByObjectVersion
1070
     0
1000
AcDbSavedByObjectVersion
1070
     0
1000
AcDbSavedByObjectVersion
1070
     0
1000
AcDbSavedByObjectVersion
1070
     0
1000
AcDbSavedByObjectVersion
1070
     0
1000
AcDbSavedByObjectVersion
1070
     0
1000
AcDbSavedByObjectVersion
1070
     0
  0
VISUALSTYLE
  5
31
102
{ACAD_REACTORS
330
2A
102
}
330
2A
100
AcDbVisualStyle
  2
3D Hidden
 70
     6
 71
     1
 72
     2
 73
     2
 90
        0
 40
-0.6
 41
-30.0
 62
     5
 63
     7
 74
     2
 91
        2
 64
     7
 65
   257
 75
     2
175
     1
 42
40.0
 92
        0
 66
   257
 43
1.0
 76
     1
 77
     6
 78
     2
 67
     7
 79
     3
170
     0
171
     0
290
     0
174
     0
 93
        1
 44
0.0
173
     0
291
     0
 45
0.0
1001
ACAD
1000
AcDbSavedByObjectVersion
1070
     0
1000
AcDbSavedByObjectVersion
1070
     0
1000
AcDbSavedByObjectVersion
1070
     0
1000
AcDbSavedByObjectVersion
1070
     0
1000
AcDbSavedByObjectVersion
1070
     0
1000
AcDbSavedByObjectVersion
1070
     0
1000
AcDbSavedByObjectVersion
1070
     0
1000
AcDbSavedByObjectVersion
1070
     0
1000
AcDbSavedByObjectVersion
1070
     0
1000
AcDbSavedByObjectVersion
1070
     0
1000
AcDbSavedByObjectVersion
1070
     0
1000
AcDbSavedByObjectVersion
1070
     0
1000
AcDbSavedByObjectVersion
1070
     0
1000
AcDbSavedByObjectVersion
1070
     0
1000
AcDbSavedByObjectVersion
1070
     0
1000
AcDbSavedByObjectVersion
1070
     0
1000
AcDbSavedByObjectVersion
1070
     0
1000
AcDbSavedByObjectVersion
1070
     0
1000
AcDbSavedByObjectVersion
1070
     0
1000
AcDbSavedByObjectVersion
1070
     0
1000
AcDbSavedByObjectVersion
1070
     0
1000
AcDbSavedByObjectVersion
1070
     0
1000
AcDbSavedByObjectVersion
1070
     0
1000
AcDbSavedByObjectVersion
1070
     0
1000
AcDbSavedByObjectVersion
1070
     0
1000
AcDbSavedByObjectVersion
1070
     0
1000
AcDbSavedByObjectVersion
1070
     0
1000
AcDbSavedByObjectVersion
1070
     0
1000
AcDbSavedByObjectVersion
1070
     0
1000
AcDbSavedByObjectVersion
1070
     0
1000
AcDbSavedByObjectVersion
1070
     0
1000
AcDbSavedByObjectVersion
1070
     0
1000
AcDbSavedByObjectVersion
1070
     0
1000
AcDbSavedByObjectVersion
1070
     0
1000
AcDbSavedByObjectVersion
1070
     0
1000
AcDbSavedByObjectVersion
1070
     0
1000
AcDbSavedByObjectVersion
1070
     0
1000
AcDbSavedByObjectVersion
1070
     0
1000
AcDbSavedByObjectVersion
1070
     0
1000
AcDbSavedByObjectVersion
1070
     0
1000
AcDbSavedByObjectVersion
1070
     0
1000
AcDbSavedByObjectVersion
1070
     0
1000
AcDbSavedByObjectVersion
1070
     0
1000
AcDbSavedByObjectVersion
1070
     0
1000
AcDbSavedByObjectVersion
1070
     0
1000
AcDbSavedByObjectVersion
1070
     0
1000
AcDbSavedByObjectVersion
1070
     0
1000
AcDbSavedByObjectVersion
1070
     0
1000
AcDbSavedByObjectVersion
1070
     0
1000
AcDbSavedByObjectVersion
1070
     0
  0
VISUALSTYLE
  5
30
102
{ACAD_REACTORS
330
2A
102
}
330
2A
100
AcDbVisualStyle
  2
3dWireframe
 70
     5
 71
     0
 72
     2
 73
     0
 90
        0
 40
-0.6
 41
-30.0
 62
     5
 63
     7
 74
     1
 91
        4
 64
     7
 65
   257
 75
     1
175
     1
 42
1.0
 92
        0
 66
   257
 43
1.0
 76
     1
 77
     6
 78
     2
 67
     7
 79
     5
170
     0
171
     0
290
     0
174
     0
 93
        1
 44
0.0
173
     0
291
     0
 45
0.0
1001
ACAD
1000
AcDbSavedByObjectVersion
1070
     0
1000
AcDbSavedByObjectVersion
1070
     0
1000
AcDbSavedByObjectVersion
1070
     0
1000
AcDbSavedByObjectVersion
1070
     0
1000
AcDbSavedByObjectVersion
1070
     0
1000
AcDbSavedByObjectVersion
1070
     0
1000
AcDbSavedByObjectVersion
1070
     0
1000
AcDbSavedByObjectVersion
1070
     0
1000
AcDbSavedByObjectVersion
1070
     0
1000
AcDbSavedByObjectVersion
1070
     0
1000
AcDbSavedByObjectVersion
1070
     0
1000
AcDbSavedByObjectVersion
1070
     0
1000
AcDbSavedByObjectVersion
1070
     0
1000
AcDbSavedByObjectVersion
1070
     0
1000
AcDbSavedByObjectVersion
1070
     0
1000
AcDbSavedByObjectVersion
1070
     0
1000
AcDbSavedByObjectVersion
1070
     0
1000
AcDbSavedByObjectVersion
1070
     0
1000
AcDbSavedByObjectVersion
1070
     0
1000
AcDbSavedByObjectVersion
1070
     0
1000
AcDbSavedByObjectVersion
1070
     0
1000
AcDbSavedByObjectVersion
1070
     0
1000
AcDbSavedByObjectVersion
1070
     0
1000
AcDbSavedByObjectVersion
1070
     0
1000
AcDbSavedByObjectVersion
1070
     0
1000
AcDbSavedByObjectVersion
1070
     0
1000
AcDbSavedByObjectVersion
1070
     0
1000
AcDbSavedByObjectVersion
1070
     0
1000
AcDbSavedByObjectVersion
1070
     0
1000
AcDbSavedByObjectVersion
1070
     0
1000
AcDbSavedByObjectVersion
1070
     0
1000
AcDbSavedByObjectVersion
1070
     0
1000
AcDbSavedByObjectVersion
1070
     0
1000
AcDbSavedByObjectVersion
1070
     0
1000
AcDbSavedByObjectVersion
1070
     0
1000
AcDbSavedByObjectVersion
1070
     0
1000
AcDbSavedByObjectVersion
1070
     0
1000
AcDbSavedByObjectVersion
1070
     0
1000
AcDbSavedByObjectVersion
1070
     0
1000
AcDbSavedByObjectVersion
1070
     0
1000
AcDbSavedByObjectVersion
1070
     0
1000
AcDbSavedByObjectVersion
1070
     0
1000
AcDbSavedByObjectVersion
1070
     0
1000
AcDbSavedByObjectVersion
1070
     0
1000
AcDbSavedByObjectVersion
1070
     0
1000
AcDbSavedByObjectVersion
1070
     0
1000
AcDbSavedByObjectVersion
1070
     0
1000
AcDbSavedByObjectVersion
1070
     0
1000
AcDbSavedByObjectVersion
1070
     0
1000
AcDbSavedByObjectVersion
1070
     0
  0
VISUALSTYLE
  5
32
102
{ACAD_REACTORS
330
2A
102
}
330
2A
100
AcDbVisualStyle
  2
Basic
 70
     7
 71
     1
 72
     0
 73
     1
 90
        0
 40
-0.6
 41
-30.0
 62
     5
 63
     7
 74
     0
 91
        4
 64
     7
 65
   257
 75
     1
175
     1
 42
1.0
 92
        8
 66
     7
 43
1.0
 76
     1
 77
     6
 78
     2
 67
     7
 79
     5
170
     0
171
     0
290
     0
174
     0
 93
        1
 44
0.0
173
     0
291
     1
 45
0.0
1001
ACAD
1000
AcDbSavedByObjectVersion
1070
     0
1000
AcDbSavedByObjectVersion
1070
     0
1000
AcDbSavedByObjectVersion
1070
     0
1000
AcDbSavedByObjectVersion
1070
     0
1000
AcDbSavedByObjectVersion
1070
     0
1000
AcDbSavedByObjectVersion
1070
     0
1000
AcDbSavedByObjectVersion
1070
     0
1000
AcDbSavedByObjectVersion
1070
     0
1000
AcDbSavedByObjectVersion
1070
     0
1000
AcDbSavedByObjectVersion
1070
     0
1000
AcDbSavedByObjectVersion
1070
     0
1000
AcDbSavedByObjectVersion
1070
     0
1000
AcDbSavedByObjectVersion
1070
     0
1000
AcDbSavedByObjectVersion
1070
     0
1000
AcDbSavedByObjectVersion
1070
     0
1000
AcDbSavedByObjectVersion
1070
     0
1000
AcDbSavedByObjectVersion
1070
     0
1000
AcDbSavedByObjectVersion
1070
     0
1000
AcDbSavedByObjectVersion
1070
     0
1000
AcDbSavedByObjectVersion
1070
     0
1000
AcDbSavedByObjectVersion
1070
     0
1000
AcDbSavedByObjectVersion
1070
     0
1000
AcDbSavedByObjectVersion
1070
     0
1000
AcDbSavedByObjectVersion
1070
     0
1000
AcDbSavedByObjectVersion
1070
     0
1000
AcDbSavedByObjectVersion
1070
     0
1000
AcDbSavedByObjectVersion
1070
     0
1000
AcDbSavedByObjectVersion
1070
     0
1000
AcDbSavedByObjectVersion
1070
     0
1000
AcDbSavedByObjectVersion
1070
     0
1000
AcDbSavedByObjectVersion
1070
     0
1000
AcDbSavedByObjectVersion
1070
     0
1000
AcDbSavedByObjectVersion
1070
     0
1000
AcDbSavedByObjectVersion
1070
     0
1000
AcDbSavedByObjectVersion
1070
     0
1000
AcDbSavedByObjectVersion
1070
     0
1000
AcDbSavedByObjectVersion
1070
     0
1000
AcDbSavedByObjectVersion
1070
     0
1000
AcDbSavedByObjectVersion
1070
     0
1000
AcDbSavedByObjectVersion
1070
     0
1000
AcDbSavedByObjectVersion
1070
     0
1000
AcDbSavedByObjectVersion
1070
     0
1000
AcDbSavedByObjectVersion
1070
     0
1000
AcDbSavedByObjectVersion
1070
     0
1000
AcDbSavedByObjectVersion
1070
     0
1000
AcDbSavedByObjectVersion
1070
     0
1000
AcDbSavedByObjectVersion
1070
     0
1000
AcDbSavedByObjectVersion
1070
     0
1000
AcDbSavedByObjectVersion
1070
     0
1000
AcDbSavedByObjectVersion
1070
     0
  0
VISUALSTYLE
  5
36
102
{ACAD_REACTORS
330
2A
102
}
330
2A
100
AcDbVisualStyle
  2
Brighten
 70
    12
 71
     2
 72
     2
 73
     0
 90
        0
 40
-0.6
 41
-30.0
 62
     5
 63
     7
 74
     1
 91
        4
 64
     7
 65
   257
 75
     1
175
     1
 42
1.0
 92
        8
 66
     7
 43
1.0
 76
     1
 77
     6
 78
     2
 67
     7
 79
     5
170
     0
171
     0
290
     0
174
     0
 93
        1
 44
50.0
173
     0
291
     1
 45
0.0
1001
ACAD
1000
AcDbSavedByObjectVersion
1070
     0
1000
AcDbSavedByObjectVersion
1070
     0
1000
AcDbSavedByObjectVersion
1070
     0
1000
AcDbSavedByObjectVersion
1070
     0
1000
AcDbSavedByObjectVersion
1070
     0
1000
AcDbSavedByObjectVersion
1070
     0
1000
AcDbSavedByObjectVersion
1070
     0
1000
AcDbSavedByObjectVersion
1070
     0
1000
AcDbSavedByObjectVersion
1070
     0
1000
AcDbSavedByObjectVersion
1070
     0
1000
AcDbSavedByObjectVersion
1070
     0
1000
AcDbSavedByObjectVersion
1070
     0
1000
AcDbSavedByObjectVersion
1070
     0
1000
AcDbSavedByObjectVersion
1070
     0
1000
AcDbSavedByObjectVersion
1070
     0
1000
AcDbSavedByObjectVersion
1070
     0
1000
AcDbSavedByObjectVersion
1070
     0
1000
AcDbSavedByObjectVersion
1070
     0
1000
AcDbSavedByObjectVersion
1070
     0
1000
AcDbSavedByObjectVersion
1070
     0
1000
AcDbSavedByObjectVersion
1070
     0
1000
AcDbSavedByObjectVersion
1070
     0
1000
AcDbSavedByObjectVersion
1070
     0
1000
AcDbSavedByObjectVersion
1070
     0
1000
AcDbSavedByObjectVersion
1070
     0
1000
AcDbSavedByObjectVersion
1070
     0
1000
AcDbSavedByObjectVersion
1070
     0
1000
AcDbSavedByObjectVersion
1070
     0
1000
AcDbSavedByObjectVersion
1070
     0
1000
AcDbSavedByObjectVersion
1070
     0
1000
AcDbSavedByObjectVersion
1070
     0
1000
AcDbSavedByObjectVersion
1070
     0
1000
AcDbSavedByObjectVersion
1070
     0
1000
AcDbSavedByObjectVersion
1070
     0
1000
AcDbSavedByObjectVersion
1070
     0
1000
AcDbSavedByObjectVersion
1070
     0
1000
AcDbSavedByObjectVersion
1070
     0
1000
AcDbSavedByObjectVersion
1070
     0
1000
AcDbSavedByObjectVersion
1070
     0
1000
AcDbSavedByObjectVersion
1070
     0
1000
AcDbSavedByObjectVersion
1070
     0
1000
AcDbSavedByObjectVersion
1070
     0
1000
AcDbSavedByObjectVersion
1070
     0
1000
AcDbSavedByObjectVersion
1070
     0
1000
AcDbSavedByObjectVersion
1070
     0
1000
AcDbSavedByObjectVersion
1070
     0
1000
AcDbSavedByObjectVersion
1070
     0
1000
AcDbSavedByObjectVersion
1070
     0
1000
AcDbSavedByObjectVersion
1070
     0
1000
AcDbSavedByObjectVersion
1070
     0
  0
VISUALSTYLE
  5
3A
102
{ACAD_REACTORS
330
2A
102
}
330
2A
100
AcDbVisualStyle
  2
ColorChange
 70
    16
 71
     2
 72
     2
 73
     3
 90
        0
 40
-0.6
 41
-30.0
 62
     5
 63
     8
 74
     1
 91
        4
 64
     7
 65
   257
 75
     1
175
     1
 42
1.0
 92
        8
 66
     8
 43
1.0
 76
     1
 77
     6
 78
     2
 67
     7
 79
     5
170
     0
171
     0
290
     0
174
     0
 93
        1
 44
0.0
173
     0
291
     1
 45
0.0
1001
ACAD
1000
AcDbSavedByObjectVersion
1070
     0
1000
AcDbSavedByObjectVersion
1070
     0
1000
AcDbSavedByObjectVersion
1070
     0
1000
AcDbSavedByObjectVersion
1070
     0
1000
AcDbSavedByObjectVersion
1070
     0
1000
AcDbSavedByObjectVersion
1070
     0
1000
AcDbSavedByObjectVersion
1070
     0
1000
AcDbSavedByObjectVersion
1070
     0
1000
AcDbSavedByObjectVersion
1070
     0
1000
AcDbSavedByObjectVersion
1070
     0
1000
AcDbSavedByObjectVersion
1070
     0
1000
AcDbSavedByObjectVersion
1070
     0
1000
AcDbSavedByObjectVersion
1070
     0
1000
AcDbSavedByObjectVersion
1070
     0
1000
AcDbSavedByObjectVersion
1070
     0
1000
AcDbSavedByObjectVersion
1070
     0
1000
AcDbSavedByObjectVersion
1070
     0
1000
AcDbSavedByObjectVersion
1070
     0
1000
AcDbSavedByObjectVersion
1070
     0
1000
AcDbSavedByObjectVersion
1070
     0
1000
AcDbSavedByObjectVersion
1070
     0
1000
AcDbSavedByObjectVersion
1070
     0
1000
AcDbSavedByObjectVersion
1070
     0
1000
AcDbSavedByObjectVersion
1070
     0
1000
AcDbSavedByObjectVersion
1070
     0
1000
AcDbSavedByObjectVersion
1070
     0
1000
AcDbSavedByObjectVersion
1070
     0
1000
AcDbSavedByObjectVersion
1070
     0
1000
AcDbSavedByObjectVersion
1070
     0
1000
AcDbSavedByObjectVersion
1070
     0
1000
AcDbSavedByObjectVersion
1070
     0
1000
AcDbSavedByObjectVersion
1070
     0
1000
AcDbSavedByObjectVersion
1070
     0
1000
AcDbSavedByObjectVersion
1070
     0
1000
AcDbSavedByObjectVersion
1070
     0
1000
AcDbSavedByObjectVersion
1070
     0
1000
AcDbSavedByObjectVersion
1070
     0
1000
AcDbSavedByObjectVersion
1070
     0
1000
AcDbSavedByObjectVersion
1070
     0
1000
AcDbSavedByObjectVersion
1070
     0
1000
AcDbSavedByObjectVersion
1070
     0
1000
AcDbSavedByObjectVersion
1070
     0
1000
AcDbSavedByObjectVersion
1070
     0
1000
AcDbSavedByObjectVersion
1070
     0
1000
AcDbSavedByObjectVersion
1070
     0
1000
AcDbSavedByObjectVersion
1070
     0
1000
AcDbSavedByObjectVersion
1070
     0
1000
AcDbSavedByObjectVersion
1070
     0
1000
AcDbSavedByObjectVersion
1070
     0
1000
AcDbSavedByObjectVersion
1070
     0
  0
VISUALSTYLE
  5
34
102
{ACAD_REACTORS
330
2A
102
}
330
2A
100
AcDbVisualStyle
  2
Conceptual
 70
     9
 71
     3
 72
     2
 73
     0
 90
        0
 40
-0.6
 41
-30.0
 62
     5
 63
     7
 74
     2
 91
        2
 64
     7
 65
   257
 75
     1
175
     1
 42
40.0
 92
        8
 66
     7
 43
1.0
 76
     1
 77
     6
 78
     2
 67
     7
 79
     3
170
     0
171
     0
290
     0
174
     0
 93
        1
 44
0.0
173
     0
291
     0
 45
0.0
1001
ACAD
1000
AcDbSavedByObjectVersion
1070
     0
1000
AcDbSavedByObjectVersion
1070
     0
1000
AcDbSavedByObjectVersion
1070
     0
1000
AcDbSavedByObjectVersion
1070
     0
1000
AcDbSavedByObjectVersion
1070
     0
1000
AcDbSavedByObjectVersion
1070
     0
1000
AcDbSavedByObjectVersion
1070
     0
1000
AcDbSavedByObjectVersion
1070
     0
1000
AcDbSavedByObjectVersion
1070
     0
1000
AcDbSavedByObjectVersion
1070
     0
1000
AcDbSavedByObjectVersion
1070
     0
1000
AcDbSavedByObjectVersion
1070
     0
1000
AcDbSavedByObjectVersion
1070
     0
1000
AcDbSavedByObjectVersion
1070
     0
1000
AcDbSavedByObjectVersion
1070
     0
1000
AcDbSavedByObjectVersion
1070
     0
1000
AcDbSavedByObjectVersion
1070
     0
1000
AcDbSavedByObjectVersion
1070
     0
1000
AcDbSavedByObjectVersion
1070
     0
1000
AcDbSavedByObjectVersion
1070
     0
1000
AcDbSavedByObjectVersion
1070
     0
1000
AcDbSavedByObjectVersion
1070
     0
1000
AcDbSavedByObjectVersion
1070
     0
1000
AcDbSavedByObjectVersion
1070
     0
1000
AcDbSavedByObjectVersion
1070
     0
1000
AcDbSavedByObjectVersion
1070
     0
1000
AcDbSavedByObjectVersion
1070
     0
1000
AcDbSavedByObjectVersion
1070
     0
1000
AcDbSavedByObjectVersion
1070
     0
1000
AcDbSavedByObjectVersion
1070
     0
1000
AcDbSavedByObjectVersion
1070
     0
1000
AcDbSavedByObjectVersion
1070
     0
1000
AcDbSavedByObjectVersion
1070
     0
1000
AcDbSavedByObjectVersion
1070
     0
1000
AcDbSavedByObjectVersion
1070
     0
1000
AcDbSavedByObjectVersion
1070
     0
1000
AcDbSavedByObjectVersion
1070
     0
1000
AcDbSavedByObjectVersion
1070
     0
1000
AcDbSavedByObjectVersion
1070
     0
1000
AcDbSavedByObjectVersion
1070
     0
1000
AcDbSavedByObjectVersion
1070
     0
1000
AcDbSavedByObjectVersion
1070
     0
1000
AcDbSavedByObjectVersion
1070
     0
1000
AcDbSavedByObjectVersion
1070
     0
1000
AcDbSavedByObjectVersion
1070
     0
1000
AcDbSavedByObjectVersion
1070
     0
1000
AcDbSavedByObjectVersion
1070
     0
1000
AcDbSavedByObjectVersion
1070
     0
1000
AcDbSavedByObjectVersion
1070
     0
1000
AcDbSavedByObjectVersion
1070
     0
  0
VISUALSTYLE
  5
35
102
{ACAD_REACTORS
330
2A
102
}
330
2A
100
AcDbVisualStyle
  2
Dim
 70
    11
 71
     2
 72
     2
 73
     0
 90
        0
 40
-0.6
 41
-30.0
 62
     5
 63
     7
 74
     1
 91
        4
 64
     7
 65
   257
 75
     1
175
     1
 42
1.0
 92
        8
 66
     7
 43
1.0
 76
     1
 77
     6
 78
     2
 67
     7
 79
     5
170
     0
171
     0
290
     0
174
     0
 93
        1
 44
-50.0
173
     0
291
     1
 45
0.0
1001
ACAD
1000
AcDbSavedByObjectVersion
1070
     0
1000
AcDbSavedByObjectVersion
1070
     0
1000
AcDbSavedByObjectVersion
1070
     0
1000
AcDbSavedByObjectVersion
1070
     0
1000
AcDbSavedByObjectVersion
1070
     0
1000
AcDbSavedByObjectVersion
1070
     0
1000
AcDbSavedByObjectVersion
1070
     0
1000
AcDbSavedByObjectVersion
1070
     0
1000
AcDbSavedByObjectVersion
1070
     0
1000
AcDbSavedByObjectVersion
1070
     0
1000
AcDbSavedByObjectVersion
1070
     0
1000
AcDbSavedByObjectVersion
1070
     0
1000
AcDbSavedByObjectVersion
1070
     0
1000
AcDbSavedByObjectVersion
1070
     0
1000
AcDbSavedByObjectVersion
1070
     0
1000
AcDbSavedByObjectVersion
1070
     0
1000
AcDbSavedByObjectVersion
1070
     0
1000
AcDbSavedByObjectVersion
1070
     0
1000
AcDbSavedByObjectVersion
1070
     0
1000
AcDbSavedByObjectVersion
1070
     0
1000
AcDbSavedByObjectVersion
1070
     0
1000
AcDbSavedByObjectVersion
1070
     0
1000
AcDbSavedByObjectVersion
1070
     0
1000
AcDbSavedByObjectVersion
1070
     0
1000
AcDbSavedByObjectVersion
1070
     0
1000
AcDbSavedByObjectVersion
1070
     0
1000
AcDbSavedByObjectVersion
1070
     0
1000
AcDbSavedByObjectVersion
1070
     0
1000
AcDbSavedByObjectVersion
1070
     0
1000
AcDbSavedByObjectVersion
1070
     0
1000
AcDbSavedByObjectVersion
1070
     0
1000
AcDbSavedByObjectVersion
1070
     0
1000
AcDbSavedByObjectVersion
1070
     0
1000
AcDbSavedByObjectVersion
1070
     0
1000
AcDbSavedByObjectVersion
1070
     0
1000
AcDbSavedByObjectVersion
1070
     0
1000
AcDbSavedByObjectVersion
1070
     0
1000
AcDbSavedByObjectVersion
1070
     0
1000
AcDbSavedByObjectVersion
1070
     0
1000
AcDbSavedByObjectVersion
1070
     0
1000
AcDbSavedByObjectVersion
1070
     0
1000
AcDbSavedByObjectVersion
1070
     0
1000
AcDbSavedByObjectVersion
1070
     0
1000
AcDbSavedByObjectVersion
1070
     0
1000
AcDbSavedByObjectVersion
1070
     0
1000
AcDbSavedByObjectVersion
1070
     0
1000
AcDbSavedByObjectVersion
1070
     0
1000
AcDbSavedByObjectVersion
1070
     0
1000
AcDbSavedByObjectVersion
1070
     0
1000
AcDbSavedByObjectVersion
1070
     0
  0
VISUALSTYLE
  5
39
102
{ACAD_REACTORS
330
2A
102
}
330
2A
100
AcDbVisualStyle
  2
Facepattern
 70
    15
 71
     2
 72
     2
 73
     0
 90
        0
 40
-0.6
 41
-30.0
 62
     5
 63
     7
 74
     1
 91
        4
 64
     7
 65
   257
 75
     1
175
     1
 42
1.0
 92
        8
 66
     7
 43
1.0
 76
     1
 77
     6
 78
     2
 67
     7
 79
     5
170
     0
171
     0
290
     0
174
     0
 93
        1
 44
0.0
173
     0
291
     1
 45
0.0
1001
ACAD
1000
AcDbSavedByObjectVersion
1070
     0
1000
AcDbSavedByObjectVersion
1070
     0
1000
AcDbSavedByObjectVersion
1070
     0
1000
AcDbSavedByObjectVersion
1070
     0
1000
AcDbSavedByObjectVersion
1070
     0
1000
AcDbSavedByObjectVersion
1070
     0
1000
AcDbSavedByObjectVersion
1070
     0
1000
AcDbSavedByObjectVersion
1070
     0
1000
AcDbSavedByObjectVersion
1070
     0
1000
AcDbSavedByObjectVersion
1070
     0
1000
AcDbSavedByObjectVersion
1070
     0
1000
AcDbSavedByObjectVersion
1070
     0
1000
AcDbSavedByObjectVersion
1070
     0
1000
AcDbSavedByObjectVersion
1070
     0
1000
AcDbSavedByObjectVersion
1070
     0
1000
AcDbSavedByObjectVersion
1070
     0
1000
AcDbSavedByObjectVersion
1070
     0
1000
AcDbSavedByObjectVersion
1070
     0
1000
AcDbSavedByObjectVersion
1070
     0
1000
AcDbSavedByObjectVersion
1070
     0
1000
AcDbSavedByObjectVersion
1070
     0
1000
AcDbSavedByObjectVersion
1070
     0
1000
AcDbSavedByObjectVersion
1070
     0
1000
AcDbSavedByObjectVersion
1070
     0
1000
AcDbSavedByObjectVersion
1070
     0
1000
AcDbSavedByObjectVersion
1070
     0
1000
AcDbSavedByObjectVersion
1070
     0
1000
AcDbSavedByObjectVersion
1070
     0
1000
AcDbSavedByObjectVersion
1070
     0
1000
AcDbSavedByObjectVersion
1070
     0
1000
AcDbSavedByObjectVersion
1070
     0
1000
AcDbSavedByObjectVersion
1070
     0
1000
AcDbSavedByObjectVersion
1070
     0
1000
AcDbSavedByObjectVersion
1070
     0
1000
AcDbSavedByObjectVersion
1070
     0
1000
AcDbSavedByObjectVersion
1070
     0
1000
AcDbSavedByObjectVersion
1070
     0
1000
AcDbSavedByObjectVersion
1070
     0
1000
AcDbSavedByObjectVersion
1070
     0
1000
AcDbSavedByObjectVersion
1070
     0
1000
AcDbSavedByObjectVersion
1070
     0
1000
AcDbSavedByObjectVersion
1070
     0
1000
AcDbSavedByObjectVersion
1070
     0
1000
AcDbSavedByObjectVersion
1070
     0
1000
AcDbSavedByObjectVersion
1070
     0
1000
AcDbSavedByObjectVersion
1070
     0
1000
AcDbSavedByObjectVersion
1070
     0
1000
AcDbSavedByObjectVersion
1070
     0
1000
AcDbSavedByObjectVersion
1070
     0
1000
AcDbSavedByObjectVersion
1070
     0
  0
VISUALSTYLE
  5
2B
102
{ACAD_REACTORS
330
2A
102
}
330
2A
100
AcDbVisualStyle
  2
Flat
 70
     0
 71
     2
 72
     1
 73
     1
 90
        2
 40
-0.6
 41
30.0
 62
     5
 63
     7
 74
     0
 91
        4
 64
     7
 65
   257
 75
     1
175
     1
 42
1.0
 92
        8
 66
     7
 43
1.0
 76
     1
 77
     6
 78
     2
 67
     7
 79
     5
170
     0
171
     0
290
     0
174
     0
 93
       13
 44
0.0
173
     0
291
     1
 45
0.0
1001
ACAD
1000
AcDbSavedByObjectVersion
1070
     0
1000
AcDbSavedByObjectVersion
1070
     0
1000
AcDbSavedByObjectVersion
1070
     0
1000
AcDbSavedByObjectVersion
1070
     0
1000
AcDbSavedByObjectVersion
1070
     0
1000
AcDbSavedByObjectVersion
1070
     0
1000
AcDbSavedByObjectVersion
1070
     0
1000
AcDbSavedByObjectVersion
1070
     0
1000
AcDbSavedByObjectVersion
1070
     0
1000
AcDbSavedByObjectVersion
1070
     0
1000
AcDbSavedByObjectVersion
1070
     0
1000
AcDbSavedByObjectVersion
1070
     0
1000
AcDbSavedByObjectVersion
1070
     0
1000
AcDbSavedByObjectVersion
1070
     0
1000
AcDbSavedByObjectVersion
1070
     0
1000
AcDbSavedByObjectVersion
1070
     0
1000
AcDbSavedByObjectVersion
1070
     0
1000
AcDbSavedByObjectVersion
1070
     0
1000
AcDbSavedByObjectVersion
1070
     0
1000
AcDbSavedByObjectVersion
1070
     0
1000
AcDbSavedByObjectVersion
1070
     0
1000
AcDbSavedByObjectVersion
1070
     0
1000
AcDbSavedByObjectVersion
1070
     0
1000
AcDbSavedByObjectVersion
1070
     0
1000
AcDbSavedByObjectVersion
1070
     0
1000
AcDbSavedByObjectVersion
1070
     0
1000
AcDbSavedByObjectVersion
1070
     0
1000
AcDbSavedByObjectVersion
1070
     0
1000
AcDbSavedByObjectVersion
1070
     0
1000
AcDbSavedByObjectVersion
1070
     0
1000
AcDbSavedByObjectVersion
1070
     0
1000
AcDbSavedByObjectVersion
1070
     0
1000
AcDbSavedByObjectVersion
1070
     0
1000
AcDbSavedByObjectVersion
1070
     0
1000
AcDbSavedByObjectVersion
1070
     0
1000
AcDbSavedByObjectVersion
1070
     0
1000
AcDbSavedByObjectVersion
1070
     0
1000
AcDbSavedByObjectVersion
1070
     0
1000
AcDbSavedByObjectVersion
1070
     0
1000
AcDbSavedByObjectVersion
1070
     0
1000
AcDbSavedByObjectVersion
1070
     0
1000
AcDbSavedByObjectVersion
1070
     0
1000
AcDbSavedByObjectVersion
1070
     0
1000
AcDbSavedByObjectVersion
1070
     0
1000
AcDbSavedByObjectVersion
1070
     0
1000
AcDbSavedByObjectVersion
1070
     0
1000
AcDbSavedByObjectVersion
1070
     0
1000
AcDbSavedByObjectVersion
1070
     0
1000
AcDbSavedByObjectVersion
1070
     0
1000
AcDbSavedByObjectVersion
1070
     0
  0
VISUALSTYLE
  5
2C
102
{ACAD_REACTORS
330
2A
102
}
330
2A
100
AcDbVisualStyle
  2
FlatWithEdges
 70
     1
 71
     2
 72
     1
 73
     1
 90
        2
 40
-0.6
 41
30.0
 62
     5
 63
     7
 74
     1
 91
        4
 64
     7
 65
   257
 75
     1
175
     1
 42
1.0
 92
        0
 66
   257
 43
1.0
 76
     1
 77
     6
 78
     2
 67
     7
 79
     5
170
     0
171
     0
290
     0
174
     0
 93
       13
 44
0.0
173
     0
291
     1
 45
0.0
1001
ACAD
1000
AcDbSavedByObjectVersion
1070
     0
1000
AcDbSavedByObjectVersion
1070
     0
1000
AcDbSavedByObjectVersion
1070
     0
1000
AcDbSavedByObjectVersion
1070
     0
1000
AcDbSavedByObjectVersion
1070
     0
1000
AcDbSavedByObjectVersion
1070
     0
1000
AcDbSavedByObjectVersion
1070
     0
1000
AcDbSavedByObjectVersion
1070
     0
1000
AcDbSavedByObjectVersion
1070
     0
1000
AcDbSavedByObjectVersion
1070
     0
1000
AcDbSavedByObjectVersion
1070
     0
1000
AcDbSavedByObjectVersion
1070
     0
1000
AcDbSavedByObjectVersion
1070
     0
1000
AcDbSavedByObjectVersion
1070
     0
1000
AcDbSavedByObjectVersion
1070
     0
1000
AcDbSavedByObjectVersion
1070
     0
1000
AcDbSavedByObjectVersion
1070
     0
1000
AcDbSavedByObjectVersion
1070
     0
1000
AcDbSavedByObjectVersion
1070
     0
1000
AcDbSavedByObjectVersion
1070
     0
1000
AcDbSavedByObjectVersion
1070
     0
1000
AcDbSavedByObjectVersion
1070
     0
1000
AcDbSavedByObjectVersion
1070
     0
1000
AcDbSavedByObjectVersion
1070
     0
1000
AcDbSavedByObjectVersion
1070
     0
1000
AcDbSavedByObjectVersion
1070
     0
1000
AcDbSavedByObjectVersion
1070
     0
1000
AcDbSavedByObjectVersion
1070
     0
1000
AcDbSavedByObjectVersion
1070
     0
1000
AcDbSavedByObjectVersion
1070
     0
1000
AcDbSavedByObjectVersion
1070
     0
1000
AcDbSavedByObjectVersion
1070
     0
1000
AcDbSavedByObjectVersion
1070
     0
1000
AcDbSavedByObjectVersion
1070
     0
1000
AcDbSavedByObjectVersion
1070
     0
1000
AcDbSavedByObjectVersion
1070
     0
1000
AcDbSavedByObjectVersion
1070
     0
1000
AcDbSavedByObjectVersion
1070
     0
1000
AcDbSavedByObjectVersion
1070
     0
1000
AcDbSavedByObjectVersion
1070
     0
1000
AcDbSavedByObjectVersion
1070
     0
1000
AcDbSavedByObjectVersion
1070
     0
1000
AcDbSavedByObjectVersion
1070
     0
1000
AcDbSavedByObjectVersion
1070
     0
1000
AcDbSavedByObjectVersion
1070
     0
1000
AcDbSavedByObjectVersion
1070
     0
1000
AcDbSavedByObjectVersion
1070
     0
1000
AcDbSavedByObjectVersion
1070
     0
1000
AcDbSavedByObjectVersion
1070
     0
1000
AcDbSavedByObjectVersion
1070
     0
  0
VISUALSTYLE
  5
2D
102
{ACAD_REACTORS
330
2A
102
}
330
2A
100
AcDbVisualStyle
  2
Gouraud
 70
     2
 71
     2
 72
     2
 73
     1
 90
        2
 40
-0.6
 41
30.0
 62
     5
 63
     7
 74
     0
 91
        4
 64
     7
 65
   257
 75
     1
175
     1
 42
1.0
 92
        0
 66
     7
 43
1.0
 76
     1
 77
     6
 78
     2
 67
     7
 79
     5
170
     0
171
     0
290
     0
174
     0
 93
       13
 44
0.0
173
     0
291
     1
 45
0.0
1001
ACAD
1000
AcDbSavedByObjectVersion
1070
     0
1000
AcDbSavedByObjectVersion
1070
     0
1000
AcDbSavedByObjectVersion
1070
     0
1000
AcDbSavedByObjectVersion
1070
     0
1000
AcDbSavedByObjectVersion
1070
     0
1000
AcDbSavedByObjectVersion
1070
     0
1000
AcDbSavedByObjectVersion
1070
     0
1000
AcDbSavedByObjectVersion
1070
     0
1000
AcDbSavedByObjectVersion
1070
     0
1000
AcDbSavedByObjectVersion
1070
     0
1000
AcDbSavedByObjectVersion
1070
     0
1000
AcDbSavedByObjectVersion
1070
     0
1000
AcDbSavedByObjectVersion
1070
     0
1000
AcDbSavedByObjectVersion
1070
     0
1000
AcDbSavedByObjectVersion
1070
     0
1000
AcDbSavedByObjectVersion
1070
     0
1000
AcDbSavedByObjectVersion
1070
     0
1000
AcDbSavedByObjectVersion
1070
     0
1000
AcDbSavedByObjectVersion
1070
     0
1000
AcDbSavedByObjectVersion
1070
     0
1000
AcDbSavedByObjectVersion
1070
     0
1000
AcDbSavedByObjectVersion
1070
     0
1000
AcDbSavedByObjectVersion
1070
     0
1000
AcDbSavedByObjectVersion
1070
     0
1000
AcDbSavedByObjectVersion
1070
     0
1000
AcDbSavedByObjectVersion
1070
     0
1000
AcDbSavedByObjectVersion
1070
     0
1000
AcDbSavedByObjectVersion
1070
     0
1000
AcDbSavedByObjectVersion
1070
     0
1000
AcDbSavedByObjectVersion
1070
     0
1000
AcDbSavedByObjectVersion
1070
     0
1000
AcDbSavedByObjectVersion
1070
     0
1000
AcDbSavedByObjectVersion
1070
     0
1000
AcDbSavedByObjectVersion
1070
     0
1000
AcDbSavedByObjectVersion
1070
     0
1000
AcDbSavedByObjectVersion
1070
     0
1000
AcDbSavedByObjectVersion
1070
     0
1000
AcDbSavedByObjectVersion
1070
     0
1000
AcDbSavedByObjectVersion
1070
     0
1000
AcDbSavedByObjectVersion
1070
     0
1000
AcDbSavedByObjectVersion
1070
     0
1000
AcDbSavedByObjectVersion
1070
     0
1000
AcDbSavedByObjectVersion
1070
     0
1000
AcDbSavedByObjectVersion
1070
     0
1000
AcDbSavedByObjectVersion
1070
     0
1000
AcDbSavedByObjectVersion
1070
     0
1000
AcDbSavedByObjectVersion
1070
     0
1000
AcDbSavedByObjectVersion
1070
     0
1000
AcDbSavedByObjectVersion
1070
     0
1000
AcDbSavedByObjectVersion
1070
     0
  0
VISUALSTYLE
  5
2E
102
{ACAD_REACTORS
330
2A
102
}
330
2A
100
AcDbVisualStyle
  2
GouraudWithEdges
 70
     3
 71
     2
 72
     2
 73
     1
 90
        2
 40
-0.6
 41
30.0
 62
     5
 63
     7
 74
     1
 91
        4
 64
     7
 65
   257
 75
     1
175
     1
 42
1.0
 92
        0
 66
   257
 43
1.0
 76
     1
 77
     6
 78
     2
 67
     7
 79
     5
170
     0
171
     0
290
     0
174
     0
 93
       13
 44
0.0
173
     0
291
     1
 45
0.0
1001
ACAD
1000
AcDbSavedByObjectVersion
1070
     0
1000
AcDbSavedByObjectVersion
1070
     0
1000
AcDbSavedByObjectVersion
1070
     0
1000
AcDbSavedByObjectVersion
1070
     0
1000
AcDbSavedByObjectVersion
1070
     0
1000
AcDbSavedByObjectVersion
1070
     0
1000
AcDbSavedByObjectVersion
1070
     0
1000
AcDbSavedByObjectVersion
1070
     0
1000
AcDbSavedByObjectVersion
1070
     0
1000
AcDbSavedByObjectVersion
1070
     0
1000
AcDbSavedByObjectVersion
1070
     0
1000
AcDbSavedByObjectVersion
1070
     0
1000
AcDbSavedByObjectVersion
1070
     0
1000
AcDbSavedByObjectVersion
1070
     0
1000
AcDbSavedByObjectVersion
1070
     0
1000
AcDbSavedByObjectVersion
1070
     0
1000
AcDbSavedByObjectVersion
1070
     0
1000
AcDbSavedByObjectVersion
1070
     0
1000
AcDbSavedByObjectVersion
1070
     0
1000
AcDbSavedByObjectVersion
1070
     0
1000
AcDbSavedByObjectVersion
1070
     0
1000
AcDbSavedByObjectVersion
1070
     0
1000
AcDbSavedByObjectVersion
1070
     0
1000
AcDbSavedByObjectVersion
1070
     0
1000
AcDbSavedByObjectVersion
1070
     0
1000
AcDbSavedByObjectVersion
1070
     0
1000
AcDbSavedByObjectVersion
1070
     0
1000
AcDbSavedByObjectVersion
1070
     0
1000
AcDbSavedByObjectVersion
1070
     0
1000
AcDbSavedByObjectVersion
1070
     0
1000
AcDbSavedByObjectVersion
1070
     0
1000
AcDbSavedByObjectVersion
1070
     0
1000
AcDbSavedByObjectVersion
1070
     0
1000
AcDbSavedByObjectVersion
1070
     0
1000
AcDbSavedByObjectVersion
1070
     0
1000
AcDbSavedByObjectVersion
1070
     0
1000
AcDbSavedByObjectVersion
1070
     0
1000
AcDbSavedByObjectVersion
1070
     0
1000
AcDbSavedByObjectVersion
1070
     0
1000
AcDbSavedByObjectVersion
1070
     0
1000
AcDbSavedByObjectVersion
1070
     0
1000
AcDbSavedByObjectVersion
1070
     0
1000
AcDbSavedByObjectVersion
1070
     0
1000
AcDbSavedByObjectVersion
1070
     0
1000
AcDbSavedByObjectVersion
1070
     0
1000
AcDbSavedByObjectVersion
1070
     0
1000
AcDbSavedByObjectVersion
1070
     0
1000
AcDbSavedByObjectVersion
1070
     0
1000
AcDbSavedByObjectVersion
1070
     0
1000
AcDbSavedByObjectVersion
1070
     0
  0
VISUALSTYLE
  5
38
102
{ACAD_REACTORS
330
2A
102
}
330
2A
100
AcDbVisualStyle
  2
Linepattern
 70
    14
 71
     2
 72
     2
 73
     0
 90
        0
 40
-0.6
 41
-30.0
 62
     5
 63
     7
 74
     1
 91
        4
 64
     7
 65
   257
 75
     7
175
     7
 42
1.0
 92
        8
 66
     7
 43
1.0
 76
     1
 77
     6
 78
     2
 67
     7
 79
     5
170
     0
171
     0
290
     0
174
     0
 93
        1
 44
0.0
173
     0
291
     1
 45
0.0
1001
ACAD
1000
AcDbSavedByObjectVersion
1070
     0
1000
AcDbSavedByObjectVersion
1070
     0
1000
AcDbSavedByObjectVersion
1070
     0
1000
AcDbSavedByObjectVersion
1070
     0
1000
AcDbSavedByObjectVersion
1070
     0
1000
AcDbSavedByObjectVersion
1070
     0
1000
AcDbSavedByObjectVersion
1070
     0
1000
AcDbSavedByObjectVersion
1070
     0
1000
AcDbSavedByObjectVersion
1070
     0
1000
AcDbSavedByObjectVersion
1070
     0
1000
AcDbSavedByObjectVersion
1070
     0
1000
AcDbSavedByObjectVersion
1070
     0
1000
AcDbSavedByObjectVersion
1070
     0
1000
AcDbSavedByObjectVersion
1070
     0
1000
AcDbSavedByObjectVersion
1070
     0
1000
AcDbSavedByObjectVersion
1070
     0
1000
AcDbSavedByObjectVersion
1070
     0
1000
AcDbSavedByObjectVersion
1070
     0
1000
AcDbSavedByObjectVersion
1070
     0
1000
AcDbSavedByObjectVersion
1070
     0
1000
AcDbSavedByObjectVersion
1070
     0
1000
AcDbSavedByObjectVersion
1070
     0
1000
AcDbSavedByObjectVersion
1070
     0
1000
AcDbSavedByObjectVersion
1070
     0
1000
AcDbSavedByObjectVersion
1070
     0
1000
AcDbSavedByObjectVersion
1070
     0
1000
AcDbSavedByObjectVersion
1070
     0
1000
AcDbSavedByObjectVersion
1070
     0
1000
AcDbSavedByObjectVersion
1070
     0
1000
AcDbSavedByObjectVersion
1070
     0
1000
AcDbSavedByObjectVersion
1070
     0
1000
AcDbSavedByObjectVersion
1070
     0
1000
AcDbSavedByObjectVersion
1070
     0
1000
AcDbSavedByObjectVersion
1070
     0
1000
AcDbSavedByObjectVersion
1070
     0
1000
AcDbSavedByObjectVersion
1070
     0
1000
AcDbSavedByObjectVersion
1070
     0
1000
AcDbSavedByObjectVersion
1070
     0
1000
AcDbSavedByObjectVersion
1070
     0
1000
AcDbSavedByObjectVersion
1070
     0
1000
AcDbSavedByObjectVersion
1070
     0
1000
AcDbSavedByObjectVersion
1070
     0
1000
AcDbSavedByObjectVersion
1070
     0
1000
AcDbSavedByObjectVersion
1070
     0
1000
AcDbSavedByObjectVersion
1070
     0
1000
AcDbSavedByObjectVersion
1070
     0
1000
AcDbSavedByObjectVersion
1070
     0
1000
AcDbSavedByObjectVersion
1070
     0
1000
AcDbSavedByObjectVersion
1070
     0
1000
AcDbSavedByObjectVersion
1070
     0
  0
VISUALSTYLE
  5
33
102
{ACAD_REACTORS
330
2A
102
}
330
2A
100
AcDbVisualStyle
  2
Realistic
 70
     8
 71
     2
 72
     2
 73
     0
 90
        0
 40
-0.6
 41
-30.0
 62
     5
 63
     7
 74
     1
 91
        0
 64
     7
 65
   257
 75
     1
175
     1
 42
1.0
 92
        8
 66
     8
 43
1.0
 76
     1
 77
     6
 78
     2
 67
     7
 79
     5
170
     0
171
     0
290
     0
174
     0
 93
       13
 44
0.0
173
     0
291
     0
 45
0.0
1001
ACAD
1000
AcDbSavedByObjectVersion
1070
     0
1000
AcDbSavedByObjectVersion
1070
     0
1000
AcDbSavedByObjectVersion
1070
     0
1000
AcDbSavedByObjectVersion
1070
     0
1000
AcDbSavedByObjectVersion
1070
     0
1000
AcDbSavedByObjectVersion
1070
     0
1000
AcDbSavedByObjectVersion
1070
     0
1000
AcDbSavedByObjectVersion
1070
     0
1000
AcDbSavedByObjectVersion
1070
     0
1000
AcDbSavedByObjectVersion
1070
     0
1000
AcDbSavedByObjectVersion
1070
     0
1000
AcDbSavedByObjectVersion
1070
     0
1000
AcDbSavedByObjectVersion
1070
     0
1000
AcDbSavedByObjectVersion
1070
     0
1000
AcDbSavedByObjectVersion
1070
     0
1000
AcDbSavedByObjectVersion
1070
     0
1000
AcDbSavedByObjectVersion
1070
     0
1000
AcDbSavedByObjectVersion
1070
     0
1000
AcDbSavedByObjectVersion
1070
     0
1000
AcDbSavedByObjectVersion
1070
     0
1000
AcDbSavedByObjectVersion
1070
     0
1000
AcDbSavedByObjectVersion
1070
     0
1000
AcDbSavedByObjectVersion
1070
     0
1000
AcDbSavedByObjectVersion
1070
     0
1000
AcDbSavedByObjectVersion
1070
     0
1000
AcDbSavedByObjectVersion
1070
     0
1000
AcDbSavedByObjectVersion
1070
     0
1000
AcDbSavedByObjectVersion
1070
     0
1000
AcDbSavedByObjectVersion
1070
     0
1000
AcDbSavedByObjectVersion
1070
     0
1000
AcDbSavedByObjectVersion
1070
     0
1000
AcDbSavedByObjectVersion
1070
     0
1000
AcDbSavedByObjectVersion
1070
     0
1000
AcDbSavedByObjectVersion
1070
     0
1000
AcDbSavedByObjectVersion
1070
     0
1000
AcDbSavedByObjectVersion
1070
     0
1000
AcDbSavedByObjectVersion
1070
     0
1000
AcDbSavedByObjectVersion
1070
     0
1000
AcDbSavedByObjectVersion
1070
     0
1000
AcDbSavedByObjectVersion
1070
     0
1000
AcDbSavedByObjectVersion
1070
     0
1000
AcDbSavedByObjectVersion
1070
     0
1000
AcDbSavedByObjectVersion
1070
     0
1000
AcDbSavedByObjectVersion
1070
     0
1000
AcDbSavedByObjectVersion
1070
     0
1000
AcDbSavedByObjectVersion
1070
     0
1000
AcDbSavedByObjectVersion
1070
     0
1000
AcDbSavedByObjectVersion
1070
     0
1000
AcDbSavedByObjectVersion
1070
     0
1000
AcDbSavedByObjectVersion
1070
     0
  0
VISUALSTYLE
  5
37
102
{ACAD_REACTORS
330
2A
102
}
330
2A
100
AcDbVisualStyle
  2
Thicken
 70
    13
 71
     2
 72
     2
 73
     0
 90
        0
 40
-0.6
 41
-30.0
 62
     5
 63
     7
 74
     1
 91
        4
 64
     7
 65
   257
 75
     1
175
     1
 42
1.0
 92
       12
 66
     7
 43
1.0
 76
     1
 77
     6
 78
     2
 67
     7
 79
     5
170
     0
171
     0
290
     0
174
     0
 93
        1
 44
0.0
173
     0
291
     1
 45
0.0
1001
ACAD
1000
AcDbSavedByObjectVersion
1070
     0
1000
AcDbSavedByObjectVersion
1070
     0
1000
AcDbSavedByObjectVersion
1070
     0
1000
AcDbSavedByObjectVersion
1070
     0
1000
AcDbSavedByObjectVersion
1070
     0
1000
AcDbSavedByObjectVersion
1070
     0
1000
AcDbSavedByObjectVersion
1070
     0
1000
AcDbSavedByObjectVersion
1070
     0
1000
AcDbSavedByObjectVersion
1070
     0
1000
AcDbSavedByObjectVersion
1070
     0
1000
AcDbSavedByObjectVersion
1070
     0
1000
AcDbSavedByObjectVersion
1070
     0
1000
AcDbSavedByObjectVersion
1070
     0
1000
AcDbSavedByObjectVersion
1070
     0
1000
AcDbSavedByObjectVersion
1070
     0
1000
AcDbSavedByObjectVersion
1070
     0
1000
AcDbSavedByObjectVersion
1070
     0
1000
AcDbSavedByObjectVersion
1070
     0
1000
AcDbSavedByObjectVersion
1070
     0
1000
AcDbSavedByObjectVersion
1070
     0
1000
AcDbSavedByObjectVersion
1070
     0
1000
AcDbSavedByObjectVersion
1070
     0
1000
AcDbSavedByObjectVersion
1070
     0
1000
AcDbSavedByObjectVersion
1070
     0
1000
AcDbSavedByObjectVersion
1070
     0
1000
AcDbSavedByObjectVersion
1070
     0
1000
AcDbSavedByObjectVersion
1070
     0
1000
AcDbSavedByObjectVersion
1070
     0
1000
AcDbSavedByObjectVersion
1070
     0
1000
AcDbSavedByObjectVersion
1070
     0
1000
AcDbSavedByObjectVersion
1070
     0
1000
AcDbSavedByObjectVersion
1070
     0
1000
AcDbSavedByObjectVersion
1070
     0
1000
AcDbSavedByObjectVersion
1070
     0
1000
AcDbSavedByObjectVersion
1070
     0
1000
AcDbSavedByObjectVersion
1070
     0
1000
AcDbSavedByObjectVersion
1070
     0
1000
AcDbSavedByObjectVersion
1070
     0
1000
AcDbSavedByObjectVersion
1070
     0
1000
AcDbSavedByObjectVersion
1070
     0
1000
AcDbSavedByObjectVersion
1070
     0
1000
AcDbSavedByObjectVersion
1070
     0
1000
AcDbSavedByObjectVersion
1070
     0
1000
AcDbSavedByObjectVersion
1070
     0
1000
AcDbSavedByObjectVersion
1070
     0
1000
AcDbSavedByObjectVersion
1070
     0
1000
AcDbSavedByObjectVersion
1070
     0
1000
AcDbSavedByObjectVersion
1070
     0
1000
AcDbSavedByObjectVersion
1070
     0
1000
AcDbSavedByObjectVersion
1070
     0
  0
DICTIONARYVAR
  5
510B
102
{ACAD_REACTORS
330
5108
102
}
330
5108
100
DictionaryVariables
280
     0
  1
1:1
  0
DICTIONARYVAR
  5
510A
102
{ACAD_REACTORS
330
5108
102
}
330
5108
100
DictionaryVariables
280
     0
  1
STANDARD
  0
DICTIONARYVAR
  5
5109
102
{ACAD_REACTORS
330
5108
102
}
330
5108
100
DictionaryVariables
280
     0
  1
STANDARD
  0
DICTIONARYVAR
  5
510E
102
{ACAD_REACTORS
330
5108
102
}
330
5108
100
DictionaryVariables
280
     0
  1
1
  0
DICTIONARYVAR
  5
510D
102
{ACAD_REACTORS
330
5108
102
}
330
5108
100
DictionaryVariables
280
     0
  1
0
  0
DICTIONARYVAR
  5
1C52F
102
{ACAD_REACTORS
330
5108
102
}
330
5108
100
DictionaryVariables
280
     0
  1
0
  0
DICTIONARYVAR
  5
1C52E
102
{ACAD_REACTORS
330
5108
102
}
330
5108
100
DictionaryVariables
280
     0
  1
0
  0
DICTIONARYVAR
  5
510C
102
{ACAD_REACTORS
330
5108
102
}
330
5108
100
DictionaryVariables
280
     0
  1
127
  0
XRECORD
  5
13AB9
102
{ACAD_REACTORS
330
13AB8
102
}
330
13AB8
100
AcDbXrecord
280
     1
330
0
  0
DICTIONARY
  5
4FEF
330
4FEE
100
AcDbDictionary
280
     1
281
     1
  3
ACAD_XREC_ROUNDTRIP
360
7C2C
  3
BUMPTILE
360
4FF1
  3
DIFFUSETILE
360
4FF0
  3
OPACITYTILE
360
4FF4
  3
REFLECTIONTILE
360
4FF3
  3
REFRACTIONTILE
360
4FF5
  3
SPECULARTILE
360
4FF2
  0
DICTIONARY
  5
4FE7
330
4FE6
100
AcDbDictionary
280
     1
281
     1
  3
ACAD_XREC_ROUNDTRIP
360
7C2B
  3
BUMPTILE
360
4FE9
  3
DIFFUSETILE
360
4FE8
  3
OPACITYTILE
360
4FEC
  3
REFLECTIONTILE
360
4FEB
  3
REFRACTIONTILE
360
4FED
  3
SPECULARTILE
360
4FEA
  0
DICTIONARY
  5
4FF7
330
4FF6
100
AcDbDictionary
280
     1
281
     1
  3
ACAD_XREC_ROUNDTRIP
360
7C2D
  3
BUMPTILE
360
4FF9
  3
DIFFUSETILE
360
4FF8
  3
OPACITYTILE
360
4FFC
  3
REFLECTIONTILE
360
4FFB
  3
REFRACTIONTILE
360
4FFD
  3
SPECULARTILE
360
4FFA
  0
DICTIONARY
  5
50D6
330
4FFF
100
AcDbDictionary
280
     1
281
     1
  3
ACAD_ROUNDTRIP_2008_TABLESTYLE_CELLSTYLEMAP
360
1CCF9
  0
XRECORD
  5
7C2C
102
{ACAD_REACTORS
330
4FEF
102
}
330
4FEF
100
AcDbXrecord
280
     1
102
MATERIAL
148
0.0
149
0.0
149
0.0
 93
        0
 94
      127
282
     0
 72
     0
 77
     0
171
     0
175
     0
179
     0
273
     0
  0
XRECORD
  5
4FF1
102
{ACAD_REACTORS
330
4FEF
102
}
330
4FEF
100
AcDbXrecord
280
     1
270
     1
271
     1
  0
XRECORD
  5
4FF0
102
{ACAD_REACTORS
330
4FEF
102
}
330
4FEF
100
AcDbXrecord
280
     1
270
     1
271
     1
  0
XRECORD
  5
4FF4
102
{ACAD_REACTORS
330
4FEF
102
}
330
4FEF
100
AcDbXrecord
280
     1
270
     1
271
     1
  0
XRECORD
  5
4FF3
102
{ACAD_REACTORS
330
4FEF
102
}
330
4FEF
100
AcDbXrecord
280
     1
270
     1
271
     1
  0
XRECORD
  5
4FF5
102
{ACAD_REACTORS
330
4FEF
102
}
330
4FEF
100
AcDbXrecord
280
     1
270
     1
271
     1
  0
XRECORD
  5
4FF2
102
{ACAD_REACTORS
330
4FEF
102
}
330
4FEF
100
AcDbXrecord
280
     1
270
     1
271
     1
  0
XRECORD
  5
7C2B
102
{ACAD_REACTORS
330
4FE7
102
}
330
4FE7
100
AcDbXrecord
280
     1
102
MATERIAL
148
0.0
149
0.0
149
0.0
 93
        0
 94
      127
282
     0
 72
     0
 77
     0
171
     0
175
     0
179
     0
273
     0
  0
XRECORD
  5
4FE9
102
{ACAD_REACTORS
330
4FE7
102
}
330
4FE7
100
AcDbXrecord
280
     1
270
     1
271
     1
  0
XRECORD
  5
4FE8
102
{ACAD_REACTORS
330
4FE7
102
}
330
4FE7
100
AcDbXrecord
280
     1
270
     1
271
     1
  0
XRECORD
  5
4FEC
102
{ACAD_REACTORS
330
4FE7
102
}
330
4FE7
100
AcDbXrecord
280
     1
270
     1
271
     1
  0
XRECORD
  5
4FEB
102
{ACAD_REACTORS
330
4FE7
102
}
330
4FE7
100
AcDbXrecord
280
     1
270
     1
271
     1
  0
XRECORD
  5
4FED
102
{ACAD_REACTORS
330
4FE7
102
}
330
4FE7
100
AcDbXrecord
280
     1
270
     1
271
     1
  0
XRECORD
  5
4FEA
102
{ACAD_REACTORS
330
4FE7
102
}
330
4FE7
100
AcDbXrecord
280
     1
270
     1
271
     1
  0
XRECORD
  5
7C2D
102
{ACAD_REACTORS
330
4FF7
102
}
330
4FF7
100
AcDbXrecord
280
     1
102
MATERIAL
148
0.0
149
0.0
149
0.0
 93
        0
 94
      127
282
     0
 72
     0
 77
     0
171
     0
175
     0
179
     0
273
     0
  0
XRECORD
  5
4FF9
102
{ACAD_REACTORS
330
4FF7
102
}
330
4FF7
100
AcDbXrecord
280
     1
270
     1
271
     1
  0
XRECORD
  5
4FF8
102
{ACAD_REACTORS
330
4FF7
102
}
330
4FF7
100
AcDbXrecord
280
     1
270
     1
271
     1
  0
XRECORD
  5
4FFC
102
{ACAD_REACTORS
330
4FF7
102
}
330
4FF7
100
AcDbXrecord
280
     1
270
     1
271
     1
  0
XRECORD
  5
4FFB
102
{ACAD_REACTORS
330
4FF7
102
}
330
4FF7
100
AcDbXrecord
280
     1
270
     1
271
     1
  0
XRECORD
  5
4FFD
102
{ACAD_REACTORS
330
4FF7
102
}
330
4FF7
100
AcDbXrecord
280
     1
270
     1
271
     1
  0
XRECORD
  5
4FFA
102
{ACAD_REACTORS
330
4FF7
102
}
330
4FF7
100
AcDbXrecord
280
     1
270
     1
271
     1
  0
CELLSTYLEMAP
  5
1CCF9
102
{ACAD_REACTORS
330
50D6
102
}
330
50D6
100
AcDbCellStyleMap
 90
        3
300
CELLSTYLE
  1
TABLEFORMAT_BEGIN
 90
        5
170
     1
 91
        0
 92
    32768
 62
   257
 93
        1
300
CONTENTFORMAT
  1
CONTENTFORMAT_BEGIN
 90
        0
 91
        0
 92
      512
 93
        0
300

 40
0.0
140
1.0
 94
        5
 62
     0
340
11
144
0.25
309
CONTENTFORMAT_END
171
     1
301
MARGIN
  1
CELLMARGIN_BEGIN
 40
0.06
 40
0.06
 40
0.06
 40
0.06
 40
0.18
 40
0.18
309
CELLMARGIN_END
 94
        6
 95
        1
302
GRIDFORMAT
  1
GRIDFORMAT_BEGIN
 90
        0
 91
        1
 62
     0
 92
       -2
340
0
 93
        0
 40
0.045
309
GRIDFORMAT_END
 95
        2
302
GRIDFORMAT
  1
GRIDFORMAT_BEGIN
 90
        0
 91
        1
 62
     0
 92
       -2
340
0
 93
        0
 40
0.045
309
GRIDFORMAT_END
 95
        4
302
GRIDFORMAT
  1
GRIDFORMAT_BEGIN
 90
        0
 91
        1
 62
     0
 92
       -2
340
0
 93
        0
 40
0.045
309
GRIDFORMAT_END
 95
        8
302
GRIDFORMAT
  1
GRIDFORMAT_BEGIN
 90
        0
 91
        1
 62
     0
 92
       -2
340
0
 93
        0
 40
0.045
309
GRIDFORMAT_END
 95
       16
302
GRIDFORMAT
  1
GRIDFORMAT_BEGIN
 90
        0
 91
        1
 62
     0
 92
       -2
340
0
 93
        0
 40
0.045
309
GRIDFORMAT_END
 95
       32
302
GRIDFORMAT
  1
GRIDFORMAT_BEGIN
 90
        0
 91
        1
 62
     0
 92
       -2
340
0
 93
        0
 40
0.045
309
GRIDFORMAT_END
309
TABLEFORMAT_END
  1
CELLSTYLE_BEGIN
 90
        1
 91
        1
300
_TITLE
309
CELLSTYLE_END
300
CELLSTYLE
  1
TABLEFORMAT_BEGIN
 90
        5
170
     1
 91
        0
 92
        0
 62
   257
 93
        1
300
CONTENTFORMAT
  1
CONTENTFORMAT_BEGIN
 90
        0
 91
        0
 92
      512
 93
        0
300

 40
0.0
140
1.0
 94
        5
 62
     0
340
11
144
0.18
309
CONTENTFORMAT_END
171
     1
301
MARGIN
  1
CELLMARGIN_BEGIN
 40
0.06
 40
0.06
 40
0.06
 40
0.06
 40
0.18
 40
0.18
309
CELLMARGIN_END
 94
        6
 95
        1
302
GRIDFORMAT
  1
GRIDFORMAT_BEGIN
 90
        0
 91
        1
 62
     0
 92
       -2
340
0
 93
        0
 40
0.045
309
GRIDFORMAT_END
 95
        2
302
GRIDFORMAT
  1
GRIDFORMAT_BEGIN
 90
        0
 91
        1
 62
     0
 92
       -2
340
0
 93
        0
 40
0.045
309
GRIDFORMAT_END
 95
        4
302
GRIDFORMAT
  1
GRIDFORMAT_BEGIN
 90
        0
 91
        1
 62
     0
 92
       -2
340
0
 93
        0
 40
0.045
309
GRIDFORMAT_END
 95
        8
302
GRIDFORMAT
  1
GRIDFORMAT_BEGIN
 90
        0
 91
        1
 62
     0
 92
       -2
340
0
 93
        0
 40
0.045
309
GRIDFORMAT_END
 95
       16
302
GRIDFORMAT
  1
GRIDFORMAT_BEGIN
 90
        0
 91
        1
 62
     0
 92
       -2
340
0
 93
        0
 40
0.045
309
GRIDFORMAT_END
 95
       32
302
GRIDFORMAT
  1
GRIDFORMAT_BEGIN
 90
        0
 91
        1
 62
     0
 92
       -2
340
0
 93
        0
 40
0.045
309
GRIDFORMAT_END
309
TABLEFORMAT_END
  1
CELLSTYLE_BEGIN
 90
        2
 91
        1
300
_HEADER
309
CELLSTYLE_END
300
CELLSTYLE
  1
TABLEFORMAT_BEGIN
 90
        5
170
     1
 91
        0
 92
        0
 62
   257
 93
        1
300
CONTENTFORMAT
  1
CONTENTFORMAT_BEGIN
 90
        0
 91
        0
 92
      512
 93
        0
300

 40
0.0
140
1.0
 94
        2
 62
     0
340
11
144
0.18
309
CONTENTFORMAT_END
171
     1
301
MARGIN
  1
CELLMARGIN_BEGIN
 40
0.06
 40
0.06
 40
0.06
 40
0.06
 40
0.18
 40
0.18
309
CELLMARGIN_END
 94
        6
 95
        1
302
GRIDFORMAT
  1
GRIDFORMAT_BEGIN
 90
        0
 91
        1
 62
     0
 92
       -2
340
0
 93
        0
 40
0.045
309
GRIDFORMAT_END
 95
        2
302
GRIDFORMAT
  1
GRIDFORMAT_BEGIN
 90
        0
 91
        1
 62
     0
 92
       -2
340
0
 93
        0
 40
0.045
309
GRIDFORMAT_END
 95
        4
302
GRIDFORMAT
  1
GRIDFORMAT_BEGIN
 90
        0
 91
        1
 62
     0
 92
       -2
340
0
 93
        0
 40
0.045
309
GRIDFORMAT_END
 95
        8
302
GRIDFORMAT
  1
GRIDFORMAT_BEGIN
 90
        0
 91
        1
 62
     0
 92
       -2
340
0
 93
        0
 40
0.045
309
GRIDFORMAT_END
 95
       16
302
GRIDFORMAT
  1
GRIDFORMAT_BEGIN
 90
        0
 91
        1
 62
     0
 92
       -2
340
0
 93
        0
 40
0.045
309
GRIDFORMAT_END
 95
       32
302
GRIDFORMAT
  1
GRIDFORMAT_BEGIN
 90
        0
 91
        1
 62
     0
 92
       -2
340
0
 93
        0
 40
0.045
309
GRIDFORMAT_END
309
TABLEFORMAT_END
  1
CELLSTYLE_BEGIN
 90
        3
 91
        2
300
_DATA
309
CELLSTYLE_END
  0
ENDSEC
  0
EOF
