  0
SECTION
  2
HEADER
  9
$ACADVER
  1
AC1021
  9
$ACADMAINTVER
 70
    25
  9
$DWGCODEPAGE
  3
ANSI_936
  9
$LASTSAVEDBY
  1
14609
  9
$INSBASE
 10
5390.050695065762
 20
515.2652376533518
 30
0.0
  9
$EXTMIN
 10
5390.050695065762
 20
515.2652376533498
 30
0.0
  9
$EXTMAX
 10
5561.952053740842
 20
633.7543884532963
 30
0.0
  9
$LIMMIN
 10
0.0
 20
0.0
  9
$LIMMAX
 10
1189.0
 20
841.0
  9
$ORTHOMODE
 70
     1
  9
$REGENMODE
 70
     1
  9
$FILLMODE
 70
     1
  9
$QTEXTMODE
 70
     0
  9
$MIRRTEXT
 70
     1
  9
$LTSCALE
 40
65.395
  9
$ATTMODE
 70
     1
  9
$TEXTSIZE
 40
0.2
  9
$TRACEWID
 40
0.05
  9
$TEXTSTYLE
  7
STANDARD
  9
$CLAYER
  8
cavity
  9
$CELTYPE
  6
ByLayer
  9
$CECOLOR
 62
   256
  9
$CELTSCALE
 40
1.0
  9
$DISPSILH
 70
     0
  9
$DIMSCALE
 40
1.0
  9
$DIMASZ
 40
1.0
  9
$DIMEXO
 40
0.15
  9
$DIMDLI
 40
0.2
  9
$DIMRND
 40
0.0
  9
$DIMDLE
 40
0.0
  9
$DIMEXE
 40
1.0
  9
$DIMTP
 40
0.0
  9
$DIMTM
 40
0.0
  9
$DIMTXT
 40
1.8
  9
$DIMCEN
 40
0.0
  9
$DIMTSZ
 40
0.0
  9
$DIMTOL
 70
     0
  9
$DIMLIM
 70
     0
  9
$DIMTIH
 70
     0
  9
$DIMTOH
 70
     0
  9
$DIMSE1
 70
     0
  9
$DIMSE2
 70
     0
  9
$DIMTAD
 70
     0
  9
$DIMZIN
 70
     8
  9
$DIMBLK
  1

  9
$DIMASO
 70
     1
  9
$DIMSHO
 70
     1
  9
$DIMPOST
  1

  9
$DIMAPOST
  1

  9
$DIMALT
 70
     0
  9
$DIMALTD
 70
     2
  9
$DIMALTF
 40
25.4
  9
$DIMLFAC
 40
1.0
  9
$DIMTOFL
 70
     0
  9
$DIMTVP
 40
0.0
  9
$DIMTIX
 70
     0
  9
$DIMSOXD
 70
     0
  9
$DIMSAH
 70
     0
  9
$DIMBLK1
  1

  9
$DIMBLK2
  1

  9
$DIMSTYLE
  2
01-高度0.6
  9
$DIMCLRD
 70
     1
  9
$DIMCLRE
 70
     6
  9
$DIMCLRT
 70
     4
  9
$DIMTFAC
 40
1.0
  9
$DIMGAP
 40
0.3
  9
$DIMJUST
 70
     0
  9
$DIMSD1
 70
     0
  9
$DIMSD2
 70
     0
  9
$DIMTOLJ
 70
     1
  9
$DIMTZIN
 70
     0
  9
$DIMALTZ
 70
     0
  9
$DIMALTTZ
 70
     0
  9
$DIMUPT
 70
     0
  9
$DIMDEC
 70
     2
  9
$DIMTDEC
 70
     2
  9
$DIMALTU
 70
     2
  9
$DIMALTTD
 70
     2
  9
$DIMTXSTY
  7
STANDARD
  9
$DIMAUNIT
 70
     0
  9
$DIMADEC
 70
     2
  9
$DIMALTRND
 40
0.0
  9
$DIMAZIN
 70
     2
  9
$DIMDSEP
 70
    46
  9
$DIMATFIT
 70
     3
  9
$DIMFRAC
 70
     0
  9
$DIMLDRBLK
  1

  9
$DIMLUNIT
 70
     2
  9
$DIMLWD
 70
    -2
  9
$DIMLWE
 70
    -2
  9
$DIMTMOVE
 70
     0
  9
$DIMFXL
 40
1.0
  9
$DIMFXLON
 70
     0
  9
$DIMJOGANG
 40
0.7853981633974483
  9
$DIMTFILL
 70
     0
  9
$DIMTFILLCLR
 70
     0
  9
$DIMARCSYM
 70
     0
  9
$DIMLTYPE
  6

  9
$DIMLTEX1
  6

  9
$DIMLTEX2
  6

  9
$LUNITS
 70
     2
  9
$LUPREC
 70
     4
  9
$SKETCHINC
 40
0.1
  9
$FILLETRAD
 40
0.8
  9
$AUNITS
 70
     0
  9
$AUPREC
 70
     0
  9
$MENU
  1
acad
  9
$ELEVATION
 40
0.0
  9
$PELEVATION
 40
0.0
  9
$THICKNESS
 40
0.0
  9
$LIMCHECK
 70
     0
  9
$CHAMFERA
 40
0.0
  9
$CHAMFERB
 40
0.0
  9
$CHAMFERC
 40
0.0
  9
$CHAMFERD
 40
0.0
  9
$SKPOLY
 70
     0
  9
$TDCREATE
 40
2454335.486266088
  9
$TDUCREATE
 40
2454335.152932755
  9
$TDUPDATE
 40
2460346.551932754
  9
$TDUUPDATE
 40
2460346.218599422
  9
$TDINDWG
 40
1.5856148264
  9
$TDUSRTIMER
 40
1.5856148264
  9
$USRTIMER
 70
     1
  9
$ANGBASE
 50
0.0
  9
$ANGDIR
 70
     0
  9
$PDMODE
 70
     3
  9
$PDSIZE
 40
8.0
  9
$PLINEWID
 40
0.0
  9
$SPLFRAME
 70
     0
  9
$SPLINETYPE
 70
     6
  9
$SPLINESEGS
 70
    20
  9
$HANDSEED
  5
703
  9
$SURFTAB1
 70
     6
  9
$SURFTAB2
 70
     6
  9
$SURFTYPE
 70
     6
  9
$SURFU
 70
     6
  9
$SURFV
 70
     6
  9
$UCSBASE
  2

  9
$UCSNAME
  2

  9
$UCSORG
 10
0.0
 20
0.0
 30
0.0
  9
$UCSXDIR
 10
1.0
 20
0.0
 30
0.0
  9
$UCSYDIR
 10
0.0
 20
1.0
 30
0.0
  9
$UCSORTHOREF
  2

  9
$UCSORTHOVIEW
 70
     0
  9
$UCSORGTOP
 10
0.0
 20
0.0
 30
0.0
  9
$UCSORGBOTTOM
 10
0.0
 20
0.0
 30
0.0
  9
$UCSORGLEFT
 10
0.0
 20
0.0
 30
0.0
  9
$UCSORGRIGHT
 10
0.0
 20
0.0
 30
0.0
  9
$UCSORGFRONT
 10
0.0
 20
0.0
 30
0.0
  9
$UCSORGBACK
 10
0.0
 20
0.0
 30
0.0
  9
$PUCSBASE
  2

  9
$PUCSNAME
  2

  9
$PUCSORG
 10
0.0
 20
0.0
 30
0.0
  9
$PUCSXDIR
 10
1.0
 20
0.0
 30
0.0
  9
$PUCSYDIR
 10
0.0
 20
1.0
 30
0.0
  9
$PUCSORTHOREF
  2

  9
$PUCSORTHOVIEW
 70
     0
  9
$PUCSORGTOP
 10
0.0
 20
0.0
 30
0.0
  9
$PUCSORGBOTTOM
 10
0.0
 20
0.0
 30
0.0
  9
$PUCSORGLEFT
 10
0.0
 20
0.0
 30
0.0
  9
$PUCSORGRIGHT
 10
0.0
 20
0.0
 30
0.0
  9
$PUCSORGFRONT
 10
0.0
 20
0.0
 30
0.0
  9
$PUCSORGBACK
 10
0.0
 20
0.0
 30
0.0
  9
$USERI1
 70
     0
  9
$USERI2
 70
     0
  9
$USERI3
 70
     0
  9
$USERI4
 70
     0
  9
$USERI5
 70
     0
  9
$USERR1
 40
0.0
  9
$USERR2
 40
0.0
  9
$USERR3
 40
0.0
  9
$USERR4
 40
0.0
  9
$USERR5
 40
2.5
  9
$WORLDVIEW
 70
     1
  9
$SHADEDGE
 70
     3
  9
$SHADEDIF
 70
    70
  9
$TILEMODE
 70
     1
  9
$MAXACTVP
 70
    16
  9
$PINSBASE
 10
0.0
 20
0.0
 30
0.0
  9
$PLIMCHECK
 70
     0
  9
$PEXTMIN
 10
1.000000000000000E+20
 20
1.000000000000000E+20
 30
1.000000000000000E+20
  9
$PEXTMAX
 10
-1.000000000000000E+20
 20
-1.000000000000000E+20
 30
-1.000000000000000E+20
  9
$PLIMMIN
 10
0.0
 20
0.0
  9
$PLIMMAX
 10
12.0
 20
9.0
  9
$UNITMODE
 70
     0
  9
$VISRETAIN
 70
     0
  9
$PLINEGEN
 70
     1
  9
$PSLTSCALE
 70
     0
  9
$TREEDEPTH
 70
  3020
  9
$CMLSTYLE
  2
Standard
  9
$CMLJUST
 70
     0
  9
$CMLSCALE
 40
1.0
  9
$PROXYGRAPHICS
 70
     0
  9
$MEASUREMENT
 70
     1
  9
$CELWEIGHT
370
    -1
  9
$ENDCAPS
280
     0
  9
$JOINSTYLE
280
     0
  9
$LWDISPLAY
290
     0
  9
$INSUNITS
 70
     4
  9
$HYPERLINKBASE
  1

  9
$STYLESHEET
  1

  9
$XEDIT
290
     1
  9
$CEPSNTYPE
380
     0
  9
$PSTYLEMODE
290
     1
  9
$FINGERPRINTGUID
  2
{D2119D83-D14E-4F44-B8BC-80B8BDB81D6A}
  9
$VERSIONGUID
  2
{123AF603-79AD-4AB4-8ECE-6814513C9AF4}
  9
$EXTNAMES
290
     1
  9
$PSVPSCALE
 40
0.0
  9
$OLESTARTUP
290
     0
  9
$SORTENTS
280
   127
  9
$INDEXCTL
280
     0
  9
$HIDETEXT
280
     1
  9
$XCLIPFRAME
290
     0
  9
$HALOGAP
280
     0
  9
$OBSCOLOR
 70
   257
  9
$OBSLTYPE
280
     0
  9
$INTERSECTIONDISPLAY
280
     0
  9
$INTERSECTIONCOLOR
 70
   257
  9
$DIMASSOC
280
     1
  9
$PROJECTNAME
  1

  9
$CAMERADISPLAY
290
     0
  9
$LENSLENGTH
 40
50.0
  9
$CAMERAHEIGHT
 40
0.0
  9
$STEPSPERSEC
 40
2.0
  9
$STEPSIZE
 40
6.0
  9
$3DDWFPREC
 40
2.0
  9
$PSOLWIDTH
 40
0.25
  9
$PSOLHEIGHT
 40
4.0
  9
$LOFTANG1
 40
1.570796326794896
  9
$LOFTANG2
 40
1.570796326794896
  9
$LOFTMAG1
 40
0.0
  9
$LOFTMAG2
 40
0.0
  9
$LOFTPARAM
 70
     7
  9
$LOFTNORMALS
280
     1
  9
$LATITUDE
 40
37.795
  9
$LONGITUDE
 40
-122.394
  9
$NORTHDIRECTION
 40
0.0
  9
$TIMEZONE
 70
 -8000
  9
$LIGHTGLYPHDISPLAY
280
     1
  9
$TILEMODELIGHTSYNCH
280
     1
  9
$CMATERIAL
347
36
  9
$SOLIDHIST
280
     1
  9
$SHOWHIST
280
     1
  9
$DWFFRAME
280
     2
  9
$DGNFRAME
280
     0
  9
$REALWORLDSCALE
290
     1
  9
$INTERFERECOLOR
 62
     1
  9
$INTERFEREOBJVS
345
50
  9
$INTERFEREVPVS
346
51
  9
$CSHADOW
280
     0
  9
$SHADOWPLANELOCATION
 40
0.0
  0
ENDSEC
  0
SECTION
  2
CLASSES
  0
CLASS
  1
ACDBDICTIONARYWDFLT
  2
AcDbDictionaryWithDefault
  3
ObjectDBX Classes
 90
        0
 91
        1
280
     0
281
     0
  0
CLASS
  1
IMAGE
  2
AcDbRasterImage
  3
ISM
 90
     2175
 91
        0
280
     1
281
     1
  0
CLASS
  1
DICTIONARYVAR
  2
AcDbDictionaryVar
  3
ObjectDBX Classes
 90
        0
 91
       10
280
     0
281
     0
  0
CLASS
  1
RASTERVARIABLES
  2
AcDbRasterVariables
  3
ISM
 90
        0
 91
        0
280
     1
281
     0
  0
CLASS
  1
IMAGEDEF
  2
AcDbRasterImageDef
  3
ISM
 90
        0
 91
        0
280
     1
281
     0
  0
CLASS
  1
IMAGEDEF_REACTOR
  2
AcDbRasterImageDefReactor
  3
ISM
 90
        1
 91
        0
280
     1
281
     0
  0
CLASS
  1
IDBUFFER
  2
AcDbIdBuffer
  3
ObjectDBX Classes
 90
        0
 91
        0
280
     0
281
     0
  0
CLASS
  1
SPATIAL_FILTER
  2
AcDbSpatialFilter
  3
ObjectDBX Classes
 90
        0
 91
        0
280
     0
281
     0
  0
CLASS
  1
SORTENTSTABLE
  2
AcDbSortentsTable
  3
ObjectDBX Classes
 90
        0
 91
        5
280
     0
281
     0
  0
CLASS
  1
LAYER_INDEX
  2
AcDbLayerIndex
  3
ObjectDBX Classes
 90
        0
 91
        0
280
     0
281
     0
  0
CLASS
  1
SPATIAL_INDEX
  2
AcDbSpatialIndex
  3
ObjectDBX Classes
 90
        0
 91
        0
280
     0
281
     0
  0
CLASS
  1
OBJECT_PTR
  2
CAseDLPNTableRecord
  3
ASE-LPNTableRecord
 90
        1
 91
        0
280
     1
281
     0
  0
CLASS
  1
PLOTSETTINGS
  2
AcDbPlotSettings
  3
ObjectDBX Classes
 90
        0
 91
        0
280
     0
281
     0
  0
CLASS
  1
WIPEOUT
  2
AcDbWipeout
  3
"WipeOut|Product Desc: Object Enabler for WipeOut entity^I^I^I^I^I^I|Company: Autodesk, Inc.^I^I^I^I^I^I|WEB Address: www.autodesk.com"
 90
      127
 91
        0
280
     1
281
     1
  0
CLASS
  1
WIPEOUTVARIABLES
  2
AcDbWipeoutVariables
  3
"WipeOut|Product Desc:     WipeOut Dbx Application|Company:          Autodesk, Inc.|WEB Address:      www.autodesk.com"
 90
        0
 91
        0
280
     1
281
     0
  0
CLASS
  1
RTEXT
  2
RText
  3
RText|AutoCAD Express Tool|expresstools@autodesk.com
 90
        0
 91
        0
280
     1
281
     1
  0
CLASS
  1
ARCALIGNEDTEXT
  2
AcDbArcAlignedText
  3
ATEXT|AutoCAD Express Tool|expresstools@autodesk.com
 90
        0
 91
        0
280
     1
281
     1
  0
CLASS
  1
TABLESTYLE
  2
AcDbTableStyle
  3
ObjectDBX Classes
 90
     4095
 91
        1
280
     0
281
     0
  0
CLASS
  1
VLO-VL
  2
vlo_VL
  3
VL|AutoLISP based application
 90
      129
 91
        0
280
     0
281
     0
  0
CLASS
  1
DIMASSOC
  2
AcDbDimAssoc
  3
"AcDbDimAssoc|Product Desc:     AcDim ARX App For Dimension|Company:          Autodesk, Inc.|WEB Address:      www.autodesk.com"
 90
        0
 91
        0
280
     0
281
     0
  0
CLASS
  1
ACAD_EVALUATION_GRAPH
  2
AcDbEvalGraph
  3
ObjectDBX Classes
 90
     1153
 91
        1
280
     0
281
     0
  0
CLASS
  1
ACDB_DYNAMICBLOCKPURGEPREVENTER_VERSION
  2
AcDbDynamicBlockPurgePreventer
  3
ObjectDBX Classes
 90
     1153
 91
        0
280
     0
281
     0
  0
CLASS
  1
MATERIAL
  2
AcDbMaterial
  3
ObjectDBX Classes
 90
     1153
 91
        3
280
     0
281
     0
  0
CLASS
  1
VISUALSTYLE
  2
AcDbVisualStyle
  3
ObjectDBX Classes
 90
     4095
 91
       16
280
     0
281
     0
  0
CLASS
  1
SCALE
  2
AcDbScale
  3
ObjectDBX Classes
 90
     1153
 91
       33
280
     0
281
     0
  0
CLASS
  1
MLEADERSTYLE
  2
AcDbMLeaderStyle
  3
ACDB_MLEADERSTYLE_CLASS
 90
     4095
 91
        1
280
     0
281
     0
  0
CLASS
  1
CELLSTYLEMAP
  2
AcDbCellStyleMap
  3
ObjectDBX Classes
 90
     1152
 91
        2
280
     0
281
     0
  0
CLASS
  1
ACAECUSTOBJ
  2
AcAeEditorObj
  3
AcAeEditorObj
 90
     1024
 91
        1
280
     1
281
     0
  0
CLASS
  1
SOLID_BACKGROUND
  2
AcDbSolidBackground
  3
SCENEOE
 90
     4095
 91
        0
280
     0
281
     0
  0
CLASS
  1
NPOCOLLECTION
  2
AcDbImpNonPersistentObjectsCollection
  3
ObjectDBX Classes
 90
     1153
 91
        0
280
     0
281
     0
  0
ENDSEC
  0
SECTION
  2
TABLES
  0
TABLE
  2
VPORT
  5
23
102
{ACAD_XDICTIONARY
360
27
102
}
330
0
100
AcDbSymbolTable
 70
     1
  0
VPORT
  5
24
330
23
100
AcDbSymbolTableRecord
100
AcDbViewportTableRecord
  2
*Active
 70
     0
 10
0.0
 20
0.0
 11
1.0
 21
1.0
 12
5454.987864786104
 22
560.1674222349581
 13
0.0
 23
0.0
 14
1.0
 24
1.0
 15
0.0
 25
0.0
 16
0.0
 26
0.0
 36
1.0
 17
0.0
 27
0.0
 37
0.0
 40
170.7994979309745
 41
1.967136150234741
 42
50.0
 43
0.0
 44
0.0
 50
0.0
 51
0.0
 71
     0
 72
 10000
 73
     1
 74
     1
 75
     0
 76
     0
 77
     0
 78
     0
281
     0
 65
     0
110
0.0
120
0.0
130
0.0
111
1.0
121
0.0
131
0.0
112
0.0
122
1.0
132
0.0
 79
     0
146
0.0
348
25
 60
     3
 61
     5
292
     1
282
     1
141
0.0
142
0.0
 63
   250
421
  3355443
  0
ENDTAB
  0
TABLE
  2
LTYPE
  5
1E
330
0
100
AcDbSymbolTable
 70
     2
  0
LTYPE
  5
1F
330
1E
100
AcDbSymbolTableRecord
100
AcDbLinetypeTableRecord
  2
ByBlock
 70
     0
  3

 72
    65
 73
     0
 40
0.0
  0
LTYPE
  5
20
330
1E
100
AcDbSymbolTableRecord
100
AcDbLinetypeTableRecord
  2
ByLayer
 70
     0
  3

 72
    65
 73
     0
 40
0.0
  0
LTYPE
  5
D
330
1E
100
AcDbSymbolTableRecord
100
AcDbLinetypeTableRecord
  2
CONTINUOUS
 70
     0
  3
Solid line
 72
    65
 73
     0
 40
0.0
  0
LTYPE
  5
135
330
1E
100
AcDbSymbolTableRecord
100
AcDbLinetypeTableRecord
  2
CENTER
 70
     0
  3
Center ____ _ ____ _ ____ _ ____ _ ____ _ ____
 72
    65
 73
     4
 40
50.8
 49
31.75
 74
     0
 49
-6.349999999999999
 74
     0
 49
6.349999999999999
 74
     0
 49
-6.349999999999999
 74
     0
  0
ENDTAB
  0
TABLE
  2
LAYER
  5
15
102
{ACAD_XDICTIONARY
360
16
102
}
330
0
100
AcDbSymbolTable
 70
     8
  0
LAYER
  5
6
102
{ACAD_XDICTIONARY
360
7
102
}
330
15
100
AcDbSymbolTableRecord
100
AcDbLayerTableRecord
  2
0
 70
     0
 62
     7
  6
CONTINUOUS
370
    25
390
9
347
A
  0
LAYER
  5
14A
330
15
100
AcDbSymbolTableRecord
100
AcDbLayerTableRecord
  2
Defpoints
 70
     0
 62
     7
  6
CONTINUOUS
290
     0
370
    -3
390
9
347
A
  0
LAYER
  5
4A
102
{ACAD_XDICTIONARY
360
4B
102
}
330
15
100
AcDbSymbolTableRecord
100
AcDbLayerTableRecord
  2
cavity
 70
     0
 62
     3
  6
CONTINUOUS
370
    -3
390
9
347
A
  0
LAYER
  5
74
102
{ACAD_XDICTIONARY
360
75
102
}
330
15
100
AcDbSymbolTableRecord
100
AcDbLayerTableRecord
  2
图框
 70
     0
 62
     7
  6
CONTINUOUS
370
    20
390
9
347
A
  0
LAYER
  5
78
330
15
100
AcDbSymbolTableRecord
100
AcDbLayerTableRecord
  2
Hat
 70
     0
 62
     6
  6
CONTINUOUS
370
    13
390
9
347
A
  0
LAYER
  5
10C
102
{ACAD_XDICTIONARY
360
10D
102
}
330
15
100
AcDbSymbolTableRecord
100
AcDbLayerTableRecord
  2
02___PRT_ALL_AXES
 70
     0
 62
     7
  6
CONTINUOUS
370
    -3
390
9
347
A
  0
LAYER
  5
133
102
{ACAD_XDICTIONARY
360
134
102
}
330
15
100
AcDbSymbolTableRecord
100
AcDbLayerTableRecord
  2
center
 70
     0
 62
     1
  6
CENTER
370
    15
390
9
347
A
  0
LAYER
  5
607
330
15
100
AcDbSymbolTableRecord
100
AcDbLayerTableRecord
  2
打标文字
 70
     0
 62
     3
  6
CONTINUOUS
370
    20
390
9
347
A
  0
ENDTAB
  0
TABLE
  2
STYLE
  5
1B
330
0
100
AcDbSymbolTable
 70
     6
  0
STYLE
  5
1C
330
1B
100
AcDbSymbolTableRecord
100
AcDbTextStyleTableRecord
  2
STANDARD
 70
     0
 40
0.0
 41
0.85
 50
0.0
 71
     0
 42
0.2
  3
romand.shx
  4
hztxt.shx
  0
STYLE
  5
EB
330
1B
100
AcDbSymbolTableRecord
100
AcDbTextStyleTableRecord
  2
工程字
 70
     0
 40
0.0
 41
1.0
 50
0.0
 71
     0
 42
3.5
  3
gbenor.shx
  4
gbcbig.shx
  0
STYLE
  5
F1
330
1B
100
AcDbSymbolTableRecord
100
AcDbTextStyleTableRecord
  2
chinese
 70
     0
 40
0.0
 41
0.8
 50
0.0
 71
     0
 42
2.5
  3
romans.shx
  4
chineset.shx
  0
STYLE
  5
108
330
1B
100
AcDbSymbolTableRecord
100
AcDbTextStyleTableRecord
  2
特别的
 70
     0
 40
0.0
 41
0.55
 50
0.0
 71
     0
 42
0.2
  3

  4

1001
ACAD
1000
SimSun
1071
    34306
  0
STYLE
  5
104
330
1B
100
AcDbSymbolTableRecord
100
AcDbTextStyleTableRecord
  2
3.5
 70
     0
 40
3.5
 41
0.7
 50
0.0
 71
     0
 42
3.5
  3

  4

1001
ACAD
1000
仿宋_GB2312
1071
    34353
  0
STYLE
  5
608
330
1B
100
AcDbSymbolTableRecord
100
AcDbTextStyleTableRecord
  2
Romans字体
 70
     0
 40
0.0
 41
0.75
 50
0.0
 71
     0
 42
0.2
  3
romans.shx
  4

  0
ENDTAB
  0
TABLE
  2
VIEW
  5
21
330
0
100
AcDbSymbolTable
 70
     0
  0
ENDTAB
  0
TABLE
  2
UCS
  5
22
330
0
100
AcDbSymbolTable
 70
     0
  0
ENDTAB
  0
TABLE
  2
APPID
  5
28
330
0
100
AcDbSymbolTable
 70
    10
  0
APPID
  5
1A
330
28
100
AcDbSymbolTableRecord
100
AcDbRegAppTableRecord
  2
ACAD
 70
     0
  0
APPID
  5
7D
330
28
100
AcDbSymbolTableRecord
100
AcDbRegAppTableRecord
  2
AcDbBlockRepETag
 70
     0
  0
APPID
  5
106
330
28
100
AcDbSymbolTableRecord
100
AcDbRegAppTableRecord
  2
AcDbDynamicBlockGUID
 70
     0
  0
APPID
  5
2B
330
28
100
AcDbSymbolTableRecord
100
AcDbRegAppTableRecord
  2
ACAD_DSTYLE_DIMJAG
 70
     0
  0
APPID
  5
2D
330
28
100
AcDbSymbolTableRecord
100
AcDbRegAppTableRecord
  2
ACAD_DSTYLE_DIMTALN
 70
     0
  0
APPID
  5
2C
330
28
100
AcDbSymbolTableRecord
100
AcDbRegAppTableRecord
  2
ACAD_DSTYLE_DIMBREAK
 70
     0
  0
APPID
  5
1D0
330
28
100
AcDbSymbolTableRecord
100
AcDbRegAppTableRecord
  2
ACAD_MLEADERVER
 70
     0
  0
APPID
  5
268
330
28
100
AcDbSymbolTableRecord
100
AcDbRegAppTableRecord
  2
ACAUTHENVIRON
 70
     0
  0
APPID
  5
26B
330
28
100
AcDbSymbolTableRecord
100
AcDbRegAppTableRecord
  2
AcDbDynamicBlockTrueName
 70
     0
  0
APPID
  5
609
330
28
100
AcDbSymbolTableRecord
100
AcDbRegAppTableRecord
  2
ACAD_PSEXT
 70
     0
  0
ENDTAB
  0
TABLE
  2
DIMSTYLE
  5
29
330
0
100
AcDbSymbolTable
 70
     4
100
AcDbDimStyleTable
 71
     4
340
2A
340
2E
340
2F
340
30
  0
DIMSTYLE
105
30
330
29
100
AcDbSymbolTableRecord
100
AcDbDimStyleTableRecord
  2
STANDARD
 70
     0
 41
3.5
 47
0.01
 48
0.01
 71
     1
 73
     0
 74
     0
 77
     1
 78
     8
140
3.5
271
     2
272
     2
284
     8
340
1C
  0
DIMSTYLE
105
2E
330
29
100
AcDbSymbolTableRecord
100
AcDbDimStyleTableRecord
  2
01
 70
     0
 41
2.0
 42
0.2
 43
0.2
 44
1.199999999999999
 73
     0
 74
     0
 78
     8
 79
     2
140
3.0
141
0.0
147
0.5
176
     1
177
     6
178
     4
179
     2
271
     2
272
     2
340
1C
  0
DIMSTYLE
105
2F
330
29
100
AcDbSymbolTableRecord
100
AcDbDimStyleTableRecord
  2
1
 70
     0
 40
0.65
 41
5.0
 42
0.0
 43
0.1
 44
1.5
 47
0.01
 48
0.000000001
 73
     0
 74
     0
 77
     1
 78
     8
 79
     2
140
7.0
141
0.0
146
0.7
147
1.5
176
     6
177
     6
178
     2
179
     2
271
     2
272
     2
284
     8
340
1C
371
    -1
372
    -1
1001
ACAD_DSTYLE_DIMBREAK
1070
   391
1040
0.5
1001
ACAD_DSTYLE_DIMJAG
1070
   388
1040
0.5
1001
ACAD_DSTYLE_DIMTALN
1070
   392
1070
     0
  0
DIMSTYLE
105
2A
102
{ACAD_REACTORS
330
58F
330
590
330
591
330
592
330
593
102
}
330
29
100
AcDbSymbolTableRecord
100
AcDbDimStyleTableRecord
  2
01-高度0.6
 70
     0
 41
1.0
 42
0.15
 43
0.2
 44
1.0
 73
     0
 74
     0
 78
     8
 79
     2
140
1.8
141
0.0
147
0.3
176
     1
177
     6
178
     4
179
     2
271
     2
272
     2
340
1C
1001
ACAD_DSTYLE_DIMJAG
1070
   388
1040
1.0
1001
ACAD_DSTYLE_DIMBREAK
1070
   391
1040
2.0
1001
ACAD_DSTYLE_DIMTALN
1070
   392
1070
     0
  0
ENDTAB
  0
TABLE
  2
BLOCK_RECORD
  5
1
330
0
100
AcDbSymbolTable
 70
    31
  0
BLOCK_RECORD
  5
2
102
{ACAD_XDICTIONARY
360
3
102
}
330
1
100
AcDbSymbolTableRecord
100
AcDbBlockTableRecord
  2
*MODEL_SPACE
340
F
 70
     0
280
     1
281
     0
  0
BLOCK_RECORD
  5
11
330
1
100
AcDbSymbolTableRecord
100
AcDbBlockTableRecord
  2
*PAPER_SPACE
340
14
 70
     0
280
     1
281
     0
  0
BLOCK_RECORD
  5
79
102
{ACAD_XDICTIONARY
360
267
102
}
330
1
100
AcDbSymbolTableRecord
100
AcDbBlockTableRecord
  2
A4
340
0
310
2800000020000000200000000100080000000000000400000000000000000000000000000000000000000000000080000080000000808000800000008000800080800000C0C0C000C0DCC000F0CAA6000020400000206000002080000020A0000020C0000020E00000400000004020000040400000406000004080000040A0
310
000040C0000040E00000600000006020000060400000606000006080000060A0000060C0000060E00000800000008020000080400000806000008080000080A0000080C0000080E00000A0000000A0200000A0400000A0600000A0800000A0A00000A0C00000A0E00000C0000000C0200000C0400000C0600000C0800000C0
310
A00000C0C00000C0E00000E0000000E0200000E0400000E0600000E0800000E0A00000E0C00000E0E00040000000400020004000400040006000400080004000A0004000C0004000E00040200000402020004020400040206000402080004020A0004020C0004020E000404000004040200040404000404060004040800040
310
40A0004040C0004040E00040600000406020004060400040606000406080004060A0004060C0004060E00040800000408020004080400040806000408080004080A0004080C0004080E00040A0000040A0200040A0400040A0600040A0800040A0A00040A0C00040A0E00040C0000040C0200040C0400040C0600040C08000
310
40C0A00040C0C00040C0E00040E0000040E0200040E0400040E0600040E0800040E0A00040E0C00040E0E00080000000800020008000400080006000800080008000A0008000C0008000E00080200000802020008020400080206000802080008020A0008020C0008020E00080400000804020008040400080406000804080
310
008040A0008040C0008040E00080600000806020008060400080606000806080008060A0008060C0008060E00080800000808020008080400080806000808080008080A0008080C0008080E00080A0000080A0200080A0400080A0600080A0800080A0A00080A0C00080A0E00080C0000080C0200080C0400080C0600080C0
310
800080C0A00080C0C00080C0E00080E0000080E0200080E0400080E0600080E0800080E0A00080E0C00080E0E000C0000000C0002000C0004000C0006000C0008000C000A000C000C000C000E000C0200000C0202000C0204000C0206000C0208000C020A000C020C000C020E000C0400000C0402000C0404000C0406000C0
310
408000C040A000C040C000C040E000C0600000C0602000C0604000C0606000C0608000C060A000C060C000C060E000C0800000C0802000C0804000C0806000C0808000C080A000C080C000C080E000C0A00000C0A02000C0A04000C0A06000C0A08000C0A0A000C0A0C000C0A0E000C0C00000C0C02000C0C04000C0C06000
310
C0C08000C0C0A000F0FBFF00A4A0A000808080000000FF0000FF000000FFFF00FF000000FF00FF00FFFF0000FFFFFF0000000000000000000000000000000000000000000000000000000000000000000000000000000000000000000000000000000000000000000000000000000000000000000000000000000000000000
310
000000000000000000000000000000000000000000000000000000000000000000000000000000000000000000000000000000000000000000000000000000000000000000000000000000000000000000000000000000000000000000000000000000000000000000000000000000000000F9F9F9F9F9F9F9F9F9F9F9F9F9
310
F9F9F9F9F9F9F9F9F9F9F9F9F9F9F900000000F9FFFFFFFFFFFFFFFFFFFFFFFFFFFFFFFFFFFFFFFFFFFFFFFFFFFFF900000000F9FF000000000000000000FFFFFFFFFFFFFFFFFFFFFFFFFFFFFFFFF900000000F9FF000000000000000000FFFFFFFFFFFFFFFFFFFFFFFFFFFFFFFFF900000000F9FF000000000000000000FF
310
FFFFFFFFFFFFFFFFFFFFFFFFFFFFFFF900000000F9FF000000000000000000FFFFFFFFFFFFFFFFFFFFFFFFFFFFFFFFF900000000F9FF00000000000000000000000000000000000000000000000000F900000000F9FF00000000000000000000000000000000000000000000000000F900000000F9FF000000000000000000
310
00000000000000000000000000000000F900000000F9FF00000000000000000000000000000000000000000000000000F900000000F9FF00000000000000000000000000000000000000000000000000F900000000F9FF00000000000000000000000000000000000000000000000000F900000000F9FF0000000000000000
310
0000000000000000000000000000000000F900000000F9FF00000000000000000000000000000000000000000000000000F900000000F9FF00000000000000000000000000000000000000000000000000F900000000F9FF00000000000000000000000000000000000000000000000000F900000000F9FF00000000000000
310
000000000000000000000000000000000000F900000000F9FF00000000000000000000000000000000000000000000000000F900000000F9FFFFFFFFFFFFFFFFFFFFFFFFFFFFFFFFFFFFFFFFFFFFFFFFFFFFF900000000F9F9F9F9F9F9F9F9F9F9F9F9F9F9F9F9F9F9F9F9F9F9F9F9F9F9F9F9000000000000000000000000
310
00000000000000000000000000000000000000000000000000000000000000000000000000000000000000000000000000000000000000000000000000000000000000000000000000000000000000000000000000000000000000000000000000000000000000000000000000000000000000000000000000000000000000
310
0000000000000000000000000000000000000000000000000000000000000000000000000000000000000000000000000000000000000000
102
{BLKREFS
331
77
102
}
 70
     4
280
     1
281
     0
1001
AcDbDynamicBlockGUID
1000
{48A9FEE9-560C-4809-968A-2001E6452B6E}
1001
AcDbBlockRepETag
1070
     1
1071
      133
  0
BLOCK_RECORD
  5
594
330
1
100
AcDbSymbolTableRecord
100
AcDbBlockTableRecord
  2
*D21
340
0
 70
     0
280
     1
281
     0
  0
BLOCK_RECORD
  5
5A1
330
1
100
AcDbSymbolTableRecord
100
AcDbBlockTableRecord
  2
*D22
340
0
 70
     0
280
     1
281
     0
  0
BLOCK_RECORD
  5
5AE
330
1
100
AcDbSymbolTableRecord
100
AcDbBlockTableRecord
  2
*D23
340
0
 70
     0
280
     1
281
     0
  0
BLOCK_RECORD
  5
5BB
330
1
100
AcDbSymbolTableRecord
100
AcDbBlockTableRecord
  2
*D24
340
0
 70
     0
280
     1
281
     0
  0
BLOCK_RECORD
  5
5C8
330
1
100
AcDbSymbolTableRecord
100
AcDbBlockTableRecord
  2
*D25
340
0
 70
     0
280
     1
281
     0
  0
BLOCK_RECORD
  5
6DC
102
{ACAD_XDICTIONARY
360
6DE
102
}
330
1
100
AcDbSymbolTableRecord
100
AcDbBlockTableRecord
  2
A$C07C72648
340
0
 70
     4
280
     1
281
     0
  0
ENDTAB
  0
ENDSEC
  0
SECTION
  2
BLOCKS
  0
BLOCK
  5
5
330
2
100
AcDbEntity
  8
0
100
AcDbBlockBegin
  2
*MODEL_SPACE
 70
     0
 10
0.0
 20
0.0
 30
0.0
  3
*MODEL_SPACE
  1

  0
ENDBLK
  5
E
330
2
100
AcDbEntity
  8
0
100
AcDbBlockEnd
  0
BLOCK
  5
12
330
11
100
AcDbEntity
 67
     1
  8
0
100
AcDbBlockBegin
  2
*PAPER_SPACE
 70
     0
 10
0.0
 20
0.0
 30
0.0
  3
*PAPER_SPACE
  1

  0
ENDBLK
  5
13
330
11
100
AcDbEntity
 67
     1
  8
0
100
AcDbBlockEnd
  0
BLOCK
  5
7B
330
79
100
AcDbEntity
  8
0
100
AcDbBlockBegin
  2
A4
 70
     0
 10
0.0
 20
0.0
 30
0.0
  3
A4
  1

  0
LWPOLYLINE
  5
1E3
330
79
100
AcDbEntity
  8
图框
 62
     1
370
    18
100
AcDbPolyline
 90
        4
 70
     1
 43
0.0
 10
-303.2148965494912
 20
209.0016965501909
 10
-303.2148965494912
 20
0.0
 10
0.0
 20
0.0
 10
0.0
 20
209.0016965501909
1001
AcDbBlockRepETag
1070
     1
1071
        0
1005
1E3
  0
MTEXT
  5
1E4
330
79
100
AcDbEntity
  8
图框
  6
ByBlock
 62
     0
370
    18
100
AcDbMText
 10
-3.070193773118262
 20
28.84625550303008
 30
0.0
 40
2.707277505427175
 41
2.611450694813113
 46
0.0
 71
     1
 72
     5
  1
A
 11
0.0000000000000001
 21
1.0
 31
0.0
 73
     1
 44
1.0
1001
AcDbBlockRepETag
1070
     1
1071
        1
1005
1E4
  0
MTEXT
  5
1E5
330
79
100
AcDbEntity
  8
图框
  6
ByBlock
 62
     0
370
    18
100
AcDbMText
 10
-3.070193773118262
 20
77.42720741541052
 30
0.0
 40
2.707277505427175
 41
2.611450694813113
 46
0.0
 71
     1
 72
     5
  1
B
 11
0.0000000000000001
 21
1.0
 31
0.0
 73
     1
 44
1.0
1001
AcDbBlockRepETag
1070
     1
1071
        2
1005
1E5
  0
MTEXT
  5
1E6
330
79
100
AcDbEntity
  8
图框
  6
ByBlock
 62
     0
370
    18
100
AcDbMText
 10
-3.070193773118262
 20
129.6776632701471
 30
0.0
 40
2.707277505427175
 41
2.611450694813113
 46
0.0
 71
     1
 72
     5
  1
C
 11
0.0000000000000001
 21
1.0
 31
0.0
 73
     1
 44
1.0
1001
AcDbBlockRepETag
1070
     1
1071
        3
1005
1E6
  0
MTEXT
  5
1E7
330
79
100
AcDbEntity
  8
图框
  6
ByBlock
 62
     0
370
    18
100
AcDbMText
 10
-3.070193773118262
 20
181.9281191248847
 30
0.0
 40
2.707277505427175
 41
2.611450694813113
 46
0.0
 71
     1
 72
     5
  1
D
 11
0.0000000000000001
 21
1.0
 31
0.0
 73
     1
 44
1.0
1001
AcDbBlockRepETag
1070
     1
1071
        4
1005
1E7
  0
LINE
  5
1E8
330
79
100
AcDbEntity
  8
图框
  6
ByBlock
 62
     0
370
    18
100
AcDbLine
 10
0.0000000000045475
 20
52.25045585474345
 30
0.0
 11
-3.248733006515976
 21
52.25045585474345
 31
0.0
1001
AcDbBlockRepETag
1070
     1
1071
        5
1005
1E8
  0
LINE
  5
1E9
330
79
100
AcDbEntity
  8
图框
  6
ByBlock
 62
     0
370
    18
100
AcDbLine
 10
0.0000000000045475
 20
156.751367564234
 30
0.0
 11
-3.248733006515976
 21
156.751367564234
 31
0.0
1001
AcDbBlockRepETag
1070
     1
1071
        6
1005
1E9
  0
LINE
  5
1EA
330
79
100
AcDbEntity
  8
图框
  6
ByBlock
 62
     0
370
    18
100
AcDbLine
 10
0.0000000000045475
 20
104.50091170949
 30
0.0
 11
-3.248733006515976
 21
104.50091170949
 31
0.0
1001
AcDbBlockRepETag
1070
     1
1071
        7
1005
1EA
  0
LINE
  5
1EB
330
79
100
AcDbEntity
  8
图框
370
    50
100
AcDbLine
 10
-3.248733006515976
 20
198.3129987556103
 30
0.0
 11
-3.248733006515976
 21
3.248733006515067
 31
0.0
1001
AcDbBlockRepETag
1070
     1
1071
        8
1005
1EB
  0
MTEXT
  5
1EC
330
79
100
AcDbEntity
  8
图框
  6
ByBlock
 62
     0
370
    18
100
AcDbMText
 10
-25.60685871913211
 20
3.05375999971693
 30
0.0
 40
2.707277505427175
 41
2.611450694813113
 46
0.0
 71
     1
 72
     5
  1
6
 73
     1
 44
1.0
1001
AcDbBlockRepETag
1070
     1
1071
        9
1005
1EC
  0
LINE
  5
1ED
330
79
100
AcDbEntity
  8
图框
370
    18
100
AcDbLine
 10
-50.35536160095853
 20
3.248733006515067
 30
0.0
 11
-50.35536160095853
 21
-0.000000000003638
 31
0.0
1001
AcDbBlockRepETag
1070
     1
1071
       10
1005
1ED
  0
MTEXT
  5
1EE
330
79
100
AcDbEntity
  8
图框
  6
ByBlock
 62
     0
370
    18
100
AcDbMText
 10
-76.07051142029559
 20
3.05375999971693
 30
0.0
 40
2.707277505427175
 41
2.611450694813113
 46
0.0
 71
     1
 72
     5
  1
5
 73
     1
 44
1.0
1001
AcDbBlockRepETag
1070
     1
1071
       11
1005
1EE
  0
LINE
  5
1EF
330
79
100
AcDbEntity
  8
图框
370
    18
100
AcDbLine
 10
-100.9273054023188
 20
3.248733006515067
 30
0.0
 11
-100.9273054023188
 21
-0.000000000003638
 31
0.0
1001
AcDbBlockRepETag
1070
     1
1071
       12
1005
1EF
  0
MTEXT
  5
1F0
330
79
100
AcDbEntity
  8
图框
  6
ByBlock
 62
     0
370
    18
100
AcDbMText
 10
-126.6243205176042
 20
2.917651358990951
 30
0.0
 40
2.707277505427175
 41
2.611450694813113
 46
0.0
 71
     1
 72
     5
  1
4
 73
     1
 44
1.0
1001
AcDbBlockRepETag
1070
     1
1071
       13
1005
1F0
  0
LINE
  5
1F1
330
79
100
AcDbEntity
  8
图框
370
    18
100
AcDbLine
 10
-151.4992492037045
 20
3.248733006515067
 30
0.0
 11
-151.4992492037045
 21
-0.000000000003638
 31
0.0
1001
AcDbBlockRepETag
1070
     1
1071
       14
1005
1F1
  0
MTEXT
  5
1F2
330
79
100
AcDbEntity
  8
图框
  6
ByBlock
 62
     0
370
    18
100
AcDbMText
 10
-177.2143990230533
 20
3.05375999971693
 30
0.0
 40
2.707277505427175
 41
2.611450694813113
 46
0.0
 71
     1
 72
     5
  1
3
 73
     1
 44
1.0
1001
AcDbBlockRepETag
1070
     1
1071
       15
1005
1F2
  0
LINE
  5
1F3
330
79
100
AcDbEntity
  8
图框
370
    18
100
AcDbLine
 10
-202.0711930050948
 20
3.248733006515067
 30
0.0
 11
-202.0711930050948
 21
-0.000000000003638
 31
0.0
1001
AcDbBlockRepETag
1070
     1
1071
       16
1005
1F3
  0
MTEXT
  5
1F4
330
79
100
AcDbEntity
  8
图框
  6
ByBlock
 62
     0
370
    18
100
AcDbMText
 10
-229.0827453337215
 20
3.331892869585772
 30
0.0
 40
2.707277505427175
 41
2.611450694813113
 46
0.0
 71
     1
 72
     5
  1
2
 73
     1
 44
1.0
1001
AcDbBlockRepETag
1070
     1
1071
       17
1005
1F4
  0
LINE
  5
1F5
330
79
100
AcDbEntity
  8
图框
370
    18
100
AcDbLine
 10
-252.6431368064805
 20
3.248733006515067
 30
0.0
 11
-252.6431368064805
 21
-0.000000000003638
 31
0.0
1001
AcDbBlockRepETag
1070
     1
1071
       18
1005
1F5
  0
MTEXT
  5
1F6
330
79
100
AcDbEntity
  8
图框
  6
ByBlock
 62
     0
370
    18
100
AcDbMText
 10
-278.3582866258198
 20
3.05375999971693
 30
0.0
 40
2.707277505427175
 41
2.611450694813113
 46
0.0
 71
     1
 72
     5
  1
1
 73
     1
 44
1.0
1001
AcDbBlockRepETag
1070
     1
1071
       19
1005
1F6
  0
LINE
  5
1F7
330
79
100
AcDbEntity
  8
图框
370
    50
100
AcDbLine
 10
-3.248733006515976
 20
3.248733006515067
 30
0.0
 11
-299.7008874762591
 21
3.248733006515067
 31
0.0
1001
AcDbBlockRepETag
1070
     1
1071
       20
1005
1F7
  0
LINE
  5
1F8
330
79
100
AcDbEntity
  8
图框
370
    50
100
AcDbLine
 10
-299.7008874762591
 20
3.248733006515067
 30
0.0
 11
-3.248733006515976
 21
3.248733006515067
 31
0.0
1001
AcDbBlockRepETag
1070
     1
1071
       21
1005
1F8
  0
LINE
  5
1F9
330
79
100
AcDbEntity
  8
图框
370
    50
100
AcDbLine
 10
-299.7008874762591
 20
3.248733006515067
 30
0.0
 11
-299.700887476256
 21
198.3129987556103
 31
0.0
1001
AcDbBlockRepETag
1070
     1
1071
       22
1005
1F9
  0
MTEXT
  5
1FA
330
79
100
AcDbEntity
  8
图框
  6
ByBlock
 62
     0
370
    18
100
AcDbMText
 10
-302.7710812493774
 20
181.9281191248847
 30
0.0
 40
2.707277505427175
 41
2.611450694813113
 46
0.0
 71
     1
 72
     5
  1
D
 11
0.0000000000000001
 21
1.0
 31
0.0
 73
     1
 44
1.0
1001
AcDbBlockRepETag
1070
     1
1071
       23
1005
1FA
  0
LINE
  5
1FB
330
79
100
AcDbEntity
  8
图框
  6
ByBlock
 62
     0
370
    18
100
AcDbLine
 10
-299.7008874762591
 20
156.751367564234
 30
0.0
 11
-303.0844922931087
 21
156.751367564234
 31
0.0
1001
AcDbBlockRepETag
1070
     1
1071
       24
1005
1FB
  0
MTEXT
  5
1FC
330
79
100
AcDbEntity
  8
图框
  6
ByBlock
 62
     0
370
    18
100
AcDbMText
 10
-302.7710812493774
 20
129.6776632701471
 30
0.0
 40
2.707277505427175
 41
2.611450694813113
 46
0.0
 71
     1
 72
     5
  1
C
 11
0.0000000000000001
 21
1.0
 31
0.0
 73
     1
 44
1.0
1001
AcDbBlockRepETag
1070
     1
1071
       25
1005
1FC
  0
LINE
  5
1FD
330
79
100
AcDbEntity
  8
图框
  6
ByBlock
 62
     0
370
    18
100
AcDbLine
 10
-299.7008874762591
 20
104.50091170949
 30
0.0
 11
-303.0844922931087
 21
104.50091170949
 31
0.0
1001
AcDbBlockRepETag
1070
     1
1071
       26
1005
1FD
  0
MTEXT
  5
1FE
330
79
100
AcDbEntity
  8
图框
  6
ByBlock
 62
     0
370
    18
100
AcDbMText
 10
-302.7710812493774
 20
77.42720741541052
 30
0.0
 40
2.707277505427175
 41
2.611450694813113
 46
0.0
 71
     1
 72
     5
  1
B
 11
0.0000000000000001
 21
1.0
 31
0.0
 73
     1
 44
1.0
1001
AcDbBlockRepETag
1070
     1
1071
       27
1005
1FE
  0
LINE
  5
1FF
330
79
100
AcDbEntity
  8
图框
  6
ByBlock
 62
     0
370
    18
100
AcDbLine
 10
-299.7008874762591
 20
52.25045585474345
 30
0.0
 11
-303.0844922931087
 21
52.25045585474345
 31
0.0
1001
AcDbBlockRepETag
1070
     1
1071
       28
1005
1FF
  0
MTEXT
  5
200
330
79
100
AcDbEntity
  8
图框
  6
ByBlock
 62
     0
370
    18
100
AcDbMText
 10
-302.7710812493774
 20
28.84625550303008
 30
0.0
 40
2.707277505427175
 41
2.611450694813113
 46
0.0
 71
     1
 72
     5
  1
A
 11
0.0000000000000001
 21
1.0
 31
0.0
 73
     1
 44
1.0
1001
AcDbBlockRepETag
1070
     1
1071
       29
1005
200
  0
LINE
  5
201
330
79
100
AcDbEntity
  8
图框
370
    -3
100
AcDbLine
 10
-299.700887476256
 20
198.3129987556103
 30
0.0
 11
-299.700887476256
 21
207.9928626462792
 31
0.0
1001
AcDbBlockRepETag
1070
     1
1071
       30
1005
201
  0
LINE
  5
202
330
79
100
AcDbEntity
  8
图框
370
    -3
100
AcDbLine
 10
-293.8704791652308
 20
198.3129987556103
 30
0.0
 11
-293.8704791652308
 21
207.9928626462792
 31
0.0
1001
AcDbBlockRepETag
1070
     1
1071
       31
1005
202
  0
LINE
  5
203
330
79
100
AcDbEntity
  8
图框
370
    -3
100
AcDbLine
 10
-288.0400708542047
 20
198.3129987556103
 30
0.0
 11
-288.0400708542047
 21
207.9928626462792
 31
0.0
1001
AcDbBlockRepETag
1070
     1
1071
       32
1005
203
  0
LINE
  5
204
330
79
100
AcDbEntity
  8
图框
370
    -3
100
AcDbLine
 10
-282.2096625431764
 20
198.3129987556103
 30
0.0
 11
-282.2096625431764
 21
207.9928626462792
 31
0.0
1001
AcDbBlockRepETag
1070
     1
1071
       33
1005
204
  0
LINE
  5
205
330
79
100
AcDbEntity
  8
图框
370
    -3
100
AcDbLine
 10
-274.5632094694702
 20
198.3129987556103
 30
0.0
 11
-274.5632094694702
 21
207.9928626462792
 31
0.0
1001
AcDbBlockRepETag
1070
     1
1071
       34
1005
205
  0
LINE
  5
206
330
79
100
AcDbEntity
  8
图框
370
    -3
100
AcDbLine
 10
-299.700887476256
 20
207.9928626462792
 30
0.0
 11
-274.5632094694702
 21
207.9928626462792
 31
0.0
1001
AcDbBlockRepETag
1070
     1
1071
       35
1005
206
  0
MTEXT
  5
207
330
79
100
AcDbEntity
  8
图框
  6
ByBlock
 62
     0
370
    18
100
AcDbMText
 10
-25.60685871913211
 20
201.9867597153443
 30
0.0
 40
2.707277505427175
 41
2.611450694813113
 46
0.0
 71
     1
 72
     5
  1
6
 73
     1
 44
1.0
1001
AcDbBlockRepETag
1070
     1
1071
       36
1005
207
  0
LINE
  5
208
330
79
100
AcDbEntity
  8
图框
  6
ByBlock
 62
     0
370
    18
100
AcDbLine
 10
-50.35536160095853
 20
202.1817327221484
 30
0.0
 11
-50.35536160095853
 21
198.3129987556103
 31
0.0
1001
AcDbBlockRepETag
1070
     1
1071
       37
1005
208
  0
MTEXT
  5
209
330
79
100
AcDbEntity
  8
图框
  6
ByBlock
 62
     0
370
    18
100
AcDbMText
 10
-76.07051142029559
 20
201.9867597153443
 30
0.0
 40
2.707277505427175
 41
2.611450694813113
 46
0.0
 71
     1
 72
     5
  1
5
 73
     1
 44
1.0
1001
AcDbBlockRepETag
1070
     1
1071
       38
1005
209
  0
LINE
  5
20A
330
79
100
AcDbEntity
  8
图框
  6
ByBlock
 62
     0
370
    18
100
AcDbLine
 10
-100.9273054023188
 20
202.1817327221484
 30
0.0
 11
-100.9273054023188
 21
198.3129987556103
 31
0.0
1001
AcDbBlockRepETag
1070
     1
1071
       39
1005
20A
  0
MTEXT
  5
20B
330
79
100
AcDbEntity
  8
图框
  6
ByBlock
 62
     0
370
    18
100
AcDbMText
 10
-126.6424552216831
 20
201.8553551228192
 30
0.0
 40
2.707277505427175
 41
2.611450694813113
 46
0.0
 71
     1
 72
     5
  1
4
 73
     1
 44
1.0
1001
AcDbBlockRepETag
1070
     1
1071
       40
1005
20B
  0
LINE
  5
20C
330
79
100
AcDbEntity
  8
图框
  6
ByBlock
 62
     0
370
    18
100
AcDbLine
 10
-151.4992492037045
 20
202.1817327221484
 30
0.0
 11
-151.4992492037045
 21
198.3129987556103
 31
0.0
1001
AcDbBlockRepETag
1070
     1
1071
       41
1005
20C
  0
MTEXT
  5
20D
330
79
100
AcDbEntity
  8
图框
  6
ByBlock
 62
     0
370
    18
100
AcDbMText
 10
-177.2143990230533
 20
201.9867597153443
 30
0.0
 40
2.707277505427175
 41
2.611450694813113
 46
0.0
 71
     1
 72
     5
  1
3
 73
     1
 44
1.0
1001
AcDbBlockRepETag
1070
     1
1071
       42
1005
20D
  0
LINE
  5
20E
330
79
100
AcDbEntity
  8
图框
  6
ByBlock
 62
     0
370
    18
100
AcDbLine
 10
-202.0711930050948
 20
202.1817327221484
 30
0.0
 11
-202.0711930050948
 21
198.3129987556103
 31
0.0
1001
AcDbBlockRepETag
1070
     1
1071
       43
1005
20E
  0
MTEXT
  5
20F
330
79
100
AcDbEntity
  8
图框
  6
ByBlock
 62
     0
370
    18
100
AcDbMText
 10
-227.7863428244318
 20
201.9867597153443
 30
0.0
 40
2.707277505427175
 41
2.611450694813113
 46
0.0
 71
     1
 72
     5
  1
2
 73
     1
 44
1.0
1001
AcDbBlockRepETag
1070
     1
1071
       44
1005
20F
  0
LINE
  5
210
330
79
100
AcDbEntity
  8
图框
  6
ByBlock
 62
     0
370
    18
100
AcDbLine
 10
-252.6431368064805
 20
202.1817327221484
 30
0.0
 11
-252.6431368064805
 21
198.3129987556103
 31
0.0
1001
AcDbBlockRepETag
1070
     1
1071
       45
1005
210
  0
MTEXT
  5
211
330
79
100
AcDbEntity
  8
图框
  6
ByBlock
 62
     0
370
    18
100
AcDbMText
 10
-273.387602165506
 20
201.9867597153443
 30
0.0
 40
2.707277505427175
 41
2.611450694813113
 46
0.0
 71
     1
 72
     5
  1
1
 73
     1
 44
1.0
1001
AcDbBlockRepETag
1070
     1
1071
       46
1005
211
  0
LINE
  5
212
330
79
100
AcDbEntity
  8
图框
370
    -3
100
AcDbLine
 10
-299.700887476256
 20
198.3129987556103
 30
0.0
 11
-299.700887476256
 21
207.9928626462792
 31
0.0
1001
AcDbBlockRepETag
1070
     1
1071
       47
1005
212
  0
LINE
  5
213
330
79
100
AcDbEntity
  8
图框
370
    50
100
AcDbLine
 10
-299.700887476256
 20
198.3129987556103
 30
0.0
 11
-3.248733006515976
 21
198.3129987556103
 31
0.0
1001
AcDbBlockRepETag
1070
     1
1071
       48
1005
213
  0
LINE
  5
214
330
79
100
AcDbEntity
  8
图框
370
    -3
100
AcDbLine
 10
-293.8704791652308
 20
198.3129987556103
 30
0.0
 11
-293.8704791652308
 21
207.9928626462792
 31
0.0
1001
AcDbBlockRepETag
1070
     1
1071
       49
1005
214
  0
LINE
  5
215
330
79
100
AcDbEntity
  8
图框
370
    -3
100
AcDbLine
 10
-288.0400708542047
 20
198.3129987556103
 30
0.0
 11
-288.0400708542047
 21
207.9928626462792
 31
0.0
1001
AcDbBlockRepETag
1070
     1
1071
       50
1005
215
  0
MTEXT
  5
216
102
{ACAD_XDICTIONARY
360
6ED
102
}
330
79
100
AcDbEntity
  8
图框
100
AcDbMText
 10
-275.4596122799183
 20
210.0251307685897
 30
0.0
 40
1.9
 41
13.61312830580164
 46
0.0
 71
     1
 72
     5
  1
\pi3.5495;{\fSimSun|b0|i0|c134|p2;档案员\fFangSong_GB2312|b0|i0|c134|p49;\H0.7x;\P\pi2.2307;Filing Clerk }
 11
-0.0000000000000002
 21
-1.0
 31
0.0
 73
     1
 44
1.0
1001
AcDbBlockRepETag
1070
     1
1071
       51
1005
216
  0
MTEXT
  5
217
330
79
100
AcDbEntity
  8
图框
100
AcDbMText
 10
-289.643354132179
 20
207.7789529018669
 30
0.0
 40
1.85
 41
14.3296087429491
 46
7.89743972280874
 71
     1
 72
     5
  1
{\fFangSong_GB2312|b0|i0|c134|p49;日期/Date}
 11
-0.0000000000000002
 21
-1.0
 31
0.0
 73
     1
 44
1.0
1001
AcDbBlockRepETag
1070
     1
1071
       52
1005
217
1001
ACAD
1000
ACAD_MTEXT_DEFINED_HEIGHT_BEGIN
1070
    46
1040
7.89743972280874
1000
ACAD_MTEXT_DEFINED_HEIGHT_END
  0
LINE
  5
218
330
79
100
AcDbEntity
  8
图框
370
    -3
100
AcDbLine
 10
-282.2096625431764
 20
198.3129987556103
 30
0.0
 11
-282.2096625431764
 21
207.9928626462792
 31
0.0
1001
AcDbBlockRepETag
1070
     1
1071
       53
1005
218
  0
LINE
  5
219
330
79
100
AcDbEntity
  8
图框
370
    -3
100
AcDbLine
 10
-299.700887476256
 20
207.9928626462792
 30
0.0
 11
-274.5632094694702
 21
207.9928626462792
 31
0.0
1001
AcDbBlockRepETag
1070
     1
1071
       54
1005
219
  0
LINE
  5
21A
330
79
100
AcDbEntity
  8
图框
370
    -3
100
AcDbLine
 10
-95.65547965621409
 20
51.53299718117978
 30
0.0
 11
-95.65547965621409
 21
3.226101763186306
 31
0.0
1001
AcDbBlockRepETag
1070
     1
1071
       55
1005
21A
  0
LINE
  5
21B
330
79
100
AcDbEntity
  8
图框
370
    -3
100
AcDbLine
 10
-84.59947431631553
 20
27.37954846258481
 30
0.0
 11
-84.59947431631553
 21
11.27724931685816
 31
0.0
1001
AcDbBlockRepETag
1070
     1
1071
       56
1005
21B
  0
LINE
  5
21C
330
79
100
AcDbEntity
  8
图框
370
    -3
100
AcDbLine
 10
-73.54346897641881
 20
27.37954846258481
 30
0.0
 11
-73.54346897641881
 21
3.248733006515067
 31
0.0
1001
AcDbBlockRepETag
1070
     1
1071
       57
1005
21C
  0
LINE
  5
21D
330
79
100
AcDbEntity
  8
图框
370
    25
100
AcDbLine
 10
-83.58791727856555
 20
7.408811498148681
 30
0.0
 11
-76.98016808912439
 21
7.408811498148681
 31
0.0
1001
AcDbBlockRepETag
1070
     1
1071
       58
1005
21D
  0
LINE
  5
21E
330
79
100
AcDbEntity
  8
图框
370
    25
100
AcDbLine
 10
-77.70900270099014
 20
6.353791602190087
 30
0.0
 11
-82.89127995922923
 21
5.722301238156889
 31
0.0
1001
AcDbBlockRepETag
1070
     1
1071
       59
1005
21E
  0
LINE
  5
21F
330
79
100
AcDbEntity
  8
图框
370
    25
100
AcDbLine
 10
-77.70900270099014
 20
8.46383139410682
 30
0.0
 11
-82.89127995922923
 21
9.095321758140018
 31
0.0
1001
AcDbBlockRepETag
1070
     1
1071
       60
1005
21F
  0
LINE
  5
220
330
79
100
AcDbEntity
  8
图框
370
    25
100
AcDbLine
 10
-82.89127995922923
 20
9.095321758140018
 30
0.0
 11
-82.89127995922923
 21
5.722301238156889
 31
0.0
1001
AcDbBlockRepETag
1070
     1
1071
       61
1005
220
  0
LINE
  5
221
330
79
100
AcDbEntity
  8
图框
370
    25
100
AcDbLine
 10
-77.70900270099014
 20
8.46383139410682
 30
0.0
 11
-77.70900270099014
 21
6.353791602190087
 31
0.0
1001
AcDbBlockRepETag
1070
     1
1071
       62
1005
221
  0
CIRCLE
  5
222
330
79
100
AcDbEntity
  8
图框
370
    25
100
AcDbCircle
 10
-89.68433341549213
 20
7.408811498148681
 30
0.0
 40
1.686510259991202
1001
AcDbBlockRepETag
1070
     1
1071
       63
1005
222
  0
CIRCLE
  5
223
330
79
100
AcDbEntity
  8
图框
370
    25
100
AcDbCircle
 10
-89.68433341549213
 20
7.408811498148681
 30
0.0
 40
1.055019895958463
1001
AcDbBlockRepETag
1070
     1
1071
       64
1005
223
  0
LINE
  5
224
330
79
100
AcDbEntity
  8
图框
370
    25
100
AcDbLine
 10
-92.09967828735193
 20
7.408811498148681
 30
0.0
 11
-87.26898854363231
 21
7.408811498148681
 31
0.0
1001
AcDbBlockRepETag
1070
     1
1071
       65
1005
224
  0
LINE
  5
225
330
79
100
AcDbEntity
  8
图框
370
    25
100
AcDbLine
 10
-89.68433341549213
 20
9.824156370006678
 30
0.0
 11
-89.68433341549213
 21
4.99346662628932
 31
0.0
1001
AcDbBlockRepETag
1070
     1
1071
       66
1005
225
  0
LINE
  5
226
330
79
100
AcDbEntity
  8
图框
370
    -3
100
AcDbLine
 10
-62.48746363651753
 20
27.37954846258481
 30
0.0
 11
-62.48746363651753
 21
11.27724931685816
 31
0.0
1001
AcDbBlockRepETag
1070
     1
1071
       67
1005
226
  0
MTEXT
  5
227
330
79
100
AcDbEntity
  8
图框
100
AcDbMText
 10
-44.5048303343492
 20
46.82783085037999
 30
0.0
 40
2.2
 41
17.28936801007842
 46
0.0
 71
     5
 72
     5
  1
{\fSimSun|b0|i0|c134|p2;图号\fFangSong_GB2312|b0|i0|c134|p49;\P\W0.65;Drawing No.}
 73
     1
 44
1.0
1001
AcDbBlockRepETag
1070
     1
1071
       68
1005
227
  0
LINE
  5
228
330
79
100
AcDbEntity
  8
图框
370
    -3
100
AcDbLine
 10
-37.80740494985457
 20
51.53299718117978
 30
0.0
 11
-37.80740494985457
 21
15.302824103288
 31
0.0
1001
AcDbBlockRepETag
1070
     1
1071
       69
1005
228
  0
LINE
  5
229
330
79
100
AcDbEntity
  8
图框
370
    -3
100
AcDbLine
 10
-84.60901605993241
 20
51.53299718117978
 30
0.0
 11
-84.60901605993241
 21
27.37954846258481
 31
0.0
1001
AcDbBlockRepETag
1070
     1
1071
       70
1005
229
  0
MTEXT
  5
22A
330
79
100
AcDbEntity
  8
图框
100
AcDbMText
 10
-67.78404260571005
 20
23.22673946473287
 30
0.0
 40
2.299999999999999
 41
17.28936801007842
 46
0.0
 71
     5
 72
     5
  1
{\fFangSong_GB2312|b0|i0|c134|p49;重量\PWeight}
 73
     1
 44
1.0
1001
AcDbBlockRepETag
1070
     1
1071
       71
1005
22A
  0
LINE
  5
22B
330
79
100
AcDbEntity
  8
图框
370
    -3
100
AcDbLine
 10
-95.65547965621409
 20
39.45627282188434
 30
0.0
 11
-51.43145829661989
 21
39.45627282188434
 31
0.0
1001
AcDbBlockRepETag
1070
     1
1071
       72
1005
22B
  0
MTEXT
  5
22C
330
79
100
AcDbEntity
  8
图框
100
AcDbMText
 10
-56.79324677364639
 20
23.46845439006302
 30
0.0
 40
2.299999999999999
 41
17.28936801007842
 46
0.0
 71
     5
 72
     5
  1
{\fFangSong_GB2312|b0|i0|c134|p49;数量\PQty.}
 73
     1
 44
1.0
1001
AcDbBlockRepETag
1070
     1
1071
       73
1005
22C
  0
LINE
  5
22D
330
79
100
AcDbEntity
  8
图框
370
    -3
100
AcDbLine
 10
-51.43145829661989
 20
15.302824103288
 30
0.0
 11
-3.248733006515976
 21
15.302824103288
 31
0.0
1001
AcDbBlockRepETag
1070
     1
1071
       74
1005
22D
  0
LINE
  5
22E
330
79
100
AcDbEntity
  8
图框
370
    -3
100
AcDbLine
 10
-51.43145829661989
 20
24.36006199058238
 30
0.0
 11
-3.248733006515976
 21
24.36006199058238
 31
0.0
1001
AcDbBlockRepETag
1070
     1
1071
       75
1005
22E
  0
MTEXT
  5
22F
330
79
100
AcDbEntity
  8
图框
100
AcDbMText
 10
-78.97020155255723
 20
23.22673946473287
 30
0.0
 40
2.299999999999999
 41
17.28936801007842
 46
0.0
 71
     5
 72
     5
  1
{\fFangSong_GB2312|b0|i0|c134|p49;版本\PREV.}
 73
     1
 44
1.0
1001
AcDbBlockRepETag
1070
     1
1071
       76
1005
22F
  0
MTEXT
  5
230
330
79
100
AcDbEntity
  8
图框
100
AcDbMText
 10
-90.10909894000088
 20
23.22673946473287
 30
0.0
 40
2.299999999999999
 41
17.28936801007842
 46
0.0
 71
     5
 72
     5
  1
{\fFangSong_GB2312|b1|i0|c134|p49;比例\P\fFangSong_GB2312|b0|i0|c134|p49;Scale}
 73
     1
 44
1.0
1001
AcDbBlockRepETag
1070
     1
1071
       77
1005
230
  0
LINE
  5
231
330
79
100
AcDbEntity
  8
图框
370
    -3
100
AcDbLine
 10
-95.65547965621409
 20
27.37954846258481
 30
0.0
 11
-51.43145829661989
 21
27.37954846258481
 31
0.0
1001
AcDbBlockRepETag
1070
     1
1071
       78
1005
231
  0
LINE
  5
232
330
79
100
AcDbEntity
  8
图框
370
    -3
100
AcDbLine
 10
-95.65547965621409
 20
19.32839888972057
 30
0.0
 11
-51.43145829661989
 21
19.32839888972057
 31
0.0
1001
AcDbBlockRepETag
1070
     1
1071
       79
1005
232
  0
LINE
  5
233
330
79
100
AcDbEntity
  8
图框
370
    -3
100
AcDbLine
 10
-95.65547965621409
 20
11.27724931685816
 30
0.0
 11
-51.43145829661989
 21
11.27724931685816
 31
0.0
1001
AcDbBlockRepETag
1070
     1
1071
       80
1005
233
  0
LINE
  5
234
330
79
100
AcDbEntity
  8
图框
370
    -3
100
AcDbLine
 10
-51.43145829661989
 20
51.53299718117978
 30
0.0
 11
-51.43145829661989
 21
3.226099743992108
 31
0.0
1001
AcDbBlockRepETag
1070
     1
1071
       81
1005
234
  0
MTEXT
  5
235
330
79
100
AcDbEntity
  8
图框
100
AcDbMText
 10
-90.14442331907321
 20
45.35786127313076
 30
0.0
 40
2.299999999999999
 41
17.28936801007842
 46
0.0
 71
     5
 72
     5
  1
{\fFangSong_GB2312|b0|i0|c134|p49;表面处理Finish}
 73
     1
 44
1.0
1001
AcDbBlockRepETag
1070
     1
1071
       82
1005
235
  0
MTEXT
  5
236
330
79
100
AcDbEntity
  8
图框
100
AcDbMText
 10
-89.98715703761446
 20
33.29533932877166
 30
0.0
 40
2.299999999999999
 41
17.28936801007842
 46
0.0
 71
     5
 72
     5
  1
{\fFangSong_GB2312|b0|i0|c134|p49;材料\PMaterial}
 73
     1
 44
1.0
1001
AcDbBlockRepETag
1070
     1
1071
       83
1005
236
  0
LINE
  5
237
330
79
100
AcDbEntity
  8
图框
370
    -3
100
AcDbLine
 10
-51.43145829661989
 20
42.2864686426592
 30
0.0
 11
-3.248733006515976
 21
42.2864686426592
 31
0.0
1001
AcDbBlockRepETag
1070
     1
1071
       84
1005
237
  0
LINE
  5
238
330
79
100
AcDbEntity
  8
图框
370
    -3
100
AcDbLine
 10
-51.43145829661989
 20
33.4179106422348
 30
0.0
 11
-3.248733006515976
 21
33.4179106422348
 31
0.0
1001
AcDbBlockRepETag
1070
     1
1071
       85
1005
238
  0
MTEXT
  5
239
330
79
100
AcDbEntity
  8
图框
100
AcDbMText
 10
-44.49064553457356
 20
37.88290870096216
 30
0.0
 40
2.0
 41
17.28936801007842
 46
0.0
 71
     5
 72
     5
  1
{\fFangSong_GB2312|b0|i0|c134|p49;产品代号\PPart Code}
 73
     1
 44
1.0
1001
AcDbBlockRepETag
1070
     1
1071
       86
1005
239
  0
LINE
  5
23A
330
79
100
AcDbEntity
  8
图框
370
    -3
100
AcDbLine
 10
-187.2588872465149
 20
45.8862940631534
 30
0.0
 11
-95.65547965621409
 21
45.8862940631534
 31
0.0
1001
AcDbBlockRepETag
1070
     1
1071
       87
1005
23A
  0
LINE
  5
23B
330
79
100
AcDbEntity
  8
图框
370
    -3
100
AcDbLine
 10
-187.2588872465149
 20
40.23959094513202
 30
0.0
 11
-95.65547965621409
 21
40.23959094513202
 31
0.0
1001
AcDbBlockRepETag
1070
     1
1071
       88
1005
23B
  0
LINE
  5
23C
330
79
100
AcDbEntity
  8
图框
370
    35
100
AcDbLine
 10
-187.2588872465149
 20
51.53299718117978
 30
0.0
 11
-3.248733006515976
 21
51.53299718117978
 31
0.0
1001
AcDbBlockRepETag
1070
     1
1071
       89
1005
23C
  0
LINE
  5
23D
330
79
100
AcDbEntity
  8
图框
370
    -3
100
AcDbLine
 10
-142.5990667195065
 20
28.94618470907971
 30
0.0
 11
-142.5990667195065
 21
3.248733006515067
 31
0.0
1001
AcDbBlockRepETag
1070
     1
1071
       90
1005
23D
  0
MTEXT
  5
23E
102
{ACAD_XDICTIONARY
360
6EF
102
}
330
79
100
AcDbEntity
  8
图框
100
AcDbMText
 10
-135.9561748265769
 20
19.06273530277031
 30
0.0
 40
2.299999999999999
 41
17.28936801007842
 46
0.0
 71
     5
 72
     5
  1
{\fSimSun|b0|i0|c134|p2;标准化\fFangSong_GB2312|b0|i0|c134|p49;\PStand.}
 73
     1
 44
1.0
1001
AcDbBlockRepETag
1070
     1
1071
       91
1005
23E
  0
LINE
  5
23F
330
79
100
AcDbEntity
  8
图框
370
    -3
100
AcDbLine
 10
-158.1808904067165
 20
28.94618470907971
 30
0.0
 11
-158.1808904067165
 21
3.248733006515067
 31
0.0
1001
AcDbBlockRepETag
1070
     1
1071
       92
1005
23F
  0
MTEXT
  5
240
330
79
100
AcDbEntity
  8
图框
100
AcDbMText
 10
-150.7920026057454
 20
31.84090517503546
 30
0.0
 40
2.5
 41
37.16636630945561
 46
10.30371199453346
 71
     5
 72
     5
  1
{\fFangSong_GB2312|b0|i0|c134|p49;\H0.8x; 变更描述/Description}
 73
     1
 44
1.0
1001
AcDbBlockRepETag
1070
     1
1071
       93
1005
240
1001
ACAD
1000
ACAD_MTEXT_DEFINED_HEIGHT_BEGIN
1070
    46
1040
10.30371199453346
1000
ACAD_MTEXT_DEFINED_HEIGHT_END
  0
MTEXT
  5
241
102
{ACAD_XDICTIONARY
360
6F1
102
}
330
79
100
AcDbEntity
  8
图框
100
AcDbMText
 10
-119.9966215483446
 20
31.81337244555516
 30
0.0
 40
2.0
 41
17.28936801007842
 46
0.0
 71
     5
 72
     5
  1
{\fSimSun|b0|i0|c134|p2;签名\fFangSong_GB2312|b0|i0|c134|p49;\PSignature }
 73
     1
 44
1.0
1001
AcDbBlockRepETag
1070
     1
1071
       94
1005
241
  0
MTEXT
  5
242
102
{ACAD_XDICTIONARY
360
6F3
102
}
330
79
100
AcDbEntity
  8
图框
100
AcDbMText
 10
-173.0343616143536
 20
29.07925480875338
 30
0.0
 40
2.0
 41
17.28936801007842
 46
0.0
 71
     5
 72
     5
  1
{\fSimSun|b0|i0|c134|p2;处数\fFangSong_GB2312|b0|i0|c134|p49;\P\W0.75;Number\H0.9491x;\W0.85; \P\P }
 73
     1
 44
1.0
1001
AcDbBlockRepETag
1070
     1
1071
       95
1005
242
  0
LINE
  5
243
330
79
100
AcDbEntity
  8
图框
370
    -3
100
AcDbLine
 10
-187.2588872465149
 20
34.59288782710473
 30
0.0
 11
-95.65547965621409
 21
34.59288782710473
 31
0.0
1001
AcDbBlockRepETag
1070
     1
1071
       96
1005
243
  0
LINE
  5
244
330
79
100
AcDbEntity
  8
图框
370
    -3
100
AcDbLine
 10
-187.2588872465149
 20
28.94618470907971
 30
0.0
 11
-95.65547965621409
 21
28.94618470907971
 31
0.0
1001
AcDbBlockRepETag
1070
     1
1071
       97
1005
244
  0
LINE
  5
245
330
79
100
AcDbEntity
  8
图框
370
    -3
100
AcDbLine
 10
-187.2588872465149
 20
22.52182178343856
 30
0.0
 11
-95.65547965621409
 21
22.52182178343856
 31
0.0
1001
AcDbBlockRepETag
1070
     1
1071
       98
1005
245
  0
LINE
  5
246
330
79
100
AcDbEntity
  8
图框
370
    -3
100
AcDbLine
 10
-187.2588872465149
 20
16.09745885779694
 30
0.0
 11
-95.65547965621409
 21
16.09745885779694
 31
0.0
1001
AcDbBlockRepETag
1070
     1
1071
       99
1005
246
  0
LINE
  5
247
330
79
100
AcDbEntity
  8
图框
370
    35
380
     1
100
AcDbLine
 10
-187.2588872465149
 20
51.53299718117978
 30
0.0
 11
-187.2588872465149
 21
3.248733006515067
 31
0.0
1001
AcDbBlockRepETag
1070
     1
1071
      100
1005
247
  0
LINE
  5
248
330
79
100
AcDbEntity
  8
图框
370
    -3
100
AcDbLine
 10
-111.3291326656708
 20
51.53299718117978
 30
0.0
 11
-111.3291326656708
 21
3.248733006515067
 31
0.0
1001
AcDbBlockRepETag
1070
     1
1071
      101
1005
248
  0
LINE
  5
249
330
79
100
AcDbEntity
  8
图框
370
    -3
100
AcDbLine
 10
-129.3472832566813
 20
51.53299718117978
 30
0.0
 11
-129.3472832566813
 21
3.248733006515067
 31
0.0
1001
AcDbBlockRepETag
1070
     1
1071
      102
1005
249
  0
LINE
  5
24A
330
79
100
AcDbEntity
  8
图框
370
    -3
100
AcDbLine
 10
-168.4365435197642
 20
51.53299718117978
 30
0.0
 11
-168.4365435197642
 21
28.94618470907971
 31
0.0
1001
AcDbBlockRepETag
1070
     1
1071
      103
1005
24A
  0
LINE
  5
24B
330
79
100
AcDbEntity
  8
图框
370
    -3
100
AcDbLine
 10
-177.84771538314
 20
51.53299718117978
 30
0.0
 11
-177.84771538314
 21
28.94618470907971
 31
0.0
1001
AcDbBlockRepETag
1070
     1
1071
      104
1005
24B
  0
MTEXT
  5
24C
102
{ACAD_XDICTIONARY
360
6F5
102
}
330
79
100
AcDbEntity
  8
图框
100
AcDbMText
 10
-182.5265049148974
 20
31.52148063531195
 30
0.0
 40
2.0
 41
17.28936801007842
 46
0.0
 71
     5
 72
     5
  1
{\fSimSun|b0|i0|c134|p2;标记\fFangSong_GB2312|b0|i0|c134|p49;\PMark}
 73
     1
 44
1.0
1001
AcDbBlockRepETag
1070
     1
1071
      105
1005
24C
  0
MTEXT
  5
24D
102
{ACAD_XDICTIONARY
360
6F7
102
}
330
79
100
AcDbEntity
  8
图框
100
AcDbMText
 10
-180.552682381483
 20
12.82378897022636
 30
0.0
 40
2.299999999999999
 41
17.28936801007842
 46
0.0
 71
     5
 72
     5
  1
{\fSimSun|b0|i0|c134|p2;审核\fFangSong_GB2312|b0|i0|c134|p49;\PChecked}
 73
     1
 44
1.0
1001
AcDbBlockRepETag
1070
     1
1071
      106
1005
24D
  0
MTEXT
  5
24E
102
{ACAD_XDICTIONARY
360
6F9
102
}
330
79
100
AcDbEntity
  8
图框
100
AcDbMText
 10
-180.5892215157932
 20
19.1709171910079
 30
0.0
 40
2.299999999999999
 41
17.28936801007842
 46
0.0
 71
     5
 72
     5
  1
{\fSimSun|b0|i0|c134|p2;绘图\fFangSong_GB2312|b0|i0|c134|p49;\PDrawn }
 73
     1
 44
1.0
1001
AcDbBlockRepETag
1070
     1
1071
      107
1005
24E
  0
MTEXT
  5
24F
330
79
100
AcDbEntity
  8
图框
 62
     1
370
    20
100
AcDbMText
 10
-22.84271650818846
 20
10.88681000979113
 30
0.0
 40
2.75554548781367
 41
84.03101573313691
 46
0.0
 71
     5
 72
     5
  1
{\fSimHei|b0|i0|c134|p2;厦门唯恩电气有限公司}
 73
     1
 44
1.0
1001
AcDbBlockRepETag
1070
     1
1071
      108
1005
24F
  0
MTEXT
  5
250
330
79
100
AcDbEntity
  8
图框
 62
     3
370
    20
100
AcDbMText
 10
-22.66702772757162
 20
6.581250737222489
 30
0.0
 40
1.68706866600837
 41
69.51060973847155
 46
0.0
 71
     5
 72
     5
  1
{\fArial Narrow|b0|i0|c0|p34;XIAMEN WAIN ELECTRICAL CO.LTD}
  7
工程字
 73
     1
 44
1.0
1001
AcDbBlockRepETag
1070
     1
1071
      109
1005
250
  0
ARC
  5
251
330
79
100
AcDbEntity
  8
图框
 62
     4
370
    35
100
AcDbCircle
 10
-44.65257334671605
 20
9.357186314109185
 30
0.0
 40
4.148354985993361
100
AcDbArc
 50
18.95237904565114
 51
161.0476209543488
1001
AcDbBlockRepETag
1070
     1
1071
      110
1005
251
  0
ARC
  5
252
330
79
100
AcDbEntity
  8
图框
 62
     4
370
    35
100
AcDbCircle
 10
-44.65257334671605
 20
9.357186314109185
 30
0.0
 40
4.148354985993361
100
AcDbArc
 50
198.9523790456511
 51
341.0476209543489
1001
AcDbBlockRepETag
1070
     1
1071
      111
1005
252
  0
LINE
  5
253
330
79
100
AcDbEntity
  8
图框
 62
     4
370
    35
100
AcDbLine
 10
-48.5760412071977
 20
8.009874532229332
 30
0.0
 11
-40.72910548623712
 21
8.009874532229332
 31
0.0
1001
AcDbBlockRepETag
1070
     1
1071
      112
1005
253
  0
LINE
  5
254
330
79
100
AcDbEntity
  8
图框
 62
     4
370
    35
100
AcDbLine
 10
-48.5760412071977
 20
10.70449809598994
 30
0.0
 11
-40.72910548623712
 21
10.70449809598994
 31
0.0
1001
AcDbBlockRepETag
1070
     1
1071
      113
1005
254
  0
MTEXT
  5
255
330
79
100
AcDbEntity
  8
图框
 62
     1
370
    20
100
AcDbMText
 10
-48.59953330374628
 20
10.4114336155867
 30
0.0
 40
2.047913908460159
 41
5.152878120377273
 46
0.0
 71
     1
 72
     5
  1
{\fArial|b0|i0|c0|p34;W}
  7
chinese
 73
     1
 44
1.0
1001
AcDbBlockRepETag
1070
     1
1071
      114
1005
255
  0
MTEXT
  5
256
330
79
100
AcDbEntity
  8
图框
 62
     1
370
    20
100
AcDbMText
 10
-45.86626511152917
 20
10.45620291322257
 30
0.0
 40
2.047913908460159
 41
5.152878120377273
 46
0.0
 71
     1
 72
     5
  1
{\fArial|b0|i0|c0|p34;A}
  7
chinese
 73
     1
 44
1.0
1001
AcDbBlockRepETag
1070
     1
1071
      115
1005
256
  0
MTEXT
  5
257
330
79
100
AcDbEntity
  8
图框
 62
     1
370
    20
100
AcDbMText
 10
-43.31223645579939
 20
10.45620291322257
 30
0.0
 40
2.047913908460159
 41
5.152878120377273
 46
0.0
 71
     1
 72
     5
  1
{\fArial|b0|i0|c0|p34;I}
  7
chinese
 73
     1
 44
1.0
1001
AcDbBlockRepETag
1070
     1
1071
      116
1005
257
  0
MTEXT
  5
258
330
79
100
AcDbEntity
  8
图框
 62
     1
370
    20
100
AcDbMText
 10
-42.36390563228724
 20
10.4437540343979
 30
0.0
 40
2.047913908460159
 41
5.152878120377273
 46
0.0
 71
     1
 72
     5
  1
{\fArial|b0|i0|c0|p34;N}
  7
chinese
 73
     1
 44
1.0
1001
AcDbBlockRepETag
1070
     1
1071
      117
1005
258
  0
LINE
  5
259
330
79
100
AcDbEntity
  8
图框
370
    -3
100
AcDbLine
 10
-187.2588872465149
 20
9.673095932156684
 30
0.0
 11
-95.65547965621409
 21
9.673095932156684
 31
0.0
1001
AcDbBlockRepETag
1070
     1
1071
      118
1005
259
  0
LINE
  5
25A
330
79
100
AcDbEntity
  8
图框
370
    -3
100
AcDbLine
 10
-174.0071037836896
 20
28.94618470907971
 30
0.0
 11
-174.0071037836896
 21
3.248733006515067
 31
0.0
1001
AcDbBlockRepETag
1070
     1
1071
      119
1005
25A
  0
MTEXT
  5
25B
330
79
100
AcDbEntity
  8
图框
100
AcDbMText
 10
-165.8762400878122
 20
25.6926535578823
 30
0.0
 40
2.299999999999999
 41
17.28936801007842
 46
0.0
 71
     5
 72
     5
  1
{\fFangSong_GB2312|b0|i0|c134|p49;姓名/Name }
 73
     1
 44
1.0
1001
AcDbBlockRepETag
1070
     1
1071
      120
1005
25B
  0
MTEXT
  5
25C
330
79
100
AcDbEntity
  8
图框
100
AcDbMText
 10
-150.2906886936334
 20
25.79467373610623
 30
0.0
 40
2.299999999999999
 41
17.28936801007842
 46
0.0
 71
     5
 72
     5
  1
{\fFangSong_GB2312|b0|i0|c134|p49;日期/Date}
 73
     1
 44
1.0
1001
AcDbBlockRepETag
1070
     1
1071
      121
1005
25C
  0
LINE
  5
25D
330
79
100
AcDbEntity
  8
图框
370
    -3
100
AcDbLine
 10
-187.2588872465149
 20
28.94618470907971
 30
0.0
 11
-174.0071037836896
 21
22.52182178343856
 31
0.0
1001
AcDbBlockRepETag
1070
     1
1071
      122
1005
25D
  0
MTEXT
  5
25E
330
79
100
AcDbEntity
  8
图框
100
AcDbMText
 10
-119.8745522695071
 20
25.6926535578823
 30
0.0
 40
2.299999999999999
 41
17.28936801007842
 46
0.0
 71
     5
 72
     5
  1
{\fFangSong_GB2312|b0|i0|c134|p49;姓名/Name }
 73
     1
 44
1.0
1001
AcDbBlockRepETag
1070
     1
1071
      123
1005
25E
  0
MTEXT
  5
25F
330
79
100
AcDbEntity
  8
图框
100
AcDbMText
 10
-103.382336612136
 20
25.79467373610623
 30
0.0
 40
2.299999999999999
 41
17.28936801007842
 46
0.0
 71
     5
 72
     5
  1
{\fFangSong_GB2312|b0|i0|c134|p49;日期/Date}
 73
     1
 44
1.0
1001
AcDbBlockRepETag
1070
     1
1071
      124
1005
25F
  0
LINE
  5
260
330
79
100
AcDbEntity
  8
图框
370
    -3
100
AcDbLine
 10
-129.3472832566813
 20
22.52182178343856
 30
0.0
 11
-142.5990667195065
 21
28.94618470907971
 31
0.0
1001
AcDbBlockRepETag
1070
     1
1071
      125
1005
260
  0
MTEXT
  5
261
102
{ACAD_XDICTIONARY
360
6FB
102
}
330
79
100
AcDbEntity
  8
图框
100
AcDbMText
 10
-135.9372784425231
 20
6.516067819300587
 30
0.0
 40
2.299999999999999
 41
17.28936801007842
 46
0.0
 71
     5
 72
     5
  1
{\fSimSun|b0|i0|c134|p2;批准\fFangSong_GB2312|b0|i0|c134|p49;\PApproved}
 73
     1
 44
1.0
1001
AcDbBlockRepETag
1070
     1
1071
      126
1005
261
  0
MTEXT
  5
262
102
{ACAD_XDICTIONARY
360
6FD
102
}
330
79
100
AcDbEntity
  8
图框
100
AcDbMText
 10
-180.552682381483
 20
6.399426044586107
 30
0.0
 40
2.299999999999999
 41
17.28936801007842
 46
0.0
 71
     5
 72
     5
  1
{\fSimSun|b0|i0|c134|p2;工艺\fFangSong_GB2312|b0|i0|c134|p49;\PProcess}
 73
     1
 44
1.0
1001
AcDbBlockRepETag
1070
     1
1071
      127
1005
262
  0
MTEXT
  5
263
102
{ACAD_XDICTIONARY
360
6FF
102
}
330
79
100
AcDbEntity
  8
图框
100
AcDbMText
 10
-103.3275614896101
 20
31.81337244555471
 30
0.0
 40
2.0
 41
17.28936801007842
 46
0.0
 71
     5
 72
     5
  1
{\fSimSun|b0|i0|c134|p2;日期\fFangSong_GB2312|b0|i0|c134|p49;\PDate}
 73
     1
 44
1.0
1001
AcDbBlockRepETag
1070
     1
1071
      128
1005
263
  0
MTEXT
  5
264
330
79
100
AcDbEntity
  8
图框
100
AcDbMText
 10
-44.49064553457356
 20
29.01435070053776
 30
0.0
 40
2.2
 41
17.28936801007842
 46
0.0
 71
     5
 72
     5
  1
{\fFangSong_GB2312|b0|i0|c134|p49;产品料号\PPart No.}
 73
     1
 44
1.0
1001
AcDbBlockRepETag
1070
     1
1071
      129
1005
264
  0
MTEXT
  5
265
330
79
100
AcDbEntity
  8
图框
100
AcDbMText
 10
-44.49064553457356
 20
19.95650204888534
 30
0.0
 40
2.0
 41
17.28936801007842
 46
0.0
 71
     5
 72
     5
  1
{\fSimSun|b0|i0|c134|p2;产品名称\fFangSong_GB2312|b0|i0|c134|p49;\P\W0.75;Part Name}
 73
     1
 44
1.0
1001
AcDbBlockRepETag
1070
     1
1071
      130
1005
265
  0
MTEXT
  5
266
330
79
100
AcDbEntity
  8
图框
 62
     6
390
103
100
AcDbMText
 10
-28.75996983298682
 20
204.5099265968805
 30
0.0
 40
2.799999999999999
 41
52.97790861188243
 46
0.0
 71
     5
 72
     5
  1
{\C4;编号No.:WN.GC018-T05    版本Rev.:A00}
  7
3.5
 73
     1
 44
1.0
1001
AcDbBlockRepETag
1070
     1
1071
      132
1005
266
  0
ENDBLK
  5
105
330
79
100
AcDbEntity
  8
0
100
AcDbBlockEnd
  0
BLOCK
  5
595
330
594
100
AcDbEntity
  8
0
100
AcDbBlockBegin
  2
*D21
 70
     1
 10
0.0
 20
0.0
 30
0.0
  3
*D21
  1

  0
LINE
  5
5D5
330
594
100
AcDbEntity
  8
cavity
 62
     6
370
    -2
100
AcDbLine
 10
5484.81224146019
 20
582.1294051531877
 30
0.0
 11
5495.646406510864
 21
582.1294051531877
 31
0.0
  0
LINE
  5
5D6
330
594
100
AcDbEntity
  8
cavity
 62
     6
370
    -2
100
AcDbLine
 10
5484.81224146019
 20
589.1294051531876
 30
0.0
 11
5495.646406510864
 21
589.1294051531876
 31
0.0
  0
LINE
  5
5D7
330
594
100
AcDbEntity
  8
cavity
 62
     1
370
    -2
100
AcDbLine
 10
5494.646406510865
 20
583.1294051531877
 30
0.0
 11
5494.646406510865
 21
584.0908337246162
 31
0.0
  0
LINE
  5
5D8
330
594
100
AcDbEntity
  8
cavity
 62
     1
370
    -2
100
AcDbLine
 10
5494.646406510865
 20
588.1294051531877
 30
0.0
 11
5494.646406510865
 21
587.1679765817591
 31
0.0
  0
SOLID
  5
5D9
330
594
100
AcDbEntity
  8
cavity
 62
     1
100
AcDbTrace
 10
5494.479739844198
 20
583.1294051531877
 30
0.0
 11
5494.813073177532
 21
583.1294051531877
 31
0.0
 12
5494.646406510865
 22
582.1294051531877
 32
0.0
 13
5494.646406510865
 23
582.1294051531877
 33
0.0
  0
SOLID
  5
5DA
330
594
100
AcDbEntity
  8
cavity
 62
     1
100
AcDbTrace
 10
5494.479739844198
 20
588.1294051531877
 30
0.0
 11
5494.813073177532
 21
588.1294051531877
 31
0.0
 12
5494.646406510865
 22
589.1294051531876
 32
0.0
 13
5494.646406510865
 23
589.1294051531876
 33
0.0
  0
MTEXT
  5
5DB
330
594
100
AcDbEntity
  8
cavity
 62
     4
370
     0
100
AcDbMText
 10
5494.646406510865
 20
585.6294051531886
 30
0.0
 40
1.8
 41
0.0
 46
0.0
 71
     5
 72
     1
  1
\A1;%%C7
 11
0.0000000000000001
 21
1.0
 31
0.0
 73
     1
 44
1.0
  0
POINT
  5
5DC
330
594
100
AcDbEntity
  8
Defpoints
 62
     0
100
AcDbPoint
 10
5484.662241460191
 20
582.1294051531877
 30
0.0
  0
POINT
  5
5DD
330
594
100
AcDbEntity
  8
Defpoints
 62
     0
100
AcDbPoint
 10
5484.662241460191
 20
589.1294051531876
 30
0.0
  0
POINT
  5
5DE
330
594
100
AcDbEntity
  8
Defpoints
 62
     0
100
AcDbPoint
 10
5494.646406510865
 20
589.1294051531876
 30
0.0
  0
ENDBLK
  5
596
330
594
100
AcDbEntity
  8
0
100
AcDbBlockEnd
  0
BLOCK
  5
5A2
330
5A1
100
AcDbEntity
  8
0
100
AcDbBlockBegin
  2
*D22
 70
     1
 10
0.0
 20
0.0
 30
0.0
  3
*D22
  1

  0
LINE
  5
5DF
330
5A1
100
AcDbEntity
  8
cavity
 62
     6
370
    -2
100
AcDbLine
 10
5483.542522777107
 20
580.6294051531867
 30
0.0
 11
5501.180339612147
 21
580.6294051531867
 31
0.0
  0
LINE
  5
5E0
330
5A1
100
AcDbEntity
  8
cavity
 62
     6
370
    -2
100
AcDbLine
 10
5483.542389181543
 20
590.6294051531867
 30
0.0
 11
5501.180339612147
 21
590.6294051531867
 31
0.0
  0
LINE
  5
5E1
330
5A1
100
AcDbEntity
  8
cavity
 62
     1
370
    -2
100
AcDbLine
 10
5500.180339612146
 20
581.6294051531867
 30
0.0
 11
5500.180339612146
 21
583.3622622960439
 31
0.0
  0
LINE
  5
5E2
330
5A1
100
AcDbEntity
  8
cavity
 62
     1
370
    -2
100
AcDbLine
 10
5500.180339612146
 20
589.6294051531867
 30
0.0
 11
5500.180339612146
 21
587.8965480103296
 31
0.0
  0
SOLID
  5
5E3
330
5A1
100
AcDbEntity
  8
cavity
 62
     1
100
AcDbTrace
 10
5500.01367294548
 20
581.6294051531867
 30
0.0
 11
5500.347006278814
 21
581.6294051531867
 31
0.0
 12
5500.180339612146
 22
580.6294051531867
 32
0.0
 13
5500.180339612146
 23
580.6294051531867
 33
0.0
  0
SOLID
  5
5E4
330
5A1
100
AcDbEntity
  8
cavity
 62
     1
100
AcDbTrace
 10
5500.01367294548
 20
589.6294051531867
 30
0.0
 11
5500.347006278814
 21
589.6294051531867
 31
0.0
 12
5500.180339612146
 22
590.6294051531867
 32
0.0
 13
5500.180339612146
 23
590.6294051531867
 33
0.0
  0
MTEXT
  5
5E5
330
5A1
100
AcDbEntity
  8
cavity
 62
     4
370
     0
100
AcDbMText
 10
5500.180339612146
 20
585.6294051531876
 30
0.0
 40
1.8
 41
0.0
 46
0.0
 71
     5
 72
     1
  1
\A1;%%C10
 11
0.0000000000000001
 21
1.0
 31
0.0
 73
     1
 44
1.0
  0
POINT
  5
5E6
330
5A1
100
AcDbEntity
  8
Defpoints
 62
     0
100
AcDbPoint
 10
5483.392522777108
 20
580.6294051531867
 30
0.0
  0
POINT
  5
5E7
330
5A1
100
AcDbEntity
  8
Defpoints
 62
     0
100
AcDbPoint
 10
5483.392389181544
 20
590.6294051531867
 30
0.0
  0
POINT
  5
5E8
330
5A1
100
AcDbEntity
  8
Defpoints
 62
     0
100
AcDbPoint
 10
5500.180339612146
 20
590.6294051531867
 30
0.0
  0
ENDBLK
  5
5A3
330
5A1
100
AcDbEntity
  8
0
100
AcDbBlockEnd
  0
BLOCK
  5
5AF
330
5AE
100
AcDbEntity
  8
0
100
AcDbBlockBegin
  2
*D23
 70
     1
 10
0.0
 20
0.0
 30
0.0
  3
*D23
  1

  0
LINE
  5
5E9
330
5AE
100
AcDbEntity
  8
cavity
 62
     6
370
    -2
100
AcDbLine
 10
5486.54429226779
 20
575.1295886785874
 30
0.0
 11
5505.783677900099
 21
575.1295886785874
 31
0.0
  0
LINE
  5
5EA
330
5AE
100
AcDbEntity
  8
cavity
 62
     6
370
    -2
100
AcDbLine
 10
5486.54429226779
 20
596.1292216277879
 30
0.0
 11
5505.783677900099
 21
596.1292216277879
 31
0.0
  0
LINE
  5
5EB
330
5AE
100
AcDbEntity
  8
cavity
 62
     1
370
    -2
100
AcDbLine
 10
5504.783677900099
 20
576.1295886785874
 30
0.0
 11
5504.783677900099
 21
583.5808337246162
 31
0.0
  0
LINE
  5
5EC
330
5AE
100
AcDbEntity
  8
cavity
 62
     1
370
    -2
100
AcDbLine
 10
5504.783677900099
 20
595.1292216277879
 30
0.0
 11
5504.783677900099
 21
587.6779765817591
 31
0.0
  0
SOLID
  5
5ED
330
5AE
100
AcDbEntity
  8
cavity
 62
     1
100
AcDbTrace
 10
5504.617011233432
 20
576.1295886785874
 30
0.0
 11
5504.950344566766
 21
576.1295886785874
 31
0.0
 12
5504.783677900099
 22
575.1295886785874
 32
0.0
 13
5504.783677900099
 23
575.1295886785874
 33
0.0
  0
SOLID
  5
5EE
330
5AE
100
AcDbEntity
  8
cavity
 62
     1
100
AcDbTrace
 10
5504.617011233432
 20
595.1292216277879
 30
0.0
 11
5504.950344566766
 21
595.1292216277879
 31
0.0
 12
5504.783677900099
 22
596.1292216277879
 32
0.0
 13
5504.783677900099
 23
596.1292216277879
 33
0.0
  0
MTEXT
  5
5EF
330
5AE
100
AcDbEntity
  8
cavity
 62
     4
370
     0
100
AcDbMText
 10
5504.783677900099
 20
585.6294051531886
 30
0.0
 40
1.8
 41
0.0
 46
0.0
 71
     5
 72
     1
  1
\A1;%%C21
 11
0.0000000000000001
 21
1.0
 31
0.0
 73
     1
 44
1.0
  0
POINT
  5
5F0
330
5AE
100
AcDbEntity
  8
Defpoints
 62
     0
100
AcDbPoint
 10
5486.394292267791
 20
575.1295886785874
 30
0.0
  0
POINT
  5
5F1
330
5AE
100
AcDbEntity
  8
Defpoints
 62
     0
100
AcDbPoint
 10
5486.394292267791
 20
596.1292216277879
 30
0.0
  0
POINT
  5
5F2
330
5AE
100
AcDbEntity
  8
Defpoints
 62
     0
100
AcDbPoint
 10
5504.783677900099
 20
596.1292216277879
 30
0.0
  0
ENDBLK
  5
5B0
330
5AE
100
AcDbEntity
  8
0
100
AcDbBlockEnd
  0
BLOCK
  5
5BC
330
5BB
100
AcDbEntity
  8
0
100
AcDbBlockBegin
  2
*D24
 70
     1
 10
0.0
 20
0.0
 30
0.0
  3
*D24
  1

  0
LINE
  5
5F3
330
5BB
100
AcDbEntity
  8
cavity
 62
     6
370
    -2
100
AcDbLine
 10
5486.394292267791
 20
574.9794051531868
 30
0.0
 11
5486.394292267791
 21
564.1962757894439
 31
0.0
  0
LINE
  5
5F4
330
5BB
100
AcDbEntity
  8
cavity
 62
     6
370
    -2
100
AcDbLine
 10
5431.894292267791
 20
580.2294051531868
 30
0.0
 11
5431.894292267791
 21
564.1962757894439
 31
0.0
  0
LINE
  5
5F5
330
5BB
100
AcDbEntity
  8
cavity
 62
     1
370
    -2
100
AcDbLine
 10
5485.394292267791
 20
565.1962757894438
 30
0.0
 11
5461.812149410648
 21
565.1962757894438
 31
0.0
  0
LINE
  5
5F6
330
5BB
100
AcDbEntity
  8
cavity
 62
     1
370
    -2
100
AcDbLine
 10
5432.894292267791
 20
565.1962757894438
 30
0.0
 11
5456.476435124933
 21
565.1962757894438
 31
0.0
  0
SOLID
  5
5F7
330
5BB
100
AcDbEntity
  8
cavity
 62
     1
100
AcDbTrace
 10
5485.394292267791
 20
565.3629424561105
 30
0.0
 11
5485.394292267791
 21
565.0296091227772
 31
0.0
 12
5486.394292267791
 22
565.1962757894438
 32
0.0
 13
5486.394292267791
 23
565.1962757894438
 33
0.0
  0
SOLID
  5
5F8
330
5BB
100
AcDbEntity
  8
cavity
 62
     1
100
AcDbTrace
 10
5432.894292267791
 20
565.3629424561105
 30
0.0
 11
5432.894292267791
 21
565.0296091227772
 31
0.0
 12
5431.894292267791
 22
565.1962757894438
 32
0.0
 13
5431.894292267791
 23
565.1962757894438
 33
0.0
  0
MTEXT
  5
5F9
330
5BB
100
AcDbEntity
  8
cavity
 62
     4
370
     0
100
AcDbMText
 10
5459.14429226779
 20
565.1962757894438
 30
0.0
 40
1.8
 41
0.0
 46
0.0
 71
     5
 72
     1
  1
\A1;54.5
 73
     1
 44
1.0
  0
POINT
  5
5FA
330
5BB
100
AcDbEntity
  8
Defpoints
 62
     0
100
AcDbPoint
 10
5486.394292267791
 20
575.1294051531868
 30
0.0
  0
POINT
  5
5FB
330
5BB
100
AcDbEntity
  8
Defpoints
 62
     0
100
AcDbPoint
 10
5431.894292267791
 20
580.3794051531867
 30
0.0
  0
POINT
  5
5FC
330
5BB
100
AcDbEntity
  8
Defpoints
 62
     0
100
AcDbPoint
 10
5431.894292267791
 20
565.1962757894438
 30
0.0
  0
ENDBLK
  5
5BD
330
5BB
100
AcDbEntity
  8
0
100
AcDbBlockEnd
  0
BLOCK
  5
5C9
330
5C8
100
AcDbEntity
  8
0
100
AcDbBlockBegin
  2
*D25
 70
     1
 10
0.0
 20
0.0
 30
0.0
  3
*D25
  1

  0
LINE
  5
5FD
330
5C8
100
AcDbEntity
  8
cavity
 62
     6
370
    -2
100
AcDbLine
 10
5433.744292267791
 20
578.3794051531867
 30
0.0
 11
5423.017096933076
 21
578.3794051531867
 31
0.0
  0
LINE
  5
5FE
330
5C8
100
AcDbEntity
  8
cavity
 62
     6
370
    -2
100
AcDbLine
 10
5433.744292267791
 20
592.8794051531867
 30
0.0
 11
5423.017096933076
 21
592.8794051531867
 31
0.0
  0
LINE
  5
5FF
330
5C8
100
AcDbEntity
  8
cavity
 62
     1
370
    -2
100
AcDbLine
 10
5424.017096933075
 20
579.3794051531867
 30
0.0
 11
5424.017096933075
 21
582.2329765817581
 31
0.0
  0
LINE
  5
600
330
5C8
100
AcDbEntity
  8
cavity
 62
     1
370
    -2
100
AcDbLine
 10
5424.017096933075
 20
591.8794051531867
 30
0.0
 11
5424.017096933075
 21
589.0258337246153
 31
0.0
  0
SOLID
  5
601
330
5C8
100
AcDbEntity
  8
cavity
 62
     1
100
AcDbTrace
 10
5423.850430266409
 20
579.3794051531867
 30
0.0
 11
5424.183763599742
 21
579.3794051531867
 31
0.0
 12
5424.017096933075
 22
578.3794051531867
 32
0.0
 13
5424.017096933075
 23
578.3794051531867
 33
0.0
  0
SOLID
  5
602
330
5C8
100
AcDbEntity
  8
cavity
 62
     1
100
AcDbTrace
 10
5423.850430266409
 20
591.8794051531867
 30
0.0
 11
5424.183763599742
 21
591.8794051531867
 31
0.0
 12
5424.017096933075
 22
592.8794051531867
 32
0.0
 13
5424.017096933075
 23
592.8794051531867
 33
0.0
  0
MTEXT
  5
603
330
5C8
100
AcDbEntity
  8
cavity
 62
     4
370
     0
100
AcDbMText
 10
5424.017096933075
 20
585.6294051531876
 30
0.0
 40
1.8
 41
0.0
 46
0.0
 71
     5
 72
     1
  1
\A1;%%C14.5
 11
0.0000000000000001
 21
1.0
 31
0.0
 73
     1
 44
1.0
  0
POINT
  5
604
330
5C8
100
AcDbEntity
  8
Defpoints
 62
     0
100
AcDbPoint
 10
5433.89429226779
 20
578.3794051531867
 30
0.0
  0
POINT
  5
605
330
5C8
100
AcDbEntity
  8
Defpoints
 62
     0
100
AcDbPoint
 10
5433.89429226779
 20
592.8794051531867
 30
0.0
  0
POINT
  5
606
330
5C8
100
AcDbEntity
  8
Defpoints
 62
     0
100
AcDbPoint
 10
5424.017096933075
 20
592.8794051531867
 30
0.0
  0
ENDBLK
  5
5CA
330
5C8
100
AcDbEntity
  8
0
100
AcDbBlockEnd
  0
BLOCK
  5
6E0
330
6DC
100
AcDbEntity
  8
0
100
AcDbBlockBegin
  2
A$C07C72648
 70
     0
 10
0.0
 20
0.0
 30
0.0
  3
A$C07C72648
  1

  0
MTEXT
  5
6DD
330
6DC
100
AcDbEntity
  8
图框
 62
     3
100
AcDbMText
 10
1.584759838453464
 20
1.066667428271898
 30
0.0
 40
1.6
 41
6.957288868934331
 46
0.0
 71
     5
 72
     5
  1
{\fFangSong_GB2312|b0|i0|c134|p49;\W0.8;58g}
 73
     1
 44
1.0
  0
ENDBLK
  5
6E1
330
6DC
100
AcDbEntity
  8
0
100
AcDbBlockEnd
  0
ENDSEC
  0
SECTION
  2
ENTITIES
  0
MTEXT
  5
73
330
2
100
AcDbEntity
  8
图框
 62
     3
100
AcDbMText
 10
5550.620820145914
 20
536.637632888618
 30
0.0
 40
1.6
 41
6.957288868934331
 46
0.0
 71
     5
 72
     5
  1
{\fFangSong_GB2312|b0|i0|c134|p49;\W0.8;CHSM350-25}
 73
     1
 44
1.0
  0
INSERT
  5
77
330
2
100
AcDbEntity
  8
Hat
100
AcDbBlockReference
  2
A4
 10
5561.95205374084
 20
515.2652376533518
 30
0.0
 41
0.5669291338627227
 42
0.5669291338574841
 43
0.5669291338582677
  0
MTEXT
  5
107
330
2
100
AcDbEntity
  8
图框
100
AcDbMText
 10
5526.413008794883
 20
519.362710094084
 30
0.0
 40
1.303937007878237
 41
17.02421766992959
 46
5.713061830201667
 71
     5
 72
     5
  1
{\C1;All Dimensions in mm\POriginal Size DIN A 4}
  7
特别的
 73
     1
 44
1.0
1001
AcDbBlockRepETag
1070
     1
1071
       71
1005
0
1001
ACAD
1000
ACAD_MTEXT_DEFINED_HEIGHT_BEGIN
1070
    46
1040
5.713061830201667
1000
ACAD_MTEXT_DEFINED_HEIGHT_END
  0
MTEXT
  5
109
330
2
100
AcDbEntity
  8
图框
 62
     3
100
AcDbMText
 10
5550.620820145914
 20
531.6097889828726
 30
0.0
 40
1.6
 41
6.957288868934331
 46
0.0
 71
     5
 72
     5
  1
{\fFangSong_GB2312|b0|i0|c134|p49;\W0.8;1010291101600}
 73
     1
 44
1.0
  0
HATCH
  5
55F
330
2
100
AcDbEntity
  8
cavity
 62
     3
370
     0
100
AcDbHatch
 10
0.0
 20
0.0
 30
0.0
210
0.0
220
0.0
230
1.0
  2
ANSI31
 70
     0
 71
     1
 91
        2
 92
        5
 93
        7
 72
     1
 10
5483.392389181544
 20
590.6294051531867
 11
5470.790028924001
 21
590.6294051531867
 72
     4
 94
        3
 73
     0
 74
     0
 95
        8
 96
        4
 40
1.447809188695439
 40
1.447809188695439
 40
1.447809188695439
 40
1.447809188695439
 40
2.947777867299688
 40
2.947777867299688
 40
2.947777867299688
 40
2.947777867299688
 10
5470.790028924001
 20
590.6294051531869
 10
5470.698963455665
 20
590.12574646677
 10
5470.642041673778
 20
589.6248073014628
 10
5470.654637342119
 20
589.1294051531876
 72
     1
 10
5470.654637342119
 20
589.1294051531876
 11
5484.662241460191
 21
589.1294051531876
 72
     1
 10
5484.662241460191
 20
589.1294051531876
 11
5486.394292267791
 21
590.1294051531876
 72
     1
 10
5486.394292267791
 20
590.1294051531876
 11
5486.394292267791
 21
596.1294051531868
 72
     1
 10
5486.394292267791
 20
596.1294051531868
 11
5485.394225470008
 21
596.1294051531868
 72
     1
 10
5485.394225470008
 20
596.1294051531868
 11
5483.392389181544
 21
590.6294051531867
 97
        7
330
576
330
587
330
570
330
58E
330
58C
330
58A
330
560
 92
        5
 93
        7
 72
     1
 10
5486.394292267791
 20
581.1294051531876
 11
5484.662241460191
 21
582.1294051531877
 72
     1
 10
5484.662241460191
 20
582.1294051531877
 11
5470.686858037065
 21
582.1294051531877
 72
     4
 94
        3
 73
     0
 74
     0
 95
        9
 96
        5
 40
10.43252122310605
 40
10.43252122310605
 40
10.43252122310605
 40
10.43252122310605
 40
11.30645406702513
 40
12.01680368870222
 40
12.01680368870222
 40
12.01680368870222
 40
12.01680368870222
 10
5470.686858037063
 20
582.1294051531847
 10
5470.545015340356
 20
581.8594004683411
 10
5470.320001485132
 20
581.3652331500398
 10
5470.222989357502
 20
580.8586306577101
 10
5470.200887643208
 20
580.6294051531867
 72
     1
 10
5470.200887643209
 20
580.6294051531867
 11
5483.392522777108
 21
580.6294051531867
 72
     1
 10
5483.392522777108
 20
580.6294051531867
 11
5485.394359065574
 21
575.1294051531868
 72
     1
 10
5485.394359065574
 20
575.1294051531868
 11
5486.394292267791
 21
575.1294051531868
 72
     1
 10
5486.394292267791
 20
575.1294051531868
 11
5486.394292267791
 21
581.1294051531876
 97
        7
330
58D
330
58B
330
58E
330
567
330
588
330
562
330
560
 75
     0
 76
     1
 52
0.0
 41
1.0
 77
     0
 78
     1
 53
45.0
 43
-36.08310256047298
 44
6.448218885179812
 45
-2.245064030267287
 46
2.245064030267288
 79
     0
 47
0.1069906104614905
 98
        2
 10
5484.731987972955
 20
590.7193548438467
 10
5485.481591345703
 20
579.3783481368486
1001
ACAD
1010
0.0
1020
0.0
1030
0.0
  0
LINE
  5
560
102
{ACAD_REACTORS
330
55F
102
}
330
2
100
AcDbEntity
  8
02___PRT_ALL_AXES
  6
Continuous
 62
     7
100
AcDbLine
 10
5486.394292267791
 20
575.1295886785874
 30
0.0
 11
5486.394292267791
 21
596.1292216277879
 31
0.0
  0
LINE
  5
561
330
2
100
AcDbEntity
  8
02___PRT_ALL_AXES
  6
Continuous
 62
     7
100
AcDbLine
 10
5459.89429226779
 20
574.6294051531868
 30
0.0
 11
5463.894292267791
 21
574.6294051531868
 31
0.0
  0
LINE
  5
562
102
{ACAD_REACTORS
330
55F
102
}
330
2
100
AcDbEntity
  8
02___PRT_ALL_AXES
  6
Continuous
 62
     7
100
AcDbLine
 10
5485.394292267791
 20
575.1294051531868
 30
0.0
 11
5486.394292267791
 21
575.1294051531868
 31
0.0
  0
LINE
  5
563
330
2
100
AcDbEntity
  8
02___PRT_ALL_AXES
  6
Continuous
 62
     7
100
AcDbLine
 10
5458.894292267791
 20
575.6294051531868
 30
0.0
 11
5459.89429226779
 21
574.6294051531868
 31
0.0
  0
LINE
  5
564
330
2
100
AcDbEntity
  8
02___PRT_ALL_AXES
  6
Continuous
 62
     7
100
AcDbLine
 10
5433.89429226779
 20
578.3794051531867
 30
0.0
 11
5458.39429226779
 21
578.3794051531867
 31
0.0
  0
ARC
  5
565
330
2
100
AcDbEntity
  8
02___PRT_ALL_AXES
  6
Continuous
 62
     7
100
AcDbCircle
 10
5433.89429226779
 20
580.3794051531867
 30
0.0
 40
2.0
100
AcDbArc
 50
180.0
 51
270.0
  0
LINE
  5
566
330
2
100
AcDbEntity
  8
0
  6
Continuous
 62
     7
100
AcDbLine
 10
5459.89429226779
 20
580.084136899989
 30
0.0
 11
5463.894292267791
 21
580.084136899989
 31
0.0
  0
LINE
  5
567
102
{ACAD_REACTORS
330
55F
102
}
330
2
100
AcDbEntity
  8
02___PRT_ALL_AXES
  6
Continuous
 62
     7
100
AcDbLine
 10
5464.894292267791
 20
580.6294051531867
 30
0.0
 11
5483.392522777108
 21
580.6294051531867
 31
0.0
  0
LINE
  5
568
330
2
100
AcDbEntity
  8
02___PRT_ALL_AXES
  6
Continuous
 62
     7
100
AcDbLine
 10
5464.894292267791
 20
580.6294051531867
 30
0.0
 11
5464.894292267791
 21
590.6294051531867
 31
0.0
  0
LINE
  5
569
330
2
100
AcDbEntity
  8
0
  6
Continuous
 62
     7
100
AcDbLine
 10
5463.894292267791
 20
574.6295763459884
 30
0.0
 11
5463.894292267791
 21
596.6292339604869
 31
0.0
  0
LINE
  5
56A
330
2
100
AcDbEntity
  8
0
  6
Continuous
 62
     7
100
AcDbLine
 10
5453.89429226779
 20
584.1294051531868
 30
0.0
 11
5431.894292267791
 21
584.1294051531868
 31
0.0
  0
LINE
  5
56B
330
2
100
AcDbEntity
  8
0
  6
Continuous
 62
     7
100
AcDbLine
 10
5459.89429226779
 20
580.084136899989
 30
0.0
 11
5459.89429226779
 21
574.6294051531868
 31
0.0
  0
LINE
  5
56C
330
2
100
AcDbEntity
  8
0
  6
Continuous
 62
     7
100
AcDbLine
 10
5459.89429226779
 20
591.1746734063881
 30
0.0
 11
5459.89429226779
 21
596.6294051531868
 31
0.0
  0
LINE
  5
56D
330
2
100
AcDbEntity
  8
0
  6
Continuous
 62
     7
100
AcDbLine
 10
5431.894292267791
 20
587.1294051531868
 30
0.0
 11
5453.89429226779
 21
587.1294051531868
 31
0.0
  0
LINE
  5
56E
330
2
100
AcDbEntity
  8
0
  6
Continuous
 62
     7
100
AcDbLine
 10
5458.894292267791
 20
575.6295872920881
 30
0.0
 11
5458.894292267791
 21
595.6292230143872
 31
0.0
  0
LINE
  5
56F
330
2
100
AcDbEntity
  8
02___PRT_ALL_AXES
  6
Continuous
 62
     7
100
AcDbLine
 10
5458.39429226779
 20
578.3794051531867
 30
0.0
 11
5458.39429226779
 21
592.8794051531867
 31
0.0
  0
LINE
  5
570
102
{ACAD_REACTORS
330
55F
102
}
330
2
100
AcDbEntity
  8
02___PRT_ALL_AXES
  6
Continuous
 62
     7
100
AcDbLine
 10
5464.894292267791
 20
590.6294051531867
 30
0.0
 11
5483.392389181544
 21
590.6294051531867
 31
0.0
  0
LINE
  5
571
330
2
100
AcDbEntity
  8
0
  6
Continuous
 62
     7
100
AcDbLine
 10
5459.89429226779
 20
591.1746734063881
 30
0.0
 11
5463.894292267791
 21
591.1746734063881
 31
0.0
  0
LINE
  5
572
330
2
100
AcDbEntity
  8
02___PRT_ALL_AXES
  6
Continuous
 62
     7
100
AcDbLine
 10
5433.89429226779
 20
592.8794051531867
 30
0.0
 11
5458.39429226779
 21
592.8794051531867
 31
0.0
  0
ARC
  5
573
330
2
100
AcDbEntity
  8
0
  6
Continuous
 62
     7
100
AcDbCircle
 10
5433.89429226779
 20
590.8794051531867
 30
0.0
 40
2.0
100
AcDbArc
 50
90.0
 51
180.0
  0
LINE
  5
574
330
2
100
AcDbEntity
  8
0
  6
Continuous
 62
     7
100
AcDbLine
 10
5453.89429226779
 20
587.1294051531868
 30
0.0
 11
5453.89429226779
 21
584.1294051531868
 31
0.0
  0
LINE
  5
575
330
2
100
AcDbEntity
  8
02___PRT_ALL_AXES
  6
Continuous
 62
     7
100
AcDbLine
 10
5458.894292267791
 20
595.6294051531868
 30
0.0
 11
5459.89429226779
 21
596.6294051531868
 31
0.0
  0
LINE
  5
576
102
{ACAD_REACTORS
330
55F
102
}
330
2
100
AcDbEntity
  8
02___PRT_ALL_AXES
  6
Continuous
 62
     7
100
AcDbLine
 10
5485.394292267791
 20
596.1294051531868
 30
0.0
 11
5486.394292267791
 21
596.1294051531868
 31
0.0
  0
LINE
  5
577
330
2
100
AcDbEntity
  8
02___PRT_ALL_AXES
  6
Continuous
 62
     7
100
AcDbLine
 10
5459.89429226779
 20
596.6294051531868
 30
0.0
 11
5463.894292267791
 21
596.6294051531868
 31
0.0
  0
LINE
  5
578
330
2
100
AcDbEntity
  8
0
  6
Continuous
 62
     7
100
AcDbLine
 10
5433.89429226779
 20
584.1294051531868
 30
0.0
 11
5433.89429226779
 21
578.3794051531867
 31
0.0
  0
LINE
  5
579
330
2
100
AcDbEntity
  8
0
  6
Continuous
 62
     7
100
AcDbLine
 10
5433.89429226779
 20
587.1294051531868
 30
0.0
 11
5433.89429226779
 21
592.8794051531867
 31
0.0
  0
LINE
  5
57A
330
2
100
AcDbEntity
  8
02___PRT_ALL_AXES
  6
Continuous
 62
     7
100
AcDbLine
 10
5431.894292267791
 20
590.8794051531867
 30
0.0
 11
5431.894292267791
 21
587.1294051531868
 31
0.0
  0
LINE
  5
57B
330
2
100
AcDbEntity
  8
0
  6
Continuous
 62
     7
100
AcDbLine
 10
5431.894292267791
 20
584.1294051531868
 30
0.0
 11
5431.894292267791
 21
580.3794051531867
 31
0.0
  0
LINE
  5
57C
330
2
100
AcDbEntity
  8
02___PRT_ALL_AXES
  6
Continuous
 62
     7
100
AcDbLine
 10
5431.894292267791
 20
584.1294051531868
 30
0.0
 11
5431.894292267791
 21
580.3794051531867
 31
0.0
  0
LINE
  5
57D
330
2
100
AcDbEntity
  8
0
  6
Continuous
 62
     7
100
AcDbLine
 10
5431.894292267791
 20
587.1294051531868
 30
0.0
 11
5431.894292267791
 21
590.8794051531867
 31
0.0
  0
ARC
  5
57E
330
2
100
AcDbEntity
  8
02___PRT_ALL_AXES
  6
Continuous
 62
     7
100
AcDbCircle
 10
5464.894292267791
 20
591.6294051531868
 30
0.0
 40
1.0
100
AcDbArc
 50
180.0
 51
270.0
  0
ARC
  5
57F
330
2
100
AcDbEntity
  8
02___PRT_ALL_AXES
  6
Continuous
 62
     7
100
AcDbCircle
 10
5464.894292267791
 20
579.6294051531868
 30
0.0
 40
1.0
100
AcDbArc
 50
90.0
 51
180.0
  0
CIRCLE
  5
580
330
2
100
AcDbEntity
  8
02___PRT_ALL_AXES
  6
Continuous
 62
     7
100
AcDbCircle
 10
5461.39429226779
 20
585.6294051531867
 30
0.0
 40
1.0
  0
ARC
  5
581
330
2
100
AcDbEntity
  8
02___PRT_ALL_AXES
  6
Continuous
 62
     7
100
AcDbCircle
 10
5458.39429226779
 20
593.3794051531868
 30
0.0
 40
0.5
100
AcDbArc
 50
270.0
 51
0.0
  0
ARC
  5
582
330
2
100
AcDbEntity
  8
02___PRT_ALL_AXES
  6
Continuous
 62
     7
100
AcDbCircle
 10
5458.39429226779
 20
577.8794051531868
 30
0.0
 40
0.5
100
AcDbArc
 50
0.0
 51
90.0
  0
SPLINE
  5
583
330
2
100
AcDbEntity
  8
0
  6
Continuous
 62
     7
100
AcDbSpline
210
0.0
220
0.0
230
1.0
 70
     8
 71
     3
 72
     9
 73
     5
 74
     3
 42
0.0000000001
 43
0.0000000001
 44
0.0000000001
 12
-0.4501509905895636
 22
-0.8929524543172691
 32
0.0
 13
-0.2980574924162428
 23
-0.954547919810494
 33
0.0
 40
0.0
 40
0.0
 40
0.0
 40
0.0
 40
1.966881674859299
 40
2.622820565465654
 40
2.622820565465654
 40
2.622820565465654
 40
2.622820565465654
 10
5459.89429226779
 20
591.1746734063881
 30
0.0
 10
5459.599161023021
 20
590.589229466749
 30
0.0
 10
5459.241566746033
 20
589.7884377559143
 30
0.0
 10
5458.959461434762
 20
588.9606125202377
 30
0.0
 10
5458.894292267791
 20
588.7519041523874
 30
0.0
 11
5459.89429226779
 21
591.1746734063881
 31
0.0
 11
5459.10528579839
 21
589.3729818916881
 31
0.0
 11
5458.894292267791
 21
588.7519041523874
 31
0.0
  0
SPLINE
  5
584
330
2
100
AcDbEntity
  8
0
  6
Continuous
 62
     7
100
AcDbSpline
210
0.0
220
0.0
230
1.0
 70
     8
 71
     3
 72
     9
 73
     5
 74
     3
 42
0.0000000001
 43
0.0000000001
 44
0.0000000001
 12
0.2980574924443906
 22
-0.954547919801705
 32
0.0
 13
0.45015099060589
 23
-0.8929524543090389
 33
0.0
 40
0.0
 40
0.0
 40
0.0
 40
0.0
 40
0.6559392834320263
 40
2.622820564521926
 40
2.622820564521926
 40
2.622820564521926
 40
2.622820564521926
 10
5458.894292267791
 20
582.5069061539879
 30
0.0
 10
5458.959461473796
 20
582.2981976611491
 30
0.0
 10
5459.241566844259
 20
581.4703724457228
 30
0.0
 10
5459.599161082095
 20
580.6695807224169
 30
0.0
 10
5459.89429226779
 20
580.084136899989
 30
0.0
 11
5458.894292267791
 21
582.5069061539879
 31
0.0
 11
5459.105285951091
 21
581.8858280516878
 31
0.0
 11
5459.89429226779
 21
580.084136899989
 31
0.0
  0
LINE
  5
585
330
2
100
AcDbEntity
  8
center
  6
CENTER
 62
     1
 48
0.005
100
AcDbLine
 10
5489.019292268291
 20
585.6294051531867
 30
0.0
 11
5429.269292257291
 21
585.6294051531867
 31
0.0
  0
LINE
  5
586
330
2
100
AcDbEntity
  8
center
  6
CENTER
 62
     1
 48
0.001
100
AcDbLine
 10
5461.39429226779
 20
583.4294051531879
 30
0.0
 11
5461.39429226779
 21
587.8294051531875
 31
0.0
  0
LINE
  5
587
102
{ACAD_REACTORS
330
55F
102
}
330
2
100
AcDbEntity
  8
0
  6
Continuous
 62
     7
100
AcDbLine
 10
5485.394292267791
 20
596.1295886785874
 30
0.0
 11
5483.392389181544
 21
590.6294051531867
 31
0.0
  0
LINE
  5
588
102
{ACAD_REACTORS
330
55F
102
}
330
2
100
AcDbEntity
  8
0
  6
Continuous
 62
     7
100
AcDbLine
 10
5483.392522777108
 20
580.6294051531867
 30
0.0
 11
5485.394292267791
 21
575.1295886785874
 31
0.0
  0
LINE
  5
589
330
2
100
AcDbEntity
  8
0
  6
Continuous
 62
     7
100
AcDbLine
 10
5484.662241460191
 20
582.1294051531877
 30
0.0
 11
5484.662241460191
 21
589.1294051531876
 31
0.0
  0
LINE
  5
58A
102
{ACAD_REACTORS
330
55F
102
}
330
2
100
AcDbEntity
  8
0
  6
Continuous
 62
     7
100
AcDbLine
 10
5484.662241460191
 20
589.1294051531876
 30
0.0
 11
5486.394292267791
 21
590.1294051531876
 31
0.0
  0
LINE
  5
58B
102
{ACAD_REACTORS
330
55F
102
}
330
2
100
AcDbEntity
  8
0
  6
Continuous
 62
     7
100
AcDbLine
 10
5470.686858037065
 20
582.1294051531877
 30
0.0
 11
5484.662241460191
 21
582.1294051531877
 31
0.0
  0
LINE
  5
58C
102
{ACAD_REACTORS
330
55F
102
}
330
2
100
AcDbEntity
  8
0
  6
Continuous
 62
     7
100
AcDbLine
 10
5470.654637342119
 20
589.1294051531876
 30
0.0
 11
5484.662241460191
 21
589.1294051531876
 31
0.0
  0
LINE
  5
58D
102
{ACAD_REACTORS
330
55F
102
}
330
2
100
AcDbEntity
  8
0
  6
Continuous
 62
     7
100
AcDbLine
 10
5484.662241460191
 20
582.1294051531877
 30
0.0
 11
5486.394292267791
 21
581.1294051531876
 31
0.0
  0
SPLINE
  5
58E
102
{ACAD_REACTORS
330
55F
102
}
330
2
100
AcDbEntity
  8
center
  6
CENTER
 62
     1
 48
0.001
100
AcDbSpline
210
0.0
220
0.0
230
1.0
 70
     8
 71
     3
 72
    11
 73
     7
 74
     0
 42
0.0000000001
 43
0.0000000001
 40
1.447809188695439
 40
1.447809188695439
 40
1.447809188695439
 40
1.447809188695439
 40
4.188690153137365
 40
7.320395739865444
 40
11.30645406702513
 40
12.01680368870222
 40
12.01680368870222
 40
12.01680368870222
 40
12.01680368870222
 10
5470.790028924001
 20
590.6294051531869
 30
0.0
 10
5470.623625710228
 20
589.7090735983571
 30
0.0
 10
5470.511359169671
 20
587.7566353400893
 30
0.0
 10
5472.864797523726
 20
584.6814273552413
 30
0.0
 10
5470.510569720997
 20
582.3603906175302
 30
0.0
 10
5470.222989357502
 20
580.8586306577101
 30
0.0
 10
5470.200887643208
 20
580.6294051531867
 30
0.0
  0
DIMENSION
  5
58F
330
2
100
AcDbEntity
  8
cavity
370
     0
100
AcDbDimension
  2
*D21
 10
5494.646406510865
 20
589.1294051531876
 30
0.0
 11
5494.646406510865
 21
585.6294051531886
 31
0.0
 70
    32
  1
%%C7
 71
     5
 42
7.0
 73
     0
 74
     0
 75
     0
  3
01-高度0.6
100
AcDbAlignedDimension
 13
5484.662241460191
 23
582.1294051531877
 33
0.0
 14
5484.662241460191
 24
589.1294051531876
 34
0.0
 50
90.0
100
AcDbRotatedDimension
  0
DIMENSION
  5
590
330
2
100
AcDbEntity
  8
cavity
370
     0
100
AcDbDimension
  2
*D22
 10
5500.180339612146
 20
590.6294051531867
 30
0.0
 11
5500.180339612146
 21
585.6294051531876
 31
0.0
 70
    32
  1
%%C10
 71
     5
 42
10.0
 73
     0
 74
     0
 75
     0
  3
01-高度0.6
100
AcDbAlignedDimension
 13
5483.392522777108
 23
580.6294051531867
 33
0.0
 14
5483.392389181544
 24
590.6294051531867
 34
0.0
 50
90.0
100
AcDbRotatedDimension
  0
DIMENSION
  5
591
330
2
100
AcDbEntity
  8
cavity
370
     0
100
AcDbDimension
  2
*D23
 10
5504.783677900099
 20
596.1292216277879
 30
0.0
 11
5504.783677900099
 21
585.6294051531886
 31
0.0
 70
    32
  1
%%C21
 71
     5
 42
20.99963294920053
 73
     0
 74
     0
 75
     0
  3
01-高度0.6
100
AcDbAlignedDimension
 13
5486.394292267791
 23
575.1295886785874
 33
0.0
 14
5486.394292267791
 24
596.1292216277879
 34
0.0
 50
90.0
100
AcDbRotatedDimension
  0
DIMENSION
  5
592
330
2
100
AcDbEntity
  8
cavity
370
     0
100
AcDbDimension
  2
*D24
 10
5431.894292267791
 20
565.1962757894438
 30
0.0
 11
5459.14429226779
 21
565.1962757894438
 31
0.0
 70
    32
 71
     5
 42
54.5
 73
     0
 74
     0
 75
     0
  3
01-高度0.6
100
AcDbAlignedDimension
 13
5486.394292267791
 23
575.1294051531868
 33
0.0
 14
5431.894292267791
 24
580.3794051531867
 34
0.0
100
AcDbRotatedDimension
  0
DIMENSION
  5
593
330
2
100
AcDbEntity
  8
cavity
370
     0
100
AcDbDimension
  2
*D25
 10
5424.017096933075
 20
592.8794051531867
 30
0.0
 11
5424.017096933075
 21
585.6294051531876
 31
0.0
 70
    32
  1
%%C14.5
 71
     5
 42
14.5
 73
     0
 74
     0
 75
     0
  3
01-高度0.6
100
AcDbAlignedDimension
 13
5433.89429226779
 23
578.3794051531867
 33
0.0
 14
5433.89429226779
 24
592.8794051531867
 34
0.0
 50
90.0
100
AcDbRotatedDimension
  0
MTEXT
  5
619
102
{ACAD_XDICTIONARY
360
701
102
}
330
2
100
AcDbEntity
  8
打标文字
 62
     3
100
AcDbMText
 10
5516.443125852118
 20
615.0650144878036
 30
0.0
 40
1.5
 41
86.2548180434813
 46
107.8236110958389
 71
     1
 72
     5
  3
\A1;{\f仿宋_GB2312|b0|i0|c134|p49;技术参数}:\P- {\f仿宋_GB2312|b0|i0|c134|p49;材料}: {\f仿宋_GB2312|b0|i0|c134|p49;铜合金}\P- {\f仿宋_GB2312|b0|i0|c134|p49;表面处理}: {\f仿宋_GB2312|b0|i0|c134|p49;镀银}\P- {\f仿宋_GB2312|b0|i0|c134|p49;额定电流}: 350A\P- {\f仿宋_GB2312|b0|i0|c134|p4
  3
9;接触电阻}: ≤0.3mΩ\P- {\f仿宋_GB2312|b0|i0|c134|p49;线径范围}: 25mm{\H0.7x;\S2^ ;}\P- {\f仿宋_GB2312|b0|i0|c134|p49;剥线长度}: 26mm\P- {\f仿宋_GB2312|b0|i0|c134|p49;最大电缆直径}: 22mm\P- {\f仿宋_GB2312|b0|i0|c134|p49;冷压模具}: {\f仿宋_GB2312|b0|i0|c134|p49;按照} DIN 46 235\P- {\f仿宋
  3
_GB2312|b0|i0|c134|p49;压力要求}: 130kN\P- {\f仿宋_GB2312|b0|i0|c134|p49;可插拔次数}: {\f仿宋_GB2312|b0|i0|c134|p49;≥}500\P\PTechnical specification:\P- Material: copper alloy\P- Surface: hard-silver plated\P- Rated current: 350A\P- Contact resistance: ≤0.3mΩ\P- 
  1
Wire gauge: 25mm{\H0.7x;\S2^ ;}\P- Stripping length: 26mm\P- Max. insulation diameter: 22mm\P- Crimp dies: acc. to DIN 46 235\P- Pressing force: 130kN\P- Mating cycles: {\f仿宋_GB2312|b0|i0|c134|p49;≥}500
  7
Romans字体
 73
     1
 44
1.0
1001
ACAD
1000
ACAD_MTEXT_DEFINED_HEIGHT_BEGIN
1070
    46
1040
107.8236110958389
1000
ACAD_MTEXT_DEFINED_HEIGHT_END
  0
MTEXT
  5
6D3
330
2
100
AcDbEntity
  8
图框
 62
     3
100
AcDbMText
 10
5523.112824891128
 20
523.4497823500577
 30
0.0
 40
1.6
 41
6.957288868934331
 46
0.0
 71
     5
 72
     5
  1
{\fFangSong_GB2312|b0|i0|c134|p49;\W0.8;58g}
 73
     1
 44
1.0
  0
MTEXT
  5
6DB
330
2
100
AcDbEntity
  8
图框
 62
     3
100
AcDbMText
 10
5517.176596565636
 20
523.5269177603521
 30
0.0
 40
1.6
 41
6.957288868934331
 46
0.0
 71
     5
 72
     5
  1
{\fFangSong_GB2312|b0|i0|c134|p49;\W0.8;V1.1}
 73
     1
 44
1.0
  0
MTEXT
  5
6E3
330
2
100
AcDbEntity
  8
图框
 62
     3
100
AcDbMText
 10
5510.67657504881
 20
523.6132161243521
 30
0.0
 40
1.6
 41
6.957288868934331
 46
0.0
 71
     5
 72
     5
  1
{\fFangSong_GB2312|b0|i0|c134|p49;\W0.8;1:1}
 73
     1
 44
1.0
  0
MTEXT
  5
6EB
330
2
100
AcDbEntity
  8
图框
 62
     3
100
AcDbMText
 10
5529.721172589578
 20
523.7195549787701
 30
0.0
 40
1.6
 41
6.957288868934331
 46
0.0
 71
     5
 72
     5
  1
{\fFangSong_GB2312|b0|i0|c134|p49;\W0.8;1}
 73
     1
 44
1.0
  0
ENDSEC
  0
SECTION
  2
OBJECTS
  0
DICTIONARY
  5
C
330
0
100
AcDbDictionary
281
     1
  3
ACAD_COLOR
350
46
  3
ACAD_GROUP
350
32
  3
ACAD_LAYOUT
350
10
  3
ACAD_MATERIAL
350
B
  3
ACAD_MLEADERSTYLE
350
49
  3
ACAD_MLINESTYLE
350
33
  3
ACAD_PLOTSETTINGS
350
34
  3
ACAD_PLOTSTYLENAME
350
35
  3
ACAD_SCALELIST
350
47
  3
ACAD_TABLESTYLE
350
48
  3
ACAD_VISUALSTYLE
350
26
  3
ACDB_RECOMPOSE_DATA
350
1A7
  3
AcDbVariableDictionary
350
1B8
  0
DICTIONARY
  5
27
330
23
100
AcDbDictionary
280
     1
281
     1
  0
DICTIONARY
  5
16
330
15
100
AcDbDictionary
280
     1
281
     1
  3
ACAD_LAYERFILTERS
360
17
  3
ACAD_LAYERSTATES
360
18
  3
ACLYDICTIONARY
360
19
  0
DICTIONARY
  5
7
330
6
100
AcDbDictionary
280
     1
281
     1
  3
ADSK_XREC_LAYER_RECONCILED
360
8
  0
DICTIONARY
  5
4B
330
4A
100
AcDbDictionary
280
     1
281
     1
  3
ADSK_XREC_LAYER_RECONCILED
360
4C
  0
DICTIONARY
  5
75
330
74
100
AcDbDictionary
280
     1
281
     1
  3
ADSK_XREC_LAYER_RECONCILED
360
76
  0
DICTIONARY
  5
10D
330
10C
100
AcDbDictionary
280
     1
281
     1
  0
DICTIONARY
  5
134
330
133
100
AcDbDictionary
280
     1
281
     1
  0
DICTIONARY
  5
3
330
2
100
AcDbDictionary
280
     1
281
     1
  3
ACAD_SORTENTS
360
186
  0
DICTIONARY
  5
267
330
79
100
AcDbDictionary
280
     1
281
     1
  0
DICTIONARY
  5
6DE
330
6DC
100
AcDbDictionary
280
     1
281
     1
  3
ACAD_SORTENTS
360
6DF
  0
DICTIONARY
  5
6ED
330
216
100
AcDbDictionary
280
     1
281
     1
  3
ACAD_MTEXT_2008_RT
360
6EE
  0
DICTIONARY
  5
6EF
330
23E
100
AcDbDictionary
280
     1
281
     1
  3
ACAD_MTEXT_2008_RT
360
6F0
  0
DICTIONARY
  5
6F1
330
241
100
AcDbDictionary
280
     1
281
     1
  3
ACAD_MTEXT_2008_RT
360
6F2
  0
DICTIONARY
  5
6F3
330
242
100
AcDbDictionary
280
     1
281
     1
  3
ACAD_MTEXT_2008_RT
360
6F4
  0
DICTIONARY
  5
6F5
330
24C
100
AcDbDictionary
280
     1
281
     1
  3
ACAD_MTEXT_2008_RT
360
6F6
  0
DICTIONARY
  5
6F7
330
24D
100
AcDbDictionary
280
     1
281
     1
  3
ACAD_MTEXT_2008_RT
360
6F8
  0
DICTIONARY
  5
6F9
330
24E
100
AcDbDictionary
280
     1
281
     1
  3
ACAD_MTEXT_2008_RT
360
6FA
  0
DICTIONARY
  5
6FB
330
261
100
AcDbDictionary
280
     1
281
     1
  3
ACAD_MTEXT_2008_RT
360
6FC
  0
DICTIONARY
  5
6FD
330
262
100
AcDbDictionary
280
     1
281
     1
  3
ACAD_MTEXT_2008_RT
360
6FE
  0
DICTIONARY
  5
6FF
330
263
100
AcDbDictionary
280
     1
281
     1
  3
ACAD_MTEXT_2008_RT
360
700
  0
DICTIONARY
  5
701
330
619
100
AcDbDictionary
280
     1
281
     1
  3
ACAD_MTEXT_2008_RT
360
702
  0
DICTIONARY
  5
46
102
{ACAD_REACTORS
330
C
102
}
330
C
100
AcDbDictionary
281
     1
  0
DICTIONARY
  5
32
102
{ACAD_REACTORS
330
C
102
}
330
C
100
AcDbDictionary
281
     1
  0
DICTIONARY
  5
10
102
{ACAD_REACTORS
330
C
102
}
330
C
100
AcDbDictionary
281
     1
  3
Layout1
350
14
  3
Model
350
F
  0
DICTIONARY
  5
B
102
{ACAD_REACTORS
330
C
102
}
330
C
100
AcDbDictionary
281
     1
  3
ByBlock
350
3E
  3
ByLayer
350
36
  3
Global
350
A
  0
DICTIONARY
  5
49
102
{ACAD_REACTORS
330
C
102
}
330
C
100
AcDbDictionary
281
     1
  3
Standard
350
1CF
  0
DICTIONARY
  5
33
102
{ACAD_REACTORS
330
C
102
}
330
C
100
AcDbDictionary
281
     1
  3
Standard
350
4D
  0
DICTIONARY
  5
34
102
{ACAD_REACTORS
330
C
102
}
330
C
100
AcDbDictionary
281
     1
  0
ACDBDICTIONARYWDFLT
  5
35
102
{ACAD_REACTORS
330
C
102
}
330
C
100
AcDbDictionary
281
     1
  3
Normal
350
9
  3
Style 1
350
103
100
AcDbDictionaryWithDefault
340
9
  0
DICTIONARY
  5
47
102
{ACAD_REACTORS
330
C
102
}
330
C
100
AcDbDictionary
281
     1
  3
A0
350
52
  3
A1
350
53
  3
A2
350
54
  3
A3
350
55
  3
A4
350
56
  3
A5
350
57
  3
A6
350
58
  3
A7
350
59
  3
A8
350
5A
  3
A9
350
5B
  3
B0
350
5C
  3
B1
350
5D
  3
B2
350
5E
  3
B3
350
5F
  3
B4
350
60
  3
B5
350
61
  3
B6
350
62
  3
B7
350
63
  3
B8
350
64
  3
B9
350
65
  3
C0
350
66
  3
C1
350
67
  3
C2
350
68
  3
C3
350
69
  3
C4
350
6A
  3
C5
350
6B
  3
C6
350
6C
  3
C7
350
6D
  3
C8
350
6E
  3
C9
350
6F
  3
D0
350
70
  3
D1
350
71
  3
D2
350
72
  0
DICTIONARY
  5
48
102
{ACAD_REACTORS
330
C
102
}
330
C
100
AcDbDictionary
281
     1
  3
Standard
350
4E
  0
DICTIONARY
  5
26
102
{ACAD_REACTORS
330
C
102
}
330
C
100
AcDbDictionary
281
     1
  3
2dWireframe
350
25
  3
3D Hidden
350
1C7
  3
3dWireframe
350
51
  3
Basic
350
1C6
  3
Brighten
350
1CA
  3
ColorChange
350
1CE
  3
Conceptual
350
1C8
  3
Dim
350
1C9
  3
Facepattern
350
1CD
  3
Flat
350
1C2
  3
FlatWithEdges
350
1C3
  3
Gouraud
350
1C4
  3
GouraudWithEdges
350
1C5
  3
Linepattern
350
1CC
  3
Realistic
350
50
  3
Thicken
350
1CB
  0
XRECORD
  5
1A7
102
{ACAD_REACTORS
330
C
102
}
330
C
100
AcDbXrecord
280
     1
 90
        1
330
4E
330
216
330
23E
330
241
330
242
330
24C
330
24D
330
24E
330
261
330
262
330
263
330
619
  0
DICTIONARY
  5
1B8
102
{ACAD_REACTORS
330
C
102
}
330
C
100
AcDbDictionary
281
     1
  3
CANNOSCALE
350
1BB
  3
CMLEADERSTYLE
350
1BA
  3
CTABLESTYLE
350
1B9
  3
DIMASSOC
350
1BF
  3
HIDETEXT
350
1BE
  3
INDEXCTL
350
1BD
  3
LIGHTINGUNITS
350
283
  3
MSLTSCALE
350
282
  3
SORTENTS
350
1BC
  3
XCLIPFRAME
350
1C0
  0
DICTIONARY
  5
17
102
{ACAD_REACTORS
330
16
102
}
330
16
100
AcDbDictionary
281
     1
  0
DICTIONARY
  5
18
102
{ACAD_REACTORS
330
16
102
}
330
16
100
AcDbDictionary
281
     1
  0
DICTIONARY
  5
19
102
{ACAD_REACTORS
330
16
102
}
330
16
100
AcDbDictionary
281
     1
1001
ACAD
1000
<All
  0
XRECORD
  5
8
102
{ACAD_REACTORS
330
7
102
}
330
7
100
AcDbXrecord
280
     1
290
     1
  0
XRECORD
  5
4C
102
{ACAD_REACTORS
330
4B
102
}
330
4B
100
AcDbXrecord
280
     1
290
     1
  0
XRECORD
  5
76
102
{ACAD_REACTORS
330
75
102
}
330
75
100
AcDbXrecord
280
     1
290
     1
  0
SORTENTSTABLE
  5
186
102
{ACAD_REACTORS
330
3
102
}
330
3
100
AcDbSortentsTable
330
2
  0
SORTENTSTABLE
  5
6DF
102
{ACAD_REACTORS
330
6DE
102
}
330
6DE
100
AcDbSortentsTable
330
6DC
  0
XRECORD
  5
6EE
102
{ACAD_REACTORS
330
6ED
102
}
330
6ED
100
AcDbXrecord
280
     1
 40
3121729.0
  1
\pxqc;{\fFangSong_GB2312|b0|i0|c134|p49;档案员\H0.7x;\PFiling Clerk }
  0
XRECORD
  5
6F0
102
{ACAD_REACTORS
330
6EF
102
}
330
6EF
100
AcDbXrecord
280
     1
 40
1983438.0
  1
\pxsm0.7;{\fFangSong_GB2312|b0|i0|c134|p49;标准化\PStand.}
  0
XRECORD
  5
6F2
102
{ACAD_REACTORS
330
6F1
102
}
330
6F1
100
AcDbXrecord
280
     1
 40
1575140.0
  1
\pxsm0.7;{\fFangSong_GB2312|b0|i0|c134|p49;签名\PSignature }
  0
XRECORD
  5
6F4
102
{ACAD_REACTORS
330
6F3
102
}
330
6F3
100
AcDbXrecord
280
     1
 40
1610304.0
  1
\pxsm0.7;{\fSimSun|b0|i0|c134|p2;处数\fFangSong_GB2312|b0|i0|c134|p49;\P\W0.75;Number\H0.9491x;\W0.85; \P\ps*;\P }
  0
XRECORD
  5
6F6
102
{ACAD_REACTORS
330
6F5
102
}
330
6F5
100
AcDbXrecord
280
     1
 40
1780428.0
  1
\pxsm0.7;{\fFangSong_GB2312|b0|i0|c134|p49;标记\PMark}
  0
XRECORD
  5
6F8
102
{ACAD_REACTORS
330
6F7
102
}
330
6F7
100
AcDbXrecord
280
     1
 40
1484471.0
  1
\pxsm0.7;{\fFangSong_GB2312|b0|i0|c134|p49;审核\PChecked}
  0
XRECORD
  5
6FA
102
{ACAD_REACTORS
330
6F9
102
}
330
6F9
100
AcDbXrecord
280
     1
 40
1585572.0
  1
\pxsm0.7;{\fFangSong_GB2312|b0|i0|c134|p49;绘图\PDrawn }
  0
XRECORD
  5
6FC
102
{ACAD_REACTORS
330
6FB
102
}
330
6FB
100
AcDbXrecord
280
     1
 40
1389430.0
  1
\pxsm0.7;{\fFangSong_GB2312|b0|i0|c134|p49;批准\PApproved}
  0
XRECORD
  5
6FE
102
{ACAD_REACTORS
330
6FD
102
}
330
6FD
100
AcDbXrecord
280
     1
 40
1677381.0
  1
\pxsm0.7;{\fFangSong_GB2312|b0|i0|c134|p49;工艺\PProcess}
  0
XRECORD
  5
700
102
{ACAD_REACTORS
330
6FF
102
}
330
6FF
100
AcDbXrecord
280
     1
 40
1522572.0
  1
\pxsm0.7;{\fFangSong_GB2312|b0|i0|c134|p49;日期\PDate}
  0
XRECORD
  5
702
102
{ACAD_REACTORS
330
701
102
}
330
701
100
AcDbXrecord
280
     1
 40
727413225.0
  1
\A1;\pxql;{\f仿宋_GB2312|b0|i0|c134|p49;技术参数}:\P\pq*;- {\f仿宋_GB2312|b0|i0|c134|p49;材料}: {\f仿宋_GB2312|b0|i0|c134|p49;铜合金}\P- {\f仿宋_GB2312|b0|i0|c134|p49;表面处理}: {\f仿宋_GB2312|b0|i0|c134|p49;镀银}\P\pql;- {\f仿宋_GB2312|b0|i0|c134|p49;额定电流}: 350A\P- {\f仿宋_GB23
  1
12|b0|i0|c134|p49;接触电阻}: ≤0.3mΩ\P- {\f仿宋_GB2312|b0|i0|c134|p49;线径范围}: 25mm{\H0.7x;\S2^ ;}\P- {\f仿宋_GB2312|b0|i0|c134|p49;剥线长度}: 26mm\P- {\f仿宋_GB2312|b0|i0|c134|p49;最大电缆直径}: 22mm\P- {\f仿宋_GB2312|b0|i0|c134|p49;冷压模具}: {\f仿宋_GB2312|b0|i0|c134|p49;按照} DIN
  1
 46 235\P- {\f仿宋_GB2312|b0|i0|c134|p49;压力要求}: 130kN\P\pq*;- {\f仿宋_GB2312|b0|i0|c134|p49;可插拔次数}: {\f仿宋_GB2312|b0|i0|c134|p49;≥}500\P\P\pql;Technical specification:\P- Material: copper alloy\P- Surface: hard-silver plated\P- Rated current: 350A\P- Cont
  1
act resistance: ≤0.3mΩ\P- Wire gauge: 25mm{\H0.7x;\S2^ ;}\P- Stripping length: 26mm\P- Max. insulation diameter: 22mm\P- Crimp dies: acc. to DIN 46 235\P- Pressing force: 130kN\P- Mating cycles: {\f仿宋_GB2312|b0|i0|c134|p49;≥}500
  0
LAYOUT
  5
14
102
{ACAD_REACTORS
330
10
102
}
330
10
100
AcDbPlotSettings
  1

  2

  4

  6

 40
0.0
 41
0.0
 42
0.0
 43
0.0
 44
0.0
 45
0.0
 46
0.0
 47
0.0
 48
0.0
 49
0.0
140
0.0
141
0.0
142
1.0
143
1.0
 70
     0
 72
     0
 73
     0
 74
     0
  7

 75
     0
147
1.0
 76
     0
 77
     2
 78
   300
148
0.0
149
0.0
100
AcDbLayout
  1
Layout1
 70
     0
 71
     1
 10
0.0
 20
0.0
 11
12.0
 21
9.0
 12
0.0
 22
0.0
 32
0.0
 14
1.000000000000000E+20
 24
1.000000000000000E+20
 34
1.000000000000000E+20
 15
-1.000000000000000E+20
 25
-1.000000000000000E+20
 35
-1.000000000000000E+20
146
0.0
 13
0.0
 23
0.0
 33
0.0
 16
1.0
 26
0.0
 36
0.0
 17
0.0
 27
1.0
 37
0.0
 76
     0
330
11
  0
LAYOUT
  5
F
102
{ACAD_REACTORS
330
10
102
}
330
10
100
AcDbPlotSettings
  1

  2
Microsoft Office Document Image Writer
  4
A4
  6

 40
3.174999952316284
 41
3.174999952316284
 42
3.175003051757812
 43
3.17498779296875
 44
209.9733276367187
 45
297.0106506347656
 46
0.0
 47
0.0
 48
0.0
 49
0.0
140
0.0
141
0.0
142
1.0
143
1.0
 70
 14336
 72
     1
 73
     1
 74
     0
  7

 75
     0
147
1.0
 76
     0
 77
     2
 78
   300
148
-495.0887874882081
149
-307.4252770028979
100
AcDbLayout
  1
Model
 70
     0
 71
     0
 10
0.0
 20
0.0
 11
0.0
 21
0.0
 12
0.0
 22
0.0
 32
0.0
 14
0.0
 24
0.0
 34
0.0
 15
0.0
 25
0.0
 35
0.0
146
0.0
 13
0.0
 23
0.0
 33
0.0
 16
0.0
 26
0.0
 36
0.0
 17
0.0
 27
0.0
 37
0.0
 76
     0
330
2
331
24
  0
MATERIAL
  5
3E
102
{ACAD_XDICTIONARY
360
3F
102
}
102
{ACAD_REACTORS
330
B
102
}
330
B
100
AcDbMaterial
  1
ByBlock
 72
     0
 43
0.0008202099737533
 43
0.0
 43
0.0
 43
0.0
 43
0.0
 43
0.0008202099737533
 43
0.0
 43
0.0
 43
0.0
 43
0.0
 43
1.0
 43
0.0
 43
0.0
 43
0.0
 43
0.0
 43
1.0
 77
     0
 47
0.0008202099737533
 47
0.0
 47
0.0
 47
0.0
 47
0.0
 47
0.0008202099737533
 47
0.0
 47
0.0
 47
0.0
 47
0.0
 47
1.0
 47
0.0
 47
0.0
 47
0.0
 47
0.0
 47
1.0
171
     0
 49
0.0008202099737533
 49
0.0
 49
0.0
 49
0.0
 49
0.0
 49
0.0008202099737533
 49
0.0
 49
0.0
 49
0.0
 49
0.0
 49
1.0
 49
0.0
 49
0.0
 49
0.0
 49
0.0
 49
1.0
175
     0
142
0.0008202099737533
142
0.0
142
0.0
142
0.0
142
0.0
142
0.0008202099737533
142
0.0
142
0.0
142
0.0
142
0.0
142
1.0
142
0.0
142
0.0
142
0.0
142
0.0
142
1.0
179
     0
144
0.0008202099737533
144
0.0
144
0.0
144
0.0
144
0.0
144
0.0008202099737533
144
0.0
144
0.0
144
0.0
144
0.0
144
1.0
144
0.0
144
0.0
144
0.0
144
0.0
144
1.0
147
0.0008202099737533
147
0.0
147
0.0
147
0.0
147
0.0
147
0.0008202099737533
147
0.0
147
0.0
147
0.0
147
0.0
147
1.0
147
0.0
147
0.0
147
0.0
147
0.0
147
1.0
  0
MATERIAL
  5
36
102
{ACAD_XDICTIONARY
360
37
102
}
102
{ACAD_REACTORS
330
B
102
}
330
B
100
AcDbMaterial
  1
ByLayer
 72
     0
 43
0.0008202099737533
 43
0.0
 43
0.0
 43
0.0
 43
0.0
 43
0.0008202099737533
 43
0.0
 43
0.0
 43
0.0
 43
0.0
 43
1.0
 43
0.0
 43
0.0
 43
0.0
 43
0.0
 43
1.0
 77
     0
 47
0.0008202099737533
 47
0.0
 47
0.0
 47
0.0
 47
0.0
 47
0.0008202099737533
 47
0.0
 47
0.0
 47
0.0
 47
0.0
 47
1.0
 47
0.0
 47
0.0
 47
0.0
 47
0.0
 47
1.0
171
     0
 49
0.0008202099737533
 49
0.0
 49
0.0
 49
0.0
 49
0.0
 49
0.0008202099737533
 49
0.0
 49
0.0
 49
0.0
 49
0.0
 49
1.0
 49
0.0
 49
0.0
 49
0.0
 49
0.0
 49
1.0
175
     0
142
0.0008202099737533
142
0.0
142
0.0
142
0.0
142
0.0
142
0.0008202099737533
142
0.0
142
0.0
142
0.0
142
0.0
142
1.0
142
0.0
142
0.0
142
0.0
142
0.0
142
1.0
179
     0
144
0.0008202099737533
144
0.0
144
0.0
144
0.0
144
0.0
144
0.0008202099737533
144
0.0
144
0.0
144
0.0
144
0.0
144
1.0
144
0.0
144
0.0
144
0.0
144
0.0
144
1.0
147
0.0008202099737533
147
0.0
147
0.0
147
0.0
147
0.0
147
0.0008202099737533
147
0.0
147
0.0
147
0.0
147
0.0
147
1.0
147
0.0
147
0.0
147
0.0
147
0.0
147
1.0
  0
MATERIAL
  5
A
102
{ACAD_REACTORS
330
B
102
}
330
B
100
AcDbMaterial
  1
Global
 73
     1
 78
     1
172
     1
176
     1
270
     1
274
     1
 94
       63
  0
MLEADERSTYLE
  5
1CF
102
{ACAD_REACTORS
330
49
102
}
330
49
100
AcDbMLeaderStyle
170
     2
171
     1
172
     0
 90
        2
 40
0.0
 41
0.0
173
     1
 91
-1056964608
340
1F
 92
       -2
290
     1
 42
2.0
291
     1
 43
0.36
  3
Standard
 44
4.0
300

342
1C
174
     1
178
     6
175
     1
176
     0
 93
-1056964608
 45
4.0
292
     0
297
     0
 46
4.0
 94
-1056964608
 47
1.0
 49
1.0
140
1.0
293
     1
141
0.0
294
     1
177
     0
142
1.0
295
     1
296
     0
143
0.125
1001
ACAD_MLEADERVER
1070
     2
  0
MLINESTYLE
  5
4D
102
{ACAD_REACTORS
330
33
102
}
330
33
100
AcDbMlineStyle
  2
STANDARD
 70
     0
  3

 62
   256
 51
90.0
 52
90.0
 71
     2
 49
0.5
 62
   256
  6
BYLAYER
 49
-0.5
 62
   256
  6
BYLAYER
  0
ACDBPLACEHOLDER
  5
9
102
{ACAD_REACTORS
330
35
102
}
330
0
  0
ACDBPLACEHOLDER
  5
103
102
{ACAD_REACTORS
330
35
102
}
330
35
  0
SCALE
  5
52
102
{ACAD_REACTORS
330
47
102
}
330
47
100
AcDbScale
 70
     0
300
1:1
140
1.0
141
1.0
290
     1
  0
SCALE
  5
53
102
{ACAD_REACTORS
330
47
102
}
330
47
100
AcDbScale
 70
     0
300
1:2
140
1.0
141
2.0
290
     0
  0
SCALE
  5
54
102
{ACAD_REACTORS
330
47
102
}
330
47
100
AcDbScale
 70
     0
300
1:4
140
1.0
141
4.0
290
     0
  0
SCALE
  5
55
102
{ACAD_REACTORS
330
47
102
}
330
47
100
AcDbScale
 70
     0
300
1:5
140
1.0
141
5.0
290
     0
  0
SCALE
  5
56
102
{ACAD_REACTORS
330
47
102
}
330
47
100
AcDbScale
 70
     0
300
1:8
140
1.0
141
8.0
290
     0
  0
SCALE
  5
57
102
{ACAD_REACTORS
330
47
102
}
330
47
100
AcDbScale
 70
     0
300
1:10
140
1.0
141
10.0
290
     0
  0
SCALE
  5
58
102
{ACAD_REACTORS
330
47
102
}
330
47
100
AcDbScale
 70
     0
300
1:16
140
1.0
141
16.0
290
     0
  0
SCALE
  5
59
102
{ACAD_REACTORS
330
47
102
}
330
47
100
AcDbScale
 70
     0
300
1:20
140
1.0
141
20.0
290
     0
  0
SCALE
  5
5A
102
{ACAD_REACTORS
330
47
102
}
330
47
100
AcDbScale
 70
     0
300
1:30
140
1.0
141
30.0
290
     0
  0
SCALE
  5
5B
102
{ACAD_REACTORS
330
47
102
}
330
47
100
AcDbScale
 70
     0
300
1:40
140
1.0
141
40.0
290
     0
  0
SCALE
  5
5C
102
{ACAD_REACTORS
330
47
102
}
330
47
100
AcDbScale
 70
     0
300
1:50
140
1.0
141
50.0
290
     0
  0
SCALE
  5
5D
102
{ACAD_REACTORS
330
47
102
}
330
47
100
AcDbScale
 70
     0
300
1:100
140
1.0
141
100.0
290
     0
  0
SCALE
  5
5E
102
{ACAD_REACTORS
330
47
102
}
330
47
100
AcDbScale
 70
     0
300
2:1
140
2.0
141
1.0
290
     0
  0
SCALE
  5
5F
102
{ACAD_REACTORS
330
47
102
}
330
47
100
AcDbScale
 70
     0
300
4:1
140
4.0
141
1.0
290
     0
  0
SCALE
  5
60
102
{ACAD_REACTORS
330
47
102
}
330
47
100
AcDbScale
 70
     0
300
8:1
140
8.0
141
1.0
290
     0
  0
SCALE
  5
61
102
{ACAD_REACTORS
330
47
102
}
330
47
100
AcDbScale
 70
     0
300
10:1
140
10.0
141
1.0
290
     0
  0
SCALE
  5
62
102
{ACAD_REACTORS
330
47
102
}
330
47
100
AcDbScale
 70
     0
300
100:1
140
100.0
141
1.0
290
     0
  0
SCALE
  5
63
102
{ACAD_REACTORS
330
47
102
}
330
47
100
AcDbScale
 70
     0
300
1/128" = 1'-0"
140
0.0078125
141
12.0
290
     0
  0
SCALE
  5
64
102
{ACAD_REACTORS
330
47
102
}
330
47
100
AcDbScale
 70
     0
300
1/64" = 1'-0"
140
0.015625
141
12.0
290
     0
  0
SCALE
  5
65
102
{ACAD_REACTORS
330
47
102
}
330
47
100
AcDbScale
 70
     0
300
1/32" = 1'-0"
140
0.03125
141
12.0
290
     0
  0
SCALE
  5
66
102
{ACAD_REACTORS
330
47
102
}
330
47
100
AcDbScale
 70
     0
300
1/16" = 1'-0"
140
0.0625
141
12.0
290
     0
  0
SCALE
  5
67
102
{ACAD_REACTORS
330
47
102
}
330
47
100
AcDbScale
 70
     0
300
3/32" = 1'-0"
140
0.09375
141
12.0
290
     0
  0
SCALE
  5
68
102
{ACAD_REACTORS
330
47
102
}
330
47
100
AcDbScale
 70
     0
300
1/8" = 1'-0"
140
0.125
141
12.0
290
     0
  0
SCALE
  5
69
102
{ACAD_REACTORS
330
47
102
}
330
47
100
AcDbScale
 70
     0
300
3/16" = 1'-0"
140
0.1875
141
12.0
290
     0
  0
SCALE
  5
6A
102
{ACAD_REACTORS
330
47
102
}
330
47
100
AcDbScale
 70
     0
300
1/4" = 1'-0"
140
0.25
141
12.0
290
     0
  0
SCALE
  5
6B
102
{ACAD_REACTORS
330
47
102
}
330
47
100
AcDbScale
 70
     0
300
3/8" = 1'-0"
140
0.375
141
12.0
290
     0
  0
SCALE
  5
6C
102
{ACAD_REACTORS
330
47
102
}
330
47
100
AcDbScale
 70
     0
300
1/2" = 1'-0"
140
0.5
141
12.0
290
     0
  0
SCALE
  5
6D
102
{ACAD_REACTORS
330
47
102
}
330
47
100
AcDbScale
 70
     0
300
3/4" = 1'-0"
140
0.75
141
12.0
290
     0
  0
SCALE
  5
6E
102
{ACAD_REACTORS
330
47
102
}
330
47
100
AcDbScale
 70
     0
300
1" = 1'-0"
140
1.0
141
12.0
290
     0
  0
SCALE
  5
6F
102
{ACAD_REACTORS
330
47
102
}
330
47
100
AcDbScale
 70
     0
300
1-1/2" = 1'-0"
140
1.5
141
12.0
290
     0
  0
SCALE
  5
70
102
{ACAD_REACTORS
330
47
102
}
330
47
100
AcDbScale
 70
     0
300
3" = 1'-0"
140
3.0
141
12.0
290
     0
  0
SCALE
  5
71
102
{ACAD_REACTORS
330
47
102
}
330
47
100
AcDbScale
 70
     0
300
6" = 1'-0"
140
6.0
141
12.0
290
     0
  0
SCALE
  5
72
102
{ACAD_REACTORS
330
47
102
}
330
47
100
AcDbScale
 70
     0
300
1'-0" = 1'-0"
140
12.0
141
12.0
290
     0
  0
TABLESTYLE
  5
4E
102
{ACAD_XDICTIONARY
360
4F
102
}
102
{ACAD_REACTORS
330
48
102
}
330
48
100
AcDbTableStyle
  3
Standard
 70
     0
 71
     0
 40
1.5
 41
1.5
280
     0
281
     0
  7
STANDARD
140
4.5
170
     2
 62
     0
 63
     7
283
     0
 90
        4
 91
        0
  1

274
    -2
284
     1
 64
     0
275
    -2
285
     1
 65
     0
276
    -2
286
     1
 66
     0
277
    -2
287
     1
 67
     0
278
    -2
288
     1
 68
     0
279
    -2
289
     1
 69
     0
  7
STANDARD
140
6.0
170
     5
 62
     0
 63
     7
283
     0
 90
        4
 91
        0
  1

274
    -2
284
     1
 64
     0
275
    -2
285
     1
 65
     0
276
    -2
286
     1
 66
     0
277
    -2
287
     1
 67
     0
278
    -2
288
     1
 68
     0
279
    -2
289
     1
 69
     0
  7
STANDARD
140
4.5
170
     5
 62
     0
 63
     7
283
     0
 90
        4
 91
        0
  1

274
    -2
284
     1
 64
     0
275
    -2
285
     1
 65
     0
276
    -2
286
     1
 66
     0
277
    -2
287
     1
 67
     0
278
    -2
288
     1
 68
     0
279
    -2
289
     1
 69
     0
1001
ACAD
1000
AcRTDxfName
1000
TABLESTYLE
1000
AcRTDxfName
1000
TABLESTYLE
1000
AcRTDxfName
1000
TABLESTYLE
1000
AcRTDxfName
1000
TABLESTYLE
1000
AcRTDxfName
1000
TABLESTYLE
1000
AcRTDxfName
1000
TABLESTYLE
1000
AcRTDxfName
1000
TABLESTYLE
1000
AcRTDxfName
1000
TABLESTYLE
1000
AcRTDxfName
1000
TABLESTYLE
1000
AcRTDxfName
1000
TABLESTYLE
1000
AcRTDxfName
1000
TABLESTYLE
1000
AcRTDxfName
1000
TABLESTYLE
  0
VISUALSTYLE
  5
25
102
{ACAD_XDICTIONARY
360
1AE
102
}
102
{ACAD_REACTORS
330
26
102
}
330
26
100
AcDbVisualStyle
  2
2dWireframe
 70
     4
 71
     0
 72
     2
 73
     0
 90
        0
 40
-0.6
 41
-30.0
 62
     5
 63
     7
 74
     1
 91
        4
 64
     7
 65
   257
 75
     1
175
     1
 42
1.0
 92
        0
 66
   257
 43
1.0
 76
     1
 77
     6
 78
     2
 67
     7
 79
     5
170
     0
171
     0
290
     0
174
     0
 93
        1
 44
0.0
173
     0
291
     0
 45
0.0
  0
VISUALSTYLE
  5
1C7
102
{ACAD_REACTORS
330
26
102
}
330
26
100
AcDbVisualStyle
  2
3D Hidden
 70
     6
 71
     1
 72
     2
 73
     2
 90
        0
 40
-0.6
 41
-30.0
 62
     5
 63
     7
421
 16777215
 74
     2
 91
        2
 64
     7
 65
   257
 75
     2
175
     1
 42
40.0
 92
        0
 66
   257
 43
1.0
 76
     1
 77
     6
 78
     2
 67
     7
 79
     3
170
     0
171
     0
290
     0
174
     0
 93
        1
 44
0.0
173
     0
291
     0
 45
0.0
  0
VISUALSTYLE
  5
51
102
{ACAD_XDICTIONARY
360
1B5
102
}
102
{ACAD_REACTORS
330
26
102
}
330
26
100
AcDbVisualStyle
  2
3dWireframe
 70
     5
 71
     0
 72
     2
 73
     0
 90
        0
 40
-0.6
 41
-30.0
 62
     5
 63
     7
 74
     1
 91
        4
 64
     7
 65
   257
 75
     1
175
     1
 42
1.0
 92
        0
 66
   257
 43
1.0
 76
     1
 77
     6
 78
     2
 67
     7
 79
     5
170
     0
171
     0
290
     0
174
     0
 93
        1
 44
0.0
173
     0
291
     0
 45
0.0
  0
VISUALSTYLE
  5
1C6
102
{ACAD_REACTORS
330
26
102
}
330
26
100
AcDbVisualStyle
  2
Basic
 70
     7
 71
     1
 72
     0
 73
     1
 90
        0
 40
-0.6
 41
-30.0
 62
     5
 63
     7
421
 16777215
 74
     0
 91
        4
 64
     7
 65
   257
 75
     1
175
     1
 42
1.0
 92
        8
 66
     7
 43
1.0
 76
     1
 77
     6
 78
     2
 67
     7
 79
     5
170
     0
171
     0
290
     0
174
     0
 93
        1
 44
0.0
173
     0
291
     1
 45
0.0
  0
VISUALSTYLE
  5
1CA
102
{ACAD_REACTORS
330
26
102
}
330
26
100
AcDbVisualStyle
  2
Brighten
 70
    12
 71
     2
 72
     2
 73
     0
 90
        0
 40
-0.6
 41
-30.0
 62
     5
 63
     7
421
 16777215
 74
     1
 91
        4
 64
     7
 65
   257
 75
     1
175
     1
 42
1.0
 92
        8
 66
     7
 43
1.0
 76
     1
 77
     6
 78
     2
 67
     7
 79
     5
170
     0
171
     0
290
     0
174
     0
 93
        1
 44
50.0
173
     0
291
     1
 45
0.0
  0
VISUALSTYLE
  5
1CE
102
{ACAD_REACTORS
330
26
102
}
330
26
100
AcDbVisualStyle
  2
ColorChange
 70
    16
 71
     2
 72
     2
 73
     3
 90
        0
 40
-0.6
 41
-30.0
 62
     5
 63
     8
421
  8421504
 74
     1
 91
        4
 64
     7
 65
   257
 75
     1
175
     1
 42
1.0
 92
        8
 66
     8
424
  8421504
 43
1.0
 76
     1
 77
     6
 78
     2
 67
     7
 79
     5
170
     0
171
     0
290
     0
174
     0
 93
        1
 44
0.0
173
     0
291
     1
 45
0.0
  0
VISUALSTYLE
  5
1C8
102
{ACAD_REACTORS
330
26
102
}
330
26
100
AcDbVisualStyle
  2
Conceptual
 70
     9
 71
     3
 72
     2
 73
     0
 90
        0
 40
-0.6
 41
-30.0
 62
     5
 63
     7
421
 16777215
 74
     2
 91
        2
 64
     7
 65
   257
 75
     1
175
     1
 42
40.0
 92
        8
 66
     7
 43
1.0
 76
     1
 77
     6
 78
     2
 67
     7
 79
     3
170
     0
171
     0
290
     0
174
     0
 93
        1
 44
0.0
173
     0
291
     0
 45
0.0
  0
VISUALSTYLE
  5
1C9
102
{ACAD_REACTORS
330
26
102
}
330
26
100
AcDbVisualStyle
  2
Dim
 70
    11
 71
     2
 72
     2
 73
     0
 90
        0
 40
-0.6
 41
-30.0
 62
     5
 63
     7
421
 16777215
 74
     1
 91
        4
 64
     7
 65
   257
 75
     1
175
     1
 42
1.0
 92
        8
 66
     7
 43
1.0
 76
     1
 77
     6
 78
     2
 67
     7
 79
     5
170
     0
171
     0
290
     0
174
     0
 93
        1
 44
-50.0
173
     0
291
     1
 45
0.0
  0
VISUALSTYLE
  5
1CD
102
{ACAD_REACTORS
330
26
102
}
330
26
100
AcDbVisualStyle
  2
Facepattern
 70
    15
 71
     2
 72
     2
 73
     0
 90
        0
 40
-0.6
 41
-30.0
 62
     5
 63
     7
421
 16777215
 74
     1
 91
        4
 64
     7
 65
   257
 75
     1
175
     1
 42
1.0
 92
        8
 66
     7
 43
1.0
 76
     1
 77
     6
 78
     2
 67
     7
 79
     5
170
     0
171
     0
290
     0
174
     0
 93
        1
 44
0.0
173
     0
291
     1
 45
0.0
  0
VISUALSTYLE
  5
1C2
102
{ACAD_REACTORS
330
26
102
}
330
26
100
AcDbVisualStyle
  2
Flat
 70
     0
 71
     2
 72
     1
 73
     1
 90
        2
 40
-0.6
 41
30.0
 62
     5
 63
     7
421
 16777215
 74
     0
 91
        4
 64
     7
 65
   257
 75
     1
175
     1
 42
1.0
 92
        8
 66
     7
 43
1.0
 76
     1
 77
     6
 78
     2
 67
     7
 79
     5
170
     0
171
     0
290
     0
174
     0
 93
       13
 44
0.0
173
     0
291
     1
 45
0.0
  0
VISUALSTYLE
  5
1C3
102
{ACAD_REACTORS
330
26
102
}
330
26
100
AcDbVisualStyle
  2
FlatWithEdges
 70
     1
 71
     2
 72
     1
 73
     1
 90
        2
 40
-0.6
 41
30.0
 62
     5
 63
     7
421
 16777215
 74
     1
 91
        4
 64
     7
 65
   257
 75
     1
175
     1
 42
1.0
 92
        0
 66
   257
 43
1.0
 76
     1
 77
     6
 78
     2
 67
     7
 79
     5
170
     0
171
     0
290
     0
174
     0
 93
       13
 44
0.0
173
     0
291
     1
 45
0.0
  0
VISUALSTYLE
  5
1C4
102
{ACAD_REACTORS
330
26
102
}
330
26
100
AcDbVisualStyle
  2
Gouraud
 70
     2
 71
     2
 72
     2
 73
     1
 90
        2
 40
-0.6
 41
30.0
 62
     5
 63
     7
421
 16777215
 74
     0
 91
        4
 64
     7
 65
   257
 75
     1
175
     1
 42
1.0
 92
        0
 66
     7
 43
1.0
 76
     1
 77
     6
 78
     2
 67
     7
 79
     5
170
     0
171
     0
290
     0
174
     0
 93
       13
 44
0.0
173
     0
291
     1
 45
0.0
  0
VISUALSTYLE
  5
1C5
102
{ACAD_REACTORS
330
26
102
}
330
26
100
AcDbVisualStyle
  2
GouraudWithEdges
 70
     3
 71
     2
 72
     2
 73
     1
 90
        2
 40
-0.6
 41
30.0
 62
     5
 63
     7
421
 16777215
 74
     1
 91
        4
 64
     7
 65
   257
 75
     1
175
     1
 42
1.0
 92
        0
 66
   257
 43
1.0
 76
     1
 77
     6
 78
     2
 67
     7
 79
     5
170
     0
171
     0
290
     0
174
     0
 93
       13
 44
0.0
173
     0
291
     1
 45
0.0
  0
VISUALSTYLE
  5
1CC
102
{ACAD_REACTORS
330
26
102
}
330
26
100
AcDbVisualStyle
  2
Linepattern
 70
    14
 71
     2
 72
     2
 73
     0
 90
        0
 40
-0.6
 41
-30.0
 62
     5
 63
     7
421
 16777215
 74
     1
 91
        4
 64
     7
 65
   257
 75
     7
175
     7
 42
1.0
 92
        8
 66
     7
 43
1.0
 76
     1
 77
     6
 78
     2
 67
     7
 79
     5
170
     0
171
     0
290
     0
174
     0
 93
        1
 44
0.0
173
     0
291
     1
 45
0.0
  0
VISUALSTYLE
  5
50
102
{ACAD_XDICTIONARY
360
1B3
102
}
102
{ACAD_REACTORS
330
26
102
}
330
26
100
AcDbVisualStyle
  2
Realistic
 70
     8
 71
     2
 72
     2
 73
     0
 90
        0
 40
-0.6
 41
-30.0
 62
     5
 63
     7
 74
     1
 91
        0
 64
     7
 65
   257
 75
     1
175
     1
 42
1.0
 92
        8
 66
     8
 43
1.0
 76
     1
 77
     6
 78
     2
 67
     7
 79
     5
170
     0
171
     0
290
     0
174
     0
 93
       13
 44
0.0
173
     0
291
     0
 45
0.0
  0
VISUALSTYLE
  5
1CB
102
{ACAD_REACTORS
330
26
102
}
330
26
100
AcDbVisualStyle
  2
Thicken
 70
    13
 71
     2
 72
     2
 73
     0
 90
        0
 40
-0.6
 41
-30.0
 62
     5
 63
     7
421
 16777215
 74
     1
 91
        4
 64
     7
 65
   257
 75
     1
175
     1
 42
1.0
 92
       12
 66
     7
 43
1.0
 76
     1
 77
     6
 78
     2
 67
     7
 79
     5
170
     0
171
     0
290
     0
174
     0
 93
        1
 44
0.0
173
     0
291
     1
 45
0.0
  0
DICTIONARYVAR
  5
1BB
102
{ACAD_REACTORS
330
1B8
102
}
330
1B8
100
DictionaryVariables
280
     0
  1
1:1
  0
DICTIONARYVAR
  5
1BA
102
{ACAD_REACTORS
330
1B8
102
}
330
1B8
100
DictionaryVariables
280
     0
  1
STANDARD
  0
DICTIONARYVAR
  5
1B9
102
{ACAD_REACTORS
330
1B8
102
}
330
1B8
100
DictionaryVariables
280
     0
  1
STANDARD
  0
DICTIONARYVAR
  5
1BF
102
{ACAD_REACTORS
330
1B8
102
}
330
1B8
100
DictionaryVariables
280
     0
  1
1
  0
DICTIONARYVAR
  5
1BE
102
{ACAD_REACTORS
330
1B8
102
}
330
1B8
100
DictionaryVariables
280
     0
  1
1
  0
DICTIONARYVAR
  5
1BD
102
{ACAD_REACTORS
330
1B8
102
}
330
1B8
100
DictionaryVariables
280
     0
  1
0
  0
DICTIONARYVAR
  5
283
102
{ACAD_REACTORS
330
1B8
102
}
330
1B8
100
DictionaryVariables
280
     0
  1
0
  0
DICTIONARYVAR
  5
282
102
{ACAD_REACTORS
330
1B8
102
}
330
1B8
100
DictionaryVariables
280
     0
  1
0
  0
DICTIONARYVAR
  5
1BC
102
{ACAD_REACTORS
330
1B8
102
}
330
1B8
100
DictionaryVariables
280
     0
  1
127
  0
DICTIONARYVAR
  5
1C0
102
{ACAD_REACTORS
330
1B8
102
}
330
1B8
100
DictionaryVariables
280
     0
  1
2
  0
DICTIONARY
  5
3F
330
3E
100
AcDbDictionary
280
     1
281
     1
  3
BUMPTILE
360
40
  3
DIFFUSETILE
360
41
  3
OPACITYTILE
360
42
  3
REFLECTIONTILE
360
43
  3
REFRACTIONTILE
360
44
  3
SPECULARTILE
360
45
  0
DICTIONARY
  5
37
330
36
100
AcDbDictionary
280
     1
281
     1
  3
BUMPTILE
360
38
  3
DIFFUSETILE
360
39
  3
OPACITYTILE
360
3A
  3
REFLECTIONTILE
360
3B
  3
REFRACTIONTILE
360
3C
  3
SPECULARTILE
360
3D
  0
DICTIONARY
  5
4F
330
4E
100
AcDbDictionary
280
     1
281
     1
  3
ACAD_ROUNDTRIP_2008_TABLESTYLE_CELLSTYLEMAP
360
6EC
  0
DICTIONARY
  5
1AE
330
25
100
AcDbDictionary
280
     1
281
     1
  3
ACAD_XREC_ROUNDTRIP
360
1AF
  0
DICTIONARY
  5
1B5
330
51
100
AcDbDictionary
280
     1
281
     1
  3
ACAD_XREC_ROUNDTRIP
360
1B6
  0
DICTIONARY
  5
1B3
330
50
100
AcDbDictionary
280
     1
281
     1
  3
ACAD_XREC_ROUNDTRIP
360
1B4
  0
XRECORD
  5
40
102
{ACAD_REACTORS
330
3F
102
}
330
3F
100
AcDbXrecord
280
     1
270
     1
271
     1
  0
XRECORD
  5
41
102
{ACAD_REACTORS
330
3F
102
}
330
3F
100
AcDbXrecord
280
     1
270
     1
271
     1
  0
XRECORD
  5
42
102
{ACAD_REACTORS
330
3F
102
}
330
3F
100
AcDbXrecord
280
     1
270
     1
271
     1
  0
XRECORD
  5
43
102
{ACAD_REACTORS
330
3F
102
}
330
3F
100
AcDbXrecord
280
     1
270
     1
271
     1
  0
XRECORD
  5
44
102
{ACAD_REACTORS
330
3F
102
}
330
3F
100
AcDbXrecord
280
     1
270
     1
271
     1
  0
XRECORD
  5
45
102
{ACAD_REACTORS
330
3F
102
}
330
3F
100
AcDbXrecord
280
     1
270
     1
271
     1
  0
XRECORD
  5
38
102
{ACAD_REACTORS
330
37
102
}
330
37
100
AcDbXrecord
280
     1
270
     1
271
     1
  0
XRECORD
  5
39
102
{ACAD_REACTORS
330
37
102
}
330
37
100
AcDbXrecord
280
     1
270
     1
271
     1
  0
XRECORD
  5
3A
102
{ACAD_REACTORS
330
37
102
}
330
37
100
AcDbXrecord
280
     1
270
     1
271
     1
  0
XRECORD
  5
3B
102
{ACAD_REACTORS
330
37
102
}
330
37
100
AcDbXrecord
280
     1
270
     1
271
     1
  0
XRECORD
  5
3C
102
{ACAD_REACTORS
330
37
102
}
330
37
100
AcDbXrecord
280
     1
270
     1
271
     1
  0
XRECORD
  5
3D
102
{ACAD_REACTORS
330
37
102
}
330
37
100
AcDbXrecord
280
     1
270
     1
271
     1
  0
CELLSTYLEMAP
  5
6EC
102
{ACAD_REACTORS
330
4F
102
}
330
4F
100
AcDbCellStyleMap
 90
        3
300
CELLSTYLE
  1
TABLEFORMAT_BEGIN
 90
        5
170
     1
 91
        0
 92
    32768
 62
   257
 93
        1
300
CONTENTFORMAT
  1
CONTENTFORMAT_BEGIN
 90
        0
 91
        0
 92
        4
 93
        0
300

 40
0.0
140
1.0
 94
        5
 62
     0
340
1C
144
6.0
309
CONTENTFORMAT_END
171
     1
301
MARGIN
  1
CELLMARGIN_BEGIN
 40
1.5
 40
1.5
 40
1.5
 40
1.5
 40
0.18
 40
0.18
309
CELLMARGIN_END
 94
        6
 95
        1
302
GRIDFORMAT
  1
GRIDFORMAT_BEGIN
 90
        0
 91
        1
 62
     0
 92
       -2
340
0
 93
        0
 40
0.045
309
GRIDFORMAT_END
 95
        2
302
GRIDFORMAT
  1
GRIDFORMAT_BEGIN
 90
        0
 91
        1
 62
     0
 92
       -2
340
0
 93
        0
 40
0.045
309
GRIDFORMAT_END
 95
        4
302
GRIDFORMAT
  1
GRIDFORMAT_BEGIN
 90
        0
 91
        1
 62
     0
 92
       -2
340
0
 93
        0
 40
0.045
309
GRIDFORMAT_END
 95
        8
302
GRIDFORMAT
  1
GRIDFORMAT_BEGIN
 90
        0
 91
        1
 62
     0
 92
       -2
340
0
 93
        0
 40
0.045
309
GRIDFORMAT_END
 95
       16
302
GRIDFORMAT
  1
GRIDFORMAT_BEGIN
 90
        0
 91
        1
 62
     0
 92
       -2
340
0
 93
        0
 40
0.045
309
GRIDFORMAT_END
 95
       32
302
GRIDFORMAT
  1
GRIDFORMAT_BEGIN
 90
        0
 91
        1
 62
     0
 92
       -2
340
0
 93
        0
 40
0.045
309
GRIDFORMAT_END
309
TABLEFORMAT_END
  1
CELLSTYLE_BEGIN
 90
        1
 91
        1
300
_TITLE
309
CELLSTYLE_END
300
CELLSTYLE
  1
TABLEFORMAT_BEGIN
 90
        5
170
     1
 91
        0
 92
        0
 62
   257
 93
        1
300
CONTENTFORMAT
  1
CONTENTFORMAT_BEGIN
 90
        0
 91
        0
 92
        4
 93
        0
300

 40
0.0
140
1.0
 94
        5
 62
     0
340
1C
144
4.5
309
CONTENTFORMAT_END
171
     1
301
MARGIN
  1
CELLMARGIN_BEGIN
 40
1.5
 40
1.5
 40
1.5
 40
1.5
 40
0.18
 40
0.18
309
CELLMARGIN_END
 94
        6
 95
        1
302
GRIDFORMAT
  1
GRIDFORMAT_BEGIN
 90
        0
 91
        1
 62
     0
 92
       -2
340
0
 93
        0
 40
0.045
309
GRIDFORMAT_END
 95
        2
302
GRIDFORMAT
  1
GRIDFORMAT_BEGIN
 90
        0
 91
        1
 62
     0
 92
       -2
340
0
 93
        0
 40
0.045
309
GRIDFORMAT_END
 95
        4
302
GRIDFORMAT
  1
GRIDFORMAT_BEGIN
 90
        0
 91
        1
 62
     0
 92
       -2
340
0
 93
        0
 40
0.045
309
GRIDFORMAT_END
 95
        8
302
GRIDFORMAT
  1
GRIDFORMAT_BEGIN
 90
        0
 91
        1
 62
     0
 92
       -2
340
0
 93
        0
 40
0.045
309
GRIDFORMAT_END
 95
       16
302
GRIDFORMAT
  1
GRIDFORMAT_BEGIN
 90
        0
 91
        1
 62
     0
 92
       -2
340
0
 93
        0
 40
0.045
309
GRIDFORMAT_END
 95
       32
302
GRIDFORMAT
  1
GRIDFORMAT_BEGIN
 90
        0
 91
        1
 62
     0
 92
       -2
340
0
 93
        0
 40
0.045
309
GRIDFORMAT_END
309
TABLEFORMAT_END
  1
CELLSTYLE_BEGIN
 90
        2
 91
        1
300
_HEADER
309
CELLSTYLE_END
300
CELLSTYLE
  1
TABLEFORMAT_BEGIN
 90
        5
170
     1
 91
        0
 92
        0
 62
   257
 93
        1
300
CONTENTFORMAT
  1
CONTENTFORMAT_BEGIN
 90
        0
 91
        0
 92
        4
 93
        0
300

 40
0.0
140
1.0
 94
        2
 62
     0
340
1C
144
4.5
309
CONTENTFORMAT_END
171
     1
301
MARGIN
  1
CELLMARGIN_BEGIN
 40
1.5
 40
1.5
 40
1.5
 40
1.5
 40
0.18
 40
0.18
309
CELLMARGIN_END
 94
        6
 95
        1
302
GRIDFORMAT
  1
GRIDFORMAT_BEGIN
 90
        0
 91
        1
 62
     0
 92
       -2
340
0
 93
        0
 40
0.045
309
GRIDFORMAT_END
 95
        2
302
GRIDFORMAT
  1
GRIDFORMAT_BEGIN
 90
        0
 91
        1
 62
     0
 92
       -2
340
0
 93
        0
 40
0.045
309
GRIDFORMAT_END
 95
        4
302
GRIDFORMAT
  1
GRIDFORMAT_BEGIN
 90
        0
 91
        1
 62
     0
 92
       -2
340
0
 93
        0
 40
0.045
309
GRIDFORMAT_END
 95
        8
302
GRIDFORMAT
  1
GRIDFORMAT_BEGIN
 90
        0
 91
        1
 62
     0
 92
       -2
340
0
 93
        0
 40
0.045
309
GRIDFORMAT_END
 95
       16
302
GRIDFORMAT
  1
GRIDFORMAT_BEGIN
 90
        0
 91
        1
 62
     0
 92
       -2
340
0
 93
        0
 40
0.045
309
GRIDFORMAT_END
 95
       32
302
GRIDFORMAT
  1
GRIDFORMAT_BEGIN
 90
        0
 91
        1
 62
     0
 92
       -2
340
0
 93
        0
 40
0.045
309
GRIDFORMAT_END
309
TABLEFORMAT_END
  1
CELLSTYLE_BEGIN
 90
        3
 91
        2
300
_DATA
309
CELLSTYLE_END
  0
XRECORD
  5
1AF
102
{ACAD_REACTORS
330
1AE
102
}
330
1AE
100
AcDbXrecord
280
     1
102
RTVSPropertyOp0
 70
     1
102
RTVSPropertyOp1
 70
     1
102
RTVSPropertyOp2
 70
     1
102
RTVSPropertyOp3
 70
     1
102
RTVSPropertyOp4
 70
     1
102
RTVSPropertyOp5
 70
     1
102
RTVSPropertyOp6
 70
     1
102
RTVSPropertyOp7
 70
     1
102
RTVSPropertyOp8
 70
     1
102
RTVSPropertyOp9
 70
     1
102
RTVSPropertyOp10
 70
     1
102
RTVSPropertyOp11
 70
     1
102
RTVSPropertyOp12
 70
     1
102
RTVSPropertyOp13
 70
     1
102
RTVSPropertyOp14
 70
     1
102
RTVSPropertyOp15
 70
     1
102
RTVSPropertyOp16
 70
     1
102
RTVSPropertyOp17
 70
     1
102
RTVSPropertyOp18
 70
     1
102
RTVSPropertyOp19
 70
     1
102
RTVSPropertyOp20
 70
     1
102
RTVSPropertyOp21
 70
     1
102
RTVSPropertyOp22
 70
     1
102
RTVSPropertyOp23
 70
     1
102
RTVSPropertyOp24
 70
     1
102
RTVSPropertyOp25
 70
     1
102
RTVSPropertyOp26
 70
     1
102
RTVSPropertyOp27
 70
     1
  0
XRECORD
  5
1B6
102
{ACAD_REACTORS
330
1B5
102
}
330
1B5
100
AcDbXrecord
280
     1
102
RTVSPropertyOp0
 70
     1
102
RTVSPropertyOp1
 70
     1
102
RTVSPropertyOp2
 70
     1
102
RTVSPropertyOp3
 70
     1
102
RTVSPropertyOp4
 70
     1
102
RTVSPropertyOp5
 70
     1
102
RTVSPropertyOp6
 70
     1
102
RTVSPropertyOp7
 70
     1
102
RTVSPropertyOp8
 70
     1
102
RTVSPropertyOp9
 70
     1
102
RTVSPropertyOp10
 70
     1
102
RTVSPropertyOp11
 70
     1
102
RTVSPropertyOp12
 70
     1
102
RTVSPropertyOp13
 70
     1
102
RTVSPropertyOp14
 70
     1
102
RTVSPropertyOp15
 70
     1
102
RTVSPropertyOp16
 70
     1
102
RTVSPropertyOp17
 70
     1
102
RTVSPropertyOp18
 70
     1
102
RTVSPropertyOp19
 70
     1
102
RTVSPropertyOp20
 70
     1
102
RTVSPropertyOp21
 70
     1
102
RTVSPropertyOp22
 70
     1
102
RTVSPropertyOp23
 70
     1
102
RTVSPropertyOp24
 70
     1
102
RTVSPropertyOp25
 70
     1
102
RTVSPropertyOp26
 70
     1
102
RTVSPropertyOp27
 70
     1
  0
XRECORD
  5
1B4
102
{ACAD_REACTORS
330
1B3
102
}
330
1B3
100
AcDbXrecord
280
     1
102
RTVSPropertyOp0
 70
     1
102
RTVSPropertyOp1
 70
     1
102
RTVSPropertyOp2
 70
     1
102
RTVSPropertyOp3
 70
     1
102
RTVSPropertyOp4
 70
     1
102
RTVSPropertyOp5
 70
     1
102
RTVSPropertyOp6
 70
     1
102
RTVSPropertyOp7
 70
     1
102
RTVSPropertyOp8
 70
     1
102
RTVSPropertyOp9
 70
     1
102
RTVSPropertyOp10
 70
     1
102
RTVSPropertyOp11
 70
     1
102
RTVSPropertyOp12
 70
     1
102
RTVSPropertyOp13
 70
     1
102
RTVSPropertyOp14
 70
     1
102
RTVSPropertyOp15
 70
     1
102
RTVSPropertyOp16
 70
     1
102
RTVSPropertyOp17
 70
     1
102
RTVSPropertyOp18
 70
     1
102
RTVSPropertyOp19
 70
     1
102
RTVSPropertyOp20
 70
     1
102
RTVSPropertyOp21
 70
     1
102
RTVSPropertyOp22
 70
     1
102
RTVSPropertyOp23
 70
     1
102
RTVSPropertyOp24
 70
     1
102
RTVSPropertyOp25
 70
     1
102
RTVSPropertyOp26
 70
     1
102
RTVSPropertyOp27
 70
     1
  0
ENDSEC
  0
EOF
