  0
SECTION
  2
HEADER
  9
$ACADVER
  1
AC1021
  9
$ACADMAINTVER
 70
    25
  9
$DWGCODEPAGE
  3
ANSI_936
  9
$LASTSAVEDBY
  1
14609
  9
$INSBASE
 10
0.0
 20
0.0
 30
0.0
  9
$EXTMIN
 10
531.0145825243231
 20
184.1768297936648
 30
0.0
  9
$EXTMAX
 10
679.5139576665757
 20
289.1768299845588
 30
0.0
  9
$LIMMIN
 10
0.0
 20
0.0
  9
$LIMMAX
 10
12.0
 20
9.0
  9
$ORTHOMODE
 70
     1
  9
$REGENMODE
 70
     1
  9
$FILLMODE
 70
     1
  9
$QTEXTMODE
 70
     0
  9
$MIRRTEXT
 70
     1
  9
$LTSCALE
 40
1.0
  9
$ATTMODE
 70
     1
  9
$TEXTSIZE
 40
0.2
  9
$TRACEWID
 40
0.05
  9
$TEXTSTYLE
  7
Standard
  9
$CLAYER
  8
DIM
  9
$CELTYPE
  6
ByLayer
  9
$CECOLOR
 62
   256
  9
$CELTSCALE
 40
1.0
  9
$DISPSILH
 70
     0
  9
$DIMSCALE
 40
1.0
  9
$DIMASZ
 40
1.5
  9
$DIMEXO
 40
0.2
  9
$DIMDLI
 40
0.2
  9
$DIMRND
 40
0.0
  9
$DIMDLE
 40
0.0
  9
$DIMEXE
 40
0.3
  9
$DIMTP
 40
0.0
  9
$DIMTM
 40
0.0
  9
$DIMTXT
 40
2.0
  9
$DIMCEN
 40
0.0
  9
$DIMTSZ
 40
0.0
  9
$DIMTOL
 70
     0
  9
$DIMLIM
 70
     0
  9
$DIMTIH
 70
     0
  9
$DIMTOH
 70
     0
  9
$DIMSE1
 70
     0
  9
$DIMSE2
 70
     0
  9
$DIMTAD
 70
     1
  9
$DIMZIN
 70
     8
  9
$DIMBLK
  1

  9
$DIMASO
 70
     1
  9
$DIMSHO
 70
     1
  9
$DIMPOST
  1

  9
$DIMAPOST
  1

  9
$DIMALT
 70
     0
  9
$DIMALTD
 70
     2
  9
$DIMALTF
 40
25.4
  9
$DIMLFAC
 40
1.0
  9
$DIMTOFL
 70
     0
  9
$DIMTVP
 40
0.0
  9
$DIMTIX
 70
     0
  9
$DIMSOXD
 70
     0
  9
$DIMSAH
 70
     0
  9
$DIMBLK1
  1

  9
$DIMBLK2
  1

  9
$DIMSTYLE
  2
01
  9
$DIMCLRD
 70
     1
  9
$DIMCLRE
 70
     6
  9
$DIMCLRT
 70
     4
  9
$DIMTFAC
 40
1.0
  9
$DIMGAP
 40
0.3
  9
$DIMJUST
 70
     0
  9
$DIMSD1
 70
     0
  9
$DIMSD2
 70
     0
  9
$DIMTOLJ
 70
     1
  9
$DIMTZIN
 70
     0
  9
$DIMALTZ
 70
     0
  9
$DIMALTTZ
 70
     0
  9
$DIMUPT
 70
     0
  9
$DIMDEC
 70
     1
  9
$DIMTDEC
 70
     1
  9
$DIMALTU
 70
     2
  9
$DIMALTTD
 70
     2
  9
$DIMTXSTY
  7
Romans字体
  9
$DIMAUNIT
 70
     0
  9
$DIMADEC
 70
     2
  9
$DIMALTRND
 40
0.0
  9
$DIMAZIN
 70
     2
  9
$DIMDSEP
 70
    46
  9
$DIMATFIT
 70
     3
  9
$DIMFRAC
 70
     0
  9
$DIMLDRBLK
  1

  9
$DIMLUNIT
 70
     2
  9
$DIMLWD
 70
    -2
  9
$DIMLWE
 70
    -2
  9
$DIMTMOVE
 70
     0
  9
$DIMFXL
 40
1.0
  9
$DIMFXLON
 70
     0
  9
$DIMJOGANG
 40
0.7853981633974483
  9
$DIMTFILL
 70
     0
  9
$DIMTFILLCLR
 70
     0
  9
$DIMARCSYM
 70
     0
  9
$DIMLTYPE
  6

  9
$DIMLTEX1
  6

  9
$DIMLTEX2
  6

  9
$LUNITS
 70
     2
  9
$LUPREC
 70
     4
  9
$SKETCHINC
 40
0.1
  9
$FILLETRAD
 40
0.5
  9
$AUNITS
 70
     0
  9
$AUPREC
 70
     0
  9
$MENU
  1
.
  9
$ELEVATION
 40
0.0
  9
$PELEVATION
 40
0.0
  9
$THICKNESS
 40
0.0
  9
$LIMCHECK
 70
     0
  9
$CHAMFERA
 40
0.5
  9
$CHAMFERB
 40
0.5
  9
$CHAMFERC
 40
1.0
  9
$CHAMFERD
 40
0.0
  9
$SKPOLY
 70
     0
  9
$TDCREATE
 40
2456524.383632987
  9
$TDUCREATE
 40
2456524.050299653
  9
$TDUPDATE
 40
2460346.562901528
  9
$TDUUPDATE
 40
2460346.229568195
  9
$TDINDWG
 40
1.6276590509
  9
$TDUSRTIMER
 40
1.6276363079
  9
$USRTIMER
 70
     1
  9
$ANGBASE
 50
0.0
  9
$ANGDIR
 70
     0
  9
$PDMODE
 70
     0
  9
$PDSIZE
 40
0.0
  9
$PLINEWID
 40
0.0
  9
$SPLFRAME
 70
     0
  9
$SPLINETYPE
 70
     6
  9
$SPLINESEGS
 70
     8
  9
$HANDSEED
  5
1E459
  9
$SURFTAB1
 70
     6
  9
$SURFTAB2
 70
     6
  9
$SURFTYPE
 70
     6
  9
$SURFU
 70
     6
  9
$SURFV
 70
     6
  9
$UCSBASE
  2

  9
$UCSNAME
  2

  9
$UCSORG
 10
0.0
 20
0.0
 30
0.0
  9
$UCSXDIR
 10
1.0
 20
0.0
 30
0.0
  9
$UCSYDIR
 10
0.0
 20
1.0
 30
0.0
  9
$UCSORTHOREF
  2

  9
$UCSORTHOVIEW
 70
     0
  9
$UCSORGTOP
 10
0.0
 20
0.0
 30
0.0
  9
$UCSORGBOTTOM
 10
0.0
 20
0.0
 30
0.0
  9
$UCSORGLEFT
 10
0.0
 20
0.0
 30
0.0
  9
$UCSORGRIGHT
 10
0.0
 20
0.0
 30
0.0
  9
$UCSORGFRONT
 10
0.0
 20
0.0
 30
0.0
  9
$UCSORGBACK
 10
0.0
 20
0.0
 30
0.0
  9
$PUCSBASE
  2

  9
$PUCSNAME
  2

  9
$PUCSORG
 10
0.0
 20
0.0
 30
0.0
  9
$PUCSXDIR
 10
1.0
 20
0.0
 30
0.0
  9
$PUCSYDIR
 10
0.0
 20
1.0
 30
0.0
  9
$PUCSORTHOREF
  2

  9
$PUCSORTHOVIEW
 70
     0
  9
$PUCSORGTOP
 10
0.0
 20
0.0
 30
0.0
  9
$PUCSORGBOTTOM
 10
0.0
 20
0.0
 30
0.0
  9
$PUCSORGLEFT
 10
0.0
 20
0.0
 30
0.0
  9
$PUCSORGRIGHT
 10
0.0
 20
0.0
 30
0.0
  9
$PUCSORGFRONT
 10
0.0
 20
0.0
 30
0.0
  9
$PUCSORGBACK
 10
0.0
 20
0.0
 30
0.0
  9
$USERI1
 70
     0
  9
$USERI2
 70
     0
  9
$USERI3
 70
     0
  9
$USERI4
 70
     0
  9
$USERI5
 70
     0
  9
$USERR1
 40
0.0
  9
$USERR2
 40
0.0
  9
$USERR3
 40
0.0
  9
$USERR4
 40
0.0
  9
$USERR5
 40
0.0
  9
$WORLDVIEW
 70
     1
  9
$SHADEDGE
 70
     3
  9
$SHADEDIF
 70
    70
  9
$TILEMODE
 70
     1
  9
$MAXACTVP
 70
    64
  9
$PINSBASE
 10
0.0
 20
0.0
 30
0.0
  9
$PLIMCHECK
 70
     0
  9
$PEXTMIN
 10
1.000000000000000E+20
 20
1.000000000000000E+20
 30
1.000000000000000E+20
  9
$PEXTMAX
 10
-1.000000000000000E+20
 20
-1.000000000000000E+20
 30
-1.000000000000000E+20
  9
$PLIMMIN
 10
0.0
 20
0.0
  9
$PLIMMAX
 10
12.0
 20
9.0
  9
$UNITMODE
 70
     0
  9
$VISRETAIN
 70
     1
  9
$PLINEGEN
 70
     0
  9
$PSLTSCALE
 70
     1
  9
$TREEDEPTH
 70
  3020
  9
$CMLSTYLE
  2
Standard
  9
$CMLJUST
 70
     0
  9
$CMLSCALE
 40
1.0
  9
$PROXYGRAPHICS
 70
     1
  9
$MEASUREMENT
 70
     0
  9
$CELWEIGHT
370
    -1
  9
$ENDCAPS
280
     0
  9
$JOINSTYLE
280
     0
  9
$LWDISPLAY
290
     0
  9
$INSUNITS
 70
     4
  9
$HYPERLINKBASE
  1

  9
$STYLESHEET
  1
MONOCHROME.CTB
  9
$XEDIT
290
     1
  9
$CEPSNTYPE
380
     0
  9
$PSTYLEMODE
290
     1
  9
$FINGERPRINTGUID
  2
{4A02065B-8BB3-4A96-9036-502DC906C165}
  9
$VERSIONGUID
  2
{BB80AF19-9572-42ED-92E0-D43BE8D36626}
  9
$EXTNAMES
290
     1
  9
$PSVPSCALE
 40
0.0
  9
$OLESTARTUP
290
     0
  9
$SORTENTS
280
   127
  9
$INDEXCTL
280
     0
  9
$HIDETEXT
280
     0
  9
$XCLIPFRAME
290
     0
  9
$HALOGAP
280
     0
  9
$OBSCOLOR
 70
   257
  9
$OBSLTYPE
280
     0
  9
$INTERSECTIONDISPLAY
280
     0
  9
$INTERSECTIONCOLOR
 70
   257
  9
$DIMASSOC
280
     1
  9
$PROJECTNAME
  1

  9
$CAMERADISPLAY
290
     0
  9
$LENSLENGTH
 40
50.0
  9
$CAMERAHEIGHT
 40
0.0
  9
$STEPSPERSEC
 40
2.0
  9
$STEPSIZE
 40
6.0
  9
$3DDWFPREC
 40
2.0
  9
$PSOLWIDTH
 40
0.25
  9
$PSOLHEIGHT
 40
4.0
  9
$LOFTANG1
 40
1.570796326794896
  9
$LOFTANG2
 40
1.570796326794896
  9
$LOFTMAG1
 40
0.0
  9
$LOFTMAG2
 40
0.0
  9
$LOFTPARAM
 70
     7
  9
$LOFTNORMALS
280
     1
  9
$LATITUDE
 40
37.795
  9
$LONGITUDE
 40
-122.394
  9
$NORTHDIRECTION
 40
0.0
  9
$TIMEZONE
 70
 -8000
  9
$LIGHTGLYPHDISPLAY
280
     1
  9
$TILEMODELIGHTSYNCH
280
     1
  9
$CMATERIAL
347
4FE6
  9
$SOLIDHIST
280
     1
  9
$SHOWHIST
280
     1
  9
$DWFFRAME
280
     2
  9
$DGNFRAME
280
     0
  9
$REALWORLDSCALE
290
     1
  9
$INTERFERECOLOR
 62
     1
  9
$INTERFEREOBJVS
345
33
  9
$INTERFEREVPVS
346
30
  9
$CSHADOW
280
     0
  9
$SHADOWPLANELOCATION
 40
0.0
  0
ENDSEC
  0
SECTION
  2
CLASSES
  0
CLASS
  1
ACDBDICTIONARYWDFLT
  2
AcDbDictionaryWithDefault
  3
ObjectDBX Classes
 90
        0
 91
        1
280
     0
281
     0
  0
CLASS
  1
VISUALSTYLE
  2
AcDbVisualStyle
  3
ObjectDBX Classes
 90
     4095
 91
       16
280
     0
281
     0
  0
CLASS
  1
MATERIAL
  2
AcDbMaterial
  3
ObjectDBX Classes
 90
     1153
 91
        3
280
     0
281
     0
  0
CLASS
  1
TABLESTYLE
  2
AcDbTableStyle
  3
ObjectDBX Classes
 90
     4095
 91
        1
280
     0
281
     0
  0
CLASS
  1
SCALE
  2
AcDbScale
  3
ObjectDBX Classes
 90
     1153
 91
       33
280
     0
281
     0
  0
CLASS
  1
MLEADERSTYLE
  2
AcDbMLeaderStyle
  3
ACDB_MLEADERSTYLE_CLASS
 90
     4095
 91
        1
280
     0
281
     0
  0
CLASS
  1
CELLSTYLEMAP
  2
AcDbCellStyleMap
  3
ObjectDBX Classes
 90
     1152
 91
        2
280
     0
281
     0
  0
CLASS
  1
DICTIONARYVAR
  2
AcDbDictionaryVar
  3
ObjectDBX Classes
 90
        0
 91
        8
280
     0
281
     0
  0
CLASS
  1
SORTENTSTABLE
  2
AcDbSortentsTable
  3
ObjectDBX Classes
 90
        0
 91
        1
280
     0
281
     0
  0
CLASS
  1
ACAD_EVALUATION_GRAPH
  2
AcDbEvalGraph
  3
ObjectDBX Classes
 90
     1153
 91
        0
280
     0
281
     0
  0
CLASS
  1
ACAECUSTOBJ
  2
AcAeEditorObj
  3
AcAeEditorObj
 90
     1024
 91
        0
280
     0
281
     0
  0
CLASS
  1
ACDB_DYNAMICBLOCKPURGEPREVENTER_VERSION
  2
AcDbDynamicBlockPurgePreventer
  3
ObjectDBX Classes
 90
     1153
 91
        0
280
     0
281
     0
  0
CLASS
  1
MENTALRAYRENDERSETTINGS
  2
AcDbMentalRayRenderSettings
  3
SCENEOE
 90
     1024
 91
        1
280
     0
281
     0
  0
CLASS
  1
ACDB_BLOCKREPRESENTATION_DATA
  2
AcDbBlockRepresentationData
  3
ObjectDBX Classes
 90
     1153
 91
        0
280
     0
281
     0
  0
CLASS
  1
DIMASSOC
  2
AcDbDimAssoc
  3
"AcDbDimAssoc|Product Desc:     AcDim ARX App For Dimension|Company:          Autodesk, Inc.|WEB Address:      www.autodesk.com"
 90
        0
 91
        3
280
     0
281
     0
  0
ENDSEC
  0
SECTION
  2
TABLES
  0
TABLE
  2
VPORT
  5
8
102
{ACAD_XDICTIONARY
360
50EE
102
}
330
0
100
AcDbSymbolTable
 70
     1
  0
VPORT
  5
29
330
8
100
AcDbSymbolTableRecord
100
AcDbViewportTableRecord
  2
*Active
 70
     0
 10
0.0
 20
0.0
 11
1.0
 21
1.0
 12
531.0749992639498
 22
84.4470767382819
 13
0.0
 23
0.0
 14
0.5
 24
0.5
 15
0.5
 25
0.5
 16
0.0
 26
0.0
 36
1.0
 17
104.9654968719086
 27
148.5022307685978
 37
0.0
 40
116.0471560860816
 41
1.967136150234741
 42
50.0
 43
0.0
 44
0.0
 50
0.0
 51
0.0
 71
     0
 72
   100
 73
     1
 74
     3
 75
     0
 76
     0
 77
     0
 78
     0
281
     0
 65
     1
110
0.0
120
0.0
130
0.0
111
1.0
121
0.0
131
0.0
112
0.0
122
1.0
132
0.0
 79
     0
146
0.0
348
2F
 60
     3
 61
     5
292
     1
282
     1
141
0.0
142
0.0
 63
   250
421
  3355443
  0
ENDTAB
  0
TABLE
  2
LTYPE
  5
5
330
0
100
AcDbSymbolTable
 70
     5
  0
LTYPE
  5
14
330
5
100
AcDbSymbolTableRecord
100
AcDbLinetypeTableRecord
  2
ByBlock
 70
     0
  3

 72
    65
 73
     0
 40
0.0
  0
LTYPE
  5
15
330
5
100
AcDbSymbolTableRecord
100
AcDbLinetypeTableRecord
  2
ByLayer
 70
     0
  3

 72
    65
 73
     0
 40
0.0
  0
LTYPE
  5
16
330
5
100
AcDbSymbolTableRecord
100
AcDbLinetypeTableRecord
  2
Continuous
 70
     0
  3
Solid line
 72
    65
 73
     0
 40
0.0
  0
LTYPE
  5
16179
330
5
100
AcDbSymbolTableRecord
100
AcDbLinetypeTableRecord
  2
CENTERX2
 70
     0
  3
Center (2x) ________  __  ________  __  _____
 72
    65
 73
     4
 40
4.0
 49
2.5
 74
     0
 49
-0.5
 74
     0
 49
0.5
 74
     0
 49
-0.5
 74
     0
  0
LTYPE
  5
1C844
330
5
100
AcDbSymbolTableRecord
100
AcDbLinetypeTableRecord
  2
CENTER
 70
     0
  3
____ _ ____ _ ____ _ ____ _ ____ _ ____ _ ____
 72
    65
 73
     4
 40
0.6
 49
0.375
 74
     0
 49
-0.075
 74
     0
 49
0.075
 74
     0
 49
-0.075
 74
     0
  0
LTYPE
  5
1DA47
330
5
100
AcDbSymbolTableRecord
100
AcDbLinetypeTableRecord
  2
MITTEL3
 70
     0
  3
_
 72
    65
 73
     4
 40
6.2
 49
0.2
 74
     0
 49
-1.0
 74
     0
 49
4.0
 74
     0
 49
-1.0
 74
     0
  0
LTYPE
  5
1DDF2
330
5
100
AcDbSymbolTableRecord
100
AcDbLinetypeTableRecord
  2
DIVIDE
 70
     0
  3
Divide ____ . . ____ . . ____ . . ____ . . ____
 72
    65
 73
     6
 40
31.75
 49
12.7
 74
     0
 49
-6.349999999999998
 74
     0
 49
0.0
 74
     0
 49
-6.349999999999998
 74
     0
 49
0.0
 74
     0
 49
-6.349999999999998
 74
     0
  0
ENDTAB
  0
TABLE
  2
LAYER
  5
2
102
{ACAD_XDICTIONARY
360
50B8
102
}
330
0
100
AcDbSymbolTable
 70
    11
  0
LAYER
  5
10
102
{ACAD_XDICTIONARY
360
50D0
102
}
330
2
100
AcDbSymbolTableRecord
100
AcDbLayerTableRecord
  2
0
 70
     0
 62
     7
  6
Continuous
370
    30
390
F
347
4FF6
  0
LAYER
  5
3B
102
{ACAD_XDICTIONARY
360
50D2
102
}
330
2
100
AcDbSymbolTableRecord
100
AcDbLayerTableRecord
  2
图层 1
 70
     0
 62
     7
  6
Continuous
370
    -3
390
F
347
4FF6
  0
LAYER
  5
50AE
102
{ACAD_XDICTIONARY
360
50AF
102
}
330
2
100
AcDbSymbolTableRecord
100
AcDbLayerTableRecord
  2
图框
 70
     0
 62
     7
  6
Continuous
370
    20
390
F
347
4FF6
  0
LAYER
  5
5141
330
2
100
AcDbSymbolTableRecord
100
AcDbLayerTableRecord
  2
Defpoints
 70
     0
 62
     7
  6
Continuous
290
     0
370
    -3
390
F
347
4FF6
  0
LAYER
  5
5144
330
2
100
AcDbSymbolTableRecord
100
AcDbLayerTableRecord
  2
DIM
 70
     0
 62
     3
  6
Continuous
370
    15
390
F
347
4FF6
1001
AcAecLayerStandard
1000

1000

  0
LAYER
  5
52F3
330
2
100
AcDbSymbolTableRecord
100
AcDbLayerTableRecord
  2
打标文字
 70
     0
 62
     3
  6
Continuous
370
    20
390
F
347
4FF6
  0
LAYER
  5
11B6B
330
2
100
AcDbSymbolTableRecord
100
AcDbLayerTableRecord
  2
hat
 70
     0
 62
     6
  6
Continuous
370
    15
390
F
347
4FF6
1001
AcAecLayerStandard
1000

1000

  0
LAYER
  5
1BBEF
330
2
100
AcDbSymbolTableRecord
100
AcDbLayerTableRecord
  2
2
 70
     0
 62
     7
  6
Continuous
370
    -3
390
F
347
4FF6
  0
LAYER
  5
1C845
330
2
100
AcDbSymbolTableRecord
100
AcDbLayerTableRecord
  2
CEN
 70
     0
 62
     1
  6
CENTER
370
    13
390
F
347
4FF6
1001
AcAecLayerStandard
1000

1000

  0
LAYER
  5
1DA48
330
2
100
AcDbSymbolTableRecord
100
AcDbLayerTableRecord
  2
1
 70
     0
 62
     7
  6
Continuous
370
    -3
390
F
347
4FF6
  0
LAYER
  5
1DA49
330
2
100
AcDbSymbolTableRecord
100
AcDbLayerTableRecord
  2
3
 70
     0
 62
     7
  6
Continuous
370
    -3
390
F
347
4FF6
  0
ENDTAB
  0
TABLE
  2
STYLE
  5
3
330
0
100
AcDbSymbolTable
 70
     4
  0
STYLE
  5
11
330
3
100
AcDbSymbolTableRecord
100
AcDbTextStyleTableRecord
  2
Standard
 70
     0
 40
0.0
 41
0.75
 50
0.0
 71
     0
 42
0.2
  3

  4

1001
ACAD
1000
仿宋_GB2312
1071
    34353
  0
STYLE
  5
FD48
330
3
100
AcDbSymbolTableRecord
100
AcDbTextStyleTableRecord
  2
Romans字体
 70
     0
 40
0.0
 41
0.75
 50
0.0
 71
     0
 42
0.2
  3
romans.shx
  4

  0
STYLE
  5
11080
330
3
100
AcDbSymbolTableRecord
100
AcDbTextStyleTableRecord
  2
工程字
 70
     0
 40
0.0
 41
1.0
 50
0.0
 71
     0
 42
3.5
  3
gbenor.shx
  4
gbcbig.shx
  0
STYLE
  5
11081
330
3
100
AcDbSymbolTableRecord
100
AcDbTextStyleTableRecord
  2
Chinese
 70
     0
 40
0.0
 41
1.0
 50
0.0
 71
     0
 42
2.5
  3

  4

1001
ACAD
1000
PMingLiU
1071
    34834
  0
ENDTAB
  0
TABLE
  2
VIEW
  5
6
330
0
100
AcDbSymbolTable
 70
     0
  0
ENDTAB
  0
TABLE
  2
UCS
  5
7
330
0
100
AcDbSymbolTable
 70
     0
  0
ENDTAB
  0
TABLE
  2
APPID
  5
9
330
0
100
AcDbSymbolTable
 70
    19
  0
APPID
  5
12
330
9
100
AcDbSymbolTableRecord
100
AcDbRegAppTableRecord
  2
ACAD
 70
     0
  0
APPID
  5
5024
330
9
100
AcDbSymbolTableRecord
100
AcDbRegAppTableRecord
  2
ACAD_MLEADERVER
 70
     0
  0
APPID
  5
50B5
330
9
100
AcDbSymbolTableRecord
100
AcDbRegAppTableRecord
  2
AcDbDynamicBlockGUID
 70
     0
  0
APPID
  5
50B6
330
9
100
AcDbSymbolTableRecord
100
AcDbRegAppTableRecord
  2
AcDbBlockRepETag
 70
     0
  0
APPID
  5
50B7
330
9
100
AcDbSymbolTableRecord
100
AcDbRegAppTableRecord
  2
ACAD_PSEXT
 70
     0
  0
APPID
  5
50CF
330
9
100
AcDbSymbolTableRecord
100
AcDbRegAppTableRecord
  2
AcadAnnoPO
 70
     0
  0
APPID
  5
5146
330
9
100
AcDbSymbolTableRecord
100
AcDbRegAppTableRecord
  2
AcAecLayerStandard
 70
     0
  0
APPID
  5
5147
330
9
100
AcDbSymbolTableRecord
100
AcDbRegAppTableRecord
  2
ACAD_DSTYLE_DIMJAG
 70
     0
  0
APPID
  5
5148
330
9
100
AcDbSymbolTableRecord
100
AcDbRegAppTableRecord
  2
ACAD_DSTYLE_DIMTALN
 70
     0
  0
APPID
  5
52AD
330
9
100
AcDbSymbolTableRecord
100
AcDbRegAppTableRecord
  2
ACAUTHENVIRON
 70
     0
  0
APPID
  5
52B0
330
9
100
AcDbSymbolTableRecord
100
AcDbRegAppTableRecord
  2
AcDbDynamicBlockTrueName
 70
     0
  0
APPID
  5
67C6
330
9
100
AcDbSymbolTableRecord
100
AcDbRegAppTableRecord
  2
ACAD_EXEMPT_FROM_CAD_STANDARDS
 70
     0
  0
APPID
  5
6838
330
9
100
AcDbSymbolTableRecord
100
AcDbRegAppTableRecord
  2
ACAD_NAV_VCDISPLAY
 70
     0
  0
APPID
  5
70A9
330
9
100
AcDbSymbolTableRecord
100
AcDbRegAppTableRecord
  2
DCO15
 70
     0
  0
APPID
  5
8725
330
9
100
AcDbSymbolTableRecord
100
AcDbRegAppTableRecord
  2
AcDbBlockRepBTag
 70
     0
  0
APPID
  5
FE64
330
9
100
AcDbSymbolTableRecord
100
AcDbRegAppTableRecord
  2
ACAD_DSTYLE_DIMRADIAL_EXTENSION
 70
     0
  0
APPID
  5
FF93
330
9
100
AcDbSymbolTableRecord
100
AcDbRegAppTableRecord
  2
ACAD_DSTYLE_DIMBREAK
 70
     0
  0
APPID
  5
15463
330
9
100
AcDbSymbolTableRecord
100
AcDbRegAppTableRecord
  2
ACAD_DSTYLE_DIMINSPECT
 70
     0
  0
APPID
  5
1BBF2
330
9
100
AcDbSymbolTableRecord
100
AcDbRegAppTableRecord
  2
AcadAnnotative
 70
     0
  0
ENDTAB
  0
TABLE
  2
DIMSTYLE
  5
A
330
0
100
AcDbSymbolTable
 70
     8
100
AcDbDimStyleTable
 71
     2
340
5145
340
27
  0
DIMSTYLE
105
27
330
A
100
AcDbSymbolTableRecord
100
AcDbDimStyleTableRecord
  2
Standard
 70
     0
340
11
  0
DIMSTYLE
105
5145
102
{ACAD_REACTORS
330
1C974
330
1C977
330
1C97A
330
1C97D
330
1C980
330
1C983
330
1C986
330
1C989
102
}
330
A
100
AcDbSymbolTableRecord
100
AcDbDimStyleTableRecord
  2
01
 70
     0
 41
1.5
 42
0.2
 43
0.2
 44
0.3
 73
     0
 74
     0
 77
     1
 78
     8
 79
     2
140
2.0
141
0.0
147
0.3
176
     1
177
     6
178
     4
179
     2
271
     1
272
     1
340
FD48
1001
ACAD_DSTYLE_DIMJAG
1070
   388
1040
1.5
1001
ACAD_DSTYLE_DIMTALN
1070
   392
1070
     0
  0
DIMSTYLE
105
1DA4A
330
A
100
AcDbSymbolTableRecord
100
AcDbDimStyleTableRecord
  2
DSTYLE1
 70
     0
 41
1.5
 42
0.0
 44
2.0
 45
0.01
 47
1.0
 48
1.0
 73
     0
 74
     0
 77
     1
 78
    11
140
1.75
143
0.039370079
147
0.8
271
     3
272
     3
274
     0
279
     2
340
11
  0
DIMSTYLE
105
1DDF3
330
A
100
AcDbSymbolTableRecord
100
AcDbDimStyleTableRecord
  2
02
 70
     0
 40
0.65
 41
3.0
 42
0.8
 43
0.1
 44
1.0
 47
0.01
 48
0.000000001
 73
     0
 74
     0
 77
     1
 78
     8
 79
     2
140
3.0
141
0.0
146
0.7
147
0.5
176
     1
177
     6
178
     4
179
     2
271
     2
272
     2
284
     8
340
11
  0
DIMSTYLE
105
1DDF4
330
A
100
AcDbSymbolTableRecord
100
AcDbDimStyleTableRecord
  2
03
 70
     0
 40
0.25
 41
2.0
 42
0.2
 43
0.2
 44
1.0
 47
0.01
 73
     0
 74
     0
 78
     8
 79
     2
140
2.0
141
0.0
146
0.7
147
0.5
176
     1
177
     6
178
     4
179
     2
271
     2
272
     2
283
     0
284
     8
340
11
  0
DIMSTYLE
105
1DDF5
330
A
100
AcDbSymbolTableRecord
100
AcDbDimStyleTableRecord
  2
ye
 70
     0
 40
0.0
 41
1.199999999999999
 42
0.1
 43
0.5
 44
0.1
 73
     0
 74
     0
140
1.5
141
0.0
179
     1
271
     2
272
     2
340
11
  0
DIMSTYLE
105
1DDF6
330
A
100
AcDbSymbolTableRecord
100
AcDbDimStyleTableRecord
  2
02$4
 70
     0
 40
0.65
 41
2.5
 42
0.1
 43
0.1
 44
1.0
 47
0.01
 48
0.000000001
 78
     8
 79
     2
140
2.5
141
0.0
146
0.7
147
0.5
176
     1
177
     6
178
     4
179
     2
271
     2
272
     2
284
     8
340
11
  0
DIMSTYLE
105
1DDF7
330
A
100
AcDbSymbolTableRecord
100
AcDbDimStyleTableRecord
  2
02$2
 70
     0
 40
0.65
 41
2.5
 42
0.1
 43
0.1
 44
1.0
 47
0.01
 48
0.000000001
 78
     8
 79
     2
140
2.5
141
0.0
146
0.7
147
0.5
176
     1
177
     6
178
     4
179
     2
271
     2
272
     2
284
     8
340
11
  0
ENDTAB
  0
TABLE
  2
BLOCK_RECORD
  5
1
330
0
100
AcDbSymbolTable
 70
   107
  0
BLOCK_RECORD
  5
1F
102
{ACAD_XDICTIONARY
360
67C0
102
}
330
1
100
AcDbSymbolTableRecord
100
AcDbBlockTableRecord
  2
*Model_Space
340
22
 70
     0
280
     1
281
     0
  0
BLOCK_RECORD
  5
1B
330
1
100
AcDbSymbolTableRecord
100
AcDbBlockTableRecord
  2
*Paper_Space
340
1E
 70
     0
280
     1
281
     0
  0
BLOCK_RECORD
  5
23
330
1
100
AcDbSymbolTableRecord
100
AcDbBlockTableRecord
  2
*Paper_Space0
340
26
 70
     0
280
     1
281
     0
  0
BLOCK_RECORD
  5
13E17
102
{ACAD_XDICTIONARY
360
1E40F
102
}
330
1
100
AcDbSymbolTableRecord
100
AcDbBlockTableRecord
  2
A4图框-NEW
340
0
310
2800000020000000200000000100080000000000000400000000000000000000000000000000000000000000000080000080000000808000800000008000800080800000C0C0C000C0DCC000F0CAA6000020400000206000002080000020A0000020C0000020E00000400000004020000040400000406000004080000040A0
310
000040C0000040E00000600000006020000060400000606000006080000060A0000060C0000060E00000800000008020000080400000806000008080000080A0000080C0000080E00000A0000000A0200000A0400000A0600000A0800000A0A00000A0C00000A0E00000C0000000C0200000C0400000C0600000C0800000C0
310
A00000C0C00000C0E00000E0000000E0200000E0400000E0600000E0800000E0A00000E0C00000E0E00040000000400020004000400040006000400080004000A0004000C0004000E00040200000402020004020400040206000402080004020A0004020C0004020E000404000004040200040404000404060004040800040
310
40A0004040C0004040E00040600000406020004060400040606000406080004060A0004060C0004060E00040800000408020004080400040806000408080004080A0004080C0004080E00040A0000040A0200040A0400040A0600040A0800040A0A00040A0C00040A0E00040C0000040C0200040C0400040C0600040C08000
310
40C0A00040C0C00040C0E00040E0000040E0200040E0400040E0600040E0800040E0A00040E0C00040E0E00080000000800020008000400080006000800080008000A0008000C0008000E00080200000802020008020400080206000802080008020A0008020C0008020E00080400000804020008040400080406000804080
310
008040A0008040C0008040E00080600000806020008060400080606000806080008060A0008060C0008060E00080800000808020008080400080806000808080008080A0008080C0008080E00080A0000080A0200080A0400080A0600080A0800080A0A00080A0C00080A0E00080C0000080C0200080C0400080C0600080C0
310
800080C0A00080C0C00080C0E00080E0000080E0200080E0400080E0600080E0800080E0A00080E0C00080E0E000C0000000C0002000C0004000C0006000C0008000C000A000C000C000C000E000C0200000C0202000C0204000C0206000C0208000C020A000C020C000C020E000C0400000C0402000C0404000C0406000C0
310
408000C040A000C040C000C040E000C0600000C0602000C0604000C0606000C0608000C060A000C060C000C060E000C0800000C0802000C0804000C0806000C0808000C080A000C080C000C080E000C0A00000C0A02000C0A04000C0A06000C0A08000C0A0A000C0A0C000C0A0E000C0C00000C0C02000C0C04000C0C06000
310
C0C08000C0C0A000F0FBFF00A4A0A000808080000000FF0000FF000000FFFF00FF000000FF00FF00FFFF0000FFFFFF0000000000000000000000000000000000000000000000000000000000000000000000000000000000000000000000000000000000000000000000000000000000000000000000000000000000000000
310
000000000000000000000000000000000000000000000000000000000000000000000000000000000000000000000000000000000000000000000000000000000000000000000000000000000000000000000000000000000000000000000000000000000000000000000000000000000000F9F9F9F9F9F9F9F9F9F9F9F9F9
310
F9F9F9F9F9F9F9F9F9F9F9F9F9F9FF00000000F9FF000000000000000000FFFFFFFFFFFFFFFFFFFFFFFFF9FAFAFAFF00000000F9FF000000000000000000FFFFFFFFFFFFFFFFFFFFFFFFFFFFFFFFFF00000000F9FD000000000000000000FFFFFFFFFFFFFFFFFFFFFFFFFFFFFFFFFF00000000F9FF000000000000000000FF
310
FFFFFFFFFFFFFFFFFFFFFFFFFFFFFFFF00000000F9FD000000000000000000FFFFFFFFFFFFFFFFFFFFFFFFFFFFFFFFFF00000000F9FF00000000000000000000000000000000000000000000000000FF00000000F9FD00000000000000000000000000000000000000000000000000FF00000000F9FF000000000000000000
310
00000000000000000000000000000000FF00000000F9FD00000000000000000000000000000000000000000000000000FF00000000F9FF00000000000000000000000000000000000000000000000000FF00000000F9FD00000000000000000000000000000000000000000000000000FF00000000F9FD0000000000000000
310
0000000000000000000000000000000000FF00000000F9FF00000000000000000000000000000000000000000000000000FF00000000F9FD00000000000000000000000000000000000000000000000000FF00000000F9FF00000000000000000000000000000000000000000000000000FF00000000F9FD00000000000000
310
000000000000000000000000000000000000FF00000000F9FF00000000000000000000000000000000000000000000000000FF00000000F9FFFFFFFFFFFFFFFFFFFFFFFFFFFFFFFFFFFFFFFFFFFFFFFFFFFFFF00000000F9FFFFFFF9F9F9F9F9F9F9F9F9F9F9F9F9F9F9F9F9F9F9F9F9F9F9F9000000000000000000000000
310
00000000000000000000000000000000000000000000000000000000000000000000000000000000000000000000000000000000000000000000000000000000000000000000000000000000000000000000000000000000000000000000000000000000000000000000000000000000000000000000000000000000000000
310
0000000000000000000000000000000000000000000000000000000000000000000000000000000000000000000000000000000000000000
102
{BLKREFS
331
1556A
102
}
 70
     4
280
     1
281
     0
1001
AcDbDynamicBlockGUID
1000
{92DDD0FB-1D45-4DAE-85FA-C78BC02B7695}
1001
AcDbBlockRepETag
1070
     1
1071
      149
  0
BLOCK_RECORD
  5
1C996
330
1
100
AcDbSymbolTableRecord
100
AcDbBlockTableRecord
  2
*D20
340
0
 70
     0
280
     1
281
     0
  0
BLOCK_RECORD
  5
1C9A2
330
1
100
AcDbSymbolTableRecord
100
AcDbBlockTableRecord
  2
*D21
340
0
 70
     0
280
     1
281
     0
  0
BLOCK_RECORD
  5
1C9AE
330
1
100
AcDbSymbolTableRecord
100
AcDbBlockTableRecord
  2
*D22
340
0
 70
     0
280
     1
281
     0
  0
BLOCK_RECORD
  5
1C9BA
330
1
100
AcDbSymbolTableRecord
100
AcDbBlockTableRecord
  2
*D23
340
0
 70
     0
280
     1
281
     0
  0
BLOCK_RECORD
  5
1C9C6
330
1
100
AcDbSymbolTableRecord
100
AcDbBlockTableRecord
  2
*D24
340
0
 70
     0
280
     1
281
     0
  0
BLOCK_RECORD
  5
1C9D2
330
1
100
AcDbSymbolTableRecord
100
AcDbBlockTableRecord
  2
*D25
340
0
 70
     0
280
     1
281
     0
  0
BLOCK_RECORD
  5
1C9DE
330
1
100
AcDbSymbolTableRecord
100
AcDbBlockTableRecord
  2
*D26
340
0
 70
     0
280
     1
281
     0
  0
BLOCK_RECORD
  5
1C9EA
330
1
100
AcDbSymbolTableRecord
100
AcDbBlockTableRecord
  2
*D27
340
0
 70
     0
280
     1
281
     0
  0
BLOCK_RECORD
  5
1D9F9
330
1
100
AcDbSymbolTableRecord
100
AcDbBlockTableRecord
  2
_AH13
340
0
102
{BLKREFS
331
1D9F5
331
1D9F6
331
1DA03
331
1DA04
331
1DA0D
331
1DA0E
331
1DA17
331
1DA18
331
1DA21
331
1DA22
331
1DC25
331
1DC26
331
1DC2F
331
1DC30
331
1DC39
331
1DC3A
331
1DC43
331
1DC44
331
1DC4D
331
1DC4E
102
}
 70
     0
280
     1
281
     0
  0
BLOCK_RECORD
  5
1DA25
330
1
100
AcDbSymbolTableRecord
100
AcDbBlockTableRecord
  2
*X42
340
0
102
{BLKREFS
331
1DC90
102
}
 70
     0
280
     1
281
     0
  0
ENDTAB
  0
ENDSEC
  0
SECTION
  2
BLOCKS
  0
BLOCK
  5
20
330
1F
100
AcDbEntity
  8
0
100
AcDbBlockBegin
  2
*Model_Space
 70
     0
 10
0.0
 20
0.0
 30
0.0
  3
*Model_Space
  1

  0
ENDBLK
  5
21
330
1F
100
AcDbEntity
  8
0
100
AcDbBlockEnd
  0
BLOCK
  5
1C
330
1B
100
AcDbEntity
 67
     1
  8
0
100
AcDbBlockBegin
  2
*Paper_Space
 70
     0
 10
0.0
 20
0.0
 30
0.0
  3
*Paper_Space
  1

  0
ENDBLK
  5
1D
330
1B
100
AcDbEntity
 67
     1
  8
0
100
AcDbBlockEnd
  0
BLOCK
  5
24
330
23
100
AcDbEntity
 67
     1
  8
0
100
AcDbBlockBegin
  2
*Paper_Space0
 70
     0
 10
0.0
 20
0.0
 30
0.0
  3
*Paper_Space0
  1

  0
ENDBLK
  5
25
330
23
100
AcDbEntity
 67
     1
  8
0
100
AcDbBlockEnd
  0
BLOCK
  5
13E19
330
13E17
100
AcDbEntity
  8
0
100
AcDbBlockBegin
  2
A4图框-NEW
 70
     0
 10
0.0
 20
0.0
 30
0.0
  3
A4图框-NEW
  1

  0
MTEXT
  5
1E37A
102
{ACAD_XDICTIONARY
360
1E441
102
}
330
13E17
100
AcDbEntity
  8
图框
 62
     3
100
AcDbMText
 10
967.6594956750133
 20
499.7664151964293
 30
0.0
 40
2.985513575034151
 41
15.50176341157864
 46
6.292658374511018
 71
     5
 72
     5
  1
BQ LUO
  7
Romans字体
 73
     1
 44
1.0
1001
AcDbBlockRepETag
1070
     1
1071
        0
1005
1E37A
1001
ACAD
1000
ACAD_MTEXT_DEFINED_HEIGHT_BEGIN
1070
    46
1040
6.292658374511018
1000
ACAD_MTEXT_DEFINED_HEIGHT_END
  0
MTEXT
  5
1E37B
330
13E17
100
AcDbEntity
  8
图框
 62
     3
100
AcDbMText
 10
983.041569333247
 20
499.7664151964293
 30
0.0
 40
2.487927979195124
 41
15.26238390489062
 46
6.292658374511042
 71
     5
 72
     5
  1
{\W0.7;18.10.2010}
  7
Romans字体
 73
     1
 44
1.0
1001
AcDbBlockRepETag
1070
     1
1071
        1
1005
1E37B
1001
ACAD
1000
ACAD_MTEXT_DEFINED_HEIGHT_BEGIN
1070
    46
1040
6.292658374511042
1000
ACAD_MTEXT_DEFINED_HEIGHT_END
  0
MTEXT
  5
1E37C
330
13E17
100
AcDbEntity
  8
图框
 62
     3
100
AcDbMText
 10
1012.477254728976
 20
487.1810984474071
 30
0.0
 40
2.985513575034151
 41
17.64876416884615
 46
6.292658374511455
 71
     5
 72
     5
  1
YY LIN
  7
Romans字体
 73
     1
 44
1.0
1001
AcDbBlockRepETag
1070
     1
1071
        2
1005
1E37C
1001
ACAD
1000
ACAD_MTEXT_DEFINED_HEIGHT_BEGIN
1070
    46
1040
6.292658374511455
1000
ACAD_MTEXT_DEFINED_HEIGHT_END
  0
MTEXT
  5
1E37D
330
13E17
100
AcDbEntity
  8
图框
 62
     3
100
AcDbMText
 10
1028.977802139886
 20
487.1810984474071
 30
0.0
 40
2.487927979195124
 41
15.35233065297276
 46
6.292658374511495
 71
     5
 72
     5
  1
{\W0.7;18.10.2010}
  7
Romans字体
 73
     1
 44
1.0
1001
AcDbBlockRepETag
1070
     1
1071
        3
1005
1E37D
1001
ACAD
1000
ACAD_MTEXT_DEFINED_HEIGHT_BEGIN
1070
    46
1040
6.292658374511495
1000
ACAD_MTEXT_DEFINED_HEIGHT_END
  0
MTEXT
  5
1E37E
330
13E17
100
AcDbEntity
  8
图框
 62
     3
100
AcDbMText
 10
1063.722665487208
 20
525.4145966538831
 30
0.0
 40
2.985513575034151
 41
32.4973914334545
 46
11.82914190181707
 71
     5
 72
     5
  1
-
  7
Romans字体
 73
     1
 44
1.0
1001
AcDbBlockRepETag
1070
     1
1071
        4
1005
1E37E
1001
ACAD
1000
ACAD_MTEXT_DEFINED_HEIGHT_BEGIN
1070
    46
1040
11.82914190181707
1000
ACAD_MTEXT_DEFINED_HEIGHT_END
  0
MTEXT
  5
1E37F
330
13E17
100
AcDbEntity
  8
图框
 62
     3
100
AcDbMText
 10
1063.727338552349
 20
513.5854547520641
 30
0.0
 40
2.985513575034151
 41
32.48804530317308
 46
11.82914190182139
 71
     5
 72
     5
  1
-
  7
Romans字体
 73
     1
 44
1.0
1001
AcDbBlockRepETag
1070
     1
1071
        5
1005
1E37F
1001
ACAD
1000
ACAD_MTEXT_DEFINED_HEIGHT_BEGIN
1070
    46
1040
11.82914190182139
1000
ACAD_MTEXT_DEFINED_HEIGHT_END
  0
MTEXT
  5
1E380
330
13E17
100
AcDbEntity
  8
图框
 62
     3
100
AcDbMText
 10
1110.122306614152
 20
526.8006839312707
 30
0.0
 40
2.985513575034151
 41
33.61239199242139
 46
9.05696734704178
 71
     5
 72
     5
  1
-
  7
Romans字体
 73
     1
 44
1.0
1001
AcDbBlockRepETag
1070
     1
1071
        6
1005
1E380
1001
ACAD
1000
ACAD_MTEXT_DEFINED_HEIGHT_BEGIN
1070
    46
1040
9.05696734704178
1000
ACAD_MTEXT_DEFINED_HEIGHT_END
  0
MTEXT
  5
1E381
330
13E17
100
AcDbEntity
  8
图框
 62
     3
100
AcDbMText
 10
1110.122306614152
 20
500.2775205517162
 30
0.0
 40
2.985513575034151
 41
33.61239199242139
 46
8.871557304763419
 71
     5
 72
     5
  1
-
  7
Romans字体
 73
     1
 44
1.0
1001
AcDbBlockRepETag
1070
     1
1071
        7
1005
1E381
1001
ACAD
1000
ACAD_MTEXT_DEFINED_HEIGHT_BEGIN
1070
    46
1040
8.871557304763419
1000
ACAD_MTEXT_DEFINED_HEIGHT_END
  0
MTEXT
  5
1E382
330
13E17
100
AcDbEntity
  8
图框
 62
     3
100
AcDbMText
 10
967.6594956750133
 20
493.4737568219182
 30
0.0
 40
2.985513575034151
 41
15.50176341157864
 46
6.292658374510335
 71
     5
 72
     5
  1
P RAO
  7
Romans字体
 73
     1
 44
1.0
1001
AcDbBlockRepETag
1070
     1
1071
        8
1005
1E382
1001
ACAD
1000
ACAD_MTEXT_DEFINED_HEIGHT_BEGIN
1070
    46
1040
6.292658374510335
1000
ACAD_MTEXT_DEFINED_HEIGHT_END
  0
MTEXT
  5
1E383
330
13E17
100
AcDbEntity
  8
图框
 62
     3
100
AcDbMText
 10
983.041569333247
 20
493.2441970450405
 30
0.0
 40
2.487927979195124
 41
15.26238390489051
 46
6.751777928266487
 71
     5
 72
     5
  1
{\W0.7;18.10.2010}
  7
Romans字体
 73
     1
 44
1.0
1001
AcDbBlockRepETag
1070
     1
1071
        9
1005
1E383
1001
ACAD
1000
ACAD_MTEXT_DEFINED_HEIGHT_BEGIN
1070
    46
1040
6.751777928266487
1000
ACAD_MTEXT_DEFINED_HEIGHT_END
  0
MTEXT
  5
1E384
330
13E17
100
AcDbEntity
  8
图框
 62
     3
100
AcDbMText
 10
1012.477254728976
 20
499.7664151964291
 30
0.0
 40
2.985513575034151
 41
17.64876416884615
 46
6.292658374511397
 71
     5
 72
     5
  1
-
  7
Romans字体
 73
     1
 44
1.0
1001
AcDbBlockRepETag
1070
     1
1071
       10
1005
1E384
1001
ACAD
1000
ACAD_MTEXT_DEFINED_HEIGHT_BEGIN
1070
    46
1040
6.292658374511397
1000
ACAD_MTEXT_DEFINED_HEIGHT_END
  0
MTEXT
  5
1E385
330
13E17
100
AcDbEntity
  8
图框
 62
     3
100
AcDbMText
 10
1028.977802139886
 20
499.7664151964289
 30
0.0
 40
2.487927979195124
 41
15.35233065297265
 46
6.292658374511382
 71
     5
 72
     5
  1
-
  7
Romans字体
 73
     1
 44
1.0
1001
AcDbBlockRepETag
1070
     1
1071
       11
1005
1E385
1001
ACAD
1000
ACAD_MTEXT_DEFINED_HEIGHT_BEGIN
1070
    46
1040
6.292658374511382
1000
ACAD_MTEXT_DEFINED_HEIGHT_END
  0
MTEXT
  5
1E386
330
13E17
100
AcDbEntity
  8
图框
 62
     3
100
AcDbMText
 10
967.6594956750133
 20
487.1810984474071
 30
0.0
 40
2.985513575034151
 41
15.50176341157863
 46
6.292658374511478
 71
     5
 72
     5
  1
-
  7
Romans字体
 73
     1
 44
1.0
1001
AcDbBlockRepETag
1070
     1
1071
       12
1005
1E386
1001
ACAD
1000
ACAD_MTEXT_DEFINED_HEIGHT_BEGIN
1070
    46
1040
6.292658374511478
1000
ACAD_MTEXT_DEFINED_HEIGHT_END
  0
MTEXT
  5
1E387
330
13E17
100
AcDbEntity
  8
图框
 62
     3
100
AcDbMText
 10
983.041569333247
 20
487.1810984474071
 30
0.0
 40
2.487927979195124
 41
15.26238390489062
 46
6.292658374511495
 71
     5
 72
     5
  1
-
  7
Romans字体
 73
     1
 44
1.0
1001
AcDbBlockRepETag
1070
     1
1071
       13
1005
1E387
1001
ACAD
1000
ACAD_MTEXT_DEFINED_HEIGHT_BEGIN
1070
    46
1040
6.292658374511495
1000
ACAD_MTEXT_DEFINED_HEIGHT_END
  0
MTEXT
  5
1E388
330
13E17
100
AcDbEntity
  8
图框
 62
     3
100
AcDbMText
 10
1074.556686986741
 20
495.8417418993361
 30
0.0
 40
2.985513575034151
 41
10.82934843438978
 46
7.886094601210427
 71
     5
 72
     5
  1
-
  7
Romans字体
 73
     1
 44
1.0
1001
AcDbBlockRepETag
1070
     1
1071
       14
1005
1E388
1001
ACAD
1000
ACAD_MTEXT_DEFINED_HEIGHT_BEGIN
1070
    46
1040
7.886094601210427
1000
ACAD_MTEXT_DEFINED_HEIGHT_END
  0
LINE
  5
1E389
330
13E17
100
AcDbEntity
  8
图框
370
    -3
100
AcDbLine
 10
1036.653967466372
 20
499.7847891999413
 30
0.0
 11
1079.971361203936
 21
499.7847891999413
 31
0.0
1001
AcDbBlockRepETag
1070
     1
1071
       15
1005
1E389
  0
MTEXT
  5
1E38A
330
13E17
100
AcDbEntity
  8
图框
 62
     1
370
    20
100
AcDbMText
 10
1108.26336443907
 20
491.5162596080882
 30
0.0
 40
2.699054613030988
 41
82.30831305643079
 46
0.0
 71
     5
 72
     5
  1
{\fSimHei|b0|i0|c134|p2;厦门唯恩电气有限公司}
 73
     1
 44
1.0
1001
AcDbBlockRepETag
1070
     1
1071
       16
1005
1E38A
  0
MTEXT
  5
1E38B
330
13E17
100
AcDbEntity
  8
图框
 62
     3
370
    20
100
AcDbMText
 10
1108.435451459908
 20
487.298967726064
 30
0.0
 40
1.652482416141417
 41
68.08558693693567
 46
0.0
 71
     5
 72
     5
  1
{\fArial Narrow|b0|i0|c0|p34;XIAMEN WAIN ELECTRICAL CO.LTD}
  7
工程字
 73
     1
 44
1.0
1001
AcDbBlockRepETag
1070
     1
1071
       17
1005
1E38B
  0
MTEXT
  5
1E38C
330
13E17
100
AcDbEntity
  8
图框
 62
     1
370
    20
100
AcDbMText
 10
1085.711816899387
 20
491.0944802995856
 30
0.0
 40
2.005930044038334
 41
5.047240019334847
 46
0.0
 71
     1
 72
     5
  1
{\fArial|b0|i0|c0|p34;A}
  7
Chinese
 73
     1
 44
1.0
1001
AcDbBlockRepETag
1070
     1
1071
       18
1005
1E38C
  0
MTEXT
  5
1E38D
330
13E17
100
AcDbEntity
  8
图框
 62
     1
370
    20
100
AcDbMText
 10
1088.213485935716
 20
491.0944802995856
 30
0.0
 40
2.005930044038334
 41
5.047240019334847
 46
0.0
 71
     1
 72
     5
  1
{\fArial|b0|i0|c0|p34;I}
  7
Chinese
 73
     1
 44
1.0
1001
AcDbBlockRepETag
1070
     1
1071
       19
1005
1E38D
  0
MTEXT
  5
1E38E
330
13E17
100
AcDbEntity
  8
图框
 62
     1
370
    20
100
AcDbMText
 10
1089.142375222864
 20
491.0822866326808
 30
0.0
 40
2.005930044038334
 41
5.047240019334847
 46
0.0
 71
     1
 72
     5
  1
{\fArial|b0|i0|c0|p34;N}
  7
Chinese
 73
     1
 44
1.0
1001
AcDbBlockRepETag
1070
     1
1071
       20
1005
1E38E
  0
MTEXT
  5
1E38F
330
13E17
100
AcDbEntity
  8
图框
100
AcDbMText
 10
1069.142012769545
 20
487.9667319294409
 30
0.0
 40
2.252848170144607
 41
21.65869686878327
 46
7.863925338579296
 71
     5
 72
     5
  1
{\W0.5;\C1;All Dimensions in mm\POriginal Size DIN A 4}
  7
Romans字体
 73
     1
 44
1.0
1001
AcDbBlockRepETag
1070
     1
1071
       21
1005
1E38F
1001
ACAD
1000
ACAD_MTEXT_DEFINED_HEIGHT_BEGIN
1070
    46
1040
7.863925338579296
1000
ACAD_MTEXT_DEFINED_HEIGHT_END
  0
MTEXT
  5
1E390
330
13E17
100
AcDbEntity
  8
图框
  6
ByBlock
 62
     6
370
    18
100
AcDbMText
 10
1127.40434942308
 20
508.7896535755975
 30
0.0
 40
2.651776162684904
 41
2.557913877927211
 46
0.0
 71
     1
 72
     5
  1
A
  7
Romans字体
 11
0.0000000000000001
 21
1.0
 31
0.0
 73
     1
 44
1.0
1001
AcDbBlockRepETag
1070
     1
1071
       22
1005
1E390
  0
MTEXT
  5
1E391
330
13E17
100
AcDbEntity
  8
图框
 62
     6
100
AcDbMText
 10
1127.40434942308
 20
556.3746573232886
 30
0.0
 40
2.651776162684904
 41
2.557913877927211
 46
0.0
 71
     1
 72
     5
  1
B
  7
Romans字体
 11
0.0000000000000001
 21
1.0
 31
0.0
 73
     1
 44
1.0
1001
AcDbBlockRepETag
1070
     1
1071
       23
1005
1E391
  0
MTEXT
  5
1E392
330
13E17
100
AcDbEntity
  8
图框
 62
     6
100
AcDbMText
 10
1127.40434942308
 20
607.5539372630998
 30
0.0
 40
2.651776162684904
 41
2.557913877927211
 46
0.0
 71
     1
 72
     5
  1
C
  7
Romans字体
 11
0.0000000000000001
 21
1.0
 31
0.0
 73
     1
 44
1.0
1001
AcDbBlockRepETag
1070
     1
1071
       24
1005
1E392
  0
MTEXT
  5
1E393
330
13E17
100
AcDbEntity
  8
图框
 62
     6
100
AcDbMText
 10
1127.40434942308
 20
658.7332172029115
 30
0.0
 40
2.651776162684904
 41
2.557913877927211
 46
0.0
 71
     1
 72
     5
  1
D
  7
Romans字体
 11
0.0000000000000001
 21
1.0
 31
0.0
 73
     1
 44
1.0
1001
AcDbBlockRepETag
1070
     1
1071
       25
1005
1E393
  0
LINE
  5
1E394
330
13E17
100
AcDbEntity
  8
图框
 62
     6
100
AcDbLine
 10
1130.411601781241
 20
634.0726090796082
 30
0.0
 11
1126.928502610363
 21
634.0726090796082
 31
0.0
1001
AcDbBlockRepETag
1070
     1
1071
       26
1005
1E394
  0
LINE
  5
1E395
330
13E17
100
AcDbEntity
  8
图框
 62
     6
100
AcDbLine
 10
1130.411601781241
 20
582.89332913979
 30
0.0
 11
1126.928502610363
 21
582.89332913979
 31
0.0
1001
AcDbBlockRepETag
1070
     1
1071
       27
1005
1E395
  0
MTEXT
  5
1E396
330
13E17
100
AcDbEntity
  8
图框
 62
     6
100
AcDbMText
 10
1105.329704038389
 20
483.6164543011163
 30
0.0
 40
2.651776162684904
 41
2.557913877927211
 46
0.0
 71
     1
 72
     5
  1
6
  7
Romans字体
 73
     1
 44
1.0
1001
AcDbBlockRepETag
1070
     1
1071
       28
1005
1E396
  0
LINE
  5
1E397
330
13E17
100
AcDbEntity
  8
图框
 62
     6
100
AcDbLine
 10
1081.088565155284
 20
484.0347692601515
 30
0.0
 11
1081.088565155284
 21
480.5347692601475
 31
0.0
1001
AcDbBlockRepETag
1070
     1
1071
       29
1005
1E397
  0
MTEXT
  5
1E398
330
13E17
100
AcDbEntity
  8
图框
 62
     6
100
AcDbMText
 10
1055.900596365941
 20
483.520053108993
 30
0.0
 40
2.651776162684904
 41
2.557913877927211
 46
0.0
 71
     1
 72
     5
  1
5
  7
Romans字体
 73
     1
 44
1.0
1001
AcDbBlockRepETag
1070
     1
1071
       30
1005
1E398
  0
LINE
  5
1E399
330
13E17
100
AcDbEntity
  8
图框
 62
     6
100
AcDbLine
 10
1031.553386436349
 20
484.0347692601515
 30
0.0
 11
1031.553386436349
 21
480.5347692601475
 31
0.0
1001
AcDbBlockRepETag
1070
     1
1071
       31
1005
1E399
  0
MTEXT
  5
1E39A
330
13E17
100
AcDbEntity
  8
图框
 62
     6
100
AcDbMText
 10
1006.383180575197
 20
483.5687958215896
 30
0.0
 40
2.651776162684904
 41
2.557913877927211
 46
0.0
 71
     1
 72
     5
  1
4
  7
Romans字体
 73
     1
 44
1.0
1001
AcDbBlockRepETag
1070
     1
1071
       32
1005
1E39A
  0
LINE
  5
1E39B
330
13E17
100
AcDbEntity
  8
图框
 62
     6
100
AcDbLine
 10
982.0182077173887
 20
484.0347692601515
 30
0.0
 11
982.0182077173887
 21
480.5347692601475
 31
0.0
1001
AcDbBlockRepETag
1070
     1
1071
       33
1005
1E39B
  0
MTEXT
  5
1E39C
330
13E17
100
AcDbEntity
  8
图框
 62
     6
100
AcDbMText
 10
956.8302389280352
 20
483.5989680297948
 30
0.0
 40
2.651776162684904
 41
2.557913877927211
 46
0.0
 71
     1
 72
     5
  1
3
  7
Romans字体
 73
     1
 44
1.0
1001
AcDbBlockRepETag
1070
     1
1071
       34
1005
1E39C
  0
LINE
  5
1E39D
330
13E17
100
AcDbEntity
  8
图框
 62
     6
100
AcDbLine
 10
932.4830289984245
 20
484.0347692601515
 30
0.0
 11
932.4830289984245
 21
480.5347692601475
 31
0.0
1001
AcDbBlockRepETag
1070
     1
1071
       35
1005
1E39D
  0
MTEXT
  5
1E39E
330
13E17
100
AcDbEntity
  8
图框
 62
     6
100
AcDbMText
 10
906.0252349826365
 20
483.6475250013156
 30
0.0
 40
2.651776162684904
 41
2.557913877927211
 46
0.0
 71
     1
 72
     5
  1
2
  7
Romans字体
 73
     1
 44
1.0
1001
AcDbBlockRepETag
1070
     1
1071
       36
1005
1E39E
  0
LINE
  5
1E39F
330
13E17
100
AcDbEntity
  8
图框
 62
     6
100
AcDbLine
 10
882.9478502794648
 20
484.0347692601515
 30
0.0
 11
882.9478502794648
 21
480.5347692601475
 31
0.0
1001
AcDbBlockRepETag
1070
     1
1071
       37
1005
1E39F
  0
MTEXT
  5
1E3A0
330
13E17
100
AcDbEntity
  8
图框
 62
     6
100
AcDbMText
 10
857.7598814901191
 20
483.651829494754
 30
0.0
 40
2.651776162684904
 41
2.557913877927211
 46
0.0
 71
     1
 72
     5
  1
1
  7
Romans字体
 73
     1
 44
1.0
1001
AcDbBlockRepETag
1070
     1
1071
       38
1005
1E3A0
  0
LINE
  5
1E3A1
330
13E17
100
AcDbEntity
  8
图框
370
    50
100
AcDbLine
 10
836.8548209370597
 20
484.0347692601515
 30
0.0
 11
1126.928502610363
 21
484.0347692601515
 31
0.0
1001
AcDbBlockRepETag
1070
     1
1071
       39
1005
1E3A1
  0
LINE
  5
1E3A2
330
13E17
100
AcDbEntity
  8
图框
370
    50
100
AcDbLine
 10
836.9128518455362
 20
484.0178684310246
 30
0.0
 11
836.9128518455394
 21
675.0207195125422
 31
0.0
1001
AcDbBlockRepETag
1070
     1
1071
       40
1005
1E3A2
  0
MTEXT
  5
1E3A3
330
13E17
100
AcDbEntity
  8
图框
 62
     6
100
AcDbMText
 10
833.8475685789031
 20
658.7332172029115
 30
0.0
 40
2.651776162684904
 41
2.557913877927211
 46
0.0
 71
     1
 72
     5
  1
D
  7
Romans字体
 11
0.0000000000000001
 21
1.0
 31
0.0
 73
     1
 44
1.0
1001
AcDbBlockRepETag
1070
     1
1071
       41
1005
1E3A3
  0
LINE
  5
1E3A4
330
13E17
100
AcDbEntity
  8
图框
 62
     6
100
AcDbLine
 10
836.9128518455386
 20
634.0726090796082
 30
0.0
 11
833.4128518455365
 21
634.0726090796082
 31
0.0
1001
AcDbBlockRepETag
1070
     1
1071
       42
1005
1E3A4
  0
MTEXT
  5
1E3A5
330
13E17
100
AcDbEntity
  8
图框
 62
     6
100
AcDbMText
 10
833.9039177480142
 20
607.5539372630998
 30
0.0
 40
2.651776162684904
 41
2.557913877927211
 46
0.0
 71
     1
 72
     5
  1
C
  7
Romans字体
 11
0.0000000000000001
 21
1.0
 31
0.0
 73
     1
 44
1.0
1001
AcDbBlockRepETag
1070
     1
1071
       43
1005
1E3A5
  0
LINE
  5
1E3A6
330
13E17
100
AcDbEntity
  8
图框
 62
     6
100
AcDbLine
 10
836.9128518455378
 20
582.89332913979
 30
0.0
 11
833.4128518455365
 21
582.89332913979
 31
0.0
1001
AcDbBlockRepETag
1070
     1
1071
       44
1005
1E3A6
  0
MTEXT
  5
1E3A7
330
13E17
100
AcDbEntity
  8
图框
 62
     6
100
AcDbMText
 10
833.9039177480142
 20
556.3746573232886
 30
0.0
 40
2.651776162684904
 41
2.557913877927211
 46
0.0
 71
     1
 72
     5
  1
B
  7
Romans字体
 11
0.0000000000000001
 21
1.0
 31
0.0
 73
     1
 44
1.0
1001
AcDbBlockRepETag
1070
     1
1071
       45
1005
1E3A7
  0
LINE
  5
1E3A8
330
13E17
100
AcDbEntity
  8
图框
 62
     6
100
AcDbLine
 10
836.9128518455367
 20
531.714049199969
 30
0.0
 11
833.4128518455365
 21
531.714049199969
 31
0.0
1001
AcDbBlockRepETag
1070
     1
1071
       46
1005
1E3A8
  0
MTEXT
  5
1E3A9
330
13E17
100
AcDbEntity
  8
图框
 62
     6
100
AcDbMText
 10
833.9039177480142
 20
508.7896535755975
 30
0.0
 40
2.651776162684904
 41
2.557913877927211
 46
0.0
 71
     1
 72
     5
  1
A
  7
Romans字体
 11
0.0000000000000001
 21
1.0
 31
0.0
 73
     1
 44
1.0
1001
AcDbBlockRepETag
1070
     1
1071
       47
1005
1E3A9
  0
LINE
  5
1E3AA
330
13E17
100
AcDbEntity
  8
图框
370
    -3
100
AcDbLine
 10
836.9128518455394
 20
675.0207195125422
 30
0.0
 11
836.9128518455394
 21
684.5021384922564
 31
0.0
1001
AcDbBlockRepETag
1070
     1
1071
       48
1005
1E3AA
  0
LINE
  5
1E3AB
330
13E17
100
AcDbEntity
  8
图框
370
    -3
100
AcDbLine
 10
842.6237321475781
 20
675.5347692601515
 30
0.0
 11
842.6237321475781
 21
685.0161882398658
 31
0.0
1001
AcDbBlockRepETag
1070
     1
1071
       49
1005
1E3AB
  0
LINE
  5
1E3AC
330
13E17
100
AcDbEntity
  8
图框
370
    -3
100
AcDbLine
 10
848.3346124496179
 20
675.5347692601515
 30
0.0
 11
848.3346124496179
 21
685.0161882398658
 31
0.0
1001
AcDbBlockRepETag
1070
     1
1071
       50
1005
1E3AC
  0
LINE
  5
1E3AD
330
13E17
100
AcDbEntity
  8
图框
370
    -3
100
AcDbLine
 10
854.0454927516588
 20
675.5347692601515
 30
0.0
 11
854.0454927516588
 21
685.0161882398658
 31
0.0
1001
AcDbBlockRepETag
1070
     1
1071
       51
1005
1E3AD
  0
LINE
  5
1E3AE
330
13E17
100
AcDbEntity
  8
图框
370
    -3
100
AcDbLine
 10
861.5351874539182
 20
675.5347692601515
 30
0.0
 11
861.5351874539182
 21
686.7901958362482
 31
0.0
1001
AcDbBlockRepETag
1070
     1
1071
       52
1005
1E3AE
  0
MTEXT
  5
1E3AF
330
13E17
100
AcDbEntity
  8
图框
 62
     6
100
AcDbMText
 10
1105.329704038389
 20
678.859919059449
 30
0.0
 40
2.651776162684904
 41
2.557913877927211
 46
0.0
 71
     1
 72
     5
  1
6
  7
Romans字体
 73
     1
 44
1.0
1001
AcDbBlockRepETag
1070
     1
1071
       53
1005
1E3AF
  0
LINE
  5
1E3B0
330
13E17
100
AcDbEntity
  8
图框
 62
     6
100
AcDbLine
 10
1081.088565155284
 20
679.0347692601516
 30
0.0
 11
1081.088565155284
 21
675.5347692601515
 31
0.0
1001
AcDbBlockRepETag
1070
     1
1071
       54
1005
1E3B0
  0
MTEXT
  5
1E3B1
330
13E17
100
AcDbEntity
  8
图框
 62
     6
100
AcDbMText
 10
1055.900596365941
 20
678.859919059449
 30
0.0
 40
2.651776162684904
 41
2.557913877927211
 46
0.0
 71
     1
 72
     5
  1
5
  7
Romans字体
 73
     1
 44
1.0
1001
AcDbBlockRepETag
1070
     1
1071
       55
1005
1E3B1
  0
LINE
  5
1E3B2
330
13E17
100
AcDbEntity
  8
图框
 62
     6
100
AcDbLine
 10
1031.553386436349
 20
679.0347692601516
 30
0.0
 11
1031.553386436349
 21
675.5347692601515
 31
0.0
1001
AcDbBlockRepETag
1070
     1
1071
       56
1005
1E3B2
  0
MTEXT
  5
1E3B3
330
13E17
100
AcDbEntity
  8
图框
 62
     6
100
AcDbMText
 10
1006.36541764698
 20
678.7312083656147
 30
0.0
 40
2.651776162684904
 41
2.557913877927211
 46
0.0
 71
     1
 72
     5
  1
4
  7
Romans字体
 73
     1
 44
1.0
1001
AcDbBlockRepETag
1070
     1
1071
       57
1005
1E3B3
  0
LINE
  5
1E3B4
330
13E17
100
AcDbEntity
  8
图框
 62
     6
100
AcDbLine
 10
982.0182077173887
 20
679.0347692601516
 30
0.0
 11
982.0182077173887
 21
675.5347692601515
 31
0.0
1001
AcDbBlockRepETag
1070
     1
1071
       58
1005
1E3B4
  0
MTEXT
  5
1E3B5
330
13E17
100
AcDbEntity
  8
图框
 62
     6
100
AcDbMText
 10
956.8302389280352
 20
678.859919059449
 30
0.0
 40
2.651776162684904
 41
2.557913877927211
 46
0.0
 71
     1
 72
     5
  1
3
  7
Romans字体
 73
     1
 44
1.0
1001
AcDbBlockRepETag
1070
     1
1071
       59
1005
1E3B5
  0
LINE
  5
1E3B6
330
13E17
100
AcDbEntity
  8
图框
 62
     6
100
AcDbLine
 10
932.4830289984245
 20
679.0347692601516
 30
0.0
 11
932.4830289984245
 21
675.5347692601515
 31
0.0
1001
AcDbBlockRepETag
1070
     1
1071
       60
1005
1E3B6
  0
MTEXT
  5
1E3B7
330
13E17
100
AcDbEntity
  8
图框
 62
     6
100
AcDbMText
 10
907.295060209082
 20
678.859919059449
 30
0.0
 40
2.651776162684904
 41
2.557913877927211
 46
0.0
 71
     1
 72
     5
  1
2
  7
Romans字体
 73
     1
 44
1.0
1001
AcDbBlockRepETag
1070
     1
1071
       61
1005
1E3B7
  0
LINE
  5
1E3B8
330
13E17
100
AcDbEntity
  8
图框
 62
     6
100
AcDbLine
 10
882.9478502794648
 20
678.7962435131815
 30
0.0
 11
882.9478502794648
 21
675.5347692601515
 31
0.0
1001
AcDbBlockRepETag
1070
     1
1071
       62
1005
1E3B8
  0
MTEXT
  5
1E3B9
330
13E17
100
AcDbEntity
  8
图框
 62
     6
100
AcDbMText
 10
862.6286629643733
 20
678.859919059449
 30
0.0
 40
2.651776162684904
 41
2.557913877927211
 46
0.0
 71
     1
 72
     5
  1
1
  7
Romans字体
 73
     1
 44
1.0
1001
AcDbBlockRepETag
1070
     1
1071
       63
1005
1E3B9
  0
LINE
  5
1E3BA
330
13E17
100
AcDbEntity
  8
图框
370
    -3
100
AcDbLine
 10
836.9128518455394
 20
675.0207195125422
 30
0.0
 11
836.9128518455394
 21
686.7901958362482
 31
0.0
1001
AcDbBlockRepETag
1070
     1
1071
       64
1005
1E3BA
  0
LINE
  5
1E3BB
330
13E17
100
AcDbEntity
  8
图框
370
    50
100
AcDbLine
 10
836.9128518455394
 20
675.5347692601515
 30
0.0
 11
1126.928502610363
 21
675.5347692601515
 31
0.0
1001
AcDbBlockRepETag
1070
     1
1071
       65
1005
1E3BB
  0
LINE
  5
1E3BC
330
13E17
100
AcDbEntity
  8
图框
370
    -3
100
AcDbLine
 10
842.6237321475781
 20
675.5347692601515
 30
0.0
 11
842.6237321475781
 21
686.7901958362482
 31
0.0
1001
AcDbBlockRepETag
1070
     1
1071
       66
1005
1E3BC
  0
LINE
  5
1E3BD
330
13E17
100
AcDbEntity
  8
图框
370
    -3
100
AcDbLine
 10
848.3346124496179
 20
675.5347692601515
 30
0.0
 11
848.3346124496179
 21
686.7901958362482
 31
0.0
1001
AcDbBlockRepETag
1070
     1
1071
       67
1005
1E3BD
  0
MTEXT
  5
1E3BE
102
{ACAD_XDICTIONARY
360
1E443
102
}
330
13E17
100
AcDbEntity
  8
图框
100
AcDbMText
 10
857.7903401027889
 20
686.7901958362482
 30
0.0
 40
1.958998408821398
 41
11.25542657609672
 46
7.489694702258906
 71
     4
 72
     5
  1
\pi2.8203;档案员{\H0.7x;\P\pi1.4159;\Fromans|c134;Filing Clerk\fFangSong_GB2312|b0|i0|c134|p49; }
 11
-0.0000000000000002
 21
-1.0
 31
0.0
 73
     1
 44
1.0
1001
AcDbBlockRepETag
1070
     1
1071
       68
1005
1E3BE
1001
ACAD
1000
ACAD_MTEXT_DEFINED_HEIGHT_BEGIN
1070
    46
1040
7.489694702258906
1000
ACAD_MTEXT_DEFINED_HEIGHT_END
  0
MTEXT
  5
1E3BF
102
{ACAD_XDICTIONARY
360
1E445
102
}
330
13E17
100
AcDbEntity
  8
图框
100
AcDbMText
 10
845.479172298598
 20
686.7901958362482
 30
0.0
 40
1.958998408821398
 41
11.25542657609672
 46
5.710880302039671
 71
     4
 72
     5
  1
\pi0.7115;日期{\Fromans|c134;/Date}
 11
-0.0000000000000002
 21
-1.0
 31
0.0
 73
     1
 44
1.0
1001
AcDbBlockRepETag
1070
     1
1071
       69
1005
1E3BF
1001
ACAD
1000
ACAD_MTEXT_DEFINED_HEIGHT_BEGIN
1070
    46
1040
5.710880302039671
1000
ACAD_MTEXT_DEFINED_HEIGHT_END
  0
LINE
  5
1E3C0
330
13E17
100
AcDbEntity
  8
图框
370
    -3
100
AcDbLine
 10
854.0454927516588
 20
675.5347692601515
 30
0.0
 11
854.0454927516588
 21
686.7901958362482
 31
0.0
1001
AcDbBlockRepETag
1070
     1
1071
       70
1005
1E3C0
  0
LINE
  5
1E3C1
330
13E17
100
AcDbEntity
  8
图框
370
    -3
100
AcDbLine
 10
1036.653967466372
 20
531.3291676047914
 30
0.0
 11
1036.653967466372
 21
484.0126019753161
 31
0.0
1001
AcDbBlockRepETag
1070
     1
1071
       71
1005
1E3C1
  0
LINE
  5
1E3C2
330
13E17
100
AcDbEntity
  8
图框
370
    -3
100
AcDbLine
 10
1047.483315900763
 20
507.6708838011533
 30
0.0
 11
1047.483315900763
 21
491.8986945987308
 31
0.0
1001
AcDbBlockRepETag
1070
     1
1071
       72
1005
1E3C2
  0
LINE
  5
1E3C3
330
13E17
100
AcDbEntity
  8
图框
370
    -3
100
AcDbLine
 10
1058.312664335153
 20
507.6708838011533
 30
0.0
 11
1058.312664335153
 21
484.0347692601515
 31
0.0
1001
AcDbBlockRepETag
1070
     1
1071
       73
1005
1E3C3
  0
LINE
  5
1E3C4
330
13E17
100
AcDbEntity
  8
图框
370
    25
100
AcDbLine
 10
1048.474135214456
 20
488.1095628329926
 30
0.0
 11
1054.946420288459
 21
488.1095628329926
 31
0.0
1001
AcDbBlockRepETag
1070
     1
1071
       74
1005
1E3C4
  0
LINE
  5
1E3C5
330
13E17
100
AcDbEntity
  8
图框
370
    25
100
AcDbLine
 10
1054.232527365989
 20
487.0761716842634
 30
0.0
 11
1049.156490914508
 21
486.4576273751
 31
0.0
1001
AcDbBlockRepETag
1070
     1
1071
       75
1005
1E3C5
  0
LINE
  5
1E3C6
330
13E17
100
AcDbEntity
  8
图框
370
    25
100
AcDbLine
 10
1054.232527365989
 20
489.1429539817209
 30
0.0
 11
1049.156490914508
 21
489.7614982908846
 31
0.0
1001
AcDbBlockRepETag
1070
     1
1071
       76
1005
1E3C6
  0
LINE
  5
1E3C7
330
13E17
100
AcDbEntity
  8
图框
370
    25
100
AcDbLine
 10
1049.156490914508
 20
489.7614982908846
 30
0.0
 11
1049.156490914508
 21
486.4576273751
 31
0.0
1001
AcDbBlockRepETag
1070
     1
1071
       77
1005
1E3C7
  0
LINE
  5
1E3C8
330
13E17
100
AcDbEntity
  8
图框
370
    25
100
AcDbLine
 10
1054.232527365989
 20
489.1429539817209
 30
0.0
 11
1054.232527365989
 21
487.0761716842634
 31
0.0
1001
AcDbBlockRepETag
1070
     1
1071
       78
1005
1E3C8
  0
CIRCLE
  5
1E3C9
330
13E17
100
AcDbEntity
  8
图框
370
    25
100
AcDbCircle
 10
1042.502700458579
 20
488.1095628329926
 30
0.0
 40
1.651935457891863
1001
AcDbBlockRepETag
1070
     1
1071
       79
1005
1E3C9
  0
CIRCLE
  5
1E3CA
330
13E17
100
AcDbEntity
  8
图框
370
    25
100
AcDbCircle
 10
1042.502700458579
 20
488.1095628329926
 30
0.0
 40
1.033391148728775
1001
AcDbBlockRepETag
1070
     1
1071
       80
1005
1E3CA
  0
LINE
  5
1E3CB
330
13E17
100
AcDbEntity
  8
图框
370
    25
100
AcDbLine
 10
1040.136872078216
 20
488.1095628329926
 30
0.0
 11
1044.868528838943
 21
488.1095628329926
 31
0.0
1001
AcDbBlockRepETag
1070
     1
1071
       81
1005
1E3CB
  0
LINE
  5
1E3CC
330
13E17
100
AcDbEntity
  8
图框
370
    25
100
AcDbLine
 10
1042.502700458579
 20
490.475391213355
 30
0.0
 11
1042.502700458579
 21
485.743734452629
 31
0.0
1001
AcDbBlockRepETag
1070
     1
1071
       82
1005
1E3CC
  0
LINE
  5
1E3CD
330
13E17
100
AcDbEntity
  8
图框
370
    -3
100
AcDbLine
 10
1069.142012769546
 20
507.6708838011533
 30
0.0
 11
1069.142012769546
 21
491.8986945987308
 31
0.0
1001
AcDbBlockRepETag
1070
     1
1071
       83
1005
1E3CD
  0
MTEXT
  5
1E3CE
330
13E17
100
AcDbEntity
  8
图框
100
AcDbMText
 10
1086.643735910939
 20
526.8006839312707
 30
0.0
 40
2.154898249703542
 41
13.34474941400573
 46
9.056967347041775
 71
     5
 72
     5
  1
图号{\Ftxt|c134;\P\Fromans|c134;\W0.65;Drawing No.}
 73
     1
 44
1.0
1001
AcDbBlockRepETag
1070
     1
1071
       84
1005
1E3CE
1001
ACAD
1000
ACAD_MTEXT_DEFINED_HEIGHT_BEGIN
1070
    46
1040
9.056967347041775
1000
ACAD_MTEXT_DEFINED_HEIGHT_END
  0
LINE
  5
1E3CF
330
13E17
100
AcDbEntity
  8
图框
370
    -3
100
AcDbLine
 10
1093.316110617942
 20
531.3291676047914
 30
0.0
 11
1093.316110617942
 21
495.8417418993347
 31
0.0
1001
AcDbBlockRepETag
1070
     1
1071
       85
1005
1E3CF
  0
LINE
  5
1E3D0
330
13E17
100
AcDbEntity
  8
图框
370
    -3
100
AcDbLine
 10
1047.473969770481
 20
531.3291676047914
 30
0.0
 11
1047.473969770481
 21
507.6708838011533
 31
0.0
1001
AcDbBlockRepETag
1070
     1
1071
       86
1005
1E3D0
  0
MTEXT
  5
1E3D1
330
13E17
100
AcDbEntity
  8
图框
100
AcDbMText
 10
1063.72733855235
 20
503.7278365005473
 30
0.0
 40
2.252848170144607
 41
10.82934843439208
 46
7.886094601212128
 71
     5
 72
     5
  1
重量\P{\Fromans|c134;Weight}
 73
     1
 44
1.0
1001
AcDbBlockRepETag
1070
     1
1071
       87
1005
1E3D1
1001
ACAD
1000
ACAD_MTEXT_DEFINED_HEIGHT_BEGIN
1070
    46
1040
7.886094601212128
1000
ACAD_MTEXT_DEFINED_HEIGHT_END
  0
LINE
  5
1E3D2
330
13E17
100
AcDbEntity
  8
图框
370
    -3
100
AcDbLine
 10
1036.653967466372
 20
519.5000257029746
 30
0.0
 11
1079.971361203936
 21
519.5000257029746
 31
0.0
1001
AcDbBlockRepETag
1070
     1
1071
       88
1005
1E3D2
  0
MTEXT
  5
1E3D3
330
13E17
100
AcDbEntity
  8
图框
100
AcDbMText
 10
1074.556686986741
 20
503.7278365005473
 30
0.0
 40
2.252848170144607
 41
10.82934843438984
 46
7.886094601212141
 71
     5
 72
     5
  1
数量\P{\Fromans|c134;Qty.}
 73
     1
 44
1.0
1001
AcDbBlockRepETag
1070
     1
1071
       89
1005
1E3D3
1001
ACAD
1000
ACAD_MTEXT_DEFINED_HEIGHT_BEGIN
1070
    46
1040
7.886094601212141
1000
ACAD_MTEXT_DEFINED_HEIGHT_END
  0
LINE
  5
1E3D4
330
13E17
100
AcDbEntity
  8
图框
370
    -3
100
AcDbLine
 10
1079.971361203936
 20
495.8417418993347
 30
0.0
 11
1126.928502610363
 21
495.8417418993342
 31
0.0
1001
AcDbBlockRepETag
1070
     1
1071
       90
1005
1E3D4
  0
LINE
  5
1E3D5
330
13E17
100
AcDbEntity
  8
图框
370
    -3
100
AcDbLine
 10
1079.971361203936
 20
504.7132992040975
 30
0.0
 11
1126.928502610363
 21
504.7132992040975
 31
0.0
1001
AcDbBlockRepETag
1070
     1
1071
       91
1005
1E3D5
  0
MTEXT
  5
1E3D6
330
13E17
100
AcDbEntity
  8
图框
100
AcDbMText
 10
1052.893317052817
 20
503.7278365005473
 30
0.0
 40
2.252848170144607
 41
10.83869456467139
 46
7.886094601212101
 71
     5
 72
     5
  1
版本\P{\Fromans|c134;REV.}
 73
     1
 44
1.0
1001
AcDbBlockRepETag
1070
     1
1071
       92
1005
1E3D6
1001
ACAD
1000
ACAD_MTEXT_DEFINED_HEIGHT_BEGIN
1070
    46
1040
7.886094601212101
1000
ACAD_MTEXT_DEFINED_HEIGHT_END
  0
MTEXT
  5
1E3D7
330
13E17
100
AcDbEntity
  8
图框
100
AcDbMText
 10
1042.068641683568
 20
503.7278365005473
 30
0.0
 40
2.252848170144607
 41
10.8293484343908
 46
7.886094601212136
 71
     5
 72
     5
  1
比例\P{\Fromans|c134;Scale}
 73
     1
 44
1.0
1001
AcDbBlockRepETag
1070
     1
1071
       93
1005
1E3D7
1001
ACAD
1000
ACAD_MTEXT_DEFINED_HEIGHT_BEGIN
1070
    46
1040
7.886094601212136
1000
ACAD_MTEXT_DEFINED_HEIGHT_END
  0
LINE
  5
1E3D8
330
13E17
100
AcDbEntity
  8
图框
370
    -3
100
AcDbLine
 10
1036.653967466372
 20
507.6708838011533
 30
0.0
 11
1079.971361203936
 21
507.6708838011533
 31
0.0
1001
AcDbBlockRepETag
1070
     1
1071
       94
1005
1E3D8
  0
LINE
  5
1E3D9
330
13E17
100
AcDbEntity
  8
图框
370
    -3
100
AcDbLine
 10
1036.653967466372
 20
491.8986945987308
 30
0.0
 11
1079.971361203936
 21
491.8986945987308
 31
0.0
1001
AcDbBlockRepETag
1070
     1
1071
       95
1005
1E3D9
  0
LINE
  5
1E3DA
330
13E17
100
AcDbEntity
  8
图框
370
    -3
100
AcDbLine
 10
1079.971361203936
 20
531.3291676047914
 30
0.0
 11
1079.971361203936
 21
484.0125999975168
 31
0.0
1001
AcDbBlockRepETag
1070
     1
1071
       96
1005
1E3DA
  0
MTEXT
  5
1E3DB
330
13E17
100
AcDbEntity
  8
图框
100
AcDbMText
 10
1042.063968618426
 20
525.4145966538832
 30
0.0
 40
2.252848170144607
 41
10.82000230410933
 46
11.82914190181708
 71
     5
 72
     5
  1
表面处理\P{\Fromans|c134;Finish}
 73
     1
 44
1.0
1001
AcDbBlockRepETag
1070
     1
1071
       97
1005
1E3DB
1001
ACAD
1000
ACAD_MTEXT_DEFINED_HEIGHT_BEGIN
1070
    46
1040
11.82914190181708
1000
ACAD_MTEXT_DEFINED_HEIGHT_END
  0
MTEXT
  5
1E3DC
330
13E17
100
AcDbEntity
  8
图框
100
AcDbMText
 10
1042.063968618426
 20
513.5854547520639
 30
0.0
 40
2.252848170144607
 41
10.82000230410933
 46
11.8291419018212
 71
     5
 72
     5
  1
材料\P{\Fromans|c134;Material}
 73
     1
 44
1.0
1001
AcDbBlockRepETag
1070
     1
1071
       98
1005
1E3DC
1001
ACAD
1000
ACAD_MTEXT_DEFINED_HEIGHT_BEGIN
1070
    46
1040
11.8291419018212
1000
ACAD_MTEXT_DEFINED_HEIGHT_END
  0
LINE
  5
1E3DD
330
13E17
100
AcDbEntity
  8
图框
370
    -3
100
AcDbLine
 10
1079.971361203936
 20
522.27220025775
 30
0.0
 11
1126.928502610363
 21
522.27220025775
 31
0.0
1001
AcDbBlockRepETag
1070
     1
1071
       99
1005
1E3DD
  0
LINE
  5
1E3DE
330
13E17
100
AcDbEntity
  8
图框
370
    -3
100
AcDbLine
 10
1079.971361203936
 20
513.5854547520641
 30
0.0
 11
1126.928502610363
 21
513.5854547520639
 31
0.0
1001
AcDbBlockRepETag
1070
     1
1071
      100
1005
1E3DE
  0
MTEXT
  5
1E3DF
330
13E17
100
AcDbEntity
  8
图框
100
AcDbMText
 10
1086.643735910939
 20
517.9288275049072
 30
0.0
 40
1.958998408821398
 41
13.34474941400573
 46
8.686745505685811
 71
     5
 72
     5
  1
产品代号\P{\Fromans|c134;Part Code}
 73
     1
 44
1.0
1001
AcDbBlockRepETag
1070
     1
1071
      101
1005
1E3DF
1001
ACAD
1000
ACAD_MTEXT_DEFINED_HEIGHT_BEGIN
1070
    46
1040
8.686745505685811
1000
ACAD_MTEXT_DEFINED_HEIGHT_END
  0
LINE
  5
1E3E0
330
13E17
100
AcDbEntity
  8
图框
370
    -3
100
AcDbLine
 10
946.9285026103634
 20
525.7982263931411
 30
0.0
 11
1036.653967466372
 21
525.7982263931411
 31
0.0
1001
AcDbBlockRepETag
1070
     1
1071
      102
1005
1E3E0
  0
LINE
  5
1E3E1
330
13E17
100
AcDbEntity
  8
图框
370
    -3
100
AcDbLine
 10
946.9285026103634
 20
520.2672851814959
 30
0.0
 11
1036.653967466372
 21
520.2672851814959
 31
0.0
1001
AcDbBlockRepETag
1070
     1
1071
      103
1005
1E3E1
  0
LINE
  5
1E3E2
330
13E17
100
AcDbEntity
  8
图框
370
    35
100
AcDbLine
 10
946.9285026103634
 20
531.3291676047914
 30
0.0
 11
1126.928502610363
 21
531.3291676047914
 31
0.0
1001
AcDbBlockRepETag
1070
     1
1071
      104
1005
1E3E2
  0
LINE
  5
1E3E3
330
13E17
100
AcDbEntity
  8
图框
370
    -3
100
AcDbLine
 10
990.6727612856927
 20
509.2054027581959
 30
0.0
 11
990.6727612856927
 21
484.0347692601515
 31
0.0
1001
AcDbBlockRepETag
1070
     1
1071
      105
1005
1E3E3
  0
MTEXT
  5
1E3E4
102
{ACAD_XDICTIONARY
360
1E447
102
}
330
13E17
100
AcDbEntity
  8
图框
100
AcDbMText
 10
997.1628169651232
 20
499.816589978722
 30
0.0
 40
2.252848170144607
 41
12.98011135886052
 46
6.19230880992475
 71
     5
 72
     5
  1
{\fSimSun|b0|i0|c134|p2;标准化}\PStand.
  7
Romans字体
 73
     1
 44
1.0
1001
AcDbBlockRepETag
1070
     1
1071
      106
1005
1E3E4
1001
ACAD
1000
ACAD_MTEXT_DEFINED_HEIGHT_BEGIN
1070
    46
1040
6.19230880992475
1000
ACAD_MTEXT_DEFINED_HEIGHT_END
  0
LINE
  5
1E3E5
330
13E17
100
AcDbEntity
  8
图框
370
    -3
100
AcDbLine
 10
975.4103773808022
 20
509.2054027581959
 30
0.0
 11
975.4103773808022
 21
484.0347692601515
 31
0.0
1001
AcDbBlockRepETag
1070
     1
1071
      107
1005
1E3E5
  0
MTEXT
  5
1E3E6
330
13E17
100
AcDbEntity
  8
图框
100
AcDbMText
 10
984.5089229802068
 20
511.9708733640202
 30
0.0
 40
2.448748011026752
 41
38.287899328693
 46
5.530941211648832
 71
     5
 72
     5
  1
  变更描述{\Fromans|c134;/Description}
 73
     1
 44
1.0
1001
AcDbBlockRepETag
1070
     1
1071
      108
1005
1E3E6
1001
ACAD
1000
ACAD_MTEXT_DEFINED_HEIGHT_BEGIN
1070
    46
1040
5.530941211648832
1000
ACAD_MTEXT_DEFINED_HEIGHT_END
  0
MTEXT
  5
1E3E7
102
{ACAD_XDICTIONARY
360
1E449
102
}
330
13E17
100
AcDbEntity
  8
图框
100
AcDbMText
 10
1012.477254728976
 20
511.9708733640202
 30
0.0
 40
1.958998408821398
 41
17.64876416884548
 46
5.530941211649166
 71
     5
 72
     5
  1
签名\P{\Fromans|c134;Signature} 
 73
     1
 44
1.0
1001
AcDbBlockRepETag
1070
     1
1071
      109
1005
1E3E7
1001
ACAD
1000
ACAD_MTEXT_DEFINED_HEIGHT_BEGIN
1070
    46
1040
5.530941211649166
1000
ACAD_MTEXT_DEFINED_HEIGHT_END
  0
MTEXT
  5
1E3E8
102
{ACAD_XDICTIONARY
360
1E44B
102
}
330
13E17
100
AcDbEntity
  8
图框
100
AcDbMText
 10
960.7558556394856
 20
511.9708733640202
 30
0.0
 40
1.958998408821398
 41
9.218235352749283
 46
5.530941211648841
 71
     5
 72
     5
  1
处数\P{\Fromans|c134;Number }
 73
     1
 44
1.0
1001
AcDbBlockRepETag
1070
     1
1071
      110
1005
1E3E8
1001
ACAD
1000
ACAD_MTEXT_DEFINED_HEIGHT_BEGIN
1070
    46
1040
5.530941211648841
1000
ACAD_MTEXT_DEFINED_HEIGHT_END
  0
LINE
  5
1E3E9
330
13E17
100
AcDbEntity
  8
图框
370
    -3
100
AcDbLine
 10
946.9285026103634
 20
514.7363439698449
 30
0.0
 11
1036.653967466372
 21
514.7363439698449
 31
0.0
1001
AcDbBlockRepETag
1070
     1
1071
      111
1005
1E3E9
  0
LINE
  5
1E3EA
330
13E17
100
AcDbEntity
  8
图框
370
    -3
100
AcDbLine
 10
946.9285026103634
 20
509.2054027581959
 30
0.0
 11
1036.653967466372
 21
509.2054027581959
 31
0.0
1001
AcDbBlockRepETag
1070
     1
1071
      112
1005
1E3EA
  0
LINE
  5
1E3EB
330
13E17
100
AcDbEntity
  8
图框
370
    -3
100
AcDbLine
 10
946.9285026103634
 20
502.9127443836848
 30
0.0
 11
1036.653967466372
 21
502.9127443836848
 31
0.0
1001
AcDbBlockRepETag
1070
     1
1071
      113
1005
1E3EB
  0
LINE
  5
1E3EC
330
13E17
100
AcDbEntity
  8
图框
370
    -3
100
AcDbLine
 10
946.9285026103634
 20
496.620086009173
 30
0.0
 11
1036.653967466372
 21
496.620086009173
 31
0.0
1001
AcDbBlockRepETag
1070
     1
1071
      114
1005
1E3EC
  0
LINE
  5
1E3ED
330
13E17
100
AcDbEntity
  8
图框
370
    35
380
     1
100
AcDbLine
 10
946.9285026103634
 20
531.3291676047914
 30
0.0
 11
946.9285026103634
 21
484.0347692601515
 31
0.0
1001
AcDbBlockRepETag
1070
     1
1071
      115
1005
1E3ED
  0
LINE
  5
1E3EE
330
13E17
100
AcDbEntity
  8
图框
370
    -3
100
AcDbLine
 10
1021.301636813399
 20
531.3291676047914
 30
0.0
 11
1021.301636813399
 21
484.0347692601515
 31
0.0
1001
AcDbBlockRepETag
1070
     1
1071
      116
1005
1E3EE
  0
LINE
  5
1E3EF
330
13E17
100
AcDbEntity
  8
图框
370
    -3
100
AcDbLine
 10
1003.652872644553
 20
531.3291676047914
 30
0.0
 11
1003.652872644553
 21
484.0347692601515
 31
0.0
1001
AcDbBlockRepETag
1070
     1
1071
      117
1005
1E3EF
  0
LINE
  5
1E3F0
330
13E17
100
AcDbEntity
  8
图框
370
    -3
100
AcDbLine
 10
965.3649733158603
 20
531.3291676047914
 30
0.0
 11
965.3649733158603
 21
509.2054027581959
 31
0.0
1001
AcDbBlockRepETag
1070
     1
1071
      118
1005
1E3F0
  0
LINE
  5
1E3F1
330
13E17
100
AcDbEntity
  8
图框
370
    -3
100
AcDbLine
 10
956.1467379631109
 20
531.3291676047914
 30
0.0
 11
956.1467379631109
 21
509.2054027581959
 31
0.0
1001
AcDbBlockRepETag
1070
     1
1071
      119
1005
1E3F1
  0
MTEXT
  5
1E3F2
102
{ACAD_XDICTIONARY
360
1E44D
102
}
330
13E17
100
AcDbEntity
  8
图框
100
AcDbMText
 10
951.537620286737
 20
511.9708733640202
 30
0.0
 40
1.958998408821398
 41
9.218235352747692
 46
5.530941211648832
 71
     5
 72
     5
  1
标记\P{\Fromans|c134;Mark}
 73
     1
 44
1.0
1001
AcDbBlockRepETag
1070
     1
1071
      120
1005
1E3F2
1001
ACAD
1000
ACAD_MTEXT_DEFINED_HEIGHT_BEGIN
1070
    46
1040
5.530941211648832
1000
ACAD_MTEXT_DEFINED_HEIGHT_END
  0
MTEXT
  5
1E3F3
102
{ACAD_XDICTIONARY
360
1E44F
102
}
330
13E17
100
AcDbEntity
  8
图框
100
AcDbMText
 10
953.4185582897936
 20
493.4737568219182
 30
0.0
 40
2.252848170144607
 41
12.98011135886041
 46
6.292658374510382
 71
     5
 72
     5
  1
审核\P{\Fromans|c134;Checked}
 73
     1
 44
1.0
1001
AcDbBlockRepETag
1070
     1
1071
      121
1005
1E3F3
1001
ACAD
1000
ACAD_MTEXT_DEFINED_HEIGHT_BEGIN
1070
    46
1040
6.292658374510382
1000
ACAD_MTEXT_DEFINED_HEIGHT_END
  0
MTEXT
  5
1E3F4
102
{ACAD_XDICTIONARY
360
1E451
102
}
330
13E17
100
AcDbEntity
  8
图框
100
AcDbMText
 10
953.4185582897936
 20
499.8775635376777
 30
0.0
 40
2.252848170144607
 41
12.98011135886041
 46
6.070361692014189
 71
     5
 72
     5
  1
绘图\P{\Fromans|c134;Drawn\Ftxt|c134; }
 73
     1
 44
1.0
1001
AcDbBlockRepETag
1070
     1
1071
      122
1005
1E3F4
1001
ACAD
1000
ACAD_MTEXT_DEFINED_HEIGHT_BEGIN
1070
    46
1040
6.070361692014189
1000
ACAD_MTEXT_DEFINED_HEIGHT_END
  0
ARC
  5
1E3F5
330
13E17
100
AcDbEntity
  8
图框
 62
     4
370
    35
100
AcDbCircle
 10
1086.900627017421
 20
490.0179944151195
 30
0.0
 40
4.063310408393665
100
AcDbArc
 50
18.95237904564806
 51
161.0476209543519
1001
AcDbBlockRepETag
1070
     1
1071
      123
1005
1E3F5
  0
ARC
  5
1E3F6
330
13E17
100
AcDbEntity
  8
图框
 62
     4
370
    35
100
AcDbCircle
 10
1086.900627017421
 20
490.0179944151195
 30
0.0
 40
4.063310408393665
100
AcDbArc
 50
198.952379045648
 51
341.0476209543519
1001
AcDbBlockRepETag
1070
     1
1071
      124
1005
1E3F6
  0
LINE
  5
1E3F7
330
13E17
100
AcDbEntity
  8
图框
 62
     4
370
    35
100
AcDbLine
 10
1083.057593369548
 20
488.6983035966752
 30
0.0
 11
1090.74366066529
 21
488.6983035966752
 31
0.0
1001
AcDbBlockRepETag
1070
     1
1071
      125
1005
1E3F7
  0
LINE
  5
1E3F8
330
13E17
100
AcDbEntity
  8
图框
 62
     4
370
    35
100
AcDbLine
 10
1083.057593369548
 20
491.3376852335652
 30
0.0
 11
1090.74366066529
 21
491.3376852335652
 31
0.0
1001
AcDbBlockRepETag
1070
     1
1071
      126
1005
1E3F8
  0
MTEXT
  5
1E3F9
330
13E17
100
AcDbEntity
  8
图框
 62
     1
370
    20
100
AcDbMText
 10
1083.034582879669
 20
491.0506288081688
 30
0.0
 40
2.005930044038334
 41
5.047240019334847
 46
0.0
 71
     1
 72
     5
  1
{\fArial|b0|i0|c0|p34;W}
  7
Chinese
 73
     1
 44
1.0
1001
AcDbBlockRepETag
1070
     1
1071
      127
1005
1E3F9
  0
LINE
  5
1E3FA
330
13E17
100
AcDbEntity
  8
图框
370
    -3
100
AcDbLine
 10
946.9285026103634
 20
490.327427634663
 30
0.0
 11
1036.653967466372
 21
490.327427634663
 31
0.0
1001
AcDbBlockRepETag
1070
     1
1071
      128
1005
1E3FA
  0
LINE
  5
1E3FB
330
13E17
100
AcDbEntity
  8
图框
370
    -3
100
AcDbLine
 10
959.9086139692238
 20
509.2054027581959
 30
0.0
 11
959.9086139692238
 21
484.0347692601515
 31
0.0
1001
AcDbBlockRepETag
1070
     1
1071
      129
1005
1E3FB
  0
MTEXT
  5
1E3FC
330
13E17
100
AcDbEntity
  8
图框
100
AcDbMText
 10
967.6594956750129
 20
506.0590735709403
 30
0.0
 40
2.252848170144607
 41
15.50176341157869
 46
6.292658374511246
 71
     5
 72
     5
  1
姓名{\Fromans|c134;/Name\Ftxt|c134; }
 73
     1
 44
1.0
1001
AcDbBlockRepETag
1070
     1
1071
      130
1005
1E3FC
1001
ACAD
1000
ACAD_MTEXT_DEFINED_HEIGHT_BEGIN
1070
    46
1040
6.292658374511246
1000
ACAD_MTEXT_DEFINED_HEIGHT_END
  0
MTEXT
  5
1E3FD
330
13E17
100
AcDbEntity
  8
图框
100
AcDbMText
 10
983.0415693332477
 20
506.0590735709403
 30
0.0
 40
2.252848170144607
 41
15.26238390489042
 46
6.2926583745112
 71
     5
 72
     5
  1
日期{\Fromans|c134;/Date}
 73
     1
 44
1.0
1001
AcDbBlockRepETag
1070
     1
1071
      131
1005
1E3FD
1001
ACAD
1000
ACAD_MTEXT_DEFINED_HEIGHT_BEGIN
1070
    46
1040
6.2926583745112
1000
ACAD_MTEXT_DEFINED_HEIGHT_END
  0
LINE
  5
1E3FE
330
13E17
100
AcDbEntity
  8
图框
370
    -3
100
AcDbLine
 10
946.9285026103634
 20
509.2054027581959
 30
0.0
 11
959.9086139692238
 21
502.9127443836848
 31
0.0
1001
AcDbBlockRepETag
1070
     1
1071
      132
1005
1E3FE
  0
MTEXT
  5
1E3FF
330
13E17
100
AcDbEntity
  8
图框
100
AcDbMText
 10
1012.931405110086
 20
506.0185715840725
 30
0.0
 40
2.252848170144607
 41
16.93492221063566
 46
0.0
 71
     5
 72
     5
  1
姓名{\Fromans|c134;/Name}
 73
     1
 44
1.0
1001
AcDbBlockRepETag
1070
     1
1071
      133
1005
1E3FF
  0
MTEXT
  5
1E400
330
13E17
100
AcDbEntity
  8
图框
100
AcDbMText
 10
1028.977802139886
 20
506.0590735709403
 30
0.0
 40
2.252848170144607
 41
15.35233065297283
 46
6.292658374511256
 71
     5
 72
     5
  1
日期{\Fromans|c134;/Date}
 73
     1
 44
1.0
1001
AcDbBlockRepETag
1070
     1
1071
      134
1005
1E400
1001
ACAD
1000
ACAD_MTEXT_DEFINED_HEIGHT_BEGIN
1070
    46
1040
6.292658374511256
1000
ACAD_MTEXT_DEFINED_HEIGHT_END
  0
LINE
  5
1E401
330
13E17
100
AcDbEntity
  8
图框
370
    -3
100
AcDbLine
 10
1003.652872644553
 20
502.9127443836848
 30
0.0
 11
990.6727612856927
 21
509.2054027581959
 31
0.0
1001
AcDbBlockRepETag
1070
     1
1071
      135
1005
1E401
  0
MTEXT
  5
1E402
102
{ACAD_XDICTIONARY
360
1E453
102
}
330
13E17
100
AcDbEntity
  8
图框
100
AcDbMText
 10
997.1628169651232
 20
487.1810984474071
 30
0.0
 40
2.252848170144607
 41
12.98011135886052
 46
6.292658374511517
 71
     5
 72
     5
  1
批准\P{\Fromans|c134;Approved}
 73
     1
 44
1.0
1001
AcDbBlockRepETag
1070
     1
1071
      136
1005
1E402
1001
ACAD
1000
ACAD_MTEXT_DEFINED_HEIGHT_BEGIN
1070
    46
1040
6.292658374511517
1000
ACAD_MTEXT_DEFINED_HEIGHT_END
  0
MTEXT
  5
1E403
102
{ACAD_XDICTIONARY
360
1E455
102
}
330
13E17
100
AcDbEntity
  8
图框
100
AcDbMText
 10
953.4185582897936
 20
487.1810984474071
 30
0.0
 40
2.252848170144607
 41
12.98011135886041
 46
6.292658374511495
 71
     5
 72
     5
  1
工艺\P{\Fromans|c134;Process}
 73
     1
 44
1.0
1001
AcDbBlockRepETag
1070
     1
1071
      137
1005
1E403
1001
ACAD
1000
ACAD_MTEXT_DEFINED_HEIGHT_BEGIN
1070
    46
1040
6.292658374511495
1000
ACAD_MTEXT_DEFINED_HEIGHT_END
  0
MTEXT
  5
1E404
102
{ACAD_XDICTIONARY
360
1E457
102
}
330
13E17
100
AcDbEntity
  8
图框
100
AcDbMText
 10
1028.977802139886
 20
511.9708733640202
 30
0.0
 40
1.958998408821398
 41
15.35233065297235
 46
5.530941211648913
 71
     5
 72
     5
  1
日期\P{\Fromans|c134;Date}
 73
     1
 44
1.0
1001
AcDbBlockRepETag
1070
     1
1071
      138
1005
1E404
1001
ACAD
1000
ACAD_MTEXT_DEFINED_HEIGHT_BEGIN
1070
    46
1040
5.530941211648913
1000
ACAD_MTEXT_DEFINED_HEIGHT_END
  0
MTEXT
  5
1E405
330
13E17
100
AcDbEntity
  8
图框
100
AcDbMText
 10
1086.643735910939
 20
509.1493769780809
 30
0.0
 40
2.154898249703542
 41
13.34474941400573
 46
8.87215554796615
 71
     5
 72
     5
  1
产品料号\P{\Fromans|c134;Part No.}
 73
     1
 44
1.0
1001
AcDbBlockRepETag
1070
     1
1071
      139
1005
1E405
1001
ACAD
1000
ACAD_MTEXT_DEFINED_HEIGHT_BEGIN
1070
    46
1040
8.87215554796615
1000
ACAD_MTEXT_DEFINED_HEIGHT_END
  0
MTEXT
  5
1E406
330
13E17
100
AcDbEntity
  8
图框
100
AcDbMText
 10
1086.643735910939
 20
500.2775205517163
 30
0.0
 40
1.958998408821398
 41
13.34474941400573
 46
8.871557304763321
 71
     5
 72
     5
  1
产品名称\P{\Fromans|c134;Part Name}
 73
     1
 44
1.0
1001
AcDbBlockRepETag
1070
     1
1071
      140
1005
1E406
1001
ACAD
1000
ACAD_MTEXT_DEFINED_HEIGHT_BEGIN
1070
    46
1040
8.871557304763321
1000
ACAD_MTEXT_DEFINED_HEIGHT_END
  0
LINE
  5
1E407
330
13E17
100
AcDbEntity
  8
图框
 62
     1
370
    18
100
AcDbLine
 10
833.4128518455365
 20
690.5347692601515
 30
0.0
 11
833.4128518455365
 21
480.5347692601515
 31
0.0
1001
AcDbBlockRepETag
1070
     1
1071
      141
1005
1E407
  0
LINE
  5
1E408
330
13E17
100
AcDbEntity
  8
图框
 62
     1
370
    18
100
AcDbLine
 10
833.4128518455365
 20
480.5347692601515
 30
0.0
 11
1130.411601781236
 21
480.5347692601515
 31
0.0
1001
AcDbBlockRepETag
1070
     1
1071
      142
1005
1E408
  0
LINE
  5
1E409
330
13E17
100
AcDbEntity
  8
图框
 62
     1
370
    18
100
AcDbLine
 10
833.4128518455365
 20
690.5347692601515
 30
0.0
 11
1130.411601781236
 21
690.5347692601515
 31
0.0
1001
AcDbBlockRepETag
1070
     1
1071
      143
1005
1E409
  0
LINE
  5
1E40A
330
13E17
100
AcDbEntity
  8
图框
 62
     1
370
    18
100
AcDbLine
 10
1130.411601781236
 20
480.5347692601515
 30
0.0
 11
1130.411601781236
 21
690.5347692601515
 31
0.0
1001
AcDbBlockRepETag
1070
     1
1071
      144
1005
1E40A
  0
LINE
  5
1E40B
330
13E17
100
AcDbEntity
  8
图框
370
    18
100
AcDbLine
 10
836.9128518455394
 20
686.7901958362482
 30
0.0
 11
861.5351874539182
 21
686.7901958362482
 31
0.0
1001
AcDbBlockRepETag
1070
     1
1071
      145
1005
1E40B
  0
LINE
  5
1E40C
330
13E17
100
AcDbEntity
  8
图框
370
    50
100
AcDbLine
 10
1126.928502610363
 20
484.3410054693078
 30
0.0
 11
1126.928502610363
 21
675.5347692601515
 31
0.0
1001
AcDbBlockRepETag
1070
     1
1071
      146
1005
1E40C
  0
MTEXT
  5
1E40D
330
13E17
100
AcDbEntity
  8
图框
 62
     3
100
AcDbMText
 10
1052.897990117958
 20
495.8417418993364
 30
0.0
 40
2.985513575034151
 41
10.82934843439114
 46
7.886094601211307
 71
     5
 72
     5
  1
V1.2
  7
Romans字体
 73
     1
 44
1.0
1001
AcDbBlockRepETag
1070
     1
1071
      147
1005
1E40D
1001
ACAD
1000
ACAD_MTEXT_DEFINED_HEIGHT_BEGIN
1070
    46
1040
7.886094601211307
1000
ACAD_MTEXT_DEFINED_HEIGHT_END
  0
LINE
  5
1E40E
330
13E17
100
AcDbEntity
  8
图框
 62
     6
100
AcDbLine
 10
1126.911601781236
 20
531.714049199969
 30
0.0
 11
1130.411601781236
 21
531.714049199969
 31
0.0
1001
AcDbBlockRepETag
1070
     1
1071
      148
1005
1E40E
  0
ENDBLK
  5
13EAE
330
13E17
100
AcDbEntity
  8
0
100
AcDbBlockEnd
  0
BLOCK
  5
1C997
330
1C996
100
AcDbEntity
  8
0
100
AcDbBlockBegin
  2
*D20
 70
     1
 10
0.0
 20
0.0
 30
0.0
  3
*D20
  1

  0
LINE
  5
1E2F7
330
1C996
100
AcDbEntity
  8
DIM
 62
     6
370
    -2
100
AcDbLine
 10
567.7234675739517
 20
240.4596957901939
 30
0.0
 11
567.7234675739517
 21
233.486608600322
 31
0.0
  0
LINE
  5
1E2F8
330
1C996
100
AcDbEntity
  8
DIM
 62
     6
370
    -2
100
AcDbLine
 10
606.2503945739521
 20
239.8070474012891
 30
0.0
 11
606.2503945739521
 21
233.486608600322
 31
0.0
  0
LINE
  5
1E2F9
330
1C996
100
AcDbEntity
  8
DIM
 62
     1
370
    -2
100
AcDbLine
 10
569.2234675739516
 20
233.786608600322
 30
0.0
 11
604.7503945739521
 21
233.786608600322
 31
0.0
  0
SOLID
  5
1E2FA
330
1C996
100
AcDbEntity
  8
DIM
 62
     1
100
AcDbTrace
 10
569.2234675739516
 20
234.036608600322
 30
0.0
 11
569.2234675739516
 21
233.536608600322
 31
0.0
 12
567.7234675739517
 22
233.786608600322
 32
0.0
 13
567.7234675739517
 23
233.786608600322
 33
0.0
  0
SOLID
  5
1E2FB
330
1C996
100
AcDbEntity
  8
DIM
 62
     1
100
AcDbTrace
 10
604.7503945739521
 20
234.036608600322
 30
0.0
 11
604.7503945739521
 21
233.536608600322
 31
0.0
 12
606.2503945739521
 22
233.786608600322
 32
0.0
 13
606.2503945739521
 23
233.786608600322
 33
0.0
  0
MTEXT
  5
1E2FC
330
1C996
100
AcDbEntity
  8
DIM
 62
     4
100
AcDbMText
 10
586.9869310739517
 20
235.086608600322
 30
0.0
 40
2.0
 41
0.0
 46
0.0
 71
     5
 72
     1
  1
\A1;38.45
  7
Romans字体
 73
     1
 44
1.0
  0
POINT
  5
1E2FD
330
1C996
100
AcDbEntity
  8
Defpoints
 62
     0
100
AcDbPoint
 10
567.7234675739517
 20
240.6596957901939
 30
0.0
  0
POINT
  5
1E2FE
330
1C996
100
AcDbEntity
  8
Defpoints
 62
     0
100
AcDbPoint
 10
606.2503945739521
 20
240.0070474012891
 30
0.0
  0
POINT
  5
1E2FF
330
1C996
100
AcDbEntity
  8
Defpoints
 62
     0
100
AcDbPoint
 10
606.2503945739521
 20
233.786608600322
 30
0.0
  0
ENDBLK
  5
1C998
330
1C996
100
AcDbEntity
  8
0
100
AcDbBlockEnd
  0
BLOCK
  5
1C9A3
330
1C9A2
100
AcDbEntity
  8
0
100
AcDbBlockBegin
  2
*D21
 70
     1
 10
0.0
 20
0.0
 30
0.0
  3
*D21
  1

  0
LINE
  5
1E293
330
1C9A2
100
AcDbEntity
  8
DIM
 62
     6
370
    -2
100
AcDbLine
 10
569.2555185739514
 20
251.1096957901937
 30
0.0
 11
564.8343033521586
 21
251.1096957901937
 31
0.0
  0
LINE
  5
1E294
330
1C9A2
100
AcDbEntity
  8
DIM
 62
     6
370
    -2
100
AcDbLine
 10
569.2555185739514
 20
242.9096957901936
 30
0.0
 11
564.8343033521586
 21
242.9096957901936
 31
0.0
  0
LINE
  5
1E295
330
1C9A2
100
AcDbEntity
  8
DIM
 62
     1
370
    -2
100
AcDbLine
 10
565.1343033521587
 20
249.6096957901937
 30
0.0
 11
565.1343033521587
 21
244.4096957901936
 31
0.0
  0
SOLID
  5
1E296
330
1C9A2
100
AcDbEntity
  8
DIM
 62
     1
100
AcDbTrace
 10
564.8843033521586
 20
249.6096957901937
 30
0.0
 11
565.3843033521586
 21
249.6096957901937
 31
0.0
 12
565.1343033521587
 22
251.1096957901937
 32
0.0
 13
565.1343033521587
 23
251.1096957901937
 33
0.0
  0
SOLID
  5
1E297
330
1C9A2
100
AcDbEntity
  8
DIM
 62
     1
100
AcDbTrace
 10
564.8843033521586
 20
244.4096957901936
 30
0.0
 11
565.3843033521586
 21
244.4096957901936
 31
0.0
 12
565.1343033521587
 22
242.9096957901936
 32
0.0
 13
565.1343033521587
 23
242.9096957901936
 33
0.0
  0
MTEXT
  5
1E298
330
1C9A2
100
AcDbEntity
  8
DIM
 62
     4
100
AcDbMText
 10
563.8343033521587
 20
247.0096957901937
 30
0.0
 40
2.0
 41
0.0
 46
0.0
 71
     5
 72
     1
  1
\A1;%%C8.2
  7
Romans字体
 11
0.0000000000000001
 21
1.0
 31
0.0
 73
     1
 44
1.0
  0
POINT
  5
1E299
330
1C9A2
100
AcDbEntity
  8
Defpoints
 62
     0
100
AcDbPoint
 10
569.4555185739516
 20
251.1096957901937
 30
0.0
  0
POINT
  5
1E29A
330
1C9A2
100
AcDbEntity
  8
Defpoints
 62
     0
100
AcDbPoint
 10
569.4555185739516
 20
242.9096957901936
 30
0.0
  0
POINT
  5
1E29B
330
1C9A2
100
AcDbEntity
  8
Defpoints
 62
     0
100
AcDbPoint
 10
565.1343033521587
 20
242.9096957901936
 30
0.0
  0
ENDBLK
  5
1C9A4
330
1C9A2
100
AcDbEntity
  8
0
100
AcDbBlockEnd
  0
BLOCK
  5
1C9AF
330
1C9AE
100
AcDbEntity
  8
0
100
AcDbBlockBegin
  2
*D22
 70
     1
 10
0.0
 20
0.0
 30
0.0
  3
*D22
  1

  0
LINE
  5
1E29C
330
1C9AE
100
AcDbEntity
  8
DIM
 62
     6
370
    -2
100
AcDbLine
 10
567.5234675739516
 20
252.1096957901937
 30
0.0
 11
561.9274686885037
 21
252.1096957901937
 31
0.0
  0
LINE
  5
1E29D
330
1C9AE
100
AcDbEntity
  8
DIM
 62
     6
370
    -2
100
AcDbLine
 10
567.5234675739516
 20
241.9096957901937
 30
0.0
 11
561.9274686885037
 21
241.9096957901937
 31
0.0
  0
LINE
  5
1E29E
330
1C9AE
100
AcDbEntity
  8
DIM
 62
     1
370
    -2
100
AcDbLine
 10
562.2274686885036
 20
250.6096957901937
 30
0.0
 11
562.2274686885036
 21
243.4096957901937
 31
0.0
  0
SOLID
  5
1E29F
330
1C9AE
100
AcDbEntity
  8
DIM
 62
     1
100
AcDbTrace
 10
561.9774686885036
 20
250.6096957901937
 30
0.0
 11
562.4774686885037
 21
250.6096957901937
 31
0.0
 12
562.2274686885036
 22
252.1096957901937
 32
0.0
 13
562.2274686885036
 23
252.1096957901937
 33
0.0
  0
SOLID
  5
1E2A0
330
1C9AE
100
AcDbEntity
  8
DIM
 62
     1
100
AcDbTrace
 10
561.9774686885036
 20
243.4096957901937
 30
0.0
 11
562.4774686885037
 21
243.4096957901937
 31
0.0
 12
562.2274686885036
 22
241.9096957901937
 32
0.0
 13
562.2274686885036
 23
241.9096957901937
 33
0.0
  0
MTEXT
  5
1E2A1
330
1C9AE
100
AcDbEntity
  8
DIM
 62
     4
100
AcDbMText
 10
560.9274686885036
 20
247.0096957901938
 30
0.0
 40
2.0
 41
0.0
 46
0.0
 71
     5
 72
     1
  1
\A1;%%C10.2
  7
Romans字体
 11
0.0000000000000001
 21
1.0
 31
0.0
 73
     1
 44
1.0
  0
POINT
  5
1E2A2
330
1C9AE
100
AcDbEntity
  8
Defpoints
 62
     0
100
AcDbPoint
 10
567.7234675739517
 20
252.1096957901937
 30
0.0
  0
POINT
  5
1E2A3
330
1C9AE
100
AcDbEntity
  8
Defpoints
 62
     0
100
AcDbPoint
 10
567.7234675739517
 20
241.9096957901937
 30
0.0
  0
POINT
  5
1E2A4
330
1C9AE
100
AcDbEntity
  8
Defpoints
 62
     0
100
AcDbPoint
 10
562.2274686885036
 20
241.9096957901937
 30
0.0
  0
ENDBLK
  5
1C9B0
330
1C9AE
100
AcDbEntity
  8
0
100
AcDbBlockEnd
  0
BLOCK
  5
1C9BB
330
1C9BA
100
AcDbEntity
  8
0
100
AcDbBlockBegin
  2
*D23
 70
     1
 10
0.0
 20
0.0
 30
0.0
  3
*D23
  1

  0
LINE
  5
1E2A5
330
1C9BA
100
AcDbEntity
  8
DIM
 62
     6
370
    -2
100
AcDbLine
 10
567.5234675739516
 20
253.2596957901937
 30
0.0
 11
559.1152589249552
 21
253.2596957901937
 31
0.0
  0
LINE
  5
1E2A6
330
1C9BA
100
AcDbEntity
  8
DIM
 62
     6
370
    -2
100
AcDbLine
 10
567.5234675739516
 20
240.7596957901937
 30
0.0
 11
559.1152589249552
 21
240.7596957901937
 31
0.0
  0
LINE
  5
1E2A7
330
1C9BA
100
AcDbEntity
  8
DIM
 62
     1
370
    -2
100
AcDbLine
 10
559.4152589249553
 20
251.7596957901937
 30
0.0
 11
559.4152589249553
 21
242.2596957901937
 31
0.0
  0
SOLID
  5
1E2A8
330
1C9BA
100
AcDbEntity
  8
DIM
 62
     1
100
AcDbTrace
 10
559.1652589249552
 20
251.7596957901937
 30
0.0
 11
559.6652589249552
 21
251.7596957901937
 31
0.0
 12
559.4152589249553
 22
253.2596957901937
 32
0.0
 13
559.4152589249553
 23
253.2596957901937
 33
0.0
  0
SOLID
  5
1E2A9
330
1C9BA
100
AcDbEntity
  8
DIM
 62
     1
100
AcDbTrace
 10
559.1652589249552
 20
242.2596957901937
 30
0.0
 11
559.6652589249552
 21
242.2596957901937
 31
0.0
 12
559.4152589249553
 22
240.7596957901937
 32
0.0
 13
559.4152589249553
 23
240.7596957901937
 33
0.0
  0
MTEXT
  5
1E2AA
330
1C9BA
100
AcDbEntity
  8
DIM
 62
     4
100
AcDbMText
 10
558.1152589249552
 20
247.0096957901938
 30
0.0
 40
2.0
 41
0.0
 46
0.0
 71
     5
 72
     1
  1
\A1;%%C12.5
  7
Romans字体
 11
0.0000000000000001
 21
1.0
 31
0.0
 73
     1
 44
1.0
  0
POINT
  5
1E2AB
330
1C9BA
100
AcDbEntity
  8
Defpoints
 62
     0
100
AcDbPoint
 10
567.7234675739517
 20
253.2596957901937
 30
0.0
  0
POINT
  5
1E2AC
330
1C9BA
100
AcDbEntity
  8
Defpoints
 62
     0
100
AcDbPoint
 10
567.7234675739517
 20
240.7596957901937
 30
0.0
  0
POINT
  5
1E2AD
330
1C9BA
100
AcDbEntity
  8
Defpoints
 62
     0
100
AcDbPoint
 10
559.4152589249553
 20
240.7596957901937
 30
0.0
  0
ENDBLK
  5
1C9BC
330
1C9BA
100
AcDbEntity
  8
0
100
AcDbBlockEnd
  0
BLOCK
  5
1C9C7
330
1C9C6
100
AcDbEntity
  8
0
100
AcDbBlockBegin
  2
*D24
 70
     1
 10
0.0
 20
0.0
 30
0.0
  3
*D24
  1

  0
LINE
  5
1E2AE
330
1C9C6
100
AcDbEntity
  8
DIM
 62
     6
370
    -2
100
AcDbLine
 10
567.7234675739517
 20
240.4596957901939
 30
0.0
 11
567.7234675739517
 21
237.1312130631783
 31
0.0
  0
LINE
  5
1E2AF
330
1C9C6
100
AcDbEntity
  8
DIM
 62
     6
370
    -2
100
AcDbLine
 10
583.7234645739516
 20
242.7096957901934
 30
0.0
 11
583.7234645739516
 21
237.1312130631783
 31
0.0
  0
LINE
  5
1E2B0
330
1C9C6
100
AcDbEntity
  8
DIM
 62
     1
370
    -2
100
AcDbLine
 10
569.2234675739516
 20
237.4312130631783
 30
0.0
 11
582.2234645739516
 21
237.4312130631783
 31
0.0
  0
SOLID
  5
1E2B1
330
1C9C6
100
AcDbEntity
  8
DIM
 62
     1
100
AcDbTrace
 10
569.2234675739516
 20
237.6812130631783
 30
0.0
 11
569.2234675739516
 21
237.1812130631783
 31
0.0
 12
567.7234675739517
 22
237.4312130631783
 32
0.0
 13
567.7234675739517
 23
237.4312130631783
 33
0.0
  0
SOLID
  5
1E2B2
330
1C9C6
100
AcDbEntity
  8
DIM
 62
     1
100
AcDbTrace
 10
582.2234645739516
 20
237.6812130631783
 30
0.0
 11
582.2234645739516
 21
237.1812130631783
 31
0.0
 12
583.7234645739516
 22
237.4312130631783
 32
0.0
 13
583.7234645739516
 23
237.4312130631783
 33
0.0
  0
MTEXT
  5
1E2B3
330
1C9C6
100
AcDbEntity
  8
DIM
 62
     4
100
AcDbMText
 10
575.7234660739515
 20
238.7312130631783
 30
0.0
 40
2.0
 41
0.0
 46
0.0
 71
     5
 72
     1
  1
\A1;16
  7
Romans字体
 73
     1
 44
1.0
  0
POINT
  5
1E2B4
330
1C9C6
100
AcDbEntity
  8
Defpoints
 62
     0
100
AcDbPoint
 10
567.7234675739517
 20
240.6596957901939
 30
0.0
  0
POINT
  5
1E2B5
330
1C9C6
100
AcDbEntity
  8
Defpoints
 62
     0
100
AcDbPoint
 10
583.7234645739516
 20
242.9096957901934
 30
0.0
  0
POINT
  5
1E2B6
330
1C9C6
100
AcDbEntity
  8
Defpoints
 62
     0
100
AcDbPoint
 10
583.7234645739516
 20
237.4312130631783
 30
0.0
  0
ENDBLK
  5
1C9C8
330
1C9C6
100
AcDbEntity
  8
0
100
AcDbBlockEnd
  0
BLOCK
  5
1C9D3
330
1C9D2
100
AcDbEntity
  8
0
100
AcDbBlockBegin
  2
*D25
 70
     1
 10
0.0
 20
0.0
 30
0.0
  3
*D25
  1

  0
LINE
  5
1E2D3
330
1C9D2
100
AcDbEntity
  8
DIM
 62
     6
370
    -2
100
AcDbLine
 10
590.6734645739512
 20
253.3596957901936
 30
0.0
 11
613.4942266354211
 21
253.3596957901936
 31
0.0
  0
LINE
  5
1E2D4
330
1C9D2
100
AcDbEntity
  8
DIM
 62
     6
370
    -2
100
AcDbLine
 10
590.6734645739512
 20
240.6596957901939
 30
0.0
 11
613.4942266354211
 21
240.6596957901939
 31
0.0
  0
LINE
  5
1E2D5
330
1C9D2
100
AcDbEntity
  8
DIM
 62
     1
370
    -2
100
AcDbLine
 10
613.1942266354212
 20
251.8596957901936
 30
0.0
 11
613.1942266354212
 21
242.1596957901939
 31
0.0
  0
SOLID
  5
1E2D6
330
1C9D2
100
AcDbEntity
  8
DIM
 62
     1
100
AcDbTrace
 10
612.9442266354211
 20
251.8596957901936
 30
0.0
 11
613.4442266354211
 21
251.8596957901936
 31
0.0
 12
613.1942266354212
 22
253.3596957901936
 32
0.0
 13
613.1942266354212
 23
253.3596957901936
 33
0.0
  0
SOLID
  5
1E2D7
330
1C9D2
100
AcDbEntity
  8
DIM
 62
     1
100
AcDbTrace
 10
612.9442266354211
 20
242.1596957901939
 30
0.0
 11
613.4442266354211
 21
242.1596957901939
 31
0.0
 12
613.1942266354212
 22
240.6596957901939
 32
0.0
 13
613.1942266354212
 23
240.6596957901939
 33
0.0
  0
MTEXT
  5
1E2D8
330
1C9D2
100
AcDbEntity
  8
DIM
 62
     4
100
AcDbMText
 10
611.8942266354212
 20
247.0096957901938
 30
0.0
 40
2.0
 41
0.0
 46
0.0
 71
     5
 72
     1
  1
\A1;%%C12.7
  7
Romans字体
 11
0.0000000000000001
 21
1.0
 31
0.0
 73
     1
 44
1.0
  0
POINT
  5
1E2D9
330
1C9D2
100
AcDbEntity
  8
Defpoints
 62
     0
100
AcDbPoint
 10
590.4734645739512
 20
253.3596957901936
 30
0.0
  0
POINT
  5
1E2DA
330
1C9D2
100
AcDbEntity
  8
Defpoints
 62
     0
100
AcDbPoint
 10
590.4734645739512
 20
240.6596957901939
 30
0.0
  0
POINT
  5
1E2DB
330
1C9D2
100
AcDbEntity
  8
Defpoints
 62
     0
100
AcDbPoint
 10
613.1942266354212
 20
240.6596957901939
 30
0.0
  0
ENDBLK
  5
1C9D4
330
1C9D2
100
AcDbEntity
  8
0
100
AcDbBlockEnd
  0
BLOCK
  5
1C9DF
330
1C9DE
100
AcDbEntity
  8
0
100
AcDbBlockBegin
  2
*D26
 70
     1
 10
0.0
 20
0.0
 30
0.0
  3
*D26
  1

  0
LINE
  5
1CA6B
330
1C9DE
100
AcDbEntity
  8
DIM
 62
     6
370
    -2
100
AcDbLine
 10
605.3691550098625
 20
252.5096957901936
 30
0.0
 11
610.1547374129467
 21
252.5096957901936
 31
0.0
  0
LINE
  5
1CA6C
330
1C9DE
100
AcDbEntity
  8
DIM
 62
     6
370
    -2
100
AcDbLine
 10
605.3691550098625
 20
241.5096957901937
 30
0.0
 11
610.1547374129467
 21
241.5096957901937
 31
0.0
  0
LINE
  5
1CA6D
330
1C9DE
100
AcDbEntity
  8
DIM
 62
     1
370
    -2
100
AcDbLine
 10
609.8547374129467
 20
251.0096957901937
 30
0.0
 11
609.8547374129467
 21
243.0096957901937
 31
0.0
  0
SOLID
  5
1CA6E
330
1C9DE
100
AcDbEntity
  8
DIM
 62
     1
100
AcDbTrace
 10
609.6047374129467
 20
251.0096957901937
 30
0.0
 11
610.1047374129467
 21
251.0096957901937
 31
0.0
 12
609.8547374129467
 22
252.5096957901936
 32
0.0
 13
609.8547374129467
 23
252.5096957901936
 33
0.0
  0
SOLID
  5
1CA6F
330
1C9DE
100
AcDbEntity
  8
DIM
 62
     1
100
AcDbTrace
 10
609.6047374129467
 20
243.0096957901937
 30
0.0
 11
610.1047374129467
 21
243.0096957901937
 31
0.0
 12
609.8547374129467
 22
241.5096957901937
 32
0.0
 13
609.8547374129467
 23
241.5096957901937
 33
0.0
  0
MTEXT
  5
1CA70
330
1C9DE
100
AcDbEntity
  8
DIM
 62
     4
100
AcDbMText
 10
608.5547374129467
 20
247.0096957901938
 30
0.0
 40
2.0
 41
0.0
 46
0.0
 71
     5
 72
     1
  1
\A1;%%C11
  7
Romans字体
 11
0.0000000000000001
 21
1.0
 31
0.0
 73
     1
 44
1.0
  0
POINT
  5
1CA71
330
1C9DE
100
AcDbEntity
  8
Defpoints
 62
     0
100
AcDbPoint
 10
605.1691550098625
 20
252.5096957901936
 30
0.0
  0
POINT
  5
1CA72
330
1C9DE
100
AcDbEntity
  8
Defpoints
 62
     0
100
AcDbPoint
 10
605.1691550098625
 20
241.5096957901937
 30
0.0
  0
POINT
  5
1CA73
330
1C9DE
100
AcDbEntity
  8
Defpoints
 62
     0
100
AcDbPoint
 10
609.8547374129467
 20
241.5096957901937
 30
0.0
  0
ENDBLK
  5
1C9E0
330
1C9DE
100
AcDbEntity
  8
0
100
AcDbBlockEnd
  0
BLOCK
  5
1C9EB
330
1C9EA
100
AcDbEntity
  8
0
100
AcDbBlockBegin
  2
*D27
 70
     1
 10
0.0
 20
0.0
 30
0.0
  3
*D27
  1

  0
LINE
  5
1CA74
330
1C9EA
100
AcDbEntity
  8
DIM
 62
     6
370
    -2
100
AcDbLine
 10
592.0503945739523
 20
242.6096972901939
 30
0.0
 11
592.0503945739523
 21
237.1312130631783
 31
0.0
  0
LINE
  5
1CA75
330
1C9EA
100
AcDbEntity
  8
DIM
 62
     6
370
    -2
100
AcDbLine
 10
606.2503945739521
 20
242.7719519406362
 30
0.0
 11
606.2503945739521
 21
237.1312130631783
 31
0.0
  0
LINE
  5
1CA76
330
1C9EA
100
AcDbEntity
  8
DIM
 62
     1
370
    -2
100
AcDbLine
 10
593.5503945739522
 20
237.4312130631783
 30
0.0
 11
604.7503945739521
 21
237.4312130631783
 31
0.0
  0
SOLID
  5
1CA77
330
1C9EA
100
AcDbEntity
  8
DIM
 62
     1
100
AcDbTrace
 10
593.5503945739522
 20
237.6812130631783
 30
0.0
 11
593.5503945739522
 21
237.1812130631783
 31
0.0
 12
592.0503945739523
 22
237.4312130631783
 32
0.0
 13
592.0503945739523
 23
237.4312130631783
 33
0.0
  0
SOLID
  5
1CA78
330
1C9EA
100
AcDbEntity
  8
DIM
 62
     1
100
AcDbTrace
 10
604.7503945739521
 20
237.6812130631783
 30
0.0
 11
604.7503945739521
 21
237.1812130631783
 31
0.0
 12
606.2503945739521
 22
237.4312130631783
 32
0.0
 13
606.2503945739521
 23
237.4312130631783
 33
0.0
  0
MTEXT
  5
1CA79
330
1C9EA
100
AcDbEntity
  8
DIM
 62
     4
100
AcDbMText
 10
599.1503945739522
 20
238.7312130631783
 30
0.0
 40
2.0
 41
0.0
 46
0.0
 71
     5
 72
     1
  1
\A1;14.2
  7
Romans字体
 73
     1
 44
1.0
  0
POINT
  5
1CA7A
330
1C9EA
100
AcDbEntity
  8
Defpoints
 62
     0
100
AcDbPoint
 10
592.0503945739523
 20
242.8096972901939
 30
0.0
  0
POINT
  5
1CA7B
330
1C9EA
100
AcDbEntity
  8
Defpoints
 62
     0
100
AcDbPoint
 10
606.2503945739521
 20
242.9719519406362
 30
0.0
  0
POINT
  5
1CA7C
330
1C9EA
100
AcDbEntity
  8
Defpoints
 62
     0
100
AcDbPoint
 10
606.2503945739521
 20
237.4312130631783
 30
0.0
  0
ENDBLK
  5
1C9EC
330
1C9EA
100
AcDbEntity
  8
0
100
AcDbBlockEnd
  0
BLOCK
  5
1D9FA
330
1D9F9
100
AcDbEntity
  8
0
100
AcDbBlockBegin
  2
_AH13
 70
     0
 10
0.0
 20
0.0
 30
0.0
  3
_AH13
  1

  0
SOLID
  5
1D9FB
330
1D9F9
100
AcDbEntity
  8
0
  6
Continuous
 62
     0
100
AcDbTrace
 10
0.0
 20
0.0
 30
0.0
 11
-1.0
 21
0.166667
 31
0.0
 12
-1.0
 22
-0.166667
 32
0.0
 13
0.0
 23
0.0
 33
0.0
  0
ENDBLK
  5
1D9FC
330
1D9F9
100
AcDbEntity
  8
0
100
AcDbBlockEnd
  0
BLOCK
  5
1DA26
330
1DA25
100
AcDbEntity
  8
0
100
AcDbBlockBegin
  2
*X42
 70
     1
 10
0.0
 20
0.0
 30
0.0
  3
*X42
  1

  0
LINE
  5
1DA27
330
1DA25
100
AcDbEntity
  8
2
  6
Continuous
 62
     1
100
AcDbLine
 10
-1.2016121
 20
-1.2016121
 30
0.0
 11
1.2016121
 21
1.2016121
 31
0.0
  0
LINE
  5
1DA28
330
1DA25
100
AcDbEntity
  8
2
  6
Continuous
 62
     1
100
AcDbLine
 10
-2.615825599999999
 20
-1.2016121
 30
0.0
 11
0.7581664700000001
 21
2.172379999999999
 31
0.0
  0
LINE
  5
1DA29
330
1DA25
100
AcDbEntity
  8
2
  6
Continuous
 62
     1
100
AcDbLine
 10
-4.0300392
 20
-1.2016121
 30
0.0
 11
0.6213622899999997
 21
3.449789399999998
 31
0.0
  0
LINE
  5
1DA2A
330
1DA25
100
AcDbEntity
  8
2
  6
Continuous
 62
     1
100
AcDbLine
 10
-5.444252699999998
 20
-1.2016121
 30
0.0
 11
-3.294257299999998
 21
0.9483833499999999
 31
0.0
  0
LINE
  5
1DA2B
330
1DA25
100
AcDbEntity
  8
2
  6
Continuous
 62
     1
100
AcDbLine
 10
-0.16678954
 20
4.075851199999998
 30
0.0
 11
1.370957399999999
 21
5.613598099999999
 31
0.0
  0
LINE
  5
1DA2C
330
1DA25
100
AcDbEntity
  8
2
  6
Continuous
 62
     1
100
AcDbLine
 10
-6.858466299999999
 20
-1.2016121
 30
0.0
 11
-4.7084709
 21
0.9483833499999999
 31
0.0
  0
LINE
  5
1DA2D
330
1DA25
100
AcDbEntity
  8
2
  6
Continuous
 62
     1
100
AcDbLine
 10
0.027515353
 20
5.684369599999999
 30
0.0
 11
0.8524053
 21
6.509259499999998
 31
0.0
  0
LINE
  5
1DA2E
330
1DA25
100
AcDbEntity
  8
2
  6
Continuous
 62
     1
100
AcDbLine
 10
-8.272679899999998
 20
-1.2016121
 30
0.0
 11
-6.1226845
 21
0.9483833499999999
 31
0.0
  0
LINE
  5
1DA2F
330
1DA25
100
AcDbEntity
  8
2
  6
Continuous
 62
     1
100
AcDbLine
 10
-0.49012274
 20
6.5809451
 30
0.0
 11
1.3573006
 21
8.4283684
 31
0.0
  0
LINE
  5
1DA30
330
1DA25
100
AcDbEntity
  8
2
  6
Continuous
 62
     1
100
AcDbLine
 10
-9.6868934
 20
-1.2016121
 30
0.0
 11
-7.536897999999998
 21
0.9483833499999999
 31
0.0
  0
LINE
  5
1DA31
330
1DA25
100
AcDbEntity
  8
2
  6
Continuous
 62
     1
100
AcDbLine
 10
-1.0077608
 20
7.477520499999998
 30
0.0
 11
1.1922893
 21
9.677570699999998
 31
0.0
  0
LINE
  5
1DA32
330
1DA25
100
AcDbEntity
  8
2
  6
Continuous
 62
     1
100
AcDbLine
 10
-11.101107
 20
-1.2016121
 30
0.0
 11
-8.951111599999999
 21
0.9483833499999999
 31
0.0
  0
LINE
  5
1DA33
330
1DA25
100
AcDbEntity
  8
2
  6
Continuous
 62
     1
100
AcDbLine
 10
-1.525398899999999
 20
8.374095999999997
 30
0.0
 11
0.3459189300000001
 21
10.245414
 31
0.0
  0
LINE
  5
1DA34
330
1DA25
100
AcDbEntity
  8
2
  6
Continuous
 62
     1
100
AcDbLine
 10
-12.515321
 20
-1.2016121
 30
0.0
 11
-10.365325
 21
0.9483833499999999
 31
0.0
  0
LINE
  5
1DA35
330
1DA25
100
AcDbEntity
  8
2
  6
Continuous
 62
     1
100
AcDbLine
 10
-2.165325199999998
 20
9.1483833
 30
0.0
 11
-0.36887973
 21
10.944829
 31
0.0
  0
LINE
  5
1DA36
330
1DA25
100
AcDbEntity
  8
2
  6
Continuous
 62
     1
100
AcDbLine
 10
-13.929534
 20
-1.2016121
 30
0.0
 11
-11.779539
 21
0.9483833499999999
 31
0.0
  0
LINE
  5
1DA37
330
1DA25
100
AcDbEntity
  8
2
  6
Continuous
 62
     1
100
AcDbLine
 10
-3.5795387
 20
9.1483833
 30
0.0
 11
-1.429541699999998
 21
11.29838
 31
0.0
  0
LINE
  5
1DA38
330
1DA25
100
AcDbEntity
  8
2
  6
Continuous
 62
     1
100
AcDbLine
 10
-15.343748
 20
-1.2016121
 30
0.0
 11
-13.193752
 21
0.9483833499999999
 31
0.0
  0
LINE
  5
1DA39
330
1DA25
100
AcDbEntity
  8
2
  6
Continuous
 62
     1
100
AcDbLine
 10
-4.993752299999998
 20
9.1483833
 30
0.0
 11
-2.8437552
 21
11.29838
 31
0.0
  0
LINE
  5
1DA3A
330
1DA25
100
AcDbEntity
  8
2
  6
Continuous
 62
     1
100
AcDbLine
 10
-16.757961
 20
-1.2016121
 30
0.0
 11
-14.607966
 21
0.9483833499999999
 31
0.0
  0
LINE
  5
1DA3B
330
1DA25
100
AcDbEntity
  8
2
  6
Continuous
 62
     1
100
AcDbLine
 10
-6.407965799999999
 20
9.1483833
 30
0.0
 11
-4.257968799999999
 21
11.29838
 31
0.0
  0
LINE
  5
1DA3C
330
1DA25
100
AcDbEntity
  8
2
  6
Continuous
 62
     1
100
AcDbLine
 10
-17.972434
 20
-1.001871199999999
 30
0.0
 11
-16.022179
 21
0.9483833499999999
 31
0.0
  0
LINE
  5
1DA3D
330
1DA25
100
AcDbEntity
  8
2
  6
Continuous
 62
     1
100
AcDbLine
 10
-7.822179399999997
 20
9.1483833
 30
0.0
 11
-5.672182399999998
 21
11.29838
 31
0.0
  0
LINE
  5
1DA3E
330
1DA25
100
AcDbEntity
  8
2
  6
Continuous
 62
     1
100
AcDbLine
 10
-9.236392999999999
 20
9.1483833
 30
0.0
 11
-7.0863959
 21
11.29838
 31
0.0
  0
LINE
  5
1DA3F
330
1DA25
100
AcDbEntity
  8
2
  6
Continuous
 62
     1
100
AcDbLine
 10
-10.650607
 20
9.1483833
 30
0.0
 11
-8.500609499999997
 21
11.29838
 31
0.0
  0
LINE
  5
1DA40
330
1DA25
100
AcDbEntity
  8
2
  6
Continuous
 62
     1
100
AcDbLine
 10
-12.06482
 20
9.1483833
 30
0.0
 11
-9.914823099999999
 21
11.29838
 31
0.0
  0
LINE
  5
1DA41
330
1DA25
100
AcDbEntity
  8
2
  6
Continuous
 62
     1
100
AcDbLine
 10
-13.479034
 20
9.1483833
 30
0.0
 11
-11.329037
 21
11.29838
 31
0.0
  0
LINE
  5
1DA42
330
1DA25
100
AcDbEntity
  8
2
  6
Continuous
 62
     1
100
AcDbLine
 10
-14.893247
 20
9.1483833
 30
0.0
 11
-12.74325
 21
11.29838
 31
0.0
  0
LINE
  5
1DA43
330
1DA25
100
AcDbEntity
  8
2
  6
Continuous
 62
     1
100
AcDbLine
 10
-16.282909
 20
9.172935499999999
 30
0.0
 11
-14.157464
 21
11.29838
 31
0.0
  0
LINE
  5
1DA44
330
1DA25
100
AcDbEntity
  8
2
  6
Continuous
 62
     1
100
AcDbLine
 10
-17.179484
 20
9.690573599999998
 30
0.0
 11
-15.571677
 21
11.29838
 31
0.0
  0
LINE
  5
1DA45
330
1DA25
100
AcDbEntity
  8
2
  6
Continuous
 62
     1
100
AcDbLine
 10
-17.972434
 20
10.311837
 30
0.0
 11
-16.985891
 21
11.29838
 31
0.0
  0
ENDBLK
  5
1DA46
330
1DA25
100
AcDbEntity
  8
0
100
AcDbBlockEnd
  0
ENDSEC
  0
SECTION
  2
ENTITIES
  0
HATCH
  5
28AE
330
1F
100
AcDbEntity
  8
图层 1
 62
     7
100
AcDbHatch
 10
0.0
 20
0.0
 30
0.0
210
0.0
220
0.0
230
1.0
  2
SOLID
 70
     1
 71
     0
 91
        1
 92
        1
 93
        2
 72
     4
 94
        3
 73
     0
 74
     0
 95
       17
 96
       13
 40
0.0
 40
0.0
 40
0.0
 40
0.0
 40
0.3527780104152769
 40
0.3527780104152769
 40
0.3527780104152769
 40
0.7055560208305538
 40
0.7055560208305538
 40
0.7055560208305538
 40
1.058334031245828
 40
1.058334031245828
 40
1.058334031245828
 40
1.411112041661104
 40
1.411112041661104
 40
1.411112041661104
 40
1.411112041661104
 10
11.07013262565829
 20
29.50312817963231
 10
11.07013262565829
 20
29.50312817963231
 10
10.9431807732774
 20
29.50312817963231
 10
10.9431807732774
 20
29.50312817963231
 10
10.9431807732774
 20
29.50312817963231
 10
10.85843136843155
 20
29.22786486877117
 10
10.85843136843155
 20
29.22786486877117
 10
10.85843136843155
 20
29.22786486877117
 10
10.90080607085448
 20
29.2068497724476
 10
10.90080607085448
 20
29.2068497724476
 10
10.94455881238059
 20
29.31571486159919
 10
11.00346998404173
 20
29.40907701083995
 10
11.07013262565829
 20
29.50312817963231
 72
     1
 10
11.07013262565829
 20
29.50312817963231
 11
11.07013262565829
 21
29.50312817963231
 97
        0
 75
     0
 76
     1
 98
        0
450
        0
451
        0
460
0.0
461
0.0
452
        0
462
0.0
453
        0
470

  0
HATCH
  5
2C65
330
1F
100
AcDbEntity
  8
图层 1
 62
     7
100
AcDbHatch
 10
0.0
 20
0.0
 30
0.0
210
0.0
220
0.0
230
1.0
  2
SOLID
 70
     1
 71
     0
 91
        1
 92
        1
 93
        2
 72
     4
 94
        3
 73
     0
 74
     0
 95
       47
 96
       43
 40
0.0
 40
0.0
 40
0.0
 40
0.0
 40
0.3527780104152769
 40
0.3527780104152769
 40
0.3527780104152769
 40
0.7055560208305538
 40
0.7055560208305538
 40
0.7055560208305538
 40
1.058334031245828
 40
1.058334031245828
 40
1.058334031245828
 40
1.411112041661104
 40
1.411112041661104
 40
1.411112041661104
 40
1.763890052076384
 40
1.763890052076384
 40
1.763890052076384
 40
2.116668062491659
 40
2.116668062491659
 40
2.116668062491659
 40
2.469446072906936
 40
2.469446072906936
 40
2.469446072906936
 40
2.822224083322215
 40
2.822224083322215
 40
2.822224083322215
 40
3.175002093737492
 40
3.175002093737492
 40
3.175002093737492
 40
3.527780104152768
 40
3.527780104152768
 40
3.527780104152768
 40
3.880558114568044
 40
3.880558114568044
 40
3.880558114568044
 40
4.233336124983321
 40
4.233336124983321
 40
4.233336124983321
 40
4.586114135398599
 40
4.586114135398599
 40
4.586114135398599
 40
4.938892145813873
 40
4.938892145813873
 40
4.938892145813873
 40
4.938892145813873
 10
162.8986914070121
 20
257.4895347631509
 10
162.8986914070121
 20
257.4895347631509
 10
162.9200510131114
 20
257.4471600607279
 10
162.9200510131114
 20
257.4471600607279
 10
162.9200510131114
 20
257.4471600607279
 10
162.9200510131114
 20
257.404785358305
 10
162.9200510131114
 20
257.404785358305
 10
162.9200510131114
 20
257.404785358305
 10
162.8986914070121
 20
257.36258291077
 10
162.8986914070121
 20
257.36258291077
 10
162.8986914070121
 20
257.36258291077
 10
162.8986914070121
 20
257.320208208347
 10
162.8986914070121
 20
257.320208208347
 10
162.8986914070121
 20
257.320208208347
 10
162.8563167045891
 20
257.2990208571356
 10
162.8563167045891
 20
257.2990208571356
 10
162.8563167045891
 20
257.2990208571356
 10
162.8139420021662
 20
257.2563016449369
 10
162.8139420021662
 20
257.2563016449369
 10
162.8139420021662
 20
257.2563016449369
 10
162.7295371070961
 20
257.2563016449369
 10
162.7295371070961
 20
257.2563016449369
 10
162.7295371070961
 20
257.2563016449369
 10
162.6658027985738
 20
257.2778335059241
 10
162.6658027985738
 20
257.2778335059241
 10
162.6658027985738
 20
257.2778335059241
 10
162.6237726059267
 20
257.2990208571356
 10
162.6237726059267
 20
257.2990208571356
 10
162.6237726059267
 20
257.2990208571356
 10
162.5813979035038
 20
257.3413955595585
 10
162.5813979035038
 20
257.3413955595585
 10
162.5813979035038
 20
257.3413955595585
 10
162.5813979035038
 20
257.4895347631509
 10
162.5813979035038
 20
257.4895347631509
 10
162.5813979035038
 20
257.4895347631509
 10
162.6447877022503
 20
257.5525800521216
 10
162.6447877022503
 20
257.5525800521216
 10
162.6447877022503
 20
257.5525800521216
 10
162.7081775009967
 20
257.5525800521216
 10
162.7081775009967
 20
257.5525800521216
 10
162.8749202324821
 20
257.5424170137356
 10
162.7918933765152
 20
257.5939212252171
 10
162.8986914070121
 20
257.4895347631509
 72
     1
 10
162.8986914070121
 20
257.4895347631509
 11
162.8986914070121
 21
257.4895347631509
 97
        0
 75
     0
 76
     1
 98
        0
450
        0
451
        0
460
0.0
461
0.0
452
        0
462
0.0
453
        0
470

  0
HATCH
  5
2EE7
330
1F
100
AcDbEntity
  8
图层 1
 62
     7
100
AcDbHatch
 10
0.0
 20
0.0
 30
0.0
210
0.0
220
0.0
230
1.0
  2
SOLID
 70
     1
 71
     0
 91
        1
 92
        1
 93
        2
 72
     4
 94
        3
 73
     0
 74
     0
 95
       56
 96
       52
 40
0.0
 40
0.0
 40
0.0
 40
0.0
 40
0.3527780104152769
 40
0.3527780104152769
 40
0.3527780104152769
 40
0.7055560208305538
 40
0.7055560208305538
 40
0.7055560208305538
 40
1.058334031245828
 40
1.058334031245828
 40
1.058334031245828
 40
1.411112041661104
 40
1.411112041661104
 40
1.411112041661104
 40
1.763890052076384
 40
1.763890052076384
 40
1.763890052076384
 40
2.116668062491659
 40
2.116668062491659
 40
2.116668062491659
 40
2.469446072906936
 40
2.469446072906936
 40
2.469446072906936
 40
2.822224083322215
 40
2.822224083322215
 40
2.822224083322215
 40
3.175002093737492
 40
3.175002093737492
 40
3.175002093737492
 40
3.527780104152768
 40
3.527780104152768
 40
3.527780104152768
 40
3.880558114568044
 40
3.880558114568044
 40
3.880558114568044
 40
4.233336124983321
 40
4.233336124983321
 40
4.233336124983321
 40
4.586114135398599
 40
4.586114135398599
 40
4.586114135398599
 40
4.938892145813873
 40
4.938892145813873
 40
4.938892145813873
 40
5.291670156229153
 40
5.291670156229153
 40
5.291670156229153
 40
5.64444816664443
 40
5.64444816664443
 40
5.64444816664443
 40
5.997226177059705
 40
5.997226177059705
 40
5.997226177059705
 40
5.997226177059705
 10
185.4837187788815
 20
241.4451977396596
 10
185.4837187788815
 20
241.4451977396596
 10
185.4837187788815
 20
241.4028230372367
 10
185.4837187788815
 20
241.4028230372367
 10
185.4837187788815
 20
241.4028230372367
 10
185.5047338752051
 20
241.3604483348137
 10
185.5047338752051
 20
241.3604483348137
 10
185.4520238795082
 20
241.2782827532863
 10
185.4671823096433
 20
241.1897437409066
 10
185.335579575289
 20
241.2119646214456
 10
185.335579575289
 20
241.2119646214456
 10
185.2932048728662
 20
241.2119646214456
 10
185.2932048728662
 20
241.2119646214456
 10
185.2932048728662
 20
241.2119646214456
 10
185.2294705643439
 20
241.2334964824328
 10
185.2294705643439
 20
241.2334964824328
 10
185.2294705643439
 20
241.2334964824328
 10
185.1660807655974
 20
241.2543393238685
 10
185.1660807655974
 20
241.2543393238685
 10
185.1660807655974
 20
241.2543393238685
 10
185.1450656692739
 20
241.2758711848558
 10
185.1450656692739
 20
241.2758711848558
 10
185.1450656692739
 20
241.2758711848558
 10
185.1450656692739
 20
241.2967140262914
 10
185.1450656692739
 20
241.2967140262914
 10
185.1450656692739
 20
241.2967140262914
 10
185.1237060631745
 20
241.3604483348137
 10
185.1237060631745
 20
241.3604483348137
 10
185.1237060631745
 20
241.3604483348137
 10
185.1237060631745
 20
241.4028230372367
 10
185.1237060631745
 20
241.4028230372367
 10
185.1237060631745
 20
241.4028230372367
 10
185.1660807655974
 20
241.4875724420825
 10
185.1660807655974
 20
241.4875724420825
 10
185.1660807655974
 20
241.4875724420825
 10
185.2084554680203
 20
241.5085875384061
 10
185.2084554680203
 20
241.5085875384061
 10
185.2084554680203
 20
241.5085875384061
 10
185.2718452667668
 20
241.5297748896175
 10
185.2718452667668
 20
241.5297748896175
 10
185.2718452667668
 20
241.5297748896175
 10
185.3565946716127
 20
241.5297748896175
 10
185.3565946716127
 20
241.5297748896175
 10
185.3565946716127
 20
241.5297748896175
 10
185.4199844703592
 20
241.5085875384061
 10
185.4199844703592
 20
241.5085875384061
 10
185.4199844703592
 20
241.5085875384061
 10
185.4623591727821
 20
241.4875724420825
 10
185.4623591727821
 20
241.4875724420825
 10
185.4623591727821
 20
241.4875724420825
 10
185.4837187788815
 20
241.4451977396596
 10
185.4837187788815
 20
241.4451977396596
 72
     1
 10
185.4837187788815
 20
241.4451977396596
 11
185.4837187788815
 21
241.4451977396596
 97
        0
 75
     0
 76
     1
 98
        0
450
        0
451
        0
460
0.0
461
0.0
452
        0
462
0.0
453
        0
470

  0
HATCH
  5
2F93
330
1F
100
AcDbEntity
  8
图层 1
 62
     7
100
AcDbHatch
 10
0.0
 20
0.0
 30
0.0
210
0.0
220
0.0
230
1.0
  2
SOLID
 70
     1
 71
     0
 91
        1
 92
        1
 93
        2
 72
     4
 94
        3
 73
     0
 74
     0
 95
       38
 96
       34
 40
0.0
 40
0.0
 40
0.0
 40
0.0
 40
0.3527780104152769
 40
0.3527780104152769
 40
0.3527780104152769
 40
0.7055560208305538
 40
0.7055560208305538
 40
0.7055560208305538
 40
1.058334031245828
 40
1.058334031245828
 40
1.058334031245828
 40
1.411112041661104
 40
1.411112041661104
 40
1.411112041661104
 40
1.763890052076384
 40
1.763890052076384
 40
1.763890052076384
 40
2.116668062491659
 40
2.116668062491659
 40
2.116668062491659
 40
2.469446072906936
 40
2.469446072906936
 40
2.469446072906936
 40
2.822224083322215
 40
2.822224083322215
 40
2.822224083322215
 40
3.175002093737492
 40
3.175002093737492
 40
3.175002093737492
 40
3.527780104152768
 40
3.527780104152768
 40
3.527780104152768
 40
3.880558114568044
 40
3.880558114568044
 40
3.880558114568044
 40
3.880558114568044
 10
185.907121293335
 20
220.1937677098971
 10
185.9005756075949
 20
220.0449394867532
 10
185.9329595265197
 20
220.1136691870245
 10
185.864746590912
 20
219.9817219428946
 10
185.864746590912
 20
219.9817219428946
 10
185.822371888489
 20
219.9605345916831
 10
185.822371888489
 20
219.9605345916831
 10
185.822371888489
 20
219.9605345916831
 10
185.6528730787974
 20
219.9605345916831
 10
185.6528730787974
 20
219.9605345916831
 10
185.6528730787974
 20
219.9605345916831
 10
185.5894832800509
 20
220.002909294106
 10
185.5894832800509
 20
220.002909294106
 10
185.5894832800509
 20
220.002909294106
 10
185.5681236739515
 20
220.0240966453175
 10
185.5681236739515
 20
220.0240966453175
 10
185.5681236739515
 20
220.0240966453175
 10
185.5681236739515
 20
220.045283996529
 10
185.5681236739515
 20
220.045283996529
 10
185.5681236739515
 20
220.045283996529
 10
185.547108577628
 20
220.0876586989519
 10
185.547108577628
 20
220.0876586989519
 10
185.547108577628
 20
220.0876586989519
 10
185.547108577628
 20
220.1513930074742
 10
185.547108577628
 20
220.1513930074742
 10
185.547108577628
 20
220.1513930074742
 10
185.5894832800509
 20
220.23614241232
 10
185.5894832800509
 20
220.23614241232
 10
185.5894832800509
 20
220.23614241232
 10
185.6318579824738
 20
220.2573297635315
 10
185.6318579824738
 20
220.2573297635315
 10
185.7055830744942
 20
220.2566407439799
 10
185.8416644359337
 20
220.3310548555519
 10
185.907121293335
 20
220.1937677098971
 72
     1
 10
185.907121293335
 20
220.1937677098971
 11
185.907121293335
 21
220.1937677098971
 97
        0
 75
     0
 76
     1
 98
        0
450
        0
451
        0
460
0.0
461
0.0
452
        0
462
0.0
453
        0
470

  0
HATCH
  5
2FDE
330
1F
100
AcDbEntity
  8
图层 1
 62
     7
100
AcDbHatch
 10
0.0
 20
0.0
 30
0.0
210
0.0
220
0.0
230
1.0
  2
SOLID
 70
     1
 71
     0
 91
        1
 92
        1
 93
        2
 72
     4
 94
        3
 73
     0
 74
     0
 95
       50
 96
       46
 40
0.0
 40
0.0
 40
0.0
 40
0.0
 40
0.3527780104152769
 40
0.3527780104152769
 40
0.3527780104152769
 40
0.7055560208305538
 40
0.7055560208305538
 40
0.7055560208305538
 40
1.058334031245828
 40
1.058334031245828
 40
1.058334031245828
 40
1.411112041661104
 40
1.411112041661104
 40
1.411112041661104
 40
1.763890052076384
 40
1.763890052076384
 40
1.763890052076384
 40
2.116668062491659
 40
2.116668062491659
 40
2.116668062491659
 40
2.469446072906936
 40
2.469446072906936
 40
2.469446072906936
 40
2.822224083322215
 40
2.822224083322215
 40
2.822224083322215
 40
3.175002093737492
 40
3.175002093737492
 40
3.175002093737492
 40
3.527780104152768
 40
3.527780104152768
 40
3.527780104152768
 40
3.880558114568044
 40
3.880558114568044
 40
3.880558114568044
 40
4.233336124983321
 40
4.233336124983321
 40
4.233336124983321
 40
4.586114135398599
 40
4.586114135398599
 40
4.586114135398599
 40
4.938892145813873
 40
4.938892145813873
 40
4.938892145813873
 40
5.291670156229153
 40
5.291670156229153
 40
5.291670156229153
 40
5.291670156229153
 10
180.9117295442905
 20
208.9327766684477
 10
180.9117295442905
 20
208.9327766684477
 10
180.9117295442905
 20
208.7637946234197
 10
180.9117295442905
 20
208.7637946234197
 10
181.2273004989198
 20
208.6749111012643
 10
181.3833634273555
 20
208.6776671794706
 10
181.6948002646751
 20
208.5097186637701
 10
181.9542161258496
 20
208.4294478860095
 10
182.1388733656765
 20
208.2134402565853
 10
182.3297317814676
 20
208.02292635057
 10
182.3297317814676
 20
208.02292635057
 10
182.435496282637
 20
208.065301052993
 10
182.435496282637
 20
208.065301052993
 10
182.288390608372
 20
208.2733849575739
 10
182.3752070718726
 20
208.2134402565853
 10
182.1605774815516
 20
208.3824223016133
 10
182.1605774815516
 20
208.3824223016133
 10
182.1182027791287
 20
208.4247970040363
 10
182.1182027791287
 20
208.4247970040363
 10
182.1182027791287
 20
208.4247970040363
 10
182.0968431730294
 20
208.467516216235
 10
182.0968431730294
 20
208.467516216235
 10
182.0968431730294
 20
208.467516216235
 10
182.0544684706064
 20
208.4883590576707
 10
182.0544684706064
 20
208.4883590576707
 10
182.0544684706064
 20
208.4883590576707
 10
181.9910786718599
 20
208.5305615052057
 10
181.9910786718599
 20
208.5305615052057
 10
181.9910786718599
 20
208.5305615052057
 10
181.948703969437
 20
208.552093366193
 10
181.948703969437
 20
208.552093366193
 10
181.948703969437
 20
208.552093366193
 10
181.9063292670141
 20
208.5729362076286
 10
181.9063292670141
 20
208.5729362076286
 10
181.9063292670141
 20
208.5729362076286
 10
181.8639545645911
 20
208.6156554198274
 10
181.8639545645911
 20
208.6156554198274
 10
181.8639545645911
 20
208.6156554198274
 10
181.821924371944
 20
208.6368427710388
 10
181.821924371944
 20
208.6368427710388
 10
181.6637943848536
 20
208.6742220817127
 10
181.5452830219797
 20
208.8092699138248
 10
181.3771622513911
 20
208.8061693258427
 10
181.2803550043924
 20
208.8573290275484
 10
181.0126709085988
 20
208.8971199066528
 10
180.9117295442905
 20
208.9327766684477
 72
     1
 10
180.9117295442905
 20
208.9327766684477
 11
180.9117295442905
 21
208.9327766684477
 97
        0
 75
     0
 76
     1
 98
        0
450
        0
451
        0
460
0.0
461
0.0
452
        0
462
0.0
453
        0
470

  0
HATCH
  5
35C8
330
1F
100
AcDbEntity
  8
图层 1
 62
     7
100
AcDbHatch
 10
0.0
 20
0.0
 30
0.0
210
0.0
220
0.0
230
1.0
  2
SOLID
 70
     1
 71
     0
 91
        1
 92
        1
 93
        2
 72
     4
 94
        3
 73
     0
 74
     0
 95
       38
 96
       34
 40
0.0
 40
0.0
 40
0.0
 40
0.0
 40
0.3527780104152769
 40
0.3527780104152769
 40
0.3527780104152769
 40
0.7055560208305538
 40
0.7055560208305538
 40
0.7055560208305538
 40
1.058334031245828
 40
1.058334031245828
 40
1.058334031245828
 40
1.411112041661104
 40
1.411112041661104
 40
1.411112041661104
 40
1.763890052076384
 40
1.763890052076384
 40
1.763890052076384
 40
2.116668062491659
 40
2.116668062491659
 40
2.116668062491659
 40
2.469446072906936
 40
2.469446072906936
 40
2.469446072906936
 40
2.822224083322215
 40
2.822224083322215
 40
2.822224083322215
 40
3.175002093737492
 40
3.175002093737492
 40
3.175002093737492
 40
3.527780104152768
 40
3.527780104152768
 40
3.527780104152768
 40
3.880558114568044
 40
3.880558114568044
 40
3.880558114568044
 40
3.880558114568044
 10
189.145513185819
 20
166.8326485368285
 10
189.207869455238
 20
166.740492171803
 10
189.1317327947871
 20
166.6833035490209
 10
189.103138483396
 20
166.6209472796017
 10
189.103138483396
 20
166.6209472796017
 10
189.0607637809731
 20
166.5997599283903
 10
189.0607637809731
 20
166.5997599283903
 10
189.0607637809731
 20
166.5997599283903
 10
188.9973739822266
 20
166.5785725771788
 10
188.9973739822266
 20
166.5785725771788
 10
188.9973739822266
 20
166.5785725771788
 10
188.9549992798037
 20
166.5997599283903
 10
188.9549992798037
 20
166.5997599283903
 10
188.9549992798037
 20
166.5997599283903
 10
188.8916094810572
 20
166.5997599283903
 10
188.8916094810572
 20
166.5997599283903
 10
188.8916094810572
 20
166.5997599283903
 10
188.8492347786343
 20
166.6209472796017
 10
188.8492347786343
 20
166.6209472796017
 10
188.8492347786343
 20
166.6209472796017
 10
188.8278751725349
 20
166.6633219820247
 10
188.8278751725349
 20
166.6633219820247
 10
188.8278751725349
 20
166.6633219820247
 10
188.8068600762114
 20
166.6845093332361
 10
188.8068600762114
 20
166.6845093332361
 10
188.8068600762114
 20
166.6845093332361
 10
188.8068600762114
 20
166.8326485368285
 10
188.8068600762114
 20
166.8326485368285
 10
188.8068600762114
 20
166.8326485368285
 10
188.8702498749578
 20
166.896038335575
 10
188.8702498749578
 20
166.896038335575
 10
189.0228677056355
 20
166.8819134347673
 10
189.0686875058164
 20
166.9411691162043
 10
189.145513185819
 20
166.8326485368285
 72
     1
 10
189.145513185819
 20
166.8326485368285
 11
189.145513185819
 21
166.8326485368285
 97
        0
 75
     0
 76
     1
 98
        0
450
        0
451
        0
460
0.0
461
0.0
452
        0
462
0.0
453
        0
470

  0
HATCH
  5
35D8
330
1F
100
AcDbEntity
  8
图层 1
 62
     7
100
AcDbHatch
 10
0.0
 20
0.0
 30
0.0
210
0.0
220
0.0
230
1.0
  2
SOLID
 70
     1
 71
     0
 91
        1
 92
        1
 93
        2
 72
     4
 94
        3
 73
     0
 74
     0
 95
       68
 96
       64
 40
0.0
 40
0.0
 40
0.0
 40
0.0
 40
0.3527780104152769
 40
0.3527780104152769
 40
0.3527780104152769
 40
0.7055560208305538
 40
0.7055560208305538
 40
0.7055560208305538
 40
1.058334031245828
 40
1.058334031245828
 40
1.058334031245828
 40
1.411112041661104
 40
1.411112041661104
 40
1.411112041661104
 40
1.763890052076384
 40
1.763890052076384
 40
1.763890052076384
 40
2.116668062491659
 40
2.116668062491659
 40
2.116668062491659
 40
2.469446072906936
 40
2.469446072906936
 40
2.469446072906936
 40
2.822224083322215
 40
2.822224083322215
 40
2.822224083322215
 40
3.175002093737492
 40
3.175002093737492
 40
3.175002093737492
 40
3.527780104152768
 40
3.527780104152768
 40
3.527780104152768
 40
3.880558114568044
 40
3.880558114568044
 40
3.880558114568044
 40
4.233336124983321
 40
4.233336124983321
 40
4.233336124983321
 40
4.586114135398599
 40
4.586114135398599
 40
4.586114135398599
 40
4.938892145813873
 40
4.938892145813873
 40
4.938892145813873
 40
5.291670156229153
 40
5.291670156229153
 40
5.291670156229153
 40
5.64444816664443
 40
5.64444816664443
 40
5.64444816664443
 40
5.997226177059705
 40
5.997226177059705
 40
5.997226177059705
 40
6.350004187474984
 40
6.350004187474984
 40
6.350004187474984
 40
6.702782197890257
 40
6.702782197890257
 40
6.702782197890257
 40
7.055560208305537
 40
7.055560208305537
 40
7.055560208305537
 40
7.408338218720808
 40
7.408338218720808
 40
7.408338218720808
 40
7.408338218720808
 10
174.7732543591544
 20
135.4846705078077
 10
174.7732543591544
 20
135.4846705078077
 10
174.7732543591544
 20
135.3789060066383
 10
174.7732543591544
 20
135.3789060066383
 10
174.7732543591544
 20
135.3789060066383
 10
174.8156290615773
 20
135.3789060066383
 10
174.8156290615773
 20
135.3789060066383
 10
174.8156290615773
 20
135.3789060066383
 10
174.8580037640002
 20
135.3578909103147
 10
174.8580037640002
 20
135.3578909103147
 10
174.8580037640002
 20
135.3578909103147
 10
174.9213935627468
 20
135.3578909103147
 10
174.9213935627468
 20
135.3578909103147
 10
174.9213935627468
 20
135.3578909103147
 10
174.9637682651697
 20
135.3365313042154
 10
174.9637682651697
 20
135.3365313042154
 10
174.9637682651697
 20
135.3365313042154
 10
174.9847833614933
 20
135.3365313042154
 10
174.9847833614933
 20
135.3365313042154
 10
174.9847833614933
 20
135.3365313042154
 10
175.0271580639162
 20
135.3155162078918
 10
175.0271580639162
 20
135.3155162078918
 10
175.0271580639162
 20
135.3155162078918
 10
175.0485176700155
 20
135.2941566017924
 10
175.0485176700155
 20
135.2941566017924
 10
175.0485176700155
 20
135.2941566017924
 10
175.0695327663391
 20
135.2941566017924
 10
175.0695327663391
 20
135.2941566017924
 10
175.0695327663391
 20
135.2941566017924
 10
175.0908923724385
 20
135.2731415054689
 10
175.0908923724385
 20
135.2731415054689
 10
175.0908923724385
 20
135.2731415054689
 10
175.1332670748614
 20
135.2731415054689
 10
175.1332670748614
 20
135.2731415054689
 10
175.1332670748614
 20
135.2731415054689
 10
175.154282171185
 20
135.2517818993695
 10
175.154282171185
 20
135.2517818993695
 10
175.154282171185
 20
135.2517818993695
 10
175.154282171185
 20
135.3578909103147
 10
175.154282171185
 20
135.3578909103147
 10
175.154282171185
 20
135.3578909103147
 10
175.1332670748614
 20
135.3789060066383
 10
175.1332670748614
 20
135.3789060066383
 10
175.1332670748614
 20
135.3789060066383
 10
175.0908923724385
 20
135.3789060066383
 10
175.0908923724385
 20
135.3789060066383
 10
175.0908923724385
 20
135.3789060066383
 10
175.0908923724385
 20
135.3999211029619
 10
175.0908923724385
 20
135.3999211029619
 10
175.0908923724385
 20
135.3999211029619
 10
175.0695327663391
 20
135.3999211029619
 10
175.0695327663391
 20
135.3999211029619
 10
175.0695327663391
 20
135.3999211029619
 10
175.0271580639162
 20
135.4212807090612
 10
175.0271580639162
 20
135.4212807090612
 10
175.0271580639162
 20
135.4212807090612
 10
175.0061429675926
 20
135.4212807090612
 10
175.0061429675926
 20
135.4212807090612
 10
175.0061429675926
 20
135.4212807090612
 10
174.9637682651697
 20
135.4422958053848
 10
174.9637682651697
 20
135.4422958053848
 10
174.8996894468716
 20
135.4498750204523
 10
174.8394002361073
 20
135.4860485469109
 10
174.7732543591544
 20
135.4846705078077
 72
     1
 10
174.7732543591544
 20
135.4846705078077
 11
174.7732543591544
 21
135.4846705078077
 97
        0
 75
     0
 76
     1
 98
        0
450
        0
451
        0
460
0.0
461
0.0
452
        0
462
0.0
453
        0
470

  0
HATCH
  5
3807
330
1F
100
AcDbEntity
  8
图层 1
 62
     7
100
AcDbHatch
 10
0.0
 20
0.0
 30
0.0
210
0.0
220
0.0
230
1.0
  2
SOLID
 70
     1
 71
     0
 91
        1
 92
        1
 93
        2
 72
     4
 94
        3
 73
     0
 74
     0
 95
       29
 96
       25
 40
0.0
 40
0.0
 40
0.0
 40
0.0
 40
0.3527780104152769
 40
0.3527780104152769
 40
0.3527780104152769
 40
0.7055560208305538
 40
0.7055560208305538
 40
0.7055560208305538
 40
1.058334031245828
 40
1.058334031245828
 40
1.058334031245828
 40
1.411112041661104
 40
1.411112041661104
 40
1.411112041661104
 40
1.763890052076384
 40
1.763890052076384
 40
1.763890052076384
 40
2.116668062491659
 40
2.116668062491659
 40
2.116668062491659
 40
2.469446072906936
 40
2.469446072906936
 40
2.469446072906936
 40
2.822224083322215
 40
2.822224083322215
 40
2.822224083322215
 40
2.822224083322215
 10
175.4929352807925
 20
164.0174869039101
 10
175.4929352807925
 20
164.0174869039101
 10
175.5139503771161
 20
163.9751122014871
 10
175.5139503771161
 20
163.9751122014871
 10
175.5139503771161
 20
163.9751122014871
 10
175.5139503771161
 20
163.9327374990642
 10
175.5139503771161
 20
163.9327374990642
 10
175.5139503771161
 20
163.9327374990642
 10
175.4929352807925
 20
163.8903627966413
 10
175.4929352807925
 20
163.8903627966413
 10
175.4929352807925
 20
163.8903627966413
 10
175.471920184469
 20
163.8691754454298
 10
175.471920184469
 20
163.8691754454298
 10
175.471920184469
 20
163.8691754454298
 10
175.4505605783696
 20
163.8269729978948
 10
175.4505605783696
 20
163.8269729978948
 10
175.3571984291289
 20
163.7715069239916
 10
175.272449024283
 20
163.8195660377152
 10
175.1966568736079
 20
163.8691754454298
 10
175.208370205985
 20
163.9930267098286
 10
175.1563492298397
 20
164.0216210212197
 10
175.2600466723544
 20
164.0596893514451
 10
175.3330827448232
 20
164.1094710140476
 10
175.4357466580104
 20
164.0753645462439
 10
175.4929352807925
 20
164.0174869039101
 72
     1
 10
175.4929352807925
 20
164.0174869039101
 11
175.4929352807925
 21
164.0174869039101
 97
        0
 75
     0
 76
     1
 98
        0
450
        0
451
        0
460
0.0
461
0.0
452
        0
462
0.0
453
        0
470

  0
HATCH
  5
3895
330
1F
100
AcDbEntity
  8
图层 1
 62
     7
100
AcDbHatch
 10
0.0
 20
0.0
 30
0.0
210
0.0
220
0.0
230
1.0
  2
SOLID
 70
     1
 71
     0
 91
        1
 92
        1
 93
        2
 72
     4
 94
        3
 73
     0
 74
     0
 95
       11
 96
        7
 40
0.0
 40
0.0
 40
0.0
 40
0.0
 40
0.3527780104152769
 40
0.3527780104152769
 40
0.3527780104152769
 40
0.7055560208305538
 40
0.7055560208305538
 40
0.7055560208305538
 40
0.7055560208305538
 10
174.9213935627468
 20
174.5369206529582
 10
174.9213935627468
 20
174.5369206529582
 10
174.9213935627468
 20
174.3043765542958
 10
174.9213935627468
 20
174.3043765542958
 10
174.9213935627468
 20
174.3043765542958
 10
174.9213935627468
 20
174.5369206529582
 10
174.9213935627468
 20
174.5369206529582
 72
     1
 10
174.9213935627468
 20
174.5369206529582
 11
174.9213935627468
 21
174.5369206529582
 97
        0
 75
     0
 76
     1
 98
        0
450
        0
451
        0
460
0.0
461
0.0
452
        0
462
0.0
453
        0
470

  0
HATCH
  5
3943
330
1F
100
AcDbEntity
  8
图层 1
 62
     7
100
AcDbHatch
 10
0.0
 20
0.0
 30
0.0
210
0.0
220
0.0
230
1.0
  2
SOLID
 70
     1
 71
     0
 91
        1
 92
        1
 93
        2
 72
     4
 94
        3
 73
     0
 74
     0
 95
      131
 96
      127
 40
0.0
 40
0.0
 40
0.0
 40
0.0
 40
0.3527780104152769
 40
0.3527780104152769
 40
0.3527780104152769
 40
0.7055560208305538
 40
0.7055560208305538
 40
0.7055560208305538
 40
1.058334031245828
 40
1.058334031245828
 40
1.058334031245828
 40
1.411112041661104
 40
1.411112041661104
 40
1.411112041661104
 40
1.763890052076384
 40
1.763890052076384
 40
1.763890052076384
 40
2.116668062491659
 40
2.116668062491659
 40
2.116668062491659
 40
2.469446072906936
 40
2.469446072906936
 40
2.469446072906936
 40
2.822224083322215
 40
2.822224083322215
 40
2.822224083322215
 40
3.175002093737492
 40
3.175002093737492
 40
3.175002093737492
 40
3.527780104152768
 40
3.527780104152768
 40
3.527780104152768
 40
3.880558114568044
 40
3.880558114568044
 40
3.880558114568044
 40
4.233336124983321
 40
4.233336124983321
 40
4.233336124983321
 40
4.586114135398599
 40
4.586114135398599
 40
4.586114135398599
 40
4.938892145813873
 40
4.938892145813873
 40
4.938892145813873
 40
5.291670156229153
 40
5.291670156229153
 40
5.291670156229153
 40
5.64444816664443
 40
5.64444816664443
 40
5.64444816664443
 40
5.997226177059705
 40
5.997226177059705
 40
5.997226177059705
 40
6.350004187474984
 40
6.350004187474984
 40
6.350004187474984
 40
6.702782197890257
 40
6.702782197890257
 40
6.702782197890257
 40
7.055560208305537
 40
7.055560208305537
 40
7.055560208305537
 40
7.408338218720808
 40
7.408338218720808
 40
7.408338218720808
 40
7.76111622913609
 40
7.76111622913609
 40
7.76111622913609
 40
8.113894239551369
 40
8.113894239551369
 40
8.113894239551369
 40
8.466672249966642
 40
8.466672249966642
 40
8.466672249966642
 40
8.819450260381922
 40
8.819450260381922
 40
8.819450260381922
 40
9.172228270797198
 40
9.172228270797198
 40
9.172228270797198
 40
9.525006281212476
 40
9.525006281212476
 40
9.525006281212476
 40
9.877784291627751
 40
9.877784291627751
 40
9.877784291627751
 40
10.23056230204303
 40
10.23056230204303
 40
10.23056230204303
 40
10.58334031245831
 40
10.58334031245831
 40
10.58334031245831
 40
10.93611832287358
 40
10.93611832287358
 40
10.93611832287358
 40
11.28889633328886
 40
11.28889633328886
 40
11.28889633328886
 40
11.64167434370414
 40
11.64167434370414
 40
11.64167434370414
 40
11.99445235411941
 40
11.99445235411941
 40
11.99445235411941
 40
12.34723036453469
 40
12.34723036453469
 40
12.34723036453469
 40
12.70000837494997
 40
12.70000837494997
 40
12.70000837494997
 40
13.05278638536524
 40
13.05278638536524
 40
13.05278638536524
 40
13.40556439578052
 40
13.40556439578052
 40
13.40556439578052
 40
13.7583424061958
 40
13.7583424061958
 40
13.7583424061958
 40
14.11112041661107
 40
14.11112041661107
 40
14.11112041661107
 40
14.46389842702635
 40
14.46389842702635
 40
14.46389842702635
 40
14.81667643744163
 40
14.81667643744163
 40
14.81667643744163
 40
14.81667643744163
 10
173.3972823146245
 20
126.8274843518258
 10
173.3972823146245
 20
126.8274843518258
 10
173.3972823146245
 20
126.7217198506564
 10
173.3972823146245
 20
126.7217198506564
 10
173.3972823146245
 20
126.7217198506564
 10
173.4186419207238
 20
126.7217198506564
 10
173.4186419207238
 20
126.7217198506564
 10
173.4186419207238
 20
126.7217198506564
 10
173.4820317194703
 20
126.7007047543328
 10
173.4820317194703
 20
126.7007047543328
 10
173.4820317194703
 20
126.7007047543328
 10
173.5244064218933
 20
126.6793451482334
 10
173.5244064218933
 20
126.6793451482334
 10
173.5244064218933
 20
126.6793451482334
 10
173.5877962206398
 20
126.6793451482334
 10
173.5877962206398
 20
126.6793451482334
 10
173.5877962206398
 20
126.6793451482334
 10
173.6301709230627
 20
126.6583300519099
 10
173.6301709230627
 20
126.6583300519099
 10
173.7955356154449
 20
126.5911506456296
 10
173.759706598762
 20
126.6380039751379
 10
173.9478089363468
 20
126.5525655507404
 10
173.9478089363468
 20
126.5525655507404
 10
173.9688240326703
 20
126.4464565397952
 10
173.9688240326703
 20
126.4464565397952
 10
173.9688240326703
 20
126.4464565397952
 10
174.0325583411926
 20
126.5101908483175
 10
174.0325583411926
 20
126.5101908483175
 10
174.0325583411926
 20
126.5101908483175
 10
174.0749330436156
 20
126.5101908483175
 10
174.0749330436156
 20
126.5101908483175
 10
174.0749330436156
 20
126.5101908483175
 10
174.1593379386856
 20
126.4678161458946
 10
174.1593379386856
 20
126.4678161458946
 10
174.1593379386856
 20
126.4678161458946
 10
174.180697544785
 20
126.4464565397952
 10
174.180697544785
 20
126.4464565397952
 10
174.2464989119621
 20
126.3982251711837
 10
174.3298702777047
 20
126.3716979184474
 10
174.3922265471239
 20
126.3196769423022
 10
174.608234176548
 20
126.2059887162895
 10
174.7749769080334
 20
126.0278771622029
 10
174.9637682651697
 20
125.8749148217494
 10
174.9637682651697
 20
125.8749148217494
 10
175.0061429675926
 20
125.9172895241723
 10
175.0061429675926
 20
125.9172895241723
 10
174.961356696739
 20
125.9631093243532
 10
174.782211613325
 20
126.1246844092016
 10
174.7308796567315
 20
126.1501781326105
 10
174.7308796567315
 20
126.1501781326105
 10
174.6885049543085
 20
126.1925528350335
 10
174.6885049543085
 20
126.1925528350335
 10
174.6885049543085
 20
126.1925528350335
 10
174.667489857985
 20
126.2349275374564
 10
174.667489857985
 20
126.2349275374564
 10
174.667489857985
 20
126.2349275374564
 10
174.625115155562
 20
126.2559426337799
 10
174.625115155562
 20
126.2559426337799
 10
174.625115155562
 20
126.2559426337799
 10
174.5827404531391
 20
126.2983173362029
 10
174.5827404531391
 20
126.2983173362029
 10
174.5827404531391
 20
126.2983173362029
 10
174.5403657507162
 20
126.3196769423022
 10
174.5403657507162
 20
126.3196769423022
 10
174.5403657507162
 20
126.3196769423022
 10
174.4979910482932
 20
126.3620516447252
 10
174.4979910482932
 20
126.3620516447252
 10
174.4735308542117
 20
126.3875453681341
 10
174.3247026310678
 20
126.4695386947736
 10
174.2864620459544
 20
126.4888312422181
 10
174.2864620459544
 20
126.4888312422181
 10
174.2654469496308
 20
126.5101908483175
 10
174.2654469496308
 20
126.5101908483175
 10
174.2654469496308
 20
126.5101908483175
 10
174.2230722472079
 20
126.5312059446411
 10
174.2230722472079
 20
126.5312059446411
 10
174.2230722472079
 20
126.5312059446411
 10
174.2017126411085
 20
126.5525655507404
 10
174.2017126411085
 20
126.5525655507404
 10
174.2017126411085
 20
126.5525655507404
 10
174.1383228423621
 20
126.573580647064
 10
174.1383228423621
 20
126.573580647064
 10
174.1383228423621
 20
126.573580647064
 10
174.1169632362627
 20
126.5945957433876
 10
174.1169632362627
 20
126.5945957433876
 10
174.1169632362627
 20
126.5945957433876
 10
174.0959481399391
 20
126.7007047543328
 10
174.0959481399391
 20
126.7007047543328
 10
174.0959481399391
 20
126.7007047543328
 10
174.0325583411926
 20
126.6369704458105
 10
174.0325583411926
 20
126.6369704458105
 10
174.0325583411926
 20
126.6369704458105
 10
173.9901836387697
 20
126.6369704458105
 10
173.9901836387697
 20
126.6369704458105
 10
173.9901836387697
 20
126.6369704458105
 10
173.9054342339239
 20
126.6793451482334
 10
173.9054342339239
 20
126.6793451482334
 10
173.9054342339239
 20
126.6793451482334
 10
173.8420444351773
 20
126.7007047543328
 10
173.8420444351773
 20
126.7007047543328
 10
173.8420444351773
 20
126.7007047543328
 10
173.7996697327544
 20
126.7217198506564
 10
173.7996697327544
 20
126.7217198506564
 10
173.7996697327544
 20
126.7217198506564
 10
173.7572950303315
 20
126.7217198506564
 10
173.7572950303315
 20
126.7217198506564
 10
173.7572950303315
 20
126.7217198506564
 10
173.6725456254856
 20
126.7640945530793
 10
173.6725456254856
 20
126.7640945530793
 10
173.6725456254856
 20
126.7640945530793
 10
173.6515305291621
 20
126.7640945530793
 10
173.6515305291621
 20
126.7640945530793
 10
173.6515305291621
 20
126.7640945530793
 10
173.5667811243162
 20
126.7851096494029
 10
173.5667811243162
 20
126.7851096494029
 10
173.5667811243162
 20
126.7851096494029
 10
173.5033913255697
 20
126.8064692555022
 10
173.5033913255697
 20
126.8064692555022
 10
173.5033913255697
 20
126.8064692555022
 10
173.4396570170474
 20
126.8064692555022
 10
173.4396570170474
 20
126.8064692555022
 10
173.4396570170474
 20
126.8064692555022
 10
173.4186419207238
 20
126.8274843518258
 10
173.4186419207238
 20
126.8274843518258
 10
173.4186419207238
 20
126.8274843518258
 10
173.3972823146245
 20
126.8274843518258
 10
173.3972823146245
 20
126.8274843518258
 72
     1
 10
173.3972823146245
 20
126.8274843518258
 11
173.3972823146245
 21
126.8274843518258
 97
        0
 75
     0
 76
     1
 98
        0
450
        0
451
        0
460
0.0
461
0.0
452
        0
462
0.0
453
        0
470

  0
HATCH
  5
4842
330
1F
100
AcDbEntity
  8
图层 1
 62
     7
100
AcDbHatch
 10
0.0
 20
0.0
 30
0.0
210
0.0
220
0.0
230
1.0
  2
SOLID
 70
     1
 71
     0
 91
        1
 92
        1
 93
        2
 72
     4
 94
        3
 73
     0
 74
     0
 95
       47
 96
       43
 40
0.0
 40
0.0
 40
0.0
 40
0.0
 40
0.3527780104152769
 40
0.3527780104152769
 40
0.3527780104152769
 40
0.7055560208305538
 40
0.7055560208305538
 40
0.7055560208305538
 40
1.058334031245828
 40
1.058334031245828
 40
1.058334031245828
 40
1.411112041661104
 40
1.411112041661104
 40
1.411112041661104
 40
1.763890052076384
 40
1.763890052076384
 40
1.763890052076384
 40
2.116668062491659
 40
2.116668062491659
 40
2.116668062491659
 40
2.469446072906936
 40
2.469446072906936
 40
2.469446072906936
 40
2.822224083322215
 40
2.822224083322215
 40
2.822224083322215
 40
3.175002093737492
 40
3.175002093737492
 40
3.175002093737492
 40
3.527780104152768
 40
3.527780104152768
 40
3.527780104152768
 40
3.880558114568044
 40
3.880558114568044
 40
3.880558114568044
 40
4.233336124983321
 40
4.233336124983321
 40
4.233336124983321
 40
4.586114135398599
 40
4.586114135398599
 40
4.586114135398599
 40
4.938892145813873
 40
4.938892145813873
 40
4.938892145813873
 40
4.938892145813873
 10
180.1920486226523
 20
255.6479577566324
 10
180.1920486226523
 20
255.6479577566324
 10
180.2130637189759
 20
255.6055830542095
 10
180.2130637189759
 20
255.6055830542095
 10
180.2130637189759
 20
255.6055830542095
 10
180.2130637189759
 20
255.5210059042515
 10
180.2130637189759
 20
255.5210059042515
 10
180.2130637189759
 20
255.5210059042515
 10
180.1920486226523
 20
255.4786312018286
 10
180.1920486226523
 20
255.4786312018286
 10
180.1920486226523
 20
255.4786312018286
 10
180.1496739202294
 20
255.4359119896299
 10
180.1496739202294
 20
255.4359119896299
 10
180.1496739202294
 20
255.4359119896299
 10
180.1283143141301
 20
255.4147246384184
 10
180.1283143141301
 20
255.4147246384184
 10
180.1283143141301
 20
255.4147246384184
 10
180.0225498129606
 20
255.4147246384184
 10
180.0225498129606
 20
255.4147246384184
 10
180.0225498129606
 20
255.4147246384184
 10
179.9591600142141
 20
255.4359119896299
 10
179.9591600142141
 20
255.4359119896299
 10
179.9591600142141
 20
255.4359119896299
 10
179.9167853117912
 20
255.4570993408414
 10
179.9167853117912
 20
255.4570993408414
 10
179.9167853117912
 20
255.4570993408414
 10
179.8957702154676
 20
255.4786312018286
 10
179.8957702154676
 20
255.4786312018286
 10
179.8957702154676
 20
255.4786312018286
 10
179.8744106093683
 20
255.4994740432643
 10
179.8744106093683
 20
255.4994740432643
 10
179.8744106093683
 20
255.4994740432643
 10
179.8744106093683
 20
255.6479577566324
 10
179.8744106093683
 20
255.6479577566324
 10
179.9608825630931
 20
255.7323626517025
 10
180.045631967939
 20
255.7085914771726
 10
180.1496739202294
 20
255.7115198102668
 10
180.1496739202294
 20
255.7115198102668
 10
180.170689016553
 20
255.6688005980681
 10
180.170689016553
 20
255.6688005980681
 10
180.170689016553
 20
255.6688005980681
 10
180.1920486226523
 20
255.6479577566324
 10
180.1920486226523
 20
255.6479577566324
 72
     1
 10
180.1920486226523
 20
255.6479577566324
 11
180.1920486226523
 21
255.6479577566324
 97
        0
 75
     0
 76
     1
 98
        0
450
        0
451
        0
460
0.0
461
0.0
452
        0
462
0.0
453
        0
470

  0
LINE
  5
15523
330
1F
100
AcDbEntity
  8
图框
 62
     1
370
    18
100
AcDbLine
 10
531.0145826987259
 20
289.1768299845588
 30
0.0
 11
679.5139576665757
 21
289.1768299845588
 31
0.0
1001
AcDbBlockRepETag
1070
     1
1071
      143
1005
15523
  0
MTEXT
  5
15556
102
{ACAD_XDICTIONARY
360
1E43F
102
}
330
1F
100
AcDbEntity
  8
打标文字
 62
     3
100
AcDbMText
 10
632.9349364160941
 20
266.3296215361975
 30
0.0
 40
1.5
 41
46.88571713065463
 46
47.39332115782246
 71
     1
 72
     5
  3
\A1;{\f仿宋_GB2312|b0|i0|c134|p49;技术参数}:\P- {\f仿宋_GB2312|b0|i0|c134|p49;材料}: {\f仿宋_GB2312|b0|i0|c134|p49;铜合金}\P- {\f仿宋_GB2312|b0|i0|c134|p49;表面处理}: {\f仿宋_GB2312|b0|i0|c134|p49;镀银}\P- {\f仿宋_GB2312|b0|i0|c134|p49;额定电流}: 100A\P- {\f仿宋_GB2312|b0|i0|c134|p4
  3
9;接触电阻}: ≤0.3mΩ\P- {\f仿宋_GB2312|b0|i0|c134|p49;线径范围}: 35mm{\H0.7x;\S2^ ;}\P- {\f仿宋_GB2312|b0|i0|c134|p49;最大电缆直径}: 14mm\P- {\f仿宋_GB2312|b0|i0|c134|p49;剥线长度}: 16mm\P- {\f仿宋_GB2312|b0|i0|c134|p49;可插拔次数}: {\f仿宋_GB2312|b0|i0|c134|p49;≥}500\P- {\f仿宋_GB2312|
  3
b0|i0|c134|p49;电缆绞线标准}: IEC 60228-5\P\PTechnical specification:\P- Material: copper alloy\P- Surface: hard-silver plated\P- Rated current: 100A\P- Contact resistance: ≤0.3mΩ\P- Wire gauge: 35mm{\H0.7x;\S2^ ;}\P- Max. insulation diameter: 14mm\P- Strip
  1
ping length: 16mm\P- Mating cycles: {\f仿宋_GB2312|b0|i0|c134|p49;≥}500\P- For stranded fine wire acc. to: IEC 60228-5
  7
Romans字体
 73
     1
 44
1.0
1001
ACAD
1000
ACAD_MTEXT_DEFINED_HEIGHT_BEGIN
1070
    46
1040
47.39332115782246
1000
ACAD_MTEXT_DEFINED_HEIGHT_END
  0
LINE
  5
1555E
330
1F
100
AcDbEntity
  8
图框
 62
     1
100
AcDbLine
 10
677.7724080811392
 20
281.6769901273708
 30
0.0
 11
677.7724080811392
 21
262.1472338978545
 31
0.0
  0
MTEXT
  5
15566
330
1F
100
AcDbEntity
  8
图框
 62
     3
100
AcDbMText
 10
669.36931007112
 20
202.8738589380055
 30
0.0
 40
1.492756789270166
 41
16.80619601594785
 46
4.343372757943781
 71
     5
 72
     5
  1
CKSF-35G
  7
Romans字体
 73
     1
 44
1.0
1001
ACAD
1000
ACAD_MTEXT_DEFINED_HEIGHT_BEGIN
1070
    46
1040
4.343372757943781
1000
ACAD_MTEXT_DEFINED_HEIGHT_END
  0
MTEXT
  5
15567
330
1F
100
AcDbEntity
  8
图框
 62
     3
100
AcDbMText
 10
669.36931007112
 20
198.484133669437
 30
0.0
 40
1.492756789270166
 41
16.80619601594785
 46
4.436077779192773
 71
     5
 72
     5
  1
1010261201703
  7
Romans字体
 73
     1
 44
1.0
1001
ACAD
1000
ACAD_MTEXT_DEFINED_HEIGHT_BEGIN
1070
    46
1040
4.436077779192773
1000
ACAD_MTEXT_DEFINED_HEIGHT_END
  0
MTEXT
  5
15568
330
1F
100
AcDbEntity
  8
图框
 62
     3
100
AcDbMText
 10
635.3424775658663
 20
191.8303161222501
 30
0.0
 40
1.492756789270166
 41
5.414674223554219
 46
3.943047305235955
 71
     5
 72
     5
  1
2:1 
  7
Romans字体
 73
     1
 44
1.0
1001
ACAD
1000
ACAD_MTEXT_DEFINED_HEIGHT_BEGIN
1070
    46
1040
3.943047305235955
1000
ACAD_MTEXT_DEFINED_HEIGHT_END
  0
MTEXT
  5
15569
330
1F
100
AcDbEntity
  8
图框
 62
     3
100
AcDbMText
 10
646.1718260129758
 20
191.8303161222504
 30
0.0
 40
1.492756789270166
 41
5.414674223555066
 46
3.943047305235906
 71
     5
 72
     5
  1
21.2g
  7
Romans字体
 73
     1
 44
1.0
1001
ACAD
1000
ACAD_MTEXT_DEFINED_HEIGHT_BEGIN
1070
    46
1040
3.943047305235906
1000
ACAD_MTEXT_DEFINED_HEIGHT_END
  0
INSERT
  5
1556A
330
1F
100
AcDbEntity
  8
DIM
100
AcDbBlockReference
  2
A4图框-NEW
 10
114.3081561121811
 20
-56.09055511857542
 30
0.0
 41
0.5000000005871926
 42
0.5000000005871926
 43
0.5000000005871991
  0
LINE
  5
1C8F1
330
1F
100
AcDbEntity
  8
0
100
AcDbLine
 10
591.3234645739517
 20
241.5096957901937
 30
0.0
 11
591.3234645739517
 21
242.773393978739
 31
0.0
  0
LINE
  5
1C8F2
330
1F
100
AcDbEntity
  8
0
100
AcDbLine
 10
591.3234645739517
 20
251.2689831464204
 30
0.0
 11
591.3234645739517
 21
252.5096957901936
 31
0.0
  0
LINE
  5
1C8F3
330
1F
100
AcDbEntity
  8
0
100
AcDbLine
 10
591.3234645739517
 20
241.5096957901937
 30
0.0
 11
590.4734645739512
 21
240.6596957901939
 31
0.0
  0
LINE
  5
1C8F4
330
1F
100
AcDbEntity
  8
0
100
AcDbLine
 10
590.4734645739512
 20
240.6596957901939
 30
0.0
 11
590.4734645739512
 21
244.1974011006605
 31
0.0
  0
LINE
  5
1C8F5
330
1F
100
AcDbEntity
  8
0
100
AcDbLine
 10
590.4734645739512
 20
249.7376376425772
 30
0.0
 11
590.4734645739512
 21
253.3596957901936
 31
0.0
  0
LINE
  5
1C8F6
102
{ACAD_REACTORS
330
1C982
102
}
330
1F
100
AcDbEntity
  8
0
100
AcDbLine
 10
591.3234645739517
 20
252.5096957901936
 30
0.0
 11
590.4734645739512
 21
253.3596957901936
 31
0.0
  0
LWPOLYLINE
  5
1C8F8
330
1F
100
AcDbEntity
  8
0
100
AcDbPolyline
 90
       59
 70
     0
 43
0.0
 10
587.9234645739512
 20
242.0096957901936
 10
587.9353145739512
 20
242.0095557901936
 42
-0.0061477634
 10
587.9472545739514
 20
242.0091257901936
 42
-0.0059701087
 10
587.9593045739507
 20
242.0084057901935
 42
-0.0059271857
 10
587.9714345739508
 20
242.0073857901938
 42
-0.006058639
 10
587.9836445739516
 20
242.0060557901938
 42
-0.006122436
 10
587.9959245739517
 20
242.0044157901938
 42
-0.0061695647
 10
588.008264573951
 20
242.0024457901936
 42
-0.0062032463
 10
588.0206445739511
 20
242.0001657901934
 42
-0.0062685424
 10
588.0330545739512
 20
241.9975357901935
 42
-0.0063074357
 10
588.0454945739504
 20
241.9945757901937
 42
-0.0063636336
 10
588.0579345739512
 20
241.9912757901938
 42
-0.0063982297
 10
588.0703745739516
 20
241.9876257901937
 42
-0.006451908
 10
588.0827945739508
 20
241.9836357901935
 42
-0.006484353
 10
588.0951745739508
 20
241.9792857901938
 42
-0.0065332972
 10
588.1075145739512
 20
241.9745857901939
 42
-0.0065627269
 10
588.1197945739511
 20
241.9695457901939
 42
-0.0066070249
 10
588.1319945739512
 20
241.9641357901937
 42
-0.006633369
 10
588.1441045739517
 20
241.9583857901939
 42
-0.006672541
 10
588.1561045739516
 20
241.9522757901936
 42
-0.0066955454
 10
588.1679845739514
 20
241.9458257901937
 42
-0.0067292958
 10
588.1797345739512
 20
241.9390257901936
 42
-0.0067487797
 10
588.191334573951
 20
241.9318957901936
 42
-0.00677681
 10
588.202764573951
 20
241.9244157901935
 42
-0.006792605
 10
588.2140245739517
 20
241.9166157901936
 42
-0.0068146726
 10
588.2250845739516
 20
241.9084757901937
 42
-0.0068266406
 10
588.2359345739512
 20
241.9000357901936
 42
-0.0068425433
 10
588.2465645739508
 20
241.8912757901939
 42
-0.0068505838
 10
588.2569745739516
 20
241.8822257901938
 42
-0.0068601928
 10
588.2671245739507
 20
241.8728757901935
 42
-0.0068642121
 10
588.2770245739517
 20
241.8632557901937
 42
-0.0068673777
 10
588.2866445739516
 20
241.8533557901937
 42
-0.0068673746
 10
588.295994573951
 20
241.8432057901936
 42
-0.0068642
 10
588.3050445739512
 20
241.8327957901936
 42
-0.0068601599
 10
588.313804573951
 20
241.8221657901935
 42
-0.0068505232
 10
588.3222445739517
 20
241.8113157901939
 42
-0.0068424928
 10
588.3303845739517
 20
241.8002557901936
 42
-0.0068266372
 10
588.3381845739511
 20
241.7889957901938
 42
-0.006814576
 10
588.3456645739512
 20
241.7775657901938
 42
-0.0067922808
 10
588.352794573951
 20
241.7659657901936
 42
-0.00677677
 10
588.3595945739513
 20
241.7542157901939
 42
-0.0067495103
 10
588.3660445739512
 20
241.7423357901939
 42
-0.0067289449
 10
588.372154573951
 20
241.7303357901936
 42
-0.0066924009
 10
588.3779045739516
 20
241.7182257901936
 42
-0.0066732291
 10
588.3833145739514
 20
241.7060257901935
 42
-0.0066438337
 10
588.3883545739514
 20
241.6937457901935
 42
-0.0066038734
 10
588.393054573951
 20
241.6814057901937
 42
-0.006525797
 10
588.3974045739512
 20
241.6690257901937
 42
-0.0065438143
 10
588.4013945739512
 20
241.6566057901936
 42
-0.006608414
 10
588.405044573951
 20
241.6441457901937
 42
-0.0064142626
 10
588.4083445739512
 20
241.6317257901937
 42
-0.0059892728
 10
588.4113045739512
 20
241.6193857901939
 42
-0.006494815
 10
588.4139345739511
 20
241.6068757901935
 42
-0.0075597188
 10
588.4162345739512
 20
241.5941157901938
 42
-0.0058499316
 10
588.4181845739511
 20
241.5821557901935
 42
-0.0023086796
 10
588.4197945739511
 20
241.5713557901935
 42
-0.0078950112
 10
588.4211645739513
 20
241.5576657901937
 42
-0.013359952
 10
588.4223845739512
 20
241.5368257901936
 42
-0.0066970658
 10
588.4234645739512
 20
241.5096957901937
 42
-0.0036319983
  0
LINE
  5
1C8F9
330
1F
100
AcDbEntity
  8
0
100
AcDbLine
 10
590.4734645739512
 20
253.3596957901936
 30
0.0
 11
587.9234685739517
 21
253.3596957901936
 31
0.0
  0
LINE
  5
1C8FA
102
{ACAD_REACTORS
330
1C982
102
}
330
1F
100
AcDbEntity
  8
0
100
AcDbLine
 10
590.4734645739512
 20
240.6596957901939
 30
0.0
 11
588.4234645739512
 21
240.6596957901939
 31
0.0
  0
LINE
  5
1C917
330
1F
100
AcDbEntity
  8
hat
  6
CENTERX2
 62
     1
100
AcDbLine
 10
566.3365189108742
 20
247.0096957901937
 30
0.0
 11
607.3130771180228
 21
247.0096957901937
 31
0.0
  0
LINE
  5
1C919
330
1F
100
AcDbEntity
  8
0
100
AcDbLine
 10
567.7234675739517
 20
253.2596957901937
 30
0.0
 11
567.7234675739517
 21
240.7596957901937
 31
0.0
  0
LINE
  5
1C91C
330
1F
100
AcDbEntity
  8
0
100
AcDbLine
 10
588.4234645739512
 20
241.5096957901937
 30
0.0
 11
588.4234645739512
 21
240.6596957901939
 31
0.0
  0
LINE
  5
1C93F
330
1F
100
AcDbEntity
  8
hat
100
AcDbLine
 10
592.014829373173
 20
252.4511075946965
 30
0.0
 11
592.0734175686706
 21
252.5096957901936
 31
0.0
1001
ACAD
1010
0.0
1020
0.0
1030
0.0
  0
LINE
  5
1C940
330
1F
100
AcDbEntity
  8
hat
100
AcDbLine
 10
590.2373393928447
 20
249.2594040519952
 30
0.0
 11
591.8629239016021
 21
250.8849885607523
 31
0.0
1001
ACAD
1010
0.0
1020
0.0
1030
0.0
  0
LINE
  5
1C941
330
1F
100
AcDbEntity
  8
hat
100
AcDbLine
 10
592.1876326310424
 20
251.2096972901927
 30
0.0
 11
593.4876311310438
 21
252.5096957901936
 31
0.0
1001
ACAD
1010
0.0
1020
0.0
1030
0.0
  0
LINE
  5
1C942
330
1F
100
AcDbEntity
  8
hat
100
AcDbLine
 10
589.6063737450707
 20
247.2142248418476
 30
0.0
 11
589.931072249012
 21
247.538923345789
 31
0.0
1001
ACAD
1010
0.0
1020
0.0
1030
0.0
  0
LINE
  5
1C943
330
1F
100
AcDbEntity
  8
hat
100
AcDbLine
 10
593.6018461934168
 20
251.2096972901936
 30
0.0
 11
594.9018446934164
 21
252.5096957901932
 31
0.0
1001
ACAD
1010
0.0
1020
0.0
1030
0.0
  0
LINE
  5
1C944
330
1F
100
AcDbEntity
  8
hat
100
AcDbLine
 10
589.7071079598593
 20
245.9007454942634
 30
0.0
 11
590.061289977832
 21
246.254927512236
 31
0.0
1001
ACAD
1010
0.0
1020
0.0
1030
0.0
  0
LINE
  5
1C945
330
1F
100
AcDbEntity
  8
hat
100
AcDbLine
 10
595.01605975579
 20
251.2096972901936
 30
0.0
 11
596.3160582557897
 21
252.5096957901932
 31
0.0
1001
ACAD
1010
0.0
1020
0.0
1030
0.0
  0
LINE
  5
1C946
330
1F
100
AcDbEntity
  8
hat
100
AcDbLine
 10
590.0966344388037
 20
244.8760584108349
 30
0.0
 11
590.5789280680377
 21
245.3583520400684
 31
0.0
1001
ACAD
1010
0.0
1020
0.0
1030
0.0
  0
LINE
  5
1C947
330
1F
100
AcDbEntity
  8
hat
100
AcDbLine
 10
596.6802733181622
 20
251.4596972901931
 30
0.0
 11
597.730271818163
 21
252.5096957901932
 31
0.0
1001
ACAD
1010
0.0
1020
0.0
1030
0.0
  0
LINE
  5
1C948
330
1F
100
AcDbEntity
  8
hat
100
AcDbLine
 10
590.6092249213683
 20
243.9744353310261
 30
0.0
 11
591.0965661582435
 21
244.4617765679013
 31
0.0
1001
ACAD
1010
0.0
1020
0.0
1030
0.0
  0
LINE
  5
1C949
330
1F
100
AcDbEntity
  8
hat
100
AcDbLine
 10
598.0944868805358
 20
251.4596972901935
 30
0.0
 11
599.1444853805362
 21
252.5096957901936
 31
0.0
1001
ACAD
1010
0.0
1020
0.0
1030
0.0
  0
LINE
  5
1C94A
330
1F
100
AcDbEntity
  8
hat
100
AcDbLine
 10
591.1421912675481
 20
243.093188114833
 30
0.0
 11
591.6142042484493
 21
243.5652010957332
 31
0.0
1001
ACAD
1010
0.0
1020
0.0
1030
0.0
  0
LINE
  5
1C94B
330
1F
100
AcDbEntity
  8
hat
100
AcDbLine
 10
599.5087004429091
 20
251.4596972901935
 30
0.0
 11
600.5586989429096
 21
252.5096957901936
 31
0.0
1001
ACAD
1010
0.0
1020
0.0
1030
0.0
  0
LINE
  5
1C94C
330
1F
100
AcDbEntity
  8
hat
100
AcDbLine
 10
591.6455121540024
 20
242.182295438914
 30
0.0
 11
592.2729140052827
 21
242.8096972901939
 31
0.0
1001
ACAD
1010
0.0
1020
0.0
1030
0.0
  0
LINE
  5
1C94D
330
1F
100
AcDbEntity
  8
hat
100
AcDbLine
 10
600.9229140052823
 20
251.4596972901931
 30
0.0
 11
601.9729125052829
 21
252.5096957901941
 31
0.0
1001
ACAD
1010
0.0
1020
0.0
1030
0.0
  0
LINE
  5
1C94E
330
1F
100
AcDbEntity
  8
hat
100
AcDbLine
 10
592.3871260676545
 20
241.5096957901933
 30
0.0
 11
593.6871275676552
 21
242.8096972901944
 31
0.0
1001
ACAD
1010
0.0
1020
0.0
1030
0.0
  0
LINE
  5
1C94F
330
1F
100
AcDbEntity
  8
hat
100
AcDbLine
 10
602.3371275676549
 20
251.4596972901935
 30
0.0
 11
603.3871260676554
 21
252.5096957901941
 31
0.0
1001
ACAD
1010
0.0
1020
0.0
1030
0.0
  0
LINE
  5
1C950
330
1F
100
AcDbEntity
  8
hat
100
AcDbLine
 10
593.8013396300277
 20
241.5096957901937
 30
0.0
 11
595.1013411300285
 21
242.8096972901939
 31
0.0
1001
ACAD
1010
0.0
1020
0.0
1030
0.0
  0
LINE
  5
1C951
330
1F
100
AcDbEntity
  8
hat
100
AcDbLine
 10
603.7513411300282
 20
251.4596972901935
 30
0.0
 11
604.8013396300287
 21
252.5096957901936
 31
0.0
1001
ACAD
1010
0.0
1020
0.0
1030
0.0
  0
LINE
  5
1C952
330
1F
100
AcDbEntity
  8
hat
100
AcDbLine
 10
595.2155531924013
 20
241.5096957901933
 30
0.0
 11
596.2655546924017
 21
242.5596972901939
 31
0.0
1001
ACAD
1010
0.0
1020
0.0
1030
0.0
  0
LINE
  5
1C953
330
1F
100
AcDbEntity
  8
hat
100
AcDbLine
 10
604.9182042658116
 20
251.2123468636036
 30
0.0
 11
606.0860978267612
 21
252.3802404245539
 31
0.0
1001
ACAD
1010
0.0
1020
0.0
1030
0.0
  0
LINE
  5
1C954
330
1F
100
AcDbEntity
  8
hat
100
AcDbLine
 10
596.6297667547744
 20
241.5096957901933
 30
0.0
 11
597.6797682547742
 21
242.5596972901935
 31
0.0
1001
ACAD
1010
0.0
1020
0.0
1030
0.0
  0
LINE
  5
1C955
330
1F
100
AcDbEntity
  8
hat
100
AcDbLine
 10
598.043980317147
 20
241.5096957901933
 30
0.0
 11
599.0939818171475
 21
242.5596972901939
 31
0.0
1001
ACAD
1010
0.0
1020
0.0
1030
0.0
  0
LINE
  5
1C956
330
1F
100
AcDbEntity
  8
hat
100
AcDbLine
 10
599.4581938795203
 20
241.5096957901937
 30
0.0
 11
600.508195379521
 21
242.5596972901939
 31
0.0
1001
ACAD
1010
0.0
1020
0.0
1030
0.0
  0
LINE
  5
1C957
330
1F
100
AcDbEntity
  8
hat
100
AcDbLine
 10
600.8724074418936
 20
241.5096957901933
 30
0.0
 11
601.9224089418941
 21
242.5596972901939
 31
0.0
1001
ACAD
1010
0.0
1020
0.0
1030
0.0
  0
LINE
  5
1C958
330
1F
100
AcDbEntity
  8
hat
100
AcDbLine
 10
602.2866210042669
 20
241.5096957901933
 30
0.0
 11
603.3366225042676
 21
242.5596972901939
 31
0.0
1001
ACAD
1010
0.0
1020
0.0
1030
0.0
  0
LINE
  5
1C959
330
1F
100
AcDbEntity
  8
hat
100
AcDbLine
 10
603.7008345666402
 20
241.5096957901941
 30
0.0
 11
604.9919666938023
 21
242.8008279173563
 31
0.0
1001
ACAD
1010
0.0
1020
0.0
1030
0.0
  0
LINE
  5
1C95A
330
1F
100
AcDbEntity
  8
hat
100
AcDbLine
 10
605.1150481290127
 20
241.5096957901937
 30
0.0
 11
605.932729075101
 21
242.3273767362815
 31
0.0
1001
ACAD
1010
0.0
1020
0.0
1030
0.0
  0
LINE
  5
1C95B
330
1F
100
AcDbEntity
  8
0
100
AcDbLine
 10
591.3234645739517
 20
241.509692790194
 30
0.0
 11
591.3234645739517
 21
242.7733939787385
 31
0.0
  0
LINE
  5
1C95C
330
1F
100
AcDbEntity
  8
0
100
AcDbLine
 10
591.3234645739517
 20
251.2689831464199
 30
0.0
 11
591.3234645739517
 21
252.5096957901936
 31
0.0
  0
LINE
  5
1C95D
102
{ACAD_REACTORS
330
1C985
102
}
330
1F
100
AcDbEntity
  8
0
100
AcDbLine
 10
591.3234645739517
 20
241.5096957901937
 30
0.0
 11
605.7503945739521
 21
241.5096957901937
 31
0.0
  0
LINE
  5
1C95E
330
1F
100
AcDbEntity
  8
0
100
AcDbLine
 10
595.5503945739514
 20
242.5596972901939
 30
0.0
 11
604.7503945739521
 21
242.5596972901939
 31
0.0
  0
LINE
  5
1C95F
330
1F
100
AcDbEntity
  8
0
100
AcDbLine
 10
592.0503945739523
 20
242.8096972901939
 30
0.0
 11
595.5503945739514
 21
242.8096972901939
 31
0.0
  0
LINE
  5
1C960
330
1F
100
AcDbEntity
  8
0
100
AcDbLine
 10
604.7503945739521
 20
242.8096972901939
 30
0.0
 11
604.8290880496518
 21
242.8096972901939
 31
0.0
  0
LINE
  5
1C961
330
1F
100
AcDbEntity
  8
0
100
AcDbLine
 10
589.6255234433513
 20
247.0096972901937
 30
0.0
 11
592.0503945739523
 21
251.2096972901936
 31
0.0
  0
LINE
  5
1C962
330
1F
100
AcDbEntity
  8
0
100
AcDbLine
 10
589.6255234433513
 20
247.0096972901937
 30
0.0
 11
592.0503945739523
 21
242.8096972901939
 31
0.0
  0
LINE
  5
1C963
330
1F
100
AcDbEntity
  8
0
100
AcDbLine
 10
592.0503945739523
 20
251.2096972901936
 30
0.0
 11
595.5503945739514
 21
251.2096972901936
 31
0.0
  0
LINE
  5
1C964
330
1F
100
AcDbEntity
  8
0
100
AcDbLine
 10
604.7503945739521
 20
251.2096972901936
 30
0.0
 11
604.8290880496518
 21
251.2096972901936
 31
0.0
  0
LINE
  5
1C965
330
1F
100
AcDbEntity
  8
0
100
AcDbLine
 10
595.5503945739514
 20
251.4596972901935
 30
0.0
 11
604.7503945739521
 21
251.4596972901935
 31
0.0
  0
LINE
  5
1C966
330
1F
100
AcDbEntity
  8
0
100
AcDbLine
 10
592.0503945739523
 20
251.2096972901936
 30
0.0
 11
592.0503945739523
 21
242.8096972901939
 31
0.0
  0
LINE
  5
1C967
102
{ACAD_REACTORS
330
1C985
102
}
330
1F
100
AcDbEntity
  8
0
100
AcDbLine
 10
605.7503945739521
 20
252.5096957901936
 30
0.0
 11
591.3234645739517
 21
252.5096957901936
 31
0.0
  0
LINE
  5
1C968
330
1F
100
AcDbEntity
  8
0
100
AcDbLine
 10
595.5503945739514
 20
242.5596972901939
 30
0.0
 11
595.5503945739514
 21
251.4596972901935
 31
0.0
  0
LINE
  5
1C969
330
1F
100
AcDbEntity
  8
0
100
AcDbLine
 10
606.2503945738519
 20
252.0096823965936
 30
0.0
 11
605.8897466416514
 21
251.6490355386935
 31
0.0
  0
LINE
  5
1C96A
330
1F
100
AcDbEntity
  8
0
100
AcDbLine
 10
606.250394573752
 20
242.0097121838939
 30
0.0
 11
605.8897466416514
 21
242.3703590416939
 31
0.0
  0
LINE
  5
1C96B
330
1F
100
AcDbEntity
  8
0
100
AcDbLine
 10
604.7503945739521
 20
242.5596972901939
 30
0.0
 11
604.7503945739521
 21
251.4596972901935
 31
0.0
  0
LINE
  5
1C96C
330
1F
100
AcDbEntity
  8
0
100
AcDbLine
 10
605.8897466416514
 20
251.6490355386935
 30
0.0
 11
605.8897466416514
 21
242.3703590416939
 31
0.0
  0
LINE
  5
1C96D
102
{ACAD_REACTORS
330
1C988
102
}
330
1F
100
AcDbEntity
  8
0
100
AcDbLine
 10
606.2503945739521
 20
252.0096957901936
 30
0.0
 11
606.2503945739521
 21
242.0096957901936
 31
0.0
  0
LINE
  5
1C96E
102
{ACAD_REACTORS
330
1C988
102
}
330
1F
100
AcDbEntity
  8
0
100
AcDbLine
 10
592.0503945739523
 20
251.2096972901936
 30
0.0
 11
592.0503945739523
 21
242.8096972901939
 31
0.0
  0
ARC
  5
1C96F
330
1F
100
AcDbEntity
  8
0
100
AcDbCircle
 10
604.8290880496518
 20
241.3096972901939
 30
0.0
 40
1.5
100
AcDbArc
 50
45.0000853325952
 51
90.0
  0
ARC
  5
1C970
330
1F
100
AcDbEntity
  8
0
100
AcDbCircle
 10
605.7503945739521
 20
242.0096957901936
 30
0.0
 40
0.5
100
AcDbArc
 50
270.0
 51
0.0
  0
ARC
  5
1C971
330
1F
100
AcDbEntity
  8
0
100
AcDbCircle
 10
604.8290880496518
 20
252.7096972901936
 30
0.0
 40
1.5
100
AcDbArc
 50
270.0
 51
314.9999146674968
  0
ARC
  5
1C972
330
1F
100
AcDbEntity
  8
0
100
AcDbCircle
 10
605.7503945739521
 20
252.0096957901936
 30
0.0
 40
0.5
100
AcDbArc
 50
0.0000488241903011
 51
90.0
  0
SPLINE
  5
1C973
330
1F
100
AcDbEntity
  8
0
100
AcDbSpline
210
0.0
220
0.0
230
1.0
 70
     8
 71
     3
 72
    13
 73
     9
 74
     7
 42
0.0000000001
 43
0.0000000001
 44
0.0000000001
 40
0.0
 40
0.0
 40
0.0
 40
0.0
 40
2.470469800528194
 40
4.551227627951019
 40
6.404296741440946
 40
8.12693404294499
 40
9.942706805894385
 40
12.13763635144443
 40
12.13763635144443
 40
12.13763635144443
 40
12.13763635144443
 10
592.0493372040786
 20
252.5096957901936
 30
0.0
 10
591.631241425143
 20
251.7998541596526
 30
0.0
 10
590.8610036914883
 20
250.4921470831696
 30
0.0
 10
589.8681469707086
 20
248.6044075882831
 30
0.0
 10
589.4263333304979
 20
246.7070322826323
 30
0.0
 10
589.9732215199446
 20
244.9300259318567
 30
0.0
 10
591.0377374402879
 20
243.3426910253845
 30
0.0
 10
591.6602701672035
 20
242.1580254838008
 30
0.0
 10
592.0009624874694
 20
241.5096957901941
 30
0.0
 11
592.0493372040786
 21
252.5096957901936
 31
0.0
 11
590.8141023038138
 21
250.3702061836543
 31
0.0
 11
589.917508508743
 21
248.4925287078822
 31
0.0
 11
589.5885668508384
 21
246.6688887968621
 31
0.0
 11
590.0344181922712
 21
245.0049489380103
 31
0.0
 11
590.9423045737461
 21
243.4324435977964
 31
0.0
 11
592.0009624874694
 21
241.5096957901941
 31
0.0
  0
DIMENSION
  5
1C974
330
1F
100
AcDbEntity
  8
DIM
100
AcDbDimension
  2
*D21
 10
565.1343033521587
 20
242.9096957901936
 30
0.0
 11
563.8343033521587
 21
247.0096957901937
 31
0.0
 70
    32
  1
%%C<>
 71
     5
 42
8.200000000000072
 73
     0
 74
     0
 75
     0
  3
01
100
AcDbAlignedDimension
 13
569.4555185739516
 23
251.1096957901937
 33
0.0
 14
569.4555185739516
 24
242.9096957901936
 34
0.0
 50
90.0
100
AcDbRotatedDimension
  0
DIMENSION
  5
1C977
330
1F
100
AcDbEntity
  8
DIM
100
AcDbDimension
  2
*D22
 10
562.2274686885036
 20
241.9096957901937
 30
0.0
 11
560.9274686885036
 21
247.0096957901938
 31
0.0
 70
    32
  1
%%C<>
 71
     5
 42
10.19999999999999
 73
     0
 74
     0
 75
     0
  3
01
100
AcDbAlignedDimension
 13
567.7234675739517
 23
252.1096957901937
 33
0.0
 14
567.7234675739517
 24
241.9096957901937
 34
0.0
 50
90.0
100
AcDbRotatedDimension
  0
DIMENSION
  5
1C97A
330
1F
100
AcDbEntity
  8
DIM
100
AcDbDimension
  2
*D23
 10
559.4152589249553
 20
240.7596957901937
 30
0.0
 11
558.1152589249552
 21
247.0096957901938
 31
0.0
 70
    32
  1
%%C<>
 71
     5
 42
12.49999999999997
 73
     0
 74
     0
 75
     0
  3
01
100
AcDbAlignedDimension
 13
567.7234675739517
 23
253.2596957901937
 33
0.0
 14
567.7234675739517
 24
240.7596957901937
 34
0.0
 50
90.0
100
AcDbRotatedDimension
  0
DIMENSION
  5
1C97D
330
1F
100
AcDbEntity
  8
DIM
100
AcDbDimension
  2
*D24
 10
583.7234645739516
 20
237.4312130631783
 30
0.0
 11
575.7234660739515
 21
238.7312130631783
 31
0.0
 70
    32
 71
     5
 42
15.99999700000001
 73
     0
 74
     0
 75
     0
  3
01
100
AcDbAlignedDimension
 13
567.7234675739517
 23
240.6596957901939
 33
0.0
 14
583.7234645739516
 24
242.9096957901934
 34
0.0
100
AcDbRotatedDimension
  0
DIMENSION
  5
1C980
102
{ACAD_XDICTIONARY
360
1C981
102
}
102
{ACAD_REACTORS
330
1C982
102
}
330
1F
100
AcDbEntity
  8
DIM
100
AcDbDimension
  2
*D25
 10
613.1942266354212
 20
240.6596957901939
 30
0.0
 11
611.8942266354212
 21
247.0096957901938
 31
0.0
 70
    32
  1
%%C<>
 71
     5
 42
12.6999999999997
 73
     0
 74
     0
 75
     0
  3
01
100
AcDbAlignedDimension
 13
590.4734645739512
 23
253.3596957901936
 33
0.0
 14
590.4734645739512
 24
240.6596957901939
 34
0.0
 50
90.0
100
AcDbRotatedDimension
  0
DIMENSION
  5
1C983
102
{ACAD_XDICTIONARY
360
1C984
102
}
102
{ACAD_REACTORS
330
1C985
102
}
330
1F
100
AcDbEntity
  8
DIM
100
AcDbDimension
  2
*D26
 10
609.8547374129467
 20
241.5096957901937
 30
0.0
 11
608.5547374129467
 21
247.0096957901938
 31
0.0
 70
    32
  1
%%C<>
 71
     5
 42
11.0
 73
     0
 74
     0
 75
     0
  3
01
100
AcDbAlignedDimension
 13
605.1691550098625
 23
252.5096957901936
 33
0.0
 14
605.1691550098625
 24
241.5096957901937
 34
0.0
 50
90.0
100
AcDbRotatedDimension
  0
DIMENSION
  5
1C986
102
{ACAD_XDICTIONARY
360
1C987
102
}
102
{ACAD_REACTORS
330
1C988
102
}
330
1F
100
AcDbEntity
  8
DIM
100
AcDbDimension
  2
*D27
 10
606.2503945739521
 20
237.4312130631783
 30
0.0
 11
599.1503945739522
 21
238.7312130631783
 31
0.0
 70
    32
 71
     5
 42
14.19999999999982
 73
     0
 74
     0
 75
     0
  3
01
100
AcDbAlignedDimension
 13
592.0503945739523
 23
242.8096972901939
 33
0.0
 14
606.2503945739521
 24
242.9719519406362
 34
0.0
100
AcDbRotatedDimension
  0
DIMENSION
  5
1C989
330
1F
100
AcDbEntity
  8
DIM
100
AcDbDimension
  2
*D20
 10
606.2503945739521
 20
233.786608600322
 30
0.0
 11
586.9869310739517
 21
235.086608600322
 31
0.0
 70
    32
  1
38.45
 71
     5
 42
38.52692700000046
 73
     0
 74
     0
 75
     0
  3
01
100
AcDbAlignedDimension
 13
567.7234675739517
 23
240.6596957901939
 33
0.0
 14
606.2503945739521
 24
240.0070474012891
 34
0.0
100
AcDbRotatedDimension
  0
LINE
  5
1C98A
330
1F
100
AcDbEntity
  8
0
100
AcDbLine
 10
595.5503945739532
 20
242.5596972901939
 30
0.0
 11
604.7503945739521
 21
242.5596972901939
 31
0.0
  0
LINE
  5
1C98B
330
1F
100
AcDbEntity
  8
0
100
AcDbLine
 10
604.7503945739521
 20
242.8096972901939
 30
0.0
 11
604.8290880496527
 21
242.8096972901939
 31
0.0
  0
LINE
  5
1C98C
330
1F
100
AcDbEntity
  8
0
100
AcDbLine
 10
604.7503945739521
 20
251.2096972901936
 30
0.0
 11
604.8290880496527
 21
251.2096972901936
 31
0.0
  0
LINE
  5
1C98D
330
1F
100
AcDbEntity
  8
0
100
AcDbLine
 10
595.5503945739532
 20
251.4596972901935
 30
0.0
 11
604.7503945739521
 21
251.4596972901935
 31
0.0
  0
LINE
  5
1C98E
330
1F
100
AcDbEntity
  8
0
100
AcDbLine
 10
604.7503945739521
 20
242.5596972901939
 30
0.0
 11
604.7503945739521
 21
251.4596972901935
 31
0.0
  0
ARC
  5
1C98F
330
1F
100
AcDbEntity
  8
hat
370
    13
100
AcDbCircle
 10
600.1733743117187
 20
257.0452550490599
 30
0.0
 40
6.482794178784552
100
AcDbArc
 50
242.4960153626379
 51
296.634094924865
  0
REGION
  5
1C990
330
1F
100
AcDbEntity
  8
hat
370
    13
100
AcDbModelerGeometry
 70
     1
  1
mnmoo lg m mi          
  1
ni ^ *+0;:,4 ^ *+0\^ [ nh ^ LR nmqoqnqgmo QK o  
  1
mjqlffffffffffffff fqfffffffffffffffj:rooh n:rono 
  1
>,27:>;:- {rn rn _nn mnmqoqnqgmo |
  1
=0;& {m rn {rn {l {rn {rn |
  1
-:9@)+r:&:r>++-6= {rn rn {rn {rn {n {k {j |
  1
3*2/ {i rn {rn {rn {h {n |
  1
:&:@-:961:2:1+ {rn rn _j 8-6;  n _l +-6 n _k ,*-9 o _l >;5 o _k 8->; o _f /0,+<7:<4 o _k ,+03 kqhfgigolojkgofjh _k 1+03 lo _k ;,63 o _g 93>+1:,, o _h /6'>-:> o _k 72>' o _i 8-6;>- o _j 28-6; looo _j *8-6; o _j )8-6; o _no :1;@96:3;, |
  1
):-+:'@+:2/3>+: {rn rn l o n g |
  1
-:9@)+r:&:r>++-6= {rn rn {rn {rn {l {k {j |
  1
,7:33 {g rn {rn {rn {rn {f {rn {l |
  1
-:9@)+r:&:r>++-6= {rn rn {rn {rn {h {k {j |
  1
9><: {no rn {rn {rn {nn {h {rn {nm 90-(>-; ;0*=3: 0*+ |
  1
92:,7r:&:r>++-6= {rn rn {nl {rn {f |
  1
300/ {rn rn {rn {rn {nk {f |
  1
/3>1:r,*-9><: {rn rn {rn iooqnniookojlmlgfj mjoqkjogihmihhilgk o o o n n o o 90-(>-;@) V V V V |
  1
-:9@)+r:&:r>++-6= {rn rn {rn {no {f {k {j |
  1
<0:;8: {rn rn {rn {nj {ni {rn {nh 90-(>-; {nn {rn |
  1
<0:;8: {rn rn {rn {ng {nk {rn {nf -:):-,:; {nn {rn |
  1
<0:;8: {rn rn {rn {nk {ng {rn {mo 90-(>-; {nn {rn |
  1
:;8: {mn rn {rn {mm rnqfnnlnokkigmofnfm {ml rnqmoljhgkjlflnoglm {nk {mk 90-(>-; _h *1410(1 |
  1
<0:;8: {rn rn {rn {ni {nj {rn {mj -:):-,:; {nn {rn |
  1
:;8: {mi rn {rn {mh o {ml nqjoiflmjgkhlomflj {nj {mg 90-(>-; _h *1410(1 |
  1
:;8: {mf rn {rn {lo rkqjkhkhljoggikiknm:ronl {mm nqjgjhnlllhnlfiml {ni {ln 90-(>-; _h *1410(1 |
  1
/+36,+r:&:r>++-6= {rn rn {rn {rn {nh |
  1
):-+:' {rn rn {rn {nh m {lm |
  1
):-+:' {rn rn {rn {nh m {ll |
  1
:336/,:r<*-): {rn rn {rn iooqommfmkliilgjin mjhqfikhkomgfhmgon o o o n gqjnlgohhgliojklik o o n V V |
  1
:;8: {lk rn {rn {lo rmqohimghfhijnkminh {mh rnqoijlokihhohjjgfg {ng {lj 90-(>-; _h *1410(1 |
  1
/+36,+r:&:r>++-6= {rn rn {rn {rn {nf |
  1
):-+:' {rn rn {rn {nf m {li |
  1
,+->687+r<*-): {rn rn {rn iolqohfjjlnfnjikfh mjnqjmjkgmlfogglj o o rn o V V |
  1
/+36,+r:&:r>++-6= {rn rn {rn {rn {mo |
  1
):-+:' {rn rn {rn {mj m {lh |
  1
,+->687+r<*-): {rn rn {rn jfhqnhfjjlnfnjiimk mjnqjmjkgmlfoggmnl o o rn o V V |
  1
/061+ {rn rn {rn jfhqnhfjjlnfnjihnj mkfqflfhifojlhkmjn o |
  1
/061+ {rn rn {rn iolqohfjjlnfnjijgg mjoqongjkfgoinjlm o |
  1
/+36,+r:&:r>++-6= {rn rn {rn {rn {mj |
  1
:336/,:r<*-): {rn rn {rn iooqnmfjjlnfnjiioi mjiqgjjilfmkifmf o o o n iqofmokffnollfnnlh o o n V V |
  1
/061+ {rn rn {rn iolqohfjjlnfnjikfh mjnqjmjkgmlfogglj o |
  1
/061+ {rn rn {rn jfhqnhfjjlnfnjiimk mjnqjmjkgmlfoggmjf o |
  0
REGION
  5
1C991
330
1F
100
AcDbEntity
  8
hat
370
    13
100
AcDbModelerGeometry
 70
     1
  1
mnmoo lg m mi          
  1
ni ^ *+0;:,4 ^ *+0\^ [ nh ^ LR nmqoqnqgmo QK o  
  1
mjqlffffffffffffff fqfffffffffffffffj:rooh n:rono 
  1
>,27:>;:- {rn rn _nn mnmqoqnqgmo |
  1
=0;& {m rn {rn {l {rn {rn |
  1
-:9@)+r:&:r>++-6= {rn rn {rn {rn {n {k {j |
  1
3*2/ {i rn {rn {rn {h {n |
  1
:&:@-:961:2:1+ {rn rn _j 8-6;  n _l +-6 n _k ,*-9 o _l >;5 o _k 8->; o _f /0,+<7:<4 o _k ,+03 kqhfgigolojkgofjh _k 1+03 lo _k ;,63 o _g 93>+1:,, o _h /6'>-:> o _k 72>' o _i 8-6;>- o _j 28-6; looo _j *8-6; o _j )8-6; o _no :1;@96:3;, |
  1
):-+:'@+:2/3>+: {rn rn l o n g |
  1
-:9@)+r:&:r>++-6= {rn rn {rn {rn {l {k {j |
  1
,7:33 {g rn {rn {rn {rn {f {rn {l |
  1
-:9@)+r:&:r>++-6= {rn rn {rn {rn {h {k {j |
  1
9><: {no rn {rn {rn {nn {h {rn {nm 90-(>-; ;0*=3: 0*+ |
  1
92:,7r:&:r>++-6= {rn rn {nl {rn {f |
  1
300/ {rn rn {rn {rn {nk {f |
  1
/3>1:r,*-9><: {rn rn {rn iooqnmlfhmijgkikgm mkgqjnofkjmgnnhmj o o o n n o o 90-(>-;@) V V V V |
  1
-:9@)+r:&:r>++-6= {rn rn {rn {no {f {k {j |
  1
<0:;8: {rn rn {rn {nj {ni {rn {nh 90-(>-; {nn {rn |
  1
<0:;8: {rn rn {rn {ng {nk {rn {nf -:):-,:; {nn {rn |
  1
<0:;8: {rn rn {rn {nk {ng {rn {mo 90-(>-; {nn {rn |
  1
:;8: {mn rn {rn {mm rnqgnkfjhjillgjhlnn {ml rnqlnhliojgikhjkiih {nk {mk 90-(>-; _h *1410(1 |
  1
<0:;8: {rn rn {rn {ni {nj {rn {mj -:):-,:; {nn {rn |
  1
:;8: {mi rn {rn {mh o {ml oqhojmnnolhmihghmi {nj {mg 90-(>-; _h *1410(1 |
  1
:;8: {mf rn {rn {lo rnqlikmkmojmikhjlik:ronm {mm oqhlmjhnonflgkjmmjn {ni {ln 90-(>-; _h *1410(1 |
  1
/+36,+r:&:r>++-6= {rn rn {rn {rn {nh |
  1
):-+:' {rn rn {rn {nh m {lm |
  1
):-+:' {rn rn {rn {nh m {ll |
  1
:336/,:r<*-): {rn rn {rn iooqohjhogmooioioh mjfqfijhohkffningj o o o n nnqfgolmfnikkgfll o o n V V |
  1
:;8: {lk rn {rn {lo rnqgllflhnmlggilgmm {mh rnqlohijjjmfholfoh {ng {lj 90-(>-; _h *1410(1 |
  1
/+36,+r:&:r>++-6= {rn rn {rn {rn {nf |
  1
):-+:' {rn rn {rn {nf m {li |
  1
,+->687+r<*-): {rn rn {rn iolqohfjjlnfnjikfh mkfqohlmgohjmgmoin o o rn o V V |
  1
/+36,+r:&:r>++-6= {rn rn {rn {rn {mo |
  1
):-+:' {rn rn {rn {mj m {lh |
  1
,+->687+r<*-): {rn rn {rn jfhqnhfjjlnfnjiimk mkfqohlmgohjmgmoin o rnqgimmijflmiihimhk:ronm rn o V V |
  1
/061+ {rn rn {rn jfhqnhfjjlnfnjihnj mkgqlkohofhllkliof o |
  1
/061+ {rn rn {rn iolqohfjjlnfnjiihf mkgqligoifhnjjjmhk o |
  1
/+36,+r:&:r>++-6= {rn rn {rn {rn {mj |
  1
:336/,:r<*-): {rn rn {rn iooqnmfjjlnfnjijnj mioqomkojniofgjll o o o n nnqlknnjghhjnjlkki o o n V V |
  1
/061+ {rn rn {rn iolqohfjjlnfnjikfh mkfqohlmgohjmgmoin o |
  1
/061+ {rn rn {rn jfhqnhfjjlnfnjjfgg mkfqohlmgohjmgmnfh o |
  0
REGION
  5
1C992
330
1F
100
AcDbEntity
  8
hat
370
    13
100
AcDbModelerGeometry
 70
     1
  1
mnmoo im m mi          
  1
ni ^ *+0;:,4 ^ *+0\^ [ nh ^ LR nmqoqnqgmo QK o  
  1
mjqlffffffffffffff fqfffffffffffffffj:rooh n:rono 
  1
>,27:>;:- {rn rn _nn mnmqoqnqgmo |
  1
=0;& {m rn {rn {l {rn {rn |
  1
-:9@)+r:&:r>++-6= {rn rn {rn {rn {n {k {j |
  1
3*2/ {i rn {rn {rn {h {n |
  1
:&:@-:961:2:1+ {rn rn _j 8-6;  n _l +-6 n _k ,*-9 o _l >;5 o _k 8->; o _f /0,+<7:<4 o _k ,+03 kqhfgigolojkgofjh _k 1+03 lo _k ;,63 o _g 93>+1:,, o _h /6'>-:> o _k 72>' o _i 8-6;>- o _j 28-6; looo _j *8-6; o _j )8-6; o _no :1;@96:3;, |
  1
):-+:'@+:2/3>+: {rn rn l o n g |
  1
-:9@)+r:&:r>++-6= {rn rn {rn {rn {l {k {j |
  1
,7:33 {g rn {rn {rn {rn {f {rn {l |
  1
-:9@)+r:&:r>++-6= {rn rn {rn {rn {h {k {j |
  1
9><: {no rn {rn {rn {nn {h {rn {nm 90-(>-; ;0*=3: 0*+ |
  1
92:,7r:&:r>++-6= {rn rn {nl {rn {f |
  1
300/ {rn rn {rn {rn {nk {f |
  1
/3>1:r,*-9><: {rn rn {rn iooqnjknfifhklkioi mkhqokmhgjinjjlghg o o o n n o o 90-(>-;@) V V V V |
  1
-:9@)+r:&:r>++-6= {rn rn {rn {no {f {k {j |
  1
<0:;8: {rn rn {rn {nj {ni {rn {nh -:):-,:; {nn {rn |
  1
<0:;8: {rn rn {rn {ng {nk {rn {nf 90-(>-; {nn {rn |
  1
<0:;8: {rn rn {rn {nk {mo {rn {mn 90-(>-; {nn {rn |
  1
:;8: {mm rn {rn {ml nqoijlokihhohjkoof {mk mqohimghfhijnkminh {nk {mj 90-(>-; _h *1410(1 |
  1
<0:;8: {rn rn {rn {mi {nj {rn {mh -:):-,:; {nn {rn |
  1
:;8: {mg rn {rn {ml o {mf nqjkffffffffffmhmk {nj {lo 90-(>-; _h *1410(1 |
  1
<0:;8: {rn rn {rn {ni {ln {rn {lm 90-(>-; {nn {rn |
  1
:;8: {ll rn {rn {lk o {mk nqkfffffffffffofoj {ni {lj 90-(>-; _h *1410(1 |
  1
/+36,+r:&:r>++-6= {rn rn {rn {rn {nh |
  1
):-+:' {rn rn {rn {nh m {li |
  1
):-+:' {rn rn {rn {nh m {lh |
  1
:336/,:r<*-): {rn rn {rn iooqnmfjjlnfnjiioi mlhqmmfflnfgknkgjm o o o n iqofmokffnollfnnlh o o n V V |
  1
<0:;8: {rn rn {rn {lg {ng {rn {lf -:):-,:; {nn {rn |
  1
:;8: {ko rn {rn {kn o {mf gqfijlfljjoigfgfin {ng {km 90-(>-; _h *1410(1 |
  1
/+36,+r:&:r>++-6= {rn rn {rn {rn {nf |
  1
):-+:' {rn rn {rn {mh m {kl |
  1
,+->687+r<*-): {rn rn {rn iolqohfjjlnfnjiihf mkmqjioogggkonfmmk o n o o V V |
  1
<0:;8: {rn rn {rn {mo {lg {rn {kk -:):-,:; {nn {rn |
  1
:;8: {kj rn {rn {ki o {lk gqfijlfljjoiggjlng {mo {kh 90-(>-; _h *1410(1 |
  1
/+36,+r:&:r>++-6= {rn rn {rn {rn {mn |
  1
):-+:' {rn rn {rn {mn m {kg |
  1
,+->687+r<*-): {rn rn {rn jfjqihfjjlnfnjihnj mkmqjioogggkonfli o n o o V V |
  1
/061+ {rn rn {rn iolqohfjjlnfnjiihf mkmqjioogggkonfkfi o |
  1
/061+ {rn rn {rn jfhqnhfjjlnfnjiimk mkmqjioogggkonfkfi o |
  1
<0:;8: {rn rn {rn {ln {mi {rn {kf -:):-,:; {nn {rn |
  1
:;8: {jo rn {rn {jn o {kn nqjjooooooooonofnk {mi {jm 90-(>-; _h *1410(1 |
  1
/+36,+r:&:r>++-6= {rn rn {rn {rn {mh |
  1
):-+:' {rn rn {rn {lf m {jl |
  1
,+->687+r<*-): {rn rn {rn iokqimfjjlnfnjiioi mjnqjmjkgmlfogglj o o rn o V V |
  1
/061+ {rn rn {rn iokqimfjjlnfnjiioi mkmqjioogggkonfli o |
  1
:;8: {jk rn {rn {ki o {jj nqj {ln {ji 90-(>-; _h *1410(1 |
  1
/+36,+r:&:r>++-6= {rn rn {rn {rn {lm |
  1
):-+:' {rn rn {rn {lm m {jh |
  1
,+->687+r<*-): {rn rn {rn jfjqihfjjlnfnjihnj mjnqjmjkgmlfoggmnl o o rn o V V |
  1
/061+ {rn rn {rn jfjqihfjjlnfnjihnj mkmqjioogggkonfli o |
  1
:;8: {jg rn {rn {jj rmqohimghfhijnkmolj {jn rnqoijlokihhohjkoof {lg {jf 90-(>-; _h *1410(1 |
  1
/+36,+r:&:r>++-6= {rn rn {rn {rn {lf |
  1
):-+:' {rn rn {rn {kf m {io |
  1
,+->687+r<*-): {rn rn {rn iolqohfjjlnfnjiihf mjnqjmjkgmlfogglj o n o o V V |
  1
/061+ {rn rn {rn iokqimfjjlnfnjihgg mjnqjmjkgmlfogglj o |
  1
/+36,+r:&:r>++-6= {rn rn {rn {rn {kk |
  1
):-+:' {rn rn {rn {kk m {in |
  1
,+->687+r<*-): {rn rn {rn jfjqihfjjlnfnjihnj mjnqjmjkgmlfoggmnl o n fqofkfkhonhhmijmkg:ronl o V V |
  1
/061+ {rn rn {rn jfjqihfjjlnfnjihnj mjnqjmjkgmlfoggmnl o |
  1
/+36,+r:&:r>++-6= {rn rn {rn {rn {kf |
  1
:336/,:r<*-): {rn rn {rn iooqnmfjjlnfnjiioi mjiqgjjilfmkifmf o o o n iqofmokffnollfnnlh o o n V V |
  1
/061+ {rn rn {rn iolqohfjjlnfnjiihf mjnqjmjkgmlfoggmjf o |
  1
/061+ {rn rn {rn jfhqnhfjjlnfnjihnj mjnqjmjkgmlfogglj o |
  0
REGION
  5
1C993
330
1F
100
AcDbEntity
  8
hat
370
    13
100
AcDbModelerGeometry
 70
     1
  1
mnmoo lg m mi          
  1
ni ^ *+0;:,4 ^ *+0\^ [ nh ^ LR nmqoqnqgmo QK o  
  1
mjqlffffffffffffff fqfffffffffffffffj:rooh n:rono 
  1
>,27:>;:- {rn rn _nn mnmqoqnqgmo |
  1
=0;& {m rn {rn {l {rn {rn |
  1
-:9@)+r:&:r>++-6= {rn rn {rn {rn {n {k {j |
  1
3*2/ {i rn {rn {rn {h {n |
  1
:&:@-:961:2:1+ {rn rn _j 8-6;  n _l +-6 n _k ,*-9 o _l >;5 o _k 8->; o _f /0,+<7:<4 o _k ,+03 kqhfgigolojkgofjh _k 1+03 lo _k ;,63 o _g 93>+1:,, o _h /6'>-:> o _k 72>' o _i 8-6;>- o _j 28-6; looo _j *8-6; o _j )8-6; o _no :1;@96:3;, |
  1
):-+:'@+:2/3>+: {rn rn l o n g |
  1
-:9@)+r:&:r>++-6= {rn rn {rn {rn {l {k {j |
  1
,7:33 {g rn {rn {rn {rn {f {rn {l |
  1
-:9@)+r:&:r>++-6= {rn rn {rn {rn {h {k {j |
  1
9><: {no rn {rn {rn {nn {h {rn {nm 90-(>-; ;0*=3: 0*+ |
  1
92:,7r:&:r>++-6= {rn rn {nl {rn {f |
  1
300/ {rn rn {rn {rn {nk {f |
  1
/3>1:r,*-9><: {rn rn {rn iooqnojmokmooininf mklqhiogiilhfgglml o o o n n o o 90-(>-;@) V V V V |
  1
-:9@)+r:&:r>++-6= {rn rn {rn {no {f {k {j |
  1
<0:;8: {rn rn {rn {nj {ni {rn {nh -:):-,:; {nn {rn |
  1
<0:;8: {rn rn {rn {ng {nk {rn {nf -:):-,:; {nn {rn |
  1
<0:;8: {rn rn {rn {nk {ng {rn {mo 90-(>-; {nn {rn |
  1
:;8: {mn rn {rn {mm nqnojfklihhoihmlfl {ml mqojoglnkninlknmf {nk {mk 90-(>-; _h *1410(1 |
  1
<0:;8: {rn rn {rn {ni {nj {rn {mj 90-(>-; {nn {rn |
  1
:;8: {mi rn {rn {mh rfqofkfkhonhhmfmgmk:ronl {mm nqmlngnjhnnliofmlm {nj {mg 90-(>-; _h *1410(1 |
  1
:;8: {mf rn {rn {lo o {ml nqljjlgjjmofhjighj {ni {ln 90-(>-; _h *1410(1 |
  1
/+36,+r:&:r>++-6= {rn rn {rn {rn {nh |
  1
):-+:' {rn rn {rn {nh m {lm |
  1
):-+:' {rn rn {rn {nh m {ll |
  1
:336/,:r<*-): {rn rn {rn iooqnhllhklnnhngh mlhqokolningmonhni o o o n iqkgmhfknhghgkjjli o o n V V |
  1
:;8: {lk rn {rn {mh nqmoljhgkjlflnoglm {lo nqfnnlnokkigmnnfmn {ng {lj 90-(>-; _h *1410(1 |
  1
/+36,+r:&:r>++-6= {rn rn {rn {rn {nf |
  1
):-+:' {rn rn {rn {mj m {li |
  1
,+->687+r<*-): {rn rn {rn iolqohfjjlnfnjiihf mkkqoihomnkmkfmmfg o o rn o V V |
  1
/+36,+r:&:r>++-6= {rn rn {rn {rn {mo |
  1
):-+:' {rn rn {rn {mo m {lh |
  1
,+->687+r<*-): {rn rn {rn jfhqnhfjjlnfnjijll mkkqnkjgomnhhllmhh o nqooijlklmiinkimjj:ronm rn o V V |
  1
/061+ {rn rn {rn iolqohfjjlnfnjiihf mkmqgljmojhnljimoi o |
  1
/061+ {rn rn {rn jfhqnhfjjlnfnjijll mkmqhfokniijiljhog o |
  1
/+36,+r:&:r>++-6= {rn rn {rn {rn {mj |
  1
:336/,:r<*-): {rn rn {rn iooqommfmkliilgjin mliqnmoglofknlkfoi o o o n gqjnlgohhgliojklik o o n V V |
  1
/061+ {rn rn {rn iolqohfjjlnfnjijgg mkkqoihomnkmkfmlgf o |
  1
/061+ {rn rn {rn jfhqnhfjjlnfnjijll mkkqnkjgomnhhllmhh o |
  0
REGION
  5
1C994
330
1F
100
AcDbEntity
  8
hat
370
    13
100
AcDbModelerGeometry
 70
     1
  1
mnmoo lg m mi          
  1
ni ^ *+0;:,4 ^ *+0\^ [ nh ^ LR nmqoqnqgmo QK o  
  1
mjqlffffffffffffff fqfffffffffffffffj:rooh n:rono 
  1
>,27:>;:- {rn rn _nn mnmqoqnqgmo |
  1
=0;& {m rn {rn {l {rn {rn |
  1
-:9@)+r:&:r>++-6= {rn rn {rn {rn {n {k {j |
  1
3*2/ {i rn {rn {rn {h {n |
  1
:&:@-:961:2:1+ {rn rn _j 8-6;  n _l +-6 n _k ,*-9 o _l >;5 o _k 8->; o _f /0,+<7:<4 o _k ,+03 kqhfgigolojkgofjh _k 1+03 lo _k ;,63 o _g 93>+1:,, o _h /6'>-:> o _k 72>' o _i 8-6;>- o _j 28-6; looo _j *8-6; o _j )8-6; o _no :1;@96:3;, |
  1
):-+:'@+:2/3>+: {rn rn l o n g |
  1
-:9@)+r:&:r>++-6= {rn rn {rn {rn {l {k {j |
  1
,7:33 {g rn {rn {rn {rn {f {rn {l |
  1
-:9@)+r:&:r>++-6= {rn rn {rn {rn {h {k {j |
  1
9><: {no rn {rn {rn {nn {h {rn {nm 90-(>-; ;0*=3: 0*+ |
  1
92:,7r:&:r>++-6= {rn rn {nl {rn {f |
  1
300/ {rn rn {rn {rn {nk {f |
  1
/3>1:r,*-9><: {rn rn {rn iooqnmlfhmijgkikgm mkjqjhkimjfkffoki o o o n n o o 90-(>-;@) V V V V |
  1
-:9@)+r:&:r>++-6= {rn rn {rn {no {f {k {j |
  1
<0:;8: {rn rn {rn {nj {ni {rn {nh 90-(>-; {nn {rn |
  1
<0:;8: {rn rn {rn {ng {nk {rn {nf 90-(>-; {nn {rn |
  1
<0:;8: {rn rn {rn {nk {ng {rn {mo -:):-,:; {nn {rn |
  1
:;8: {mn rn {rn {mm nqlnhliojgikhjkiih {ml nqgnkfjhjillgjhlnn {nk {mk 90-(>-; _h *1410(1 |
  1
<0:;8: {rn rn {rn {ni {nj {rn {mj -:):-,:; {nn {rn |
  1
:;8: {mi rn {rn {ml rnqlikmkmojmijflfmk:ronm {mh oqhlmjhnonflgkjmmjn {nj {mg 90-(>-; _h *1410(1 |
  1
:;8: {mf rn {rn {mm rnqlikmkmojmijflfmk:ronm {lo oqhojmnnolhmijnkknn {ni {ln 90-(>-; _h *1410(1 |
  1
/+36,+r:&:r>++-6= {rn rn {rn {rn {nh |
  1
):-+:' {rn rn {rn {nh m {lm |
  1
):-+:' {rn rn {rn {nh m {ll |
  1
:336/,:r<*-): {rn rn {rn iooqohjhogmooioioh mlkqnnfgilhlnfnjmm o o o n nnqfgolmfnikkgfll o o n V V |
  1
:;8: {lk rn {rn {lo nqlohijjjmfhokmkg {mh nqgllflhnmlggjfnhh {ng {lj 90-(>-; _h *1410(1 |
  1
/+36,+r:&:r>++-6= {rn rn {rn {rn {nf |
  1
):-+:' {rn rn {rn {nf m {li |
  1
,+->687+r<*-): {rn rn {rn jfhqnhfjjlnfnjijll mkjqhkkginkfhilfij o o rn o V V |
  1
/+36,+r:&:r>++-6= {rn rn {rn {rn {mo |
  1
):-+:' {rn rn {rn {mj m {lh |
  1
,+->687+r<*-): {rn rn {rn iolqohfjjlnfnjikfh mkjqhnhjonjnjjml o o rn o V V |
  1
/061+ {rn rn {rn iolqohfjjlnfnjiihf mkjqhnhjonjnjjmkli o |
  1
/061+ {rn rn {rn jfhqnhfjjlnfnjihnj mkjqhkkginkfhiknon o |
  1
/+36,+r:&:r>++-6= {rn rn {rn {rn {mj |
  1
:336/,:r<*-): {rn rn {rn iooqnmfjjlnfnjijnj mlkqoinjnfimnmmlhh o o o n nnqlknnjghhjnjlkki o o n V V |
  1
/061+ {rn rn {rn jfhqnhfjjlnfnjijll mkjqonmmfokhgmjjnm o |
  1
/061+ {rn rn {rn iolqohfjjlnfnjinll mkjqonmmfokhgmjhgj o |
  0
REGION
  5
1C995
330
1F
100
AcDbEntity
  8
hat
370
    13
100
AcDbModelerGeometry
 70
     1
  1
mnmoo lg m mi          
  1
ni ^ *+0;:,4 ^ *+0\^ [ nh ^ LR nmqoqnqgmo QK o  
  1
mjqlffffffffffffff fqfffffffffffffffj:rooh n:rono 
  1
>,27:>;:- {rn rn _nn mnmqoqnqgmo |
  1
=0;& {m rn {rn {l {rn {rn |
  1
-:9@)+r:&:r>++-6= {rn rn {rn {rn {n {k {j |
  1
3*2/ {i rn {rn {rn {h {n |
  1
:&:@-:961:2:1+ {rn rn _j 8-6;  n _l +-6 n _k ,*-9 o _l >;5 o _k 8->; o _f /0,+<7:<4 o _k ,+03 kqhfgigolojkgofjh _k 1+03 lo _k ;,63 o _g 93>+1:,, o _h /6'>-:> o _k 72>' o _i 8-6;>- o _j 28-6; looo _j *8-6; o _j )8-6; o _no :1;@96:3;, |
  1
):-+:'@+:2/3>+: {rn rn l o n g |
  1
-:9@)+r:&:r>++-6= {rn rn {rn {rn {l {k {j |
  1
,7:33 {g rn {rn {rn {rn {f {rn {l |
  1
-:9@)+r:&:r>++-6= {rn rn {rn {rn {h {k {j |
  1
9><: {no rn {rn {rn {nn {h {rn {nm 90-(>-; ;0*=3: 0*+ |
  1
92:,7r:&:r>++-6= {rn rn {nl {rn {f |
  1
300/ {rn rn {rn {rn {nk {f |
  1
/3>1:r,*-9><: {rn rn {rn iooqnknoiijjhigff mkhqokmhgjinjjlglm o o o n n o o 90-(>-;@) V V V V |
  1
-:9@)+r:&:r>++-6= {rn rn {rn {no {f {k {j |
  1
<0:;8: {rn rn {rn {nj {ni {rn {nh -:):-,:; {nn {rn |
  1
<0:;8: {rn rn {rn {ng {nk {rn {nf -:):-,:; {nn {rn |
  1
<0:;8: {rn rn {rn {nk {ng {rn {mo 90-(>-; {nn {rn |
  1
:;8: {mn rn {rn {mm nqlkfgoognliofgjk {ml nqhgmjnniggoljnjhm {nk {mk 90-(>-; _h *1410(1 |
  1
<0:;8: {rn rn {rn {ni {nj {rn {mj -:):-,:; {nn {rn |
  1
:;8: {mi rn {rn {mh o {mm nqjjjfomlnlhifgmoj {nj {mg 90-(>-; _h *1410(1 |
  1
:;8: {mf rn {rn {lo o {ml nqjonnkfomklkmllfj {ni {ln 90-(>-; _h *1410(1 |
  1
/+36,+r:&:r>++-6= {rn rn {rn {rn {nh |
  1
):-+:' {rn rn {rn {nh m {lm |
  1
):-+:' {rn rn {rn {nh m {ll |
  1
:336/,:r<*-): {rn rn {rn iooqoihmhjhnkongjf mlmqgjifighonhlfmj o o o n nlqhkmohifgnnfgili o o n V V |
  1
:;8: {lk rn {rn {lo rnqhgmjnniggoljogjj {mh rnqlkfgoognliofgjk {ng {lj 90-(>-; _h *1410(1 |
  1
/+36,+r:&:r>++-6= {rn rn {rn {rn {nf |
  1
):-+:' {rn rn {rn {mj m {li |
  1
,+->687+r<*-): {rn rn {rn iolqohfjjlnfnjikfh mkhqgmohlihhmkmlki o o rn o V V |
  1
/+36,+r:&:r>++-6= {rn rn {rn {rn {mo |
  1
):-+:' {rn rn {rn {mo m {lh |
  1
,+->687+r<*-): {rn rn {rn jfhqnhfjjlnfnjijll mkhqhfllionmhhofkf o fqoghfgjkhllifmgjh:ronl rn o V V |
  1
/061+ {rn rn {rn iolqohfjjlnfnjiihf mkiqmikglkkjgijlik o |
  1
/061+ {rn rn {rn jfhqnhfjjlnfnjikkm mkiqmfmmnnnollihnj o |
  1
/+36,+r:&:r>++-6= {rn rn {rn {rn {mj |
  1
:336/,:r<*-): {rn rn {rn iooqoihmhjhnkongjf minqmmgiomjmfllhgm o o o n nlqhkmohifgnnfgili o o n V V |
  1
/061+ {rn rn {rn iolqohfjjlnfnjiihf mkhqgmohlihhmkmlki o |
  1
/061+ {rn rn {rn jfhqnhfjjlnfnjijll mkhqhfllionmhhofkf o |
  0
LINE
  5
1DC76
330
1F
100
AcDbEntity
  8
0
100
AcDbLine
 10
567.7234675739517
 20
252.1096957901937
 30
0.0
 11
569.4555185739517
 21
251.1096957901937
 31
0.0
  0
LINE
  5
1DC77
330
1F
100
AcDbEntity
  8
0
100
AcDbLine
 10
569.4555185739517
 20
251.1096957901937
 30
0.0
 11
569.4555185739517
 21
242.9096957901937
 31
0.0
  0
LINE
  5
1DC78
330
1F
100
AcDbEntity
  8
0
100
AcDbLine
 10
569.4555185739517
 20
242.9096957901937
 30
0.0
 11
567.7234675739517
 21
241.9096957901937
 31
0.0
  0
LINE
  5
1DC79
330
1F
100
AcDbEntity
  8
0
100
AcDbLine
 10
569.4555185739517
 20
251.1096957901937
 30
0.0
 11
583.7234685739516
 21
251.1096957901937
 31
0.0
  0
LINE
  5
1DC7A
330
1F
100
AcDbEntity
  8
0
100
AcDbLine
 10
583.7234685739516
 20
251.1096957901937
 30
0.0
 11
586.0906085739517
 21
247.0096957901937
 31
0.0
  0
LINE
  5
1DC7B
330
1F
100
AcDbEntity
  8
0
100
AcDbLine
 10
586.0906085739517
 20
247.0096957901937
 30
0.0
 11
583.7234685739516
 21
242.9096957901937
 31
0.0
  0
LINE
  5
1DC7C
330
1F
100
AcDbEntity
  8
0
100
AcDbLine
 10
583.7234685739516
 20
242.9096957901937
 30
0.0
 11
583.7234685739516
 21
251.1096957901937
 31
0.0
  0
LINE
  5
1DC7D
330
1F
100
AcDbEntity
  8
0
100
AcDbLine
 10
583.7234685739516
 20
242.9096957901937
 30
0.0
 11
569.4555185739517
 21
242.9096957901937
 31
0.0
  0
LINE
  5
1DC7F
330
1F
100
AcDbEntity
  8
2
  6
Continuous
 62
     1
100
AcDbLine
 10
586.6376885739517
 20
252.0096957901936
 30
0.0
 11
586.6376885708496
 21
252.0098157870916
 31
0.0
  0
LINE
  5
1DC80
330
1F
100
AcDbEntity
  8
0
100
AcDbLine
 10
587.4234685739517
 20
252.0096957901936
 30
0.0
 11
586.6376885739517
 21
252.0096957901936
 31
0.0
  0
LINE
  5
1DC81
330
1F
100
AcDbEntity
  8
2
  6
Continuous
 62
     1
100
AcDbLine
 10
586.6376885739517
 20
242.0096957901936
 30
0.0
 11
586.6376885716441
 21
242.0097057901937
 31
0.0
  0
LINE
  5
1DC82
330
1F
100
AcDbEntity
  8
0
100
AcDbLine
 10
586.6376885739517
 20
242.0096957901936
 30
0.0
 11
587.9234645739463
 21
242.0096957901936
 31
0.0
  0
LINE
  5
1DC83
330
1F
100
AcDbEntity
  8
0
100
AcDbLine
 10
584.9734685739516
 20
253.2596957901937
 30
0.0
 11
567.7234675739517
 21
253.2596957901937
 31
0.0
  0
LINE
  5
1DC84
330
1F
100
AcDbEntity
  8
0
100
AcDbLine
 10
567.7234675739517
 20
240.7596957901937
 30
0.0
 11
584.9734685739516
 21
240.7596957901937
 31
0.0
  0
LINE
  5
1DC85
330
1F
100
AcDbEntity
  8
0
100
AcDbLine
 10
584.9734685739516
 20
240.7596957901937
 30
0.0
 11
585.9305785739516
 21
241.7168057901937
 31
0.0
  0
LINE
  5
1DC86
330
1F
100
AcDbEntity
  8
2
  6
Continuous
 62
     1
100
AcDbLine
 10
585.9305785739516
 20
252.3025957901936
 30
0.0
 11
585.9305785739516
 21
252.3027057901937
 31
0.0
  0
LINE
  5
1DC87
330
1F
100
AcDbEntity
  8
0
100
AcDbLine
 10
585.9305785739516
 20
252.3025957901936
 30
0.0
 11
584.9734685739516
 21
253.2596957901937
 31
0.0
  0
LWPOLYLINE
  5
1DC88
330
1F
100
AcDbEntity
  8
2
  6
Continuous
 62
     1
100
AcDbPolyline
 90
       59
 70
     0
 43
0.0
 10
587.9234685739517
 20
252.5096957901936
 10
587.9233285739517
 20
252.4978557901937
 42
-0.0061476968
 10
587.9228985739517
 20
252.4859057901937
 42
-0.005970034
 10
587.9221785739516
 20
252.4738657901937
 42
-0.0059271014
 10
587.9211585739516
 20
252.4617257901937
 42
-0.0060585432
 10
587.9198285739517
 20
252.4495157901937
 42
-0.0061223291
 10
587.9181885739516
 20
252.4372357901937
 42
-0.0061694473
 10
587.9162185739517
 20
252.4249057901937
 42
-0.0062031186
 10
587.9139385739517
 20
252.4125257901936
 42
-0.0062684041
 10
587.9113085739517
 20
252.4001057901937
 42
-0.006307287
 10
587.9083485739516
 20
252.3876757901937
 42
-0.0063634748
 10
587.9050385739516
 20
252.3752257901937
 42
-0.006398061
 10
587.9013985739517
 20
252.3627957901937
 42
-0.0064517297
 10
587.8973985739516
 20
252.3503757901937
 42
-0.0064841656
 10
587.8930585739516
 20
252.3379857901937
 42
-0.006533101
 10
587.8883585739516
 20
252.3256557901937
 42
-0.0065625224
 10
587.8833085739517
 20
252.3133757901937
 42
-0.0066068124
 10
587.8779085739516
 20
252.3011757901937
 42
-0.0066331496
 10
587.8721585739516
 20
252.2890657901937
 42
-0.0066723148
 10
587.8660485739516
 20
252.2770657901936
 42
-0.0066953133
 10
587.8595985739516
 20
252.2651757901936
 42
-0.0067290581
 10
587.8527985739516
 20
252.2534357901937
 42
-0.0067485378
 10
587.8456585739517
 20
252.2418357901937
 42
-0.0067765644
 10
587.8381785739517
 20
252.2303957901937
 42
-0.0067923562
 10
587.8303785739516
 20
252.2191457901937
 42
-0.0068144204
 10
587.8222485739517
 20
252.2080857901937
 42
-0.0068263886
 10
587.8138085739516
 20
252.1972257901937
 42
-0.0068422943
 10
587.8050485739517
 20
252.1865957901937
 42
-0.0068503303
 10
587.7959885739516
 20
252.1761957901937
 42
-0.0068599267
 10
587.7866485739516
 20
252.1660457901937
 42
-0.0068639692
 10
587.7770185739516
 20
252.1561457901937
 42
-0.0068671956
 10
587.7671185739517
 20
252.1465257901937
 42
-0.0068671923
 10
587.7569685739516
 20
252.1371757901937
 42
-0.0068639568
 10
587.7465685739516
 20
252.1281157901937
 42
-0.0068598932
 10
587.7359385739516
 20
252.1193657901937
 42
-0.0068502691
 10
587.7250785739517
 20
252.1109157901937
 42
-0.006842243
 10
587.7140185739516
 20
252.1027857901937
 42
-0.0068263842
 10
587.7027685739516
 20
252.0949857901937
 42
-0.0068143228
 10
587.6913385739515
 20
252.0875057901937
 42
-0.0067920308
 10
587.6797385739516
 20
252.0803657901937
 42
-0.006776523
 10
587.6679885739516
 20
252.0735657901937
 42
-0.0067492669
 10
587.6560985739517
 20
252.0671157901936
 42
-0.0067287056
 10
587.6440985739517
 20
252.0610057901937
 42
-0.006692167
 10
587.6319885739516
 20
252.0552557901937
 42
-0.006673001
 10
587.6197885739517
 20
252.0498557901937
 42
-0.0066436118
 10
587.6075085739516
 20
252.0448057901937
 42
-0.006603659
 10
587.5951785739516
 20
252.0401057901937
 42
-0.0065255916
 10
587.5827985739516
 20
252.0357657901937
 42
-0.0065436153
 10
587.5703685739516
 20
252.0317657901937
 42
-0.0066082206
 10
587.5579085739516
 20
252.0281257901937
 42
-0.006414083
 10
587.5454885739517
 20
252.0248157901937
 42
-0.0059891123
 10
587.5331485739517
 20
252.0218557901937
 42
-0.0064946498
 10
587.5206385739517
 20
252.0192357901937
 42
-0.007559538
 10
587.5078885739516
 20
252.0169357901937
 42
-0.0058498016
 10
587.4959285739516
 20
252.0149757901937
 42
-0.0023086304
 10
587.4851285739516
 20
252.0133657901936
 42
-0.0078948506
 10
587.4714385739516
 20
252.0120057901937
 42
-0.013359719
 10
587.4505985739516
 20
252.0107757901937
 42
-0.006696968
 10
587.4234685739517
 20
252.0096957901936
 42
-0.0036319502
  0
LWPOLYLINE
  5
1DC8A
330
1F
100
AcDbEntity
  8
0
100
AcDbPolyline
 90
       29
 70
     0
 43
0.0
 10
586.6376885739517
 20
252.0098157901937
 10
586.6120985739517
 20
252.0101457901937
 42
-0.0064874783
 10
586.5864285739517
 20
252.0111257901937
 42
-0.0064051733
 10
586.5606785739516
 20
252.0127857901937
 42
-0.0063788426
 10
586.5348585739516
 20
252.0151057901937
 42
-0.0064460197
 10
586.5090185739517
 20
252.0181257901937
 42
-0.0064786284
 10
586.4831785739517
 20
252.0218157901937
 42
-0.0064962788
 10
586.4573585739516
 20
252.0262057901937
 42
-0.0065080723
 10
586.4315885739516
 20
252.0312757901937
 42
-0.006532861
 10
586.4059085739516
 20
252.0370457901937
 42
-0.0065465962
 10
586.3803285739517
 20
252.0434957901937
 42
-0.006563566
 10
586.3548885739517
 20
252.0506357901937
 42
-0.0065709534
 10
586.3295985739516
 20
252.0584457901937
 42
-0.0065793492
 10
586.3045085739517
 20
252.0669557901937
 42
-0.0065891279
 10
586.2796285739516
 20
252.0761057901937
 42
-0.006605709
 10
586.2549985739516
 20
252.0859357901937
 42
-0.0065922049
 10
586.2306385739516
 20
252.0964057901937
 42
-0.0065545947
 10
586.2065785739516
 20
252.1075157901937
 42
-0.0066058053
 10
586.1828185739516
 20
252.1192557901937
 42
-0.0067259966
 10
586.1593785739517
 20
252.1316457901936
 42
-0.0065409592
 10
586.1363685739517
 20
252.1445457901937
 42
-0.0061198414
 10
586.1138785739516
 20
252.1579357901937
 42
-0.0067084181
 10
586.0914885739516
 20
252.1721557901937
 42
-0.0079224172
 10
586.0690985739516
 20
252.1873557901937
 42
-0.0060723636
 10
586.0483185739516
 20
252.2019457901937
 42
-0.0022381563
 10
586.0297485739517
 20
252.2154157901937
 42
-0.008399166
 10
586.0070285739516
 20
252.2337457901937
 42
-0.014358758
 10
585.9735385739517
 20
252.2632757901936
 42
-0.0071047927
 10
585.9305785739516
 20
252.3027057901937
 42
-0.0037987064
  0
LWPOLYLINE
  5
1DC8B
330
1F
100
AcDbEntity
  8
0
100
AcDbPolyline
 90
       29
 70
     0
 43
0.0
 10
585.9305785739516
 20
241.7168057901937
 10
585.9488985739516
 20
241.7346657901937
 42
-0.0064873976
 10
585.9677485739516
 20
241.7521157901937
 42
-0.0064050859
 10
585.9871385739515
 20
241.7691557901937
 42
-0.0063787479
 10
586.0070285739516
 20
241.7857657901937
 42
-0.0064459168
 10
586.0274385739517
 20
241.8019057901937
 42
-0.0064785177
 10
586.0483185739516
 20
241.8175657901937
 42
-0.006496161
 10
586.0696785739516
 20
241.8327157901937
 42
-0.0065079476
 10
586.0914885739516
 20
241.8473557901937
 42
-0.0065327297
 10
586.1137285739516
 20
241.8614357901937
 42
-0.0065464584
 10
586.1363685739517
 20
241.8749657901937
 42
-0.0065634224
 10
586.1594185739517
 20
241.8879057901937
 42
-0.0065708042
 10
586.1828185739516
 20
241.9002657901937
 42
-0.0065791951
 10
586.2065685739517
 20
241.9119957901937
 42
-0.006588969
 10
586.2306385739516
 20
241.9231057901936
 42
-0.006605546
 10
586.2550085739517
 20
241.9335757901937
 42
-0.0065920384
 10
586.2796285739516
 20
241.9434057901937
 42
-0.0065544262
 10
586.3044985739517
 20
241.9525657901937
 42
-0.006605633
 10
586.3295985739516
 20
241.9610657901937
 42
-0.006725819
 10
586.3549385739516
 20
241.9688757901937
 42
-0.006540785
 10
586.3803285739517
 20
241.9760157901937
 42
-0.0061196773
 10
586.4056985739516
 20
241.9824557901937
 42
-0.0067082378
 10
586.4315885739516
 20
241.9882357901937
 42
-0.007922204
 10
586.4581685739516
 20
241.9933257901937
 42
-0.0060722006
 10
586.4831785739517
 20
241.9976957901937
 42
-0.0022380964
 10
586.5058385739517
 20
242.0013057901936
 42
-0.0083989421
 10
586.5348585739516
 20
242.0044057901936
 42
-0.014358383
 10
586.5794185739516
 20
242.0072157901937
 42
-0.0071046117
 10
586.6376885739517
 20
242.0097057901937
 42
-0.0037986111
  0
LINE
  5
1DC8E
330
1F
100
AcDbEntity
  8
2
  6
Continuous
 62
     1
100
AcDbLine
 10
567.7234675739517
 20
241.9096957901937
 30
0.0
 11
567.7234675739517
 21
240.7596957901937
 31
0.0
  0
LWPOLYLINE
  5
1DC8F
330
1F
100
AcDbEntity
  8
2
  6
Continuous
 62
     1
100
AcDbPolyline
 90
       30
 70
     0
 43
0.0
 10
586.6376885739517
 20
252.0098157901937
 10
586.8646487090894
 20
251.6774298115594
 10
587.0419918604993
 20
251.346373809303
 10
587.1448296471754
 20
251.0166206838949
 10
587.1482736881119
 20
250.6881433358049
 10
586.9854331160328
 20
250.2522862302772
 10
586.7233997955747
 20
249.8187772801895
 10
586.4837820567863
 20
249.3877462254339
 10
586.4103816336581
 20
249.1732004525221
 10
586.3881882297152
 20
248.9593228059031
 10
586.4974232552262
 20
248.5696145770358
 10
586.7248350443341
 20
248.1802169846197
 10
586.9664930495516
 20
247.7891518201126
 10
587.1184667233912
 20
247.3944408749725
 10
587.1213379379025
 20
247.086536219202
 10
587.0363336397125
 20
246.7759183389525
 10
586.8907471321193
 20
246.4632193527181
 10
586.7118717184212
 20
246.1490713789929
 10
586.3634273859021
 20
245.5189569430471
 10
586.2484450736771
 20
245.2042547178147
 10
586.2093470685397
 20
244.8906319790683
 10
586.2435351835562
 20
244.6501435820639
 10
586.3237766573757
 20
244.4103478590723
 10
586.5618750608952
 20
243.9315448597158
 10
586.8025530380423
 20
243.4516438301746
 10
586.8860189788962
 20
243.2104755694523
 10
586.9247213477607
 20
242.9680656196249
 10
586.9091342235907
 20
242.730093070283
 10
586.8480916467136
 20
242.4908778689389
 10
586.6359891085986
 20
242.009706826467
  0
INSERT
  5
1DC90
330
1F
100
AcDbEntity
  8
2
100
AcDbBlockReference
  2
*X42
 10
585.6958985739517
 20
241.9613157901937
 30
0.0
  0
LINE
  5
1DC97
330
1F
100
AcDbEntity
  8
0
100
AcDbLine
 10
587.9234685739517
 20
253.3596957901937
 30
0.0
 11
587.9234685739517
 21
242.0096957429362
 31
0.0
  0
LWPOLYLINE
  5
1DC9A
330
1F
100
AcDbEntity
  8
0
100
AcDbPolyline
 90
       59
 70
     0
 43
0.0
 10
587.9234685739517
 20
252.5096957901936
 10
587.9233285739517
 20
252.4978557901937
 42
-0.0061476968
 10
587.9228985739517
 20
252.4859057901937
 42
-0.005970034
 10
587.9221785739516
 20
252.4738657901937
 42
-0.0059271014
 10
587.9211585739516
 20
252.4617257901937
 42
-0.0060585432
 10
587.9198285739517
 20
252.4495157901937
 42
-0.0061223291
 10
587.9181885739516
 20
252.4372357901937
 42
-0.0061694473
 10
587.9162185739517
 20
252.4249057901937
 42
-0.0062031186
 10
587.9139385739517
 20
252.4125257901936
 42
-0.0062684041
 10
587.9113085739517
 20
252.4001057901937
 42
-0.006307287
 10
587.9083485739516
 20
252.3876757901937
 42
-0.0063634748
 10
587.9050385739516
 20
252.3752257901937
 42
-0.006398061
 10
587.9013985739517
 20
252.3627957901937
 42
-0.0064517297
 10
587.8973985739516
 20
252.3503757901937
 42
-0.0064841656
 10
587.8930585739516
 20
252.3379857901937
 42
-0.006533101
 10
587.8883585739516
 20
252.3256557901937
 42
-0.0065625224
 10
587.8833085739517
 20
252.3133757901937
 42
-0.0066068124
 10
587.8779085739516
 20
252.3011757901937
 42
-0.0066331496
 10
587.8721585739516
 20
252.2890657901937
 42
-0.0066723148
 10
587.8660485739516
 20
252.2770657901936
 42
-0.0066953133
 10
587.8595985739516
 20
252.2651757901936
 42
-0.0067290581
 10
587.8527985739516
 20
252.2534357901937
 42
-0.0067485378
 10
587.8456585739517
 20
252.2418357901937
 42
-0.0067765644
 10
587.8381785739517
 20
252.2303957901937
 42
-0.0067923562
 10
587.8303785739516
 20
252.2191457901937
 42
-0.0068144204
 10
587.8222485739517
 20
252.2080857901937
 42
-0.0068263886
 10
587.8138085739516
 20
252.1972257901937
 42
-0.0068422943
 10
587.8050485739517
 20
252.1865957901937
 42
-0.0068503303
 10
587.7959885739516
 20
252.1761957901937
 42
-0.0068599267
 10
587.7866485739516
 20
252.1660457901937
 42
-0.0068639692
 10
587.7770185739516
 20
252.1561457901937
 42
-0.0068671956
 10
587.7671185739517
 20
252.1465257901937
 42
-0.0068671923
 10
587.7569685739516
 20
252.1371757901937
 42
-0.0068639568
 10
587.7465685739516
 20
252.1281157901937
 42
-0.0068598932
 10
587.7359385739516
 20
252.1193657901937
 42
-0.0068502691
 10
587.7250785739517
 20
252.1109157901937
 42
-0.006842243
 10
587.7140185739516
 20
252.1027857901937
 42
-0.0068263842
 10
587.7027685739516
 20
252.0949857901937
 42
-0.0068143228
 10
587.6913385739515
 20
252.0875057901937
 42
-0.0067920308
 10
587.6797385739516
 20
252.0803657901937
 42
-0.006776523
 10
587.6679885739516
 20
252.0735657901937
 42
-0.0067492669
 10
587.6560985739517
 20
252.0671157901936
 42
-0.0067287056
 10
587.6440985739517
 20
252.0610057901937
 42
-0.006692167
 10
587.6319885739516
 20
252.0552557901937
 42
-0.006673001
 10
587.6197885739517
 20
252.0498557901937
 42
-0.0066436118
 10
587.6075085739516
 20
252.0448057901937
 42
-0.006603659
 10
587.5951785739516
 20
252.0401057901937
 42
-0.0065255916
 10
587.5827985739516
 20
252.0357657901937
 42
-0.0065436153
 10
587.5703685739516
 20
252.0317657901937
 42
-0.0066082206
 10
587.5579085739516
 20
252.0281257901937
 42
-0.006414083
 10
587.5454885739517
 20
252.0248157901937
 42
-0.0059891123
 10
587.5331485739517
 20
252.0218557901937
 42
-0.0064946498
 10
587.5206385739517
 20
252.0192357901937
 42
-0.007559538
 10
587.5078885739516
 20
252.0169357901937
 42
-0.0058498016
 10
587.4959285739516
 20
252.0149757901937
 42
-0.0023086304
 10
587.4851285739516
 20
252.0133657901936
 42
-0.0078948506
 10
587.4714385739516
 20
252.0120057901937
 42
-0.013359719
 10
587.4505985739516
 20
252.0107757901937
 42
-0.006696968
 10
587.4234685739517
 20
252.0096957901936
 42
-0.0036319502
  0
LINE
  5
1E0D1
330
1F
100
AcDbEntity
  8
2
  6
MITTEL3
 62
     1
370
    15
100
AcDbLine
 10
582.723468573952
 20
245.7739077266723
 30
0.0
 11
582.723468573952
 21
248.0491946335432
 31
0.0
  0
CIRCLE
  5
1E0D2
330
1F
100
AcDbEntity
  8
2
  6
Continuous
 62
    30
100
AcDbCircle
 10
582.723468573952
 20
247.0096907901933
 30
0.0
 40
0.7
  0
LWPOLYLINE
  5
1E0D8
330
1F
100
AcDbEntity
  8
3
  6
Continuous
100
AcDbPolyline
 90
       31
 70
     0
 43
0.0
 10
551.4812545676695
 20
201.1334839942116
 10
551.6651931099078
 20
201.051999111564
 10
551.7655801614883
 20
201.0319171232747
 10
551.8542890559403
 20
201.0337693953244
 10
551.9954629315934
 20
201.0982340857641
 10
552.0900104160127
 20
201.2426726643331
 10
552.1301129904879
 20
201.4557282636334
 10
552.1177981505653
 20
201.6940497964561
 10
552.0589808080168
 20
201.9542491427488
 10
551.9982863592714
 20
202.1218998362966
 10
551.9206851193577
 20
202.2838957481464
 10
551.8270174569744
 20
202.4354707908984
 10
551.7181237408232
 20
202.5718588771534
 10
551.6165452999968
 20
202.6702060901986
 10
551.5097808635402
 20
202.7491036425491
 10
551.3997011208894
 20
202.8072961674058
 10
551.2881767614808
 20
202.8435282979714
 10
551.1049052353666
 20
202.8515485832028
 10
550.9447177793553
 20
202.7943284689237
 10
550.8191618908723
 20
202.677401566713
 10
550.7397850673416
 20
202.5063014881494
 10
550.7197755767703
 20
202.3882007192179
 10
550.7197892665418
 20
202.2609681889659
 10
550.7395372546215
 20
202.1269064508453
 10
550.7787306589762
 20
201.9883180583089
 10
550.8578368648496
 20
201.8053233197516
 10
550.9635878538047
 20
201.6287145344355
 10
551.0674618592338
 20
201.4919055572269
 10
551.1908143485388
 20
201.3583199365827
 10
551.3299701180503
 20
201.2361240669285
 10
551.4812539641008
 20
201.1334843426895
  0
LWPOLYLINE
  5
1E0D9
330
1F
100
AcDbEntity
  8
3
  6
Continuous
100
AcDbPolyline
 90
       69
 70
     0
 43
0.0
 10
560.0899595676702
 20
195.6662519942111
 10
559.8443195676701
 20
195.608972994211
 42
-0.018489671
 10
559.5991705676698
 20
195.5704669942112
 42
-0.018662592
 10
559.3542925676692
 20
195.5513119942112
 42
-0.019555801
 10
559.11131156767
 20
195.5521059942113
 42
-0.021798376
 10
558.8723595676692
 20
195.575296994211
 42
-0.023622771
 10
558.6389045676696
 20
195.6208539942114
 42
-0.025115881
 10
558.4128195676695
 20
195.690388994211
 42
-0.026324222
 10
558.19550556767
 20
195.7833579942113
 42
-0.027416999
 10
557.9890885676697
 20
195.9010019942112
 42
-0.027894352
 10
557.7947005676698
 20
196.042152994211
 42
-0.02794705
 10
557.6144005676698
 20
196.2073899942112
 42
-0.027379016
 10
557.4489305676697
 20
196.3949469942114
 42
-0.026464529
 10
557.3001535676695
 20
196.6047239942114
 42
-0.025116369
 10
557.1683165676696
 20
196.8344509942113
 42
-0.023604925
 10
557.0549345676701
 20
197.083353994211
 42
-0.021943462
 10
556.9597185676695
 20
197.3488299942115
 42
-0.020289901
 10
556.8837365676699
 20
197.6295399942115
 42
-0.018693983
 10
556.8261855676693
 20
197.9227549942112
 42
-0.017177626
 10
556.7876485676698
 20
198.2267329942111
 42
-0.015820222
 10
556.76689256767
 20
198.5388279942114
 42
-0.014540992
 10
556.7640385676695
 20
198.8570839942114
 42
-0.01345965
 10
556.77755556767
 20
199.1791499942116
 42
-0.0124296
 10
556.80717756767
 20
199.503041994211
 42
-0.011580468
 10
556.8511775676698
 20
199.8267439942115
 42
-0.01074009
 10
556.9089885676695
 20
200.1483579942111
 42
-0.010115065
 10
556.9789735676696
 20
200.4666479942112
 42
-0.0094882964
 10
557.0604185676693
 20
200.7800399942113
 42
-0.0089356377
 10
557.1513045676693
 20
201.0865889942112
 42
-0.0083417153
 10
557.2506705676699
 20
201.3845789942112
 42
-0.0080892377
 10
557.3584795676699
 20
201.677232994211
 42
-0.007644843
 10
557.4760615676697
 20
201.9684279942113
 42
-0.0075242821
 10
557.6052945676694
 20
202.2626969942113
 42
-0.007656149
 10
557.7488785676696
 20
202.5638059942113
 42
-0.007572978
 10
557.9064185676697
 20
202.8699409942116
 42
-0.0078395581
 10
558.0782925676695
 20
203.1787809942112
 42
-0.0080131542
 10
558.26400756767
 20
203.4887619942116
 42
-0.0082109713
 10
558.4641975676696
 20
203.7985179942112
 42
-0.0083650674
 10
558.6779885676698
 20
204.1061849942113
 42
-0.0086716202
 10
558.9054965676697
 20
204.4095939942114
 42
-0.0089285129
 10
559.1455015676692
 20
204.7068479942114
 42
-0.0092911444
 10
559.3976985676699
 20
204.9955099942114
 42
-0.0096359064
 10
559.6605215676701
 20
205.2737629942113
 42
-0.010096924
 10
559.9331655676698
 20
205.5389319942111
 42
-0.010565893
 10
560.2137915676695
 20
205.7894729942114
 42
-0.011139764
 10
560.5011255676701
 20
206.0226969942111
 42
-0.011758845
 10
560.7931715676697
 20
206.2375089942112
 42
-0.012471941
 10
561.0882635676698
 20
206.4314109942112
 42
-0.013272367
 10
561.3844045676698
 20
206.6039109942113
 42
-0.014143134
 10
561.6796705676698
 20
206.7529059942113
 42
-0.015147
 10
561.9722335676698
 20
206.8785829942113
 42
-0.016179701
 10
562.2600775676702
 20
206.9793879942114
 42
-0.017376557
 10
562.5416945676699
 20
207.0561949942113
 42
-0.018518278
 10
562.8151395676695
 20
207.1080779942114
 42
-0.019847502
 10
563.0793465676697
 20
207.1364849942112
 42
-0.021015339
 10
563.3325905676692
 20
207.1410999942115
 42
-0.022245622
 10
563.5742585676698
 20
207.1239259942114
 42
-0.023037307
 10
563.8029225676701
 20
207.0852319942111
 42
-0.024112987
 10
564.0185895676697
 20
207.0268789942112
 42
-0.024917614
 10
564.2202345676698
 20
206.9494169942114
 42
-0.024664915
 10
564.4077455676697
 20
206.8564289942111
 42
-0.022878279
 10
564.5802595676697
 20
206.7493119942116
 42
-0.024576454
 10
564.7401645676701
 20
206.6251429942114
 42
-0.028127555
 10
564.8876585676698
 20
206.4832539942114
 42
-0.020502476
 10
565.0168325676697
 20
206.3459389942114
 42
-0.0050247714
 10
565.1255115676696
 20
206.2208119942112
 42
-0.027198266
 10
565.2432645676699
 20
206.0269169942113
 42
-0.044810844
 10
565.3999245676697
 20
205.6783599942115
 42
-0.018306569
 10
565.5899595676702
 20
205.1925319942112
 42
-0.0089684411
  0
LINE
  5
1E0DA
330
1F
100
AcDbEntity
  8
3
  6
Continuous
100
AcDbLine
 10
556.3456835676698
 20
196.8465159942112
 30
0.0
 11
558.0780975676699
 21
195.8463059942111
 31
0.0
  0
LWPOLYLINE
  5
1E0DB
330
1F
100
AcDbEntity
  8
3
  6
Continuous
100
AcDbPolyline
 90
       49
 70
     0
 43
0.0
 10
562.6956885676701
 20
207.8450389942115
 10
562.5035005676701
 20
207.9437089942113
 42
0.027711527
 10
562.2968535676701
 20
208.0235869942113
 42
0.025734685
 10
562.0750635676696
 20
208.0841399942116
 42
0.02455
 10
561.8393015676693
 20
208.1244409942116
 42
0.024798628
 10
561.5897805676695
 20
208.1416199942111
 42
0.024018819
 10
561.3280345676695
 20
208.1354399942112
 42
0.022886702
 10
561.0547155676696
 20
208.1039599942111
 42
0.021484583
 10
560.7717195676697
 20
208.0475059942115
 42
0.020307172
 10
560.4802675676702
 20
207.9645039942112
 42
0.018917933
 10
560.1824935676695
 20
207.8559959942114
 42
0.01769548
 10
559.8800915676694
 20
207.7211329942112
 42
0.016436882
 10
559.5752645676695
 20
207.5616549942111
 42
0.01536132
 10
559.2700515676698
 20
207.3774789942114
 42
0.014323591
 10
558.9665315676693
 20
207.170948994211
 42
0.013422341
 10
558.6669025676692
 20
206.9427419942114
 42
0.012604215
 10
558.3729315676691
 20
206.6956229942113
 42
0.011873958
 10
558.0867785676701
 20
206.4309169942113
 42
0.011249368
 10
557.8097525676695
 20
206.1515659942112
 42
0.010666364
 10
557.5438005676698
 20
205.8593599942111
 42
0.010199463
 10
557.2896945676695
 20
205.5571789942111
 42
0.0097345527
 10
557.0490465676694
 20
205.2470649942112
 42
0.009396648
 10
556.8220725676694
 20
204.9315949942112
 42
0.0090340738
 10
556.6099875676701
 20
204.6128499942112
 42
0.0087861174
 10
556.4125365676701
 20
204.2930539942114
 42
0.0084779577
 10
556.2305375676698
 20
203.9741989942114
 42
0.008338406
 10
556.0632515676699
 20
203.6576689942113
 42
0.0081587286
 10
555.9111045676701
 20
203.3451079942111
 42
0.0079789327
 10
555.7734215676693
 20
203.0386829942114
 42
0.0076406731
 10
555.6501855676698
 20
202.7394509942111
 42
0.0078922622
 10
555.5377535676699
 20
202.4399629942114
 42
0.0079915631
 10
555.4336285676701
 20
202.1325479942112
 42
0.0080133387
 10
555.3382255676698
 20
201.8172089942114
 42
0.0086540236
 10
555.2534615676695
 20
201.4949209942112
 42
0.009169561
 10
555.1802305676694
 20
201.167305994211
 42
0.0097726353
 10
555.1203355676699
 20
200.8356539942111
 42
0.010328216
 10
555.0744565676697
 20
200.5019589942114
 42
0.011047865
 10
555.0444665676697
 20
200.1681359942114
 42
0.011936027
 10
555.0311265676692
 20
199.836112994211
 42
0.013201409
 10
555.03629756767
 20
199.5082059942111
 42
0.013850292
 10
555.0589755676693
 20
199.1874219942116
 42
0.0140453
 10
555.1002775676699
 20
198.8768159942115
 42
0.016777983
 10
555.1641535676699
 20
198.5752119942113
 42
0.021991422
 10
555.2531635676697
 20
198.2844629942115
 42
0.018457968
 10
555.3492335676702
 20
198.0189749942116
 42
0.0071075848
 10
555.4469735676693
 20
197.786040994211
 42
0.028473032
 10
555.6125465676696
 20
197.536583994211
 42
0.05646351
 10
555.9170385676699
 20
197.2202839942112
 42
0.030581232
 10
556.3456845676693
 20
196.8465169942115
 42
0.016469147
  0
LINE
  5
1E0DC
330
1F
100
AcDbEntity
  8
3
  6
Continuous
100
AcDbLine
 10
564.4281015676697
 20
206.8448259942112
 30
0.0
 11
562.6956875676698
 21
207.8450359942114
 31
0.0
  0
LWPOLYLINE
  5
1E0DD
330
1F
100
AcDbEntity
  8
3
  6
Continuous
100
AcDbPolyline
 90
       49
 70
     0
 43
0.0
 10
542.1121345676692
 20
205.1797349942114
 10
541.9334485676699
 20
205.2949939942115
 42
-0.02771151
 10
541.7636645676695
 20
205.4318279942114
 42
-0.025734678
 10
541.6029015676696
 20
205.5910789942114
 42
-0.024550002
 10
541.4525245676697
 20
205.7722049942114
 42
-0.024798638
 10
541.3150845676701
 20
205.9764399942111
 42
-0.024018837
 10
541.1915415676695
 20
206.2025899942115
 42
-0.022886724
 10
541.0838665676692
 20
206.4510549942112
 42
-0.021484609
 10
540.9927165676699
 20
206.7200599942113
 42
-0.020307201
 10
540.9200345676699
 20
207.0093359942112
 42
-0.018917963
 10
540.86598356767
 20
207.316554994211
 42
-0.017695509
 10
540.8321185676697
 20
207.6406879942112
 42
-0.01643691
 10
540.8180415676699
 20
207.9790009942113
 42
-0.015361346
 10
540.8248275676696
 20
208.3297989942113
 42
-0.014323615
 10
540.8515015676695
 20
208.6901539942115
 42
-0.013422363
 10
540.8985665676701
 20
209.0578599942115
 42
-0.012604235
 10
540.9645365676698
 20
209.4300499942116
 42
-0.011873976
 10
541.0493455676697
 20
209.8042319942111
 42
-0.011249385
 10
541.1511285676698
 20
210.1778419942113
 42
-0.010666379
 10
541.2693185676698
 20
210.5483369942113
 42
-0.010199477
 10
541.4018415676702
 20
210.9136449942113
 42
-0.0097345649
 10
541.5477485676692
 20
211.2713859942111
 42
-0.0093966589
 10
541.7049525676693
 20
211.620105994211
 42
-0.0090340833
 10
541.8722745676697
 20
211.9577469942111
 42
-0.008786126
 10
542.0476925676695
 20
212.2834319942114
 42
-0.0084779649
 10
542.2299145676698
 20
212.5954819942113
 42
-0.0083384123
 10
542.4173945676693
 20
212.8938479942113
 42
-0.0081587343
 10
542.6089425676702
 20
213.1773549942114
 42
-0.007978937
 10
542.8023775676694
 20
213.4455139942112
 42
-0.0076406746
 10
542.9967915676699
 20
213.6978179942113
 42
-0.0078922684
 10
543.1967405676696
 20
213.9410399942113
 42
-0.0079915836
 10
543.4075345676692
 20
214.1810819942112
 42
-0.008013365
 10
543.6293755676699
 20
214.4175879942114
 42
-0.0086540507
 10
543.8623745676697
 20
214.6484459942113
 42
-0.0091695884
 10
544.1055915676698
 20
214.8720949942113
 42
-0.0097726636
 10
544.3588105676699
 20
215.0863639942114
 42
-0.010328244
 10
544.6206705676695
 20
215.2896889942113
 42
-0.011047893
 10
544.8904585676701
 20
215.4795359942115
 42
-0.011936055
 10
545.1669055676696
 20
215.6543039942113
 42
-0.013201435
 10
545.4489545676698
 20
215.8112679942111
 42
-0.013850316
 10
545.7335475676701
 20
215.9498029942112
 42
-0.014045319
 10
546.0186305676699
 20
216.0674549942111
 42
-0.016777999
 10
546.3071495676696
 20
216.1614349942112
 42
-0.021991432
 10
546.5987845676701
 20
216.2286479942114
 42
-0.018457965
 10
546.8723625676695
 20
216.2774129942114
 42
-0.007107581
 10
547.1190135676699
 20
216.3087329942115
 42
-0.028473007
 10
547.4131315676697
 20
216.2903649942115
 42
-0.056463397
 10
547.8325905676694
 20
216.1864779942113
 42
-0.030581144
 10
548.3621345676692
 20
216.0050459942114
 42
-0.016469095
  0
LWPOLYLINE
  5
1E0DE
330
1F
100
AcDbEntity
  8
3
  6
Continuous
100
AcDbPolyline
 90
       49
 70
     0
 43
0.0
 10
559.1041425676695
 20
196.2354119942111
 10
558.9254245676693
 20
196.3531389942114
 42
-0.029195631
 10
558.7597205676693
 20
196.4918019942112
 42
-0.028671408
 10
558.6073875676693
 20
196.6524179942113
 42
-0.027401349
 10
558.4691395676701
 20
196.8331099942112
 42
-0.026376121
 10
558.3470195676701
 20
197.0333629942112
 42
-0.024893024
 10
558.2410715676696
 20
197.2509299942113
 42
-0.023103427
 10
558.1524665676698
 20
197.4848879942116
 42
-0.021293727
 10
558.08076556767
 20
197.7327109942113
 42
-0.019594087
 10
558.0268075676696
 20
197.9929269942114
 42
-0.017998536
 10
557.9896665676698
 20
198.262971994211
 42
-0.016480758
 10
557.96967656767
 20
198.5410739942114
 42
-0.015163941
 10
557.9655445676698
 20
198.8248309942115
 42
-0.013925969
 10
557.9771865676693
 20
199.1123449942112
 42
-0.012902072
 10
558.0030745676696
 20
199.4015489942113
 42
-0.011916257
 10
558.0427895676693
 20
199.6905929942114
 42
-0.011127335
 10
558.0946895676698
 20
199.9778339942114
 42
-0.010333475
 10
558.1581235676695
 20
200.2615909942111
 42
-0.0097516096
 10
558.2315355676702
 20
200.5407419942113
 42
-0.0091681843
 10
558.3141655676699
 20
200.8138719942114
 42
-0.0086596422
 10
558.4043545676697
 20
201.0801359942112
 42
-0.0080137397
 10
558.5017375676699
 20
201.3395339942114
 42
-0.007990087
 10
558.6084765676696
 20
201.5987119942116
 42
-0.0078921968
 10
558.7277285676702
 20
201.8641189942115
 42
-0.0076410467
 10
558.8595105676696
 20
202.1348409942112
 42
-0.007978936
 10
559.0044045676695
 20
202.409001994211
 42
-0.0081586506
 10
559.1620405676695
 20
202.6851749942113
 42
-0.008338483
 10
559.3330615676697
 20
202.9621629942113
 42
-0.0084779653
 10
559.5167575676696
 20
203.2382419942111
 42
-0.008785838
 10
559.7133485676696
 20
203.5114839942113
 42
-0.0090341442
 10
559.9217835676701
 20
203.7800859942114
 42
-0.0093977383
 10
560.1418775676693
 20
204.0418169942114
 42
-0.0097342957
 10
560.3722285676695
 20
204.2949089942114
 42
-0.010195303
 10
560.6121665676702
 20
204.5368699942116
 42
-0.010667361
 10
560.8600215676698
 20
204.7661399942114
 42
-0.011265512
 10
561.1146645676699
 20
204.9801699942114
 42
-0.01187016
 10
561.3741635676698
 20
205.177839994211
 42
-0.012541291
 10
561.6369665676693
 20
205.3567629942114
 42
-0.013437169
 10
561.9014125676695
 20
205.5162469942112
 42
-0.014568539
 10
562.1657845676701
 20
205.6542229942112
 42
-0.015302345
 10
562.4273595676696
 20
205.7711879942114
 42
-0.015494868
 10
562.6838985676696
 20
205.8657779942111
 42
-0.017937285
 10
562.9377125676702
 20
205.937062994211
 42
-0.022356352
 10
563.1882565676697
 20
205.9835639942113
 42
-0.019339907
 10
563.41956156767
 20
206.0132249942113
 42
-0.0091841764
 10
563.6248475676693
 20
206.0280289942113
 42
-0.027535304
 10
563.8623905676696
 20
206.0036989942115
 42
-0.051452915
 10
564.1927235676695
 20
205.9128789942112
 42
-0.02872296
 10
564.6041435676699
 20
205.7616969942115
 42
-0.016224522
  0
LWPOLYLINE
  5
1E0DF
330
1F
100
AcDbEntity
  8
3
  6
Continuous
100
AcDbPolyline
 90
       18
 70
     0
 43
0.0
 10
555.0759695676698
 20
200.8294489942115
 10
555.092057887604
 20
201.2262137836507
 10
555.1399462510289
 20
201.6382008023849
 10
555.2190607633775
 20
202.0614420260382
 10
555.3288275300821
 20
202.4919694302349
 10
555.4684940799835
 20
202.9258308396676
 10
555.6365936655083
 20
203.3591375652219
 10
555.8314809645645
 20
203.7880167670798
 10
556.0515106550575
 20
204.2085956054231
 10
556.3155943334224
 20
204.6495651542169
 10
556.6039576661077
 20
205.0718686051438
 10
556.9134152460073
 20
205.4710687742637
 10
557.240781666016
 20
205.8427284776386
 10
557.5781108691026
 20
206.1783223172216
 10
557.9261111205197
 20
206.4798842830384
 10
558.2811213931957
 20
206.7445101660752
 10
558.6394806600575
 20
206.9692957573194
 10
558.8360315214113
 20
207.0746129709233
  0
LWPOLYLINE
  5
1E0E0
330
1F
100
AcDbEntity
  8
3
  6
Continuous
100
AcDbPolyline
 90
        3
 70
     0
 43
0.0
 10
555.0831905676695
 20
200.5752959942112
 10
555.0777770684182
 20
200.7013277179114
 10
555.0759695676671
 20
200.8294489407741
  0
LWPOLYLINE
  5
1E0E1
330
1F
100
AcDbEntity
  8
3
  6
Continuous
100
AcDbPolyline
 90
       69
 70
     0
 43
0.0
 10
561.3736675676701
 20
208.1382639942114
 10
561.2582325676696
 20
208.3169769942111
 42
0.021444111
 10
561.12977956767
 20
208.4829269942112
 42
0.021743259
 10
560.9877335676693
 20
208.6357829942114
 42
0.022350827
 10
560.8328745676699
 20
208.7747119942111
 42
0.023778453
 10
560.6650215676701
 20
208.8974989942113
 42
0.024631454
 10
560.4852085676695
 20
209.0037819942114
 42
0.024971458
 10
560.2935595676699
 20
209.0919849942112
 42
0.024915545
 10
560.0913375676701
 20
209.1620819942114
 42
0.024656826
 10
559.8790075676698
 20
209.2126349942115
 42
0.023957614
 10
559.6579995676693
 20
209.2440509942113
 42
0.023030199
 10
559.42908256767
 20
209.2552779942113
 42
0.021851238
 10
559.19376756767
 20
209.2471459942113
 42
0.020598555
 10
558.9530715676693
 20
209.2190029942113
 42
0.019264708
 10
558.7084915676696
 20
209.1720649942114
 42
0.01794682
 10
558.4612105676698
 20
209.1061069942112
 42
0.01667644
 10
558.2126155676697
 20
209.0226529942112
 42
0.015462803
 10
557.9639685676693
 20
208.9218719942115
 42
0.01436385
 10
557.7164625676696
 20
208.8054919942111
 42
0.013320486
 10
557.4713495676697
 20
208.674016994211
 42
0.012415656
 10
557.2295785676698
 20
208.5292689942113
 42
0.011545729
 10
556.9923185676699
 20
208.3720039942114
 42
0.010824651
 10
556.76022756767
 20
208.204006994211
 42
0.010119144
 10
556.5343355676697
 20
208.0261879942114
 42
0.0095371489
 10
556.3150745676693
 20
207.8402939942113
 42
0.0089390093
 10
556.1033295676699
 20
207.6473409942115
 42
0.0085129412
 10
555.8990475676702
 20
207.4485929942113
 42
0.008081372
 10
555.7028585676698
 20
207.2449699942114
 42
0.007651024
 10
555.5153815676695
 20
207.0386949942114
 42
0.0071587227
 10
555.33732356767
 20
206.8309639942114
 42
0.0070671607
 10
555.1652405676697
 20
206.6186629942114
 42
0.0068112207
 10
554.9959345676699
 20
206.3976919942112
 42
0.0066440429
 10
554.8283055676693
 20
206.1664299942114
 42
0.0068261753
 10
554.6621825676693
 20
205.9231699942112
 42
0.006850107
 10
554.4984245676698
 20
205.6687389942114
 42
0.007012381
 10
554.3383035676698
 20
205.4033529942113
 42
0.0071195759
 10
554.1826035676696
 20
205.1279199942115
 42
0.0072935068
 10
554.0324555676699
 20
204.8425329942112
 42
0.007420291
 10
553.8886595676696
 20
204.5483679942114
 42
0.0076479001
 10
553.7525645676696
 20
204.2459759942113
 42
0.0078346531
 10
553.6248945676699
 20
203.9367369942112
 42
0.0081068982
 10
553.5070615676695
 20
203.6215439942113
 42
0.008355105
 10
553.3996535676698
 20
203.3019509942111
 42
0.0086902812
 10
553.3040895676696
 20
202.9792189942114
 42
0.0090183717
 10
553.2207515676701
 20
202.6549989942111
 42
0.0094274401
 10
553.1509755676697
 20
202.3308659942114
 42
0.0098518896
 10
553.0948715676696
 20
202.0084669942113
 42
0.010350736
 10
553.0536055676694
 20
201.6896139942115
 42
0.010891155
 10
553.0269715676696
 20
201.3758379942116
 42
0.011494138
 10
553.0158875676699
 20
201.0690739942112
 42
0.012169469
 10
553.0198175676696
 20
200.7706209942113
 42
0.012889216
 10
553.0393745676692
 20
200.4824149942111
 42
0.013708623
 10
553.0737035676692
 20
200.2054199942114
 42
0.014536045
 10
553.1230875676692
 20
199.9414509942113
 42
0.015500452
 10
553.1864255676691
 20
199.6910699942115
 42
0.016435338
 10
553.2636855676693
 20
199.4558629942113
 42
0.017460238
 10
553.3535005676696
 20
199.2359659942114
 42
0.018306661
 10
553.4555265676699
 20
199.0326689942113
 42
0.019440216
 10
553.5685985676702
 20
198.8456639942111
 42
0.020526419
 10
553.6922525676701
 20
198.6758989942114
 42
0.020980921
 10
553.8241115676693
 20
198.5227919942114
 42
0.020396756
 10
553.9631475676698
 20
198.3869899942115
 42
0.022353957
 10
554.1117665676694
 20
198.2672329942112
 42
0.025818984
 10
554.2704825676691
 20
198.1637299942114
 42
0.020772865
 10
554.4232065676697
 20
198.0765229942113
 42
0.009504403
 10
554.5640145676697
 20
198.0060809942111
 42
0.026312016
 10
554.7504685676694
 20
197.9463779942113
 42
0.042319374
 10
555.0434485676698
 20
197.8924519942112
 42
0.02087889
 10
555.4307345676699
 20
197.8448029942116
 42
0.011339955
  0
LINE
  5
1E0E2
330
1F
100
AcDbEntity
  8
3
  6
Continuous
100
AcDbLine
 10
560.5597235676697
 20
208.9627649942114
 30
0.0
 11
548.3621315676693
 21
216.005048994211
 31
0.0
  0
LINE
  5
1E0E3
330
1F
100
AcDbEntity
  8
3
  6
Continuous
100
AcDbLine
 10
542.1121315676693
 20
205.1797309942113
 30
0.0
 11
554.3097215676699
 21
198.1374489942114
 31
0.0
  0
LWPOLYLINE
  5
1E0E4
330
1F
100
AcDbEntity
  8
3
  6
Continuous
100
AcDbPolyline
 90
       11
 70
     0
 43
0.0
 10
555.1061255676695
 20
198.8498289942113
 10
554.901132426574
 20
199.0851409837297
 10
554.7275904389063
 20
199.35940491036
 10
554.6448140891826
 20
199.5295545597579
 10
554.5725576735787
 20
199.7110871508417
 10
554.5109805451512
 20
199.9032747276261
 10
554.4602420569581
 20
200.1053893341287
 10
554.4205015620565
 20
200.3167030143646
 10
554.391918413503
 20
200.5364878123515
 10
554.3746519643547
 20
200.7640157721049
 10
554.3688615676693
 20
200.9985589376407
  0
LWPOLYLINE
  5
1E0E5
330
1F
100
AcDbEntity
  8
3
  6
Continuous
100
AcDbPolyline
 90
       23
 70
     0
 43
0.0
 10
554.3688615676693
 20
200.9985589942113
 10
554.385893548155
 20
201.4185612893308
 10
554.4365876603689
 20
201.8546794723958
 10
554.5203366604511
 20
202.3027124899664
 10
554.6365333045407
 20
202.7584592886029
 10
554.7843812621786
 20
203.2177356784961
 10
554.9623278882283
 20
203.6764250195507
 10
555.1686314531507
 20
204.1304275355439
 10
555.4015502274061
 20
204.5756434502538
 10
555.6811036053859
 20
205.0424444689649
 10
555.9863589044225
 20
205.4894858828435
 10
556.3139441368058
 20
205.9120706101559
 10
556.6604873148245
 20
206.305501569169
 10
557.0175769168772
 20
206.6607539775456
 10
557.3859626661898
 20
206.9799809728408
 10
557.7617690361213
 20
207.2601082162965
 10
558.1411205000278
 20
207.4980613691547
 10
558.5059550155692
 20
207.6846394457676
 10
558.8670506381887
 20
207.8281240830335
 10
559.2209745416639
 20
207.9273336707571
 10
559.5642938997716
 20
207.9810865987448
 10
559.9664102386478
 20
207.9837349494134
 10
560.3419875282571
 20
207.9172340052192
  0
LWPOLYLINE
  5
1E0E6
330
1F
100
AcDbEntity
  8
3
  6
Continuous
100
AcDbPolyline
 90
       29
 70
     0
 43
0.0
 10
554.3688615676693
 20
200.9985589942113
 10
554.3944455676693
 20
200.9983679942112
 42
-0.0037458884
 10
554.4201115676696
 20
200.9977999942113
 42
-0.0037015642
 10
554.4458675676698
 20
200.9968389942111
 42
-0.0036929562
 10
554.4716825676696
 20
200.9954979942114
 42
-0.0037415408
 10
554.4975245676696
 20
200.9937549942111
 42
-0.0037741864
 10
554.52336756767
 20
200.9916239942114
 42
-0.0038011342
 10
554.5491845676698
 20
200.9890889942113
 42
-0.0038290989
 10
554.5749505676695
 20
200.9861629942112
 42
-0.0038676132
 10
554.6006355676701
 20
200.9828309942114
 42
-0.0039046277
 10
554.6262155676696
 20
200.9791089942115
 42
-0.0039463824
 10
554.6516585676701
 20
200.9749839942111
 42
-0.0039879271
 10
554.6769425676695
 20
200.970472994211
 42
-0.004032718
 10
554.7020315676701
 20
200.9655649942112
 42
-0.0040844774
 10
554.7269105676697
 20
200.9602779942112
 42
-0.0041431617
 10
554.7515435676697
 20
200.9546019942114
 42
-0.0041896566
 10
554.7759075676696
 20
200.9485599942114
 42
-0.0042224674
 10
554.7999645676701
 20
200.9421469942114
 42
-0.0043198178
 10
554.8237265676699
 20
200.9353689942114
 42
-0.004467328
 10
554.8471665676697
 20
200.9282149942115
 42
-0.0044197234
 10
554.8701725676702
 20
200.9207659942114
 42
-0.004203781
 10
554.8926685676698
 20
200.9130349942112
 42
-0.0046909344
 10
554.9150605676697
 20
200.9048229942115
 42
-0.005657945
 10
554.9374485676699
 20
200.8960519942112
 42
-0.0044387959
 10
554.9582245676694
 20
200.887624994211
 42
-0.0016572614
 10
554.9767955676697
 20
200.8798479942112
 42
-0.0062956946
 10
554.9995145676695
 20
200.8692629942112
 42
-0.011232207
 10
555.03300656767
 20
200.8522179942112
 42
-0.0057860201
 10
555.0759695676698
 20
200.8294489942115
 42
-0.0031542589
  0
LINE
  5
1E0E7
330
1F
100
AcDbEntity
  8
3
  6
Continuous
100
AcDbLine
 10
569.3056593933699
 20
190.3457028870116
 30
0.0
 11
559.1042368863701
 21
196.2353636756116
 31
0.0
  0
LINE
  5
1E0E8
330
1F
100
AcDbEntity
  8
3
  6
Continuous
100
AcDbLine
 10
569.30418250087
 20
191.8476565375114
 30
0.0
 11
569.3042143170697
 21
191.8476381694114
 31
0.0
  0
LINE
  5
1E0E9
330
1F
100
AcDbEntity
  8
3
  6
Continuous
100
AcDbLine
 10
569.3056649497699
 20
190.3456996791116
 30
0.0
 11
569.3051068016698
 21
190.3460220470116
 31
0.0
  0
LINE
  5
1E0EA
330
1F
100
AcDbEntity
  8
3
  6
Continuous
100
AcDbLine
 10
574.80556607467
 20
199.8720362056116
 30
0.0
 11
564.6041435676699
 21
205.7616969942115
 31
0.0
  0
LINE
  5
1E0EB
330
1F
100
AcDbEntity
  8
3
  6
Continuous
100
AcDbLine
 10
568.8736578813701
 20
192.8634816368118
 30
0.0
 11
568.87365788117
 21
192.8635278685115
 31
0.0
  0
SPLINE
  5
1E0EC
330
1F
100
AcDbEntity
  8
3
  6
Continuous
100
AcDbSpline
210
0.0
220
0.0
230
1.0
 70
     8
 71
     3
 72
     8
 73
     4
 74
     2
 42
0.0000000001
 43
0.0000000001
 44
0.0000000001
 12
0.8807298687538194
 22
0.4736189378444239
 32
0.0
 13
0.9049878491063804
 23
0.4254374136930215
 33
0.0
 40
0.0
 40
0.0
 40
0.0
 40
0.0
 40
0.1807763451209465
 40
0.1807763451209465
 40
0.1807763451209465
 40
0.1807763451209465
 10
572.2531293305697
 20
198.8952104181118
 30
0.0
 10
572.3062010394738
 20
198.9237501182996
 30
0.0
 10
572.360013541923
 20
198.9509646217699
 30
0.0
 10
572.4145470071698
 20
198.9766009620117
 30
0.0
 11
572.2531293305697
 21
198.8952104181118
 31
0.0
 11
572.4145470071698
 21
198.9766009620117
 31
0.0
  0
SPLINE
  5
1E0ED
330
1F
100
AcDbEntity
  8
3
  6
Continuous
100
AcDbSpline
210
0.0
220
0.0
230
1.0
 70
     8
 71
     3
 72
    12
 73
     8
 74
     6
 42
0.0000000001
 43
0.0000000001
 44
0.0000000001
 12
0.9049878491860424
 22
0.4254374135235652
 32
0.0
 13
0.9324451896393652
 23
-0.3613114561128782
 33
0.0
 40
0.0
 40
0.0
 40
0.0
 40
0.0
 40
0.1435043604866277
 40
0.5005990248949852
 40
0.7810446352332861
 40
0.9878809130727336
 40
1.069502396447428
 40
1.069502396447428
 40
1.069502396447428
 40
1.069502396447428
 10
572.4145470071698
 20
198.9766009620117
 30
0.0
 10
572.4578369080184
 20
198.9969516699966
 30
0.0
 10
572.6104338081115
 20
199.0644862873607
 30
0.0
 10
572.8579542161313
 20
199.1489248607598
 30
0.0
 10
573.1369917218805
 20
199.1945399672082
 30
0.0
 10
573.3287573492697
 20
199.1861694654275
 30
0.0
 10
573.421579966155
 20
199.1593317810144
 30
0.0
 10
573.4469491526697
 20
199.1495015220117
 30
0.0
 11
572.4145470071698
 21
198.9766009620117
 31
0.0
 11
572.5458223523697
 21
199.0345689292118
 31
0.0
 11
572.8849564642697
 21
199.1463931372114
 31
0.0
 11
573.1623845697701
 21
199.1874222322113
 31
0.0
 11
573.3686969953697
 21
199.1727107104117
 31
0.0
 11
573.4469491526697
 21
199.1495015220117
 31
0.0
  0
SPLINE
  5
1E0EE
330
1F
100
AcDbEntity
  8
3
  6
Continuous
100
AcDbSpline
210
0.0
220
0.0
230
1.0
 70
     8
 71
     3
 72
     8
 73
     4
 74
     2
 42
0.0000000001
 43
0.0000000001
 44
0.0000000001
 12
0.9324451896056206
 22
-0.3613114561999638
 32
0.0
 13
0.8660303019834023
 23
-0.4999915159745584
 33
0.0
 40
0.0
 40
0.0
 40
0.0
 40
0.0
 40
0.0632994845431207
 40
0.0632994845431207
 40
0.0632994845431207
 40
0.0632994845431207
 10
573.4469491526697
 20
199.1495015220117
 30
0.0
 10
573.4666235859586
 20
199.141877912366
 30
0.0
 10
573.4858381487984
 20
199.1328608067906
 30
0.0
 10
573.5041112393697
 20
199.1223110717116
 30
0.0
 11
573.4469491526697
 21
199.1495015220117
 31
0.0
 11
573.5041112393697
 21
199.1223110717116
 31
0.0
  0
SPLINE
  5
1E0EF
330
1F
100
AcDbEntity
  8
3
  6
Continuous
100
AcDbSpline
210
0.0
220
0.0
230
1.0
 70
     8
 71
     3
 72
     8
 73
     4
 74
     2
 42
0.0000000001
 43
0.0000000001
 44
0.0000000001
 12
-0.8660303014008448
 22
0.4999915169836004
 32
0.0
 13
-0.7784826621794855
 23
0.627666109237978
 33
0.0
 40
0.0
 40
0.0
 40
0.0
 40
0.0
 40
0.0637727431216802
 40
0.0637727431216802
 40
0.0637727431216802
 40
0.0637727431216802
 10
569.30418250087
 20
191.8476565375114
 30
0.0
 10
569.2857727915544
 20
191.8582851477032
 30
0.0
 10
569.2682324445498
 20
191.8705195055279
 30
0.0
 10
569.2516837862699
 20
191.8838621687115
 30
0.0
 11
569.30418250087
 21
191.8476565375114
 31
0.0
 11
569.2516837862699
 21
191.8838621687115
 31
0.0
  0
SPLINE
  5
1E0F0
330
1F
100
AcDbEntity
  8
3
  6
Continuous
100
AcDbSpline
210
0.0
220
0.0
230
1.0
 70
     8
 71
     3
 72
    12
 73
     8
 74
     6
 42
0.0000000001
 43
0.0000000001
 44
0.0000000001
 12
-0.7784826620475092
 22
0.627666109401666
 32
0.0
 13
-0.0840756629916776
 23
0.9964593734279938
 33
0.0
 40
0.0
 40
0.0
 40
0.0
 40
0.0
 40
0.0814669366224676
 40
0.2889638236597818
 40
0.5699048117224091
 40
0.926514805661556
 40
1.069019604405657
 40
1.069019604405657
 40
1.069019604405657
 40
1.069019604405657
 10
569.2516837862699
 20
191.8838621687115
 30
0.0
 10
569.2305435870397
 20
191.9009068470964
 30
0.0
 10
569.1608184985301
 20
191.968040360227
 30
0.0
 10
569.0576322340088
 20
192.1303050080812
 30
0.0
 10
568.957748935098
 20
192.3950508428404
 30
0.0
 10
568.9072996389169
 20
192.651322190721
 30
0.0
 10
568.8895637792477
 20
192.8167523552557
 30
0.0
 10
568.8855700507697
 20
192.8640857694114
 30
0.0
 11
569.2516837862699
 21
191.8838621687115
 31
0.0
 11
569.1926121632701
 21
191.9399639077115
 31
0.0
 11
569.0764709668696
 21
192.1119120994113
 31
0.0
 11
568.9733191328697
 21
192.3732309428116
 31
0.0
 11
568.9008770896698
 21
192.7224054524114
 31
0.0
 11
568.8855700507697
 21
192.8640857694114
 31
0.0
  0
SPLINE
  5
1E0F1
330
1F
100
AcDbEntity
  8
3
  6
Continuous
100
AcDbSpline
210
0.0
220
0.0
230
1.0
 70
     8
 71
     3
 72
     8
 73
     4
 74
     2
 42
0.0000000001
 43
0.0000000001
 44
0.0000000001
 12
-0.0840756630599208
 22
0.9964593734222358
 32
0.0
 13
-0.0441763683968086
 23
0.9990237477033614
 33
0.0
 40
0.0
 40
0.0
 40
0.0
 40
0.0
 40
0.1316095019951386
 40
0.1316095019951386
 40
0.1316095019951386
 40
0.1316095019951386
 10
568.8855700507697
 20
192.8640857694114
 30
0.0
 10
568.8818816653879
 20
192.9078002767095
 30
0.0
 10
568.8791087208183
 20
192.9515999683395
 30
0.0
 10
568.87717071087
 20
192.9954269743116
 30
0.0
 11
568.8855700507697
 21
192.8640857694114
 31
0.0
 11
568.87717071087
 21
192.9954269743116
 31
0.0
  0
SPLINE
  5
1E0F2
330
1F
100
AcDbEntity
  8
3
  6
Continuous
100
AcDbSpline
210
0.0
220
0.0
230
1.0
 70
     8
 71
     3
 72
    12
 73
     8
 74
     6
 42
0.0000000001
 43
0.0000000001
 44
0.0000000001
 12
0.8657258785286277
 22
-0.5005184344715345
 32
0.0
 13
-0.0000000000317731
 23
-1.0
 33
0.0
 40
0.0
 40
0.0
 40
0.0
 40
0.0
 40
0.3742042415955675
 40
0.9813689401618759
 40
1.638031377788505
 40
2.357931955481515
 40
3.148001316800804
 40
3.148001316800804
 40
3.148001316800804
 40
3.148001316800804
 10
574.8060788946701
 20
199.8716482541114
 30
0.0
 10
574.9140649932716
 20
199.8092162137194
 30
0.0
 10
575.1836945954091
 20
199.6209158267601
 30
0.0
 10
575.5550774142822
 20
199.2116094498389
 30
0.0
 10
575.8651506522297
 20
198.6205249411226
 30
0.0
 10
576.0532251369725
 20
197.918193993497
 30
0.0
 10
576.0911319200784
 20
197.4134467692847
 30
0.0
 10
576.0911319200699
 20
197.1500903155116
 30
0.0
 11
574.8060788946701
 21
199.8716482541114
 31
0.0
 11
575.1128367487702
 21
199.6573390537115
 31
0.0
 11
575.52331499907
 21
199.2099504338117
 31
0.0
 11
575.8334942085698
 21
198.6311634134114
 31
0.0
 11
576.0259570363697
 21
197.9374668647116
 31
0.0
 11
576.0911319200699
 21
197.1500903155116
 31
0.0
  0
SPLINE
  5
1E0F3
330
1F
100
AcDbEntity
  8
3
  6
Continuous
100
AcDbSpline
210
0.0
220
0.0
230
1.0
 70
     8
 71
     3
 72
    21
 73
    17
 74
    15
 42
0.0000000001
 43
0.0000000001
 44
0.0000000001
 12
-0.0000000000272297
 22
-1.0
 32
0.0
 13
-0.8657258785333905
 23
0.5005184344632966
 33
0.0
 40
0.0
 40
0.0
 40
0.0
 40
0.0
 40
0.8444863524611161
 40
1.737434255362304
 40
2.667624274480755
 40
3.617959064547695
 40
4.571978065247812
 40
5.514779167698877
 40
6.429973431938289
 40
7.305881250721247
 40
8.127710346204128
 40
8.886615560511218
 40
9.580200567652072
 40
10.21034597605409
 40
10.80582097552023
 40
11.0179405459086
 40
11.0179405459086
 40
11.0179405459086
 40
11.0179405459086
 10
576.0911319200699
 20
197.1500903155116
 30
0.0
 10
576.0911319200623
 20
196.8685948646912
 30
0.0
 10
576.0444987917828
 20
196.2889133164793
 30
0.0
 10
575.8565323827947
 20
195.4176818352882
 30
0.0
 10
575.5569010847664
 20
194.5410040600693
 30
0.0
 10
575.1561103220117
 20
193.6834609053112
 30
0.0
 10
574.6664764984708
 20
192.8684829916855
 30
0.0
 10
574.101529437252
 20
192.1183032862582
 30
0.0
 10
573.4754383748374
 20
191.4533916368912
 30
0.0
 10
572.8044947624739
 20
190.8942715012487
 30
0.0
 10
572.1066316590071
 20
190.4600464435333
 30
0.0
 10
571.4028504098183
 20
190.1676928067465
 30
0.0
 10
570.7170951700141
 20
190.0296428513133
 30
0.0
 10
570.0715348996458
 20
190.0491870489171
 30
0.0
 10
569.6059911316337
 20
190.1872450056605
 30
0.0
 10
569.3663590405125
 20
190.3107009200816
 30
0.0
 10
569.3051465733697
 20
190.3460908385115
 30
0.0
 11
576.0911319200699
 21
197.1500903155116
 31
0.0
 11
576.0278942268697
 21
196.3079750065118
 31
0.0
 11
575.8427240273699
 21
195.4344373974114
 31
0.0
 11
575.5437278485697
 21
194.5536112189117
 31
0.0
 11
575.14212975697
 21
193.6923010622114
 31
0.0
 11
574.6506649910696
 21
192.8746124677114
 31
0.0
 11
574.0825374269697
 21
192.1222129796116
 31
0.0
 11
573.4534560373702
 21
191.4575046627115
 31
0.0
 11
572.7782743437698
 21
190.8995224160118
 31
0.0
 11
572.0779147133701
 21
190.4695230552116
 31
0.0
 11
571.3747759990696
 21
190.1839830882114
 31
0.0
 11
570.6936275615698
 21
190.0532277127114
 31
0.0
 11
570.06394407857
 21
190.0773512897113
 31
0.0
 11
569.49374936487
 21
190.2490150991116
 31
0.0
 11
569.3051465733697
 21
190.3460908385115
 31
0.0
  0
SPLINE
  5
1E0F4
330
1F
100
AcDbEntity
  8
3
  6
Continuous
100
AcDbSpline
210
0.0
220
0.0
230
1.0
 70
     8
 71
     3
 72
     8
 73
     4
 74
     2
 42
0.0000000001
 43
0.0000000001
 44
0.0000000001
 12
0.8474504774707442
 22
-0.5308744561896038
 32
0.0
 13
0.8234815539796835
 23
-0.5673430445993022
 33
0.0
 40
0.0
 40
0.0
 40
0.0
 40
0.0
 40
0.0602820279445201
 40
0.0602820279445201
 40
0.0602820279445201
 40
0.0602820279445201
 10
573.4928600517697
 20
199.1276511940115
 30
0.0
 10
573.5098887295579
 20
199.1169837977438
 30
0.0
 10
573.5266902748539
 20
199.1059446894346
 30
0.0
 10
573.5432373208701
 20
199.0945444930117
 30
0.0
 11
573.4928600517697
 21
199.1276511940115
 31
0.0
 11
573.5432373208701
 21
199.0945444930117
 31
0.0
  0
SPLINE
  5
1E0F5
330
1F
100
AcDbEntity
  8
3
  6
Continuous
100
AcDbSpline
210
0.0
220
0.0
230
1.0
 70
     8
 71
     3
 72
    11
 73
     7
 74
     5
 42
0.0000000001
 43
0.0000000001
 44
0.0000000001
 12
0.823481554165537
 22
-0.5673430443295412
 32
0.0
 13
0.0
 23
-1.0
 33
0.0
 40
0.0
 40
0.0
 40
0.0
 40
0.0
 40
0.4559416816696492
 40
0.9465380585168048
 40
1.489738862572587
 40
2.092801969277144
 40
2.092801969277144
 40
2.092801969277144
 40
2.092801969277144
 10
573.5432373208701
 20
199.0945444930117
 30
0.0
 10
573.6683905090802
 20
199.0083193791066
 30
0.0
 10
573.8996145453183
 20
198.7848727829083
 30
0.0
 10
574.1438696607972
 20
198.346093336047
 30
0.0
 10
574.289539317765
 20
197.8159820231365
 30
0.0
 10
574.3183380645697
 20
197.4327561702798
 30
0.0
 10
574.3183380645697
 20
197.2317351347116
 30
0.0
 11
573.5432373208701
 21
199.0945444930117
 31
0.0
 11
573.8735075045698
 21
198.7802127847118
 31
0.0
 11
574.1177916525698
 21
198.3547600141115
 31
0.0
 11
574.2677709609697
 21
197.8326744650118
 31
0.0
 11
574.3183380645697
 21
197.2317351347116
 31
0.0
  0
SPLINE
  5
1E0F6
330
1F
100
AcDbEntity
  8
3
  6
Continuous
100
AcDbSpline
210
0.0
220
0.0
230
1.0
 70
     8
 71
     3
 72
    20
 73
    16
 74
    14
 42
0.0000000001
 43
0.0000000001
 44
0.0000000001
 12
0.0
 22
-1.0
 32
0.0
 13
-0.8881203407091701
 23
0.4596109881395652
 33
0.0
 40
0.0
 40
0.0
 40
0.0
 40
0.0
 40
0.6612651175631661
 40
1.372523292595634
 40
2.121033787582921
 40
2.891141945749419
 40
3.665644624623612
 40
4.427034603900777
 40
5.158722690619186
 40
5.846328688099571
 40
6.47915422933708
 40
7.05198493368093
 40
7.567321281374915
 40
8.037669359288948
 40
8.311781460913374
 40
8.311781460913374
 40
8.311781460913374
 40
8.311781460913374
 10
574.3183380645697
 20
197.2317351347116
 30
0.0
 10
574.3183380645697
 20
197.0113134288572
 30
0.0
 10
574.2804542483503
 20
196.5534038918562
 30
0.0
 10
574.1282837121729
 20
195.861240043223
 30
0.0
 10
573.8835971575524
 20
195.1576468018138
 30
0.0
 10
573.5545274713422
 20
194.4661264603091
 30
0.0
 10
573.1520150417761
 20
193.8095811770593
 30
0.0
 10
572.6894503815574
 20
193.2098765774224
 30
0.0
 10
572.1821588990701
 20
192.6869033334598
 30
0.0
 10
571.6467385594035
 20
192.2579202793896
 30
0.0
 10
571.1003042239635
 20
191.9370438164758
 30
0.0
 10
570.5595060892781
 20
191.735243342077
 30
0.0
 10
570.0404514726077
 20
191.6609275060272
 30
0.0
 10
569.6174405741426
 20
191.7142931604914
 30
0.0
 10
569.3855725660654
 20
191.8073633862488
 30
0.0
 10
569.3044243883697
 20
191.8493583642117
 30
0.0
 11
574.3183380645697
 21
197.2317351347116
 31
0.0
 11
574.2677709609697
 21
196.5724062913115
 31
0.0
 11
574.1177916525698
 21
195.8771405877115
 31
0.0
 11
573.8735075045698
 21
195.1696144637118
 31
0.0
 11
573.5432373208701
 21
194.4739218728115
 31
0.0
 11
573.1382280562699
 21
193.8137537918115
 31
0.0
 11
572.6722718156699
 21
193.2115914529114
 31
0.0
 11
572.1612361798698
 21
192.6879407724115
 31
0.0
 11
571.62252385457
 21
192.2606340461117
 31
0.0
 11
571.0744800418697
 21
191.9442226920115
 31
0.0
 11
570.5357677165699
 21
191.7494817194116
 31
0.0
 11
570.0247320807699
 21
191.6830427986116
 31
0.0
 11
569.5587758401699
 21
191.7471684272115
 31
0.0
 11
569.3044243883697
 21
191.8493583642117
 31
0.0
  0
SPLINE
  5
1E0F7
330
1F
100
AcDbEntity
  8
3
  6
Continuous
100
AcDbSpline
210
0.0
220
0.0
230
1.0
 70
     8
 71
     3
 72
     8
 73
     4
 74
     2
 42
0.0000000001
 43
0.0000000001
 44
0.0000000001
 12
-0.8881203407718047
 22
0.4596109880185347
 32
0.0
 13
-0.8794671730673616
 23
0.4759595481728499
 33
0.0
 40
0.0
 40
0.0
 40
0.0
 40
0.0
 40
0.0262430522626974
 40
0.0262430522626974
 40
0.0262430522626974
 40
0.0262430522626974
 10
569.3044243883697
 20
191.8493583642117
 30
0.0
 10
569.2966553921969
 20
191.853378895938
 30
0.0
 10
569.2889231690651
 20
191.8574713028458
 30
0.0
 10
569.2812298680697
 20
191.8616348466116
 30
0.0
 11
569.3044243883697
 21
191.8493583642117
 31
0.0
 11
569.2812298680697
 21
191.8616348466116
 31
0.0
  0
SPLINE
  5
1E0F8
330
1F
100
AcDbEntity
  8
3
  6
Continuous
100
AcDbSpline
210
0.0
220
0.0
230
1.0
 70
     8
 71
     3
 72
    16
 73
    12
 74
    10
 42
0.0000000001
 43
0.0000000001
 44
0.0000000001
 12
-0.0000000165550115
 22
1.0
 32
0.0
 13
0.8660239817201873
 23
0.5000024630794461
 33
0.0
 40
0.0
 40
0.0
 40
0.0
 40
0.0
 40
0.7870966846096005
 40
1.633783506418808
 40
2.524870723597867
 40
3.441691800486585
 40
4.363743370805194
 40
5.270182456765413
 40
6.141268763924681
 40
6.95988167562531
 40
7.345527299893828
 40
7.345527299893828
 40
7.345527299893828
 40
7.345527299893828
 10
568.87365788117
 20
192.8635277102118
 30
0.0
 10
568.8736578768265
 20
193.1258932717483
 30
0.0
 10
568.9187449154814
 20
193.6709659621522
 30
0.0
 10
569.0998699077376
 20
194.4949194055122
 30
0.0
 10
569.3911426052824
 20
195.3325301936917
 30
0.0
 10
569.7828867843834
 20
196.1557930342897
 30
0.0
 10
570.2620637370813
 20
196.9374183958271
 30
0.0
 10
570.8127642319466
 20
197.651393384557
 30
0.0
 10
571.4166215490145
 20
198.2739577691264
 30
0.0
 10
571.9583152742282
 20
198.7079420115774
 30
0.0
 10
572.2977680183828
 20
198.9229825183746
 30
0.0
 10
572.4090941380701
 20
198.9872571057113
 30
0.0
 11
568.87365788117
 21
192.8635277102118
 31
0.0
 11
568.9338379184697
 21
193.6483203924114
 31
0.0
 11
569.1123557018701
 21
194.4759736865118
 31
0.0
 11
569.4031526631697
 21
195.3182762188117
 31
0.0
 11
569.79632736117
 21
196.1465120209114
 31
0.0
 11
570.2784825764697
 21
196.9324544149113
 31
0.0
 11
570.8331973728701
 21
197.6493388625114
 31
0.0
 11
571.4415873122699
 21
198.2727592954116
 31
0.0
 11
572.0829353179697
 21
198.7814830267117
 31
0.0
 11
572.4090941380701
 21
198.9872571057113
 31
0.0
  0
SPLINE
  5
1E0F9
330
1F
100
AcDbEntity
  8
3
  6
Continuous
100
AcDbSpline
210
0.0
220
0.0
230
1.0
 70
     8
 71
     3
 72
    20
 73
    16
 74
    14
 42
0.0000000001
 43
0.0000000001
 44
0.0000000001
 12
0.8665066893425613
 22
-0.4991654608690327
 32
0.0
 13
-0.0000000000597067
 23
1.0
 33
0.0
 40
0.0
 40
0.0
 40
0.0
 40
0.0
 40
0.3126714872073023
 40
0.784023248363575
 40
1.299227671907672
 40
1.872535734021735
 40
2.5058883272591
 40
3.19535839796419
 40
3.929380643127782
 40
4.694486364185332
 40
5.473234062322712
 40
6.248254014319367
 40
7.002385466702507
 40
7.715090448777387
 40
8.374996808902524
 40
8.374996808902524
 40
8.374996808902524
 40
8.374996808902524
 10
569.3042777602701
 20
191.8477483010116
 30
0.0
 10
569.3945884053473
 20
191.7957233653408
 30
0.0
 10
569.6361988010324
 20
191.6899356201193
 30
0.0
 10
570.0716276448475
 20
191.6283505671032
 30
0.0
 10
570.5921082661952
 20
191.6969965768599
 30
0.0
 10
571.1348374296551
 20
191.8946665653932
 30
0.0
 10
571.6839809106168
 20
192.2129196797807
 30
0.0
 10
572.2224771513362
 20
192.6406438953818
 30
0.0
 10
572.7332938548101
 20
193.1639097433313
 30
0.0
 10
573.1994127573158
 20
193.7652389197745
 30
0.0
 10
573.605329359554
 20
194.4247576000788
 30
0.0
 10
573.9373223913502
 20
195.120369892653
 30
0.0
 10
574.1836593039768
 20
195.8276517757984
 30
0.0
 10
574.3361730987214
 20
196.5217033016031
 30
0.0
 10
574.3739829864832
 20
196.9796404641033
 30
0.0
 10
574.3739829864701
 20
197.1996092508117
 30
0.0
 11
569.3042777602701
 21
191.8477483010116
 31
0.0
 11
569.5906625999697
 21
191.7222605227117
 31
0.0
 11
570.0565987465697
 21
191.6510145401117
 31
0.0
 11
570.56821636187
 21
191.7117023787115
 31
0.0
 11
571.1089421869697
 21
191.9022219739114
 31
0.0
 11
571.6592967061696
 21
192.2156632133116
 31
0.0
 11
572.2013263991698
 21
192.6417768018115
 31
0.0
 11
572.7156989237697
 21
193.1654270308114
 31
0.0
 11
573.1854054021697
 21
193.7693828144116
 31
0.0
 11
573.5938049501697
 21
194.4324497692115
 31
0.0
 11
573.9269836915696
 21
195.1321981899115
 31
0.0
 11
574.1734128256698
 21
195.8449302078117
 31
0.0
 11
574.3236151897701
 21
196.5416278763115
 31
0.0
 11
574.3739829864701
 21
197.1996092508117
 31
0.0
  0
SPLINE
  5
1E0FA
330
1F
100
AcDbEntity
  8
3
  6
Continuous
100
AcDbSpline
210
0.0
220
0.0
230
1.0
 70
     8
 71
     3
 72
     8
 73
     4
 74
     2
 42
0.0000000001
 43
0.0000000001
 44
0.0000000001
 12
0.0342712053101264
 22
-0.9994125697061205
 32
0.0
 13
0.0713378063715591
 23
-0.997452213081957
 33
0.0
 40
0.0
 40
0.0
 40
0.0
 40
0.0
 40
0.1478103195586317
 40
0.1478103195586317
 40
0.1478103195586317
 40
0.1478103195586317
 10
568.8761295045698
 20
193.0119761766114
 30
0.0
 10
568.8778180505059
 20
192.962735012845
 30
0.0
 10
568.8803904208511
 20
192.9135151014982
 30
0.0
 10
568.88390524217
 20
192.8643705247115
 30
0.0
 11
568.8761295045698
 21
193.0119761766114
 31
0.0
 11
568.88390524217
 21
192.8643705247115
 31
0.0
  0
SPLINE
  5
1E0FB
330
1F
100
AcDbEntity
  8
3
  6
Continuous
100
AcDbSpline
210
0.0
220
0.0
230
1.0
 70
     8
 71
     3
 72
    10
 73
     6
 74
     4
 42
0.0000000001
 43
0.0000000001
 44
0.0000000001
 12
0.0713378065210658
 22
-0.9974522130712644
 32
0.0
 13
0.4263920724603327
 23
-0.9045384461386827
 33
0.0
 40
0.0
 40
0.0
 40
0.0
 40
0.0
 40
0.3311213118779757
 40
0.9305585137976947
 40
1.079285024469691
 40
1.079285024469691
 40
1.079285024469691
 40
1.079285024469691
 10
568.88390524217
 20
192.8643705247115
 30
0.0
 10
568.8917790648639
 20
192.7542779629355
 30
0.0
 10
568.9271411543858
 20
192.4459187935297
 30
0.0
 10
569.018212093731
 20
192.0943670199727
 30
0.0
 10
569.1170848116648
 20
191.8652587830658
 30
0.0
 10
569.1382234133699
 20
191.8204158341115
 30
0.0
 11
568.88390524217
 21
192.8643705247115
 31
0.0
 11
568.9224095231699
 21
192.5354955583117
 31
0.0
 11
569.0791876660697
 21
191.9569235464115
 31
0.0
 11
569.1382234133699
 21
191.8204158341115
 31
0.0
  0
SPLINE
  5
1E0FC
330
1F
100
AcDbEntity
  8
3
  6
Continuous
100
AcDbSpline
210
0.0
220
0.0
230
1.0
 70
     8
 71
     3
 72
    22
 73
    18
 74
    16
 42
0.0000000001
 43
0.0000000001
 44
0.0000000001
 12
0.4263920724879234
 22
-0.9045384461256766
 32
0.0
 13
-0.0000000165514269
 23
1.0
 33
0.0
 40
0.0
 40
0.0
 40
0.0
 40
0.0
 40
0.4018660176416029
 40
0.9105258355146091
 40
1.408120022379825
 40
1.928777277596777
 40
2.497874338494818
 40
3.13115292389618
 40
3.830756956179832
 40
4.592348594194375
 40
5.403152743981658
 40
6.248291813588098
 40
7.108499822483895
 40
7.964590159773807
 40
8.797606673723109
 40
9.58486392973297
 40
10.31379938954888
 40
10.31379938954888
 40
10.31379938954888
 40
10.31379938954888
 10
569.1382234133699
 20
191.8204158341115
 30
0.0
 10
569.1953409080781
 20
191.6992480797287
 30
0.0
 10
569.3498037592998
 20
191.4355602062677
 30
0.0
 10
569.6860840555078
 20
191.0969791652849
 30
0.0
 10
570.1504916620369
 20
190.8670864067864
 30
0.0
 10
570.6821701964345
 20
190.7919507220263
 30
0.0
 10
571.2571900436289
 20
190.8677449727832
 30
0.0
 10
571.8566615544911
 20
191.0861021316573
 30
0.0
 10
572.4632569827734
 20
191.4376428045466
 30
0.0
 10
573.0580794380519
 20
191.910109863566
 30
0.0
 10
573.6223304027491
 20
192.4881114417083
 30
0.0
 10
574.1372073501238
 20
193.1523422539961
 30
0.0
 10
574.5855830075822
 20
193.8808501024181
 30
0.0
 10
574.9523075106412
 20
194.6492250493647
 30
0.0
 10
575.2244029423007
 20
195.4304943263552
 30
0.0
 10
575.3928849681681
 20
196.1971435558333
 30
0.0
 10
575.4346427573914
 20
196.7029839711064
 30
0.0
 10
575.4346427533697
 20
196.9459624577117
 30
0.0
 11
569.1382234133699
 21
191.8204158341115
 31
0.0
 11
569.34395617447
 21
191.4752052793116
 31
0.0
 11
569.7055256367698
 21
191.1174311407118
 31
0.0
 11
570.15096625537
 21
190.8956595688115
 31
0.0
 11
570.66564137637
 21
190.8169607935116
 31
0.0
 11
571.2307764427698
 21
190.8839967648115
 31
0.0
 11
571.82806456567
 21
191.0944454877114
 31
0.0
 11
572.4359885530698
 21
191.4406740647114
 31
0.0
 11
573.0347168450698
 21
191.9113610684118
 31
0.0
 11
573.60289486067
 21
192.4897874785115
 31
0.0
 11
574.12173451937
 21
193.1569197409118
 31
0.0
 11
574.57285396707
 21
193.8893465717115
 31
0.0
 11
574.9408851519697
 21
194.6622914032115
 31
0.0
 11
575.2130886998697
 21
195.4495789879116
 31
0.0
 11
575.3790093348698
 21
196.2191531104114
 31
0.0
 11
575.4346427533697
 21
196.9459624577117
 31
0.0
  0
SPLINE
  5
1E0FD
330
1F
100
AcDbEntity
  8
3
  6
Continuous
100
AcDbSpline
210
0.0
220
0.0
230
1.0
 70
     8
 71
     3
 72
    16
 73
    12
 74
    10
 42
0.0000000001
 43
0.0000000001
 44
0.0000000001
 12
-0.8659136249934562
 22
0.5001935565865398
 32
0.0
 13
0.0
 23
1.0
 33
0.0
 40
0.0
 40
0.0
 40
0.0
 40
0.0
 40
0.072209463565256
 40
0.3757095885397263
 40
0.6858526247137624
 40
1.007386593446145
 40
1.344272359494072
 40
1.699523407030906
 40
2.075162971641479
 40
2.472353113494452
 40
2.891608727907816
 40
2.891608727907816
 40
2.891608727907816
 40
2.891608727907816
 10
569.3051098889696
 20
190.3460273915117
 30
0.0
 10
569.2842675028514
 20
190.3580669609783
 30
0.0
 10
569.1770619828417
 20
190.4228374030967
 30
0.0
 10
568.993628498788
 20
190.5612328003607
 30
0.0
 10
568.7773548811096
 20
190.7874389831593
 30
0.0
 10
568.5914420999522
 20
191.0528065351021
 30
0.0
 10
568.4374644142389
 20
191.3546816611485
 30
0.0
 10
568.3165681125785
 20
191.6903418026751
 30
0.0
 10
568.2296815754056
 20
192.0569329764568
 30
0.0
 10
568.1775172812125
 20
192.4514478605278
 30
0.0
 10
568.16654162937
 20
192.7237748285403
 30
0.0
 10
568.16654162937
 20
192.8635267000114
 30
0.0
 11
569.3051098889696
 21
190.3460273915117
 31
0.0
 11
569.24330705457
 21
190.3833719532114
 31
0.0
 11
569.0008373006699
 21
190.5659116593116
 31
0.0
 11
568.7859763278699
 21
190.7895709208115
 31
0.0
 11
568.6006767938699
 21
191.0523411165114
 31
0.0
 11
568.4465963794697
 21
191.3519262384116
 31
0.0
 11
568.3251273874698
 21
191.6857654074116
 31
0.0
 11
568.23741461687
 21
192.0510208692113
 31
0.0
 11
568.1843406670701
 21
192.4446490753117
 31
0.0
 11
568.16654162937
 21
192.8635267000114
 31
0.0
  0
SPLINE
  5
1E0FE
330
1F
100
AcDbEntity
  8
3
  6
Continuous
100
AcDbSpline
210
0.0
220
0.0
230
1.0
 70
     8
 71
     3
 72
     8
 73
     4
 74
     2
 42
0.0000000001
 43
0.0000000001
 44
0.0000000001
 12
0.0
 22
1.0
 32
0.0
 13
-0.0091760722523866
 23
0.9999578989627607
 33
0.0
 40
0.0
 40
0.0
 40
0.0
 40
0.0
 40
0.0362865038360348
 40
0.0362865038360348
 40
0.0362865038360348
 40
0.0362865038360348
 10
574.3739829864701
 20
197.1996092508117
 30
0.0
 10
574.3739829864701
 20
197.2117047520903
 30
0.0
 10
574.3739280119634
 20
197.2238003830659
 30
0.0
 10
574.3738170227698
 20
197.2358953751114
 30
0.0
 11
574.3739829864701
 21
197.1996092508117
 31
0.0
 11
574.3738170227698
 21
197.2358953751114
 31
0.0
  0
SPLINE
  5
1E0FF
330
1F
100
AcDbEntity
  8
3
  6
Continuous
100
AcDbSpline
210
0.0
220
0.0
230
1.0
 70
     8
 71
     3
 72
    12
 73
     8
 74
     6
 42
0.0000000001
 43
0.0000000001
 44
0.0000000001
 12
-0.0091760734362871
 22
0.9999578989518967
 32
0.0
 13
-0.8664937127841405
 23
0.4991879863393704
 33
0.0
 40
0.0
 40
0.0
 40
0.0
 40
0.0
 40
0.5290948991439026
 40
1.071768900113277
 40
1.56939921039277
 40
2.029889965421398
 40
2.168873916601605
 40
2.168873916601605
 40
2.168873916601605
 40
2.168873916601605
 10
574.3738170227698
 20
197.2358953751114
 30
0.0
 10
574.3721986848867
 20
197.4122529163427
 30
0.0
 10
574.3448072273178
 20
197.7699743937541
 30
0.0
 10
574.2127144230383
 20
198.2800759855992
 30
0.0
 10
573.9750137688445
 20
198.7266764524053
 30
0.0
 10
573.7124803363586
 20
198.990814595154
 30
0.0
 10
573.5441907169948
 20
199.0990745983038
 30
0.0
 10
573.5040478103696
 20
199.1222009712115
 30
0.0
 11
574.3738170227698
 21
197.2358953751114
 31
0.0
 11
574.3298454593697
 21
197.7631599329116
 31
0.0
 11
574.1879138927697
 21
198.2869447186114
 31
0.0
 11
573.94821861917
 21
198.7230434477116
 31
0.0
 11
573.6208891838697
 21
199.0469372208114
 31
0.0
 11
573.5040478103696
 21
199.1222009712115
 31
0.0
  0
SPLINE
  5
1E100
330
1F
100
AcDbEntity
  8
3
  6
Continuous
100
AcDbSpline
210
0.0
220
0.0
230
1.0
 70
     8
 71
     3
 72
    16
 73
    12
 74
    10
 42
0.0000000001
 43
0.0000000001
 44
0.0000000001
 12
0.8660239817176249
 22
0.500002463083884
 32
0.0
 13
-0.0000000168803894
 23
-1.0
 33
0.0
 40
0.0
 40
0.0
 40
0.0
 40
0.0
 40
0.3683573296498634
 40
1.050322025100672
 40
1.663830627170505
 40
2.223776209996425
 40
2.757635923913681
 40
3.30044439391714
 40
3.884504943208882
 40
4.531155472417141
 40
5.248982136938939
 40
5.248982136938939
 40
5.248982136938939
 40
5.248982136938939
 10
572.4090941380701
 20
198.9872571057113
 30
0.0
 10
572.5154295651761
 20
199.048650296418
 30
0.0
 10
572.8255172394202
 20
199.2118070306955
 30
0.0
 10
573.3484813557216
 20
199.4070010027317
 30
0.0
 10
573.9665286349661
 20
199.495383556194
 30
0.0
 10
574.5393043011213
 20
199.4232311169081
 30
0.0
 10
575.0415040026275
 20
199.1862854146926
 30
0.0
 10
575.4459917978662
 20
198.7950348006864
 30
0.0
 10
575.7370990061939
 20
198.2724168460152
 30
0.0
 10
575.9103671287967
 20
197.6414360639697
 30
0.0
 10
575.9446857234088
 20
197.1852387211524
 30
0.0
 10
575.9446857193697
 20
196.9459631663118
 30
0.0
 11
572.4090941380701
 21
198.9872571057113
 31
0.0
 11
572.7353957727697
 21
199.1581792093116
 31
0.0
 11
573.3767438542701
 21
199.3900164026114
 31
0.0
 11
573.9851339596698
 21
199.4691004368116
 31
0.0
 11
574.5398487243697
 21
199.3927421658114
 31
0.0
 11
575.0220038162697
 21
199.1635421189118
 31
0.0
 11
575.4151787167699
 21
198.7893035149114
 31
0.0
 11
575.7059763778697
 21
198.2827825918116
 31
0.0
 11
575.8844948728697
 21
197.6612618328114
 31
0.0
 11
575.9446857193697
 21
196.9459631663118
 31
0.0
  0
SPLINE
  5
1E101
330
1F
100
AcDbEntity
  8
3
  6
Continuous
100
AcDbSpline
210
0.0
220
0.0
230
1.0
 70
     8
 71
     3
 72
    32
 73
    28
 74
    26
 42
0.0000000001
 43
0.0000000001
 44
0.0000000001
 12
0.0
 22
1.0
 32
0.0
 13
0.8660893067921225
 23
-0.4998893004059408
 33
0.0
 40
0.0
 40
0.0
 40
0.0
 40
0.0
 40
0.4396720231183237
 40
0.8976493800980305
 40
1.372424838149551
 40
1.861970033637439
 40
2.363895120295092
 40
2.875576707190749
 40
3.394144188553607
 40
3.916494040313187
 40
4.439470618398676
 40
4.959916491236527
 40
5.474740199351081
 40
5.980970262862556
 40
6.475837963551926
 40
6.956785223872456
 40
7.42149255879646
 40
7.868001284252157
 40
8.294792245004073
 40
8.700915113366216
 40
9.086078959248508
 40
9.450750182380872
 40
9.796268288229951
 40
10.12495590568941
 40
10.44017286380057
 40
10.74629653715675
 40
10.97575531396041
 40
10.97575531396041
 40
10.97575531396041
 40
10.97575531396041
 10
568.16654162937
 20
192.8635267000114
 30
0.0
 10
568.16654162937
 20
193.0100840410509
 30
0.0
 10
568.1791980126408
 20
193.3094057825757
 30
0.0
 10
568.2329072706895
 20
193.7640899040763
 30
0.0
 10
568.3211030286027
 20
194.2302811344242
 30
0.0
 10
568.4429113284996
 20
194.7039371322427
 30
0.0
 10
568.5971993868295
 20
195.1809543064727
 30
0.0
 10
568.7825709427463
 20
195.6571509013675
 30
0.0
 10
568.9973564154771
 20
196.1283049020359
 30
0.0
 10
569.2396101408269
 20
196.5901910821103
 30
0.0
 10
569.5071270994179
 20
197.038646821108
 30
0.0
 10
569.7974820314974
 20
197.4696475955451
 30
0.0
 10
570.1080553655217
 20
197.8793421949403
 30
0.0
 10
570.4360677671953
 20
198.2640931025399
 30
0.0
 10
570.7786041442658
 20
198.6204958808521
 30
0.0
 10
571.1326274188793
 20
198.9453892218548
 30
0.0
 10
571.4949932888742
 20
199.2358737601215
 30
0.0
 10
571.8624771957782
 20
199.489341745368
 30
0.0
 10
572.2318250176249
 20
199.7035146892057
 30
0.0
 10
572.59979049474
 20
199.8764570435106
 30
0.0
 10
572.9631662818053
 20
200.0065766799391
 30
0.0
 10
573.3187940167276
 20
200.0926134404579
 30
0.0
 10
573.6635628944388
 20
200.1336318625341
 30
0.0
 10
573.9944017287515
 20
200.1290232012729
 30
0.0
 10
574.3082493864791
 20
200.0785409534919
 30
0.0
 10
574.5789621169733
 20
199.9899218599565
 30
0.0
 10
574.7393134650899
 20
199.9102686663808
 30
0.0
 10
574.8055573960697
 20
199.8720340039113
 30
0.0
 11
568.16654162937
 21
192.8635267000114
 31
0.0
 11
568.1843313006699
 21
193.3028386797115
 31
0.0
 11
568.2373936135701
 21
193.7577316896114
 31
0.0
 11
568.3251112940697
 21
194.2243336014118
 31
0.0
 11
568.44661279087
 21
194.6985612732115
 31
0.0
 11
568.6007570282701
 21
195.1762309778115
 31
0.0
 11
568.7861478697701
 21
195.6531463605116
 31
0.0
 11
569.0011125616697
 21
196.1250599267115
 31
0.0
 11
569.2436759997701
 21
196.5876746110117
 31
0.0
 11
569.51161750237
 21
197.0367980377115
 31
0.0
 11
569.8024908984698
 21
197.4683725666115
 31
0.0
 11
570.11365537527
 21
197.8785190268114
 31
0.0
 11
570.4423011088699
 21
198.2635655941113
 31
0.0
 11
570.7854946527701
 21
198.6200936191118
 31
0.0
 11
571.14017249137
 21
198.9449226480116
 31
0.0
 11
571.50313354117
 21
199.2351160033114
 31
0.0
 11
571.8710963516697
 21
199.4880456615116
 31
0.0
 11
572.2407228398698
 21
199.7014157236113
 31
0.0
 11
572.6086781090699
 21
199.8733014533114
 31
0.0
 11
572.9716497314698
 21
200.0021532655115
 31
0.0
 11
573.3263601907697
 21
200.0868030797116
 31
0.0
 11
573.6695926009697
 21
200.1264802023117
 31
0.0
 11
573.9982315895701
 21
200.1208264387116
 31
0.0
 11
574.3093072720698
 21
200.0698985442115
 31
0.0
 11
574.6000681009701
 21
199.9741392430115
 31
0.0
 11
574.8055573960697
 21
199.8720340039113
 31
0.0
  0
SPLINE
  5
1E102
330
1F
100
AcDbEntity
  8
3
  6
Continuous
100
AcDbSpline
210
0.0
220
0.0
230
1.0
 70
     8
 71
     3
 72
    24
 73
    20
 74
    18
 42
0.0000000001
 43
0.0000000001
 44
0.0000000001
 12
0.0000000165557084
 22
-1.0
 32
0.0
 13
-0.0000096986478163
 23
0.9999999999529681
 33
0.0
 40
0.0
 40
0.0
 40
0.0
 40
0.0
 40
0.7870914282949841
 40
1.633778249984886
 40
2.524865467258575
 40
3.441686544100155
 40
4.363738114366508
 40
5.270177200326591
 40
6.141263507485899
 40
6.959876419186653
 40
7.71327183922387
 40
8.395236534674388
 40
9.008745136843415
 40
9.568690719669328
 40
10.10255043354384
 40
10.64535890361943
 40
11.22941945294807
 40
11.87606998218395
 40
12.59384363765826
 40
12.59384363765826
 40
12.59384363765826
 40
12.59384363765826
 10
575.9446857203697
 20
196.9459633239117
 30
0.0
 10
575.9446857247134
 20
196.68359951448
 30
0.0
 10
575.8995823498091
 20
196.1385298320017
 30
0.0
 10
575.7184648259465
 20
195.3145776415325
 30
0.0
 10
575.4271896905866
 20
194.4769667421961
 30
0.0
 10
575.0354476790345
 20
193.6537048843485
 30
0.0
 10
574.556264571028
 20
192.8720756870374
 30
0.0
 10
574.0055858831124
 20
192.158114649036
 30
0.0
 10
573.4016522084084
 20
191.535501321873
 30
0.0
 10
572.7642299270874
 20
191.0247815261279
 30
0.0
 10
572.1136721616439
 20
190.6427752253468
 30
0.0
 10
571.4698897479736
 20
190.4025157807623
 30
0.0
 10
570.8517956399203
 20
190.3141090057182
 30
0.0
 10
570.2790309014907
 20
190.3862671059521
 30
0.0
 10
569.776828554749
 20
190.6232114071425
 30
0.0
 10
569.3723412100731
 20
191.0144623809119
 30
0.0
 10
569.0812349895706
 20
191.537080317915
 30
0.0
 10
568.907966413984
 20
192.1680435562273
 30
0.0
 10
568.873660201848
 20
192.6242237516649
 30
0.0
 10
568.8736578813701
 20
192.8634816368118
 30
0.0
 11
575.9446857203697
 21
196.9459633239117
 31
0.0
 11
575.8844951529701
 21
196.1611767210115
 31
0.0
 11
575.7059773696697
 21
195.3335234270116
 31
0.0
 11
575.41518040837
 21
194.4912208946117
 31
0.0
 11
575.0220057102698
 21
193.6629850926116
 31
0.0
 11
574.53985049507
 21
192.8770426986117
 31
0.0
 11
573.9851356986697
 21
192.1601582510117
 31
0.0
 11
573.37674575927
 21
191.5367378181114
 31
0.0
 11
572.73539775357
 21
191.0280140868113
 31
0.0
 11
572.0829372988697
 21
190.6513179042114
 31
0.0
 11
571.4415892173697
 21
190.4194807109116
 31
0.0
 11
570.8331991118699
 21
190.3403966767115
 31
0.0
 11
570.2784843471699
 21
190.4167549477116
 31
0.0
 11
569.79632925527
 21
190.6459549945116
 31
0.0
 11
569.4031543546698
 21
191.0201935985116
 31
0.0
 11
569.11235669367
 21
191.5267145217113
 31
0.0
 11
568.93383819857
 21
192.1482352807116
 31
0.0
 11
568.8736578813701
 21
192.8634816368118
 31
0.0
  0
SPLINE
  5
1E103
330
1F
100
AcDbEntity
  8
3
  6
Continuous
100
AcDbSpline
210
0.0
220
0.0
230
1.0
 70
     8
 71
     3
 72
    16
 73
    12
 74
    10
 42
0.0000000001
 43
0.0000000001
 44
0.0000000001
 12
-0.000000016542533
 22
1.0
 32
0.0
 13
-0.8996075184352102
 23
-0.4366993391051134
 33
0.0
 40
0.0
 40
0.0
 40
0.0
 40
0.0
 40
0.6244069423298671
 40
1.223847420579967
 40
1.773531275639405
 40
2.282191462502088
 40
2.779785216285465
 40
3.300442271291932
 40
3.869539238848208
 40
4.502817771436789
 40
4.576177373665626
 40
4.576177373665626
 40
4.576177373665626
 40
4.576177373665626
 10
575.4346427533697
 20
196.9459624577117
 30
0.0
 10
575.4346427499266
 20
197.154098105155
 30
0.0
 10
575.405762361469
 20
197.5630392274238
 30
0.0
 10
575.2565558779576
 20
198.139406551446
 30
0.0
 10
574.9937597603556
 20
198.632887687712
 30
0.0
 10
574.6222206005393
 20
199.0069721632361
 30
0.0
 10
574.1578086758157
 20
199.2368780634089
 30
0.0
 10
573.6261056351487
 20
199.3119975470725
 30
0.0
 10
573.0512041932989
 20
199.2362606543244
 30
0.0
 10
572.6487653559021
 20
199.0896338170488
 30
0.0
 10
572.4359344609078
 20
198.9887866700151
 30
0.0
 10
572.4139361776697
 20
198.9781079734117
 30
0.0
 11
575.4346427533697
 21
196.9459624577117
 31
0.0
 11
575.38588951247
 21
197.5684631815117
 31
0.0
 11
575.22910736817
 21
198.1470375036116
 31
0.0
 11
574.9643411727697
 21
198.6287544353114
 31
0.0
 11
574.60277138007
 21
198.9865287646117
 31
0.0
 11
574.15733113727
 21
199.2083001196116
 31
0.0
 11
573.6426562023698
 21
199.2869987874115
 31
0.0
 11
573.0775212368699
 21
199.2199627579116
 31
0.0
 11
572.4802331842697
 21
199.0095139944116
 31
0.0
 11
572.4139361776697
 21
198.9781079734117
 31
0.0
  0
SPLINE
  5
1E104
330
1F
100
AcDbEntity
  8
3
  6
Continuous
100
AcDbSpline
210
0.0
220
0.0
230
1.0
 70
     8
 71
     3
 72
     8
 73
     4
 74
     2
 42
0.0000000001
 43
0.0000000001
 44
0.0000000001
 12
-0.8996075183737321
 22
-0.4366993392317597
 32
0.0
 13
-0.8818892751238889
 23
-0.471456579571716
 33
0.0
 40
0.0
 40
0.0
 40
0.0
 40
0.0
 40
0.1559879060869791
 40
0.1559879060869791
 40
0.1559879060869791
 40
0.1559879060869791
 10
572.4139361776697
 20
198.9781079734117
 30
0.0
 10
572.3671602133059
 20
198.9554013682395
 30
0.0
 10
572.3208319057123
 20
198.9317512672644
 30
0.0
 10
572.2749772185699
 20
198.9072374257116
 30
0.0
 11
572.4139361776697
 21
198.9781079734117
 31
0.0
 11
572.2749772185699
 21
198.9072374257116
 31
0.0
  0
ENDSEC
  0
SECTION
  2
OBJECTS
  0
DICTIONARY
  5
C
330
0
100
AcDbDictionary
281
     1
  3
ACAD_COLOR
350
4FFE
  3
ACAD_GROUP
350
D
  3
ACAD_LAYOUT
350
1A
  3
ACAD_MATERIAL
350
4FE5
  3
ACAD_MLEADERSTYLE
350
5022
  3
ACAD_MLINESTYLE
350
17
  3
ACAD_PLOTSETTINGS
350
19
  3
ACAD_PLOTSTYLENAME
350
E
  3
ACAD_RENDER_PLOT_SETTINGS
350
6537
  3
ACAD_SCALELIST
350
5000
  3
ACAD_TABLESTYLE
350
4FE3
  3
ACAD_VISUALSTYLE
350
2A
  3
ACDB_RECOMPOSE_DATA
350
50EC
  3
AcDbVariableDictionary
350
5108
  3
ASE_INDEX_DICTIONARY
350
14143
  0
DICTIONARY
  5
50EE
330
8
100
AcDbDictionary
280
     1
281
     1
  0
DICTIONARY
  5
50B8
330
2
100
AcDbDictionary
280
     1
281
     1
  3
ACAD_LAYERFILTERS
360
146E2
  3
ACAD_LAYERSTATES
360
50B9
  3
ACLYDICTIONARY
360
146E1
  0
DICTIONARY
  5
50D0
330
10
100
AcDbDictionary
280
     1
281
     1
  3
ADSK_XREC_LAYER_RECONCILED
360
50D1
  0
DICTIONARY
  5
50D2
330
3B
100
AcDbDictionary
280
     1
281
     1
  3
ADSK_XREC_LAYER_RECONCILED
360
50D3
  0
DICTIONARY
  5
50AF
330
50AE
100
AcDbDictionary
280
     1
281
     1
  3
ADSK_XREC_LAYER_RECONCILED
360
50D4
  0
DICTIONARY
  5
67C0
330
1F
100
AcDbDictionary
280
     1
281
     1
  3
ACAD_SORTENTS
360
67C1
  0
DICTIONARY
  5
1E40F
330
13E17
100
AcDbDictionary
280
     1
281
     1
  0
DICTIONARY
  5
1E441
330
1E37A
100
AcDbDictionary
280
     1
281
     1
  3
ACAD_MTEXT_2008_RT
360
1E442
  0
DICTIONARY
  5
1E443
330
1E3BE
100
AcDbDictionary
280
     1
281
     1
  3
ACAD_MTEXT_2008_RT
360
1E444
  0
DICTIONARY
  5
1E445
330
1E3BF
100
AcDbDictionary
280
     1
281
     1
  3
ACAD_MTEXT_2008_RT
360
1E446
  0
DICTIONARY
  5
1E447
330
1E3E4
100
AcDbDictionary
280
     1
281
     1
  3
ACAD_MTEXT_2008_RT
360
1E448
  0
DICTIONARY
  5
1E449
330
1E3E7
100
AcDbDictionary
280
     1
281
     1
  3
ACAD_MTEXT_2008_RT
360
1E44A
  0
DICTIONARY
  5
1E44B
330
1E3E8
100
AcDbDictionary
280
     1
281
     1
  3
ACAD_MTEXT_2008_RT
360
1E44C
  0
DICTIONARY
  5
1E44D
330
1E3F2
100
AcDbDictionary
280
     1
281
     1
  3
ACAD_MTEXT_2008_RT
360
1E44E
  0
DICTIONARY
  5
1E44F
330
1E3F3
100
AcDbDictionary
280
     1
281
     1
  3
ACAD_MTEXT_2008_RT
360
1E450
  0
DICTIONARY
  5
1E451
330
1E3F4
100
AcDbDictionary
280
     1
281
     1
  3
ACAD_MTEXT_2008_RT
360
1E452
  0
DICTIONARY
  5
1E453
330
1E402
100
AcDbDictionary
280
     1
281
     1
  3
ACAD_MTEXT_2008_RT
360
1E454
  0
DICTIONARY
  5
1E455
330
1E403
100
AcDbDictionary
280
     1
281
     1
  3
ACAD_MTEXT_2008_RT
360
1E456
  0
DICTIONARY
  5
1E457
330
1E404
100
AcDbDictionary
280
     1
281
     1
  3
ACAD_MTEXT_2008_RT
360
1E458
  0
DICTIONARY
  5
1E43F
330
15556
100
AcDbDictionary
280
     1
281
     1
  3
ACAD_MTEXT_2008_RT
360
1E440
  0
DICTIONARY
  5
1C981
330
1C980
100
AcDbDictionary
280
     1
281
     1
  3
ACAD_DIMASSOC
360
1C982
  0
DICTIONARY
  5
1C984
330
1C983
100
AcDbDictionary
280
     1
281
     1
  3
ACAD_DIMASSOC
360
1C985
  0
DICTIONARY
  5
1C987
330
1C986
100
AcDbDictionary
280
     1
281
     1
  3
ACAD_DIMASSOC
360
1C988
  0
DICTIONARY
  5
4FFE
102
{ACAD_REACTORS
330
C
102
}
330
C
100
AcDbDictionary
281
     1
  0
DICTIONARY
  5
D
102
{ACAD_REACTORS
330
C
102
}
330
C
100
AcDbDictionary
281
     1
  0
DICTIONARY
  5
1A
102
{ACAD_REACTORS
330
C
102
}
330
C
100
AcDbDictionary
281
     1
  3
Layout1
350
1E
  3
Layout2
350
26
  3
Model
350
22
  0
DICTIONARY
  5
4FE5
102
{ACAD_REACTORS
330
C
102
}
330
C
100
AcDbDictionary
281
     1
  3
ByBlock
350
4FEE
  3
ByLayer
350
4FE6
  3
Global
350
4FF6
  0
DICTIONARY
  5
5022
102
{ACAD_REACTORS
330
C
102
}
330
C
100
AcDbDictionary
281
     1
  3
Standard
350
5023
  0
DICTIONARY
  5
17
102
{ACAD_REACTORS
330
C
102
}
330
C
100
AcDbDictionary
281
     1
  3
Standard
350
18
  0
DICTIONARY
  5
19
102
{ACAD_REACTORS
330
C
102
}
330
C
100
AcDbDictionary
281
     1
  0
ACDBDICTIONARYWDFLT
  5
E
102
{ACAD_REACTORS
330
C
102
}
330
C
100
AcDbDictionary
281
     1
  3
Normal
350
F
100
AcDbDictionaryWithDefault
340
F
  0
DICTIONARY
  5
6537
102
{ACAD_REACTORS
330
C
102
}
330
C
100
AcDbDictionary
281
     1
  3
{1DC63513-1B1A-422F-9880-65CFD2B8D533}
350
6538
  0
DICTIONARY
  5
5000
102
{ACAD_REACTORS
330
C
102
}
330
C
100
AcDbDictionary
281
     1
  3
A0
350
5001
  3
A1
350
5002
  3
A2
350
5003
  3
A3
350
5004
  3
A4
350
5005
  3
A5
350
5006
  3
A6
350
5007
  3
A7
350
5008
  3
A8
350
5009
  3
A9
350
500A
  3
B0
350
500B
  3
B1
350
500C
  3
B2
350
500D
  3
B3
350
500E
  3
B4
350
500F
  3
B5
350
5010
  3
B6
350
5011
  3
B7
350
5012
  3
B8
350
5013
  3
B9
350
5014
  3
C0
350
5015
  3
C1
350
5016
  3
C2
350
5017
  3
C3
350
5018
  3
C4
350
5019
  3
C5
350
501A
  3
C6
350
501B
  3
C7
350
501C
  3
C8
350
501D
  3
C9
350
501E
  3
D0
350
501F
  3
D1
350
5020
  3
D2
350
5021
  0
DICTIONARY
  5
4FE3
102
{ACAD_REACTORS
330
C
102
}
330
C
100
AcDbDictionary
281
     1
  3
Standard
350
4FFF
  0
DICTIONARY
  5
2A
102
{ACAD_REACTORS
330
C
102
}
330
C
100
AcDbDictionary
281
     1
  3
2dWireframe
350
2F
  3
3D Hidden
350
31
  3
3dWireframe
350
30
  3
Basic
350
32
  3
Brighten
350
36
  3
ColorChange
350
3A
  3
Conceptual
350
34
  3
Dim
350
35
  3
Facepattern
350
39
  3
Flat
350
2B
  3
FlatWithEdges
350
2C
  3
Gouraud
350
2D
  3
GouraudWithEdges
350
2E
  3
Linepattern
350
38
  3
Realistic
350
33
  3
Thicken
350
37
  0
XRECORD
  5
50EC
102
{ACAD_REACTORS
330
C
102
}
330
C
100
AcDbXrecord
280
     1
 90
        1
330
4FFF
330
15556
330
1E37A
330
1E3BE
330
1E3BF
330
1E3E4
330
1E3E7
330
1E3E8
330
1E3F2
330
1E3F3
330
1E3F4
330
1E402
330
1E403
330
1E404
  0
DICTIONARY
  5
5108
102
{ACAD_REACTORS
330
C
102
}
330
C
100
AcDbDictionary
281
     1
  3
CANNOSCALE
350
510B
  3
CMLEADERSTYLE
350
510A
  3
CTABLESTYLE
350
5109
  3
DIMASSOC
350
510E
  3
INDEXCTL
350
510D
  3
LIGHTINGUNITS
350
1E430
  3
MSLTSCALE
350
1E42F
  3
SORTENTS
350
510C
  0
DICTIONARY
  5
14143
102
{ACAD_REACTORS
330
C
102
}
330
C
100
AcDbDictionary
281
     1
  3
ASEBlockHierarchyIndexRecord
350
14144
1001
DCO15
1040
1903428632.093
  0
DICTIONARY
  5
146E2
102
{ACAD_REACTORS
330
50B8
102
}
330
50B8
100
AcDbDictionary
281
     1
  0
DICTIONARY
  5
50B9
102
{ACAD_REACTORS
330
50B8
102
}
330
50B8
100
AcDbDictionary
281
     1
  0
DICTIONARY
  5
146E1
102
{ACAD_REACTORS
330
50B8
102
}
330
50B8
100
AcDbDictionary
281
     1
1001
ACAD
1000
<All
  0
XRECORD
  5
50D1
102
{ACAD_REACTORS
330
50D0
102
}
330
50D0
100
AcDbXrecord
280
     1
290
     1
  0
XRECORD
  5
50D3
102
{ACAD_REACTORS
330
50D2
102
}
330
50D2
100
AcDbXrecord
280
     1
290
     1
  0
XRECORD
  5
50D4
102
{ACAD_REACTORS
330
50AF
102
}
330
50AF
100
AcDbXrecord
280
     1
290
     1
  0
SORTENTSTABLE
  5
67C1
102
{ACAD_REACTORS
330
67C0
102
}
330
67C0
100
AcDbSortentsTable
330
1F
331
2C65
  5
2EE7
331
1C944
  5
1C991
331
1C983
  5
1D6C8
331
1DC9A
  5
1DC9C
331
1C94C
  5
1D56E
331
1C98B
  5
1D6CC
331
1C993
  5
1D6D4
331
1C8F5
  5
1C8F5
331
1C954
  5
1D6A3
331
1C95C
  5
1D6AB
331
1DC7B
  5
1DC7B
331
1C964
  5
1D6B3
331
1C96C
  5
1D6BB
331
1DC83
  5
1DC83
331
1C974
  5
1D6C3
331
1DC8B
  5
1DC8B
331
28AE
  5
2A38
331
3895
  5
3943
331
1C945
  5
1C992
331
1C94D
  5
1D69C
331
1C98C
  5
1D6CD
331
1C994
  5
1D9A3
331
1C8F6
  5
1C8F6
331
1C955
  5
1D6A4
331
1C95D
  5
1D6AC
331
1DC7C
  5
1DC7C
331
2FDE
  5
35C8
331
1C965
  5
1D6B4
331
1C96D
  5
1D6BC
331
1DC84
  5
1DC84
331
1C97D
  5
1D6C6
331
2EE7
  5
2F93
331
1555E
  5
1555E
331
1C946
  5
1C993
331
15566
  5
15566
331
1C94E
  5
1D69D
331
1C98D
  5
1D6CE
331
1C995
  5
1D9A4
331
1C956
  5
1D6A5
331
1C95E
  5
1D6AD
331
1DC7D
  5
1DC7D
331
1C917
  5
1C958
331
1C966
  5
1D6B5
331
1C96E
  5
1D6BD
331
1DC85
  5
1DC85
331
1C93F
  5
1C98C
331
3807
  5
3895
331
1C947
  5
1C994
331
1C986
  5
1D6C9
331
15567
  5
15567
331
1C94F
  5
1D69E
331
1C98E
  5
1D6CF
331
1C8F8
  5
1C93C
331
1C957
  5
1D6A6
331
1C95F
  5
1D6AE
331
1DC76
  5
1DC76
331
35C8
  5
35D8
331
35D8
  5
3807
331
1C967
  5
1D6B6
331
1C96F
  5
1D6BE
331
1DC86
  5
1DC86
331
1C977
  5
1D6C4
331
1DC8E
  5
1DC8E
331
1C940
  5
1C98D
331
1C948
  5
1C995
331
15568
  5
15568
331
1C8F1
  5
1C8F1
331
1C950
  5
1D69F
331
1C98F
  5
1D6D0
331
1C8F9
  5
1C93E
331
1C958
  5
1D6A7
331
1DC77
  5
1DC77
331
1DC7F
  5
1DC7F
331
15523
  5
15523
331
1C960
  5
1D6AF
331
1C919
  5
1C95A
331
1C968
  5
1D6B7
331
1C970
  5
1D6BF
331
1DC87
  5
1DC87
331
1DC8F
  5
1DC8F
331
1DC97
  5
1DC97
331
1C941
  5
1C98E
331
1C980
  5
1D6C7
331
1C949
  5
1CBF0
331
15569
  5
15569
331
1C990
  5
1D6D1
331
1C8F2
  5
1C8F2
331
1C951
  5
1D6A0
331
1C8FA
  5
1C93F
331
1C959
  5
1D6A8
331
1DC78
  5
1DC78
331
1C961
  5
1D6B0
331
1C969
  5
1D6B8
331
1DC80
  5
1DC80
331
1C971
  5
1D6C0
331
1DC88
  5
1DC88
331
1DC90
  5
1DC90
331
2F93
  5
2FDE
331
1C942
  5
1C98F
331
4842
  5
4E94
331
1C94A
  5
1D321
331
1C989
  5
1D6CA
331
1556A
  5
1556A
331
1C991
  5
1D6D2
331
1C8F3
  5
1C8F3
331
1C952
  5
1D6A1
331
1C95A
  5
1D6A9
331
1DC79
  5
1DC79
331
1C962
  5
1D6B1
331
1C96A
  5
1D6B9
331
1DC81
  5
1DC81
331
1C972
  5
1D6C1
331
1C97A
  5
1D6C5
331
3943
  5
4842
331
1C943
  5
1C990
331
1C98A
  5
1D6CB
331
1C94B
  5
1D32B
331
1C992
  5
1D6D3
331
1C8F4
  5
1C8F4
331
1C953
  5
1D6A2
331
1C95B
  5
1D6AA
331
1DC7A
  5
1DC7A
331
15556
  5
15556
331
1C963
  5
1D6B2
331
1C91C
  5
1C95C
331
1C96B
  5
1D6BA
331
1DC82
  5
1DC82
331
1C973
  5
1D6C2
331
1DC8A
  5
1DC8A
  0
XRECORD
  5
1E442
102
{ACAD_REACTORS
330
1E441
102
}
330
1E441
100
AcDbXrecord
280
     1
 40
1527.0
  1
\pxqc;BQ LUO
  0
XRECORD
  5
1E444
102
{ACAD_REACTORS
330
1E443
102
}
330
1E443
100
AcDbXrecord
280
     1
 40
1262561.0
  1
\pxqc;档案员{\H0.7x;\P\Fromans|c134;Filing Clerk\fFangSong_GB2312|b0|i0|c134|p49; }
  0
XRECORD
  5
1E446
102
{ACAD_REACTORS
330
1E445
102
}
330
1E445
100
AcDbXrecord
280
     1
 40
650528.0
  1
\pxqc;日期{\Fromans|c134;/Date}
  0
XRECORD
  5
1E448
102
{ACAD_REACTORS
330
1E447
102
}
330
1E447
100
AcDbXrecord
280
     1
 40
1836818.0
  1
\pxsm0.7;{\fFangSong_GB2312|b0|i0|c134|p49;标准化}\PStand.
  0
XRECORD
  5
1E44A
102
{ACAD_REACTORS
330
1E449
102
}
330
1E449
100
AcDbXrecord
280
     1
 40
118135.0
  1
\pxsm0.7;签名\P{\Fromans|c134;Signature} 
  0
XRECORD
  5
1E44C
102
{ACAD_REACTORS
330
1E44B
102
}
330
1E44B
100
AcDbXrecord
280
     1
 40
108939.0
  1
\pxsm0.7,qc;处数\P{\Fromans|c134;Number }
  0
XRECORD
  5
1E44E
102
{ACAD_REACTORS
330
1E44D
102
}
330
1E44D
100
AcDbXrecord
280
     1
 40
125762.0
  1
\pxsm0.7;标记\P{\Fromans|c134;Mark}
  0
XRECORD
  5
1E450
102
{ACAD_REACTORS
330
1E44F
102
}
330
1E44F
100
AcDbXrecord
280
     1
 40
111973.0
  1
\pxsm0.7;审核\P{\Fromans|c134;Checked}
  0
XRECORD
  5
1E452
102
{ACAD_REACTORS
330
1E451
102
}
330
1E451
100
AcDbXrecord
280
     1
 40
137968.0
  1
\pxsm0.7;绘图\P{\Fromans|c134;Drawn\Ftxt|c134; }
  0
XRECORD
  5
1E454
102
{ACAD_REACTORS
330
1E453
102
}
330
1E453
100
AcDbXrecord
280
     1
 40
106320.0
  1
\pxsm0.7;批准\P{\Fromans|c134;Approved}
  0
XRECORD
  5
1E456
102
{ACAD_REACTORS
330
1E455
102
}
330
1E455
100
AcDbXrecord
280
     1
 40
127283.0
  1
\pxsm0.7;工艺\P{\Fromans|c134;Process}
  0
XRECORD
  5
1E458
102
{ACAD_REACTORS
330
1E457
102
}
330
1E457
100
AcDbXrecord
280
     1
 40
106220.0
  1
\pxsm0.7;日期\P{\Fromans|c134;Date}
  0
XRECORD
  5
1E440
102
{ACAD_REACTORS
330
1E43F
102
}
330
1E43F
100
AcDbXrecord
280
     1
 40
615117179.0
  1
\A1;\pxql;{\f仿宋_GB2312|b0|i0|c134|p49;技术参数}:\P\pq*;- {\f仿宋_GB2312|b0|i0|c134|p49;材料}: {\f仿宋_GB2312|b0|i0|c134|p49;铜合金}\P- {\f仿宋_GB2312|b0|i0|c134|p49;表面处理}: {\f仿宋_GB2312|b0|i0|c134|p49;镀银}\P\pql;- {\f仿宋_GB2312|b0|i0|c134|p49;额定电流}: 100A\P- {\f仿宋_GB23
  1
12|b0|i0|c134|p49;接触电阻}: ≤0.3mΩ\P- {\f仿宋_GB2312|b0|i0|c134|p49;线径范围}: 35mm{\H0.7x;\S2^ ;}\P- {\f仿宋_GB2312|b0|i0|c134|p49;最大电缆直径}: 14mm\P- {\f仿宋_GB2312|b0|i0|c134|p49;剥线长度}: 16mm\P- {\f仿宋_GB2312|b0|i0|c134|p49;可插拔次数}: {\f仿宋_GB2312|b0|i0|c134|p49;≥}500\
  1
P- {\f仿宋_GB2312|b0|i0|c134|p49;电缆绞线标准}: IEC 60228-5\P\pq*;\P\pql;Technical specification:\P- Material: copper alloy\P- Surface: hard-silver plated\P- Rated current: 100A\P- Contact resistance: ≤0.3mΩ\P- Wire gauge: 35mm{\H0.7x;\S2^ ;}\P- Max. insulati
  1
on diameter: 14mm\P- Stripping length: 16mm\P- Mating cycles: {\f仿宋_GB2312|b0|i0|c134|p49;≥}500\P- For stranded fine wire acc. to: IEC 60228-5
  0
DIMASSOC
  5
1C982
102
{ACAD_REACTORS
330
1C981
102
}
330
1C981
100
AcDbDimAssoc
330
1C980
 90
        3
 70
     0
 71
     0
  1
AcDbOsnapPointRef
 72
     1
331
1C8F6
 73
     2
 91
        0
 40
0.9999999999999998
 10
0.0
 20
0.0
 30
2.000000000000000E+50
 75
     0
  1
AcDbOsnapPointRef
 72
    13
331
1C8FA
 73
     2
 91
        0
 40
0.0
 10
0.0
 20
0.0
 30
2.000000000000000E+50
 75
     0
  0
DIMASSOC
  5
1C985
102
{ACAD_REACTORS
330
1C984
102
}
330
1C984
100
AcDbDimAssoc
330
1C983
 90
        3
 70
     0
 71
     0
  1
AcDbOsnapPointRef
 72
    10
331
1C967
 73
     2
 91
        0
 40
0.0402885135014592
 10
0.0
 20
0.0
 30
0.0
 75
     0
  1
AcDbOsnapPointRef
 72
     8
331
1C95D
 73
     2
 91
        0
 40
0.9597114864985407
 10
0.0
 20
0.0
 30
0.0
 75
     1
  1
AcDbOsnapPointRef
 72
    10
331
1C967
 73
     2
 91
        0
 40
0.0402885135014592
 10
0.0
 20
0.0
 30
0.0
 75
     0
  0
DIMASSOC
  5
1C988
102
{ACAD_REACTORS
330
1C987
102
}
330
1C987
100
AcDbDimAssoc
330
1C986
 90
        2
 70
     0
 71
     0
  1
AcDbOsnapPointRef
 72
    10
331
1C96D
 73
     2
 91
        0
 40
0.9037743849557495
 10
0.0
 20
0.0
 30
0.0
 75
     0
  0
LAYOUT
  5
1E
102
{ACAD_REACTORS
330
1A
102
}
330
1A
100
AcDbPlotSettings
  1

  2
none_device
  4

  6

 40
0.0
 41
0.0
 42
0.0
 43
0.0
 44
0.0
 45
0.0
 46
0.0
 47
0.0
 48
0.0
 49
0.0
140
0.0
141
0.0
142
1.0
143
1.0
 70
   688
 72
     0
 73
     0
 74
     5
  7

 75
    16
147
1.0
 76
     0
 77
     2
 78
   300
148
0.0
149
0.0
100
AcDbLayout
  1
Layout1
 70
     1
 71
     1
 10
0.0
 20
0.0
 11
12.0
 21
9.0
 12
0.0
 22
0.0
 32
0.0
 14
1.000000000000000E+20
 24
1.000000000000000E+20
 34
1.000000000000000E+20
 15
-1.000000000000000E+20
 25
-1.000000000000000E+20
 35
-1.000000000000000E+20
146
0.0
 13
0.0
 23
0.0
 33
0.0
 16
1.0
 26
0.0
 36
0.0
 17
0.0
 27
1.0
 37
0.0
 76
     0
330
1B
  0
LAYOUT
  5
26
102
{ACAD_REACTORS
330
1A
102
}
330
1A
100
AcDbPlotSettings
  1

  2
none_device
  4

  6

 40
0.0
 41
0.0
 42
0.0
 43
0.0
 44
0.0
 45
0.0
 46
0.0
 47
0.0
 48
0.0
 49
0.0
140
0.0
141
0.0
142
1.0
143
1.0
 70
   688
 72
     0
 73
     0
 74
     5
  7

 75
    16
147
1.0
 76
     0
 77
     2
 78
   300
148
0.0
149
0.0
100
AcDbLayout
  1
Layout2
 70
     1
 71
     2
 10
0.0
 20
0.0
 11
0.0
 21
0.0
 12
0.0
 22
0.0
 32
0.0
 14
0.0
 24
0.0
 34
0.0
 15
0.0
 25
0.0
 35
0.0
146
0.0
 13
0.0
 23
0.0
 33
0.0
 16
1.0
 26
0.0
 36
0.0
 17
0.0
 27
1.0
 37
0.0
 76
     0
330
23
  0
LAYOUT
  5
22
102
{ACAD_REACTORS
330
1A
102
}
330
1A
100
AcDbPlotSettings
  1

  2
Adobe PDF Converter.pc3
  4
A4
  6

 40
3.174999952316281
 41
3.174999952316281
 42
3.17498779296875
 43
3.175003051757812
 44
297.0318298339844
 45
209.9733276367186
 46
0.0000000000000076
 47
1.630241740247063
 48
246.9897427644609
 49
39.36804549891383
140
544.952097801264
141
244.7492402188181
142
1.0
143
1.025046328645055
 70
  3764
 72
     1
 73
     0
 74
     4
  7
monochrome.ctb
 75
     0
147
0.9755656618192436
 76
     1
 77
     2
 78
   300
148
-246.9897427644609
149
-39.36804549891383
100
AcDbLayout
  1
Model
 70
     1
 71
     0
 10
0.0
 20
0.0
 11
12.0
 21
9.0
 12
0.0
 22
0.0
 32
0.0
 14
1.000000000000000E+20
 24
1.000000000000000E+20
 34
1.000000000000000E+20
 15
-1.000000000000000E+20
 25
-1.000000000000000E+20
 35
-1.000000000000000E+20
146
0.0
 13
0.0
 23
0.0
 33
0.0
 16
1.0
 26
0.0
 36
0.0
 17
0.0
 27
1.0
 37
0.0
 76
     0
330
1F
331
29
1001
ACAD_PSEXT
1000
Adobe PDF Converter.pc3
1000
Adobe PDF Converter
1000
桌面\*.pdf
1000

1070
     0
  0
MATERIAL
  5
4FEE
102
{ACAD_XDICTIONARY
360
4FEF
102
}
102
{ACAD_REACTORS
330
4FE5
102
}
330
4FE5
100
AcDbMaterial
  1
ByBlock
 72
     0
 43
0.0208333333333333
 43
0.0
 43
0.0
 43
0.0
 43
0.0
 43
0.0208333333333333
 43
0.0
 43
0.0
 43
0.0
 43
0.0
 43
1.0
 43
0.0
 43
0.0
 43
0.0
 43
0.0
 43
1.0
 77
     0
 47
0.0208333333333333
 47
0.0
 47
0.0
 47
0.0
 47
0.0
 47
0.0208333333333333
 47
0.0
 47
0.0
 47
0.0
 47
0.0
 47
1.0
 47
0.0
 47
0.0
 47
0.0
 47
0.0
 47
1.0
171
     0
 49
0.0208333333333333
 49
0.0
 49
0.0
 49
0.0
 49
0.0
 49
0.0208333333333333
 49
0.0
 49
0.0
 49
0.0
 49
0.0
 49
1.0
 49
0.0
 49
0.0
 49
0.0
 49
0.0
 49
1.0
175
     0
142
0.0208333333333333
142
0.0
142
0.0
142
0.0
142
0.0
142
0.0208333333333333
142
0.0
142
0.0
142
0.0
142
0.0
142
1.0
142
0.0
142
0.0
142
0.0
142
0.0
142
1.0
179
     0
144
0.0208333333333333
144
0.0
144
0.0
144
0.0
144
0.0
144
0.0208333333333333
144
0.0
144
0.0
144
0.0
144
0.0
144
1.0
144
0.0
144
0.0
144
0.0
144
0.0
144
1.0
147
0.0208333333333333
147
0.0
147
0.0
147
0.0
147
0.0
147
0.0208333333333333
147
0.0
147
0.0
147
0.0
147
0.0
147
1.0
147
0.0
147
0.0
147
0.0
147
0.0
147
1.0
  0
MATERIAL
  5
4FE6
102
{ACAD_XDICTIONARY
360
4FE7
102
}
102
{ACAD_REACTORS
330
4FE5
102
}
330
4FE5
100
AcDbMaterial
  1
ByLayer
 72
     0
 43
0.0208333333333333
 43
0.0
 43
0.0
 43
0.0
 43
0.0
 43
0.0208333333333333
 43
0.0
 43
0.0
 43
0.0
 43
0.0
 43
1.0
 43
0.0
 43
0.0
 43
0.0
 43
0.0
 43
1.0
 77
     0
 47
0.0208333333333333
 47
0.0
 47
0.0
 47
0.0
 47
0.0
 47
0.0208333333333333
 47
0.0
 47
0.0
 47
0.0
 47
0.0
 47
1.0
 47
0.0
 47
0.0
 47
0.0
 47
0.0
 47
1.0
171
     0
 49
0.0208333333333333
 49
0.0
 49
0.0
 49
0.0
 49
0.0
 49
0.0208333333333333
 49
0.0
 49
0.0
 49
0.0
 49
0.0
 49
1.0
 49
0.0
 49
0.0
 49
0.0
 49
0.0
 49
1.0
175
     0
142
0.0208333333333333
142
0.0
142
0.0
142
0.0
142
0.0
142
0.0208333333333333
142
0.0
142
0.0
142
0.0
142
0.0
142
1.0
142
0.0
142
0.0
142
0.0
142
0.0
142
1.0
179
     0
144
0.0208333333333333
144
0.0
144
0.0
144
0.0
144
0.0
144
0.0208333333333333
144
0.0
144
0.0
144
0.0
144
0.0
144
1.0
144
0.0
144
0.0
144
0.0
144
0.0
144
1.0
147
0.0208333333333333
147
0.0
147
0.0
147
0.0
147
0.0
147
0.0208333333333333
147
0.0
147
0.0
147
0.0
147
0.0
147
1.0
147
0.0
147
0.0
147
0.0
147
0.0
147
1.0
  0
MATERIAL
  5
4FF6
102
{ACAD_XDICTIONARY
360
4FF7
102
}
102
{ACAD_REACTORS
330
4FE5
102
}
330
4FE5
100
AcDbMaterial
  1
Global
 72
     0
 43
0.0208333333333333
 43
0.0
 43
0.0
 43
0.0
 43
0.0
 43
0.0208333333333333
 43
0.0
 43
0.0
 43
0.0
 43
0.0
 43
1.0
 43
0.0
 43
0.0
 43
0.0
 43
0.0
 43
1.0
 77
     0
 47
0.0208333333333333
 47
0.0
 47
0.0
 47
0.0
 47
0.0
 47
0.0208333333333333
 47
0.0
 47
0.0
 47
0.0
 47
0.0
 47
1.0
 47
0.0
 47
0.0
 47
0.0
 47
0.0
 47
1.0
171
     0
 49
0.0208333333333333
 49
0.0
 49
0.0
 49
0.0
 49
0.0
 49
0.0208333333333333
 49
0.0
 49
0.0
 49
0.0
 49
0.0
 49
1.0
 49
0.0
 49
0.0
 49
0.0
 49
0.0
 49
1.0
175
     0
142
0.0208333333333333
142
0.0
142
0.0
142
0.0
142
0.0
142
0.0208333333333333
142
0.0
142
0.0
142
0.0
142
0.0
142
1.0
142
0.0
142
0.0
142
0.0
142
0.0
142
1.0
179
     0
144
0.0208333333333333
144
0.0
144
0.0
144
0.0
144
0.0
144
0.0208333333333333
144
0.0
144
0.0
144
0.0
144
0.0
144
1.0
144
0.0
144
0.0
144
0.0
144
0.0
144
1.0
147
0.0208333333333333
147
0.0
147
0.0
147
0.0
147
0.0
147
0.0208333333333333
147
0.0
147
0.0
147
0.0
147
0.0
147
1.0
147
0.0
147
0.0
147
0.0
147
0.0
147
1.0
  0
MLEADERSTYLE
  5
5023
102
{ACAD_REACTORS
330
5022
102
}
330
5022
100
AcDbMLeaderStyle
170
     2
171
     1
172
     0
 90
        2
 40
0.0
 41
0.0
173
     1
 91
-1056964608
340
14
 92
       -2
290
     1
 42
0.09
291
     1
 43
0.36
  3
Standard
 44
0.18
300

342
11
174
     1
178
     6
175
     1
176
     0
 93
-1056964608
 45
0.18
292
     0
297
     0
 46
0.18
 94
-1056964608
 47
1.0
 49
1.0
140
1.0
293
     1
141
0.0
294
     1
177
     0
142
1.0
295
     0
296
     0
143
0.125
1001
ACAD_MLEADERVER
1070
     2
  0
MLINESTYLE
  5
18
102
{ACAD_REACTORS
330
17
102
}
330
17
100
AcDbMlineStyle
  2
STANDARD
 70
     0
  3

 62
   256
 51
90.0
 52
90.0
 71
     2
 49
0.5
 62
   256
  6
BYLAYER
 49
-0.5
 62
   256
  6
BYLAYER
  0
ACDBPLACEHOLDER
  5
F
102
{ACAD_REACTORS
330
E
102
}
330
E
  0
MENTALRAYRENDERSETTINGS
  5
6538
102
{ACAD_REACTORS
330
6537
102
}
330
6537
100
AcDbRenderSettings
 90
        2
  1
中
290
     1
290
     1
290
     1
290
     1
  1

  1
渲染质量好于“低级”。包括纹理过滤并且强制双面处于激活状态。处理中等级反锯齿和 5 反射/折射的光线跟踪深度。
 90
        0
100
AcDbMentalRayRenderSettings
 90
        2
 90
        0
 90
        1
 70
     2
 40
3.0
 40
3.0
 40
0.0500000007450581
 40
0.0500000007450581
 40
0.0500000007450581
 40
0.0500000007450581
 70
     0
290
     0
290
     1
 90
        5
 90
        5
 90
        5
290
     0
 90
      500
290
     0
 40
1.0
 90
    10000
 90
        5
 90
        5
 90
        5
290
     0
 90
      200
290
     0
290
     0
290
     0
 40
0.1
 40
1.0
 40
1500.0
 70
     0
 70
     0
 40
10.0
 70
     0
 70
     0
290
     0
  1

 90
       32
 70
     0
 90
     1048
290
     0
 40
1.0
  0
SCALE
  5
5001
102
{ACAD_REACTORS
330
5000
102
}
330
5000
100
AcDbScale
 70
     0
300
1:1
140
1.0
141
1.0
290
     1
  0
SCALE
  5
5002
102
{ACAD_REACTORS
330
5000
102
}
330
5000
100
AcDbScale
 70
     0
300
1:2
140
1.0
141
2.0
290
     0
  0
SCALE
  5
5003
102
{ACAD_REACTORS
330
5000
102
}
330
5000
100
AcDbScale
 70
     0
300
1:4
140
1.0
141
4.0
290
     0
  0
SCALE
  5
5004
102
{ACAD_REACTORS
330
5000
102
}
330
5000
100
AcDbScale
 70
     0
300
1:5
140
1.0
141
5.0
290
     0
  0
SCALE
  5
5005
102
{ACAD_REACTORS
330
5000
102
}
330
5000
100
AcDbScale
 70
     0
300
1:8
140
1.0
141
8.0
290
     0
  0
SCALE
  5
5006
102
{ACAD_REACTORS
330
5000
102
}
330
5000
100
AcDbScale
 70
     0
300
1:10
140
1.0
141
10.0
290
     0
  0
SCALE
  5
5007
102
{ACAD_REACTORS
330
5000
102
}
330
5000
100
AcDbScale
 70
     0
300
1:16
140
1.0
141
16.0
290
     0
  0
SCALE
  5
5008
102
{ACAD_REACTORS
330
5000
102
}
330
5000
100
AcDbScale
 70
     0
300
1:20
140
1.0
141
20.0
290
     0
  0
SCALE
  5
5009
102
{ACAD_REACTORS
330
5000
102
}
330
5000
100
AcDbScale
 70
     0
300
1:30
140
1.0
141
30.0
290
     0
  0
SCALE
  5
500A
102
{ACAD_REACTORS
330
5000
102
}
330
5000
100
AcDbScale
 70
     0
300
1:40
140
1.0
141
40.0
290
     0
  0
SCALE
  5
500B
102
{ACAD_REACTORS
330
5000
102
}
330
5000
100
AcDbScale
 70
     0
300
1:50
140
1.0
141
50.0
290
     0
  0
SCALE
  5
500C
102
{ACAD_REACTORS
330
5000
102
}
330
5000
100
AcDbScale
 70
     0
300
1:100
140
1.0
141
100.0
290
     0
  0
SCALE
  5
500D
102
{ACAD_REACTORS
330
5000
102
}
330
5000
100
AcDbScale
 70
     0
300
2:1
140
2.0
141
1.0
290
     0
  0
SCALE
  5
500E
102
{ACAD_REACTORS
330
5000
102
}
330
5000
100
AcDbScale
 70
     0
300
4:1
140
4.0
141
1.0
290
     0
  0
SCALE
  5
500F
102
{ACAD_REACTORS
330
5000
102
}
330
5000
100
AcDbScale
 70
     0
300
8:1
140
8.0
141
1.0
290
     0
  0
SCALE
  5
5010
102
{ACAD_REACTORS
330
5000
102
}
330
5000
100
AcDbScale
 70
     0
300
10:1
140
10.0
141
1.0
290
     0
  0
SCALE
  5
5011
102
{ACAD_REACTORS
330
5000
102
}
330
5000
100
AcDbScale
 70
     0
300
100:1
140
100.0
141
1.0
290
     0
  0
SCALE
  5
5012
102
{ACAD_REACTORS
330
5000
102
}
330
5000
100
AcDbScale
 70
     0
300
1/128" = 1'-0"
140
0.0078125
141
12.0
290
     0
  0
SCALE
  5
5013
102
{ACAD_REACTORS
330
5000
102
}
330
5000
100
AcDbScale
 70
     0
300
1/64" = 1'-0"
140
0.015625
141
12.0
290
     0
  0
SCALE
  5
5014
102
{ACAD_REACTORS
330
5000
102
}
330
5000
100
AcDbScale
 70
     0
300
1/32" = 1'-0"
140
0.03125
141
12.0
290
     0
  0
SCALE
  5
5015
102
{ACAD_REACTORS
330
5000
102
}
330
5000
100
AcDbScale
 70
     0
300
1/16" = 1'-0"
140
0.0625
141
12.0
290
     0
  0
SCALE
  5
5016
102
{ACAD_REACTORS
330
5000
102
}
330
5000
100
AcDbScale
 70
     0
300
3/32" = 1'-0"
140
0.09375
141
12.0
290
     0
  0
SCALE
  5
5017
102
{ACAD_REACTORS
330
5000
102
}
330
5000
100
AcDbScale
 70
     0
300
1/8" = 1'-0"
140
0.125
141
12.0
290
     0
  0
SCALE
  5
5018
102
{ACAD_REACTORS
330
5000
102
}
330
5000
100
AcDbScale
 70
     0
300
3/16" = 1'-0"
140
0.1875
141
12.0
290
     0
  0
SCALE
  5
5019
102
{ACAD_REACTORS
330
5000
102
}
330
5000
100
AcDbScale
 70
     0
300
1/4" = 1'-0"
140
0.25
141
12.0
290
     0
  0
SCALE
  5
501A
102
{ACAD_REACTORS
330
5000
102
}
330
5000
100
AcDbScale
 70
     0
300
3/8" = 1'-0"
140
0.375
141
12.0
290
     0
  0
SCALE
  5
501B
102
{ACAD_REACTORS
330
5000
102
}
330
5000
100
AcDbScale
 70
     0
300
1/2" = 1'-0"
140
0.5
141
12.0
290
     0
  0
SCALE
  5
501C
102
{ACAD_REACTORS
330
5000
102
}
330
5000
100
AcDbScale
 70
     0
300
3/4" = 1'-0"
140
0.75
141
12.0
290
     0
  0
SCALE
  5
501D
102
{ACAD_REACTORS
330
5000
102
}
330
5000
100
AcDbScale
 70
     0
300
1" = 1'-0"
140
1.0
141
12.0
290
     0
  0
SCALE
  5
501E
102
{ACAD_REACTORS
330
5000
102
}
330
5000
100
AcDbScale
 70
     0
300
1-1/2" = 1'-0"
140
1.5
141
12.0
290
     0
  0
SCALE
  5
501F
102
{ACAD_REACTORS
330
5000
102
}
330
5000
100
AcDbScale
 70
     0
300
3" = 1'-0"
140
3.0
141
12.0
290
     0
  0
SCALE
  5
5020
102
{ACAD_REACTORS
330
5000
102
}
330
5000
100
AcDbScale
 70
     0
300
6" = 1'-0"
140
6.0
141
12.0
290
     0
  0
SCALE
  5
5021
102
{ACAD_REACTORS
330
5000
102
}
330
5000
100
AcDbScale
 70
     0
300
1'-0" = 1'-0"
140
12.0
141
12.0
290
     0
  0
TABLESTYLE
  5
4FFF
102
{ACAD_XDICTIONARY
360
50D6
102
}
102
{ACAD_REACTORS
330
4FE3
102
}
330
4FE3
100
AcDbTableStyle
  3
Standard
 70
     0
 71
     0
 40
0.06
 41
0.06
280
     0
281
     0
  7
Standard
140
0.18
170
     2
 62
     0
 63
     7
283
     0
 90
      512
 91
        0
  1

274
    -2
284
     1
 64
     0
275
    -2
285
     1
 65
     0
276
    -2
286
     1
 66
     0
277
    -2
287
     1
 67
     0
278
    -2
288
     1
 68
     0
279
    -2
289
     1
 69
     0
  7
Standard
140
0.25
170
     5
 62
     0
 63
     7
283
     0
 90
      512
 91
        0
  1

274
    -2
284
     1
 64
     0
275
    -2
285
     1
 65
     0
276
    -2
286
     1
 66
     0
277
    -2
287
     1
 67
     0
278
    -2
288
     1
 68
     0
279
    -2
289
     1
 69
     0
  7
Standard
140
0.18
170
     5
 62
     0
 63
     7
283
     0
 90
      512
 91
        0
  1

274
    -2
284
     1
 64
     0
275
    -2
285
     1
 65
     0
276
    -2
286
     1
 66
     0
277
    -2
287
     1
 67
     0
278
    -2
288
     1
 68
     0
279
    -2
289
     1
 69
     0
  0
VISUALSTYLE
  5
2F
102
{ACAD_REACTORS
330
2A
102
}
330
2A
100
AcDbVisualStyle
  2
2dWireframe
 70
     4
 71
     0
 72
     2
 73
     0
 90
        0
 40
-0.6
 41
-30.0
 62
     5
 63
     7
 74
     1
 91
        4
 64
     7
 65
   257
 75
     1
175
     1
 42
1.0
 92
        0
 66
   257
 43
1.0
 76
     1
 77
     6
 78
     2
 67
     7
 79
     5
170
     0
171
     0
290
     0
174
     0
 93
        1
 44
0.0
173
     0
291
     0
 45
0.0
1001
ACAD
1000
AcDbSavedByObjectVersion
1070
     0
1000
AcDbSavedByObjectVersion
1070
     0
1000
AcDbSavedByObjectVersion
1070
     0
1000
AcDbSavedByObjectVersion
1070
     0
1000
AcDbSavedByObjectVersion
1070
     0
1000
AcDbSavedByObjectVersion
1070
     0
1000
AcDbSavedByObjectVersion
1070
     0
1000
AcDbSavedByObjectVersion
1070
     0
1000
AcDbSavedByObjectVersion
1070
     0
1000
AcDbSavedByObjectVersion
1070
     0
1000
AcDbSavedByObjectVersion
1070
     0
1000
AcDbSavedByObjectVersion
1070
     0
1000
AcDbSavedByObjectVersion
1070
     0
1000
AcDbSavedByObjectVersion
1070
     0
1000
AcDbSavedByObjectVersion
1070
     0
1000
AcDbSavedByObjectVersion
1070
     0
1000
AcDbSavedByObjectVersion
1070
     0
1000
AcDbSavedByObjectVersion
1070
     0
1000
AcDbSavedByObjectVersion
1070
     0
1000
AcDbSavedByObjectVersion
1070
     0
1000
AcDbSavedByObjectVersion
1070
     0
1000
AcDbSavedByObjectVersion
1070
     0
1000
AcDbSavedByObjectVersion
1070
     0
1000
AcDbSavedByObjectVersion
1070
     0
1000
AcDbSavedByObjectVersion
1070
     0
1000
AcDbSavedByObjectVersion
1070
     0
1000
AcDbSavedByObjectVersion
1070
     0
1000
AcDbSavedByObjectVersion
1070
     0
1000
AcDbSavedByObjectVersion
1070
     0
1000
AcDbSavedByObjectVersion
1070
     0
1000
AcDbSavedByObjectVersion
1070
     0
1000
AcDbSavedByObjectVersion
1070
     0
1000
AcDbSavedByObjectVersion
1070
     0
1000
AcDbSavedByObjectVersion
1070
     0
1000
AcDbSavedByObjectVersion
1070
     0
1000
AcDbSavedByObjectVersion
1070
     0
1000
AcDbSavedByObjectVersion
1070
     0
1000
AcDbSavedByObjectVersion
1070
     0
1000
AcDbSavedByObjectVersion
1070
     0
1000
AcDbSavedByObjectVersion
1070
     0
1000
AcDbSavedByObjectVersion
1070
     0
1000
AcDbSavedByObjectVersion
1070
     0
1000
AcDbSavedByObjectVersion
1070
     0
1000
AcDbSavedByObjectVersion
1070
     0
1000
AcDbSavedByObjectVersion
1070
     0
1000
AcDbSavedByObjectVersion
1070
     0
1000
AcDbSavedByObjectVersion
1070
     0
1000
AcDbSavedByObjectVersion
1070
     0
1000
AcDbSavedByObjectVersion
1070
     0
1000
AcDbSavedByObjectVersion
1070
     0
1000
AcDbSavedByObjectVersion
1070
     0
1000
AcDbSavedByObjectVersion
1070
     0
1000
AcDbSavedByObjectVersion
1070
     0
1000
AcDbSavedByObjectVersion
1070
     0
1000
AcDbSavedByObjectVersion
1070
     0
1000
AcDbSavedByObjectVersion
1070
     0
1000
AcDbSavedByObjectVersion
1070
     0
1000
AcDbSavedByObjectVersion
1070
     0
1000
AcDbSavedByObjectVersion
1070
     0
1000
AcDbSavedByObjectVersion
1070
     0
1000
AcDbSavedByObjectVersion
1070
     0
1000
AcDbSavedByObjectVersion
1070
     0
1000
AcDbSavedByObjectVersion
1070
     0
1000
AcDbSavedByObjectVersion
1070
     0
1000
AcDbSavedByObjectVersion
1070
     0
  0
VISUALSTYLE
  5
31
102
{ACAD_REACTORS
330
2A
102
}
330
2A
100
AcDbVisualStyle
  2
3D Hidden
 70
     6
 71
     1
 72
     2
 73
     2
 90
        0
 40
-0.6
 41
-30.0
 62
     5
 63
     7
 74
     2
 91
        2
 64
     7
 65
   257
 75
     2
175
     1
 42
40.0
 92
        0
 66
   257
 43
1.0
 76
     1
 77
     6
 78
     2
 67
     7
 79
     3
170
     0
171
     0
290
     0
174
     0
 93
        1
 44
0.0
173
     0
291
     0
 45
0.0
1001
ACAD
1000
AcDbSavedByObjectVersion
1070
     0
1000
AcDbSavedByObjectVersion
1070
     0
1000
AcDbSavedByObjectVersion
1070
     0
1000
AcDbSavedByObjectVersion
1070
     0
1000
AcDbSavedByObjectVersion
1070
     0
1000
AcDbSavedByObjectVersion
1070
     0
1000
AcDbSavedByObjectVersion
1070
     0
1000
AcDbSavedByObjectVersion
1070
     0
1000
AcDbSavedByObjectVersion
1070
     0
1000
AcDbSavedByObjectVersion
1070
     0
1000
AcDbSavedByObjectVersion
1070
     0
1000
AcDbSavedByObjectVersion
1070
     0
1000
AcDbSavedByObjectVersion
1070
     0
1000
AcDbSavedByObjectVersion
1070
     0
1000
AcDbSavedByObjectVersion
1070
     0
1000
AcDbSavedByObjectVersion
1070
     0
1000
AcDbSavedByObjectVersion
1070
     0
1000
AcDbSavedByObjectVersion
1070
     0
1000
AcDbSavedByObjectVersion
1070
     0
1000
AcDbSavedByObjectVersion
1070
     0
1000
AcDbSavedByObjectVersion
1070
     0
1000
AcDbSavedByObjectVersion
1070
     0
1000
AcDbSavedByObjectVersion
1070
     0
1000
AcDbSavedByObjectVersion
1070
     0
1000
AcDbSavedByObjectVersion
1070
     0
1000
AcDbSavedByObjectVersion
1070
     0
1000
AcDbSavedByObjectVersion
1070
     0
1000
AcDbSavedByObjectVersion
1070
     0
1000
AcDbSavedByObjectVersion
1070
     0
1000
AcDbSavedByObjectVersion
1070
     0
1000
AcDbSavedByObjectVersion
1070
     0
1000
AcDbSavedByObjectVersion
1070
     0
1000
AcDbSavedByObjectVersion
1070
     0
1000
AcDbSavedByObjectVersion
1070
     0
1000
AcDbSavedByObjectVersion
1070
     0
1000
AcDbSavedByObjectVersion
1070
     0
1000
AcDbSavedByObjectVersion
1070
     0
1000
AcDbSavedByObjectVersion
1070
     0
1000
AcDbSavedByObjectVersion
1070
     0
1000
AcDbSavedByObjectVersion
1070
     0
1000
AcDbSavedByObjectVersion
1070
     0
1000
AcDbSavedByObjectVersion
1070
     0
1000
AcDbSavedByObjectVersion
1070
     0
1000
AcDbSavedByObjectVersion
1070
     0
1000
AcDbSavedByObjectVersion
1070
     0
1000
AcDbSavedByObjectVersion
1070
     0
1000
AcDbSavedByObjectVersion
1070
     0
1000
AcDbSavedByObjectVersion
1070
     0
1000
AcDbSavedByObjectVersion
1070
     0
1000
AcDbSavedByObjectVersion
1070
     0
1000
AcDbSavedByObjectVersion
1070
     0
1000
AcDbSavedByObjectVersion
1070
     0
1000
AcDbSavedByObjectVersion
1070
     0
1000
AcDbSavedByObjectVersion
1070
     0
1000
AcDbSavedByObjectVersion
1070
     0
1000
AcDbSavedByObjectVersion
1070
     0
1000
AcDbSavedByObjectVersion
1070
     0
1000
AcDbSavedByObjectVersion
1070
     0
1000
AcDbSavedByObjectVersion
1070
     0
1000
AcDbSavedByObjectVersion
1070
     0
1000
AcDbSavedByObjectVersion
1070
     0
1000
AcDbSavedByObjectVersion
1070
     0
1000
AcDbSavedByObjectVersion
1070
     0
1000
AcDbSavedByObjectVersion
1070
     0
1000
AcDbSavedByObjectVersion
1070
     0
  0
VISUALSTYLE
  5
30
102
{ACAD_REACTORS
330
2A
102
}
330
2A
100
AcDbVisualStyle
  2
3dWireframe
 70
     5
 71
     0
 72
     2
 73
     0
 90
        0
 40
-0.6
 41
-30.0
 62
     5
 63
     7
 74
     1
 91
        4
 64
     7
 65
   257
 75
     1
175
     1
 42
1.0
 92
        0
 66
   257
 43
1.0
 76
     1
 77
     6
 78
     2
 67
     7
 79
     5
170
     0
171
     0
290
     0
174
     0
 93
        1
 44
0.0
173
     0
291
     0
 45
0.0
1001
ACAD
1000
AcDbSavedByObjectVersion
1070
     0
1000
AcDbSavedByObjectVersion
1070
     0
1000
AcDbSavedByObjectVersion
1070
     0
1000
AcDbSavedByObjectVersion
1070
     0
1000
AcDbSavedByObjectVersion
1070
     0
1000
AcDbSavedByObjectVersion
1070
     0
1000
AcDbSavedByObjectVersion
1070
     0
1000
AcDbSavedByObjectVersion
1070
     0
1000
AcDbSavedByObjectVersion
1070
     0
1000
AcDbSavedByObjectVersion
1070
     0
1000
AcDbSavedByObjectVersion
1070
     0
1000
AcDbSavedByObjectVersion
1070
     0
1000
AcDbSavedByObjectVersion
1070
     0
1000
AcDbSavedByObjectVersion
1070
     0
1000
AcDbSavedByObjectVersion
1070
     0
1000
AcDbSavedByObjectVersion
1070
     0
1000
AcDbSavedByObjectVersion
1070
     0
1000
AcDbSavedByObjectVersion
1070
     0
1000
AcDbSavedByObjectVersion
1070
     0
1000
AcDbSavedByObjectVersion
1070
     0
1000
AcDbSavedByObjectVersion
1070
     0
1000
AcDbSavedByObjectVersion
1070
     0
1000
AcDbSavedByObjectVersion
1070
     0
1000
AcDbSavedByObjectVersion
1070
     0
1000
AcDbSavedByObjectVersion
1070
     0
1000
AcDbSavedByObjectVersion
1070
     0
1000
AcDbSavedByObjectVersion
1070
     0
1000
AcDbSavedByObjectVersion
1070
     0
1000
AcDbSavedByObjectVersion
1070
     0
1000
AcDbSavedByObjectVersion
1070
     0
1000
AcDbSavedByObjectVersion
1070
     0
1000
AcDbSavedByObjectVersion
1070
     0
1000
AcDbSavedByObjectVersion
1070
     0
1000
AcDbSavedByObjectVersion
1070
     0
1000
AcDbSavedByObjectVersion
1070
     0
1000
AcDbSavedByObjectVersion
1070
     0
1000
AcDbSavedByObjectVersion
1070
     0
1000
AcDbSavedByObjectVersion
1070
     0
1000
AcDbSavedByObjectVersion
1070
     0
1000
AcDbSavedByObjectVersion
1070
     0
1000
AcDbSavedByObjectVersion
1070
     0
1000
AcDbSavedByObjectVersion
1070
     0
1000
AcDbSavedByObjectVersion
1070
     0
1000
AcDbSavedByObjectVersion
1070
     0
1000
AcDbSavedByObjectVersion
1070
     0
1000
AcDbSavedByObjectVersion
1070
     0
1000
AcDbSavedByObjectVersion
1070
     0
1000
AcDbSavedByObjectVersion
1070
     0
1000
AcDbSavedByObjectVersion
1070
     0
1000
AcDbSavedByObjectVersion
1070
     0
1000
AcDbSavedByObjectVersion
1070
     0
1000
AcDbSavedByObjectVersion
1070
     0
1000
AcDbSavedByObjectVersion
1070
     0
1000
AcDbSavedByObjectVersion
1070
     0
1000
AcDbSavedByObjectVersion
1070
     0
1000
AcDbSavedByObjectVersion
1070
     0
1000
AcDbSavedByObjectVersion
1070
     0
1000
AcDbSavedByObjectVersion
1070
     0
1000
AcDbSavedByObjectVersion
1070
     0
1000
AcDbSavedByObjectVersion
1070
     0
1000
AcDbSavedByObjectVersion
1070
     0
1000
AcDbSavedByObjectVersion
1070
     0
1000
AcDbSavedByObjectVersion
1070
     0
1000
AcDbSavedByObjectVersion
1070
     0
1000
AcDbSavedByObjectVersion
1070
     0
  0
VISUALSTYLE
  5
32
102
{ACAD_REACTORS
330
2A
102
}
330
2A
100
AcDbVisualStyle
  2
Basic
 70
     7
 71
     1
 72
     0
 73
     1
 90
        0
 40
-0.6
 41
-30.0
 62
     5
 63
     7
 74
     0
 91
        4
 64
     7
 65
   257
 75
     1
175
     1
 42
1.0
 92
        8
 66
     7
 43
1.0
 76
     1
 77
     6
 78
     2
 67
     7
 79
     5
170
     0
171
     0
290
     0
174
     0
 93
        1
 44
0.0
173
     0
291
     1
 45
0.0
1001
ACAD
1000
AcDbSavedByObjectVersion
1070
     0
1000
AcDbSavedByObjectVersion
1070
     0
1000
AcDbSavedByObjectVersion
1070
     0
1000
AcDbSavedByObjectVersion
1070
     0
1000
AcDbSavedByObjectVersion
1070
     0
1000
AcDbSavedByObjectVersion
1070
     0
1000
AcDbSavedByObjectVersion
1070
     0
1000
AcDbSavedByObjectVersion
1070
     0
1000
AcDbSavedByObjectVersion
1070
     0
1000
AcDbSavedByObjectVersion
1070
     0
1000
AcDbSavedByObjectVersion
1070
     0
1000
AcDbSavedByObjectVersion
1070
     0
1000
AcDbSavedByObjectVersion
1070
     0
1000
AcDbSavedByObjectVersion
1070
     0
1000
AcDbSavedByObjectVersion
1070
     0
1000
AcDbSavedByObjectVersion
1070
     0
1000
AcDbSavedByObjectVersion
1070
     0
1000
AcDbSavedByObjectVersion
1070
     0
1000
AcDbSavedByObjectVersion
1070
     0
1000
AcDbSavedByObjectVersion
1070
     0
1000
AcDbSavedByObjectVersion
1070
     0
1000
AcDbSavedByObjectVersion
1070
     0
1000
AcDbSavedByObjectVersion
1070
     0
1000
AcDbSavedByObjectVersion
1070
     0
1000
AcDbSavedByObjectVersion
1070
     0
1000
AcDbSavedByObjectVersion
1070
     0
1000
AcDbSavedByObjectVersion
1070
     0
1000
AcDbSavedByObjectVersion
1070
     0
1000
AcDbSavedByObjectVersion
1070
     0
1000
AcDbSavedByObjectVersion
1070
     0
1000
AcDbSavedByObjectVersion
1070
     0
1000
AcDbSavedByObjectVersion
1070
     0
1000
AcDbSavedByObjectVersion
1070
     0
1000
AcDbSavedByObjectVersion
1070
     0
1000
AcDbSavedByObjectVersion
1070
     0
1000
AcDbSavedByObjectVersion
1070
     0
1000
AcDbSavedByObjectVersion
1070
     0
1000
AcDbSavedByObjectVersion
1070
     0
1000
AcDbSavedByObjectVersion
1070
     0
1000
AcDbSavedByObjectVersion
1070
     0
1000
AcDbSavedByObjectVersion
1070
     0
1000
AcDbSavedByObjectVersion
1070
     0
1000
AcDbSavedByObjectVersion
1070
     0
1000
AcDbSavedByObjectVersion
1070
     0
1000
AcDbSavedByObjectVersion
1070
     0
1000
AcDbSavedByObjectVersion
1070
     0
1000
AcDbSavedByObjectVersion
1070
     0
1000
AcDbSavedByObjectVersion
1070
     0
1000
AcDbSavedByObjectVersion
1070
     0
1000
AcDbSavedByObjectVersion
1070
     0
1000
AcDbSavedByObjectVersion
1070
     0
1000
AcDbSavedByObjectVersion
1070
     0
1000
AcDbSavedByObjectVersion
1070
     0
1000
AcDbSavedByObjectVersion
1070
     0
1000
AcDbSavedByObjectVersion
1070
     0
1000
AcDbSavedByObjectVersion
1070
     0
1000
AcDbSavedByObjectVersion
1070
     0
1000
AcDbSavedByObjectVersion
1070
     0
1000
AcDbSavedByObjectVersion
1070
     0
1000
AcDbSavedByObjectVersion
1070
     0
1000
AcDbSavedByObjectVersion
1070
     0
1000
AcDbSavedByObjectVersion
1070
     0
1000
AcDbSavedByObjectVersion
1070
     0
1000
AcDbSavedByObjectVersion
1070
     0
1000
AcDbSavedByObjectVersion
1070
     0
  0
VISUALSTYLE
  5
36
102
{ACAD_REACTORS
330
2A
102
}
330
2A
100
AcDbVisualStyle
  2
Brighten
 70
    12
 71
     2
 72
     2
 73
     0
 90
        0
 40
-0.6
 41
-30.0
 62
     5
 63
     7
 74
     1
 91
        4
 64
     7
 65
   257
 75
     1
175
     1
 42
1.0
 92
        8
 66
     7
 43
1.0
 76
     1
 77
     6
 78
     2
 67
     7
 79
     5
170
     0
171
     0
290
     0
174
     0
 93
        1
 44
50.0
173
     0
291
     1
 45
0.0
1001
ACAD
1000
AcDbSavedByObjectVersion
1070
     0
1000
AcDbSavedByObjectVersion
1070
     0
1000
AcDbSavedByObjectVersion
1070
     0
1000
AcDbSavedByObjectVersion
1070
     0
1000
AcDbSavedByObjectVersion
1070
     0
1000
AcDbSavedByObjectVersion
1070
     0
1000
AcDbSavedByObjectVersion
1070
     0
1000
AcDbSavedByObjectVersion
1070
     0
1000
AcDbSavedByObjectVersion
1070
     0
1000
AcDbSavedByObjectVersion
1070
     0
1000
AcDbSavedByObjectVersion
1070
     0
1000
AcDbSavedByObjectVersion
1070
     0
1000
AcDbSavedByObjectVersion
1070
     0
1000
AcDbSavedByObjectVersion
1070
     0
1000
AcDbSavedByObjectVersion
1070
     0
1000
AcDbSavedByObjectVersion
1070
     0
1000
AcDbSavedByObjectVersion
1070
     0
1000
AcDbSavedByObjectVersion
1070
     0
1000
AcDbSavedByObjectVersion
1070
     0
1000
AcDbSavedByObjectVersion
1070
     0
1000
AcDbSavedByObjectVersion
1070
     0
1000
AcDbSavedByObjectVersion
1070
     0
1000
AcDbSavedByObjectVersion
1070
     0
1000
AcDbSavedByObjectVersion
1070
     0
1000
AcDbSavedByObjectVersion
1070
     0
1000
AcDbSavedByObjectVersion
1070
     0
1000
AcDbSavedByObjectVersion
1070
     0
1000
AcDbSavedByObjectVersion
1070
     0
1000
AcDbSavedByObjectVersion
1070
     0
1000
AcDbSavedByObjectVersion
1070
     0
1000
AcDbSavedByObjectVersion
1070
     0
1000
AcDbSavedByObjectVersion
1070
     0
1000
AcDbSavedByObjectVersion
1070
     0
1000
AcDbSavedByObjectVersion
1070
     0
1000
AcDbSavedByObjectVersion
1070
     0
1000
AcDbSavedByObjectVersion
1070
     0
1000
AcDbSavedByObjectVersion
1070
     0
1000
AcDbSavedByObjectVersion
1070
     0
1000
AcDbSavedByObjectVersion
1070
     0
1000
AcDbSavedByObjectVersion
1070
     0
1000
AcDbSavedByObjectVersion
1070
     0
1000
AcDbSavedByObjectVersion
1070
     0
1000
AcDbSavedByObjectVersion
1070
     0
1000
AcDbSavedByObjectVersion
1070
     0
1000
AcDbSavedByObjectVersion
1070
     0
1000
AcDbSavedByObjectVersion
1070
     0
1000
AcDbSavedByObjectVersion
1070
     0
1000
AcDbSavedByObjectVersion
1070
     0
1000
AcDbSavedByObjectVersion
1070
     0
1000
AcDbSavedByObjectVersion
1070
     0
1000
AcDbSavedByObjectVersion
1070
     0
1000
AcDbSavedByObjectVersion
1070
     0
1000
AcDbSavedByObjectVersion
1070
     0
1000
AcDbSavedByObjectVersion
1070
     0
1000
AcDbSavedByObjectVersion
1070
     0
1000
AcDbSavedByObjectVersion
1070
     0
1000
AcDbSavedByObjectVersion
1070
     0
1000
AcDbSavedByObjectVersion
1070
     0
1000
AcDbSavedByObjectVersion
1070
     0
1000
AcDbSavedByObjectVersion
1070
     0
1000
AcDbSavedByObjectVersion
1070
     0
1000
AcDbSavedByObjectVersion
1070
     0
1000
AcDbSavedByObjectVersion
1070
     0
1000
AcDbSavedByObjectVersion
1070
     0
1000
AcDbSavedByObjectVersion
1070
     0
  0
VISUALSTYLE
  5
3A
102
{ACAD_REACTORS
330
2A
102
}
330
2A
100
AcDbVisualStyle
  2
ColorChange
 70
    16
 71
     2
 72
     2
 73
     3
 90
        0
 40
-0.6
 41
-30.0
 62
     5
 63
     8
 74
     1
 91
        4
 64
     7
 65
   257
 75
     1
175
     1
 42
1.0
 92
        8
 66
     8
 43
1.0
 76
     1
 77
     6
 78
     2
 67
     7
 79
     5
170
     0
171
     0
290
     0
174
     0
 93
        1
 44
0.0
173
     0
291
     1
 45
0.0
1001
ACAD
1000
AcDbSavedByObjectVersion
1070
     0
1000
AcDbSavedByObjectVersion
1070
     0
1000
AcDbSavedByObjectVersion
1070
     0
1000
AcDbSavedByObjectVersion
1070
     0
1000
AcDbSavedByObjectVersion
1070
     0
1000
AcDbSavedByObjectVersion
1070
     0
1000
AcDbSavedByObjectVersion
1070
     0
1000
AcDbSavedByObjectVersion
1070
     0
1000
AcDbSavedByObjectVersion
1070
     0
1000
AcDbSavedByObjectVersion
1070
     0
1000
AcDbSavedByObjectVersion
1070
     0
1000
AcDbSavedByObjectVersion
1070
     0
1000
AcDbSavedByObjectVersion
1070
     0
1000
AcDbSavedByObjectVersion
1070
     0
1000
AcDbSavedByObjectVersion
1070
     0
1000
AcDbSavedByObjectVersion
1070
     0
1000
AcDbSavedByObjectVersion
1070
     0
1000
AcDbSavedByObjectVersion
1070
     0
1000
AcDbSavedByObjectVersion
1070
     0
1000
AcDbSavedByObjectVersion
1070
     0
1000
AcDbSavedByObjectVersion
1070
     0
1000
AcDbSavedByObjectVersion
1070
     0
1000
AcDbSavedByObjectVersion
1070
     0
1000
AcDbSavedByObjectVersion
1070
     0
1000
AcDbSavedByObjectVersion
1070
     0
1000
AcDbSavedByObjectVersion
1070
     0
1000
AcDbSavedByObjectVersion
1070
     0
1000
AcDbSavedByObjectVersion
1070
     0
1000
AcDbSavedByObjectVersion
1070
     0
1000
AcDbSavedByObjectVersion
1070
     0
1000
AcDbSavedByObjectVersion
1070
     0
1000
AcDbSavedByObjectVersion
1070
     0
1000
AcDbSavedByObjectVersion
1070
     0
1000
AcDbSavedByObjectVersion
1070
     0
1000
AcDbSavedByObjectVersion
1070
     0
1000
AcDbSavedByObjectVersion
1070
     0
1000
AcDbSavedByObjectVersion
1070
     0
1000
AcDbSavedByObjectVersion
1070
     0
1000
AcDbSavedByObjectVersion
1070
     0
1000
AcDbSavedByObjectVersion
1070
     0
1000
AcDbSavedByObjectVersion
1070
     0
1000
AcDbSavedByObjectVersion
1070
     0
1000
AcDbSavedByObjectVersion
1070
     0
1000
AcDbSavedByObjectVersion
1070
     0
1000
AcDbSavedByObjectVersion
1070
     0
1000
AcDbSavedByObjectVersion
1070
     0
1000
AcDbSavedByObjectVersion
1070
     0
1000
AcDbSavedByObjectVersion
1070
     0
1000
AcDbSavedByObjectVersion
1070
     0
1000
AcDbSavedByObjectVersion
1070
     0
1000
AcDbSavedByObjectVersion
1070
     0
1000
AcDbSavedByObjectVersion
1070
     0
1000
AcDbSavedByObjectVersion
1070
     0
1000
AcDbSavedByObjectVersion
1070
     0
1000
AcDbSavedByObjectVersion
1070
     0
1000
AcDbSavedByObjectVersion
1070
     0
1000
AcDbSavedByObjectVersion
1070
     0
1000
AcDbSavedByObjectVersion
1070
     0
1000
AcDbSavedByObjectVersion
1070
     0
1000
AcDbSavedByObjectVersion
1070
     0
1000
AcDbSavedByObjectVersion
1070
     0
1000
AcDbSavedByObjectVersion
1070
     0
1000
AcDbSavedByObjectVersion
1070
     0
1000
AcDbSavedByObjectVersion
1070
     0
1000
AcDbSavedByObjectVersion
1070
     0
  0
VISUALSTYLE
  5
34
102
{ACAD_REACTORS
330
2A
102
}
330
2A
100
AcDbVisualStyle
  2
Conceptual
 70
     9
 71
     3
 72
     2
 73
     0
 90
        0
 40
-0.6
 41
-30.0
 62
     5
 63
     7
 74
     2
 91
        2
 64
     7
 65
   257
 75
     1
175
     1
 42
40.0
 92
        8
 66
     7
 43
1.0
 76
     1
 77
     6
 78
     2
 67
     7
 79
     3
170
     0
171
     0
290
     0
174
     0
 93
        1
 44
0.0
173
     0
291
     0
 45
0.0
1001
ACAD
1000
AcDbSavedByObjectVersion
1070
     0
1000
AcDbSavedByObjectVersion
1070
     0
1000
AcDbSavedByObjectVersion
1070
     0
1000
AcDbSavedByObjectVersion
1070
     0
1000
AcDbSavedByObjectVersion
1070
     0
1000
AcDbSavedByObjectVersion
1070
     0
1000
AcDbSavedByObjectVersion
1070
     0
1000
AcDbSavedByObjectVersion
1070
     0
1000
AcDbSavedByObjectVersion
1070
     0
1000
AcDbSavedByObjectVersion
1070
     0
1000
AcDbSavedByObjectVersion
1070
     0
1000
AcDbSavedByObjectVersion
1070
     0
1000
AcDbSavedByObjectVersion
1070
     0
1000
AcDbSavedByObjectVersion
1070
     0
1000
AcDbSavedByObjectVersion
1070
     0
1000
AcDbSavedByObjectVersion
1070
     0
1000
AcDbSavedByObjectVersion
1070
     0
1000
AcDbSavedByObjectVersion
1070
     0
1000
AcDbSavedByObjectVersion
1070
     0
1000
AcDbSavedByObjectVersion
1070
     0
1000
AcDbSavedByObjectVersion
1070
     0
1000
AcDbSavedByObjectVersion
1070
     0
1000
AcDbSavedByObjectVersion
1070
     0
1000
AcDbSavedByObjectVersion
1070
     0
1000
AcDbSavedByObjectVersion
1070
     0
1000
AcDbSavedByObjectVersion
1070
     0
1000
AcDbSavedByObjectVersion
1070
     0
1000
AcDbSavedByObjectVersion
1070
     0
1000
AcDbSavedByObjectVersion
1070
     0
1000
AcDbSavedByObjectVersion
1070
     0
1000
AcDbSavedByObjectVersion
1070
     0
1000
AcDbSavedByObjectVersion
1070
     0
1000
AcDbSavedByObjectVersion
1070
     0
1000
AcDbSavedByObjectVersion
1070
     0
1000
AcDbSavedByObjectVersion
1070
     0
1000
AcDbSavedByObjectVersion
1070
     0
1000
AcDbSavedByObjectVersion
1070
     0
1000
AcDbSavedByObjectVersion
1070
     0
1000
AcDbSavedByObjectVersion
1070
     0
1000
AcDbSavedByObjectVersion
1070
     0
1000
AcDbSavedByObjectVersion
1070
     0
1000
AcDbSavedByObjectVersion
1070
     0
1000
AcDbSavedByObjectVersion
1070
     0
1000
AcDbSavedByObjectVersion
1070
     0
1000
AcDbSavedByObjectVersion
1070
     0
1000
AcDbSavedByObjectVersion
1070
     0
1000
AcDbSavedByObjectVersion
1070
     0
1000
AcDbSavedByObjectVersion
1070
     0
1000
AcDbSavedByObjectVersion
1070
     0
1000
AcDbSavedByObjectVersion
1070
     0
1000
AcDbSavedByObjectVersion
1070
     0
1000
AcDbSavedByObjectVersion
1070
     0
1000
AcDbSavedByObjectVersion
1070
     0
1000
AcDbSavedByObjectVersion
1070
     0
1000
AcDbSavedByObjectVersion
1070
     0
1000
AcDbSavedByObjectVersion
1070
     0
1000
AcDbSavedByObjectVersion
1070
     0
1000
AcDbSavedByObjectVersion
1070
     0
1000
AcDbSavedByObjectVersion
1070
     0
1000
AcDbSavedByObjectVersion
1070
     0
1000
AcDbSavedByObjectVersion
1070
     0
1000
AcDbSavedByObjectVersion
1070
     0
1000
AcDbSavedByObjectVersion
1070
     0
1000
AcDbSavedByObjectVersion
1070
     0
1000
AcDbSavedByObjectVersion
1070
     0
  0
VISUALSTYLE
  5
35
102
{ACAD_REACTORS
330
2A
102
}
330
2A
100
AcDbVisualStyle
  2
Dim
 70
    11
 71
     2
 72
     2
 73
     0
 90
        0
 40
-0.6
 41
-30.0
 62
     5
 63
     7
 74
     1
 91
        4
 64
     7
 65
   257
 75
     1
175
     1
 42
1.0
 92
        8
 66
     7
 43
1.0
 76
     1
 77
     6
 78
     2
 67
     7
 79
     5
170
     0
171
     0
290
     0
174
     0
 93
        1
 44
-50.0
173
     0
291
     1
 45
0.0
1001
ACAD
1000
AcDbSavedByObjectVersion
1070
     0
1000
AcDbSavedByObjectVersion
1070
     0
1000
AcDbSavedByObjectVersion
1070
     0
1000
AcDbSavedByObjectVersion
1070
     0
1000
AcDbSavedByObjectVersion
1070
     0
1000
AcDbSavedByObjectVersion
1070
     0
1000
AcDbSavedByObjectVersion
1070
     0
1000
AcDbSavedByObjectVersion
1070
     0
1000
AcDbSavedByObjectVersion
1070
     0
1000
AcDbSavedByObjectVersion
1070
     0
1000
AcDbSavedByObjectVersion
1070
     0
1000
AcDbSavedByObjectVersion
1070
     0
1000
AcDbSavedByObjectVersion
1070
     0
1000
AcDbSavedByObjectVersion
1070
     0
1000
AcDbSavedByObjectVersion
1070
     0
1000
AcDbSavedByObjectVersion
1070
     0
1000
AcDbSavedByObjectVersion
1070
     0
1000
AcDbSavedByObjectVersion
1070
     0
1000
AcDbSavedByObjectVersion
1070
     0
1000
AcDbSavedByObjectVersion
1070
     0
1000
AcDbSavedByObjectVersion
1070
     0
1000
AcDbSavedByObjectVersion
1070
     0
1000
AcDbSavedByObjectVersion
1070
     0
1000
AcDbSavedByObjectVersion
1070
     0
1000
AcDbSavedByObjectVersion
1070
     0
1000
AcDbSavedByObjectVersion
1070
     0
1000
AcDbSavedByObjectVersion
1070
     0
1000
AcDbSavedByObjectVersion
1070
     0
1000
AcDbSavedByObjectVersion
1070
     0
1000
AcDbSavedByObjectVersion
1070
     0
1000
AcDbSavedByObjectVersion
1070
     0
1000
AcDbSavedByObjectVersion
1070
     0
1000
AcDbSavedByObjectVersion
1070
     0
1000
AcDbSavedByObjectVersion
1070
     0
1000
AcDbSavedByObjectVersion
1070
     0
1000
AcDbSavedByObjectVersion
1070
     0
1000
AcDbSavedByObjectVersion
1070
     0
1000
AcDbSavedByObjectVersion
1070
     0
1000
AcDbSavedByObjectVersion
1070
     0
1000
AcDbSavedByObjectVersion
1070
     0
1000
AcDbSavedByObjectVersion
1070
     0
1000
AcDbSavedByObjectVersion
1070
     0
1000
AcDbSavedByObjectVersion
1070
     0
1000
AcDbSavedByObjectVersion
1070
     0
1000
AcDbSavedByObjectVersion
1070
     0
1000
AcDbSavedByObjectVersion
1070
     0
1000
AcDbSavedByObjectVersion
1070
     0
1000
AcDbSavedByObjectVersion
1070
     0
1000
AcDbSavedByObjectVersion
1070
     0
1000
AcDbSavedByObjectVersion
1070
     0
1000
AcDbSavedByObjectVersion
1070
     0
1000
AcDbSavedByObjectVersion
1070
     0
1000
AcDbSavedByObjectVersion
1070
     0
1000
AcDbSavedByObjectVersion
1070
     0
1000
AcDbSavedByObjectVersion
1070
     0
1000
AcDbSavedByObjectVersion
1070
     0
1000
AcDbSavedByObjectVersion
1070
     0
1000
AcDbSavedByObjectVersion
1070
     0
1000
AcDbSavedByObjectVersion
1070
     0
1000
AcDbSavedByObjectVersion
1070
     0
1000
AcDbSavedByObjectVersion
1070
     0
1000
AcDbSavedByObjectVersion
1070
     0
1000
AcDbSavedByObjectVersion
1070
     0
1000
AcDbSavedByObjectVersion
1070
     0
1000
AcDbSavedByObjectVersion
1070
     0
  0
VISUALSTYLE
  5
39
102
{ACAD_REACTORS
330
2A
102
}
330
2A
100
AcDbVisualStyle
  2
Facepattern
 70
    15
 71
     2
 72
     2
 73
     0
 90
        0
 40
-0.6
 41
-30.0
 62
     5
 63
     7
 74
     1
 91
        4
 64
     7
 65
   257
 75
     1
175
     1
 42
1.0
 92
        8
 66
     7
 43
1.0
 76
     1
 77
     6
 78
     2
 67
     7
 79
     5
170
     0
171
     0
290
     0
174
     0
 93
        1
 44
0.0
173
     0
291
     1
 45
0.0
1001
ACAD
1000
AcDbSavedByObjectVersion
1070
     0
1000
AcDbSavedByObjectVersion
1070
     0
1000
AcDbSavedByObjectVersion
1070
     0
1000
AcDbSavedByObjectVersion
1070
     0
1000
AcDbSavedByObjectVersion
1070
     0
1000
AcDbSavedByObjectVersion
1070
     0
1000
AcDbSavedByObjectVersion
1070
     0
1000
AcDbSavedByObjectVersion
1070
     0
1000
AcDbSavedByObjectVersion
1070
     0
1000
AcDbSavedByObjectVersion
1070
     0
1000
AcDbSavedByObjectVersion
1070
     0
1000
AcDbSavedByObjectVersion
1070
     0
1000
AcDbSavedByObjectVersion
1070
     0
1000
AcDbSavedByObjectVersion
1070
     0
1000
AcDbSavedByObjectVersion
1070
     0
1000
AcDbSavedByObjectVersion
1070
     0
1000
AcDbSavedByObjectVersion
1070
     0
1000
AcDbSavedByObjectVersion
1070
     0
1000
AcDbSavedByObjectVersion
1070
     0
1000
AcDbSavedByObjectVersion
1070
     0
1000
AcDbSavedByObjectVersion
1070
     0
1000
AcDbSavedByObjectVersion
1070
     0
1000
AcDbSavedByObjectVersion
1070
     0
1000
AcDbSavedByObjectVersion
1070
     0
1000
AcDbSavedByObjectVersion
1070
     0
1000
AcDbSavedByObjectVersion
1070
     0
1000
AcDbSavedByObjectVersion
1070
     0
1000
AcDbSavedByObjectVersion
1070
     0
1000
AcDbSavedByObjectVersion
1070
     0
1000
AcDbSavedByObjectVersion
1070
     0
1000
AcDbSavedByObjectVersion
1070
     0
1000
AcDbSavedByObjectVersion
1070
     0
1000
AcDbSavedByObjectVersion
1070
     0
1000
AcDbSavedByObjectVersion
1070
     0
1000
AcDbSavedByObjectVersion
1070
     0
1000
AcDbSavedByObjectVersion
1070
     0
1000
AcDbSavedByObjectVersion
1070
     0
1000
AcDbSavedByObjectVersion
1070
     0
1000
AcDbSavedByObjectVersion
1070
     0
1000
AcDbSavedByObjectVersion
1070
     0
1000
AcDbSavedByObjectVersion
1070
     0
1000
AcDbSavedByObjectVersion
1070
     0
1000
AcDbSavedByObjectVersion
1070
     0
1000
AcDbSavedByObjectVersion
1070
     0
1000
AcDbSavedByObjectVersion
1070
     0
1000
AcDbSavedByObjectVersion
1070
     0
1000
AcDbSavedByObjectVersion
1070
     0
1000
AcDbSavedByObjectVersion
1070
     0
1000
AcDbSavedByObjectVersion
1070
     0
1000
AcDbSavedByObjectVersion
1070
     0
1000
AcDbSavedByObjectVersion
1070
     0
1000
AcDbSavedByObjectVersion
1070
     0
1000
AcDbSavedByObjectVersion
1070
     0
1000
AcDbSavedByObjectVersion
1070
     0
1000
AcDbSavedByObjectVersion
1070
     0
1000
AcDbSavedByObjectVersion
1070
     0
1000
AcDbSavedByObjectVersion
1070
     0
1000
AcDbSavedByObjectVersion
1070
     0
1000
AcDbSavedByObjectVersion
1070
     0
1000
AcDbSavedByObjectVersion
1070
     0
1000
AcDbSavedByObjectVersion
1070
     0
1000
AcDbSavedByObjectVersion
1070
     0
1000
AcDbSavedByObjectVersion
1070
     0
1000
AcDbSavedByObjectVersion
1070
     0
1000
AcDbSavedByObjectVersion
1070
     0
  0
VISUALSTYLE
  5
2B
102
{ACAD_REACTORS
330
2A
102
}
330
2A
100
AcDbVisualStyle
  2
Flat
 70
     0
 71
     2
 72
     1
 73
     1
 90
        2
 40
-0.6
 41
30.0
 62
     5
 63
     7
 74
     0
 91
        4
 64
     7
 65
   257
 75
     1
175
     1
 42
1.0
 92
        8
 66
     7
 43
1.0
 76
     1
 77
     6
 78
     2
 67
     7
 79
     5
170
     0
171
     0
290
     0
174
     0
 93
       13
 44
0.0
173
     0
291
     1
 45
0.0
1001
ACAD
1000
AcDbSavedByObjectVersion
1070
     0
1000
AcDbSavedByObjectVersion
1070
     0
1000
AcDbSavedByObjectVersion
1070
     0
1000
AcDbSavedByObjectVersion
1070
     0
1000
AcDbSavedByObjectVersion
1070
     0
1000
AcDbSavedByObjectVersion
1070
     0
1000
AcDbSavedByObjectVersion
1070
     0
1000
AcDbSavedByObjectVersion
1070
     0
1000
AcDbSavedByObjectVersion
1070
     0
1000
AcDbSavedByObjectVersion
1070
     0
1000
AcDbSavedByObjectVersion
1070
     0
1000
AcDbSavedByObjectVersion
1070
     0
1000
AcDbSavedByObjectVersion
1070
     0
1000
AcDbSavedByObjectVersion
1070
     0
1000
AcDbSavedByObjectVersion
1070
     0
1000
AcDbSavedByObjectVersion
1070
     0
1000
AcDbSavedByObjectVersion
1070
     0
1000
AcDbSavedByObjectVersion
1070
     0
1000
AcDbSavedByObjectVersion
1070
     0
1000
AcDbSavedByObjectVersion
1070
     0
1000
AcDbSavedByObjectVersion
1070
     0
1000
AcDbSavedByObjectVersion
1070
     0
1000
AcDbSavedByObjectVersion
1070
     0
1000
AcDbSavedByObjectVersion
1070
     0
1000
AcDbSavedByObjectVersion
1070
     0
1000
AcDbSavedByObjectVersion
1070
     0
1000
AcDbSavedByObjectVersion
1070
     0
1000
AcDbSavedByObjectVersion
1070
     0
1000
AcDbSavedByObjectVersion
1070
     0
1000
AcDbSavedByObjectVersion
1070
     0
1000
AcDbSavedByObjectVersion
1070
     0
1000
AcDbSavedByObjectVersion
1070
     0
1000
AcDbSavedByObjectVersion
1070
     0
1000
AcDbSavedByObjectVersion
1070
     0
1000
AcDbSavedByObjectVersion
1070
     0
1000
AcDbSavedByObjectVersion
1070
     0
1000
AcDbSavedByObjectVersion
1070
     0
1000
AcDbSavedByObjectVersion
1070
     0
1000
AcDbSavedByObjectVersion
1070
     0
1000
AcDbSavedByObjectVersion
1070
     0
1000
AcDbSavedByObjectVersion
1070
     0
1000
AcDbSavedByObjectVersion
1070
     0
1000
AcDbSavedByObjectVersion
1070
     0
1000
AcDbSavedByObjectVersion
1070
     0
1000
AcDbSavedByObjectVersion
1070
     0
1000
AcDbSavedByObjectVersion
1070
     0
1000
AcDbSavedByObjectVersion
1070
     0
1000
AcDbSavedByObjectVersion
1070
     0
1000
AcDbSavedByObjectVersion
1070
     0
1000
AcDbSavedByObjectVersion
1070
     0
1000
AcDbSavedByObjectVersion
1070
     0
1000
AcDbSavedByObjectVersion
1070
     0
1000
AcDbSavedByObjectVersion
1070
     0
1000
AcDbSavedByObjectVersion
1070
     0
1000
AcDbSavedByObjectVersion
1070
     0
1000
AcDbSavedByObjectVersion
1070
     0
1000
AcDbSavedByObjectVersion
1070
     0
1000
AcDbSavedByObjectVersion
1070
     0
1000
AcDbSavedByObjectVersion
1070
     0
1000
AcDbSavedByObjectVersion
1070
     0
1000
AcDbSavedByObjectVersion
1070
     0
1000
AcDbSavedByObjectVersion
1070
     0
1000
AcDbSavedByObjectVersion
1070
     0
1000
AcDbSavedByObjectVersion
1070
     0
1000
AcDbSavedByObjectVersion
1070
     0
  0
VISUALSTYLE
  5
2C
102
{ACAD_REACTORS
330
2A
102
}
330
2A
100
AcDbVisualStyle
  2
FlatWithEdges
 70
     1
 71
     2
 72
     1
 73
     1
 90
        2
 40
-0.6
 41
30.0
 62
     5
 63
     7
 74
     1
 91
        4
 64
     7
 65
   257
 75
     1
175
     1
 42
1.0
 92
        0
 66
   257
 43
1.0
 76
     1
 77
     6
 78
     2
 67
     7
 79
     5
170
     0
171
     0
290
     0
174
     0
 93
       13
 44
0.0
173
     0
291
     1
 45
0.0
1001
ACAD
1000
AcDbSavedByObjectVersion
1070
     0
1000
AcDbSavedByObjectVersion
1070
     0
1000
AcDbSavedByObjectVersion
1070
     0
1000
AcDbSavedByObjectVersion
1070
     0
1000
AcDbSavedByObjectVersion
1070
     0
1000
AcDbSavedByObjectVersion
1070
     0
1000
AcDbSavedByObjectVersion
1070
     0
1000
AcDbSavedByObjectVersion
1070
     0
1000
AcDbSavedByObjectVersion
1070
     0
1000
AcDbSavedByObjectVersion
1070
     0
1000
AcDbSavedByObjectVersion
1070
     0
1000
AcDbSavedByObjectVersion
1070
     0
1000
AcDbSavedByObjectVersion
1070
     0
1000
AcDbSavedByObjectVersion
1070
     0
1000
AcDbSavedByObjectVersion
1070
     0
1000
AcDbSavedByObjectVersion
1070
     0
1000
AcDbSavedByObjectVersion
1070
     0
1000
AcDbSavedByObjectVersion
1070
     0
1000
AcDbSavedByObjectVersion
1070
     0
1000
AcDbSavedByObjectVersion
1070
     0
1000
AcDbSavedByObjectVersion
1070
     0
1000
AcDbSavedByObjectVersion
1070
     0
1000
AcDbSavedByObjectVersion
1070
     0
1000
AcDbSavedByObjectVersion
1070
     0
1000
AcDbSavedByObjectVersion
1070
     0
1000
AcDbSavedByObjectVersion
1070
     0
1000
AcDbSavedByObjectVersion
1070
     0
1000
AcDbSavedByObjectVersion
1070
     0
1000
AcDbSavedByObjectVersion
1070
     0
1000
AcDbSavedByObjectVersion
1070
     0
1000
AcDbSavedByObjectVersion
1070
     0
1000
AcDbSavedByObjectVersion
1070
     0
1000
AcDbSavedByObjectVersion
1070
     0
1000
AcDbSavedByObjectVersion
1070
     0
1000
AcDbSavedByObjectVersion
1070
     0
1000
AcDbSavedByObjectVersion
1070
     0
1000
AcDbSavedByObjectVersion
1070
     0
1000
AcDbSavedByObjectVersion
1070
     0
1000
AcDbSavedByObjectVersion
1070
     0
1000
AcDbSavedByObjectVersion
1070
     0
1000
AcDbSavedByObjectVersion
1070
     0
1000
AcDbSavedByObjectVersion
1070
     0
1000
AcDbSavedByObjectVersion
1070
     0
1000
AcDbSavedByObjectVersion
1070
     0
1000
AcDbSavedByObjectVersion
1070
     0
1000
AcDbSavedByObjectVersion
1070
     0
1000
AcDbSavedByObjectVersion
1070
     0
1000
AcDbSavedByObjectVersion
1070
     0
1000
AcDbSavedByObjectVersion
1070
     0
1000
AcDbSavedByObjectVersion
1070
     0
1000
AcDbSavedByObjectVersion
1070
     0
1000
AcDbSavedByObjectVersion
1070
     0
1000
AcDbSavedByObjectVersion
1070
     0
1000
AcDbSavedByObjectVersion
1070
     0
1000
AcDbSavedByObjectVersion
1070
     0
1000
AcDbSavedByObjectVersion
1070
     0
1000
AcDbSavedByObjectVersion
1070
     0
1000
AcDbSavedByObjectVersion
1070
     0
1000
AcDbSavedByObjectVersion
1070
     0
1000
AcDbSavedByObjectVersion
1070
     0
1000
AcDbSavedByObjectVersion
1070
     0
1000
AcDbSavedByObjectVersion
1070
     0
1000
AcDbSavedByObjectVersion
1070
     0
1000
AcDbSavedByObjectVersion
1070
     0
1000
AcDbSavedByObjectVersion
1070
     0
  0
VISUALSTYLE
  5
2D
102
{ACAD_REACTORS
330
2A
102
}
330
2A
100
AcDbVisualStyle
  2
Gouraud
 70
     2
 71
     2
 72
     2
 73
     1
 90
        2
 40
-0.6
 41
30.0
 62
     5
 63
     7
 74
     0
 91
        4
 64
     7
 65
   257
 75
     1
175
     1
 42
1.0
 92
        0
 66
     7
 43
1.0
 76
     1
 77
     6
 78
     2
 67
     7
 79
     5
170
     0
171
     0
290
     0
174
     0
 93
       13
 44
0.0
173
     0
291
     1
 45
0.0
1001
ACAD
1000
AcDbSavedByObjectVersion
1070
     0
1000
AcDbSavedByObjectVersion
1070
     0
1000
AcDbSavedByObjectVersion
1070
     0
1000
AcDbSavedByObjectVersion
1070
     0
1000
AcDbSavedByObjectVersion
1070
     0
1000
AcDbSavedByObjectVersion
1070
     0
1000
AcDbSavedByObjectVersion
1070
     0
1000
AcDbSavedByObjectVersion
1070
     0
1000
AcDbSavedByObjectVersion
1070
     0
1000
AcDbSavedByObjectVersion
1070
     0
1000
AcDbSavedByObjectVersion
1070
     0
1000
AcDbSavedByObjectVersion
1070
     0
1000
AcDbSavedByObjectVersion
1070
     0
1000
AcDbSavedByObjectVersion
1070
     0
1000
AcDbSavedByObjectVersion
1070
     0
1000
AcDbSavedByObjectVersion
1070
     0
1000
AcDbSavedByObjectVersion
1070
     0
1000
AcDbSavedByObjectVersion
1070
     0
1000
AcDbSavedByObjectVersion
1070
     0
1000
AcDbSavedByObjectVersion
1070
     0
1000
AcDbSavedByObjectVersion
1070
     0
1000
AcDbSavedByObjectVersion
1070
     0
1000
AcDbSavedByObjectVersion
1070
     0
1000
AcDbSavedByObjectVersion
1070
     0
1000
AcDbSavedByObjectVersion
1070
     0
1000
AcDbSavedByObjectVersion
1070
     0
1000
AcDbSavedByObjectVersion
1070
     0
1000
AcDbSavedByObjectVersion
1070
     0
1000
AcDbSavedByObjectVersion
1070
     0
1000
AcDbSavedByObjectVersion
1070
     0
1000
AcDbSavedByObjectVersion
1070
     0
1000
AcDbSavedByObjectVersion
1070
     0
1000
AcDbSavedByObjectVersion
1070
     0
1000
AcDbSavedByObjectVersion
1070
     0
1000
AcDbSavedByObjectVersion
1070
     0
1000
AcDbSavedByObjectVersion
1070
     0
1000
AcDbSavedByObjectVersion
1070
     0
1000
AcDbSavedByObjectVersion
1070
     0
1000
AcDbSavedByObjectVersion
1070
     0
1000
AcDbSavedByObjectVersion
1070
     0
1000
AcDbSavedByObjectVersion
1070
     0
1000
AcDbSavedByObjectVersion
1070
     0
1000
AcDbSavedByObjectVersion
1070
     0
1000
AcDbSavedByObjectVersion
1070
     0
1000
AcDbSavedByObjectVersion
1070
     0
1000
AcDbSavedByObjectVersion
1070
     0
1000
AcDbSavedByObjectVersion
1070
     0
1000
AcDbSavedByObjectVersion
1070
     0
1000
AcDbSavedByObjectVersion
1070
     0
1000
AcDbSavedByObjectVersion
1070
     0
1000
AcDbSavedByObjectVersion
1070
     0
1000
AcDbSavedByObjectVersion
1070
     0
1000
AcDbSavedByObjectVersion
1070
     0
1000
AcDbSavedByObjectVersion
1070
     0
1000
AcDbSavedByObjectVersion
1070
     0
1000
AcDbSavedByObjectVersion
1070
     0
1000
AcDbSavedByObjectVersion
1070
     0
1000
AcDbSavedByObjectVersion
1070
     0
1000
AcDbSavedByObjectVersion
1070
     0
1000
AcDbSavedByObjectVersion
1070
     0
1000
AcDbSavedByObjectVersion
1070
     0
1000
AcDbSavedByObjectVersion
1070
     0
1000
AcDbSavedByObjectVersion
1070
     0
1000
AcDbSavedByObjectVersion
1070
     0
1000
AcDbSavedByObjectVersion
1070
     0
  0
VISUALSTYLE
  5
2E
102
{ACAD_REACTORS
330
2A
102
}
330
2A
100
AcDbVisualStyle
  2
GouraudWithEdges
 70
     3
 71
     2
 72
     2
 73
     1
 90
        2
 40
-0.6
 41
30.0
 62
     5
 63
     7
 74
     1
 91
        4
 64
     7
 65
   257
 75
     1
175
     1
 42
1.0
 92
        0
 66
   257
 43
1.0
 76
     1
 77
     6
 78
     2
 67
     7
 79
     5
170
     0
171
     0
290
     0
174
     0
 93
       13
 44
0.0
173
     0
291
     1
 45
0.0
1001
ACAD
1000
AcDbSavedByObjectVersion
1070
     0
1000
AcDbSavedByObjectVersion
1070
     0
1000
AcDbSavedByObjectVersion
1070
     0
1000
AcDbSavedByObjectVersion
1070
     0
1000
AcDbSavedByObjectVersion
1070
     0
1000
AcDbSavedByObjectVersion
1070
     0
1000
AcDbSavedByObjectVersion
1070
     0
1000
AcDbSavedByObjectVersion
1070
     0
1000
AcDbSavedByObjectVersion
1070
     0
1000
AcDbSavedByObjectVersion
1070
     0
1000
AcDbSavedByObjectVersion
1070
     0
1000
AcDbSavedByObjectVersion
1070
     0
1000
AcDbSavedByObjectVersion
1070
     0
1000
AcDbSavedByObjectVersion
1070
     0
1000
AcDbSavedByObjectVersion
1070
     0
1000
AcDbSavedByObjectVersion
1070
     0
1000
AcDbSavedByObjectVersion
1070
     0
1000
AcDbSavedByObjectVersion
1070
     0
1000
AcDbSavedByObjectVersion
1070
     0
1000
AcDbSavedByObjectVersion
1070
     0
1000
AcDbSavedByObjectVersion
1070
     0
1000
AcDbSavedByObjectVersion
1070
     0
1000
AcDbSavedByObjectVersion
1070
     0
1000
AcDbSavedByObjectVersion
1070
     0
1000
AcDbSavedByObjectVersion
1070
     0
1000
AcDbSavedByObjectVersion
1070
     0
1000
AcDbSavedByObjectVersion
1070
     0
1000
AcDbSavedByObjectVersion
1070
     0
1000
AcDbSavedByObjectVersion
1070
     0
1000
AcDbSavedByObjectVersion
1070
     0
1000
AcDbSavedByObjectVersion
1070
     0
1000
AcDbSavedByObjectVersion
1070
     0
1000
AcDbSavedByObjectVersion
1070
     0
1000
AcDbSavedByObjectVersion
1070
     0
1000
AcDbSavedByObjectVersion
1070
     0
1000
AcDbSavedByObjectVersion
1070
     0
1000
AcDbSavedByObjectVersion
1070
     0
1000
AcDbSavedByObjectVersion
1070
     0
1000
AcDbSavedByObjectVersion
1070
     0
1000
AcDbSavedByObjectVersion
1070
     0
1000
AcDbSavedByObjectVersion
1070
     0
1000
AcDbSavedByObjectVersion
1070
     0
1000
AcDbSavedByObjectVersion
1070
     0
1000
AcDbSavedByObjectVersion
1070
     0
1000
AcDbSavedByObjectVersion
1070
     0
1000
AcDbSavedByObjectVersion
1070
     0
1000
AcDbSavedByObjectVersion
1070
     0
1000
AcDbSavedByObjectVersion
1070
     0
1000
AcDbSavedByObjectVersion
1070
     0
1000
AcDbSavedByObjectVersion
1070
     0
1000
AcDbSavedByObjectVersion
1070
     0
1000
AcDbSavedByObjectVersion
1070
     0
1000
AcDbSavedByObjectVersion
1070
     0
1000
AcDbSavedByObjectVersion
1070
     0
1000
AcDbSavedByObjectVersion
1070
     0
1000
AcDbSavedByObjectVersion
1070
     0
1000
AcDbSavedByObjectVersion
1070
     0
1000
AcDbSavedByObjectVersion
1070
     0
1000
AcDbSavedByObjectVersion
1070
     0
1000
AcDbSavedByObjectVersion
1070
     0
1000
AcDbSavedByObjectVersion
1070
     0
1000
AcDbSavedByObjectVersion
1070
     0
1000
AcDbSavedByObjectVersion
1070
     0
1000
AcDbSavedByObjectVersion
1070
     0
1000
AcDbSavedByObjectVersion
1070
     0
  0
VISUALSTYLE
  5
38
102
{ACAD_REACTORS
330
2A
102
}
330
2A
100
AcDbVisualStyle
  2
Linepattern
 70
    14
 71
     2
 72
     2
 73
     0
 90
        0
 40
-0.6
 41
-30.0
 62
     5
 63
     7
 74
     1
 91
        4
 64
     7
 65
   257
 75
     7
175
     7
 42
1.0
 92
        8
 66
     7
 43
1.0
 76
     1
 77
     6
 78
     2
 67
     7
 79
     5
170
     0
171
     0
290
     0
174
     0
 93
        1
 44
0.0
173
     0
291
     1
 45
0.0
1001
ACAD
1000
AcDbSavedByObjectVersion
1070
     0
1000
AcDbSavedByObjectVersion
1070
     0
1000
AcDbSavedByObjectVersion
1070
     0
1000
AcDbSavedByObjectVersion
1070
     0
1000
AcDbSavedByObjectVersion
1070
     0
1000
AcDbSavedByObjectVersion
1070
     0
1000
AcDbSavedByObjectVersion
1070
     0
1000
AcDbSavedByObjectVersion
1070
     0
1000
AcDbSavedByObjectVersion
1070
     0
1000
AcDbSavedByObjectVersion
1070
     0
1000
AcDbSavedByObjectVersion
1070
     0
1000
AcDbSavedByObjectVersion
1070
     0
1000
AcDbSavedByObjectVersion
1070
     0
1000
AcDbSavedByObjectVersion
1070
     0
1000
AcDbSavedByObjectVersion
1070
     0
1000
AcDbSavedByObjectVersion
1070
     0
1000
AcDbSavedByObjectVersion
1070
     0
1000
AcDbSavedByObjectVersion
1070
     0
1000
AcDbSavedByObjectVersion
1070
     0
1000
AcDbSavedByObjectVersion
1070
     0
1000
AcDbSavedByObjectVersion
1070
     0
1000
AcDbSavedByObjectVersion
1070
     0
1000
AcDbSavedByObjectVersion
1070
     0
1000
AcDbSavedByObjectVersion
1070
     0
1000
AcDbSavedByObjectVersion
1070
     0
1000
AcDbSavedByObjectVersion
1070
     0
1000
AcDbSavedByObjectVersion
1070
     0
1000
AcDbSavedByObjectVersion
1070
     0
1000
AcDbSavedByObjectVersion
1070
     0
1000
AcDbSavedByObjectVersion
1070
     0
1000
AcDbSavedByObjectVersion
1070
     0
1000
AcDbSavedByObjectVersion
1070
     0
1000
AcDbSavedByObjectVersion
1070
     0
1000
AcDbSavedByObjectVersion
1070
     0
1000
AcDbSavedByObjectVersion
1070
     0
1000
AcDbSavedByObjectVersion
1070
     0
1000
AcDbSavedByObjectVersion
1070
     0
1000
AcDbSavedByObjectVersion
1070
     0
1000
AcDbSavedByObjectVersion
1070
     0
1000
AcDbSavedByObjectVersion
1070
     0
1000
AcDbSavedByObjectVersion
1070
     0
1000
AcDbSavedByObjectVersion
1070
     0
1000
AcDbSavedByObjectVersion
1070
     0
1000
AcDbSavedByObjectVersion
1070
     0
1000
AcDbSavedByObjectVersion
1070
     0
1000
AcDbSavedByObjectVersion
1070
     0
1000
AcDbSavedByObjectVersion
1070
     0
1000
AcDbSavedByObjectVersion
1070
     0
1000
AcDbSavedByObjectVersion
1070
     0
1000
AcDbSavedByObjectVersion
1070
     0
1000
AcDbSavedByObjectVersion
1070
     0
1000
AcDbSavedByObjectVersion
1070
     0
1000
AcDbSavedByObjectVersion
1070
     0
1000
AcDbSavedByObjectVersion
1070
     0
1000
AcDbSavedByObjectVersion
1070
     0
1000
AcDbSavedByObjectVersion
1070
     0
1000
AcDbSavedByObjectVersion
1070
     0
1000
AcDbSavedByObjectVersion
1070
     0
1000
AcDbSavedByObjectVersion
1070
     0
1000
AcDbSavedByObjectVersion
1070
     0
1000
AcDbSavedByObjectVersion
1070
     0
1000
AcDbSavedByObjectVersion
1070
     0
1000
AcDbSavedByObjectVersion
1070
     0
1000
AcDbSavedByObjectVersion
1070
     0
1000
AcDbSavedByObjectVersion
1070
     0
  0
VISUALSTYLE
  5
33
102
{ACAD_REACTORS
330
2A
102
}
330
2A
100
AcDbVisualStyle
  2
Realistic
 70
     8
 71
     2
 72
     2
 73
     0
 90
        0
 40
-0.6
 41
-30.0
 62
     5
 63
     7
 74
     1
 91
        0
 64
     7
 65
   257
 75
     1
175
     1
 42
1.0
 92
        8
 66
     8
 43
1.0
 76
     1
 77
     6
 78
     2
 67
     7
 79
     5
170
     0
171
     0
290
     0
174
     0
 93
       13
 44
0.0
173
     0
291
     0
 45
0.0
1001
ACAD
1000
AcDbSavedByObjectVersion
1070
     0
1000
AcDbSavedByObjectVersion
1070
     0
1000
AcDbSavedByObjectVersion
1070
     0
1000
AcDbSavedByObjectVersion
1070
     0
1000
AcDbSavedByObjectVersion
1070
     0
1000
AcDbSavedByObjectVersion
1070
     0
1000
AcDbSavedByObjectVersion
1070
     0
1000
AcDbSavedByObjectVersion
1070
     0
1000
AcDbSavedByObjectVersion
1070
     0
1000
AcDbSavedByObjectVersion
1070
     0
1000
AcDbSavedByObjectVersion
1070
     0
1000
AcDbSavedByObjectVersion
1070
     0
1000
AcDbSavedByObjectVersion
1070
     0
1000
AcDbSavedByObjectVersion
1070
     0
1000
AcDbSavedByObjectVersion
1070
     0
1000
AcDbSavedByObjectVersion
1070
     0
1000
AcDbSavedByObjectVersion
1070
     0
1000
AcDbSavedByObjectVersion
1070
     0
1000
AcDbSavedByObjectVersion
1070
     0
1000
AcDbSavedByObjectVersion
1070
     0
1000
AcDbSavedByObjectVersion
1070
     0
1000
AcDbSavedByObjectVersion
1070
     0
1000
AcDbSavedByObjectVersion
1070
     0
1000
AcDbSavedByObjectVersion
1070
     0
1000
AcDbSavedByObjectVersion
1070
     0
1000
AcDbSavedByObjectVersion
1070
     0
1000
AcDbSavedByObjectVersion
1070
     0
1000
AcDbSavedByObjectVersion
1070
     0
1000
AcDbSavedByObjectVersion
1070
     0
1000
AcDbSavedByObjectVersion
1070
     0
1000
AcDbSavedByObjectVersion
1070
     0
1000
AcDbSavedByObjectVersion
1070
     0
1000
AcDbSavedByObjectVersion
1070
     0
1000
AcDbSavedByObjectVersion
1070
     0
1000
AcDbSavedByObjectVersion
1070
     0
1000
AcDbSavedByObjectVersion
1070
     0
1000
AcDbSavedByObjectVersion
1070
     0
1000
AcDbSavedByObjectVersion
1070
     0
1000
AcDbSavedByObjectVersion
1070
     0
1000
AcDbSavedByObjectVersion
1070
     0
1000
AcDbSavedByObjectVersion
1070
     0
1000
AcDbSavedByObjectVersion
1070
     0
1000
AcDbSavedByObjectVersion
1070
     0
1000
AcDbSavedByObjectVersion
1070
     0
1000
AcDbSavedByObjectVersion
1070
     0
1000
AcDbSavedByObjectVersion
1070
     0
1000
AcDbSavedByObjectVersion
1070
     0
1000
AcDbSavedByObjectVersion
1070
     0
1000
AcDbSavedByObjectVersion
1070
     0
1000
AcDbSavedByObjectVersion
1070
     0
1000
AcDbSavedByObjectVersion
1070
     0
1000
AcDbSavedByObjectVersion
1070
     0
1000
AcDbSavedByObjectVersion
1070
     0
1000
AcDbSavedByObjectVersion
1070
     0
1000
AcDbSavedByObjectVersion
1070
     0
1000
AcDbSavedByObjectVersion
1070
     0
1000
AcDbSavedByObjectVersion
1070
     0
1000
AcDbSavedByObjectVersion
1070
     0
1000
AcDbSavedByObjectVersion
1070
     0
1000
AcDbSavedByObjectVersion
1070
     0
1000
AcDbSavedByObjectVersion
1070
     0
1000
AcDbSavedByObjectVersion
1070
     0
1000
AcDbSavedByObjectVersion
1070
     0
1000
AcDbSavedByObjectVersion
1070
     0
1000
AcDbSavedByObjectVersion
1070
     0
  0
VISUALSTYLE
  5
37
102
{ACAD_REACTORS
330
2A
102
}
330
2A
100
AcDbVisualStyle
  2
Thicken
 70
    13
 71
     2
 72
     2
 73
     0
 90
        0
 40
-0.6
 41
-30.0
 62
     5
 63
     7
 74
     1
 91
        4
 64
     7
 65
   257
 75
     1
175
     1
 42
1.0
 92
       12
 66
     7
 43
1.0
 76
     1
 77
     6
 78
     2
 67
     7
 79
     5
170
     0
171
     0
290
     0
174
     0
 93
        1
 44
0.0
173
     0
291
     1
 45
0.0
1001
ACAD
1000
AcDbSavedByObjectVersion
1070
     0
1000
AcDbSavedByObjectVersion
1070
     0
1000
AcDbSavedByObjectVersion
1070
     0
1000
AcDbSavedByObjectVersion
1070
     0
1000
AcDbSavedByObjectVersion
1070
     0
1000
AcDbSavedByObjectVersion
1070
     0
1000
AcDbSavedByObjectVersion
1070
     0
1000
AcDbSavedByObjectVersion
1070
     0
1000
AcDbSavedByObjectVersion
1070
     0
1000
AcDbSavedByObjectVersion
1070
     0
1000
AcDbSavedByObjectVersion
1070
     0
1000
AcDbSavedByObjectVersion
1070
     0
1000
AcDbSavedByObjectVersion
1070
     0
1000
AcDbSavedByObjectVersion
1070
     0
1000
AcDbSavedByObjectVersion
1070
     0
1000
AcDbSavedByObjectVersion
1070
     0
1000
AcDbSavedByObjectVersion
1070
     0
1000
AcDbSavedByObjectVersion
1070
     0
1000
AcDbSavedByObjectVersion
1070
     0
1000
AcDbSavedByObjectVersion
1070
     0
1000
AcDbSavedByObjectVersion
1070
     0
1000
AcDbSavedByObjectVersion
1070
     0
1000
AcDbSavedByObjectVersion
1070
     0
1000
AcDbSavedByObjectVersion
1070
     0
1000
AcDbSavedByObjectVersion
1070
     0
1000
AcDbSavedByObjectVersion
1070
     0
1000
AcDbSavedByObjectVersion
1070
     0
1000
AcDbSavedByObjectVersion
1070
     0
1000
AcDbSavedByObjectVersion
1070
     0
1000
AcDbSavedByObjectVersion
1070
     0
1000
AcDbSavedByObjectVersion
1070
     0
1000
AcDbSavedByObjectVersion
1070
     0
1000
AcDbSavedByObjectVersion
1070
     0
1000
AcDbSavedByObjectVersion
1070
     0
1000
AcDbSavedByObjectVersion
1070
     0
1000
AcDbSavedByObjectVersion
1070
     0
1000
AcDbSavedByObjectVersion
1070
     0
1000
AcDbSavedByObjectVersion
1070
     0
1000
AcDbSavedByObjectVersion
1070
     0
1000
AcDbSavedByObjectVersion
1070
     0
1000
AcDbSavedByObjectVersion
1070
     0
1000
AcDbSavedByObjectVersion
1070
     0
1000
AcDbSavedByObjectVersion
1070
     0
1000
AcDbSavedByObjectVersion
1070
     0
1000
AcDbSavedByObjectVersion
1070
     0
1000
AcDbSavedByObjectVersion
1070
     0
1000
AcDbSavedByObjectVersion
1070
     0
1000
AcDbSavedByObjectVersion
1070
     0
1000
AcDbSavedByObjectVersion
1070
     0
1000
AcDbSavedByObjectVersion
1070
     0
1000
AcDbSavedByObjectVersion
1070
     0
1000
AcDbSavedByObjectVersion
1070
     0
1000
AcDbSavedByObjectVersion
1070
     0
1000
AcDbSavedByObjectVersion
1070
     0
1000
AcDbSavedByObjectVersion
1070
     0
1000
AcDbSavedByObjectVersion
1070
     0
1000
AcDbSavedByObjectVersion
1070
     0
1000
AcDbSavedByObjectVersion
1070
     0
1000
AcDbSavedByObjectVersion
1070
     0
1000
AcDbSavedByObjectVersion
1070
     0
1000
AcDbSavedByObjectVersion
1070
     0
1000
AcDbSavedByObjectVersion
1070
     0
1000
AcDbSavedByObjectVersion
1070
     0
1000
AcDbSavedByObjectVersion
1070
     0
1000
AcDbSavedByObjectVersion
1070
     0
  0
DICTIONARYVAR
  5
510B
102
{ACAD_REACTORS
330
5108
102
}
330
5108
100
DictionaryVariables
280
     0
  1
1:1
  0
DICTIONARYVAR
  5
510A
102
{ACAD_REACTORS
330
5108
102
}
330
5108
100
DictionaryVariables
280
     0
  1
STANDARD
  0
DICTIONARYVAR
  5
5109
102
{ACAD_REACTORS
330
5108
102
}
330
5108
100
DictionaryVariables
280
     0
  1
STANDARD
  0
DICTIONARYVAR
  5
510E
102
{ACAD_REACTORS
330
5108
102
}
330
5108
100
DictionaryVariables
280
     0
  1
1
  0
DICTIONARYVAR
  5
510D
102
{ACAD_REACTORS
330
5108
102
}
330
5108
100
DictionaryVariables
280
     0
  1
0
  0
DICTIONARYVAR
  5
1E430
102
{ACAD_REACTORS
330
5108
102
}
330
5108
100
DictionaryVariables
280
     0
  1
0
  0
DICTIONARYVAR
  5
1E42F
102
{ACAD_REACTORS
330
5108
102
}
330
5108
100
DictionaryVariables
280
     0
  1
0
  0
DICTIONARYVAR
  5
510C
102
{ACAD_REACTORS
330
5108
102
}
330
5108
100
DictionaryVariables
280
     0
  1
127
  0
XRECORD
  5
14144
102
{ACAD_REACTORS
330
14143
102
}
330
14143
100
AcDbXrecord
280
     1
330
0
  0
DICTIONARY
  5
4FEF
330
4FEE
100
AcDbDictionary
280
     1
281
     1
  3
ACAD_XREC_ROUNDTRIP
360
7C2C
  3
BUMPTILE
360
4FF1
  3
DIFFUSETILE
360
4FF0
  3
OPACITYTILE
360
4FF4
  3
REFLECTIONTILE
360
4FF3
  3
REFRACTIONTILE
360
4FF5
  3
SPECULARTILE
360
4FF2
  0
DICTIONARY
  5
4FE7
330
4FE6
100
AcDbDictionary
280
     1
281
     1
  3
ACAD_XREC_ROUNDTRIP
360
7C2B
  3
BUMPTILE
360
4FE9
  3
DIFFUSETILE
360
4FE8
  3
OPACITYTILE
360
4FEC
  3
REFLECTIONTILE
360
4FEB
  3
REFRACTIONTILE
360
4FED
  3
SPECULARTILE
360
4FEA
  0
DICTIONARY
  5
4FF7
330
4FF6
100
AcDbDictionary
280
     1
281
     1
  3
ACAD_XREC_ROUNDTRIP
360
7C2D
  3
BUMPTILE
360
4FF9
  3
DIFFUSETILE
360
4FF8
  3
OPACITYTILE
360
4FFC
  3
REFLECTIONTILE
360
4FFB
  3
REFRACTIONTILE
360
4FFD
  3
SPECULARTILE
360
4FFA
  0
DICTIONARY
  5
50D6
330
4FFF
100
AcDbDictionary
280
     1
281
     1
  3
ACAD_ROUNDTRIP_2008_TABLESTYLE_CELLSTYLEMAP
360
1E43E
  0
XRECORD
  5
7C2C
102
{ACAD_REACTORS
330
4FEF
102
}
330
4FEF
100
AcDbXrecord
280
     1
102
MATERIAL
148
0.0
149
0.0
149
0.0
 93
        0
 94
      127
282
     0
 72
     0
 77
     0
171
     0
175
     0
179
     0
273
     0
  0
XRECORD
  5
4FF1
102
{ACAD_REACTORS
330
4FEF
102
}
330
4FEF
100
AcDbXrecord
280
     1
270
     1
271
     1
  0
XRECORD
  5
4FF0
102
{ACAD_REACTORS
330
4FEF
102
}
330
4FEF
100
AcDbXrecord
280
     1
270
     1
271
     1
  0
XRECORD
  5
4FF4
102
{ACAD_REACTORS
330
4FEF
102
}
330
4FEF
100
AcDbXrecord
280
     1
270
     1
271
     1
  0
XRECORD
  5
4FF3
102
{ACAD_REACTORS
330
4FEF
102
}
330
4FEF
100
AcDbXrecord
280
     1
270
     1
271
     1
  0
XRECORD
  5
4FF5
102
{ACAD_REACTORS
330
4FEF
102
}
330
4FEF
100
AcDbXrecord
280
     1
270
     1
271
     1
  0
XRECORD
  5
4FF2
102
{ACAD_REACTORS
330
4FEF
102
}
330
4FEF
100
AcDbXrecord
280
     1
270
     1
271
     1
  0
XRECORD
  5
7C2B
102
{ACAD_REACTORS
330
4FE7
102
}
330
4FE7
100
AcDbXrecord
280
     1
102
MATERIAL
148
0.0
149
0.0
149
0.0
 93
        0
 94
      127
282
     0
 72
     0
 77
     0
171
     0
175
     0
179
     0
273
     0
  0
XRECORD
  5
4FE9
102
{ACAD_REACTORS
330
4FE7
102
}
330
4FE7
100
AcDbXrecord
280
     1
270
     1
271
     1
  0
XRECORD
  5
4FE8
102
{ACAD_REACTORS
330
4FE7
102
}
330
4FE7
100
AcDbXrecord
280
     1
270
     1
271
     1
  0
XRECORD
  5
4FEC
102
{ACAD_REACTORS
330
4FE7
102
}
330
4FE7
100
AcDbXrecord
280
     1
270
     1
271
     1
  0
XRECORD
  5
4FEB
102
{ACAD_REACTORS
330
4FE7
102
}
330
4FE7
100
AcDbXrecord
280
     1
270
     1
271
     1
  0
XRECORD
  5
4FED
102
{ACAD_REACTORS
330
4FE7
102
}
330
4FE7
100
AcDbXrecord
280
     1
270
     1
271
     1
  0
XRECORD
  5
4FEA
102
{ACAD_REACTORS
330
4FE7
102
}
330
4FE7
100
AcDbXrecord
280
     1
270
     1
271
     1
  0
XRECORD
  5
7C2D
102
{ACAD_REACTORS
330
4FF7
102
}
330
4FF7
100
AcDbXrecord
280
     1
102
MATERIAL
148
0.0
149
0.0
149
0.0
 93
        0
 94
      127
282
     0
 72
     0
 77
     0
171
     0
175
     0
179
     0
273
     0
  0
XRECORD
  5
4FF9
102
{ACAD_REACTORS
330
4FF7
102
}
330
4FF7
100
AcDbXrecord
280
     1
270
     1
271
     1
  0
XRECORD
  5
4FF8
102
{ACAD_REACTORS
330
4FF7
102
}
330
4FF7
100
AcDbXrecord
280
     1
270
     1
271
     1
  0
XRECORD
  5
4FFC
102
{ACAD_REACTORS
330
4FF7
102
}
330
4FF7
100
AcDbXrecord
280
     1
270
     1
271
     1
  0
XRECORD
  5
4FFB
102
{ACAD_REACTORS
330
4FF7
102
}
330
4FF7
100
AcDbXrecord
280
     1
270
     1
271
     1
  0
XRECORD
  5
4FFD
102
{ACAD_REACTORS
330
4FF7
102
}
330
4FF7
100
AcDbXrecord
280
     1
270
     1
271
     1
  0
XRECORD
  5
4FFA
102
{ACAD_REACTORS
330
4FF7
102
}
330
4FF7
100
AcDbXrecord
280
     1
270
     1
271
     1
  0
CELLSTYLEMAP
  5
1E43E
102
{ACAD_REACTORS
330
50D6
102
}
330
50D6
100
AcDbCellStyleMap
 90
        3
300
CELLSTYLE
  1
TABLEFORMAT_BEGIN
 90
        5
170
     1
 91
        0
 92
    32768
 62
   257
 93
        1
300
CONTENTFORMAT
  1
CONTENTFORMAT_BEGIN
 90
        0
 91
        0
 92
      512
 93
        0
300

 40
0.0
140
1.0
 94
        5
 62
     0
340
11
144
0.25
309
CONTENTFORMAT_END
171
     1
301
MARGIN
  1
CELLMARGIN_BEGIN
 40
0.06
 40
0.06
 40
0.06
 40
0.06
 40
0.18
 40
0.18
309
CELLMARGIN_END
 94
        6
 95
        1
302
GRIDFORMAT
  1
GRIDFORMAT_BEGIN
 90
        0
 91
        1
 62
     0
 92
       -2
340
0
 93
        0
 40
0.045
309
GRIDFORMAT_END
 95
        2
302
GRIDFORMAT
  1
GRIDFORMAT_BEGIN
 90
        0
 91
        1
 62
     0
 92
       -2
340
0
 93
        0
 40
0.045
309
GRIDFORMAT_END
 95
        4
302
GRIDFORMAT
  1
GRIDFORMAT_BEGIN
 90
        0
 91
        1
 62
     0
 92
       -2
340
0
 93
        0
 40
0.045
309
GRIDFORMAT_END
 95
        8
302
GRIDFORMAT
  1
GRIDFORMAT_BEGIN
 90
        0
 91
        1
 62
     0
 92
       -2
340
0
 93
        0
 40
0.045
309
GRIDFORMAT_END
 95
       16
302
GRIDFORMAT
  1
GRIDFORMAT_BEGIN
 90
        0
 91
        1
 62
     0
 92
       -2
340
0
 93
        0
 40
0.045
309
GRIDFORMAT_END
 95
       32
302
GRIDFORMAT
  1
GRIDFORMAT_BEGIN
 90
        0
 91
        1
 62
     0
 92
       -2
340
0
 93
        0
 40
0.045
309
GRIDFORMAT_END
309
TABLEFORMAT_END
  1
CELLSTYLE_BEGIN
 90
        1
 91
        1
300
_TITLE
309
CELLSTYLE_END
300
CELLSTYLE
  1
TABLEFORMAT_BEGIN
 90
        5
170
     1
 91
        0
 92
        0
 62
   257
 93
        1
300
CONTENTFORMAT
  1
CONTENTFORMAT_BEGIN
 90
        0
 91
        0
 92
      512
 93
        0
300

 40
0.0
140
1.0
 94
        5
 62
     0
340
11
144
0.18
309
CONTENTFORMAT_END
171
     1
301
MARGIN
  1
CELLMARGIN_BEGIN
 40
0.06
 40
0.06
 40
0.06
 40
0.06
 40
0.18
 40
0.18
309
CELLMARGIN_END
 94
        6
 95
        1
302
GRIDFORMAT
  1
GRIDFORMAT_BEGIN
 90
        0
 91
        1
 62
     0
 92
       -2
340
0
 93
        0
 40
0.045
309
GRIDFORMAT_END
 95
        2
302
GRIDFORMAT
  1
GRIDFORMAT_BEGIN
 90
        0
 91
        1
 62
     0
 92
       -2
340
0
 93
        0
 40
0.045
309
GRIDFORMAT_END
 95
        4
302
GRIDFORMAT
  1
GRIDFORMAT_BEGIN
 90
        0
 91
        1
 62
     0
 92
       -2
340
0
 93
        0
 40
0.045
309
GRIDFORMAT_END
 95
        8
302
GRIDFORMAT
  1
GRIDFORMAT_BEGIN
 90
        0
 91
        1
 62
     0
 92
       -2
340
0
 93
        0
 40
0.045
309
GRIDFORMAT_END
 95
       16
302
GRIDFORMAT
  1
GRIDFORMAT_BEGIN
 90
        0
 91
        1
 62
     0
 92
       -2
340
0
 93
        0
 40
0.045
309
GRIDFORMAT_END
 95
       32
302
GRIDFORMAT
  1
GRIDFORMAT_BEGIN
 90
        0
 91
        1
 62
     0
 92
       -2
340
0
 93
        0
 40
0.045
309
GRIDFORMAT_END
309
TABLEFORMAT_END
  1
CELLSTYLE_BEGIN
 90
        2
 91
        1
300
_HEADER
309
CELLSTYLE_END
300
CELLSTYLE
  1
TABLEFORMAT_BEGIN
 90
        5
170
     1
 91
        0
 92
        0
 62
   257
 93
        1
300
CONTENTFORMAT
  1
CONTENTFORMAT_BEGIN
 90
        0
 91
        0
 92
      512
 93
        0
300

 40
0.0
140
1.0
 94
        2
 62
     0
340
11
144
0.18
309
CONTENTFORMAT_END
171
     1
301
MARGIN
  1
CELLMARGIN_BEGIN
 40
0.06
 40
0.06
 40
0.06
 40
0.06
 40
0.18
 40
0.18
309
CELLMARGIN_END
 94
        6
 95
        1
302
GRIDFORMAT
  1
GRIDFORMAT_BEGIN
 90
        0
 91
        1
 62
     0
 92
       -2
340
0
 93
        0
 40
0.045
309
GRIDFORMAT_END
 95
        2
302
GRIDFORMAT
  1
GRIDFORMAT_BEGIN
 90
        0
 91
        1
 62
     0
 92
       -2
340
0
 93
        0
 40
0.045
309
GRIDFORMAT_END
 95
        4
302
GRIDFORMAT
  1
GRIDFORMAT_BEGIN
 90
        0
 91
        1
 62
     0
 92
       -2
340
0
 93
        0
 40
0.045
309
GRIDFORMAT_END
 95
        8
302
GRIDFORMAT
  1
GRIDFORMAT_BEGIN
 90
        0
 91
        1
 62
     0
 92
       -2
340
0
 93
        0
 40
0.045
309
GRIDFORMAT_END
 95
       16
302
GRIDFORMAT
  1
GRIDFORMAT_BEGIN
 90
        0
 91
        1
 62
     0
 92
       -2
340
0
 93
        0
 40
0.045
309
GRIDFORMAT_END
 95
       32
302
GRIDFORMAT
  1
GRIDFORMAT_BEGIN
 90
        0
 91
        1
 62
     0
 92
       -2
340
0
 93
        0
 40
0.045
309
GRIDFORMAT_END
309
TABLEFORMAT_END
  1
CELLSTYLE_BEGIN
 90
        3
 91
        2
300
_DATA
309
CELLSTYLE_END
  0
ENDSEC
  0
EOF
