  0
SECTION
  2
HEADER
  9
$ACADVER
  1
AC1021
  9
$ACADMAINTVER
 70
    25
  9
$DWGCODEPAGE
  3
ANSI_936
  9
$LASTSAVEDBY
  1
zb.ye
  9
$INSBASE
 10
0.0
 20
0.0
 30
0.0
  9
$EXTMIN
 10
686.0368264249705
 20
184.185148607361
 30
-0.000000000000013
  9
$EXTMAX
 10
760.2870018845224
 20
236.7031812527281
 30
0.0000000000000023
  9
$LIMMIN
 10
0.0
 20
0.0
  9
$LIMMAX
 10
12.0
 20
9.0
  9
$ORTHOMODE
 70
     0
  9
$REGENMODE
 70
     1
  9
$FILLMODE
 70
     1
  9
$QTEXTMODE
 70
     0
  9
$MIRRTEXT
 70
     1
  9
$LTSCALE
 40
1.0
  9
$ATTMODE
 70
     1
  9
$TEXTSIZE
 40
0.2
  9
$TRACEWID
 40
0.05
  9
$TEXTSTYLE
  7
Standard
  9
$CLAYER
  8
0
  9
$CELTYPE
  6
ByLayer
  9
$CECOLOR
 62
   256
  9
$CELTSCALE
 40
1.0
  9
$DISPSILH
 70
     0
  9
$DIMSCALE
 40
1.0
  9
$DIMASZ
 40
1.5
  9
$DIMEXO
 40
0.2
  9
$DIMDLI
 40
0.2
  9
$DIMRND
 40
0.0
  9
$DIMDLE
 40
0.0
  9
$DIMEXE
 40
0.5
  9
$DIMTP
 40
0.0
  9
$DIMTM
 40
0.0
  9
$DIMTXT
 40
2.0
  9
$DIMCEN
 40
0.0
  9
$DIMTSZ
 40
0.0
  9
$DIMTOL
 70
     0
  9
$DIMLIM
 70
     0
  9
$DIMTIH
 70
     0
  9
$DIMTOH
 70
     0
  9
$DIMSE1
 70
     0
  9
$DIMSE2
 70
     0
  9
$DIMTAD
 70
     1
  9
$DIMZIN
 70
     8
  9
$DIMBLK
  1

  9
$DIMASO
 70
     1
  9
$DIMSHO
 70
     1
  9
$DIMPOST
  1

  9
$DIMAPOST
  1

  9
$DIMALT
 70
     0
  9
$DIMALTD
 70
     2
  9
$DIMALTF
 40
25.4
  9
$DIMLFAC
 40
1.0
  9
$DIMTOFL
 70
     0
  9
$DIMTVP
 40
0.0
  9
$DIMTIX
 70
     0
  9
$DIMSOXD
 70
     0
  9
$DIMSAH
 70
     0
  9
$DIMBLK1
  1

  9
$DIMBLK2
  1

  9
$DIMSTYLE
  2
01
  9
$DIMCLRD
 70
     1
  9
$DIMCLRE
 70
     6
  9
$DIMCLRT
 70
     4
  9
$DIMTFAC
 40
1.0
  9
$DIMGAP
 40
0.5
  9
$DIMJUST
 70
     0
  9
$DIMSD1
 70
     0
  9
$DIMSD2
 70
     0
  9
$DIMTOLJ
 70
     1
  9
$DIMTZIN
 70
     0
  9
$DIMALTZ
 70
     0
  9
$DIMALTTZ
 70
     0
  9
$DIMUPT
 70
     0
  9
$DIMDEC
 70
     1
  9
$DIMTDEC
 70
     1
  9
$DIMALTU
 70
     2
  9
$DIMALTTD
 70
     2
  9
$DIMTXSTY
  7
Romans字体
  9
$DIMAUNIT
 70
     0
  9
$DIMADEC
 70
     2
  9
$DIMALTRND
 40
0.0
  9
$DIMAZIN
 70
     2
  9
$DIMDSEP
 70
    46
  9
$DIMATFIT
 70
     3
  9
$DIMFRAC
 70
     0
  9
$DIMLDRBLK
  1

  9
$DIMLUNIT
 70
     2
  9
$DIMLWD
 70
    -2
  9
$DIMLWE
 70
    -2
  9
$DIMTMOVE
 70
     0
  9
$DIMFXL
 40
1.0
  9
$DIMFXLON
 70
     0
  9
$DIMJOGANG
 40
0.7853981633974483
  9
$DIMTFILL
 70
     0
  9
$DIMTFILLCLR
 70
     0
  9
$DIMARCSYM
 70
     0
  9
$DIMLTYPE
  6

  9
$DIMLTEX1
  6

  9
$DIMLTEX2
  6

  9
$LUNITS
 70
     2
  9
$LUPREC
 70
     4
  9
$SKETCHINC
 40
0.1
  9
$FILLETRAD
 40
0.5
  9
$AUNITS
 70
     0
  9
$AUPREC
 70
     0
  9
$MENU
  1
.
  9
$ELEVATION
 40
0.0
  9
$PELEVATION
 40
0.0
  9
$THICKNESS
 40
0.0
  9
$LIMCHECK
 70
     0
  9
$CHAMFERA
 40
0.5
  9
$CHAMFERB
 40
0.5
  9
$CHAMFERC
 40
1.0
  9
$CHAMFERD
 40
0.0
  9
$SKPOLY
 70
     0
  9
$TDCREATE
 40
2456524.383632987
  9
$TDUCREATE
 40
2456524.050299653
  9
$TDUPDATE
 40
2460292.462313449
  9
$TDUUPDATE
 40
2460292.128980116
  9
$TDINDWG
 40
1.2587743519
  9
$TDUSRTIMER
 40
1.2587552431
  9
$USRTIMER
 70
     1
  9
$ANGBASE
 50
0.0
  9
$ANGDIR
 70
     0
  9
$PDMODE
 70
     0
  9
$PDSIZE
 40
0.0
  9
$PLINEWID
 40
0.0
  9
$SPLFRAME
 70
     0
  9
$SPLINETYPE
 70
     6
  9
$SPLINESEGS
 70
     8
  9
$HANDSEED
  5
150DB
  9
$SURFTAB1
 70
     6
  9
$SURFTAB2
 70
     6
  9
$SURFTYPE
 70
     6
  9
$SURFU
 70
     6
  9
$SURFV
 70
     6
  9
$UCSBASE
  2

  9
$UCSNAME
  2

  9
$UCSORG
 10
0.0
 20
0.0
 30
0.0
  9
$UCSXDIR
 10
1.0
 20
0.0
 30
0.0
  9
$UCSYDIR
 10
0.0
 20
1.0
 30
0.0
  9
$UCSORTHOREF
  2

  9
$UCSORTHOVIEW
 70
     0
  9
$UCSORGTOP
 10
0.0
 20
0.0
 30
0.0
  9
$UCSORGBOTTOM
 10
0.0
 20
0.0
 30
0.0
  9
$UCSORGLEFT
 10
0.0
 20
0.0
 30
0.0
  9
$UCSORGRIGHT
 10
0.0
 20
0.0
 30
0.0
  9
$UCSORGFRONT
 10
0.0
 20
0.0
 30
0.0
  9
$UCSORGBACK
 10
0.0
 20
0.0
 30
0.0
  9
$PUCSBASE
  2

  9
$PUCSNAME
  2

  9
$PUCSORG
 10
0.0
 20
0.0
 30
0.0
  9
$PUCSXDIR
 10
1.0
 20
0.0
 30
0.0
  9
$PUCSYDIR
 10
0.0
 20
1.0
 30
0.0
  9
$PUCSORTHOREF
  2

  9
$PUCSORTHOVIEW
 70
     0
  9
$PUCSORGTOP
 10
0.0
 20
0.0
 30
0.0
  9
$PUCSORGBOTTOM
 10
0.0
 20
0.0
 30
0.0
  9
$PUCSORGLEFT
 10
0.0
 20
0.0
 30
0.0
  9
$PUCSORGRIGHT
 10
0.0
 20
0.0
 30
0.0
  9
$PUCSORGFRONT
 10
0.0
 20
0.0
 30
0.0
  9
$PUCSORGBACK
 10
0.0
 20
0.0
 30
0.0
  9
$USERI1
 70
     0
  9
$USERI2
 70
     0
  9
$USERI3
 70
     0
  9
$USERI4
 70
     0
  9
$USERI5
 70
     0
  9
$USERR1
 40
0.0
  9
$USERR2
 40
0.0
  9
$USERR3
 40
0.0
  9
$USERR4
 40
0.0
  9
$USERR5
 40
0.0
  9
$WORLDVIEW
 70
     1
  9
$SHADEDGE
 70
     3
  9
$SHADEDIF
 70
    70
  9
$TILEMODE
 70
     1
  9
$MAXACTVP
 70
    64
  9
$PINSBASE
 10
0.0
 20
0.0
 30
0.0
  9
$PLIMCHECK
 70
     0
  9
$PEXTMIN
 10
1.000000000000000E+20
 20
1.000000000000000E+20
 30
1.000000000000000E+20
  9
$PEXTMAX
 10
-1.000000000000000E+20
 20
-1.000000000000000E+20
 30
-1.000000000000000E+20
  9
$PLIMMIN
 10
0.0
 20
0.0
  9
$PLIMMAX
 10
12.0
 20
9.0
  9
$UNITMODE
 70
     0
  9
$VISRETAIN
 70
     1
  9
$PLINEGEN
 70
     0
  9
$PSLTSCALE
 70
     1
  9
$TREEDEPTH
 70
  3020
  9
$CMLSTYLE
  2
Standard
  9
$CMLJUST
 70
     0
  9
$CMLSCALE
 40
1.0
  9
$PROXYGRAPHICS
 70
     1
  9
$MEASUREMENT
 70
     0
  9
$CELWEIGHT
370
    -1
  9
$ENDCAPS
280
     0
  9
$JOINSTYLE
280
     0
  9
$LWDISPLAY
290
     0
  9
$INSUNITS
 70
     1
  9
$HYPERLINKBASE
  1

  9
$STYLESHEET
  1
MONOCHROME.CTB
  9
$XEDIT
290
     1
  9
$CEPSNTYPE
380
     0
  9
$PSTYLEMODE
290
     1
  9
$FINGERPRINTGUID
  2
{4A02065B-8BB3-4A96-9036-502DC906C165}
  9
$VERSIONGUID
  2
{3810E99E-84B2-4DD5-8721-26C2E7FCD26A}
  9
$EXTNAMES
290
     1
  9
$PSVPSCALE
 40
0.0
  9
$OLESTARTUP
290
     0
  9
$SORTENTS
280
   127
  9
$INDEXCTL
280
     0
  9
$HIDETEXT
280
     0
  9
$XCLIPFRAME
290
     0
  9
$HALOGAP
280
     0
  9
$OBSCOLOR
 70
   257
  9
$OBSLTYPE
280
     0
  9
$INTERSECTIONDISPLAY
280
     0
  9
$INTERSECTIONCOLOR
 70
   257
  9
$DIMASSOC
280
     1
  9
$PROJECTNAME
  1

  9
$CAMERADISPLAY
290
     0
  9
$LENSLENGTH
 40
50.0
  9
$CAMERAHEIGHT
 40
0.0
  9
$STEPSPERSEC
 40
2.0
  9
$STEPSIZE
 40
6.0
  9
$3DDWFPREC
 40
2.0
  9
$PSOLWIDTH
 40
0.25
  9
$PSOLHEIGHT
 40
4.0
  9
$LOFTANG1
 40
1.570796326794896
  9
$LOFTANG2
 40
1.570796326794896
  9
$LOFTMAG1
 40
0.0
  9
$LOFTMAG2
 40
0.0
  9
$LOFTPARAM
 70
     7
  9
$LOFTNORMALS
280
     1
  9
$LATITUDE
 40
37.795
  9
$LONGITUDE
 40
-122.394
  9
$NORTHDIRECTION
 40
0.0
  9
$TIMEZONE
 70
 -8000
  9
$LIGHTGLYPHDISPLAY
280
     1
  9
$TILEMODELIGHTSYNCH
280
     1
  9
$CMATERIAL
347
4FE6
  9
$SOLIDHIST
280
     1
  9
$SHOWHIST
280
     1
  9
$DWFFRAME
280
     2
  9
$DGNFRAME
280
     0
  9
$REALWORLDSCALE
290
     1
  9
$INTERFERECOLOR
 62
     1
  9
$INTERFEREOBJVS
345
33
  9
$INTERFEREVPVS
346
30
  9
$CSHADOW
280
     0
  9
$SHADOWPLANELOCATION
 40
0.0
  0
ENDSEC
  0
SECTION
  2
CLASSES
  0
CLASS
  1
ACDBDICTIONARYWDFLT
  2
AcDbDictionaryWithDefault
  3
ObjectDBX Classes
 90
        0
 91
        1
280
     0
281
     0
  0
CLASS
  1
VISUALSTYLE
  2
AcDbVisualStyle
  3
ObjectDBX Classes
 90
     4095
 91
       16
280
     0
281
     0
  0
CLASS
  1
MATERIAL
  2
AcDbMaterial
  3
ObjectDBX Classes
 90
     1153
 91
        3
280
     0
281
     0
  0
CLASS
  1
TABLESTYLE
  2
AcDbTableStyle
  3
ObjectDBX Classes
 90
     4095
 91
        1
280
     0
281
     0
  0
CLASS
  1
SCALE
  2
AcDbScale
  3
ObjectDBX Classes
 90
     1153
 91
       33
280
     0
281
     0
  0
CLASS
  1
MLEADERSTYLE
  2
AcDbMLeaderStyle
  3
ACDB_MLEADERSTYLE_CLASS
 90
     4095
 91
        1
280
     0
281
     0
  0
CLASS
  1
CELLSTYLEMAP
  2
AcDbCellStyleMap
  3
ObjectDBX Classes
 90
     1152
 91
        2
280
     0
281
     0
  0
CLASS
  1
DICTIONARYVAR
  2
AcDbDictionaryVar
  3
ObjectDBX Classes
 90
        0
 91
        8
280
     0
281
     0
  0
CLASS
  1
SORTENTSTABLE
  2
AcDbSortentsTable
  3
ObjectDBX Classes
 90
        0
 91
        1
280
     0
281
     0
  0
CLASS
  1
ACAD_EVALUATION_GRAPH
  2
AcDbEvalGraph
  3
ObjectDBX Classes
 90
     1153
 91
        0
280
     0
281
     0
  0
CLASS
  1
ACAECUSTOBJ
  2
AcAeEditorObj
  3
AcAeEditorObj
 90
     1024
 91
        0
280
     0
281
     0
  0
CLASS
  1
ACDB_DYNAMICBLOCKPURGEPREVENTER_VERSION
  2
AcDbDynamicBlockPurgePreventer
  3
ObjectDBX Classes
 90
     1153
 91
        0
280
     0
281
     0
  0
CLASS
  1
MENTALRAYRENDERSETTINGS
  2
AcDbMentalRayRenderSettings
  3
SCENEOE
 90
     1024
 91
        1
280
     0
281
     0
  0
CLASS
  1
ACDB_BLOCKREPRESENTATION_DATA
  2
AcDbBlockRepresentationData
  3
ObjectDBX Classes
 90
     1153
 91
        0
280
     0
281
     0
  0
CLASS
  1
DIMASSOC
  2
AcDbDimAssoc
  3
"AcDbDimAssoc|Product Desc:     AcDim ARX App For Dimension|Company:          Autodesk, Inc.|WEB Address:      www.autodesk.com"
 90
        0
 91
        2
280
     0
281
     0
  0
ENDSEC
  0
SECTION
  2
TABLES
  0
TABLE
  2
VPORT
  5
8
102
{ACAD_XDICTIONARY
360
50EE
102
}
330
0
100
AcDbSymbolTable
 70
     1
  0
VPORT
  5
29
330
8
100
AcDbSymbolTableRecord
100
AcDbViewportTableRecord
  2
*Active
 70
     0
 10
0.0
 20
0.0
 11
1.0
 21
1.0
 12
618.1964172828378
 22
61.94193416144674
 13
0.0
 23
0.0
 14
0.5
 24
0.5
 15
0.5
 25
0.5
 16
0.0
 26
0.0
 36
1.0
 17
104.9654968719086
 27
148.5022307685978
 37
0.0
 40
53.05031000325928
 41
2.426395939086293
 42
50.0
 43
0.0
 44
0.0
 50
0.0
 51
0.0
 71
     0
 72
   100
 73
     1
 74
     3
 75
     0
 76
     0
 77
     0
 78
     0
281
     0
 65
     1
110
0.0
120
0.0
130
0.0
111
1.0
121
0.0
131
0.0
112
0.0
122
1.0
132
0.0
 79
     0
146
0.0
348
2F
 60
     3
 61
     5
292
     1
282
     1
141
0.0
142
0.0
 63
   250
421
  3355443
  0
ENDTAB
  0
TABLE
  2
LTYPE
  5
5
330
0
100
AcDbSymbolTable
 70
     2
  0
LTYPE
  5
14
330
5
100
AcDbSymbolTableRecord
100
AcDbLinetypeTableRecord
  2
ByBlock
 70
     0
  3

 72
    65
 73
     0
 40
0.0
  0
LTYPE
  5
15
330
5
100
AcDbSymbolTableRecord
100
AcDbLinetypeTableRecord
  2
ByLayer
 70
     0
  3

 72
    65
 73
     0
 40
0.0
  0
LTYPE
  5
16
330
5
100
AcDbSymbolTableRecord
100
AcDbLinetypeTableRecord
  2
Continuous
 70
     0
  3
Solid line
 72
    65
 73
     0
 40
0.0
  0
LTYPE
  5
67BA
330
5
100
AcDbSymbolTableRecord
100
AcDbLinetypeTableRecord
  2
CENTER
 70
     0
  3
Center ____ _ ____ _ ____ _ ____ _ ____ _ ____
 72
    65
 73
     4
 40
2.0
 49
1.25
 74
     0
 49
-0.25
 74
     0
 49
0.25
 74
     0
 49
-0.25
 74
     0
  0
ENDTAB
  0
TABLE
  2
LAYER
  5
2
102
{ACAD_XDICTIONARY
360
50B8
102
}
330
0
100
AcDbSymbolTable
 70
     9
  0
LAYER
  5
10
102
{ACAD_XDICTIONARY
360
50D0
102
}
330
2
100
AcDbSymbolTableRecord
100
AcDbLayerTableRecord
  2
0
 70
     0
 62
     7
  6
Continuous
370
    25
390
F
347
4FF6
  0
LAYER
  5
3B
102
{ACAD_XDICTIONARY
360
50D2
102
}
330
2
100
AcDbSymbolTableRecord
100
AcDbLayerTableRecord
  2
图层 1
 70
     0
 62
     7
  6
Continuous
370
    -3
390
F
347
4FF6
  0
LAYER
  5
50AE
102
{ACAD_XDICTIONARY
360
50AF
102
}
330
2
100
AcDbSymbolTableRecord
100
AcDbLayerTableRecord
  2
图框
 70
     0
 62
     7
  6
Continuous
370
    20
390
F
347
4FF6
  0
LAYER
  5
5141
330
2
100
AcDbSymbolTableRecord
100
AcDbLayerTableRecord
  2
Defpoints
 70
     0
 62
     7
  6
Continuous
290
     0
370
    -3
390
F
347
4FF6
  0
LAYER
  5
5144
330
2
100
AcDbSymbolTableRecord
100
AcDbLayerTableRecord
  2
DIM
 70
     0
 62
     3
  6
Continuous
370
    15
390
F
347
4FF6
1001
AcAecLayerStandard
1000

1000

  0
LAYER
  5
52F3
330
2
100
AcDbSymbolTableRecord
100
AcDbLayerTableRecord
  2
打标文字
 70
     0
 62
     3
  6
Continuous
370
    20
390
F
347
4FF6
  0
LAYER
  5
67B7
330
2
100
AcDbSymbolTableRecord
100
AcDbLayerTableRecord
  2
CEN
 70
     0
 62
     1
  6
CENTER
370
    15
390
F
347
4FF6
1001
AcAecLayerStandard
1000

1000

  0
LAYER
  5
11B6B
330
2
100
AcDbSymbolTableRecord
100
AcDbLayerTableRecord
  2
hat
 70
     0
 62
     6
  6
Continuous
370
    15
390
F
347
4FF6
1001
AcAecLayerStandard
1000

1000

  0
LAYER
  5
13E1D
330
2
100
AcDbSymbolTableRecord
100
AcDbLayerTableRecord
  2
02___PRT_ALL_AXES
 70
     0
 62
     7
  6
Continuous
370
    -3
390
F
347
4FF6
  0
ENDTAB
  0
TABLE
  2
STYLE
  5
3
330
0
100
AcDbSymbolTable
 70
     4
  0
STYLE
  5
11
330
3
100
AcDbSymbolTableRecord
100
AcDbTextStyleTableRecord
  2
Standard
 70
     0
 40
0.0
 41
0.75
 50
0.0
 71
     0
 42
0.2
  3
SIMFANG.TTF
  4

1001
ACAD
1000
FangSong_GB2312
1071
    34353
  0
STYLE
  5
FD48
330
3
100
AcDbSymbolTableRecord
100
AcDbTextStyleTableRecord
  2
Romans字体
 70
     0
 40
0.0
 41
0.75
 50
0.0
 71
     0
 42
0.2
  3
romans.shx
  4

  0
STYLE
  5
11080
330
3
100
AcDbSymbolTableRecord
100
AcDbTextStyleTableRecord
  2
工程字
 70
     0
 40
0.0
 41
1.0
 50
0.0
 71
     0
 42
3.5
  3
gbenor.shx
  4
gbcbig.shx
  0
STYLE
  5
11081
330
3
100
AcDbSymbolTableRecord
100
AcDbTextStyleTableRecord
  2
Chinese
 70
     0
 40
0.0
 41
1.0
 50
0.0
 71
     0
 42
2.5
  3
PMingLiU.ttf
  4

1001
ACAD
1000
PMingLiU
1071
    34834
  0
ENDTAB
  0
TABLE
  2
VIEW
  5
6
330
0
100
AcDbSymbolTable
 70
     0
  0
ENDTAB
  0
TABLE
  2
UCS
  5
7
330
0
100
AcDbSymbolTable
 70
     0
  0
ENDTAB
  0
TABLE
  2
APPID
  5
9
330
0
100
AcDbSymbolTable
 70
    18
  0
APPID
  5
12
330
9
100
AcDbSymbolTableRecord
100
AcDbRegAppTableRecord
  2
ACAD
 70
     0
  0
APPID
  5
5024
330
9
100
AcDbSymbolTableRecord
100
AcDbRegAppTableRecord
  2
ACAD_MLEADERVER
 70
     0
  0
APPID
  5
50B5
330
9
100
AcDbSymbolTableRecord
100
AcDbRegAppTableRecord
  2
AcDbDynamicBlockGUID
 70
     0
  0
APPID
  5
50B6
330
9
100
AcDbSymbolTableRecord
100
AcDbRegAppTableRecord
  2
AcDbBlockRepETag
 70
     0
  0
APPID
  5
50B7
330
9
100
AcDbSymbolTableRecord
100
AcDbRegAppTableRecord
  2
ACAD_PSEXT
 70
     0
  0
APPID
  5
50CF
330
9
100
AcDbSymbolTableRecord
100
AcDbRegAppTableRecord
  2
AcadAnnoPO
 70
     0
  0
APPID
  5
5146
330
9
100
AcDbSymbolTableRecord
100
AcDbRegAppTableRecord
  2
AcAecLayerStandard
 70
     0
  0
APPID
  5
5147
330
9
100
AcDbSymbolTableRecord
100
AcDbRegAppTableRecord
  2
ACAD_DSTYLE_DIMJAG
 70
     0
  0
APPID
  5
5148
330
9
100
AcDbSymbolTableRecord
100
AcDbRegAppTableRecord
  2
ACAD_DSTYLE_DIMTALN
 70
     0
  0
APPID
  5
52AD
330
9
100
AcDbSymbolTableRecord
100
AcDbRegAppTableRecord
  2
ACAUTHENVIRON
 70
     0
  0
APPID
  5
52B0
330
9
100
AcDbSymbolTableRecord
100
AcDbRegAppTableRecord
  2
AcDbDynamicBlockTrueName
 70
     0
  0
APPID
  5
67C6
330
9
100
AcDbSymbolTableRecord
100
AcDbRegAppTableRecord
  2
ACAD_EXEMPT_FROM_CAD_STANDARDS
 70
     0
  0
APPID
  5
6838
330
9
100
AcDbSymbolTableRecord
100
AcDbRegAppTableRecord
  2
ACAD_NAV_VCDISPLAY
 70
     0
  0
APPID
  5
70A9
330
9
100
AcDbSymbolTableRecord
100
AcDbRegAppTableRecord
  2
DCO15
 70
     0
  0
APPID
  5
8725
330
9
100
AcDbSymbolTableRecord
100
AcDbRegAppTableRecord
  2
AcDbBlockRepBTag
 70
     0
  0
APPID
  5
FE64
330
9
100
AcDbSymbolTableRecord
100
AcDbRegAppTableRecord
  2
ACAD_DSTYLE_DIMRADIAL_EXTENSION
 70
     0
  0
APPID
  5
FF93
330
9
100
AcDbSymbolTableRecord
100
AcDbRegAppTableRecord
  2
ACAD_DSTYLE_DIMBREAK
 70
     0
  0
APPID
  5
137D7
330
9
100
AcDbSymbolTableRecord
100
AcDbRegAppTableRecord
  2
ACAD_DSTYLE_DIMINSPECT
 70
     0
  0
ENDTAB
  0
TABLE
  2
DIMSTYLE
  5
A
330
0
100
AcDbSymbolTable
 70
     2
100
AcDbDimStyleTable
 71
     2
340
5145
340
27
  0
DIMSTYLE
105
27
330
A
100
AcDbSymbolTableRecord
100
AcDbDimStyleTableRecord
  2
Standard
 70
     0
340
11
  0
DIMSTYLE
105
5145
102
{ACAD_REACTORS
330
14BA3
330
14B56
330
14B75
330
14B74
330
14B97
330
14B53
102
}
330
A
100
AcDbSymbolTableRecord
100
AcDbDimStyleTableRecord
  2
01
 70
     0
 41
1.5
 42
0.2
 43
0.2
 44
0.5
 73
     0
 74
     0
 77
     1
 78
     8
 79
     2
140
2.0
141
0.0
147
0.5
176
     1
177
     6
178
     4
179
     2
271
     1
272
     1
340
FD48
1001
ACAD_DSTYLE_DIMJAG
1070
   388
1040
1.5
1001
ACAD_DSTYLE_DIMTALN
1070
   392
1070
     0
  0
ENDTAB
  0
TABLE
  2
BLOCK_RECORD
  5
1
330
0
100
AcDbSymbolTable
 70
     7
  0
BLOCK_RECORD
  5
1F
102
{ACAD_XDICTIONARY
360
67C0
102
}
330
1
100
AcDbSymbolTableRecord
100
AcDbBlockTableRecord
  2
*Model_Space
340
22
 70
     0
280
     1
281
     0
  0
BLOCK_RECORD
  5
1B
330
1
100
AcDbSymbolTableRecord
100
AcDbBlockTableRecord
  2
*Paper_Space
340
1E
 70
     0
280
     1
281
     0
  0
BLOCK_RECORD
  5
23
330
1
100
AcDbSymbolTableRecord
100
AcDbBlockTableRecord
  2
*Paper_Space0
340
26
 70
     0
280
     1
281
     0
  0
BLOCK_RECORD
  5
14BA6
330
1
100
AcDbSymbolTableRecord
100
AcDbBlockTableRecord
  2
*D1
340
0
 70
     0
280
     1
281
     0
  0
BLOCK_RECORD
  5
14BB3
330
1
100
AcDbSymbolTableRecord
100
AcDbBlockTableRecord
  2
*D2
340
0
 70
     0
280
     1
281
     0
  0
BLOCK_RECORD
  5
14BC0
330
1
100
AcDbSymbolTableRecord
100
AcDbBlockTableRecord
  2
*D3
340
0
 70
     0
280
     1
281
     0
  0
BLOCK_RECORD
  5
14BCD
330
1
100
AcDbSymbolTableRecord
100
AcDbBlockTableRecord
  2
*D4
340
0
 70
     0
280
     1
281
     0
  0
BLOCK_RECORD
  5
14BDA
330
1
100
AcDbSymbolTableRecord
100
AcDbBlockTableRecord
  2
*D5
340
0
 70
     0
280
     1
281
     0
  0
BLOCK_RECORD
  5
14C04
330
1
100
AcDbSymbolTableRecord
100
AcDbBlockTableRecord
  2
*D6
340
0
 70
     0
280
     1
281
     0
  0
ENDTAB
  0
ENDSEC
  0
SECTION
  2
BLOCKS
  0
BLOCK
  5
20
330
1F
100
AcDbEntity
  8
0
100
AcDbBlockBegin
  2
*Model_Space
 70
     0
 10
0.0
 20
0.0
 30
0.0
  3
*Model_Space
  1

  0
ENDBLK
  5
21
330
1F
100
AcDbEntity
  8
0
100
AcDbBlockEnd
  0
BLOCK
  5
1C
330
1B
100
AcDbEntity
 67
     1
  8
0
100
AcDbBlockBegin
  2
*Paper_Space
 70
     0
 10
0.0
 20
0.0
 30
0.0
  3
*Paper_Space
  1

  0
ENDBLK
  5
1D
330
1B
100
AcDbEntity
 67
     1
  8
0
100
AcDbBlockEnd
  0
BLOCK
  5
24
330
23
100
AcDbEntity
 67
     1
  8
0
100
AcDbBlockBegin
  2
*Paper_Space0
 70
     0
 10
0.0
 20
0.0
 30
0.0
  3
*Paper_Space0
  1

  0
ENDBLK
  5
25
330
23
100
AcDbEntity
 67
     1
  8
0
100
AcDbBlockEnd
  0
BLOCK
  5
14BA7
330
14BA6
100
AcDbEntity
  8
0
100
AcDbBlockBegin
  2
*D1
 70
     1
 10
0.0
 20
0.0
 30
0.0
  3
*D1
  1

  0
LINE
  5
14F39
330
14BA6
100
AcDbEntity
  8
DIM
 62
     6
370
    -2
100
AcDbLine
 10
703.2319119057028
 20
208.2450200553959
 30
0.0
 11
698.6900394538365
 21
208.2450200553959
 31
0.0
  0
LINE
  5
14F3A
330
14BA6
100
AcDbEntity
  8
DIM
 62
     6
370
    -2
100
AcDbLine
 10
703.2319119057028
 20
205.0450200545952
 30
0.0
 11
698.6900394538365
 21
205.0450200545952
 31
0.0
  0
LINE
  5
14F3B
330
14BA6
100
AcDbEntity
  8
DIM
 62
     1
370
    -2
100
AcDbLine
 10
698.8900394538368
 20
206.0450200545953
 30
0.0
 11
698.8900394538368
 21
207.2450200553959
 31
0.0
  0
LINE
  5
14F3C
330
14BA6
100
AcDbEntity
  8
DIM
 62
     1
370
    -2
100
AcDbLine
 10
698.8900394538368
 20
208.2450200553959
 30
0.0
 11
698.8900394538368
 21
212.3450200553959
 31
0.0
  0
SOLID
  5
14F3D
330
14BA6
100
AcDbEntity
  8
DIM
 62
     1
100
AcDbTrace
 10
698.7233727871697
 20
206.0450200545953
 30
0.0
 11
699.0567061205032
 21
206.0450200545953
 31
0.0
 12
698.8900394538368
 22
205.0450200545952
 32
0.0
 13
698.8900394538368
 23
205.0450200545952
 33
0.0
  0
SOLID
  5
14F3E
330
14BA6
100
AcDbEntity
  8
DIM
 62
     1
100
AcDbTrace
 10
698.7233727871697
 20
207.2450200553959
 30
0.0
 11
699.0567061205032
 21
207.2450200553959
 31
0.0
 12
698.8900394538368
 22
208.2450200553959
 32
0.0
 13
698.8900394538368
 23
208.2450200553959
 33
0.0
  0
MTEXT
  5
14F3F
330
14BA6
100
AcDbEntity
  8
DIM
 62
     4
100
AcDbMText
 10
698.0900394538366
 20
210.795020055396
 30
0.0
 40
1.199999999999999
 41
0.0
 46
0.0
 71
     5
 72
     1
  1
\A1;%%c3.2
  7
Romans字体
 11
0.0000000000000001
 21
1.0
 31
0.0
 73
     1
 44
1.0
1001
ACAD
1000
MTEXTBEGIN
1070
    73
1070
     1
1070
    44
1040
1.0
1070
    74
1070
     0
1000
MTEXTEND
  0
POINT
  5
14F40
330
14BA6
100
AcDbEntity
  8
Defpoints
 62
     0
100
AcDbPoint
 10
703.4319119057028
 20
208.2450200553959
 30
0.0
  0
POINT
  5
14F41
330
14BA6
100
AcDbEntity
  8
Defpoints
 62
     0
100
AcDbPoint
 10
703.4319119057028
 20
205.0450200545952
 30
0.0
  0
POINT
  5
14F42
330
14BA6
100
AcDbEntity
  8
Defpoints
 62
     0
100
AcDbPoint
 10
698.8900394538368
 20
205.0450200545952
 30
0.0
  0
ENDBLK
  5
14BA8
330
14BA6
100
AcDbEntity
  8
0
100
AcDbBlockEnd
  0
BLOCK
  5
14BB4
330
14BB3
100
AcDbEntity
  8
0
100
AcDbBlockBegin
  2
*D2
 70
     1
 10
0.0
 20
0.0
 30
0.0
  3
*D2
  1

  0
LINE
  5
14F43
330
14BB3
100
AcDbEntity
  8
DIM
 62
     6
370
    -2
100
AcDbLine
 10
703.5927558239467
 20
207.5200200549958
 30
0.0
 11
701.0612471054322
 21
207.5200200549958
 31
0.0
  0
LINE
  5
14F44
330
14BB3
100
AcDbEntity
  8
DIM
 62
     6
370
    -2
100
AcDbLine
 10
703.5927558239464
 20
205.7700200549958
 30
0.0
 11
701.0612471054322
 21
205.7700200549958
 31
0.0
  0
LINE
  5
14F45
330
14BB3
100
AcDbEntity
  8
DIM
 62
     1
370
    -2
100
AcDbLine
 10
701.2612471054324
 20
204.7700200549958
 30
0.0
 11
701.2612471054324
 21
203.7700200549958
 31
0.0
  0
LINE
  5
14F46
330
14BB3
100
AcDbEntity
  8
DIM
 62
     1
370
    -2
100
AcDbLine
 10
701.2612471054324
 20
208.5200200549958
 30
0.0
 11
701.2612471054324
 21
211.2485914835672
 31
0.0
  0
SOLID
  5
14F47
330
14BB3
100
AcDbEntity
  8
DIM
 62
     1
100
AcDbTrace
 10
701.0945804387655
 20
204.7700200549958
 30
0.0
 11
701.427913772099
 21
204.7700200549958
 31
0.0
 12
701.2612471054324
 22
205.7700200549958
 32
0.0
 13
701.2612471054324
 23
205.7700200549958
 33
0.0
  0
SOLID
  5
14F48
330
14BB3
100
AcDbEntity
  8
DIM
 62
     1
100
AcDbTrace
 10
701.0945804387655
 20
208.5200200549958
 30
0.0
 11
701.427913772099
 21
208.5200200549958
 31
0.0
 12
701.2612471054324
 22
207.5200200549958
 32
0.0
 13
701.2612471054324
 23
207.5200200549958
 33
0.0
  0
MTEXT
  5
14F49
330
14BB3
100
AcDbEntity
  8
DIM
 62
     4
100
AcDbMText
 10
700.4612471054324
 20
210.3843057692816
 30
0.0
 40
1.199999999999999
 41
0.0
 46
0.0
 71
     5
 72
     1
  1
\A1;%%Cd
  7
Romans字体
 11
0.0000000000000001
 21
1.0
 31
0.0
 73
     1
 44
1.0
1001
ACAD
1000
MTEXTBEGIN
1070
    73
1070
     1
1070
    44
1040
1.0
1070
    74
1070
     0
1000
MTEXTEND
  0
POINT
  5
14F4A
330
14BB3
100
AcDbEntity
  8
Defpoints
 62
     0
100
AcDbPoint
 10
703.7927558239466
 20
207.5200200549958
 30
0.0
  0
POINT
  5
14F4B
330
14BB3
100
AcDbEntity
  8
Defpoints
 62
     0
100
AcDbPoint
 10
703.7927558239464
 20
205.7700200549958
 30
0.0
  0
POINT
  5
14F4C
330
14BB3
100
AcDbEntity
  8
Defpoints
 62
     0
100
AcDbPoint
 10
701.2612471054324
 20
205.7700200549958
 30
0.0
  0
ENDBLK
  5
14BB5
330
14BB3
100
AcDbEntity
  8
0
100
AcDbBlockEnd
  0
BLOCK
  5
14BC1
330
14BC0
100
AcDbEntity
  8
0
100
AcDbBlockBegin
  2
*D3
 70
     1
 10
0.0
 20
0.0
 30
0.0
  3
*D3
  1

  0
LINE
  5
14F2F
330
14BC0
100
AcDbEntity
  8
DIM
 62
     6
370
    -2
100
AcDbLine
 10
706.5741768787842
 20
208.1450200549958
 30
0.0
 11
706.7736649118857
 21
208.1450200549958
 31
0.0
  0
LINE
  5
14F30
330
14BC0
100
AcDbEntity
  8
DIM
 62
     6
370
    -2
100
AcDbLine
 10
706.6319119057025
 20
205.1450200549958
 30
0.0
 11
706.7736649118857
 21
205.1450200549958
 31
0.0
  0
LINE
  5
14F31
330
14BC0
100
AcDbEntity
  8
DIM
 62
     1
370
    -2
100
AcDbLine
 10
706.573664911886
 20
207.1450200549958
 30
0.0
 11
706.573664911886
 21
206.1450200549958
 31
0.0
  0
LINE
  5
14F32
330
14BC0
100
AcDbEntity
  8
DIM
 62
     1
370
    -2
100
AcDbLine
 10
706.573664911886
 20
205.1450200549958
 30
0.0
 11
706.573664911886
 21
201.3721629121385
 31
0.0
  0
SOLID
  5
14F33
330
14BC0
100
AcDbEntity
  8
DIM
 62
     1
100
AcDbTrace
 10
706.4069982452194
 20
207.1450200549958
 30
0.0
 11
706.7403315785525
 21
207.1450200549958
 31
0.0
 12
706.573664911886
 22
208.1450200549958
 32
0.0
 13
706.573664911886
 23
208.1450200549958
 33
0.0
  0
SOLID
  5
14F34
330
14BC0
100
AcDbEntity
  8
DIM
 62
     1
100
AcDbTrace
 10
706.4069982452194
 20
206.1450200549958
 30
0.0
 11
706.7403315785525
 21
206.1450200549958
 31
0.0
 12
706.573664911886
 22
205.1450200549958
 32
0.0
 13
706.573664911886
 23
205.1450200549958
 33
0.0
  0
MTEXT
  5
14F35
330
14BC0
100
AcDbEntity
  8
DIM
 62
     4
100
AcDbMText
 10
705.7736649118857
 20
202.30073434071
 30
0.0
 40
1.199999999999999
 41
0.0
 46
0.0
 71
     5
 72
     1
  1
\A1;%%CD
  7
Romans字体
 11
0.0000000000000001
 21
1.0
 31
0.0
 73
     1
 44
1.0
1001
ACAD
1000
MTEXTBEGIN
1070
    73
1070
     1
1070
    44
1040
1.0
1070
    74
1070
     0
1000
MTEXTEND
  0
POINT
  5
14F36
330
14BC0
100
AcDbEntity
  8
Defpoints
 62
     0
100
AcDbPoint
 10
706.3741768787841
 20
208.1450200549958
 30
0.0
  0
POINT
  5
14F37
330
14BC0
100
AcDbEntity
  8
Defpoints
 62
     0
100
AcDbPoint
 10
706.4319119057024
 20
205.1450200549958
 30
0.0
  0
POINT
  5
14F38
330
14BC0
100
AcDbEntity
  8
Defpoints
 62
     0
100
AcDbPoint
 10
706.573664911886
 20
205.1450200549958
 30
0.0
  0
ENDBLK
  5
14BC2
330
14BC0
100
AcDbEntity
  8
0
100
AcDbBlockEnd
  0
BLOCK
  5
14BCE
330
14BCD
100
AcDbEntity
  8
0
100
AcDbBlockBegin
  2
*D4
 70
     1
 10
0.0
 20
0.0
 30
0.0
  3
*D4
  1

  0
LINE
  5
14ED9
330
14BCD
100
AcDbEntity
  8
DIM
 62
     6
370
    -2
100
AcDbLine
 10
727.2845879622964
 20
207.4450200551958
 30
0.0
 11
732.2940378588961
 21
207.4450200551958
 31
0.0
  0
LINE
  5
14EDA
330
14BCD
100
AcDbEntity
  8
DIM
 62
     6
370
    -2
100
AcDbLine
 10
727.2845879622964
 20
205.8450200547957
 30
0.0
 11
732.2940378588961
 21
205.8450200547957
 31
0.0
  0
LINE
  5
14EDB
330
14BCD
100
AcDbEntity
  8
DIM
 62
     1
370
    -2
100
AcDbLine
 10
732.0940378588962
 20
204.8450200547957
 30
0.0
 11
732.0940378588962
 21
203.8450200547957
 31
0.0
  0
LINE
  5
14EDC
330
14BCD
100
AcDbEntity
  8
DIM
 62
     1
370
    -2
100
AcDbLine
 10
732.0940378588962
 20
208.4450200551958
 30
0.0
 11
732.0940378588962
 21
212.7248123185989
 31
0.0
  0
SOLID
  5
14EDD
330
14BCD
100
AcDbEntity
  8
DIM
 62
     1
100
AcDbTrace
 10
731.9273711922293
 20
204.8450200547957
 30
0.0
 11
732.2607045255628
 21
204.8450200547957
 31
0.0
 12
732.0940378588962
 22
205.8450200547957
 32
0.0
 13
732.0940378588962
 23
205.8450200547957
 33
0.0
  0
SOLID
  5
14EDE
330
14BCD
100
AcDbEntity
  8
DIM
 62
     1
100
AcDbTrace
 10
731.9273711922293
 20
208.4450200551958
 30
0.0
 11
732.2607045255628
 21
208.4450200551958
 31
0.0
 12
732.0940378588962
 22
207.4450200551958
 32
0.0
 13
732.0940378588962
 23
207.4450200551958
 33
0.0
  0
MTEXT
  5
14EDF
330
14BCD
100
AcDbEntity
  8
DIM
 62
     4
100
AcDbMText
 10
731.2940378588962
 20
211.1748123185991
 30
0.0
 40
1.199999999999999
 41
0.0
 46
0.0
 71
     5
 72
     1
  1
\A1;%%c1.6
  7
Romans字体
 11
0.0000000000000001
 21
1.0
 31
0.0
 73
     1
 44
1.0
1001
ACAD
1000
MTEXTBEGIN
1070
    73
1070
     1
1070
    44
1040
1.0
1070
    74
1070
     0
1000
MTEXTEND
  0
POINT
  5
14EE0
330
14BCD
100
AcDbEntity
  8
Defpoints
 62
     0
100
AcDbPoint
 10
727.0845879622965
 20
207.4450200551958
 30
0.0
  0
POINT
  5
14EE1
330
14BCD
100
AcDbEntity
  8
Defpoints
 62
     0
100
AcDbPoint
 10
727.0845879622965
 20
205.8450200547957
 30
0.0
  0
POINT
  5
14EE2
330
14BCD
100
AcDbEntity
  8
Defpoints
 62
     0
100
AcDbPoint
 10
732.0940378588962
 20
205.8450200547957
 30
0.0
  0
ENDBLK
  5
14BCF
330
14BCD
100
AcDbEntity
  8
0
100
AcDbBlockEnd
  0
BLOCK
  5
14BDB
330
14BDA
100
AcDbEntity
  8
0
100
AcDbBlockBegin
  2
*D5
 70
     1
 10
0.0
 20
0.0
 30
0.0
  3
*D5
  1

  0
LINE
  5
14F26
330
14BDA
100
AcDbEntity
  8
DIM
 62
     6
370
    -2
100
AcDbLine
 10
728.4175525515428
 20
206.8450200549958
 30
0.0
 11
728.4175525515428
 21
212.76039533503
 31
0.0
  0
LINE
  5
14F27
330
14BDA
100
AcDbEntity
  8
DIM
 62
     6
370
    -2
100
AcDbLine
 10
703.4319119057028
 20
208.4450200553959
 30
0.0
 11
703.4319119057028
 21
212.76039533503
 31
0.0
  0
LINE
  5
14F28
330
14BDA
100
AcDbEntity
  8
DIM
 62
     1
370
    -2
100
AcDbLine
 10
727.4175525515428
 20
212.5603953350299
 30
0.0
 11
704.4319119057028
 21
212.5603953350299
 31
0.0
  0
SOLID
  5
14F29
330
14BDA
100
AcDbEntity
  8
DIM
 62
     1
100
AcDbTrace
 10
727.4175525515428
 20
212.7270620016966
 30
0.0
 11
727.4175525515428
 21
212.3937286683633
 31
0.0
 12
728.4175525515428
 22
212.5603953350299
 32
0.0
 13
728.4175525515428
 23
212.5603953350299
 33
0.0
  0
SOLID
  5
14F2A
330
14BDA
100
AcDbEntity
  8
DIM
 62
     1
100
AcDbTrace
 10
704.4319119057028
 20
212.7270620016966
 30
0.0
 11
704.4319119057028
 21
212.3937286683633
 31
0.0
 12
703.4319119057028
 22
212.5603953350299
 32
0.0
 13
703.4319119057028
 23
212.5603953350299
 33
0.0
  0
MTEXT
  5
14F2B
330
14BDA
100
AcDbEntity
  8
DIM
 62
     4
100
AcDbMText
 10
715.9247322286224
 20
213.36039533503
 30
0.0
 40
1.199999999999999
 41
0.0
 46
0.0
 71
     5
 72
     1
  1
\A1;25
  7
Romans字体
 73
     1
 44
1.0
1001
ACAD
1000
MTEXTBEGIN
1070
    73
1070
     1
1070
    44
1040
1.0
1070
    74
1070
     0
1000
MTEXTEND
  0
POINT
  5
14F2C
330
14BDA
100
AcDbEntity
  8
Defpoints
 62
     0
100
AcDbPoint
 10
728.4175525515428
 20
206.6450200549958
 30
0.0
  0
POINT
  5
14F2D
330
14BDA
100
AcDbEntity
  8
Defpoints
 62
     0
100
AcDbPoint
 10
703.4319119057028
 20
208.2450200553959
 30
0.0
  0
POINT
  5
14F2E
330
14BDA
100
AcDbEntity
  8
Defpoints
 62
     0
100
AcDbPoint
 10
703.4319119057028
 20
212.5603953350299
 30
0.0
  0
ENDBLK
  5
14BDC
330
14BDA
100
AcDbEntity
  8
0
100
AcDbBlockEnd
  0
BLOCK
  5
14C05
330
14C04
100
AcDbEntity
  8
0
100
AcDbBlockBegin
  2
*D6
 70
     1
 10
0.0
 20
0.0
 30
0.0
  3
*D6
  1

  0
LINE
  5
14F0A
330
14C04
100
AcDbEntity
  8
DIM
 62
     6
370
    -2
100
AcDbLine
 10
703.4319119057028
 20
210.0939815108113
 30
0.0
 11
703.4319119057028
 21
210.9615567261987
 31
0.0
  0
LINE
  5
14F0B
330
14C04
100
AcDbEntity
  8
DIM
 62
     6
370
    -2
100
AcDbLine
 10
711.4319119057022
 20
207.7200200549958
 30
0.0
 11
711.4319119057022
 21
210.9615567261987
 31
0.0
  0
LINE
  5
14F0C
330
14C04
100
AcDbEntity
  8
DIM
 62
     1
370
    -2
100
AcDbLine
 10
704.4319119057028
 20
210.7615567261987
 30
0.0
 11
710.4319119057024
 21
210.7615567261987
 31
0.0
  0
SOLID
  5
14F0D
330
14C04
100
AcDbEntity
  8
DIM
 62
     1
100
AcDbTrace
 10
704.4319119057028
 20
210.9282233928654
 30
0.0
 11
704.4319119057028
 21
210.5948900595321
 31
0.0
 12
703.4319119057028
 22
210.7615567261987
 32
0.0
 13
703.4319119057028
 23
210.7615567261987
 33
0.0
  0
SOLID
  5
14F0E
330
14C04
100
AcDbEntity
  8
DIM
 62
     1
100
AcDbTrace
 10
710.4319119057024
 20
210.9282233928654
 30
0.0
 11
710.4319119057024
 21
210.5948900595321
 31
0.0
 12
711.4319119057022
 22
210.7615567261987
 32
0.0
 13
711.4319119057022
 23
210.7615567261987
 33
0.0
  0
MTEXT
  5
14F0F
330
14C04
100
AcDbEntity
  8
DIM
 62
     4
100
AcDbMText
 10
707.4319119057028
 20
211.5615567261987
 30
0.0
 40
1.199999999999999
 41
0.0
 46
0.0
 71
     5
 72
     1
  1
\A1;8
  7
Romans字体
 73
     1
 44
1.0
1001
ACAD
1000
MTEXTBEGIN
1070
    73
1070
     1
1070
    44
1040
1.0
1070
    74
1070
     0
1000
MTEXTEND
  0
POINT
  5
14F10
330
14C04
100
AcDbEntity
  8
Defpoints
 62
     0
100
AcDbPoint
 10
703.4319119057028
 20
209.8939815108113
 30
0.0
  0
POINT
  5
14F11
330
14C04
100
AcDbEntity
  8
Defpoints
 62
     0
100
AcDbPoint
 10
711.4319119057022
 20
207.5200200549958
 30
0.0
  0
POINT
  5
14F12
330
14C04
100
AcDbEntity
  8
Defpoints
 62
     0
100
AcDbPoint
 10
711.4319119057022
 20
210.7615567261987
 30
0.0
  0
ENDBLK
  5
14C06
330
14C04
100
AcDbEntity
  8
0
100
AcDbBlockEnd
  0
ENDSEC
  0
SECTION
  2
ENTITIES
  0
HATCH
  5
28AE
330
1F
100
AcDbEntity
  8
图层 1
 62
     7
100
AcDbHatch
 10
0.0
 20
0.0
 30
0.0
210
0.0
220
0.0
230
1.0
  2
SOLID
 70
     1
 71
     0
 91
        1
 92
        1
 93
        2
 72
     4
 94
        3
 73
     0
 74
     0
 95
       17
 96
       13
 40
0.0
 40
0.0
 40
0.0
 40
0.0
 40
0.3527780104152769
 40
0.3527780104152769
 40
0.3527780104152769
 40
0.7055560208305538
 40
0.7055560208305538
 40
0.7055560208305538
 40
1.058334031245828
 40
1.058334031245828
 40
1.058334031245828
 40
1.411112041661104
 40
1.411112041661104
 40
1.411112041661104
 40
1.411112041661104
 10
11.07013262565829
 20
29.50312817963231
 10
11.07013262565829
 20
29.50312817963231
 10
10.9431807732774
 20
29.50312817963231
 10
10.9431807732774
 20
29.50312817963231
 10
10.9431807732774
 20
29.50312817963231
 10
10.85843136843155
 20
29.22786486877117
 10
10.85843136843155
 20
29.22786486877117
 10
10.85843136843155
 20
29.22786486877117
 10
10.90080607085448
 20
29.2068497724476
 10
10.90080607085448
 20
29.2068497724476
 10
10.94455881238059
 20
29.31571486159919
 10
11.00346998404173
 20
29.40907701083995
 10
11.07013262565829
 20
29.50312817963231
 72
     1
 10
11.07013262565829
 20
29.50312817963231
 11
11.07013262565829
 21
29.50312817963231
 97
        0
 75
     0
 76
     1
 98
        0
450
        0
451
        0
460
0.0
461
0.0
452
        0
462
0.0
453
        0
470

  0
HATCH
  5
2C65
330
1F
100
AcDbEntity
  8
图层 1
 62
     7
100
AcDbHatch
 10
0.0
 20
0.0
 30
0.0
210
0.0
220
0.0
230
1.0
  2
SOLID
 70
     1
 71
     0
 91
        1
 92
        1
 93
        2
 72
     4
 94
        3
 73
     0
 74
     0
 95
       47
 96
       43
 40
0.0
 40
0.0
 40
0.0
 40
0.0
 40
0.3527780104152769
 40
0.3527780104152769
 40
0.3527780104152769
 40
0.7055560208305538
 40
0.7055560208305538
 40
0.7055560208305538
 40
1.058334031245828
 40
1.058334031245828
 40
1.058334031245828
 40
1.411112041661104
 40
1.411112041661104
 40
1.411112041661104
 40
1.763890052076384
 40
1.763890052076384
 40
1.763890052076384
 40
2.116668062491659
 40
2.116668062491659
 40
2.116668062491659
 40
2.469446072906936
 40
2.469446072906936
 40
2.469446072906936
 40
2.822224083322215
 40
2.822224083322215
 40
2.822224083322215
 40
3.175002093737492
 40
3.175002093737492
 40
3.175002093737492
 40
3.527780104152768
 40
3.527780104152768
 40
3.527780104152768
 40
3.880558114568044
 40
3.880558114568044
 40
3.880558114568044
 40
4.233336124983321
 40
4.233336124983321
 40
4.233336124983321
 40
4.586114135398599
 40
4.586114135398599
 40
4.586114135398599
 40
4.938892145813873
 40
4.938892145813873
 40
4.938892145813873
 40
4.938892145813873
 10
162.8986914070121
 20
257.4895347631509
 10
162.8986914070121
 20
257.4895347631509
 10
162.9200510131114
 20
257.4471600607279
 10
162.9200510131114
 20
257.4471600607279
 10
162.9200510131114
 20
257.4471600607279
 10
162.9200510131114
 20
257.404785358305
 10
162.9200510131114
 20
257.404785358305
 10
162.9200510131114
 20
257.404785358305
 10
162.8986914070121
 20
257.36258291077
 10
162.8986914070121
 20
257.36258291077
 10
162.8986914070121
 20
257.36258291077
 10
162.8986914070121
 20
257.320208208347
 10
162.8986914070121
 20
257.320208208347
 10
162.8986914070121
 20
257.320208208347
 10
162.8563167045891
 20
257.2990208571356
 10
162.8563167045891
 20
257.2990208571356
 10
162.8563167045891
 20
257.2990208571356
 10
162.8139420021662
 20
257.2563016449369
 10
162.8139420021662
 20
257.2563016449369
 10
162.8139420021662
 20
257.2563016449369
 10
162.7295371070961
 20
257.2563016449369
 10
162.7295371070961
 20
257.2563016449369
 10
162.7295371070961
 20
257.2563016449369
 10
162.6658027985738
 20
257.2778335059241
 10
162.6658027985738
 20
257.2778335059241
 10
162.6658027985738
 20
257.2778335059241
 10
162.6237726059267
 20
257.2990208571356
 10
162.6237726059267
 20
257.2990208571356
 10
162.6237726059267
 20
257.2990208571356
 10
162.5813979035038
 20
257.3413955595585
 10
162.5813979035038
 20
257.3413955595585
 10
162.5813979035038
 20
257.3413955595585
 10
162.5813979035038
 20
257.4895347631509
 10
162.5813979035038
 20
257.4895347631509
 10
162.5813979035038
 20
257.4895347631509
 10
162.6447877022503
 20
257.5525800521216
 10
162.6447877022503
 20
257.5525800521216
 10
162.6447877022503
 20
257.5525800521216
 10
162.7081775009967
 20
257.5525800521216
 10
162.7081775009967
 20
257.5525800521216
 10
162.8749202324821
 20
257.5424170137356
 10
162.7918933765152
 20
257.5939212252171
 10
162.8986914070121
 20
257.4895347631509
 72
     1
 10
162.8986914070121
 20
257.4895347631509
 11
162.8986914070121
 21
257.4895347631509
 97
        0
 75
     0
 76
     1
 98
        0
450
        0
451
        0
460
0.0
461
0.0
452
        0
462
0.0
453
        0
470

  0
HATCH
  5
2EE7
330
1F
100
AcDbEntity
  8
图层 1
 62
     7
100
AcDbHatch
 10
0.0
 20
0.0
 30
0.0
210
0.0
220
0.0
230
1.0
  2
SOLID
 70
     1
 71
     0
 91
        1
 92
        1
 93
        2
 72
     4
 94
        3
 73
     0
 74
     0
 95
       56
 96
       52
 40
0.0
 40
0.0
 40
0.0
 40
0.0
 40
0.3527780104152769
 40
0.3527780104152769
 40
0.3527780104152769
 40
0.7055560208305538
 40
0.7055560208305538
 40
0.7055560208305538
 40
1.058334031245828
 40
1.058334031245828
 40
1.058334031245828
 40
1.411112041661104
 40
1.411112041661104
 40
1.411112041661104
 40
1.763890052076384
 40
1.763890052076384
 40
1.763890052076384
 40
2.116668062491659
 40
2.116668062491659
 40
2.116668062491659
 40
2.469446072906936
 40
2.469446072906936
 40
2.469446072906936
 40
2.822224083322215
 40
2.822224083322215
 40
2.822224083322215
 40
3.175002093737492
 40
3.175002093737492
 40
3.175002093737492
 40
3.527780104152768
 40
3.527780104152768
 40
3.527780104152768
 40
3.880558114568044
 40
3.880558114568044
 40
3.880558114568044
 40
4.233336124983321
 40
4.233336124983321
 40
4.233336124983321
 40
4.586114135398599
 40
4.586114135398599
 40
4.586114135398599
 40
4.938892145813873
 40
4.938892145813873
 40
4.938892145813873
 40
5.291670156229153
 40
5.291670156229153
 40
5.291670156229153
 40
5.64444816664443
 40
5.64444816664443
 40
5.64444816664443
 40
5.997226177059705
 40
5.997226177059705
 40
5.997226177059705
 40
5.997226177059705
 10
185.4837187788815
 20
241.4451977396596
 10
185.4837187788815
 20
241.4451977396596
 10
185.4837187788815
 20
241.4028230372367
 10
185.4837187788815
 20
241.4028230372367
 10
185.4837187788815
 20
241.4028230372367
 10
185.5047338752051
 20
241.3604483348137
 10
185.5047338752051
 20
241.3604483348137
 10
185.4520238795082
 20
241.2782827532863
 10
185.4671823096433
 20
241.1897437409066
 10
185.335579575289
 20
241.2119646214456
 10
185.335579575289
 20
241.2119646214456
 10
185.2932048728662
 20
241.2119646214456
 10
185.2932048728662
 20
241.2119646214456
 10
185.2932048728662
 20
241.2119646214456
 10
185.2294705643439
 20
241.2334964824328
 10
185.2294705643439
 20
241.2334964824328
 10
185.2294705643439
 20
241.2334964824328
 10
185.1660807655974
 20
241.2543393238685
 10
185.1660807655974
 20
241.2543393238685
 10
185.1660807655974
 20
241.2543393238685
 10
185.1450656692739
 20
241.2758711848558
 10
185.1450656692739
 20
241.2758711848558
 10
185.1450656692739
 20
241.2758711848558
 10
185.1450656692739
 20
241.2967140262914
 10
185.1450656692739
 20
241.2967140262914
 10
185.1450656692739
 20
241.2967140262914
 10
185.1237060631745
 20
241.3604483348137
 10
185.1237060631745
 20
241.3604483348137
 10
185.1237060631745
 20
241.3604483348137
 10
185.1237060631745
 20
241.4028230372367
 10
185.1237060631745
 20
241.4028230372367
 10
185.1237060631745
 20
241.4028230372367
 10
185.1660807655974
 20
241.4875724420825
 10
185.1660807655974
 20
241.4875724420825
 10
185.1660807655974
 20
241.4875724420825
 10
185.2084554680203
 20
241.5085875384061
 10
185.2084554680203
 20
241.5085875384061
 10
185.2084554680203
 20
241.5085875384061
 10
185.2718452667668
 20
241.5297748896175
 10
185.2718452667668
 20
241.5297748896175
 10
185.2718452667668
 20
241.5297748896175
 10
185.3565946716127
 20
241.5297748896175
 10
185.3565946716127
 20
241.5297748896175
 10
185.3565946716127
 20
241.5297748896175
 10
185.4199844703592
 20
241.5085875384061
 10
185.4199844703592
 20
241.5085875384061
 10
185.4199844703592
 20
241.5085875384061
 10
185.4623591727821
 20
241.4875724420825
 10
185.4623591727821
 20
241.4875724420825
 10
185.4623591727821
 20
241.4875724420825
 10
185.4837187788815
 20
241.4451977396596
 10
185.4837187788815
 20
241.4451977396596
 72
     1
 10
185.4837187788815
 20
241.4451977396596
 11
185.4837187788815
 21
241.4451977396596
 97
        0
 75
     0
 76
     1
 98
        0
450
        0
451
        0
460
0.0
461
0.0
452
        0
462
0.0
453
        0
470

  0
HATCH
  5
2F93
330
1F
100
AcDbEntity
  8
图层 1
 62
     7
100
AcDbHatch
 10
0.0
 20
0.0
 30
0.0
210
0.0
220
0.0
230
1.0
  2
SOLID
 70
     1
 71
     0
 91
        1
 92
        1
 93
        2
 72
     4
 94
        3
 73
     0
 74
     0
 95
       38
 96
       34
 40
0.0
 40
0.0
 40
0.0
 40
0.0
 40
0.3527780104152769
 40
0.3527780104152769
 40
0.3527780104152769
 40
0.7055560208305538
 40
0.7055560208305538
 40
0.7055560208305538
 40
1.058334031245828
 40
1.058334031245828
 40
1.058334031245828
 40
1.411112041661104
 40
1.411112041661104
 40
1.411112041661104
 40
1.763890052076384
 40
1.763890052076384
 40
1.763890052076384
 40
2.116668062491659
 40
2.116668062491659
 40
2.116668062491659
 40
2.469446072906936
 40
2.469446072906936
 40
2.469446072906936
 40
2.822224083322215
 40
2.822224083322215
 40
2.822224083322215
 40
3.175002093737492
 40
3.175002093737492
 40
3.175002093737492
 40
3.527780104152768
 40
3.527780104152768
 40
3.527780104152768
 40
3.880558114568044
 40
3.880558114568044
 40
3.880558114568044
 40
3.880558114568044
 10
185.907121293335
 20
220.1937677098971
 10
185.9005756075949
 20
220.0449394867532
 10
185.9329595265197
 20
220.1136691870245
 10
185.864746590912
 20
219.9817219428946
 10
185.864746590912
 20
219.9817219428946
 10
185.822371888489
 20
219.9605345916831
 10
185.822371888489
 20
219.9605345916831
 10
185.822371888489
 20
219.9605345916831
 10
185.6528730787974
 20
219.9605345916831
 10
185.6528730787974
 20
219.9605345916831
 10
185.6528730787974
 20
219.9605345916831
 10
185.5894832800509
 20
220.002909294106
 10
185.5894832800509
 20
220.002909294106
 10
185.5894832800509
 20
220.002909294106
 10
185.5681236739515
 20
220.0240966453175
 10
185.5681236739515
 20
220.0240966453175
 10
185.5681236739515
 20
220.0240966453175
 10
185.5681236739515
 20
220.045283996529
 10
185.5681236739515
 20
220.045283996529
 10
185.5681236739515
 20
220.045283996529
 10
185.547108577628
 20
220.0876586989519
 10
185.547108577628
 20
220.0876586989519
 10
185.547108577628
 20
220.0876586989519
 10
185.547108577628
 20
220.1513930074742
 10
185.547108577628
 20
220.1513930074742
 10
185.547108577628
 20
220.1513930074742
 10
185.5894832800509
 20
220.23614241232
 10
185.5894832800509
 20
220.23614241232
 10
185.5894832800509
 20
220.23614241232
 10
185.6318579824738
 20
220.2573297635315
 10
185.6318579824738
 20
220.2573297635315
 10
185.7055830744942
 20
220.2566407439799
 10
185.8416644359337
 20
220.3310548555519
 10
185.907121293335
 20
220.1937677098971
 72
     1
 10
185.907121293335
 20
220.1937677098971
 11
185.907121293335
 21
220.1937677098971
 97
        0
 75
     0
 76
     1
 98
        0
450
        0
451
        0
460
0.0
461
0.0
452
        0
462
0.0
453
        0
470

  0
HATCH
  5
2FDE
330
1F
100
AcDbEntity
  8
图层 1
 62
     7
100
AcDbHatch
 10
0.0
 20
0.0
 30
0.0
210
0.0
220
0.0
230
1.0
  2
SOLID
 70
     1
 71
     0
 91
        1
 92
        1
 93
        2
 72
     4
 94
        3
 73
     0
 74
     0
 95
       50
 96
       46
 40
0.0
 40
0.0
 40
0.0
 40
0.0
 40
0.3527780104152769
 40
0.3527780104152769
 40
0.3527780104152769
 40
0.7055560208305538
 40
0.7055560208305538
 40
0.7055560208305538
 40
1.058334031245828
 40
1.058334031245828
 40
1.058334031245828
 40
1.411112041661104
 40
1.411112041661104
 40
1.411112041661104
 40
1.763890052076384
 40
1.763890052076384
 40
1.763890052076384
 40
2.116668062491659
 40
2.116668062491659
 40
2.116668062491659
 40
2.469446072906936
 40
2.469446072906936
 40
2.469446072906936
 40
2.822224083322215
 40
2.822224083322215
 40
2.822224083322215
 40
3.175002093737492
 40
3.175002093737492
 40
3.175002093737492
 40
3.527780104152768
 40
3.527780104152768
 40
3.527780104152768
 40
3.880558114568044
 40
3.880558114568044
 40
3.880558114568044
 40
4.233336124983321
 40
4.233336124983321
 40
4.233336124983321
 40
4.586114135398599
 40
4.586114135398599
 40
4.586114135398599
 40
4.938892145813873
 40
4.938892145813873
 40
4.938892145813873
 40
5.291670156229153
 40
5.291670156229153
 40
5.291670156229153
 40
5.291670156229153
 10
180.9117295442905
 20
208.9327766684477
 10
180.9117295442905
 20
208.9327766684477
 10
180.9117295442905
 20
208.7637946234197
 10
180.9117295442905
 20
208.7637946234197
 10
181.2273004989198
 20
208.6749111012643
 10
181.3833634273555
 20
208.6776671794706
 10
181.6948002646751
 20
208.5097186637701
 10
181.9542161258496
 20
208.4294478860095
 10
182.1388733656765
 20
208.2134402565853
 10
182.3297317814676
 20
208.02292635057
 10
182.3297317814676
 20
208.02292635057
 10
182.435496282637
 20
208.065301052993
 10
182.435496282637
 20
208.065301052993
 10
182.288390608372
 20
208.2733849575739
 10
182.3752070718726
 20
208.2134402565853
 10
182.1605774815516
 20
208.3824223016133
 10
182.1605774815516
 20
208.3824223016133
 10
182.1182027791287
 20
208.4247970040363
 10
182.1182027791287
 20
208.4247970040363
 10
182.1182027791287
 20
208.4247970040363
 10
182.0968431730294
 20
208.467516216235
 10
182.0968431730294
 20
208.467516216235
 10
182.0968431730294
 20
208.467516216235
 10
182.0544684706064
 20
208.4883590576707
 10
182.0544684706064
 20
208.4883590576707
 10
182.0544684706064
 20
208.4883590576707
 10
181.9910786718599
 20
208.5305615052057
 10
181.9910786718599
 20
208.5305615052057
 10
181.9910786718599
 20
208.5305615052057
 10
181.948703969437
 20
208.552093366193
 10
181.948703969437
 20
208.552093366193
 10
181.948703969437
 20
208.552093366193
 10
181.9063292670141
 20
208.5729362076286
 10
181.9063292670141
 20
208.5729362076286
 10
181.9063292670141
 20
208.5729362076286
 10
181.8639545645911
 20
208.6156554198274
 10
181.8639545645911
 20
208.6156554198274
 10
181.8639545645911
 20
208.6156554198274
 10
181.821924371944
 20
208.6368427710388
 10
181.821924371944
 20
208.6368427710388
 10
181.6637943848536
 20
208.6742220817127
 10
181.5452830219797
 20
208.8092699138248
 10
181.3771622513911
 20
208.8061693258427
 10
181.2803550043924
 20
208.8573290275484
 10
181.0126709085988
 20
208.8971199066528
 10
180.9117295442905
 20
208.9327766684477
 72
     1
 10
180.9117295442905
 20
208.9327766684477
 11
180.9117295442905
 21
208.9327766684477
 97
        0
 75
     0
 76
     1
 98
        0
450
        0
451
        0
460
0.0
461
0.0
452
        0
462
0.0
453
        0
470

  0
HATCH
  5
35C8
330
1F
100
AcDbEntity
  8
图层 1
 62
     7
100
AcDbHatch
 10
0.0
 20
0.0
 30
0.0
210
0.0
220
0.0
230
1.0
  2
SOLID
 70
     1
 71
     0
 91
        1
 92
        1
 93
        2
 72
     4
 94
        3
 73
     0
 74
     0
 95
       38
 96
       34
 40
0.0
 40
0.0
 40
0.0
 40
0.0
 40
0.3527780104152769
 40
0.3527780104152769
 40
0.3527780104152769
 40
0.7055560208305538
 40
0.7055560208305538
 40
0.7055560208305538
 40
1.058334031245828
 40
1.058334031245828
 40
1.058334031245828
 40
1.411112041661104
 40
1.411112041661104
 40
1.411112041661104
 40
1.763890052076384
 40
1.763890052076384
 40
1.763890052076384
 40
2.116668062491659
 40
2.116668062491659
 40
2.116668062491659
 40
2.469446072906936
 40
2.469446072906936
 40
2.469446072906936
 40
2.822224083322215
 40
2.822224083322215
 40
2.822224083322215
 40
3.175002093737492
 40
3.175002093737492
 40
3.175002093737492
 40
3.527780104152768
 40
3.527780104152768
 40
3.527780104152768
 40
3.880558114568044
 40
3.880558114568044
 40
3.880558114568044
 40
3.880558114568044
 10
189.145513185819
 20
166.8326485368285
 10
189.207869455238
 20
166.740492171803
 10
189.1317327947871
 20
166.6833035490209
 10
189.103138483396
 20
166.6209472796017
 10
189.103138483396
 20
166.6209472796017
 10
189.0607637809731
 20
166.5997599283903
 10
189.0607637809731
 20
166.5997599283903
 10
189.0607637809731
 20
166.5997599283903
 10
188.9973739822266
 20
166.5785725771788
 10
188.9973739822266
 20
166.5785725771788
 10
188.9973739822266
 20
166.5785725771788
 10
188.9549992798037
 20
166.5997599283903
 10
188.9549992798037
 20
166.5997599283903
 10
188.9549992798037
 20
166.5997599283903
 10
188.8916094810572
 20
166.5997599283903
 10
188.8916094810572
 20
166.5997599283903
 10
188.8916094810572
 20
166.5997599283903
 10
188.8492347786343
 20
166.6209472796017
 10
188.8492347786343
 20
166.6209472796017
 10
188.8492347786343
 20
166.6209472796017
 10
188.8278751725349
 20
166.6633219820247
 10
188.8278751725349
 20
166.6633219820247
 10
188.8278751725349
 20
166.6633219820247
 10
188.8068600762114
 20
166.6845093332361
 10
188.8068600762114
 20
166.6845093332361
 10
188.8068600762114
 20
166.6845093332361
 10
188.8068600762114
 20
166.8326485368285
 10
188.8068600762114
 20
166.8326485368285
 10
188.8068600762114
 20
166.8326485368285
 10
188.8702498749578
 20
166.896038335575
 10
188.8702498749578
 20
166.896038335575
 10
189.0228677056355
 20
166.8819134347673
 10
189.0686875058164
 20
166.9411691162043
 10
189.145513185819
 20
166.8326485368285
 72
     1
 10
189.145513185819
 20
166.8326485368285
 11
189.145513185819
 21
166.8326485368285
 97
        0
 75
     0
 76
     1
 98
        0
450
        0
451
        0
460
0.0
461
0.0
452
        0
462
0.0
453
        0
470

  0
HATCH
  5
35D8
330
1F
100
AcDbEntity
  8
图层 1
 62
     7
100
AcDbHatch
 10
0.0
 20
0.0
 30
0.0
210
0.0
220
0.0
230
1.0
  2
SOLID
 70
     1
 71
     0
 91
        1
 92
        1
 93
        2
 72
     4
 94
        3
 73
     0
 74
     0
 95
       68
 96
       64
 40
0.0
 40
0.0
 40
0.0
 40
0.0
 40
0.3527780104152769
 40
0.3527780104152769
 40
0.3527780104152769
 40
0.7055560208305538
 40
0.7055560208305538
 40
0.7055560208305538
 40
1.058334031245828
 40
1.058334031245828
 40
1.058334031245828
 40
1.411112041661104
 40
1.411112041661104
 40
1.411112041661104
 40
1.763890052076384
 40
1.763890052076384
 40
1.763890052076384
 40
2.116668062491659
 40
2.116668062491659
 40
2.116668062491659
 40
2.469446072906936
 40
2.469446072906936
 40
2.469446072906936
 40
2.822224083322215
 40
2.822224083322215
 40
2.822224083322215
 40
3.175002093737492
 40
3.175002093737492
 40
3.175002093737492
 40
3.527780104152768
 40
3.527780104152768
 40
3.527780104152768
 40
3.880558114568044
 40
3.880558114568044
 40
3.880558114568044
 40
4.233336124983321
 40
4.233336124983321
 40
4.233336124983321
 40
4.586114135398599
 40
4.586114135398599
 40
4.586114135398599
 40
4.938892145813873
 40
4.938892145813873
 40
4.938892145813873
 40
5.291670156229153
 40
5.291670156229153
 40
5.291670156229153
 40
5.64444816664443
 40
5.64444816664443
 40
5.64444816664443
 40
5.997226177059705
 40
5.997226177059705
 40
5.997226177059705
 40
6.350004187474984
 40
6.350004187474984
 40
6.350004187474984
 40
6.702782197890257
 40
6.702782197890257
 40
6.702782197890257
 40
7.055560208305537
 40
7.055560208305537
 40
7.055560208305537
 40
7.408338218720808
 40
7.408338218720808
 40
7.408338218720808
 40
7.408338218720808
 10
174.7732543591544
 20
135.4846705078077
 10
174.7732543591544
 20
135.4846705078077
 10
174.7732543591544
 20
135.3789060066383
 10
174.7732543591544
 20
135.3789060066383
 10
174.7732543591544
 20
135.3789060066383
 10
174.8156290615773
 20
135.3789060066383
 10
174.8156290615773
 20
135.3789060066383
 10
174.8156290615773
 20
135.3789060066383
 10
174.8580037640001
 20
135.3578909103147
 10
174.8580037640001
 20
135.3578909103147
 10
174.8580037640001
 20
135.3578909103147
 10
174.9213935627468
 20
135.3578909103147
 10
174.9213935627468
 20
135.3578909103147
 10
174.9213935627468
 20
135.3578909103147
 10
174.9637682651697
 20
135.3365313042154
 10
174.9637682651697
 20
135.3365313042154
 10
174.9637682651697
 20
135.3365313042154
 10
174.9847833614933
 20
135.3365313042154
 10
174.9847833614933
 20
135.3365313042154
 10
174.9847833614933
 20
135.3365313042154
 10
175.0271580639162
 20
135.3155162078918
 10
175.0271580639162
 20
135.3155162078918
 10
175.0271580639162
 20
135.3155162078918
 10
175.0485176700155
 20
135.2941566017924
 10
175.0485176700155
 20
135.2941566017924
 10
175.0485176700155
 20
135.2941566017924
 10
175.0695327663391
 20
135.2941566017924
 10
175.0695327663391
 20
135.2941566017924
 10
175.0695327663391
 20
135.2941566017924
 10
175.0908923724385
 20
135.2731415054689
 10
175.0908923724385
 20
135.2731415054689
 10
175.0908923724385
 20
135.2731415054689
 10
175.1332670748614
 20
135.2731415054689
 10
175.1332670748614
 20
135.2731415054689
 10
175.1332670748614
 20
135.2731415054689
 10
175.154282171185
 20
135.2517818993695
 10
175.154282171185
 20
135.2517818993695
 10
175.154282171185
 20
135.2517818993695
 10
175.154282171185
 20
135.3578909103147
 10
175.154282171185
 20
135.3578909103147
 10
175.154282171185
 20
135.3578909103147
 10
175.1332670748614
 20
135.3789060066383
 10
175.1332670748614
 20
135.3789060066383
 10
175.1332670748614
 20
135.3789060066383
 10
175.0908923724385
 20
135.3789060066383
 10
175.0908923724385
 20
135.3789060066383
 10
175.0908923724385
 20
135.3789060066383
 10
175.0908923724385
 20
135.3999211029619
 10
175.0908923724385
 20
135.3999211029619
 10
175.0908923724385
 20
135.3999211029619
 10
175.0695327663391
 20
135.3999211029619
 10
175.0695327663391
 20
135.3999211029619
 10
175.0695327663391
 20
135.3999211029619
 10
175.0271580639162
 20
135.4212807090612
 10
175.0271580639162
 20
135.4212807090612
 10
175.0271580639162
 20
135.4212807090612
 10
175.0061429675926
 20
135.4212807090612
 10
175.0061429675926
 20
135.4212807090612
 10
175.0061429675926
 20
135.4212807090612
 10
174.9637682651697
 20
135.4422958053848
 10
174.9637682651697
 20
135.4422958053848
 10
174.8996894468716
 20
135.4498750204523
 10
174.8394002361073
 20
135.4860485469109
 10
174.7732543591544
 20
135.4846705078077
 72
     1
 10
174.7732543591544
 20
135.4846705078077
 11
174.7732543591544
 21
135.4846705078077
 97
        0
 75
     0
 76
     1
 98
        0
450
        0
451
        0
460
0.0
461
0.0
452
        0
462
0.0
453
        0
470

  0
HATCH
  5
3807
330
1F
100
AcDbEntity
  8
图层 1
 62
     7
100
AcDbHatch
 10
0.0
 20
0.0
 30
0.0
210
0.0
220
0.0
230
1.0
  2
SOLID
 70
     1
 71
     0
 91
        1
 92
        1
 93
        2
 72
     4
 94
        3
 73
     0
 74
     0
 95
       29
 96
       25
 40
0.0
 40
0.0
 40
0.0
 40
0.0
 40
0.3527780104152769
 40
0.3527780104152769
 40
0.3527780104152769
 40
0.7055560208305538
 40
0.7055560208305538
 40
0.7055560208305538
 40
1.058334031245828
 40
1.058334031245828
 40
1.058334031245828
 40
1.411112041661104
 40
1.411112041661104
 40
1.411112041661104
 40
1.763890052076384
 40
1.763890052076384
 40
1.763890052076384
 40
2.116668062491659
 40
2.116668062491659
 40
2.116668062491659
 40
2.469446072906936
 40
2.469446072906936
 40
2.469446072906936
 40
2.822224083322215
 40
2.822224083322215
 40
2.822224083322215
 40
2.822224083322215
 10
175.4929352807925
 20
164.0174869039101
 10
175.4929352807925
 20
164.0174869039101
 10
175.5139503771161
 20
163.9751122014871
 10
175.5139503771161
 20
163.9751122014871
 10
175.5139503771161
 20
163.9751122014871
 10
175.5139503771161
 20
163.9327374990642
 10
175.5139503771161
 20
163.9327374990642
 10
175.5139503771161
 20
163.9327374990642
 10
175.4929352807925
 20
163.8903627966413
 10
175.4929352807925
 20
163.8903627966413
 10
175.4929352807925
 20
163.8903627966413
 10
175.471920184469
 20
163.8691754454296
 10
175.471920184469
 20
163.8691754454296
 10
175.471920184469
 20
163.8691754454296
 10
175.4505605783696
 20
163.8269729978948
 10
175.4505605783696
 20
163.8269729978948
 10
175.3571984291289
 20
163.7715069239916
 10
175.272449024283
 20
163.8195660377152
 10
175.1966568736079
 20
163.8691754454296
 10
175.208370205985
 20
163.9930267098286
 10
175.1563492298397
 20
164.0216210212197
 10
175.2600466723544
 20
164.0596893514451
 10
175.3330827448232
 20
164.1094710140476
 10
175.4357466580104
 20
164.0753645462439
 10
175.4929352807925
 20
164.0174869039101
 72
     1
 10
175.4929352807925
 20
164.0174869039101
 11
175.4929352807925
 21
164.0174869039101
 97
        0
 75
     0
 76
     1
 98
        0
450
        0
451
        0
460
0.0
461
0.0
452
        0
462
0.0
453
        0
470

  0
HATCH
  5
3895
330
1F
100
AcDbEntity
  8
图层 1
 62
     7
100
AcDbHatch
 10
0.0
 20
0.0
 30
0.0
210
0.0
220
0.0
230
1.0
  2
SOLID
 70
     1
 71
     0
 91
        1
 92
        1
 93
        2
 72
     4
 94
        3
 73
     0
 74
     0
 95
       11
 96
        7
 40
0.0
 40
0.0
 40
0.0
 40
0.0
 40
0.3527780104152769
 40
0.3527780104152769
 40
0.3527780104152769
 40
0.7055560208305538
 40
0.7055560208305538
 40
0.7055560208305538
 40
0.7055560208305538
 10
174.9213935627468
 20
174.5369206529582
 10
174.9213935627468
 20
174.5369206529582
 10
174.9213935627468
 20
174.3043765542958
 10
174.9213935627468
 20
174.3043765542958
 10
174.9213935627468
 20
174.3043765542958
 10
174.9213935627468
 20
174.5369206529582
 10
174.9213935627468
 20
174.5369206529582
 72
     1
 10
174.9213935627468
 20
174.5369206529582
 11
174.9213935627468
 21
174.5369206529582
 97
        0
 75
     0
 76
     1
 98
        0
450
        0
451
        0
460
0.0
461
0.0
452
        0
462
0.0
453
        0
470

  0
HATCH
  5
3943
330
1F
100
AcDbEntity
  8
图层 1
 62
     7
100
AcDbHatch
 10
0.0
 20
0.0
 30
0.0
210
0.0
220
0.0
230
1.0
  2
SOLID
 70
     1
 71
     0
 91
        1
 92
        1
 93
        2
 72
     4
 94
        3
 73
     0
 74
     0
 95
      131
 96
      127
 40
0.0
 40
0.0
 40
0.0
 40
0.0
 40
0.3527780104152769
 40
0.3527780104152769
 40
0.3527780104152769
 40
0.7055560208305538
 40
0.7055560208305538
 40
0.7055560208305538
 40
1.058334031245828
 40
1.058334031245828
 40
1.058334031245828
 40
1.411112041661104
 40
1.411112041661104
 40
1.411112041661104
 40
1.763890052076384
 40
1.763890052076384
 40
1.763890052076384
 40
2.116668062491659
 40
2.116668062491659
 40
2.116668062491659
 40
2.469446072906936
 40
2.469446072906936
 40
2.469446072906936
 40
2.822224083322215
 40
2.822224083322215
 40
2.822224083322215
 40
3.175002093737492
 40
3.175002093737492
 40
3.175002093737492
 40
3.527780104152768
 40
3.527780104152768
 40
3.527780104152768
 40
3.880558114568044
 40
3.880558114568044
 40
3.880558114568044
 40
4.233336124983321
 40
4.233336124983321
 40
4.233336124983321
 40
4.586114135398599
 40
4.586114135398599
 40
4.586114135398599
 40
4.938892145813873
 40
4.938892145813873
 40
4.938892145813873
 40
5.291670156229153
 40
5.291670156229153
 40
5.291670156229153
 40
5.64444816664443
 40
5.64444816664443
 40
5.64444816664443
 40
5.997226177059705
 40
5.997226177059705
 40
5.997226177059705
 40
6.350004187474984
 40
6.350004187474984
 40
6.350004187474984
 40
6.702782197890257
 40
6.702782197890257
 40
6.702782197890257
 40
7.055560208305537
 40
7.055560208305537
 40
7.055560208305537
 40
7.408338218720808
 40
7.408338218720808
 40
7.408338218720808
 40
7.76111622913609
 40
7.76111622913609
 40
7.76111622913609
 40
8.113894239551369
 40
8.113894239551369
 40
8.113894239551369
 40
8.466672249966642
 40
8.466672249966642
 40
8.466672249966642
 40
8.819450260381922
 40
8.819450260381922
 40
8.819450260381922
 40
9.172228270797198
 40
9.172228270797198
 40
9.172228270797198
 40
9.525006281212476
 40
9.525006281212476
 40
9.525006281212476
 40
9.877784291627751
 40
9.877784291627751
 40
9.877784291627751
 40
10.23056230204303
 40
10.23056230204303
 40
10.23056230204303
 40
10.58334031245831
 40
10.58334031245831
 40
10.58334031245831
 40
10.93611832287358
 40
10.93611832287358
 40
10.93611832287358
 40
11.28889633328886
 40
11.28889633328886
 40
11.28889633328886
 40
11.64167434370414
 40
11.64167434370414
 40
11.64167434370414
 40
11.99445235411941
 40
11.99445235411941
 40
11.99445235411941
 40
12.34723036453469
 40
12.34723036453469
 40
12.34723036453469
 40
12.70000837494997
 40
12.70000837494997
 40
12.70000837494997
 40
13.05278638536524
 40
13.05278638536524
 40
13.05278638536524
 40
13.40556439578052
 40
13.40556439578052
 40
13.40556439578052
 40
13.7583424061958
 40
13.7583424061958
 40
13.7583424061958
 40
14.11112041661107
 40
14.11112041661107
 40
14.11112041661107
 40
14.46389842702635
 40
14.46389842702635
 40
14.46389842702635
 40
14.81667643744163
 40
14.81667643744163
 40
14.81667643744163
 40
14.81667643744163
 10
173.3972823146245
 20
126.8274843518258
 10
173.3972823146245
 20
126.8274843518258
 10
173.3972823146245
 20
126.7217198506564
 10
173.3972823146245
 20
126.7217198506564
 10
173.3972823146245
 20
126.7217198506564
 10
173.4186419207238
 20
126.7217198506564
 10
173.4186419207238
 20
126.7217198506564
 10
173.4186419207238
 20
126.7217198506564
 10
173.4820317194703
 20
126.7007047543328
 10
173.4820317194703
 20
126.7007047543328
 10
173.4820317194703
 20
126.7007047543328
 10
173.5244064218933
 20
126.6793451482334
 10
173.5244064218933
 20
126.6793451482334
 10
173.5244064218933
 20
126.6793451482334
 10
173.5877962206398
 20
126.6793451482334
 10
173.5877962206398
 20
126.6793451482334
 10
173.5877962206398
 20
126.6793451482334
 10
173.6301709230627
 20
126.6583300519099
 10
173.6301709230627
 20
126.6583300519099
 10
173.7955356154449
 20
126.5911506456296
 10
173.759706598762
 20
126.6380039751379
 10
173.9478089363468
 20
126.5525655507404
 10
173.9478089363468
 20
126.5525655507404
 10
173.9688240326703
 20
126.4464565397952
 10
173.9688240326703
 20
126.4464565397952
 10
173.9688240326703
 20
126.4464565397952
 10
174.0325583411926
 20
126.5101908483175
 10
174.0325583411926
 20
126.5101908483175
 10
174.0325583411926
 20
126.5101908483175
 10
174.0749330436156
 20
126.5101908483175
 10
174.0749330436156
 20
126.5101908483175
 10
174.0749330436156
 20
126.5101908483175
 10
174.1593379386856
 20
126.4678161458946
 10
174.1593379386856
 20
126.4678161458946
 10
174.1593379386856
 20
126.4678161458946
 10
174.180697544785
 20
126.4464565397952
 10
174.180697544785
 20
126.4464565397952
 10
174.2464989119621
 20
126.3982251711837
 10
174.3298702777047
 20
126.3716979184474
 10
174.3922265471239
 20
126.3196769423022
 10
174.608234176548
 20
126.2059887162895
 10
174.7749769080334
 20
126.0278771622029
 10
174.9637682651697
 20
125.8749148217494
 10
174.9637682651697
 20
125.8749148217494
 10
175.0061429675926
 20
125.9172895241723
 10
175.0061429675926
 20
125.9172895241723
 10
174.961356696739
 20
125.9631093243532
 10
174.782211613325
 20
126.1246844092016
 10
174.7308796567315
 20
126.1501781326105
 10
174.7308796567315
 20
126.1501781326105
 10
174.6885049543085
 20
126.1925528350335
 10
174.6885049543085
 20
126.1925528350335
 10
174.6885049543085
 20
126.1925528350335
 10
174.667489857985
 20
126.2349275374564
 10
174.667489857985
 20
126.2349275374564
 10
174.667489857985
 20
126.2349275374564
 10
174.625115155562
 20
126.2559426337799
 10
174.625115155562
 20
126.2559426337799
 10
174.625115155562
 20
126.2559426337799
 10
174.5827404531391
 20
126.2983173362029
 10
174.5827404531391
 20
126.2983173362029
 10
174.5827404531391
 20
126.2983173362029
 10
174.5403657507162
 20
126.3196769423022
 10
174.5403657507162
 20
126.3196769423022
 10
174.5403657507162
 20
126.3196769423022
 10
174.4979910482932
 20
126.3620516447252
 10
174.4979910482932
 20
126.3620516447252
 10
174.4735308542117
 20
126.3875453681341
 10
174.3247026310678
 20
126.4695386947736
 10
174.2864620459544
 20
126.4888312422181
 10
174.2864620459544
 20
126.4888312422181
 10
174.2654469496308
 20
126.5101908483175
 10
174.2654469496308
 20
126.5101908483175
 10
174.2654469496308
 20
126.5101908483175
 10
174.2230722472079
 20
126.5312059446411
 10
174.2230722472079
 20
126.5312059446411
 10
174.2230722472079
 20
126.5312059446411
 10
174.2017126411085
 20
126.5525655507404
 10
174.2017126411085
 20
126.5525655507404
 10
174.2017126411085
 20
126.5525655507404
 10
174.1383228423621
 20
126.573580647064
 10
174.1383228423621
 20
126.573580647064
 10
174.1383228423621
 20
126.573580647064
 10
174.1169632362627
 20
126.5945957433876
 10
174.1169632362627
 20
126.5945957433876
 10
174.1169632362627
 20
126.5945957433876
 10
174.0959481399391
 20
126.7007047543328
 10
174.0959481399391
 20
126.7007047543328
 10
174.0959481399391
 20
126.7007047543328
 10
174.0325583411926
 20
126.6369704458105
 10
174.0325583411926
 20
126.6369704458105
 10
174.0325583411926
 20
126.6369704458105
 10
173.9901836387697
 20
126.6369704458105
 10
173.9901836387697
 20
126.6369704458105
 10
173.9901836387697
 20
126.6369704458105
 10
173.9054342339239
 20
126.6793451482334
 10
173.9054342339239
 20
126.6793451482334
 10
173.9054342339239
 20
126.6793451482334
 10
173.8420444351773
 20
126.7007047543328
 10
173.8420444351773
 20
126.7007047543328
 10
173.8420444351773
 20
126.7007047543328
 10
173.7996697327544
 20
126.7217198506564
 10
173.7996697327544
 20
126.7217198506564
 10
173.7996697327544
 20
126.7217198506564
 10
173.7572950303315
 20
126.7217198506564
 10
173.7572950303315
 20
126.7217198506564
 10
173.7572950303315
 20
126.7217198506564
 10
173.6725456254856
 20
126.7640945530793
 10
173.6725456254856
 20
126.7640945530793
 10
173.6725456254856
 20
126.7640945530793
 10
173.6515305291621
 20
126.7640945530793
 10
173.6515305291621
 20
126.7640945530793
 10
173.6515305291621
 20
126.7640945530793
 10
173.5667811243162
 20
126.7851096494029
 10
173.5667811243162
 20
126.7851096494029
 10
173.5667811243162
 20
126.7851096494029
 10
173.5033913255697
 20
126.8064692555022
 10
173.5033913255697
 20
126.8064692555022
 10
173.5033913255697
 20
126.8064692555022
 10
173.4396570170474
 20
126.8064692555022
 10
173.4396570170474
 20
126.8064692555022
 10
173.4396570170474
 20
126.8064692555022
 10
173.4186419207238
 20
126.8274843518258
 10
173.4186419207238
 20
126.8274843518258
 10
173.4186419207238
 20
126.8274843518258
 10
173.3972823146245
 20
126.8274843518258
 10
173.3972823146245
 20
126.8274843518258
 72
     1
 10
173.3972823146245
 20
126.8274843518258
 11
173.3972823146245
 21
126.8274843518258
 97
        0
 75
     0
 76
     1
 98
        0
450
        0
451
        0
460
0.0
461
0.0
452
        0
462
0.0
453
        0
470

  0
HATCH
  5
4842
330
1F
100
AcDbEntity
  8
图层 1
 62
     7
100
AcDbHatch
 10
0.0
 20
0.0
 30
0.0
210
0.0
220
0.0
230
1.0
  2
SOLID
 70
     1
 71
     0
 91
        1
 92
        1
 93
        2
 72
     4
 94
        3
 73
     0
 74
     0
 95
       47
 96
       43
 40
0.0
 40
0.0
 40
0.0
 40
0.0
 40
0.3527780104152769
 40
0.3527780104152769
 40
0.3527780104152769
 40
0.7055560208305538
 40
0.7055560208305538
 40
0.7055560208305538
 40
1.058334031245828
 40
1.058334031245828
 40
1.058334031245828
 40
1.411112041661104
 40
1.411112041661104
 40
1.411112041661104
 40
1.763890052076384
 40
1.763890052076384
 40
1.763890052076384
 40
2.116668062491659
 40
2.116668062491659
 40
2.116668062491659
 40
2.469446072906936
 40
2.469446072906936
 40
2.469446072906936
 40
2.822224083322215
 40
2.822224083322215
 40
2.822224083322215
 40
3.175002093737492
 40
3.175002093737492
 40
3.175002093737492
 40
3.527780104152768
 40
3.527780104152768
 40
3.527780104152768
 40
3.880558114568044
 40
3.880558114568044
 40
3.880558114568044
 40
4.233336124983321
 40
4.233336124983321
 40
4.233336124983321
 40
4.586114135398599
 40
4.586114135398599
 40
4.586114135398599
 40
4.938892145813873
 40
4.938892145813873
 40
4.938892145813873
 40
4.938892145813873
 10
180.1920486226523
 20
255.6479577566324
 10
180.1920486226523
 20
255.6479577566324
 10
180.2130637189759
 20
255.6055830542095
 10
180.2130637189759
 20
255.6055830542095
 10
180.2130637189759
 20
255.6055830542095
 10
180.2130637189759
 20
255.5210059042515
 10
180.2130637189759
 20
255.5210059042515
 10
180.2130637189759
 20
255.5210059042515
 10
180.1920486226523
 20
255.4786312018286
 10
180.1920486226523
 20
255.4786312018286
 10
180.1920486226523
 20
255.4786312018286
 10
180.1496739202294
 20
255.4359119896299
 10
180.1496739202294
 20
255.4359119896299
 10
180.1496739202294
 20
255.4359119896299
 10
180.1283143141301
 20
255.4147246384184
 10
180.1283143141301
 20
255.4147246384184
 10
180.1283143141301
 20
255.4147246384184
 10
180.0225498129606
 20
255.4147246384184
 10
180.0225498129606
 20
255.4147246384184
 10
180.0225498129606
 20
255.4147246384184
 10
179.9591600142141
 20
255.4359119896299
 10
179.9591600142141
 20
255.4359119896299
 10
179.9591600142141
 20
255.4359119896299
 10
179.9167853117912
 20
255.4570993408414
 10
179.9167853117912
 20
255.4570993408414
 10
179.9167853117912
 20
255.4570993408414
 10
179.8957702154676
 20
255.4786312018286
 10
179.8957702154676
 20
255.4786312018286
 10
179.8957702154676
 20
255.4786312018286
 10
179.8744106093683
 20
255.4994740432643
 10
179.8744106093683
 20
255.4994740432643
 10
179.8744106093683
 20
255.4994740432643
 10
179.8744106093683
 20
255.6479577566324
 10
179.8744106093683
 20
255.6479577566324
 10
179.9608825630931
 20
255.7323626517025
 10
180.045631967939
 20
255.7085914771726
 10
180.1496739202294
 20
255.7115198102668
 10
180.1496739202294
 20
255.7115198102668
 10
180.170689016553
 20
255.6688005980681
 10
180.170689016553
 20
255.6688005980681
 10
180.170689016553
 20
255.6688005980681
 10
180.1920486226523
 20
255.6479577566324
 10
180.1920486226523
 20
255.6479577566324
 72
     1
 10
180.1920486226523
 20
255.6479577566324
 11
180.1920486226523
 21
255.6479577566324
 97
        0
 75
     0
 76
     1
 98
        0
450
        0
451
        0
460
0.0
461
0.0
452
        0
462
0.0
453
        0
470

  0
MTEXT
  5
14062
330
1F
100
AcDbEntity
  8
图框
 62
     3
100
AcDbMText
 10
755.2146718971449
 20
193.551693885014
 30
0.0
 40
0.7463783937585367
 41
8.403097998105339
 46
2.171686376421464
 71
     5
 72
     5
  1
CDGM-1.0
  7
Romans字体
 73
     1
 44
1.0
1001
ACAD
1000
MTEXTBEGIN
1070
    73
1070
     1
1070
    44
1040
1.0
1070
    74
1070
     0
1000
MTEXTEND
1000
ACAD_MTEXT_DEFINED_HEIGHT_BEGIN
1070
    46
1040
2.171686376421464
1000
ACAD_MTEXT_DEFINED_HEIGHT_END
  0
MTEXT
  5
14063
330
1F
100
AcDbEntity
  8
图框
 62
     3
100
AcDbMText
 10
755.2146718971449
 20
191.3568312533075
 30
0.0
 40
0.7463783937585367
 41
8.403097998105339
 46
2.218038886991525
 71
     5
 72
     5
  1
{\C4;1010172100801}
  7
Romans字体
 73
     1
 44
1.0
1001
ACAD
1000
MTEXTBEGIN
1070
    73
1070
     1
1070
    44
1040
1.0
1070
    74
1070
     0
1000
MTEXTEND
1000
ACAD_MTEXT_DEFINED_HEIGHT_BEGIN
1070
    46
1040
2.218038886991525
1000
ACAD_MTEXT_DEFINED_HEIGHT_END
  0
MTEXT
  5
14064
330
1F
100
AcDbEntity
  8
图框
 62
     3
100
AcDbMText
 10
738.2012556644986
 20
188.0299224836211
 30
0.0
 40
0.7463783937585367
 41
2.707337108597616
 46
1.971523650302624
 71
     5
 72
     5
  1
1:4
  7
Romans字体
 73
     1
 44
1.0
1001
ACAD
1000
MTEXTBEGIN
1070
    73
1070
     1
1070
    44
1040
1.0
1070
    74
1070
     0
1000
MTEXTEND
1000
ACAD_MTEXT_DEFINED_HEIGHT_BEGIN
1070
    46
1040
1.971523650302624
1000
ACAD_MTEXT_DEFINED_HEIGHT_END
  0
MTEXT
  5
14066
330
1F
100
AcDbEntity
  8
图框
 62
     3
100
AcDbMText
 10
743.5786224069936
 20
187.908793207647
 30
0.0
 40
0.7463783937585367
 41
2.707337108598041
 46
1.971523650302598
 71
     5
 72
     5
  1
0.62g
  7
Romans字体
 73
     1
 44
1.0
1001
ACAD
1000
MTEXTBEGIN
1070
    73
1070
     1
1070
    44
1040
1.0
1070
    74
1070
     0
1000
MTEXTEND
1000
ACAD_MTEXT_DEFINED_HEIGHT_BEGIN
1070
    46
1040
1.971523650302598
1000
ACAD_MTEXT_DEFINED_HEIGHT_END
  0
MTEXT
  5
14067
330
1F
100
AcDbEntity
  8
图框
 62
     3
100
AcDbMText
 10
719.5989691623601
 20
189.0110908078946
 30
0.0
 40
0.7463783937585367
 41
3.87544085289466
 46
1.573164593627754
 71
     5
 72
     5
  1
LS JI
  7
Romans字体
 73
     1
 44
1.0
1001
AcDbBlockRepETag
1070
     1
1071
        0
1005
13144
1001
ACAD
1000
MTEXTBEGIN
1070
    73
1070
     1
1070
    44
1040
1.0
1070
    74
1070
     0
1000
MTEXTEND
1000
ACAD_MTEXT_DEFINED_HEIGHT_BEGIN
1070
    46
1040
1.573164593627754
1000
ACAD_MTEXT_DEFINED_HEIGHT_END
  0
MTEXT
  5
14068
330
1F
100
AcDbEntity
  8
图框
 62
     3
100
AcDbMText
 10
723.4444875769185
 20
189.0110908078946
 30
0.0
 40
0.6219819947987812
 41
3.815595976222626
 46
1.57316459362776
 71
     5
 72
     5
  1
{\W0.7;27.03.2018}
  7
Romans字体
 73
     1
 44
1.0
1001
AcDbBlockRepETag
1070
     1
1071
        1
1005
13145
1001
ACAD
1000
MTEXTBEGIN
1070
    73
1070
     1
1070
    44
1040
1.0
1070
    74
1070
     0
1000
MTEXTEND
1000
ACAD_MTEXT_DEFINED_HEIGHT_BEGIN
1070
    46
1040
1.57316459362776
1000
ACAD_MTEXT_DEFINED_HEIGHT_END
  0
MTEXT
  5
14069
330
1F
100
AcDbEntity
  8
图框
 62
     3
100
AcDbMText
 10
730.8034089258507
 20
185.864761620639
 30
0.0
 40
0.7463783937585367
 41
4.412191042211537
 46
1.57316459362786
 71
     5
 72
     5
  1
YY LIN
  7
Romans字体
 73
     1
 44
1.0
1001
AcDbBlockRepETag
1070
     1
1071
        2
1005
13146
1001
ACAD
1000
MTEXTBEGIN
1070
    73
1070
     1
1070
    44
1040
1.0
1070
    74
1070
     0
1000
MTEXTEND
1000
ACAD_MTEXT_DEFINED_HEIGHT_BEGIN
1070
    46
1040
1.57316459362786
1000
ACAD_MTEXT_DEFINED_HEIGHT_END
  0
MTEXT
  5
1406A
330
1F
100
AcDbEntity
  8
图框
 62
     3
100
AcDbMText
 10
734.9285457785781
 20
185.864761620639
 30
0.0
 40
0.6219819947987812
 41
3.83808266324319
 46
1.573164593627873
 71
     5
 72
     5
  1
{\W0.7;27.03.2018}
  7
Romans字体
 73
     1
 44
1.0
1001
AcDbBlockRepETag
1070
     1
1071
        3
1005
13147
1001
ACAD
1000
MTEXTBEGIN
1070
    73
1070
     1
1070
    44
1040
1.0
1070
    74
1070
     0
1000
MTEXTEND
1000
ACAD_MTEXT_DEFINED_HEIGHT_BEGIN
1070
    46
1040
1.573164593627873
1000
ACAD_MTEXT_DEFINED_HEIGHT_END
  0
MTEXT
  5
1406B
330
1F
100
AcDbEntity
  8
图框
 62
     3
100
AcDbMText
 10
743.6147616154088
 20
195.423136172258
 30
0.0
 40
0.7463783937585367
 41
8.124347858363622
 46
2.957285475454267
 71
     5
 72
     5
  1
-
  7
Romans字体
 73
     1
 44
1.0
1001
AcDbBlockRepETag
1070
     1
1071
        4
1005
13148
1001
ACAD
1000
MTEXTBEGIN
1070
    73
1070
     1
1070
    44
1040
1.0
1070
    74
1070
     0
1000
MTEXTEND
1000
ACAD_MTEXT_DEFINED_HEIGHT_BEGIN
1070
    46
1040
2.957285475454267
1000
ACAD_MTEXT_DEFINED_HEIGHT_END
  0
MTEXT
  5
1406C
330
1F
100
AcDbEntity
  8
图框
 62
     3
100
AcDbMText
 10
743.615929881694
 20
192.4658506968033
 30
0.0
 40
0.7463783937585367
 41
8.12201132579327
 46
2.957285475455345
 71
     5
 72
     5
  1
-
  7
Romans字体
 73
     1
 44
1.0
1001
AcDbBlockRepETag
1070
     1
1071
        5
1005
13149
1001
ACAD
1000
MTEXTBEGIN
1070
    73
1070
     1
1070
    44
1040
1.0
1070
    74
1070
     0
1000
MTEXTEND
1000
ACAD_MTEXT_DEFINED_HEIGHT_BEGIN
1070
    46
1040
2.957285475455345
1000
ACAD_MTEXT_DEFINED_HEIGHT_END
  0
MTEXT
  5
1406D
330
1F
100
AcDbEntity
  8
图框
 62
     3
100
AcDbMText
 10
755.2146718971449
 20
195.7696579916049
 30
0.0
 40
0.7463783937585367
 41
8.403097998105343
 46
2.264241836760445
 71
     5
 72
     5
  1
-
  7
Romans字体
 73
     1
 44
1.0
1001
AcDbBlockRepETag
1070
     1
1071
        6
1005
1314A
1001
ACAD
1000
MTEXTBEGIN
1070
    73
1070
     1
1070
    44
1040
1.0
1070
    74
1070
     0
1000
MTEXTEND
1000
ACAD_MTEXT_DEFINED_HEIGHT_BEGIN
1070
    46
1040
2.264241836760445
1000
ACAD_MTEXT_DEFINED_HEIGHT_END
  0
MTEXT
  5
1406E
330
1F
100
AcDbEntity
  8
图框
 62
     3
100
AcDbMText
 10
755.2146718971449
 20
189.1388671467163
 30
0.0
 40
0.7463783937585367
 41
8.403097998105343
 46
2.217889326190852
 71
     5
 72
     5
  1
-
  7
Romans字体
 73
     1
 44
1.0
1001
AcDbBlockRepETag
1070
     1
1071
        7
1005
1314B
1001
ACAD
1000
MTEXTBEGIN
1070
    73
1070
     1
1070
    44
1040
1.0
1070
    74
1070
     0
1000
MTEXTEND
1000
ACAD_MTEXT_DEFINED_HEIGHT_BEGIN
1070
    46
1040
2.217889326190852
1000
ACAD_MTEXT_DEFINED_HEIGHT_END
  0
MTEXT
  5
1406F
330
1F
100
AcDbEntity
  8
图框
 62
     3
100
AcDbMText
 10
719.5989691623601
 20
187.4379262142667
 30
0.0
 40
0.7463783937585367
 41
3.87544085289466
 46
1.573164593627583
 71
     5
 72
     5
  1
P RAO
  7
Romans字体
 73
     1
 44
1.0
1001
AcDbBlockRepETag
1070
     1
1071
        8
1005
1314C
1001
ACAD
1000
MTEXTBEGIN
1070
    73
1070
     1
1070
    44
1040
1.0
1070
    74
1070
     0
1000
MTEXTEND
1000
ACAD_MTEXT_DEFINED_HEIGHT_BEGIN
1070
    46
1040
1.573164593627583
1000
ACAD_MTEXT_DEFINED_HEIGHT_END
  0
MTEXT
  5
14070
330
1F
100
AcDbEntity
  8
图框
 62
     3
100
AcDbMText
 10
723.4444875769185
 20
187.3805362700474
 30
0.0
 40
0.6219819947987812
 41
3.815595976222626
 46
1.68794448206662
 71
     5
 72
     5
  1
{\W0.7;27.03.2018}
  7
Romans字体
 73
     1
 44
1.0
1001
AcDbBlockRepETag
1070
     1
1071
        9
1005
1314D
1001
ACAD
1000
MTEXTBEGIN
1070
    73
1070
     1
1070
    44
1040
1.0
1070
    74
1070
     0
1000
MTEXTEND
1000
ACAD_MTEXT_DEFINED_HEIGHT_BEGIN
1070
    46
1040
1.68794448206662
1000
ACAD_MTEXT_DEFINED_HEIGHT_END
  0
MTEXT
  5
14071
330
1F
100
AcDbEntity
  8
图框
 62
     3
100
AcDbMText
 10
730.8034089258507
 20
189.0110908078945
 30
0.0
 40
0.7463783937585367
 41
4.412191042211537
 46
1.573164593627849
 71
     5
 72
     5
  1
-
  7
Romans字体
 73
     1
 44
1.0
1001
AcDbBlockRepETag
1070
     1
1071
       10
1005
1314E
1001
ACAD
1000
MTEXTBEGIN
1070
    73
1070
     1
1070
    44
1040
1.0
1070
    74
1070
     0
1000
MTEXTEND
1000
ACAD_MTEXT_DEFINED_HEIGHT_BEGIN
1070
    46
1040
1.573164593627849
1000
ACAD_MTEXT_DEFINED_HEIGHT_END
  0
MTEXT
  5
14072
330
1F
100
AcDbEntity
  8
图框
 62
     3
100
AcDbMText
 10
734.9285457785781
 20
189.0110908078945
 30
0.0
 40
0.6219819947987812
 41
3.838082663243162
 46
1.573164593627845
 71
     5
 72
     5
  1
-
  7
Romans字体
 73
     1
 44
1.0
1001
AcDbBlockRepETag
1070
     1
1071
       11
1005
1314F
1001
ACAD
1000
MTEXTBEGIN
1070
    73
1070
     1
1070
    44
1040
1.0
1070
    74
1070
     0
1000
MTEXTEND
1000
ACAD_MTEXT_DEFINED_HEIGHT_BEGIN
1070
    46
1040
1.573164593627845
1000
ACAD_MTEXT_DEFINED_HEIGHT_END
  0
MTEXT
  5
14073
330
1F
100
AcDbEntity
  8
图框
 62
     3
100
AcDbMText
 10
719.5989691623601
 20
185.864761620639
 30
0.0
 40
0.7463783937585367
 41
3.875440852894652
 46
1.573164593627869
 71
     5
 72
     5
  1
-
  7
Romans字体
 73
     1
 44
1.0
1001
AcDbBlockRepETag
1070
     1
1071
       12
1005
13150
1001
ACAD
1000
MTEXTBEGIN
1070
    73
1070
     1
1070
    44
1040
1.0
1070
    74
1070
     0
1000
MTEXTEND
1000
ACAD_MTEXT_DEFINED_HEIGHT_BEGIN
1070
    46
1040
1.573164593627869
1000
ACAD_MTEXT_DEFINED_HEIGHT_END
  0
MTEXT
  5
14074
330
1F
100
AcDbEntity
  8
图框
 62
     3
100
AcDbMText
 10
723.4444875769185
 20
185.864761620639
 30
0.0
 40
0.6219819947987812
 41
3.815595976222653
 46
1.573164593627873
 71
     5
 72
     5
  1
-
  7
Romans字体
 73
     1
 44
1.0
1001
AcDbBlockRepETag
1070
     1
1071
       13
1005
13151
1001
ACAD
1000
MTEXTBEGIN
1070
    73
1070
     1
1070
    44
1040
1.0
1070
    74
1070
     0
1000
MTEXTEND
1000
ACAD_MTEXT_DEFINED_HEIGHT_BEGIN
1070
    46
1040
1.573164593627873
1000
ACAD_MTEXT_DEFINED_HEIGHT_END
  0
MTEXT
  5
14075
330
1F
100
AcDbEntity
  8
图框
 62
     3
100
AcDbMText
 10
746.323266990292
 20
188.0299224836211
 30
0.0
 40
0.7463783937585367
 41
2.707337108597442
 46
1.971523650302605
 71
     5
 72
     5
  1
-
  7
Romans字体
 73
     1
 44
1.0
1001
AcDbBlockRepETag
1070
     1
1071
       14
1005
13152
1001
ACAD
1000
MTEXTBEGIN
1070
    73
1070
     1
1070
    44
1040
1.0
1070
    74
1070
     0
1000
MTEXTEND
1000
ACAD_MTEXT_DEFINED_HEIGHT_BEGIN
1070
    46
1040
1.971523650302605
1000
ACAD_MTEXT_DEFINED_HEIGHT_END
  0
LINE
  5
14076
330
1F
100
AcDbEntity
  8
图框
370
    -3
100
AcDbLine
 10
736.8475871101999
 20
189.0156843087726
 30
0.0
 11
747.6769355445907
 21
189.0156843087726
 31
0.0
1001
AcDbBlockRepETag
1070
     1
1071
       15
1005
13153
  0
MTEXT
  5
14077
330
1F
100
AcDbEntity
  8
图框
 62
     1
370
    20
100
AcDbMText
 10
754.7499363533741
 20
186.9485519108093
 30
0.0
 40
0.6747636532577471
 41
20.57707826410769
 46
0.0
 71
     5
 72
     5
  1
{\fSimHei|b0|i0|c134|p2;厦门唯恩电气有限公司}
 73
     1
 44
1.0
1001
AcDbBlockRepETag
1070
     1
1071
       16
1005
13154
1001
ACAD
1000
MTEXTBEGIN
1070
    73
1070
     1
1070
    44
1040
1.0
1070
    74
1070
     0
1000
MTEXTEND
  0
MTEXT
  5
14078
330
1F
100
AcDbEntity
  8
图框
 62
     3
370
    20
100
AcDbMText
 10
754.7929581085837
 20
185.8942289403033
 30
0.0
 40
0.4131206040353543
 41
17.02139673423392
 46
0.0
 71
     5
 72
     5
  1
{\fArial Narrow|b0|i0|c0|p34;XIAMEN WAIN ELECTRICAL CO.LTD}
  7
工程字
 73
     1
 44
1.0
1001
AcDbBlockRepETag
1070
     1
1071
       17
1005
13155
1001
ACAD
1000
MTEXTBEGIN
1070
    73
1070
     1
1070
    44
1040
1.0
1070
    74
1070
     0
1000
MTEXTEND
  0
MTEXT
  5
14079
330
1F
100
AcDbEntity
  8
图框
 62
     1
370
    20
100
AcDbMText
 10
749.1120494684536
 20
186.8431070836836
 30
0.0
 40
0.5014825110095835
 41
1.261810004833709
 46
0.0
 71
     1
 72
     5
  1
{\fArial|b0|i0|c0|p34;A}
  7
Chinese
 73
     1
 44
1.0
1001
AcDbBlockRepETag
1070
     1
1071
       18
1005
13156
1001
ACAD
1000
MTEXTBEGIN
1070
    73
1070
     1
1070
    44
1040
1.0
1070
    74
1070
     0
1000
MTEXTEND
  0
MTEXT
  5
1407A
330
1F
100
AcDbEntity
  8
图框
 62
     1
370
    20
100
AcDbMText
 10
749.7374667275355
 20
186.8431070836836
 30
0.0
 40
0.5014825110095835
 41
1.261810004833709
 46
0.0
 71
     1
 72
     5
  1
{\fArial|b0|i0|c0|p34;I}
  7
Chinese
 73
     1
 44
1.0
1001
AcDbBlockRepETag
1070
     1
1071
       19
1005
13157
1001
ACAD
1000
MTEXTBEGIN
1070
    73
1070
     1
1070
    44
1040
1.0
1070
    74
1070
     0
1000
MTEXTEND
  0
MTEXT
  5
1407B
330
1F
100
AcDbEntity
  8
图框
 62
     1
370
    20
100
AcDbMText
 10
749.9696890493228
 20
186.8400586669574
 30
0.0
 40
0.5014825110095835
 41
1.261810004833709
 46
0.0
 71
     1
 72
     5
  1
{\fArial|b0|i0|c0|p34;N}
  7
Chinese
 73
     1
 44
1.0
1001
AcDbBlockRepETag
1070
     1
1071
       20
1005
13158
1001
ACAD
1000
MTEXTBEGIN
1070
    73
1070
     1
1070
    44
1040
1.0
1070
    74
1070
     0
1000
MTEXTEND
  0
MTEXT
  5
1407C
330
1F
100
AcDbEntity
  8
图框
100
AcDbMText
 10
744.9695984359932
 20
186.0611699911475
 30
0.0
 40
0.5632120425361517
 41
5.414674217195813
 46
1.965981334644824
 71
     5
 72
     5
  1
{\W0.5;\C1;All Dimensions in mm\POriginal Size DIN A 4}
  7
Romans字体
 73
     1
 44
1.0
1001
AcDbBlockRepETag
1070
     1
1071
       21
1005
13159
1001
ACAD
1000
MTEXTBEGIN
1070
    73
1070
     1
1070
    44
1040
1.0
1070
    74
1070
     0
1000
MTEXTEND
1000
ACAD_MTEXT_DEFINED_HEIGHT_BEGIN
1070
    46
1040
1.965981334644824
1000
ACAD_MTEXT_DEFINED_HEIGHT_END
  0
MTEXT
  5
1407D
330
1F
100
AcDbEntity
  8
图框
  6
ByBlock
 62
     6
370
    18
100
AcDbMText
 10
759.5351825993766
 20
191.2669004026866
 30
0.0
 40
0.662944040671226
 41
0.6394784694818025
 46
0.0
 71
     1
 72
     5
  1
A
  7
Romans字体
 11
0.0000000000000001
 21
1.0
 31
0.0
 73
     1
 44
1.0
1001
AcDbBlockRepETag
1070
     1
1071
       22
1005
1315A
1001
ACAD
1000
MTEXTBEGIN
1070
    73
1070
     1
1070
    44
1040
1.0
1070
    74
1070
     0
1000
MTEXTEND
  0
MTEXT
  5
1407E
330
1F
100
AcDbEntity
  8
图框
 62
     6
100
AcDbMText
 10
759.5351825993766
 20
203.1631513396094
 30
0.0
 40
0.662944040671226
 41
0.6394784694818025
 46
0.0
 71
     1
 72
     5
  1
B
  7
Romans字体
 11
0.0000000000000001
 21
1.0
 31
0.0
 73
     1
 44
1.0
1001
AcDbBlockRepETag
1070
     1
1071
       23
1005
1315B
1001
ACAD
1000
MTEXTBEGIN
1070
    73
1070
     1
1070
    44
1040
1.0
1070
    74
1070
     0
1000
MTEXTEND
  0
MTEXT
  5
1407F
330
1F
100
AcDbEntity
  8
图框
 62
     6
100
AcDbMText
 10
759.5351825993766
 20
215.9579713245622
 30
0.0
 40
0.662944040671226
 41
0.6394784694818025
 46
0.0
 71
     1
 72
     5
  1
C
  7
Romans字体
 11
0.0000000000000001
 21
1.0
 31
0.0
 73
     1
 44
1.0
1001
AcDbBlockRepETag
1070
     1
1071
       24
1005
1315C
1001
ACAD
1000
MTEXTBEGIN
1070
    73
1070
     1
1070
    44
1040
1.0
1070
    74
1070
     0
1000
MTEXTEND
  0
MTEXT
  5
14080
330
1F
100
AcDbEntity
  8
图框
 62
     6
100
AcDbMText
 10
759.5351825993766
 20
228.7527913095152
 30
0.0
 40
0.662944040671226
 41
0.6394784694818025
 46
0.0
 71
     1
 72
     5
  1
D
  7
Romans字体
 11
0.0000000000000001
 21
1.0
 31
0.0
 73
     1
 44
1.0
1001
AcDbBlockRepETag
1070
     1
1071
       25
1005
1315D
1001
ACAD
1000
MTEXTBEGIN
1070
    73
1070
     1
1070
    44
1040
1.0
1070
    74
1070
     0
1000
MTEXTEND
  0
LINE
  5
14081
330
1F
100
AcDbEntity
  8
图框
 62
     6
100
AcDbLine
 10
760.2869956889169
 20
222.5876392786893
 30
0.0
 11
759.4162208961976
 21
222.5876392786893
 31
0.0
1001
AcDbBlockRepETag
1070
     1
1071
       26
1005
1315E
  0
LINE
  5
14082
330
1F
100
AcDbEntity
  8
图框
 62
     6
100
AcDbLine
 10
760.2869956889169
 20
209.7928192937348
 30
0.0
 11
759.4162208961976
 21
209.7928192937348
 31
0.0
1001
AcDbBlockRepETag
1070
     1
1071
       27
1005
1315F
  0
MTEXT
  5
14083
330
1F
100
AcDbEntity
  8
图框
 62
     6
100
AcDbMText
 10
754.0165212532039
 20
184.9736005840663
 30
0.0
 40
0.662944040671226
 41
0.6394784694818025
 46
0.0
 71
     1
 72
     5
  1
6
  7
Romans字体
 73
     1
 44
1.0
1001
AcDbBlockRepETag
1070
     1
1071
       28
1005
13160
1001
ACAD
1000
MTEXTBEGIN
1070
    73
1070
     1
1070
    44
1040
1.0
1070
    74
1070
     0
1000
MTEXTEND
  0
LINE
  5
14084
330
1F
100
AcDbEntity
  8
图框
 62
     6
100
AcDbLine
 10
747.9562365324278
 20
185.0781793238252
 30
0.0
 11
747.9562365324278
 21
184.2031793238242
 31
0.0
1001
AcDbBlockRepETag
1070
     1
1071
       29
1005
13161
  0
MTEXT
  5
14085
330
1F
100
AcDbEntity
  8
图框
 62
     6
100
AcDbMText
 10
741.659244335092
 20
184.9495002860355
 30
0.0
 40
0.662944040671226
 41
0.6394784694818025
 46
0.0
 71
     1
 72
     5
  1
5
  7
Romans字体
 73
     1
 44
1.0
1001
AcDbBlockRepETag
1070
     1
1071
       30
1005
13162
1001
ACAD
1000
MTEXTBEGIN
1070
    73
1070
     1
1070
    44
1040
1.0
1070
    74
1070
     0
1000
MTEXTEND
  0
LINE
  5
14086
330
1F
100
AcDbEntity
  8
图框
 62
     6
100
AcDbLine
 10
735.5724418526939
 20
185.0781793238252
 30
0.0
 11
735.5724418526939
 21
184.2031793238242
 31
0.0
1001
AcDbBlockRepETag
1070
     1
1071
       31
1005
13163
  0
MTEXT
  5
14087
330
1F
100
AcDbEntity
  8
图框
 62
     6
100
AcDbMText
 10
729.2798903874061
 20
184.9616859641846
 30
0.0
 40
0.662944040671226
 41
0.6394784694818025
 46
0.0
 71
     1
 72
     5
  1
4
  7
Romans字体
 73
     1
 44
1.0
1001
AcDbBlockRepETag
1070
     1
1071
       32
1005
13164
1001
ACAD
1000
MTEXTBEGIN
1070
    73
1070
     1
1070
    44
1040
1.0
1070
    74
1070
     0
1000
MTEXTEND
  0
LINE
  5
14088
330
1F
100
AcDbEntity
  8
图框
 62
     6
100
AcDbLine
 10
723.1886471729539
 20
185.0781793238252
 30
0.0
 11
723.1886471729539
 21
184.2031793238242
 31
0.0
1001
AcDbBlockRepETag
1070
     1
1071
       33
1005
13165
  0
MTEXT
  5
14089
330
1F
100
AcDbEntity
  8
图框
 62
     6
100
AcDbMText
 10
716.8916549756155
 20
184.969229016236
 30
0.0
 40
0.662944040671226
 41
0.6394784694818025
 46
0.0
 71
     1
 72
     5
  1
3
  7
Romans字体
 73
     1
 44
1.0
1001
AcDbBlockRepETag
1070
     1
1071
       34
1005
13166
1001
ACAD
1000
MTEXTBEGIN
1070
    73
1070
     1
1070
    44
1040
1.0
1070
    74
1070
     0
1000
MTEXTEND
  0
LINE
  5
1408A
330
1F
100
AcDbEntity
  8
图框
 62
     6
100
AcDbLine
 10
710.8048524932127
 20
185.0781793238252
 30
0.0
 11
710.8048524932127
 21
184.2031793238242
 31
0.0
1001
AcDbBlockRepETag
1070
     1
1071
       35
1005
13167
  0
MTEXT
  5
1408B
330
1F
100
AcDbEntity
  8
图框
 62
     6
100
AcDbMText
 10
704.1904039892661
 20
184.9813682591161
 30
0.0
 40
0.662944040671226
 41
0.6394784694818025
 46
0.0
 71
     1
 72
     5
  1
2
  7
Romans字体
 73
     1
 44
1.0
1001
AcDbBlockRepETag
1070
     1
1071
       36
1005
13168
1001
ACAD
1000
MTEXTBEGIN
1070
    73
1070
     1
1070
    44
1040
1.0
1070
    74
1070
     0
1000
MTEXTEND
  0
LINE
  5
1408C
330
1F
100
AcDbEntity
  8
图框
 62
     6
100
AcDbLine
 10
698.421057813473
 20
185.0781793238252
 30
0.0
 11
698.421057813473
 21
184.2031793238242
 31
0.0
1001
AcDbBlockRepETag
1070
     1
1071
       37
1005
13169
  0
MTEXT
  5
1408D
330
1F
100
AcDbEntity
  8
图框
 62
     6
100
AcDbMText
 10
692.1240656161366
 20
184.9824443824758
 30
0.0
 40
0.662944040671226
 41
0.6394784694818025
 46
0.0
 71
     1
 72
     5
  1
1
  7
Romans字体
 73
     1
 44
1.0
1001
AcDbBlockRepETag
1070
     1
1071
       38
1005
1316A
1001
ACAD
1000
MTEXTBEGIN
1070
    73
1070
     1
1070
    44
1040
1.0
1070
    74
1070
     0
1000
MTEXTEND
  0
LINE
  5
1408E
330
1F
100
AcDbEntity
  8
图框
370
    50
100
AcDbLine
 10
686.8978004778718
 20
185.0781793238252
 30
0.0
 11
759.4162208961976
 21
185.0781793238252
 31
0.0
1001
AcDbBlockRepETag
1070
     1
1071
       39
1005
1316B
  0
LINE
  5
1408F
330
1F
100
AcDbEntity
  8
图框
370
    50
100
AcDbLine
 10
686.912308204991
 20
185.0739541165433
 30
0.0
 11
686.9123082049917
 21
232.8246668869228
 31
0.0
1001
AcDbBlockRepETag
1070
     1
1071
       40
1005
1316C
  0
MTEXT
  5
14090
330
1F
100
AcDbEntity
  8
图框
 62
     6
100
AcDbMText
 10
686.1600746806102
 20
215.9579713245622
 30
0.0
 40
0.662944040671226
 41
0.6394784694818025
 46
0.0
 71
     1
 72
     5
  1
C
  7
Romans字体
 11
0.0000000000000001
 21
1.0
 31
0.0
 73
     1
 44
1.0
1001
AcDbBlockRepETag
1070
     1
1071
       43
1005
1316F
1001
ACAD
1000
MTEXTBEGIN
1070
    73
1070
     1
1070
    44
1040
1.0
1070
    74
1070
     0
1000
MTEXTEND
  0
LINE
  5
14091
330
1F
100
AcDbEntity
  8
图框
 62
     6
100
AcDbLine
 10
686.9123082049911
 20
209.7928192937348
 30
0.0
 11
686.037308204991
 21
209.7928192937348
 31
0.0
1001
AcDbBlockRepETag
1070
     1
1071
       44
1005
13170
  0
MTEXT
  5
14092
330
1F
100
AcDbEntity
  8
0
100
AcDbMText
 10
686.1600746806102
 20
203.1631513396094
 30
0.0
 40
0.662944040671226
 41
0.6394784694818025
 46
0.0
 71
     1
 72
     5
  1
B
  7
Romans字体
 11
0.0000000000000001
 21
1.0
 31
0.0
 73
     1
 44
1.0
1001
AcDbBlockRepETag
1070
     1
1071
       45
1005
13171
1001
ACAD
1000
MTEXTBEGIN
1070
    73
1070
     1
1070
    44
1040
1.0
1070
    74
1070
     0
1000
MTEXTEND
  0
LINE
  5
14093
330
1F
100
AcDbEntity
  8
0
100
AcDbLine
 10
686.912308204991
 20
196.9979993087795
 30
0.0
 11
686.037308204991
 21
196.9979993087795
 31
0.0
1001
AcDbBlockRepETag
1070
     1
1071
       46
1005
13172
  0
MTEXT
  5
14094
330
1F
100
AcDbEntity
  8
0
100
AcDbMText
 10
686.1600746806102
 20
191.2669004026866
 30
0.0
 40
0.662944040671226
 41
0.6394784694818025
 46
0.0
 71
     1
 72
     5
  1
A
  7
Romans字体
 11
0.0000000000000001
 21
1.0
 31
0.0
 73
     1
 44
1.0
1001
AcDbBlockRepETag
1070
     1
1071
       47
1005
13173
1001
ACAD
1000
MTEXTBEGIN
1070
    73
1070
     1
1070
    44
1040
1.0
1070
    74
1070
     0
1000
MTEXTEND
  0
LINE
  5
14095
330
1F
100
AcDbEntity
  8
图框
370
    -3
100
AcDbLine
 10
686.9123082049917
 20
232.8246668869228
 30
0.0
 11
686.9123082049917
 21
235.1950216318514
 31
0.0
1001
AcDbBlockRepETag
1070
     1
1071
       48
1005
13174
  0
LINE
  5
14096
330
1F
100
AcDbEntity
  8
图框
370
    -3
100
AcDbLine
 10
688.3400282805014
 20
232.9531793238252
 30
0.0
 11
688.3400282805014
 21
235.3235340687537
 31
0.0
1001
AcDbBlockRepETag
1070
     1
1071
       49
1005
13175
  0
LINE
  5
14097
330
1F
100
AcDbEntity
  8
图框
370
    -3
100
AcDbLine
 10
689.7677483560112
 20
232.9531793238252
 30
0.0
 11
689.7677483560112
 21
235.3235340687537
 31
0.0
1001
AcDbBlockRepETag
1070
     1
1071
       50
1005
13176
  0
LINE
  5
14098
330
1F
100
AcDbEntity
  8
图框
370
    -3
100
AcDbLine
 10
691.1954684315212
 20
232.9531793238252
 30
0.0
 11
691.1954684315212
 21
235.3235340687537
 31
0.0
1001
AcDbBlockRepETag
1070
     1
1071
       51
1005
13177
  0
LINE
  5
14099
330
1F
100
AcDbEntity
  8
图框
370
    -3
100
AcDbLine
 10
693.0678921070862
 20
232.9531793238252
 30
0.0
 11
693.0678921070862
 21
235.7670359678493
 31
0.0
1001
AcDbBlockRepETag
1070
     1
1071
       52
1005
13178
  0
MTEXT
  5
1409A
330
1F
100
AcDbEntity
  8
图框
 62
     6
100
AcDbMText
 10
754.0165212532039
 20
233.7844667736496
 30
0.0
 40
0.662944040671226
 41
0.6394784694818025
 46
0.0
 71
     1
 72
     5
  1
6
  7
Romans字体
 73
     1
 44
1.0
1001
AcDbBlockRepETag
1070
     1
1071
       53
1005
13179
1001
ACAD
1000
MTEXTBEGIN
1070
    73
1070
     1
1070
    44
1040
1.0
1070
    74
1070
     0
1000
MTEXTEND
  0
LINE
  5
1409B
330
1F
100
AcDbEntity
  8
图框
 62
     6
100
AcDbLine
 10
747.9562365324278
 20
233.8281793238252
 30
0.0
 11
747.9562365324278
 21
232.9531793238252
 31
0.0
1001
AcDbBlockRepETag
1070
     1
1071
       54
1005
1317A
  0
MTEXT
  5
1409C
330
1F
100
AcDbEntity
  8
图框
 62
     6
100
AcDbMText
 10
741.659244335092
 20
233.7844667736496
 30
0.0
 40
0.662944040671226
 41
0.6394784694818025
 46
0.0
 71
     1
 72
     5
  1
5
  7
Romans字体
 73
     1
 44
1.0
1001
AcDbBlockRepETag
1070
     1
1071
       55
1005
1317B
1001
ACAD
1000
MTEXTBEGIN
1070
    73
1070
     1
1070
    44
1040
1.0
1070
    74
1070
     0
1000
MTEXTEND
  0
LINE
  5
1409D
330
1F
100
AcDbEntity
  8
图框
 62
     6
100
AcDbLine
 10
735.5724418526939
 20
233.8281793238252
 30
0.0
 11
735.5724418526939
 21
232.9531793238252
 31
0.0
1001
AcDbBlockRepETag
1070
     1
1071
       56
1005
1317C
  0
MTEXT
  5
1409E
330
1F
100
AcDbEntity
  8
图框
 62
     6
100
AcDbMText
 10
729.2754496553517
 20
233.752289100191
 30
0.0
 40
0.662944040671226
 41
0.6394784694818025
 46
0.0
 71
     1
 72
     5
  1
4
  7
Romans字体
 73
     1
 44
1.0
1001
AcDbBlockRepETag
1070
     1
1071
       57
1005
1317D
1001
ACAD
1000
MTEXTBEGIN
1070
    73
1070
     1
1070
    44
1040
1.0
1070
    74
1070
     0
1000
MTEXTEND
  0
LINE
  5
1409F
330
1F
100
AcDbEntity
  8
图框
 62
     6
100
AcDbLine
 10
723.1886471729539
 20
233.8281793238252
 30
0.0
 11
723.1886471729539
 21
232.9531793238252
 31
0.0
1001
AcDbBlockRepETag
1070
     1
1071
       58
1005
1317E
  0
MTEXT
  5
140A0
330
1F
100
AcDbEntity
  8
图框
 62
     6
100
AcDbMText
 10
716.8916549756155
 20
233.7844667736496
 30
0.0
 40
0.662944040671226
 41
0.6394784694818025
 46
0.0
 71
     1
 72
     5
  1
3
  7
Romans字体
 73
     1
 44
1.0
1001
AcDbBlockRepETag
1070
     1
1071
       59
1005
1317F
1001
ACAD
1000
MTEXTBEGIN
1070
    73
1070
     1
1070
    44
1040
1.0
1070
    74
1070
     0
1000
MTEXTEND
  0
LINE
  5
140A1
330
1F
100
AcDbEntity
  8
图框
 62
     6
100
AcDbLine
 10
710.8048524932127
 20
233.8281793238252
 30
0.0
 11
710.8048524932127
 21
232.9531793238252
 31
0.0
1001
AcDbBlockRepETag
1070
     1
1071
       60
1005
13180
  0
MTEXT
  5
140A2
330
1F
100
AcDbEntity
  8
图框
 62
     6
100
AcDbMText
 10
704.5078602958771
 20
233.7844667736496
 30
0.0
 40
0.662944040671226
 41
0.6394784694818025
 46
0.0
 71
     1
 72
     5
  1
2
  7
Romans字体
 73
     1
 44
1.0
1001
AcDbBlockRepETag
1070
     1
1071
       61
1005
13181
1001
ACAD
1000
MTEXTBEGIN
1070
    73
1070
     1
1070
    44
1040
1.0
1070
    74
1070
     0
1000
MTEXTEND
  0
LINE
  5
140A3
330
1F
100
AcDbEntity
  8
图框
 62
     6
100
AcDbLine
 10
698.421057813473
 20
233.7685478870827
 30
0.0
 11
698.421057813473
 21
232.9531793238252
 31
0.0
1001
AcDbBlockRepETag
1070
     1
1071
       62
1005
13182
  0
MTEXT
  5
140A4
330
1F
100
AcDbEntity
  8
图框
 62
     6
100
AcDbMText
 10
693.3412609847001
 20
233.7844667736496
 30
0.0
 40
0.662944040671226
 41
0.6394784694818025
 46
0.0
 71
     1
 72
     5
  1
1
  7
Romans字体
 73
     1
 44
1.0
1001
AcDbBlockRepETag
1070
     1
1071
       63
1005
13183
1001
ACAD
1000
MTEXTBEGIN
1070
    73
1070
     1
1070
    44
1040
1.0
1070
    74
1070
     0
1000
MTEXTEND
  0
LINE
  5
140A5
330
1F
100
AcDbEntity
  8
图框
370
    -3
100
AcDbLine
 10
686.9123082049917
 20
232.8246668869228
 30
0.0
 11
686.9123082049917
 21
235.7670359678493
 31
0.0
1001
AcDbBlockRepETag
1070
     1
1071
       64
1005
13184
  0
LINE
  5
140A6
330
1F
100
AcDbEntity
  8
图框
370
    50
100
AcDbLine
 10
686.9123082049917
 20
232.9531793238252
 30
0.0
 11
759.4162208961976
 21
232.9531793238252
 31
0.0
1001
AcDbBlockRepETag
1070
     1
1071
       65
1005
13185
  0
LINE
  5
140A7
330
1F
100
AcDbEntity
  8
图框
370
    -3
100
AcDbLine
 10
688.3400282805014
 20
232.9531793238252
 30
0.0
 11
688.3400282805014
 21
235.7670359678493
 31
0.0
1001
AcDbBlockRepETag
1070
     1
1071
       66
1005
13186
  0
LINE
  5
140A8
330
1F
100
AcDbEntity
  8
图框
370
    -3
100
AcDbLine
 10
689.7677483560112
 20
232.9531793238252
 30
0.0
 11
689.7677483560112
 21
235.7670359678493
 31
0.0
1001
AcDbBlockRepETag
1070
     1
1071
       67
1005
13187
  0
MTEXT
  5
140A9
102
{ACAD_XDICTIONARY
360
150C3
102
}
330
1F
100
AcDbEntity
  8
图框
100
AcDbMText
 10
692.131680269304
 20
235.7670359678493
 30
0.0
 40
0.4897496022053496
 41
2.81385664402418
 46
1.872423675564725
 71
     4
 72
     5
  1
\pi0.66615;{\fSimSun|b0|i0|c134|p2;档案员\fFangSong_GB2312|b0|i0|c134|p49;\H0.7x;\P\pi0.35397;\Fromans|c134;Filing Clerk\fFangSong_GB2312|b0|i0|c134|p49; }
 11
-0.0000000000000002
 21
-1.0
 31
0.0
 73
     1
 44
1.0
1001
AcDbBlockRepETag
1070
     1
1071
       68
1005
13188
1001
ACAD
1000
MTEXTBEGIN
1070
    73
1070
     1
1070
    44
1040
1.0
1070
    74
1070
     0
1000
MTEXTEND
1000
ACAD_MTEXT_DEFINED_HEIGHT_BEGIN
1070
    46
1040
1.872423675564725
1000
ACAD_MTEXT_DEFINED_HEIGHT_END
  0
MTEXT
  5
140AA
102
{ACAD_XDICTIONARY
360
150C5
102
}
330
1F
100
AcDbEntity
  8
图框
100
AcDbMText
 10
689.0538883182562
 20
235.7670359678493
 30
0.0
 40
0.4897496022053496
 41
2.81385664402418
 46
1.427720075509917
 71
     4
 72
     5
  1
\pi0.15866;{\fSimSun|b0|i0|c134|p2;日期\Fromans|c134;/Date}
 11
-0.0000000000000002
 21
-1.0
 31
0.0
 73
     1
 44
1.0
1001
AcDbBlockRepETag
1070
     1
1071
       69
1005
13189
1001
ACAD
1000
MTEXTBEGIN
1070
    73
1070
     1
1070
    44
1040
1.0
1070
    74
1070
     0
1000
MTEXTEND
1000
ACAD_MTEXT_DEFINED_HEIGHT_BEGIN
1070
    46
1040
1.427720075509917
1000
ACAD_MTEXT_DEFINED_HEIGHT_END
  0
LINE
  5
140AB
330
1F
100
AcDbEntity
  8
图框
370
    -3
100
AcDbLine
 10
691.1954684315212
 20
232.9531793238252
 30
0.0
 11
691.1954684315212
 21
235.7670359678493
 31
0.0
1001
AcDbBlockRepETag
1070
     1
1071
       70
1005
1318A
  0
LINE
  5
140AC
330
1F
100
AcDbEntity
  8
图框
370
    -3
100
AcDbLine
 10
736.8475871101999
 20
196.9017789099851
 30
0.0
 11
736.8475871101999
 21
185.0726375026163
 31
0.0
1001
AcDbBlockRepETag
1070
     1
1071
       71
1005
1318B
  0
LINE
  5
140AD
330
1F
100
AcDbEntity
  8
图框
370
    -3
100
AcDbLine
 10
739.5549242187975
 20
190.9872079590755
 30
0.0
 11
739.5549242187975
 21
187.04416065847
 31
0.0
1001
AcDbBlockRepETag
1070
     1
1071
       72
1005
1318C
  0
LINE
  5
140AE
330
1F
100
AcDbEntity
  8
图框
370
    -3
100
AcDbLine
 10
742.262261327395
 20
190.9872079590755
 30
0.0
 11
742.262261327395
 21
185.0781793238252
 31
0.0
1001
AcDbBlockRepETag
1070
     1
1071
       73
1005
1318D
  0
LINE
  5
140AF
330
1F
100
AcDbEntity
  8
图框
370
    25
100
AcDbLine
 10
739.8026290472207
 20
186.0968777170354
 30
0.0
 11
741.4207003157216
 21
186.0968777170354
 31
0.0
1001
AcDbBlockRepETag
1070
     1
1071
       74
1005
1318E
  0
LINE
  5
140B0
330
1F
100
AcDbEntity
  8
图框
370
    25
100
AcDbLine
 10
741.2422270851041
 20
185.8385299298531
 30
0.0
 11
739.9732179722339
 21
185.6838938525621
 31
0.0
1001
AcDbBlockRepETag
1070
     1
1071
       75
1005
1318F
  0
LINE
  5
140B1
330
1F
100
AcDbEntity
  8
图框
370
    25
100
AcDbLine
 10
741.2422270851041
 20
186.3552255042175
 30
0.0
 11
739.9732179722339
 21
186.5098615815083
 31
0.0
1001
AcDbBlockRepETag
1070
     1
1071
       76
1005
13190
  0
LINE
  5
140B2
330
1F
100
AcDbEntity
  8
图框
370
    25
100
AcDbLine
 10
739.9732179722339
 20
186.5098615815083
 30
0.0
 11
739.9732179722339
 21
185.6838938525621
 31
0.0
1001
AcDbBlockRepETag
1070
     1
1071
       77
1005
13191
  0
LINE
  5
140B3
330
1F
100
AcDbEntity
  8
图框
370
    25
100
AcDbLine
 10
741.2422270851041
 20
186.3552255042175
 30
0.0
 11
741.2422270851041
 21
185.8385299298531
 31
0.0
1001
AcDbBlockRepETag
1070
     1
1071
       78
1005
13192
  0
CIRCLE
  5
140B4
330
1F
100
AcDbEntity
  8
图框
370
    25
100
AcDbCircle
 10
738.3097703582516
 20
186.0968777170354
 30
0.0
 40
0.412983864472966
1001
AcDbBlockRepETag
1070
     1
1071
       79
1005
13193
  0
CIRCLE
  5
140B5
330
1F
100
AcDbEntity
  8
图框
370
    25
100
AcDbCircle
 10
738.3097703582516
 20
186.0968777170354
 30
0.0
 40
0.2583477871821937
1001
AcDbBlockRepETag
1070
     1
1071
       80
1005
13194
  0
LINE
  5
140B6
330
1F
100
AcDbEntity
  8
图框
370
    25
100
AcDbLine
 10
737.7183132631605
 20
186.0968777170354
 30
0.0
 11
738.9012274533424
 21
186.0968777170354
 31
0.0
1001
AcDbBlockRepETag
1070
     1
1071
       81
1005
13195
  0
LINE
  5
140B7
330
1F
100
AcDbEntity
  8
图框
370
    25
100
AcDbLine
 10
738.3097703582516
 20
186.688334812126
 30
0.0
 11
738.3097703582516
 21
185.5054206219445
 31
0.0
1001
AcDbBlockRepETag
1070
     1
1071
       82
1005
13196
  0
LINE
  5
140B8
330
1F
100
AcDbEntity
  8
图框
370
    -3
100
AcDbLine
 10
744.9695984359932
 20
190.9872079590755
 30
0.0
 11
744.9695984359932
 21
187.04416065847
 31
0.0
1001
AcDbBlockRepETag
1070
     1
1071
       83
1005
13197
  0
MTEXT
  5
140B9
330
1F
100
AcDbEntity
  8
图框
100
AcDbMText
 10
749.3450292213415
 20
195.7696579916049
 30
0.0
 40
0.5387245624258858
 41
3.336187353501431
 46
2.264241836760441
 71
     5
 72
     5
  1
图号{\Ftxt|c134;\P\Fromans|c134;\W0.65;Drawing No.}
 73
     1
 44
1.0
1001
AcDbBlockRepETag
1070
     1
1071
       84
1005
13198
1001
ACAD
1000
MTEXTBEGIN
1070
    73
1070
     1
1070
    44
1040
1.0
1070
    74
1070
     0
1000
MTEXTEND
1000
ACAD_MTEXT_DEFINED_HEIGHT_BEGIN
1070
    46
1040
2.264241836760441
1000
ACAD_MTEXT_DEFINED_HEIGHT_END
  0
LINE
  5
140BA
330
1F
100
AcDbEntity
  8
图框
370
    -3
100
AcDbLine
 10
751.0131228980922
 20
196.9017789099851
 30
0.0
 11
751.0131228980922
 21
188.0299224836209
 31
0.0
1001
AcDbBlockRepETag
1070
     1
1071
       85
1005
13199
  0
LINE
  5
140BB
330
1F
100
AcDbEntity
  8
图框
370
    -3
100
AcDbLine
 10
739.552587686227
 20
196.9017789099851
 30
0.0
 11
739.552587686227
 21
190.9872079590755
 31
0.0
1001
AcDbBlockRepETag
1070
     1
1071
       86
1005
1319A
  0
MTEXT
  5
140BC
330
1F
100
AcDbEntity
  8
图框
100
AcDbMText
 10
743.6159298816942
 20
190.0014461339241
 30
0.0
 40
0.5632120425361517
 41
2.707337108598018
 46
1.971523650303032
 71
     5
 72
     5
  1
重量\P{\Fromans|c134;Weight}
 73
     1
 44
1.0
1001
AcDbBlockRepETag
1070
     1
1071
       87
1005
1319B
1001
ACAD
1000
MTEXTBEGIN
1070
    73
1070
     1
1070
    44
1040
1.0
1070
    74
1070
     0
1000
MTEXTEND
1000
ACAD_MTEXT_DEFINED_HEIGHT_BEGIN
1070
    46
1040
1.971523650303032
1000
ACAD_MTEXT_DEFINED_HEIGHT_END
  0
LINE
  5
140BD
330
1F
100
AcDbEntity
  8
图框
370
    -3
100
AcDbLine
 10
736.8475871101999
 20
193.9444934345309
 30
0.0
 11
747.6769355445907
 21
193.9444934345309
 31
0.0
1001
AcDbBlockRepETag
1070
     1
1071
       88
1005
1319C
  0
MTEXT
  5
140BE
330
1F
100
AcDbEntity
  8
图框
100
AcDbMText
 10
746.323266990292
 20
190.0014461339241
 30
0.0
 40
0.5632120425361517
 41
2.707337108597458
 46
1.971523650303034
 71
     5
 72
     5
  1
数量\P{\Fromans|c134;Qty.}
 73
     1
 44
1.0
1001
AcDbBlockRepETag
1070
     1
1071
       89
1005
1319D
1001
ACAD
1000
MTEXTBEGIN
1070
    73
1070
     1
1070
    44
1040
1.0
1070
    74
1070
     0
1000
MTEXTEND
1000
ACAD_MTEXT_DEFINED_HEIGHT_BEGIN
1070
    46
1040
1.971523650303034
1000
ACAD_MTEXT_DEFINED_HEIGHT_END
  0
LINE
  5
140BF
330
1F
100
AcDbEntity
  8
图框
370
    -3
100
AcDbLine
 10
747.6769355445907
 20
188.0299224836209
 30
0.0
 11
759.4162208961976
 21
188.0299224836208
 31
0.0
1001
AcDbBlockRepETag
1070
     1
1071
       90
1005
1319E
  0
LINE
  5
140C0
330
1F
100
AcDbEntity
  8
图框
370
    -3
100
AcDbLine
 10
747.6769355445907
 20
190.2478118098116
 30
0.0
 11
759.4162208961976
 21
190.2478118098116
 31
0.0
1001
AcDbBlockRepETag
1070
     1
1071
       91
1005
1319F
  0
MTEXT
  5
140C1
330
1F
100
AcDbEntity
  8
图框
100
AcDbMText
 10
740.907424506811
 20
190.0014461339241
 30
0.0
 40
0.5632120425361517
 41
2.709673641167845
 46
1.971523650303024
 71
     5
 72
     5
  1
版本\P{\Fromans|c134;REV.}
 73
     1
 44
1.0
1001
AcDbBlockRepETag
1070
     1
1071
       92
1005
131A0
1001
ACAD
1000
MTEXTBEGIN
1070
    73
1070
     1
1070
    44
1040
1.0
1070
    74
1070
     0
1000
MTEXTEND
1000
ACAD_MTEXT_DEFINED_HEIGHT_BEGIN
1070
    46
1040
1.971523650303024
1000
ACAD_MTEXT_DEFINED_HEIGHT_END
  0
MTEXT
  5
140C2
330
1F
100
AcDbEntity
  8
图框
100
AcDbMText
 10
738.2012556644987
 20
190.0014461339241
 30
0.0
 40
0.5632120425361517
 41
2.7073371085977
 46
1.971523650303034
 71
     5
 72
     5
  1
比例\P{\Fromans|c134;Scale}
 73
     1
 44
1.0
1001
AcDbBlockRepETag
1070
     1
1071
       93
1005
131A1
1001
ACAD
1000
MTEXTBEGIN
1070
    73
1070
     1
1070
    44
1040
1.0
1070
    74
1070
     0
1000
MTEXTEND
1000
ACAD_MTEXT_DEFINED_HEIGHT_BEGIN
1070
    46
1040
1.971523650303034
1000
ACAD_MTEXT_DEFINED_HEIGHT_END
  0
LINE
  5
140C3
330
1F
100
AcDbEntity
  8
图框
370
    -3
100
AcDbLine
 10
736.8475871101999
 20
190.9872079590755
 30
0.0
 11
747.6769355445907
 21
190.9872079590755
 31
0.0
1001
AcDbBlockRepETag
1070
     1
1071
       94
1005
131A2
  0
LINE
  5
140C4
330
1F
100
AcDbEntity
  8
图框
370
    -3
100
AcDbLine
 10
736.8475871101999
 20
187.04416065847
 30
0.0
 11
747.6769355445907
 21
187.04416065847
 31
0.0
1001
AcDbBlockRepETag
1070
     1
1071
       95
1005
131A3
  0
LINE
  5
140C5
330
1F
100
AcDbEntity
  8
图框
370
    -3
100
AcDbLine
 10
747.6769355445907
 20
196.9017789099851
 30
0.0
 11
747.6769355445907
 21
185.0726370081664
 31
0.0
1001
AcDbBlockRepETag
1070
     1
1071
       96
1005
131A4
  0
MTEXT
  5
140C6
330
1F
100
AcDbEntity
  8
图框
100
AcDbMText
 10
738.2000873982132
 20
195.4231361722581
 30
0.0
 40
0.5632120425361517
 41
2.705000576027332
 46
2.957285475454267
 71
     5
 72
     5
  1
表面处理\P{\Fromans|c134;Finish}
 73
     1
 44
1.0
1001
AcDbBlockRepETag
1070
     1
1071
       97
1005
131A5
1001
ACAD
1000
MTEXTBEGIN
1070
    73
1070
     1
1070
    44
1040
1.0
1070
    74
1070
     0
1000
MTEXTEND
1000
ACAD_MTEXT_DEFINED_HEIGHT_BEGIN
1070
    46
1040
2.957285475454267
1000
ACAD_MTEXT_DEFINED_HEIGHT_END
  0
MTEXT
  5
140C7
330
1F
100
AcDbEntity
  8
图框
100
AcDbMText
 10
738.2000873982132
 20
192.4658506968031
 30
0.0
 40
0.5632120425361517
 41
2.705000576027332
 46
2.957285475455296
 71
     5
 72
     5
  1
材料\P{\Fromans|c134;Material}
 73
     1
 44
1.0
1001
AcDbBlockRepETag
1070
     1
1071
       98
1005
131A6
1001
ACAD
1000
MTEXTBEGIN
1070
    73
1070
     1
1070
    44
1040
1.0
1070
    74
1070
     0
1000
MTEXTEND
1000
ACAD_MTEXT_DEFINED_HEIGHT_BEGIN
1070
    46
1040
2.957285475455296
1000
ACAD_MTEXT_DEFINED_HEIGHT_END
  0
LINE
  5
140C8
330
1F
100
AcDbEntity
  8
图框
370
    -3
100
AcDbLine
 10
747.6769355445907
 20
194.6375370732248
 30
0.0
 11
759.4162208961976
 21
194.6375370732248
 31
0.0
1001
AcDbBlockRepETag
1070
     1
1071
       99
1005
131A7
  0
LINE
  5
140C9
330
1F
100
AcDbEntity
  8
图框
370
    -3
100
AcDbLine
 10
747.6769355445907
 20
192.4658506968033
 30
0.0
 11
759.4162208961976
 21
192.4658506968031
 31
0.0
1001
AcDbBlockRepETag
1070
     1
1071
      100
1005
131A8
  0
MTEXT
  5
140CA
330
1F
100
AcDbEntity
  8
图框
100
AcDbMText
 10
749.3450292213415
 20
193.5516938850141
 30
0.0
 40
0.4897496022053496
 41
3.336187353501431
 46
2.171686376421452
 71
     5
 72
     5
  1
产品代号\P{\Fromans|c134;Part Code}
 73
     1
 44
1.0
1001
AcDbBlockRepETag
1070
     1
1071
      101
1005
131A9
1001
ACAD
1000
MTEXTBEGIN
1070
    73
1070
     1
1070
    44
1040
1.0
1070
    74
1070
     0
1000
MTEXTEND
1000
ACAD_MTEXT_DEFINED_HEIGHT_BEGIN
1070
    46
1040
2.171686376421452
1000
ACAD_MTEXT_DEFINED_HEIGHT_END
  0
LINE
  5
140CB
330
1F
100
AcDbEntity
  8
图框
370
    -3
100
AcDbLine
 10
714.4162208961978
 20
195.5190436070726
 30
0.0
 11
736.8475871101999
 21
195.5190436070726
 31
0.0
1001
AcDbBlockRepETag
1070
     1
1071
      102
1005
131AA
  0
LINE
  5
140CC
330
1F
100
AcDbEntity
  8
图框
370
    -3
100
AcDbLine
 10
714.4162208961978
 20
194.1363083041613
 30
0.0
 11
736.8475871101999
 21
194.1363083041613
 31
0.0
1001
AcDbBlockRepETag
1070
     1
1071
      103
1005
131AB
  0
LINE
  5
140CD
330
1F
100
AcDbEntity
  8
图框
370
    35
100
AcDbLine
 10
714.4162208961978
 20
196.9017789099851
 30
0.0
 11
759.4162208961976
 21
196.9017789099851
 31
0.0
1001
AcDbBlockRepETag
1070
     1
1071
      104
1005
131AC
  0
LINE
  5
140CE
330
1F
100
AcDbEntity
  8
图框
370
    -3
100
AcDbLine
 10
725.3522855650301
 20
191.3708376983361
 30
0.0
 11
725.3522855650301
 21
185.0781793238252
 31
0.0
1001
AcDbBlockRepETag
1070
     1
1071
      105
1005
131AD
  0
MTEXT
  5
140CF
102
{ACAD_XDICTIONARY
360
150C7
102
}
330
1F
100
AcDbEntity
  8
图框
100
AcDbMText
 10
726.9747994848875
 20
189.0236345034676
 30
0.0
 40
0.5632120425361517
 41
3.245027839715126
 46
1.548077202481186
 71
     5
 72
     5
  1
{\fSimSun|b0|i0|c134|p2;标准化}\PStand.
  7
Romans字体
 73
     1
 44
1.0
1001
AcDbBlockRepETag
1070
     1
1071
      106
1005
131AE
1001
ACAD
1000
MTEXTBEGIN
1070
    73
1070
     1
1070
    44
1040
1.0
1070
    74
1070
     0
1000
MTEXTEND
1000
ACAD_MTEXT_DEFINED_HEIGHT_BEGIN
1070
    46
1040
1.548077202481186
1000
ACAD_MTEXT_DEFINED_HEIGHT_END
  0
LINE
  5
140D0
330
1F
100
AcDbEntity
  8
图框
370
    -3
100
AcDbLine
 10
721.5366895888072
 20
191.3708376983361
 30
0.0
 11
721.5366895888072
 21
185.0781793238252
 31
0.0
1001
AcDbBlockRepETag
1070
     1
1071
      107
1005
131AF
  0
MTEXT
  5
140D1
330
1F
100
AcDbEntity
  8
图框
100
AcDbMText
 10
723.8113259886582
 20
192.0622053497923
 30
0.0
 40
0.612187002756688
 41
9.57197483217325
 46
1.382735302912208
 71
     5
 72
     5
  1
  变更描述{\Fromans|c134;/Description}
 73
     1
 44
1.0
1001
AcDbBlockRepETag
1070
     1
1071
      108
1005
131B0
1001
ACAD
1000
MTEXTBEGIN
1070
    73
1070
     1
1070
    44
1040
1.0
1070
    74
1070
     0
1000
MTEXTEND
1000
ACAD_MTEXT_DEFINED_HEIGHT_BEGIN
1070
    46
1040
1.382735302912208
1000
ACAD_MTEXT_DEFINED_HEIGHT_END
  0
MTEXT
  5
140D2
102
{ACAD_XDICTIONARY
360
150C9
102
}
330
1F
100
AcDbEntity
  8
图框
100
AcDbMText
 10
730.8006167559135
 20
192.0622053497923
 30
0.0
 40
0.4897496022053496
 41
4.406606702336723
 46
1.382735302912206
 71
     5
 72
     5
  1
{\fSimSun|b0|i0|c134|p2;签名\P\Fromans|c134;Signature} 
 73
     1
 44
1.0
1001
AcDbBlockRepETag
1070
     1
1071
      109
1005
131B1
1001
ACAD
1000
MTEXTBEGIN
1070
    73
1070
     1
1070
    44
1040
1.0
1070
    74
1070
     0
1000
MTEXTEND
1000
ACAD_MTEXT_DEFINED_HEIGHT_BEGIN
1070
    46
1040
1.382735302912206
1000
ACAD_MTEXT_DEFINED_HEIGHT_END
  0
MTEXT
  5
140D3
102
{ACAD_XDICTIONARY
360
150CB
102
}
330
1F
100
AcDbEntity
  8
图框
100
AcDbMText
 10
717.8730591534779
 20
192.0622053497923
 30
0.0
 40
0.4897496022053496
 41
2.30455883818732
 46
1.38273530291221
 71
     5
 72
     5
  1
{\fSimSun|b0|i0|c134|p2;处数\P\Fromans|c134;Number }
 73
     1
 44
1.0
1001
AcDbBlockRepETag
1070
     1
1071
      110
1005
131B2
1001
ACAD
1000
MTEXTBEGIN
1070
    73
1070
     1
1070
    44
1040
1.0
1070
    74
1070
     0
1000
MTEXTEND
1000
ACAD_MTEXT_DEFINED_HEIGHT_BEGIN
1070
    46
1040
1.38273530291221
1000
ACAD_MTEXT_DEFINED_HEIGHT_END
  0
LINE
  5
140D4
330
1F
100
AcDbEntity
  8
图框
370
    -3
100
AcDbLine
 10
714.4162208961978
 20
192.7535730012485
 30
0.0
 11
736.8475871101999
 21
192.7535730012485
 31
0.0
1001
AcDbBlockRepETag
1070
     1
1071
      111
1005
131B3
  0
LINE
  5
140D5
330
1F
100
AcDbEntity
  8
图框
370
    -3
100
AcDbLine
 10
714.4162208961978
 20
191.3708376983361
 30
0.0
 11
736.8475871101999
 21
191.3708376983361
 31
0.0
1001
AcDbBlockRepETag
1070
     1
1071
      112
1005
131B4
  0
LINE
  5
140D6
330
1F
100
AcDbEntity
  8
图框
370
    -3
100
AcDbLine
 10
714.4162208961978
 20
189.7976731047084
 30
0.0
 11
736.8475871101999
 21
189.7976731047084
 31
0.0
1001
AcDbBlockRepETag
1070
     1
1071
      113
1005
131B5
  0
LINE
  5
140D7
330
1F
100
AcDbEntity
  8
图框
370
    -3
100
AcDbLine
 10
714.4162208961978
 20
188.2245085110805
 30
0.0
 11
736.8475871101999
 21
188.2245085110805
 31
0.0
1001
AcDbBlockRepETag
1070
     1
1071
      114
1005
131B6
  0
LINE
  5
140D8
330
1F
100
AcDbEntity
  8
图框
370
    35
380
     1
100
AcDbLine
 10
714.4162208961978
 20
196.9017789099851
 30
0.0
 11
714.4162208961978
 21
185.0781793238252
 31
0.0
1001
AcDbBlockRepETag
1070
     1
1071
      115
1005
131B7
  0
LINE
  5
140D9
330
1F
100
AcDbEntity
  8
图框
370
    -3
100
AcDbLine
 10
733.0095044469564
 20
196.9017789099851
 30
0.0
 11
733.0095044469564
 21
185.0781793238252
 31
0.0
1001
AcDbBlockRepETag
1070
     1
1071
      116
1005
131B8
  0
LINE
  5
140DA
330
1F
100
AcDbEntity
  8
图框
370
    -3
100
AcDbLine
 10
728.5973134047451
 20
196.9017789099851
 30
0.0
 11
728.5973134047451
 21
185.0781793238252
 31
0.0
1001
AcDbBlockRepETag
1070
     1
1071
      117
1005
131B9
  0
LINE
  5
140DB
330
1F
100
AcDbEntity
  8
图框
370
    -3
100
AcDbLine
 10
719.025338572572
 20
196.9017789099851
 30
0.0
 11
719.025338572572
 21
191.3708376983361
 31
0.0
1001
AcDbBlockRepETag
1070
     1
1071
      118
1005
131BA
  0
LINE
  5
140DC
330
1F
100
AcDbEntity
  8
图框
370
    -3
100
AcDbLine
 10
716.7207797343843
 20
196.9017789099851
 30
0.0
 11
716.7207797343843
 21
191.3708376983361
 31
0.0
1001
AcDbBlockRepETag
1070
     1
1071
      119
1005
131BB
  0
MTEXT
  5
140DD
102
{ACAD_XDICTIONARY
360
150CD
102
}
330
1F
100
AcDbEntity
  8
图框
100
AcDbMText
 10
715.568500315291
 20
192.0622053497923
 30
0.0
 40
0.4897496022053496
 41
2.304558838186923
 46
1.382735302912208
 71
     5
 72
     5
  1
{\fSimSun|b0|i0|c134|p2;标记\P\Fromans|c134;Mark}
 73
     1
 44
1.0
1001
AcDbBlockRepETag
1070
     1
1071
      120
1005
131BC
1001
ACAD
1000
MTEXTBEGIN
1070
    73
1070
     1
1070
    44
1040
1.0
1070
    74
1070
     0
1000
MTEXTEND
1000
ACAD_MTEXT_DEFINED_HEIGHT_BEGIN
1070
    46
1040
1.382735302912208
1000
ACAD_MTEXT_DEFINED_HEIGHT_END
  0
MTEXT
  5
140DE
102
{ACAD_XDICTIONARY
360
150CF
102
}
330
1F
100
AcDbEntity
  8
图框
100
AcDbMText
 10
716.0387348160551
 20
187.4379262142667
 30
0.0
 40
0.5632120425361517
 41
3.2450278397151
 46
1.573164593627595
 71
     5
 72
     5
  1
{\fSimSun|b0|i0|c134|p2;审核\P\Fromans|c134;Checked}
 73
     1
 44
1.0
1001
AcDbBlockRepETag
1070
     1
1071
      121
1005
131BD
1001
ACAD
1000
MTEXTBEGIN
1070
    73
1070
     1
1070
    44
1040
1.0
1070
    74
1070
     0
1000
MTEXTEND
1000
ACAD_MTEXT_DEFINED_HEIGHT_BEGIN
1070
    46
1040
1.573164593627595
1000
ACAD_MTEXT_DEFINED_HEIGHT_END
  0
MTEXT
  5
140DF
102
{ACAD_XDICTIONARY
360
150D1
102
}
330
1F
100
AcDbEntity
  8
图框
100
AcDbMText
 10
716.0387348160551
 20
189.0388778932066
 30
0.0
 40
0.5632120425361517
 41
3.2450278397151
 46
1.517590423003543
 71
     5
 72
     5
  1
{\fSimSun|b0|i0|c134|p2;绘图\P\Fromans|c134;Drawn\Ftxt|c134; }
 73
     1
 44
1.0
1001
AcDbBlockRepETag
1070
     1
1071
      122
1005
131BE
1001
ACAD
1000
MTEXTBEGIN
1070
    73
1070
     1
1070
    44
1040
1.0
1070
    74
1070
     0
1000
MTEXTEND
1000
ACAD_MTEXT_DEFINED_HEIGHT_BEGIN
1070
    46
1040
1.517590423003543
1000
ACAD_MTEXT_DEFINED_HEIGHT_END
  0
ARC
  5
140E0
330
1F
100
AcDbEntity
  8
图框
 62
     4
370
    35
100
AcDbCircle
 10
749.4092519979617
 20
186.5739856125671
 30
0.0
 40
1.015827602098416
100
AcDbArc
 50
18.95237904564497
 51
161.047620954355
1001
AcDbBlockRepETag
1070
     1
1071
      123
1005
131BF
  0
ARC
  5
140E1
330
1F
100
AcDbEntity
  8
图框
 62
     4
370
    35
100
AcDbCircle
 10
749.4092519979617
 20
186.5739856125671
 30
0.0
 40
1.015827602098416
100
AcDbArc
 50
198.952379045645
 51
341.047620954355
1001
AcDbBlockRepETag
1070
     1
1071
      124
1005
131C0
  0
LINE
  5
140E2
330
1F
100
AcDbEntity
  8
图框
 62
     4
370
    35
100
AcDbLine
 10
748.4484935859938
 20
186.244062907956
 30
0.0
 11
750.3700104099293
 21
186.244062907956
 31
0.0
1001
AcDbBlockRepETag
1070
     1
1071
      125
1005
131C1
  0
LINE
  5
140E3
330
1F
100
AcDbEntity
  8
图框
 62
     4
370
    35
100
AcDbLine
 10
748.4484935859938
 20
186.9039083171785
 30
0.0
 11
750.3700104099293
 21
186.9039083171785
 31
0.0
1001
AcDbBlockRepETag
1070
     1
1071
      126
1005
131C2
  0
MTEXT
  5
140E4
330
1F
100
AcDbEntity
  8
图框
 62
     1
370
    20
100
AcDbMText
 10
748.4427409635243
 20
186.8321442108294
 30
0.0
 40
0.5014825110095835
 41
1.261810004833709
 46
0.0
 71
     1
 72
     5
  1
{\fArial|b0|i0|c0|p34;W}
  7
Chinese
 73
     1
 44
1.0
1001
AcDbBlockRepETag
1070
     1
1071
      127
1005
131C3
1001
ACAD
1000
MTEXTBEGIN
1070
    73
1070
     1
1070
    44
1040
1.0
1070
    74
1070
     0
1000
MTEXTEND
  0
LINE
  5
140E5
330
1F
100
AcDbEntity
  8
图框
370
    -3
100
AcDbLine
 10
714.4162208961978
 20
186.651343917453
 30
0.0
 11
736.8475871101999
 21
186.651343917453
 31
0.0
1001
AcDbBlockRepETag
1070
     1
1071
      128
1005
131C4
  0
LINE
  5
140E6
330
1F
100
AcDbEntity
  8
图框
370
    -3
100
AcDbLine
 10
717.6612487359127
 20
191.3708376983361
 30
0.0
 11
717.6612487359127
 21
185.0781793238252
 31
0.0
1001
AcDbBlockRepETag
1070
     1
1071
      129
1005
131C5
  0
MTEXT
  5
140E7
330
1F
100
AcDbEntity
  8
图框
100
AcDbMText
 10
719.5989691623601
 20
190.5842554015223
 30
0.0
 40
0.5632120425361517
 41
3.875440852894671
 46
1.573164593627811
 71
     5
 72
     5
  1
姓名{\Fromans|c134;/Name\Ftxt|c134; }
 73
     1
 44
1.0
1001
AcDbBlockRepETag
1070
     1
1071
      130
1005
131C6
1001
ACAD
1000
MTEXTBEGIN
1070
    73
1070
     1
1070
    44
1040
1.0
1070
    74
1070
     0
1000
MTEXTEND
1000
ACAD_MTEXT_DEFINED_HEIGHT_BEGIN
1070
    46
1040
1.573164593627811
1000
ACAD_MTEXT_DEFINED_HEIGHT_END
  0
MTEXT
  5
140E8
330
1F
100
AcDbEntity
  8
图框
100
AcDbMText
 10
723.4444875769188
 20
190.5842554015223
 30
0.0
 40
0.5632120425361517
 41
3.815595976222605
 46
1.5731645936278
 71
     5
 72
     5
  1
日期{\Fromans|c134;/Date}
 73
     1
 44
1.0
1001
AcDbBlockRepETag
1070
     1
1071
      131
1005
131C7
1001
ACAD
1000
MTEXTBEGIN
1070
    73
1070
     1
1070
    44
1040
1.0
1070
    74
1070
     0
1000
MTEXTEND
1000
ACAD_MTEXT_DEFINED_HEIGHT_BEGIN
1070
    46
1040
1.5731645936278
1000
ACAD_MTEXT_DEFINED_HEIGHT_END
  0
LINE
  5
140E9
330
1F
100
AcDbEntity
  8
图框
370
    -3
100
AcDbLine
 10
714.4162208961978
 20
191.3708376983361
 30
0.0
 11
717.6612487359127
 21
189.7976731047084
 31
0.0
1001
AcDbBlockRepETag
1070
     1
1071
      132
1005
131C8
  0
MTEXT
  5
140EA
330
1F
100
AcDbEntity
  8
图框
100
AcDbMText
 10
730.9169465211282
 20
190.5741299048054
 30
0.0
 40
0.5632120425361517
 41
4.233730552658911
 46
0.0
 71
     5
 72
     5
  1
姓名{\Fromans|c134;/Name}
 73
     1
 44
1.0
1001
AcDbBlockRepETag
1070
     1
1071
      133
1005
131C9
1001
ACAD
1000
MTEXTBEGIN
1070
    73
1070
     1
1070
    44
1040
1.0
1070
    74
1070
     0
1000
MTEXTEND
  0
MTEXT
  5
140EB
330
1F
100
AcDbEntity
  8
图框
100
AcDbMText
 10
734.9285457785781
 20
190.5842554015223
 30
0.0
 40
0.5632120425361517
 41
3.838082663243206
 46
1.573164593627813
 71
     5
 72
     5
  1
日期{\Fromans|c134;/Date}
 73
     1
 44
1.0
1001
AcDbBlockRepETag
1070
     1
1071
      134
1005
131CA
1001
ACAD
1000
MTEXTBEGIN
1070
    73
1070
     1
1070
    44
1040
1.0
1070
    74
1070
     0
1000
MTEXTEND
1000
ACAD_MTEXT_DEFINED_HEIGHT_BEGIN
1070
    46
1040
1.573164593627813
1000
ACAD_MTEXT_DEFINED_HEIGHT_END
  0
LINE
  5
140EC
330
1F
100
AcDbEntity
  8
图框
370
    -3
100
AcDbLine
 10
728.5973134047451
 20
189.7976731047084
 30
0.0
 11
725.3522855650301
 21
191.3708376983361
 31
0.0
1001
AcDbBlockRepETag
1070
     1
1071
      135
1005
131CB
  0
MTEXT
  5
140ED
102
{ACAD_XDICTIONARY
360
150D3
102
}
330
1F
100
AcDbEntity
  8
图框
100
AcDbMText
 10
726.9747994848875
 20
185.864761620639
 30
0.0
 40
0.5632120425361517
 41
3.245027839715126
 46
1.573164593627879
 71
     5
 72
     5
  1
{\fSimSun|b0|i0|c134|p2;批准\P\Fromans|c134;Approved}
 73
     1
 44
1.0
1001
AcDbBlockRepETag
1070
     1
1071
      136
1005
131CC
1001
ACAD
1000
MTEXTBEGIN
1070
    73
1070
     1
1070
    44
1040
1.0
1070
    74
1070
     0
1000
MTEXTEND
1000
ACAD_MTEXT_DEFINED_HEIGHT_BEGIN
1070
    46
1040
1.573164593627879
1000
ACAD_MTEXT_DEFINED_HEIGHT_END
  0
MTEXT
  5
140EE
102
{ACAD_XDICTIONARY
360
150D5
102
}
330
1F
100
AcDbEntity
  8
图框
100
AcDbMText
 10
716.0387348160551
 20
185.864761620639
 30
0.0
 40
0.5632120425361517
 41
3.2450278397151
 46
1.573164593627873
 71
     5
 72
     5
  1
{\fSimSun|b0|i0|c134|p2;工艺\P\Fromans|c134;Process}
 73
     1
 44
1.0
1001
AcDbBlockRepETag
1070
     1
1071
      137
1005
131CD
1001
ACAD
1000
MTEXTBEGIN
1070
    73
1070
     1
1070
    44
1040
1.0
1070
    74
1070
     0
1000
MTEXTEND
1000
ACAD_MTEXT_DEFINED_HEIGHT_BEGIN
1070
    46
1040
1.573164593627873
1000
ACAD_MTEXT_DEFINED_HEIGHT_END
  0
MTEXT
  5
140EF
102
{ACAD_XDICTIONARY
360
150D7
102
}
330
1F
100
AcDbEntity
  8
图框
100
AcDbMText
 10
734.9285457785781
 20
192.0266861414789
 30
0.0
 40
0.4897496022053496
 41
3.838082663243199
 46
1.311696886285167
 71
     5
 72
     5
  1
{\fSimSun|b0|i0|c134|p2;日期\P\Fromans|c134;Date}
 73
     1
 44
1.0
1001
AcDbBlockRepETag
1070
     1
1071
      138
1005
131CE
1001
ACAD
1000
MTEXTBEGIN
1070
    73
1070
     1
1070
    44
1040
1.0
1070
    74
1070
     0
1000
MTEXTEND
1000
ACAD_MTEXT_DEFINED_HEIGHT_BEGIN
1070
    46
1040
1.311696886285167
1000
ACAD_MTEXT_DEFINED_HEIGHT_END
  0
MTEXT
  5
140F0
330
1F
100
AcDbEntity
  8
图框
100
AcDbMText
 10
749.3450292213415
 20
191.3568312533075
 30
0.0
 40
0.5387245624258858
 41
3.336187353501431
 46
2.218038886991537
 71
     5
 72
     5
  1
产品料号\P{\Fromans|c134;Part No.}
 73
     1
 44
1.0
1001
AcDbBlockRepETag
1070
     1
1071
      139
1005
131CF
1001
ACAD
1000
MTEXTBEGIN
1070
    73
1070
     1
1070
    44
1040
1.0
1070
    74
1070
     0
1000
MTEXTEND
1000
ACAD_MTEXT_DEFINED_HEIGHT_BEGIN
1070
    46
1040
2.218038886991537
1000
ACAD_MTEXT_DEFINED_HEIGHT_END
  0
MTEXT
  5
140F1
330
1F
100
AcDbEntity
  8
图框
100
AcDbMText
 10
749.3450292213415
 20
189.1388671467163
 30
0.0
 40
0.4897496022053496
 41
3.336187353501431
 46
2.217889326190829
 71
     5
 72
     5
  1
产品名称\P{\Fromans|c134;Part Name}
 73
     1
 44
1.0
1001
AcDbBlockRepETag
1070
     1
1071
      140
1005
131D0
1001
ACAD
1000
MTEXTBEGIN
1070
    73
1070
     1
1070
    44
1040
1.0
1070
    74
1070
     0
1000
MTEXTEND
1000
ACAD_MTEXT_DEFINED_HEIGHT_BEGIN
1070
    46
1040
2.217889326190829
1000
ACAD_MTEXT_DEFINED_HEIGHT_END
  0
LINE
  5
140F2
330
1F
100
AcDbEntity
  8
图框
 62
     1
370
    18
100
AcDbLine
 10
686.037308204991
 20
236.7031793238252
 30
0.0
 11
686.037308204991
 21
184.2031793238252
 31
0.0
1001
AcDbBlockRepETag
1070
     1
1071
      141
1005
131D1
  0
LINE
  5
140F3
330
1F
100
AcDbEntity
  8
图框
 62
     1
370
    18
100
AcDbLine
 10
686.037308204991
 20
184.2031793238252
 30
0.0
 11
760.2869956889157
 21
184.2031793238252
 31
0.0
1001
AcDbBlockRepETag
1070
     1
1071
      142
1005
131D2
  0
LINE
  5
140F4
330
1F
100
AcDbEntity
  8
图框
 62
     1
370
    18
100
AcDbLine
 10
686.037308204991
 20
236.7031793238252
 30
0.0
 11
760.2869956889157
 21
236.7031793238252
 31
0.0
1001
AcDbBlockRepETag
1070
     1
1071
      143
1005
131D3
  0
LINE
  5
140F5
330
1F
100
AcDbEntity
  8
图框
 62
     1
370
    18
100
AcDbLine
 10
760.2869956889157
 20
184.2031793238252
 30
0.0
 11
760.2869956889157
 21
236.7031793238252
 31
0.0
1001
AcDbBlockRepETag
1070
     1
1071
      144
1005
131D4
  0
LINE
  5
140F6
330
1F
100
AcDbEntity
  8
图框
370
    18
100
AcDbLine
 10
686.9123082049917
 20
235.7670359678493
 30
0.0
 11
693.0678921070862
 21
235.7670359678493
 31
0.0
1001
AcDbBlockRepETag
1070
     1
1071
      145
1005
131D5
  0
LINE
  5
140F7
330
1F
100
AcDbEntity
  8
图框
370
    50
100
AcDbLine
 10
759.4162208961976
 20
185.1547383761142
 30
0.0
 11
759.4162208961976
 21
232.9531793238252
 31
0.0
1001
AcDbBlockRepETag
1070
     1
1071
      146
1005
131D6
  0
MTEXT
  5
140F8
330
1F
100
AcDbEntity
  8
图框
 62
     3
100
AcDbMText
 10
740.9085927730963
 20
188.0299224836214
 30
0.0
 40
0.7463783937585367
 41
2.707337108597783
 46
1.971523650302825
 71
     5
 72
     5
  1
V1.2
  7
Romans字体
 73
     1
 44
1.0
1001
AcDbBlockRepETag
1070
     1
1071
      147
1005
131D7
1001
ACAD
1000
MTEXTBEGIN
1070
    73
1070
     1
1070
    44
1040
1.0
1070
    74
1070
     0
1000
MTEXTEND
1000
ACAD_MTEXT_DEFINED_HEIGHT_BEGIN
1070
    46
1040
1.971523650302825
1000
ACAD_MTEXT_DEFINED_HEIGHT_END
  0
LINE
  5
140F9
330
1F
100
AcDbEntity
  8
图框
370
    -3
100
AcDbLine
 10
697.5343158305818
 20
231.6010372084275
 30
0.0
 11
708.3035430019657
 21
231.6010372084275
 31
0.0
  0
LINE
  5
140FA
330
1F
100
AcDbEntity
  8
图框
370
    -3
100
AcDbLine
 10
686.9123082049914
 20
230.2488150216122
 30
0.0
 11
718.9980531987116
 21
230.248815021613
 31
0.0
  0
LINE
  5
140FB
330
1F
100
AcDbEntity
  8
图框
370
    -3
100
AcDbLine
 10
686.9123082049914
 20
228.8965928347962
 30
0.0
 11
718.9980531987116
 21
228.8965928347962
 31
0.0
  0
MTEXT
  5
140FC
330
1F
100
AcDbEntity
  8
图框
100
AcDbMText
 10
704.8738191118484
 20
232.27714830187
 30
0.0
 40
0.6000023545570477
 41
6.859684067146692
 46
1.352222186885061
 71
     5
 72
     5
  1
{\f仿宋_GB2312|b0|i0|c134|p49;\C4;线径\Fromans|c134;/Wire Gauge}
  7
Romans字体
 73
     1
 44
1.0
1001
ACAD
1000
MTEXTBEGIN
1070
    73
1070
     1
1070
    44
1040
1.0
1070
    74
1070
     0
1000
MTEXTEND
1000
ACAD_MTEXT_DEFINED_HEIGHT_BEGIN
1070
    46
1040
1.352222186885061
1000
ACAD_MTEXT_DEFINED_HEIGHT_END
  0
LINE
  5
140FD
330
1F
100
AcDbEntity
  8
图框
370
    -3
100
AcDbLine
 10
686.9123082049914
 20
227.5443706479811
 30
0.0
 11
718.9980531987116
 21
227.5443706479809
 31
0.0
  0
MTEXT
  5
140FE
330
1F
100
AcDbEntity
  8
图框
100
AcDbMText
 10
706.8285906629669
 20
230.9248910810608
 30
0.0
 40
0.6000023545570477
 41
2.949904677997924
 46
1.352152118895874
 71
     5
 72
     5
  1
{\C4;AWG}
  7
Romans字体
 73
     1
 44
1.0
1001
ACAD
1000
MTEXTBEGIN
1070
    73
1070
     1
1070
    44
1040
1.0
1070
    74
1070
     0
1000
MTEXTEND
1000
ACAD_MTEXT_DEFINED_HEIGHT_BEGIN
1070
    46
1040
1.352152118895874
1000
ACAD_MTEXT_DEFINED_HEIGHT_END
  0
MTEXT
  5
140FF
330
1F
100
AcDbEntity
  8
图框
100
AcDbMText
 10
703.3988077007883
 20
230.9249261150201
 30
0.0
 40
0.6000023545570477
 41
3.909661246359366
 46
1.352222186814757
 71
     5
 72
     5
  1
\A1;{\C4;mm\H0.7x;\S2^  ;}
  7
Romans字体
 73
     1
 44
1.0
1001
ACAD
1000
MTEXTBEGIN
1070
    73
1070
     1
1070
    44
1040
1.0
1070
    74
1070
     0
1000
MTEXTEND
1000
ACAD_MTEXT_DEFINED_HEIGHT_BEGIN
1070
    46
1040
1.352222186814757
1000
ACAD_MTEXT_DEFINED_HEIGHT_END
  0
MTEXT
  5
14100
330
1F
100
AcDbEntity
  8
图框
100
AcDbMText
 10
703.3988077011218
 20
229.5727039282043
 30
0.0
 40
0.6000023545570477
 41
3.909661247026225
 46
1.3522221868165
 71
     5
 72
     5
  1
{\C4;0.14-0.37}
  7
Romans字体
 73
     1
 44
1.0
1001
ACAD
1000
MTEXTBEGIN
1070
    73
1070
     1
1070
    44
1040
1.0
1070
    74
1070
     0
1000
MTEXTEND
1000
ACAD_MTEXT_DEFINED_HEIGHT_BEGIN
1070
    46
1040
1.3522221868165
1000
ACAD_MTEXT_DEFINED_HEIGHT_END
  0
MTEXT
  5
14101
330
1F
100
AcDbEntity
  8
图框
100
AcDbMText
 10
703.3988077011218
 20
228.2204817413886
 30
0.0
 40
0.6000023545570477
 41
3.909661247026225
 46
1.352222186815229
 71
     5
 72
     5
  1
{\C4;0.5}
  7
Romans字体
 73
     1
 44
1.0
1001
ACAD
1000
MTEXTBEGIN
1070
    73
1070
     1
1070
    44
1040
1.0
1070
    74
1070
     0
1000
MTEXTEND
1000
ACAD_MTEXT_DEFINED_HEIGHT_BEGIN
1070
    46
1040
1.352222186815229
1000
ACAD_MTEXT_DEFINED_HEIGHT_END
  0
MTEXT
  5
14102
330
1F
100
AcDbEntity
  8
图框
100
AcDbMText
 10
706.8285906633003
 20
229.5727039282045
 30
0.0
 40
0.6000023545570477
 41
2.949904678664852
 46
1.352222186816635
 71
     5
 72
     5
  1
{\C4;26-22}
  7
Romans字体
 73
     1
 44
1.0
1001
ACAD
1000
MTEXTBEGIN
1070
    73
1070
     1
1070
    44
1040
1.0
1070
    74
1070
     0
1000
MTEXTEND
1000
ACAD_MTEXT_DEFINED_HEIGHT_BEGIN
1070
    46
1040
1.352222186816635
1000
ACAD_MTEXT_DEFINED_HEIGHT_END
  0
MTEXT
  5
14103
330
1F
100
AcDbEntity
  8
图框
100
AcDbMText
 10
706.8285906636337
 20
228.2204817413886
 30
0.0
 40
0.6000023545570477
 41
2.949904677998123
 46
1.352222186815164
 71
     5
 72
     5
  1
{\C4;20}
  7
Romans字体
 73
     1
 44
1.0
1001
ACAD
1000
MTEXTBEGIN
1070
    73
1070
     1
1070
    44
1040
1.0
1070
    74
1070
     0
1000
MTEXTEND
1000
ACAD_MTEXT_DEFINED_HEIGHT_BEGIN
1070
    46
1040
1.352222186815164
1000
ACAD_MTEXT_DEFINED_HEIGHT_END
  0
MTEXT
  5
14104
330
1F
100
AcDbEntity
  8
图框
100
AcDbMText
 10
694.5008988314907
 20
231.6009971727187
 30
0.0
 40
0.6000023545570477
 41
6.066833998183262
 46
2.704364302212839
 71
     5
 72
     5
  1
{\f仿宋_GB2312|b0|i0|c134|p49;\C4;产品料号\Fromans|c134;\PPart NO.}
  7
Romans字体
 73
     1
 44
1.0
1001
ACAD
1000
MTEXTBEGIN
1070
    73
1070
     1
1070
    44
1040
1.0
1070
    74
1070
     0
1000
MTEXTEND
1000
ACAD_MTEXT_DEFINED_HEIGHT_BEGIN
1070
    46
1040
2.704364302212839
1000
ACAD_MTEXT_DEFINED_HEIGHT_END
  0
MTEXT
  5
14105
330
1F
100
AcDbEntity
  8
图框
100
AcDbMText
 10
709.5199948648303
 20
231.600997172719
 30
0.0
 40
0.6000023545570477
 41
2.432903725729715
 46
2.704364302212435
 71
     5
 72
     5
  1
{\C4;d}
  7
Romans字体
 73
     1
 44
1.0
1001
ACAD
1000
MTEXTBEGIN
1070
    73
1070
     1
1070
    44
1040
1.0
1070
    74
1070
     0
1000
MTEXTEND
1000
ACAD_MTEXT_DEFINED_HEIGHT_BEGIN
1070
    46
1040
2.704364302212435
1000
ACAD_MTEXT_DEFINED_HEIGHT_END
  0
MTEXT
  5
14106
330
1F
100
AcDbEntity
  8
图框
100
AcDbMText
 10
709.5199948648303
 20
229.5727039282045
 30
0.0
 40
0.6000023545570477
 41
2.43290372572948
 46
1.352222186816667
 71
     5
 72
     5
  1
{\C4;0.9}
  7
Romans字体
 73
     1
 44
1.0
1001
ACAD
1000
MTEXTBEGIN
1070
    73
1070
     1
1070
    44
1040
1.0
1070
    74
1070
     0
1000
MTEXTEND
1000
ACAD_MTEXT_DEFINED_HEIGHT_BEGIN
1070
    46
1040
1.352222186816667
1000
ACAD_MTEXT_DEFINED_HEIGHT_END
  0
MTEXT
  5
14107
330
1F
100
AcDbEntity
  8
图框
100
AcDbMText
 10
709.5199948648303
 20
228.2204817413884
 30
0.0
 40
0.6000023545570477
 41
2.43290372572947
 46
1.352222186815197
 71
     5
 72
     5
  1
{\C4;1.15}
  7
Romans字体
 73
     1
 44
1.0
1001
ACAD
1000
MTEXTBEGIN
1070
    73
1070
     1
1070
    44
1040
1.0
1070
    74
1070
     0
1000
MTEXTEND
1000
ACAD_MTEXT_DEFINED_HEIGHT_BEGIN
1070
    46
1040
1.352222186815197
1000
ACAD_MTEXT_DEFINED_HEIGHT_END
  0
LINE
  5
14108
330
1F
100
AcDbEntity
  8
图框
370
    35
100
AcDbLine
 10
686.9123082049914
 20
223.4847693566112
 30
0.0
 11
718.9980531987116
 21
223.484769356612
 31
0.0
  0
MTEXT
  5
14109
330
1F
100
AcDbEntity
  8
图框
100
AcDbMText
 10
711.9528985902267
 20
231.600997172719
 30
0.0
 40
0.6000023545570477
 41
2.432903725062574
 46
2.704364302212435
 71
     5
 72
     5
  1
{\C4;D}
  7
Romans字体
 73
     1
 44
1.0
1001
ACAD
1000
MTEXTBEGIN
1070
    73
1070
     1
1070
    44
1040
1.0
1070
    74
1070
     0
1000
MTEXTEND
1000
ACAD_MTEXT_DEFINED_HEIGHT_BEGIN
1070
    46
1040
2.704364302212435
1000
ACAD_MTEXT_DEFINED_HEIGHT_END
  0
MTEXT
  5
1410C
330
1F
100
AcDbEntity
  8
图框
100
AcDbMText
 10
711.9528985902267
 20
229.5727039282045
 30
0.0
 40
0.6000023545570477
 41
2.432903725062595
 46
1.35222218681682
 71
     5
 72
     5
  1
{\C4;2.6}
  7
Romans字体
 73
     1
 44
1.0
1001
ACAD
1000
MTEXTBEGIN
1070
    73
1070
     1
1070
    44
1040
1.0
1070
    74
1070
     0
1000
MTEXTEND
1000
ACAD_MTEXT_DEFINED_HEIGHT_BEGIN
1070
    46
1040
1.35222218681682
1000
ACAD_MTEXT_DEFINED_HEIGHT_END
  0
LINE
  5
1410D
330
1F
100
AcDbEntity
  8
图框
370
    35
380
     1
100
AcDbLine
 10
710.7364467276953
 20
232.9532593953125
 30
0.0
 11
710.7364467276953
 21
223.4847693566118
 31
0.0
  0
LINE
  5
1410E
330
1F
100
AcDbEntity
  8
图框
370
    -3
100
AcDbLine
 10
708.3035430026322
 20
232.9532593953125
 30
0.0
 11
708.3035430026332
 21
223.4847693566118
 31
0.0
  0
LINE
  5
1410F
330
1F
100
AcDbEntity
  8
图框
370
    -3
100
AcDbLine
 10
705.3536383246347
 20
231.6010472119959
 30
0.0
 11
705.3536383246345
 21
223.4847693566116
 31
0.0
  0
LINE
  5
14110
330
1F
100
AcDbEntity
  8
图框
370
    -3
100
AcDbLine
 10
691.4674818330658
 20
223.4847693566113
 30
0.0
 11
691.4674818330658
 21
231.6010472119952
 31
0.0
  0
LINE
  5
14111
330
1F
100
AcDbEntity
  8
图框
370
    -3
100
AcDbLine
 10
697.5343158312489
 20
223.4847693566115
 30
0.0
 11
697.5343158312489
 21
232.9532593953123
 31
0.0
  0
MTEXT
  5
14112
330
1F
100
AcDbEntity
  8
图框
100
AcDbMText
 10
703.3988077014551
 20
226.8682595545733
 30
0.0
 40
0.59999791584616
 41
3.909661246359378
 46
1.352222186815279
 71
     5
 72
     5
  1
{\C4;0.75}
  7
Romans字体
 73
     1
 44
1.0
1001
ACAD
1000
MTEXTBEGIN
1070
    73
1070
     1
1070
    44
1040
1.0
1070
    74
1070
     0
1000
MTEXTEND
1000
ACAD_MTEXT_DEFINED_HEIGHT_BEGIN
1070
    46
1040
1.352222186815279
1000
ACAD_MTEXT_DEFINED_HEIGHT_END
  0
MTEXT
  5
14113
330
1F
100
AcDbEntity
  8
图框
100
AcDbMText
 10
706.8285906636337
 20
226.8682595545733
 30
0.0
 40
0.59999791584616
 41
2.949904677998274
 46
1.35222218681521
 71
     5
 72
     5
  1
{\C4;18}
  7
Romans字体
 73
     1
 44
1.0
1001
ACAD
1000
MTEXTBEGIN
1070
    73
1070
     1
1070
    44
1040
1.0
1070
    74
1070
     0
1000
MTEXTEND
1000
ACAD_MTEXT_DEFINED_HEIGHT_BEGIN
1070
    46
1040
1.35222218681521
1000
ACAD_MTEXT_DEFINED_HEIGHT_END
  0
MTEXT
  5
14114
330
1F
100
AcDbEntity
  8
图框
100
AcDbMText
 10
709.5199948651639
 20
226.8682595545733
 30
0.0
 40
0.59999791584616
 41
2.432903725062625
 46
1.352222186815245
 71
     5
 72
     5
  1
{\C4;1.3}
  7
Romans字体
 73
     1
 44
1.0
1001
ACAD
1000
MTEXTBEGIN
1070
    73
1070
     1
1070
    44
1040
1.0
1070
    74
1070
     0
1000
MTEXTEND
1000
ACAD_MTEXT_DEFINED_HEIGHT_BEGIN
1070
    46
1040
1.352222186815245
1000
ACAD_MTEXT_DEFINED_HEIGHT_END
  0
MTEXT
  5
14115
330
1F
100
AcDbEntity
  8
图框
100
AcDbMText
 10
703.3988077014551
 20
225.5138613446333
 30
0.0
 40
0.59999791584616
 41
3.909661246359378
 46
1.347870140565607
 71
     5
 72
     5
  1
{\C4;1.0}
  7
Romans字体
 73
     1
 44
1.0
1001
ACAD
1000
MTEXTBEGIN
1070
    73
1070
     1
1070
    44
1040
1.0
1070
    74
1070
     0
1000
MTEXTEND
1000
ACAD_MTEXT_DEFINED_HEIGHT_BEGIN
1070
    46
1040
1.347870140565607
1000
ACAD_MTEXT_DEFINED_HEIGHT_END
  0
MTEXT
  5
14116
330
1F
100
AcDbEntity
  8
图框
100
AcDbMText
 10
706.8285906633003
 20
225.5138213088897
 30
0.0
 40
0.59999791584616
 41
2.94990467733168
 46
1.347790069078369
 71
     5
 72
     5
  1
{\C4;18}
  7
Romans字体
 73
     1
 44
1.0
1001
ACAD
1000
MTEXTBEGIN
1070
    73
1070
     1
1070
    44
1040
1.0
1070
    74
1070
     0
1000
MTEXTEND
1000
ACAD_MTEXT_DEFINED_HEIGHT_BEGIN
1070
    46
1040
1.347790069078369
1000
ACAD_MTEXT_DEFINED_HEIGHT_END
  0
MTEXT
  5
14117
330
1F
100
AcDbEntity
  8
图框
100
AcDbMText
 10
709.5199948648309
 20
225.516037367758
 30
0.0
 40
0.59999791584616
 41
2.43290372572923
 46
1.352222186815245
 71
     5
 72
     5
  1
{\C4;1.45}
  7
Romans字体
 73
     1
 44
1.0
1001
ACAD
1000
MTEXTBEGIN
1070
    73
1070
     1
1070
    44
1040
1.0
1070
    74
1070
     0
1000
MTEXTEND
1000
ACAD_MTEXT_DEFINED_HEIGHT_BEGIN
1070
    46
1040
1.352222186815245
1000
ACAD_MTEXT_DEFINED_HEIGHT_END
  0
MTEXT
  5
14119
330
1F
100
AcDbEntity
  8
图框
100
AcDbMText
 10
711.9528985902267
 20
224.1623478154812
 30
0.0
 40
0.59999791584616
 41
2.432903725062594
 46
1.35515691773857
 71
     5
 72
     5
  1
{\C4;3.0}
  7
Romans字体
 73
     1
 44
1.0
1001
ACAD
1000
MTEXTBEGIN
1070
    73
1070
     1
1070
    44
1040
1.0
1070
    74
1070
     0
1000
MTEXTEND
1000
ACAD_MTEXT_DEFINED_HEIGHT_BEGIN
1070
    46
1040
1.35515691773857
1000
ACAD_MTEXT_DEFINED_HEIGHT_END
  0
LINE
  5
1411A
330
1F
100
AcDbEntity
  8
图框
370
    -3
100
AcDbLine
 10
708.3035430019657
 20
232.9531793238252
 30
0.0
 11
708.3035430019665
 21
223.4847693566117
 31
0.0
  0
LINE
  5
1411B
330
1F
100
AcDbEntity
  8
图框
370
    -3
100
AcDbLine
 10
705.3536383239677
 20
231.6009671405086
 30
0.0
 11
705.3536383239682
 21
223.4847693566117
 31
0.0
  0
LINE
  5
1411C
330
1F
100
AcDbEntity
  8
图框
370
    -3
100
AcDbLine
 10
691.4674818323987
 20
223.4847693566113
 30
0.0
 11
691.467481832399
 21
232.9531793238252
 31
0.0
  0
LINE
  5
1411D
330
1F
100
AcDbEntity
  8
图框
370
    -3
100
AcDbLine
 10
697.5343158305818
 20
223.4847693566115
 30
0.0
 11
697.5343158305818
 21
232.9531793238252
 31
0.0
  0
LINE
  5
1411F
330
1F
100
AcDbEntity
  8
图框
370
    35
380
     1
100
AcDbLine
 10
718.9980531987116
 20
232.9531793238254
 30
0.0
 11
718.998041420339
 21
223.484769356612
 31
0.0
  0
LINE
  5
14122
330
1F
100
AcDbEntity
  8
图框
370
    -3
100
AcDbLine
 10
686.9123082049914
 20
226.1921484611658
 30
0.0
 11
718.9980531987116
 21
226.1921484611657
 31
0.0
  0
LINE
  5
14123
330
1F
100
AcDbEntity
  8
图框
370
    -3
100
AcDbLine
 10
686.9123082049914
 20
224.8399262743506
 30
0.0
 11
718.9980531987116
 21
224.8399262743504
 31
0.0
  0
MTEXT
  5
14124
102
{ACAD_XDICTIONARY
360
150D9
102
}
330
1F
100
AcDbEntity
  8
打标文字
 62
     3
100
AcDbMText
 10
737.8525163853272
 20
217.6448461502082
 30
0.0
 40
0.75
 41
21.56370451087032
 46
26.95590277395973
 71
     1
 72
     5
  3
\A1;{\f仿宋_GB2312|b0|i0|c134|p49;技术参数}:\P- {\f仿宋_GB2312|b0|i0|c134|p49;材料}: {\f仿宋_GB2312|b0|i0|c134|p49;铜合金}\P- {\f仿宋_GB2312|b0|i0|c134|p49;表面处理}: {\f仿宋_GB2312|b0|i0|c134|p49;镀金}\P- {\f仿宋_GB2312|b0|i0|c134|p49;额定电流}: 10A\P- {\f仿宋_GB2312|b0|i0|c134|p49
  3
;接触电阻}: ≤3mΩ\P- {\f仿宋_GB2312|b0|i0|c134|p49;线径范围}: 1.0mm{\H0.7x;\S2^ ;}(18 AWG)\P- {\f仿宋_GB2312|b0|i0|c134|p49;可插拔次数}: {\f仿宋_GB2312|b0|i0|c134|p49;≥}500\P\PTechnical specification:\P- Material: copper alloy\P- Surface: hard-gold plated\P- Rated curren
  1
t: 10A\P- Contact resistance: ≤3mΩ\P- Wire gauge: 1.0mm{\H0.7x;\S2^ ;}(18 AWG)\P- Mating cycles: {\f仿宋_GB2312|b0|i0|c134|p49;≥}500
  7
Romans字体
 73
     1
 44
1.0
1001
ACAD
1000
MTEXTBEGIN
1070
    73
1070
     1
1070
    44
1040
1.0
1070
    74
1070
     0
1000
MTEXTEND
1000
ACAD_MTEXT_DEFINED_HEIGHT_BEGIN
1070
    46
1040
26.95590277395973
1000
ACAD_MTEXT_DEFINED_HEIGHT_END
  0
MTEXT
  5
14126
330
1F
100
AcDbEntity
  8
图框
100
AcDbMText
 10
689.1898950186952
 20
231.6010422102112
 30
0.0
 40
0.6000023545570477
 41
4.555173627407302
 46
2.704274227227899
 71
     5
 72
     5
  1
{\f仿宋_GB2312|b0|i0|c134|p49;\C4;产品代号\P\Fromans|c134;Part Code}
  7
Romans字体
 73
     1
 44
1.0
1001
ACAD
1000
MTEXTBEGIN
1070
    73
1070
     1
1070
    44
1040
1.0
1070
    74
1070
     0
1000
MTEXTEND
1000
ACAD_MTEXT_DEFINED_HEIGHT_BEGIN
1070
    46
1040
2.704274227227899
1000
ACAD_MTEXT_DEFINED_HEIGHT_END
  0
MTEXT
  5
14127
330
1F
100
AcDbEntity
  8
图框
100
AcDbMText
 10
699.4891464544287
 20
232.2771082661263
 30
0.0
 40
0.6000023545570477
 41
3.909661246359441
 46
1.352142115397727
 71
     5
 72
     5
  1
{\f仿宋_GB2312|b0|i0|c134|p49;\C4;重量\Fromans|c134;/Weight}
  7
Romans字体
 73
     1
 44
1.0
1001
ACAD
1000
MTEXTBEGIN
1070
    73
1070
     1
1070
    44
1040
1.0
1070
    74
1070
     0
1000
MTEXTEND
1000
ACAD_MTEXT_DEFINED_HEIGHT_BEGIN
1070
    46
1040
1.352142115397727
1000
ACAD_MTEXT_DEFINED_HEIGHT_END
  0
MTEXT
  5
14128
330
1F
100
AcDbEntity
  8
图框
100
AcDbMText
 10
699.4891464544287
 20
230.92492611502
 30
0.0
 40
0.6000023545570477
 41
3.909661246359383
 46
1.352222186814967
 71
     5
 72
     5
  1
{\C4;g}
  7
Romans字体
 73
     1
 44
1.0
1001
ACAD
1000
MTEXTBEGIN
1070
    73
1070
     1
1070
    44
1040
1.0
1070
    74
1070
     0
1000
MTEXTEND
1000
ACAD_MTEXT_DEFINED_HEIGHT_BEGIN
1070
    46
1040
1.352222186814967
1000
ACAD_MTEXT_DEFINED_HEIGHT_END
  0
LINE
  5
14129
330
1F
100
AcDbEntity
  8
图框
370
    -3
100
AcDbLine
 10
701.4439770776085
 20
232.9531793238252
 30
0.0
 11
701.4439770776082
 21
223.4847693566116
 31
0.0
  0
LINE
  5
1412A
330
1F
100
AcDbEntity
  8
图框
370
    35
380
     1
100
AcDbLine
 10
729.5293460614856
 20
232.9531793238255
 30
0.0
 11
729.5293460614852
 21
232.8683637126294
 31
0.0
  0
MTEXT
  5
1412C
330
1F
100
AcDbEntity
  8
图框
100
AcDbMText
 10
716.0837018257345
 20
231.600997172719
 30
0.0
 40
0.6000023545570477
 41
5.828702745953783
 46
2.704364302212259
 71
     5
 72
     5
  1
{\f仿宋_GB2312|b0|i0|c134|p49;\C4;剥线长度\Fromans|c134;\PStripping Length}
  7
Romans字体
 73
     1
 44
1.0
1001
ACAD
1000
MTEXTBEGIN
1070
    73
1070
     1
1070
    44
1040
1.0
1070
    74
1070
     0
1000
MTEXTEND
1000
ACAD_MTEXT_DEFINED_HEIGHT_BEGIN
1070
    46
1040
2.704364302212259
1000
ACAD_MTEXT_DEFINED_HEIGHT_END
  0
LINE
  5
1412D
330
1F
100
AcDbEntity
  8
图框
370
    35
380
     1
100
AcDbLine
 10
713.1693504527577
 20
232.9531793238252
 30
0.0
 11
713.169350452758
 21
223.4847693566119
 31
0.0
  0
MTEXT
  5
1412E
330
1F
100
AcDbEntity
  8
图框
100
AcDbMText
 10
716.0837018257345
 20
229.5727039282045
 30
0.0
 40
0.6000023545570477
 41
5.828702745953754
 46
1.35222218681682
 71
     5
 72
     5
  1
{\C4;8}
  7
Romans字体
 73
     1
 44
1.0
1001
ACAD
1000
MTEXTBEGIN
1070
    73
1070
     1
1070
    44
1040
1.0
1070
    74
1070
     0
1000
MTEXTEND
1000
ACAD_MTEXT_DEFINED_HEIGHT_BEGIN
1070
    46
1040
1.35222218681682
1000
ACAD_MTEXT_DEFINED_HEIGHT_END
  0
MTEXT
  5
1412F
330
1F
100
AcDbEntity
  8
图框
100
AcDbMText
 10
699.4891464537618
 20
229.5783222885914
 30
0.0
 40
0.6000023545570477
 41
3.909661246359451
 46
1.352222186816528
 71
     5
 72
     5
  1
{\C4;0.68}
  7
Romans字体
 73
     1
 44
1.0
1001
ACAD
1000
MTEXTBEGIN
1070
    73
1070
     1
1070
    44
1040
1.0
1070
    74
1070
     0
1000
MTEXTEND
1000
ACAD_MTEXT_DEFINED_HEIGHT_BEGIN
1070
    46
1040
1.352222186816528
1000
ACAD_MTEXT_DEFINED_HEIGHT_END
  0
MTEXT
  5
14130
330
1F
100
AcDbEntity
  8
图框
100
AcDbMText
 10
699.4891464537618
 20
228.2261001017749
 30
0.0
 40
0.6000023545570477
 41
3.909661246359451
 46
1.352222186816528
 71
     5
 72
     5
  1
{\C4;0.66}
  7
Romans字体
 73
     1
 44
1.0
1001
ACAD
1000
MTEXTBEGIN
1070
    73
1070
     1
1070
    44
1040
1.0
1070
    74
1070
     0
1000
MTEXTEND
1000
ACAD_MTEXT_DEFINED_HEIGHT_BEGIN
1070
    46
1040
1.352222186816528
1000
ACAD_MTEXT_DEFINED_HEIGHT_END
  0
MTEXT
  5
14131
330
1F
100
AcDbEntity
  8
图框
100
AcDbMText
 10
699.4891464537618
 20
226.8738779149598
 30
0.0
 40
0.6000023545570477
 41
3.909661246359451
 46
1.352222186816528
 71
     5
 72
     5
  1
{\C4;0.64}
  7
Romans字体
 73
     1
 44
1.0
1001
ACAD
1000
MTEXTBEGIN
1070
    73
1070
     1
1070
    44
1040
1.0
1070
    74
1070
     0
1000
MTEXTEND
1000
ACAD_MTEXT_DEFINED_HEIGHT_BEGIN
1070
    46
1040
1.352222186816528
1000
ACAD_MTEXT_DEFINED_HEIGHT_END
  0
MTEXT
  5
1419D
330
1F
100
AcDbEntity
  8
图框
100
AcDbMText
 10
703.3988077011216
 20
224.1638151809421
 30
0.0
 40
0.6000023545570477
 41
3.909661247026225
 46
1.3522221868165
 71
     5
 72
     5
  1
{\C4;1.5}
  7
Romans字体
 73
     1
 44
1.0
1001
ACAD
1000
MTEXTBEGIN
1070
    73
1070
     1
1070
    44
1040
1.0
1070
    74
1070
     0
1000
MTEXTEND
1000
ACAD_MTEXT_DEFINED_HEIGHT_BEGIN
1070
    46
1040
1.3522221868165
1000
ACAD_MTEXT_DEFINED_HEIGHT_END
  0
MTEXT
  5
141A1
330
1F
100
AcDbEntity
  8
图框
100
AcDbMText
 10
706.8285906626337
 20
224.1638151809421
 30
0.0
 40
0.6000023545570477
 41
2.949904678664852
 46
1.352222186816635
 71
     5
 72
     5
  1
{\C4;16}
  7
Romans字体
 73
     1
 44
1.0
1001
ACAD
1000
MTEXTBEGIN
1070
    73
1070
     1
1070
    44
1040
1.0
1070
    74
1070
     0
1000
MTEXTEND
1000
ACAD_MTEXT_DEFINED_HEIGHT_BEGIN
1070
    46
1040
1.352222186816635
1000
ACAD_MTEXT_DEFINED_HEIGHT_END
  0
MTEXT
  5
141A7
330
1F
100
AcDbEntity
  8
图框
100
AcDbMText
 10
709.5199948648303
 20
224.1638151809421
 30
0.0
 40
0.6000023545570477
 41
2.43290372572948
 46
1.352222186816667
 71
     5
 72
     5
  1
{\C4;1.75}
  7
Romans字体
 73
     1
 44
1.0
1001
ACAD
1000
MTEXTBEGIN
1070
    73
1070
     1
1070
    44
1040
1.0
1070
    74
1070
     0
1000
MTEXTEND
1000
ACAD_MTEXT_DEFINED_HEIGHT_BEGIN
1070
    46
1040
1.352222186816667
1000
ACAD_MTEXT_DEFINED_HEIGHT_END
  0
MTEXT
  5
141AB
330
1F
100
AcDbEntity
  8
图框
100
AcDbMText
 10
716.0837018257345
 20
228.2204817413893
 30
0.0
 40
0.6000023545570477
 41
5.828702745953754
 46
1.35222218681682
 71
     5
 72
     5
  1
{\C4;8}
  7
Romans字体
 73
     1
 44
1.0
1001
ACAD
1000
MTEXTBEGIN
1070
    73
1070
     1
1070
    44
1040
1.0
1070
    74
1070
     0
1000
MTEXTEND
1000
ACAD_MTEXT_DEFINED_HEIGHT_BEGIN
1070
    46
1040
1.35222218681682
1000
ACAD_MTEXT_DEFINED_HEIGHT_END
  0
MTEXT
  5
141AC
330
1F
100
AcDbEntity
  8
图框
100
AcDbMText
 10
716.0837018257345
 20
226.868259554574
 30
0.0
 40
0.6000023545570477
 41
5.828702745953754
 46
1.35222218681682
 71
     5
 72
     5
  1
{\C4;8}
  7
Romans字体
 73
     1
 44
1.0
1001
ACAD
1000
MTEXTBEGIN
1070
    73
1070
     1
1070
    44
1040
1.0
1070
    74
1070
     0
1000
MTEXTEND
1000
ACAD_MTEXT_DEFINED_HEIGHT_BEGIN
1070
    46
1040
1.35222218681682
1000
ACAD_MTEXT_DEFINED_HEIGHT_END
  0
MTEXT
  5
141AD
330
1F
100
AcDbEntity
  8
图框
100
AcDbMText
 10
716.0837018257345
 20
225.5160373677588
 30
0.0
 40
0.6000023545570477
 41
5.828702745953754
 46
1.35222218681682
 71
     5
 72
     5
  1
{\C4;8}
  7
Romans字体
 73
     1
 44
1.0
1001
ACAD
1000
MTEXTBEGIN
1070
    73
1070
     1
1070
    44
1040
1.0
1070
    74
1070
     0
1000
MTEXTEND
1000
ACAD_MTEXT_DEFINED_HEIGHT_BEGIN
1070
    46
1040
1.35222218681682
1000
ACAD_MTEXT_DEFINED_HEIGHT_END
  0
MTEXT
  5
1492A
330
1F
100
AcDbEntity
  8
图框
100
AcDbMText
 10
711.9528985902267
 20
228.2204817413893
 30
0.0
 40
0.6000023545570477
 41
2.432903725062595
 46
1.35222218681682
 71
     5
 72
     5
  1
{\C4;2.6}
  7
Romans字体
 73
     1
 44
1.0
1001
ACAD
1000
MTEXTBEGIN
1070
    73
1070
     1
1070
    44
1040
1.0
1070
    74
1070
     0
1000
MTEXTEND
1000
ACAD_MTEXT_DEFINED_HEIGHT_BEGIN
1070
    46
1040
1.35222218681682
1000
ACAD_MTEXT_DEFINED_HEIGHT_END
  0
MTEXT
  5
1492B
330
1F
100
AcDbEntity
  8
图框
100
AcDbMText
 10
711.9528985902267
 20
226.868259554574
 30
0.0
 40
0.6000023545570477
 41
2.432903725062595
 46
1.35222218681682
 71
     5
 72
     5
  1
{\C4;2.6}
  7
Romans字体
 73
     1
 44
1.0
1001
ACAD
1000
MTEXTBEGIN
1070
    73
1070
     1
1070
    44
1040
1.0
1070
    74
1070
     0
1000
MTEXTEND
1000
ACAD_MTEXT_DEFINED_HEIGHT_BEGIN
1070
    46
1040
1.35222218681682
1000
ACAD_MTEXT_DEFINED_HEIGHT_END
  0
MTEXT
  5
1492C
330
1F
100
AcDbEntity
  8
图框
100
AcDbMText
 10
711.9528985902267
 20
225.5160373677588
 30
0.0
 40
0.6000023545570477
 41
2.432903725062595
 46
1.35222218681682
 71
     5
 72
     5
  1
{\C4;2.6}
  7
Romans字体
 73
     1
 44
1.0
1001
ACAD
1000
MTEXTBEGIN
1070
    73
1070
     1
1070
    44
1040
1.0
1070
    74
1070
     0
1000
MTEXTEND
1000
ACAD_MTEXT_DEFINED_HEIGHT_BEGIN
1070
    46
1040
1.35222218681682
1000
ACAD_MTEXT_DEFINED_HEIGHT_END
  0
MTEXT
  5
1492D
330
1F
100
AcDbEntity
  8
图框
100
AcDbMText
 10
689.1898950190287
 20
229.5784023600786
 30
0.0
 40
0.6000023545570477
 41
4.555173628074113
 46
1.3522221868162
 71
     5
 72
     5
  1
{\C4;CDGM-0.37}
  7
Romans字体
 73
     1
 44
1.0
1001
ACAD
1000
MTEXTBEGIN
1070
    73
1070
     1
1070
    44
1040
1.0
1070
    74
1070
     0
1000
MTEXTEND
1000
ACAD_MTEXT_DEFINED_HEIGHT_BEGIN
1070
    46
1040
1.3522221868162
1000
ACAD_MTEXT_DEFINED_HEIGHT_END
  0
MTEXT
  5
1492E
330
1F
100
AcDbEntity
  8
图框
100
AcDbMText
 10
694.5008988321574
 20
229.5784023600786
 30
0.0
 40
0.6000023545570477
 41
6.066833998183262
 46
1.352222186816343
 71
     5
 72
     5
  1
{\C4;1010172100301}
  7
Romans字体
 73
     1
 44
1.0
1001
ACAD
1000
MTEXTBEGIN
1070
    73
1070
     1
1070
    44
1040
1.0
1070
    74
1070
     0
1000
MTEXTEND
1000
ACAD_MTEXT_DEFINED_HEIGHT_BEGIN
1070
    46
1040
1.352222186816343
1000
ACAD_MTEXT_DEFINED_HEIGHT_END
  0
MTEXT
  5
1492F
330
1F
100
AcDbEntity
  8
图框
100
AcDbMText
 10
694.5008988321574
 20
228.2261801732622
 30
0.0
 40
0.6000023545570477
 41
6.066833998183262
 46
1.352222186816343
 71
     5
 72
     5
  1
{\C4;1010172100401}
  7
Romans字体
 73
     1
 44
1.0
1001
ACAD
1000
MTEXTBEGIN
1070
    73
1070
     1
1070
    44
1040
1.0
1070
    74
1070
     0
1000
MTEXTEND
1000
ACAD_MTEXT_DEFINED_HEIGHT_BEGIN
1070
    46
1040
1.352222186816343
1000
ACAD_MTEXT_DEFINED_HEIGHT_END
  0
MTEXT
  5
14930
330
1F
100
AcDbEntity
  8
图框
100
AcDbMText
 10
694.5008988321574
 20
226.873957986447
 30
0.0
 40
0.6000023545570477
 41
6.066833998183262
 46
1.352222186816343
 71
     5
 72
     5
  1
{\C4;1010172100601}
  7
Romans字体
 73
     1
 44
1.0
1001
ACAD
1000
MTEXTBEGIN
1070
    73
1070
     1
1070
    44
1040
1.0
1070
    74
1070
     0
1000
MTEXTEND
1000
ACAD_MTEXT_DEFINED_HEIGHT_BEGIN
1070
    46
1040
1.352222186816343
1000
ACAD_MTEXT_DEFINED_HEIGHT_END
  0
MTEXT
  5
14931
330
1F
100
AcDbEntity
  8
图框
100
AcDbMText
 10
694.5008988321574
 20
225.5217357996317
 30
0.0
 40
0.6000023545570477
 41
6.066833998183262
 46
1.352222186816343
 71
     5
 72
     5
  1
{\C4;1010172100801}
  7
Romans字体
 73
     1
 44
1.0
1001
ACAD
1000
MTEXTBEGIN
1070
    73
1070
     1
1070
    44
1040
1.0
1070
    74
1070
     0
1000
MTEXTEND
1000
ACAD_MTEXT_DEFINED_HEIGHT_BEGIN
1070
    46
1040
1.352222186816343
1000
ACAD_MTEXT_DEFINED_HEIGHT_END
  0
MTEXT
  5
14932
330
1F
100
AcDbEntity
  8
图框
100
AcDbMText
 10
694.5008988321574
 20
224.1695136128166
 30
0.0
 40
0.6000023545570477
 41
6.066833998183262
 46
1.352222186816343
 71
     5
 72
     5
  1
{\C4;1010172100901}
  7
Romans字体
 73
     1
 44
1.0
1001
ACAD
1000
MTEXTBEGIN
1070
    73
1070
     1
1070
    44
1040
1.0
1070
    74
1070
     0
1000
MTEXTEND
1000
ACAD_MTEXT_DEFINED_HEIGHT_BEGIN
1070
    46
1040
1.352222186816343
1000
ACAD_MTEXT_DEFINED_HEIGHT_END
  0
MTEXT
  5
14949
330
1F
100
AcDbEntity
  8
图框
100
AcDbMText
 10
689.189895018362
 20
228.2261801732625
 30
0.0
 40
0.6000023545570477
 41
4.555173628074113
 46
1.3522221868162
 71
     5
 72
     5
  1
{\C4;CDGM-0.5}
  7
Romans字体
 73
     1
 44
1.0
1001
ACAD
1000
MTEXTBEGIN
1070
    73
1070
     1
1070
    44
1040
1.0
1070
    74
1070
     0
1000
MTEXTEND
1000
ACAD_MTEXT_DEFINED_HEIGHT_BEGIN
1070
    46
1040
1.3522221868162
1000
ACAD_MTEXT_DEFINED_HEIGHT_END
  0
MTEXT
  5
1494A
330
1F
100
AcDbEntity
  8
图框
100
AcDbMText
 10
689.1898950190287
 20
226.8739579864474
 30
0.0
 40
0.6000023545570477
 41
4.555173628074113
 46
1.3522221868162
 71
     5
 72
     5
  1
{\C4;CDGM-0.75}
  7
Romans字体
 73
     1
 44
1.0
1001
ACAD
1000
MTEXTBEGIN
1070
    73
1070
     1
1070
    44
1040
1.0
1070
    74
1070
     0
1000
MTEXTEND
1000
ACAD_MTEXT_DEFINED_HEIGHT_BEGIN
1070
    46
1040
1.3522221868162
1000
ACAD_MTEXT_DEFINED_HEIGHT_END
  0
MTEXT
  5
1494B
330
1F
100
AcDbEntity
  8
图框
100
AcDbMText
 10
689.189895018362
 20
225.5173036818949
 30
0.0
 40
0.6000023545570477
 41
4.555173628074113
 46
1.3522221868162
 71
     5
 72
     5
  1
{\C4;CDGM-1.0}
  7
Romans字体
 73
     1
 44
1.0
1001
ACAD
1000
MTEXTBEGIN
1070
    73
1070
     1
1070
    44
1040
1.0
1070
    74
1070
     0
1000
MTEXTEND
1000
ACAD_MTEXT_DEFINED_HEIGHT_BEGIN
1070
    46
1040
1.3522221868162
1000
ACAD_MTEXT_DEFINED_HEIGHT_END
  0
MTEXT
  5
1494C
330
1F
100
AcDbEntity
  8
图框
100
AcDbMText
 10
689.189895018362
 20
224.1695136128169
 30
0.0
 40
0.6000023545570477
 41
4.555173628074113
 46
1.3522221868162
 71
     5
 72
     5
  1
{\C4;CDGM-1.5}
  7
Romans字体
 73
     1
 44
1.0
1001
ACAD
1000
MTEXTBEGIN
1070
    73
1070
     1
1070
    44
1040
1.0
1070
    74
1070
     0
1000
MTEXTEND
1000
ACAD_MTEXT_DEFINED_HEIGHT_BEGIN
1070
    46
1040
1.3522221868162
1000
ACAD_MTEXT_DEFINED_HEIGHT_END
  0
MTEXT
  5
14958
330
1F
100
AcDbEntity
  8
图框
100
AcDbMText
 10
699.4891464537622
 20
225.5188311009188
 30
0.0
 40
0.6000023545570477
 41
3.909661246359451
 46
1.352222186816528
 71
     5
 72
     5
  1
{\C4;0.62}
  7
Romans字体
 73
     1
 44
1.0
1001
ACAD
1000
MTEXTBEGIN
1070
    73
1070
     1
1070
    44
1040
1.0
1070
    74
1070
     0
1000
MTEXTEND
1000
ACAD_MTEXT_DEFINED_HEIGHT_BEGIN
1070
    46
1040
1.352222186816528
1000
ACAD_MTEXT_DEFINED_HEIGHT_END
  0
DIMENSION
  5
14B53
330
1F
100
AcDbEntity
  8
DIM
 62
     1
100
AcDbDimension
  2
*D4
 10
732.0940378588962
 20
205.8450200547957
 30
0.0
 11
732.0940378588962
 21
211.1748123185991
 31
0.0
 70
   160
  1
%%c<>
 71
     5
 42
1.600000000400086
 73
     0
 74
     0
 75
     0
  3
01
100
AcDbAlignedDimension
 13
727.0845879622965
 23
207.4450200551958
 33
0.0
 14
727.0845879622965
 24
205.8450200547957
 34
0.0
 50
270.0
100
AcDbRotatedDimension
1001
ACAD
1000
DSTYLE
1002
{
1070
    41
1040
1.0
1070
    44
1040
0.2
1070
   140
1040
1.199999999999999
1070
   147
1040
0.2
1002
}
  0
DIMENSION
  5
14B56
102
{ACAD_XDICTIONARY
360
14B57
102
}
102
{ACAD_REACTORS
330
14B58
102
}
330
1F
100
AcDbEntity
  8
DIM
 62
     1
100
AcDbDimension
  2
*D5
 10
703.4319119057028
 20
212.5603953350299
 30
0.0
 11
715.9247322286224
 21
213.36039533503
 31
0.0
 70
    32
  1
25
 71
     5
 42
24.98564064583979
 73
     0
 74
     0
 75
     0
  3
01
100
AcDbAlignedDimension
 13
728.4175525515428
 23
206.6450200549958
 33
0.0
 14
703.4319119057028
 24
208.2450200553959
 34
0.0
100
AcDbRotatedDimension
1001
ACAD
1000
DSTYLE
1002
{
1070
    41
1040
1.0
1070
    44
1040
0.2
1070
   140
1040
1.199999999999999
1070
   147
1040
0.2
1002
}
  0
HATCH
  5
14B59
330
1F
100
AcDbEntity
  8
hat
100
AcDbHatch
 10
0.0
 20
0.0
 30
0.0
210
0.0
220
0.0
230
1.0
  2
ANSI31
 70
     0
 71
     1
 91
        3
 92
        7
 72
     0
 73
     1
 93
       12
 10
710.4819119057022
 20
207.5200200549958
 10
710.4819119057021
 20
207.9100200549958
 10
710.4319119062027
 20
207.9100200549958
 10
710.4319119062031
 20
208.245020055396
 10
709.8319119062033
 20
208.245020055396
 10
708.4319119057028
 20
208.2450200553958
 10
708.4319119057028
 20
208.1450200549958
 10
704.3164418518649
 20
208.1450200549958
 10
704.2587068247151
 20
208.2450200553958
 10
703.4319119057028
 20
208.2450200553959
 10
703.4319119057022
 20
208.1450200549957
 10
703.7927558239466
 20
207.5200200549958
 97
       12
330
14B9C
330
14B88
330
14B85
330
14B63
330
14B8F
330
14B78
330
14B8C
330
14B64
330
14B68
330
14BA1
330
14B7A
330
14B95
 92
        7
 72
     0
 73
     1
 93
        7
 10
711.4319119057022
 20
207.5200200549958
 10
711.4319119057022
 20
207.3700200549953
 10
711.8504908508635
 20
206.6450200549958
 10
712.1319119072427
 20
206.6450200549958
 10
712.1319119072427
 20
207.9100200549958
 10
711.3819119057028
 20
207.9100200549958
 10
711.3819119057028
 20
207.5200200549958
 97
        7
330
14B9D
330
14B89
330
14B7B
330
14B9F
330
14BA0
330
14B76
330
14B72
 92
        7
 72
     0
 73
     1
 93
       17
 10
712.1319119072427
 20
206.3100200542063
 10
712.1319119072427
 20
206.6450200549958
 10
711.8504908508636
 20
206.6450200549958
 10
711.4319119057022
 20
205.9200200549961
 10
711.431911905702
 20
205.7700200549958
 10
703.7927558239466
 20
205.7700200549958
 10
703.4319119057028
 20
205.1450200549961
 10
703.4319119057028
 20
205.0450200545962
 10
704.2587068247144
 20
205.0450200545961
 10
704.3164418518642
 20
205.1450200549958
 10
708.4319119057022
 20
205.1450200549958
 10
708.4319119057022
 20
205.0450200545957
 10
709.6319119062027
 20
205.0450200545956
 10
710.3319119055229
 20
205.0450200545962
 10
710.4319119062027
 20
205.0450200545955
 10
710.4319119062027
 20
205.3800200549958
 10
712.1319119072427
 20
205.3800200549958
 97
       17
330
14B76
330
14B8B
330
14B87
330
14B79
330
14B99
330
14B68
330
14B5B
330
14B93
330
14B77
330
14B94
330
14B91
330
14B5A
330
14B90
330
14B92
330
14B7C
330
14B6A
330
14B72
 75
     0
 76
     1
 52
0.0
 41
0.1
 77
     0
 78
     1
 53
45.0
 43
3734.680503051047
 44
426.9260556773156
 45
-0.2245064030267288
 46
0.2245064030267288
 79
     0
 47
0.0091907311078154
 98
        3
 10
704.5776673370405
 20
207.7636427437915
 10
711.6796046630208
 20
207.5146370536073
 10
711.8451659130612
 20
205.9981663842743
1001
ACAD
1010
0.0
1020
0.0
1030
0.0
  0
LINE
  5
14B5A
102
{ACAD_REACTORS
330
14B59
102
}
330
1F
100
AcDbEntity
  8
0
100
AcDbLine
 10
710.3319119055229
 20
205.0450200545962
 30
0.0
 11
708.4319119057022
 21
205.0450200545962
 31
0.0
  0
LINE
  5
14B5B
102
{ACAD_REACTORS
330
14B59
102
}
330
1F
100
AcDbEntity
  8
0
100
AcDbLine
 10
704.2587068247146
 20
205.0450200545962
 30
0.0
 11
703.4319119057028
 21
205.0450200545962
 31
0.0
  0
LINE
  5
14B5C
330
1F
100
AcDbEntity
  8
0
100
AcDbLine
 10
714.5319119046424
 20
205.4200200538963
 30
0.0
 11
714.1319119052029
 21
205.4200200538959
 31
0.0
  0
LINE
  5
14B5D
330
1F
100
AcDbEntity
  8
0
100
AcDbLine
 10
726.8901128270097
 20
205.845020054796
 30
0.0
 11
715.1319119060628
 21
205.845020054796
 31
0.0
  0
LINE
  5
14B5E
330
1F
100
AcDbEntity
  8
0
100
AcDbLine
 10
715.1319119060628
 20
205.845020054796
 30
0.0
 11
714.5319119046428
 21
205.4200200538959
 31
0.0
  0
LINE
  5
14B5F
330
1F
100
AcDbEntity
  8
0
100
AcDbLine
 10
727.1118074896515
 20
207.4450200551956
 30
0.0
 11
715.1319119060628
 21
207.445020055196
 31
0.0
  0
LINE
  5
14B60
330
1F
100
AcDbEntity
  8
0
100
AcDbLine
 10
715.1319119060628
 20
207.445020055196
 30
0.0
 11
714.5319119046428
 21
207.870020053556
 31
0.0
  0
LINE
  5
14B61
330
1F
100
AcDbEntity
  8
0
100
AcDbLine
 10
715.1319119060628
 20
205.8450200547965
 30
0.0
 11
715.1319119060628
 21
207.445020055196
 31
0.0
  0
LINE
  5
14B62
330
1F
100
AcDbEntity
  8
0
100
AcDbLine
 10
714.5319119046414
 20
207.870020053556
 30
0.0
 11
714.1319119052029
 21
207.870020053556
 31
0.0
  0
LINE
  5
14B63
102
{ACAD_REACTORS
330
14B59
102
}
330
1F
100
AcDbEntity
  8
0
100
AcDbLine
 10
710.3319119055229
 20
208.2450200553959
 30
0.0
 11
708.4319119057035
 21
208.2450200553958
 31
0.0
  0
LINE
  5
14B64
102
{ACAD_REACTORS
330
14B59
102
}
330
1F
100
AcDbEntity
  8
0
100
AcDbLine
 10
704.2587068247155
 20
208.2450200553958
 30
0.0
 11
703.4319119057028
 21
208.2450200553959
 31
0.0
  0
LINE
  5
14B65
330
1F
100
AcDbEntity
  8
0
100
AcDbLine
 10
714.5319119046428
 20
205.4200200538959
 30
0.0
 11
714.5319119046428
 21
207.870020053556
 31
0.0
  0
LINE
  5
14B66
330
1F
100
AcDbEntity
  8
0
100
AcDbLine
 10
714.1319119052029
 20
205.4200200538959
 30
0.0
 11
714.1319119052029
 21
207.870020053556
 31
0.0
  0
LINE
  5
14B67
330
1F
100
AcDbEntity
  8
0
100
AcDbLine
 10
712.1319119047027
 20
205.3950200556361
 30
0.0
 11
712.1319119047027
 21
207.895020054356
 31
0.0
  0
LINE
  5
14B68
102
{ACAD_REACTORS
330
14B58
330
14B59
102
}
330
1F
100
AcDbEntity
  8
0
100
AcDbLine
 10
703.4319119057028
 20
205.0450200545962
 30
0.0
 11
703.4319119057028
 21
208.2450200553959
 31
0.0
  0
LINE
  5
14B69
330
1F
100
AcDbEntity
  8
0
100
AcDbLine
 10
712.1319119072427
 20
207.5400200531559
 30
0.0
 11
712.1319119072427
 21
207.9300200529361
 31
0.0
  0
LINE
  5
14B6A
102
{ACAD_REACTORS
330
14B59
102
}
330
1F
100
AcDbEntity
  8
0
100
AcDbLine
 10
712.1319119072427
 20
204.9100200553563
 30
0.0
 11
712.1319119072427
 21
206.3100200542063
 31
0.0
  0
LINE
  5
14B6B
330
1F
100
AcDbEntity
  8
0
100
AcDbLine
 10
712.1319119072427
 20
204.9100200553563
 30
0.0
 11
713.7819119052029
 21
205.5040200548793
 31
0.0
  0
LINE
  5
14B6C
330
1F
100
AcDbEntity
  8
0
100
AcDbLine
 10
712.1319119072427
 20
208.4100200530562
 30
0.0
 11
713.7819119052029
 21
207.8160200535327
 31
0.0
  0
LINE
  5
14B6D
330
1F
100
AcDbEntity
  8
0
100
AcDbLine
 10
712.1319119072427
 20
208.4100200530562
 30
0.0
 11
712.1319119072427
 21
207.0100200542061
 31
0.0
  0
LINE
  5
14B6E
330
1F
100
AcDbEntity
  8
0
100
AcDbLine
 10
712.1319119072427
 20
206.3100200542063
 30
0.0
 11
713.7819119052029
 21
206.3100200542063
 31
0.0
  0
LINE
  5
14B6F
330
1F
100
AcDbEntity
  8
0
100
AcDbLine
 10
712.1319119072427
 20
207.0100200542061
 30
0.0
 11
713.7819119052029
 21
207.0100200542061
 31
0.0
  0
LINE
  5
14B70
330
1F
100
AcDbEntity
  8
0
100
AcDbLine
 10
713.7819119052029
 20
207.0100200542061
 30
0.0
 11
713.7819119052029
 21
207.8160200535331
 31
0.0
  0
LINE
  5
14B71
330
1F
100
AcDbEntity
  8
0
100
AcDbLine
 10
713.7819119052029
 20
205.5040200548793
 30
0.0
 11
713.7819119052029
 21
206.3100200542063
 31
0.0
  0
LINE
  5
14B72
102
{ACAD_REACTORS
330
14B59
102
}
330
1F
100
AcDbEntity
  8
0
100
AcDbLine
 10
712.1319119072427
 20
207.9300200529361
 30
0.0
 11
712.1319119072427
 21
205.3900200529366
 31
0.0
  0
LINE
  5
14B73
330
1F
100
AcDbEntity
  8
0
100
AcDbLine
 10
711.431911905702
 20
206.6450200549958
 30
0.0
 11
711.431911905702
 21
205.9200200549958
 31
0.0
  0
DIMENSION
  5
14B74
330
1F
100
AcDbEntity
  8
DIM
 62
     1
100
AcDbDimension
  2
*D1
 10
698.8900394538368
 20
205.0450200545952
 30
0.0
 11
698.8900394538368
 21
210.795020055396
 31
0.0
 70
   160
  1
%%c<>
 71
     5
 42
3.200000000800628
 73
     0
 74
     0
 75
     0
  3
01
100
AcDbAlignedDimension
 13
703.4319119057028
 23
208.2450200553959
 33
0.0
 14
703.4319119057028
 24
205.0450200545952
 34
0.0
 50
270.0
100
AcDbRotatedDimension
1001
ACAD
1000
DSTYLE
1002
{
1070
    41
1040
1.0
1070
    44
1040
0.2
1070
   140
1040
1.199999999999999
1070
   147
1040
0.2
1002
}
  0
DIMENSION
  5
14B75
330
1F
100
AcDbEntity
  8
DIM
 62
     1
100
AcDbDimension
  2
*D2
 10
701.2612471054324
 20
205.7700200549958
 30
0.0
 11
701.2612471054324
 21
210.3843057692816
 31
0.0
 70
   160
  1
%%Cd
 71
     5
 42
1.75
 73
     0
 74
     0
 75
     0
  3
01
100
AcDbAlignedDimension
 13
703.7927558239466
 23
207.5200200549958
 33
0.0
 14
703.7927558239464
 24
205.7700200549958
 34
0.0
 50
270.0
100
AcDbRotatedDimension
1001
ACAD
1000
DSTYLE
1002
{
1070
    41
1040
1.0
1070
    44
1040
0.2
1070
   140
1040
1.199999999999999
1070
   147
1040
0.2
1002
}
  0
LINE
  5
14B76
102
{ACAD_REACTORS
330
14B59
102
}
330
1F
100
AcDbEntity
  8
CEN
100
AcDbLine
 10
702.5308892301496
 20
206.6450200549958
 30
0.0
 11
729.4324894011067
 21
206.6450200549958
 31
0.0
  0
LINE
  5
14B77
102
{ACAD_REACTORS
330
14B59
102
}
330
1F
100
AcDbEntity
  8
0
100
AcDbLine
 10
704.3164418518642
 20
205.1450200549958
 30
0.0
 11
708.4319119057022
 21
205.1450200549958
 31
0.0
  0
LINE
  5
14B78
102
{ACAD_REACTORS
330
14B59
102
}
330
1F
100
AcDbEntity
  8
0
100
AcDbLine
 10
704.3164418518649
 20
208.1450200549958
 30
0.0
 11
708.4319119057028
 21
208.1450200549958
 31
0.0
  0
LINE
  5
14B79
102
{ACAD_REACTORS
330
14B59
102
}
330
1F
100
AcDbEntity
  8
0
100
AcDbLine
 10
703.7927558239466
 20
205.7700200549958
 30
0.0
 11
711.431911905702
 21
205.7700200549958
 31
0.0
  0
LINE
  5
14B7A
102
{ACAD_REACTORS
330
14B59
102
}
330
1F
100
AcDbEntity
  8
0
100
AcDbLine
 10
703.7927558239466
 20
207.5200200549958
 30
0.0
 11
710.4819119057026
 21
207.5200200549958
 31
0.0
  0
LINE
  5
14B7B
102
{ACAD_REACTORS
330
14B59
102
}
330
1F
100
AcDbEntity
  8
0
100
AcDbLine
 10
711.3819119057028
 20
207.5200200549958
 30
0.0
 11
711.4319119057022
 21
207.5200200549958
 31
0.0
  0
LINE
  5
14B7C
102
{ACAD_REACTORS
330
14B59
102
}
330
1F
100
AcDbEntity
  8
0
100
AcDbLine
 10
710.4319119062031
 20
205.3800200549958
 30
0.0
 11
712.1319119072427
 21
205.3800200549958
 31
0.0
  0
LINE
  5
14B7D
330
1F
100
AcDbEntity
  8
0
100
AcDbLine
 10
713.7819119052029
 20
205.7450200549958
 30
0.0
 11
714.1319119052029
 21
205.7450200549958
 31
0.0
  0
LINE
  5
14B7E
330
1F
100
AcDbEntity
  8
DIM
100
AcDbLine
 10
727.1118074896515
 20
207.445020055196
 30
0.0
 11
726.8901128270097
 21
207.445020055196
 31
0.0
  0
ARC
  5
14B7F
330
1F
100
AcDbEntity
  8
0
100
AcDbCircle
 10
726.8901128270097
 20
206.845020054796
 30
0.0
 40
1.0
100
AcDbArc
 50
270.0
 51
295.0000000000068
  0
LINE
  5
14B80
330
1F
100
AcDbEntity
  8
0
100
AcDbLine
 10
728.2443380300646
 20
206.3731277188845
 30
0.0
 11
727.3127310887502
 21
205.9387122677591
 31
0.0
  0
LINE
  5
14B81
330
1F
100
AcDbEntity
  8
0
100
AcDbLine
 10
728.2443380300646
 20
206.9169123911066
 30
0.0
 11
727.3127310887502
 21
207.351327842232
 31
0.0
  0
LINE
  5
14B82
330
1F
100
AcDbEntity
  8
DIM
100
AcDbLine
 10
727.312731088751
 20
207.3513278422316
 30
0.0
 11
727.1118074896515
 21
207.445020055196
 31
0.0
  0
ARC
  5
14B83
330
1F
100
AcDbEntity
  8
0
100
AcDbCircle
 10
726.8901128270097
 20
206.4450200551956
 30
0.0
 40
1.0
100
AcDbArc
 50
64.99999999999315
 51
90.0
  0
ARC
  5
14B84
330
1F
100
AcDbEntity
  8
0
100
AcDbCircle
 10
728.1175525515428
 20
206.6450200549958
 30
0.0
 40
0.3
100
AcDbArc
 50
295.0000000000068
 51
64.99999999999315
  0
LINE
  5
14B85
102
{ACAD_REACTORS
330
14B59
102
}
330
1F
100
AcDbEntity
  8
0
100
AcDbLine
 10
710.4319119062031
 20
208.245020055396
 30
0.0
 11
709.8319119062033
 21
208.245020055396
 31
0.0
  0
LINE
  5
14B86
330
1F
100
AcDbEntity
  8
0
100
AcDbLine
 10
709.6319119062027
 20
208.245020055396
 30
0.0
 11
708.4319119057028
 21
208.245020055396
 31
0.0
  0
LINE
  5
14B87
102
{ACAD_REACTORS
330
14B59
102
}
330
1F
100
AcDbEntity
  8
0
100
AcDbLine
 10
711.4319119057028
 20
206.645020054996
 30
0.0
 11
711.431911905702
 21
205.7700200549958
 31
0.0
  0
LINE
  5
14B88
102
{ACAD_REACTORS
330
14B59
102
}
330
1F
100
AcDbEntity
  8
0
100
AcDbLine
 10
710.4319119062027
 20
207.9100200549958
 30
0.0
 11
710.4319119062031
 21
208.2450200553963
 31
0.0
  0
LINE
  5
14B89
102
{ACAD_REACTORS
330
14B59
102
}
330
1F
100
AcDbEntity
  8
0
100
AcDbLine
 10
711.3819119057028
 20
207.9100200549959
 30
0.0
 11
711.3819119057028
 21
207.5200200549958
 31
0.0
  0
LINE
  5
14B8A
330
1F
100
AcDbEntity
  8
0
100
AcDbLine
 10
710.4819119057026
 20
207.8950200568959
 30
0.0
 11
710.4819119057026
 21
207.5200200549958
 31
0.0
  0
LINE
  5
14B8B
102
{ACAD_REACTORS
330
14B59
102
}
330
1F
100
AcDbEntity
  8
0
100
AcDbLine
 10
711.431911905702
 20
205.9200200549958
 30
0.0
 11
711.8504908508636
 21
206.6450200549958
 31
0.0
  0
LINE
  5
14B8C
102
{ACAD_REACTORS
330
14B59
102
}
330
1F
100
AcDbEntity
  8
0
100
AcDbLine
 10
704.3164418518649
 20
208.1450200549958
 30
0.0
 11
704.2587068247151
 21
208.245020055396
 31
0.0
  0
ARC
  5
14B8D
330
1F
100
AcDbEntity
  8
0
100
AcDbCircle
 10
710.9319119074505
 20
209.2052924212201
 30
0.0
 40
1.371214972617714
100
AcDbArc
 50
250.8418897617235
 51
289.1581102382764
  0
ARC
  5
14B8E
330
1F
100
AcDbEntity
  8
0
100
AcDbCircle
 10
710.931911902456
 20
208.8152924577197
 30
0.0
 40
1.371215006604042
100
AcDbArc
 50
250.8418903214047
 51
289.1581096785953
  0
LINE
  5
14B8F
102
{ACAD_REACTORS
330
14B59
102
}
330
1F
100
AcDbEntity
  8
0
100
AcDbLine
 10
708.4319119057028
 20
208.245020055396
 30
0.0
 11
708.4319119057028
 21
208.1450200549958
 31
0.0
  0
LINE
  5
14B90
102
{ACAD_REACTORS
330
14B59
102
}
330
1F
100
AcDbEntity
  8
0
100
AcDbLine
 10
710.4319119062027
 20
205.0450200545955
 30
0.0
 11
709.8319119062033
 21
205.0450200545956
 31
0.0
  0
LINE
  5
14B91
102
{ACAD_REACTORS
330
14B59
102
}
330
1F
100
AcDbEntity
  8
0
100
AcDbLine
 10
709.6319119062027
 20
205.0450200545956
 30
0.0
 11
708.4319119057022
 21
205.0450200545957
 31
0.0
  0
LINE
  5
14B92
102
{ACAD_REACTORS
330
14B59
102
}
330
1F
100
AcDbEntity
  8
0
100
AcDbLine
 10
710.4319119062027
 20
205.3800200549958
 30
0.0
 11
710.4319119062027
 21
205.0450200545952
 31
0.0
  0
LINE
  5
14B93
102
{ACAD_REACTORS
330
14B59
102
}
330
1F
100
AcDbEntity
  8
0
100
AcDbLine
 10
704.3164418518642
 20
205.1450200549958
 30
0.0
 11
704.2587068247146
 21
205.0450200545962
 31
0.0
  0
LINE
  5
14B94
102
{ACAD_REACTORS
330
14B59
102
}
330
1F
100
AcDbEntity
  8
0
100
AcDbLine
 10
708.4319119057022
 20
205.0450200545958
 30
0.0
 11
708.4319119057022
 21
205.1450200549958
 31
0.0
  0
LINE
  5
14B95
102
{ACAD_REACTORS
330
14B59
102
}
330
1F
100
AcDbEntity
  8
0
100
AcDbLine
 10
710.4819119057022
 20
207.9100200562104
 30
0.0
 11
710.4819119057022
 21
207.5200200549958
 31
0.0
  0
LINE
  5
14B96
330
1F
100
AcDbEntity
  8
CEN
100
AcDbLine
 10
710.9319119057022
 20
206.9282001317518
 30
0.0
 11
710.9319119057022
 21
208.1635626339978
 31
0.0
  0
DIMENSION
  5
14B97
330
1F
100
AcDbEntity
  8
DIM
 62
     1
100
AcDbDimension
  2
*D3
 10
706.573664911886
 20
205.1450200549958
 30
0.0
 11
706.573664911886
 21
202.30073434071
 31
0.0
 70
   160
  1
%%CD
 71
     5
 42
3.0
 73
     0
 74
     0
 75
     0
  3
01
100
AcDbAlignedDimension
 13
706.3741768787841
 23
208.1450200549958
 33
0.0
 14
706.4319119057024
 24
205.1450200549958
 34
0.0
 50
90.0
100
AcDbRotatedDimension
1001
ACAD
1000
DSTYLE
1002
{
1070
    41
1040
1.0
1070
    44
1040
0.2
1070
   140
1040
1.199999999999999
1070
   147
1040
0.2
1002
}
  0
LINE
  5
14B98
330
1F
100
AcDbEntity
  8
0
100
AcDbLine
 10
713.7819119052029
 20
207.5450200549958
 30
0.0
 11
714.1319119052029
 21
207.5450200549958
 31
0.0
  0
LINE
  5
14B99
102
{ACAD_REACTORS
330
14B59
102
}
330
1F
100
AcDbEntity
  8
0
100
AcDbLine
 10
703.4319119057028
 20
205.1450200549962
 30
0.0
 11
703.7927558239466
 21
205.7700200549958
 31
0.0
  0
LINE
  5
14B9A
330
1F
100
AcDbEntity
  8
0
100
AcDbLine
 10
703.7927558239464
 20
205.7700200549958
 30
0.0
 11
703.7927558239474
 21
206.7950200549959
 31
0.0
  0
LINE
  5
14B9B
330
1F
100
AcDbEntity
  8
0
100
AcDbLine
 10
711.431911905702
 20
206.6450200549958
 30
0.0
 11
711.431911905702
 21
207.0950200549958
 31
0.0
  0
LINE
  5
14B9C
102
{ACAD_REACTORS
330
14B59
102
}
330
1F
100
AcDbEntity
  8
0
100
AcDbLine
 10
710.4319119062031
 20
207.9100200549958
 30
0.0
 11
710.4819119091983
 21
207.9100200549958
 31
0.0
  0
LINE
  5
14B9D
102
{ACAD_REACTORS
330
14B59
102
}
330
1F
100
AcDbEntity
  8
0
100
AcDbLine
 10
711.381911905702
 20
207.9100200549958
 30
0.0
 11
712.1319119072427
 21
207.9100200549958
 31
0.0
  0
LINE
  5
14B9E
330
1F
100
AcDbEntity
  8
0
100
AcDbLine
 10
711.431911905702
 20
206.6450200549958
 30
0.0
 11
711.431911905702
 21
207.3700200549958
 31
0.0
  0
LINE
  5
14B9F
102
{ACAD_REACTORS
330
14B59
330
14BA5
102
}
330
1F
100
AcDbEntity
  8
0
100
AcDbLine
 10
711.4319119057028
 20
206.6450200549956
 30
0.0
 11
711.4319119057022
 21
207.5200200549958
 31
0.0
  0
LINE
  5
14BA0
102
{ACAD_REACTORS
330
14B59
102
}
330
1F
100
AcDbEntity
  8
0
100
AcDbLine
 10
711.431911905702
 20
207.3700200549958
 30
0.0
 11
711.8504908508636
 21
206.6450200549958
 31
0.0
  0
LINE
  5
14BA1
102
{ACAD_REACTORS
330
14B59
102
}
330
1F
100
AcDbEntity
  8
0
100
AcDbLine
 10
703.4319119057028
 20
208.1450200549954
 30
0.0
 11
703.7927558239466
 21
207.5200200549958
 31
0.0
  0
LINE
  5
14BA2
330
1F
100
AcDbEntity
  8
0
100
AcDbLine
 10
703.7927558239466
 20
207.5200200549958
 30
0.0
 11
703.7927558239474
 21
206.7950200549958
 31
0.0
  0
DIMENSION
  5
14BA3
102
{ACAD_XDICTIONARY
360
14BA4
102
}
102
{ACAD_REACTORS
330
14BA5
102
}
330
1F
100
AcDbEntity
  8
DIM
 62
     1
100
AcDbDimension
  2
*D6
 10
711.4319119057022
 20
210.7615567261987
 30
0.0
 11
707.4319119057028
 21
211.5615567261987
 31
0.0
 70
    32
 71
     5
 42
7.999999999999543
 73
     0
 74
     0
 75
     0
  3
01
100
AcDbAlignedDimension
 13
703.4319119057028
 23
209.8939815108113
 33
0.0
 14
711.4319119057022
 24
207.5200200549958
 34
0.0
100
AcDbRotatedDimension
1001
ACAD
1000
DSTYLE
1002
{
1070
    41
1040
1.0
1070
    44
1040
0.2
1070
   140
1040
1.199999999999999
1070
   147
1040
0.2
1002
}
  0
SPLINE
  5
14D13
330
1F
100
AcDbEntity
  8
0
100
AcDbSpline
210
0.0
220
0.0
230
1.0
 70
     8
 71
     3
 72
     9
 73
     5
 74
     3
 42
0.0000000001
 43
0.0000000001
 44
0.0000000001
 12
-0.8754276894017763
 22
-0.4833491084388874
 32
0.0
 13
-0.835175511734948
 23
0.5499835130240435
 33
0.0
 40
0.0
 40
0.0
 40
0.0
 40
0.0
 40
0.0827717597361867
 40
0.1287137485351016
 40
0.1287137485351016
 40
0.1287137485351016
 40
0.1287137485351016
 10
697.3463999068077
 20
192.7577642380888
 30
0.0
 10
697.3222463433499
 20
192.7444283526646
 30
0.0
 10
697.2832387238829
 20
192.7235733206865
 30
0.0
 10
697.2367068615962
 20
192.7291155133405
 30
0.0
 10
697.2239169869277
 20
192.7375379588055
 30
0.0
 11
697.3463999068077
 21
192.7577642380888
 31
0.0
 11
697.2689656454205
 21
192.7285221558572
 31
0.0
 11
697.2239169869277
 21
192.7375379588055
 31
0.0
  0
SPLINE
  5
14D14
330
1F
100
AcDbEntity
  8
0
100
AcDbSpline
210
0.0
220
0.0
230
1.0
 70
     8
 71
     3
 72
    19
 73
    15
 74
    13
 42
0.0000000001
 43
0.0000000001
 44
0.0000000001
 12
0.8754276874351161
 22
0.4833491120008442
 32
0.0
 13
-0.7953120721302828
 23
0.6062002209862976
 33
0.0
 40
0.0
 40
0.0
 40
0.0
 40
0.0
 40
0.14672797393791
 40
0.334570954865034
 40
0.5558607585819894
 40
0.8005469873476375
 40
1.05712484675101
 40
1.313388573785297
 40
1.557150674356716
 40
1.776961729044929
 40
1.962867652452774
 40
2.107355785051883
 40
2.207228940359997
 40
2.269275304198768
 40
2.269275304198768
 40
2.269275304198768
 40
2.269275304198768
 10
691.1931431164697
 20
197.0250093978665
 30
0.0
 10
691.2359596934385
 20
197.0486496765026
 30
0.0
 10
691.3273433324284
 20
197.1135525629022
 30
0.0
 10
691.4662572910276
 20
197.2363254347821
 30
0.0
 10
691.618380701871
 20
197.3926676580102
 30
0.0
 10
691.776018367063
 20
197.5749009687442
 30
0.0
 10
691.93130143229
 20
197.7741582244285
 30
0.0
 10
692.0764393205306
 20
197.9805299572875
 30
0.0
 10
692.2043439489859
 20
198.1837035431121
 30
0.0
 10
692.3084660799989
 20
198.3736430419497
 30
0.0
 10
692.3849685870916
 20
198.5406779635974
 30
0.0
 10
692.4282280557603
 20
198.6778511877585
 30
0.0
 10
692.4442479142712
 20
198.779308319963
 30
0.0
 10
692.4230508632477
 20
198.8354569072225
 30
0.0
 10
692.4066021225168
 20
198.8479944137127
 30
0.0
 11
691.1931431164697
 21
197.0250093978665
 31
0.0
 11
691.31461856506
 21
197.1073065042903
 31
0.0
 11
691.4564119322728
 21
197.2305121311831
 31
0.0
 11
691.6114131088837
 21
197.3884482337002
 31
0.0
 11
691.7718496857502
 21
197.573195237332
 31
0.0
 11
691.9296767058332
 21
197.7754891563403
 31
0.0
 11
692.0769800627367
 21
197.9851861254134
 31
0.0
 11
692.2063733521341
 21
198.1917710675896
 31
0.0
 11
692.3113682513132
 21
198.3848849482649
 31
0.0
 11
692.386699877332
 21
198.5548442330348
 31
0.0
 11
692.4285907925852
 21
198.6931264505511
 31
0.0
 11
692.4349404063017
 21
198.7927975574821
 31
0.0
 11
692.4066021225168
 21
198.8479944137127
 31
0.0
  0
SPLINE
  5
14D15
330
1F
100
AcDbEntity
  8
0
100
AcDbSpline
210
0.0
220
0.0
230
1.0
 70
     8
 71
     3
 72
    22
 73
    18
 74
    16
 42
0.0000000001
 43
0.0000000001
 44
0.0000000001
 12
-0.9943330378783949
 22
0.1063099702921711
 32
0.0
 13
0.8754277012683346
 23
0.4833490869465252
 33
0.0
 40
0.0
 40
0.0
 40
0.0
 40
0.0
 40
0.0169180325232062
 40
0.0658659894365384
 40
0.1345019751602445
 40
0.2346166551979667
 40
0.3663474917785151
 40
0.527303382467839
 40
0.7132704542928511
 40
0.9168738863802197
 40
1.129600597410808
 40
1.344755668829777
 40
1.556221438158237
 40
1.755773093345223
 40
1.933631157010138
 40
2.082069602678698
 40
2.196998173737155
 40
2.196998173737155
 40
2.196998173737155
 40
2.196998173737155
 10
691.0968560777519
 20
197.0295756078859
 30
0.0
 10
691.0912486915273
 20
197.0301751263975
 30
0.0
 10
691.0695605932824
 20
197.035229100009
 30
0.0
 10
691.0351131971038
 20
197.0713925798689
 30
0.0
 10
691.0349392024231
 20
197.1476241376645
 30
0.0
 10
691.0552540526199
 20
197.2449225324706
 30
0.0
 10
691.1009401084239
 20
197.3684747363098
 30
0.0
 10
691.1688719702537
 20
197.5127721455441
 30
0.0
 10
691.2578393567378
 20
197.6734694036492
 30
0.0
 10
691.3641654380869
 20
197.8438350114925
 30
0.0
 10
691.4837318317677
 20
198.017165881249
 30
0.0
 10
691.6122466397484
 20
198.1872525335358
 30
0.0
 10
691.745323530146
 20
198.348149598069
 30
0.0
 10
691.8776486590741
 20
198.4932432480489
 30
0.0
 10
692.0030473149412
 20
198.6159177602613
 30
0.0
 10
692.1155228707434
 20
198.7108511746388
 30
0.0
 10
692.1882494047519
 20
198.7606235825199
 30
0.0
 10
692.2217866230091
 20
198.779140455815
 30
0.0
 11
691.0968560777519
 21
197.0295756078859
 31
0.0
 11
691.080425222323
 21
197.0336063416071
 31
0.0
 11
691.0453577646952
 21
197.0677556593384
 31
0.0
 11
691.0368740309897
 21
197.1358653120954
 31
0.0
 11
691.0552219424781
 21
197.2342843311063
 31
0.0
 11
691.0990596409336
 21
197.3585069920838
 31
0.0
 11
691.1667920469977
 21
197.504517676338
 31
0.0
 11
691.2563146452959
 21
197.6675190757096
 31
0.0
 11
691.3638301027049
 21
197.8404201571865
 31
0.0
 11
691.4845060200522
 21
198.015605706129
 31
0.0
 11
691.6142376941421
 21
198.187248933479
 31
0.0
 11
691.7491811428223
 21
198.350061823804
 31
0.0
 11
691.8839753394763
 21
198.497205928804
 31
0.0
 11
692.0116574975227
 21
198.6210233642776
 31
0.0
 11
692.125840820083
 21
198.7158713531946
 31
0.0
 11
692.2217866230091
 21
198.779140455815
 31
0.0
  0
SPLINE
  5
14D16
330
1F
100
AcDbEntity
  8
0
100
AcDbSpline
210
0.0
220
0.0
230
1.0
 70
     8
 71
     3
 72
    10
 73
     6
 74
     4
 42
0.0000000001
 43
0.0000000001
 44
0.0000000001
 12
-0.8754276886621536
 22
-0.4833491097784702
 32
0.0
 13
-0.7953120692931933
 23
0.6062002247084532
 33
0.0
 40
0.0
 40
0.0
 40
0.0
 40
0.0
 40
0.1021079663637725
 40
0.1667214274402065
 40
0.1681780306940624
 40
0.1681780306940624
 40
0.1681780306940624
 40
0.1681780306940624
 10
693.9544623584634
 20
194.974455159537
 30
0.0
 10
693.9246663114674
 20
194.9580038946559
 30
0.0
 10
693.8753992010369
 20
194.9328883957326
 30
0.0
 10
693.8124614963442
 20
194.9343207525971
 30
0.0
 10
693.7947204551981
 20
194.9474060148158
 30
0.0
 10
693.7943343038156
 20
194.9477003458891
 30
0.0
 11
693.9544623584634
 21
194.974455159537
 31
0.0
 11
693.8593961168968
 21
194.9371932955289
 31
0.0
 11
693.7955061001003
 21
194.9468351369511
 31
0.0
 11
693.7943343038156
 21
194.9477003458891
 31
0.0
  0
SPLINE
  5
14D17
330
1F
100
AcDbEntity
  8
0
100
AcDbSpline
210
0.0
220
0.0
230
1.0
 70
     8
 71
     3
 72
    11
 73
     7
 74
     5
 42
0.0000000001
 43
0.0000000001
 44
0.0000000001
 12
0.8754276927496482
 22
0.4833491023753202
 32
0.0
 13
0.4371230271640349
 23
-0.8994017228819114
 33
0.0
 40
0.0
 40
0.0
 40
0.0
 40
0.0
 40
0.0849607362013685
 40
0.1440291687301758
 40
0.1929771256082517
 40
0.1938117485071457
 40
0.1938117485071457
 40
0.1938117485071457
 40
0.1938117485071457
 10
692.2217866230091
 20
198.779140455815
 30
0.0
 10
692.2465789500981
 20
198.7928290210083
 30
0.0
 10
692.2892628747974
 20
198.8128746263201
 30
0.0
 10
692.3587382410619
 20
198.8225707029922
 30
0.0
 10
692.3871773469755
 20
198.7928702435651
 30
0.0
 10
692.3945067763951
 20
198.7779949214492
 30
0.0
 10
692.3946283873577
 20
198.7777447010248
 30
0.0
 11
692.2217866230091
 21
198.779140455815
 31
0.0
 11
692.3001268005927
 21
198.8120211989946
 31
0.0
 11
692.3591919638442
 21
198.8126426581527
 31
0.0
 11
692.3942594196421
 21
198.7784933385928
 31
0.0
 11
692.3946283873577
 21
198.7777447010248
 31
0.0
  0
SPLINE
  5
14D18
330
1F
100
AcDbEntity
  8
0
100
AcDbSpline
210
0.0
220
0.0
230
1.0
 70
     8
 71
     3
 72
    10
 73
     6
 74
     4
 42
0.0000000001
 43
0.0000000001
 44
0.0000000001
 12
-0.8754276886621536
 22
-0.4833491097784702
 32
0.0
 13
-0.7953120692931933
 23
0.6062002247084532
 33
0.0
 40
0.0
 40
0.0
 40
0.0
 40
0.0
 40
0.1021079663634903
 40
0.1667214274404143
 40
0.1681780306936947
 40
0.1681780306936947
 40
0.1681780306936947
 40
0.1681780306936947
 10
691.1931431164697
 20
197.0250093978665
 30
0.0
 10
691.1633470694738
 20
197.0085581329854
 30
0.0
 10
691.1140799590452
 20
196.9834426340652
 30
0.0
 10
691.0511422543478
 20
196.9848749909237
 30
0.0
 10
691.0334012132046
 20
196.9979602531452
 30
0.0
 10
691.0330150618221
 20
196.9982545842184
 30
0.0
 11
691.1931431164697
 21
197.0250093978665
 31
0.0
 11
691.0980768749033
 21
196.9877475338589
 31
0.0
 11
691.0341868581062
 21
196.9973893752806
 31
0.0
 11
691.0330150618221
 21
196.9982545842184
 31
0.0
  0
SPLINE
  5
14D19
330
1F
100
AcDbEntity
  8
0
100
AcDbSpline
210
0.0
220
0.0
230
1.0
 70
     8
 71
     3
 72
    17
 73
    13
 74
    11
 42
0.0000000001
 43
0.0000000001
 44
0.0000000001
 12
0.875427687319704
 22
0.4833491122098751
 32
0.0
 13
-0.4150857200972829
 23
0.9097823063630771
 33
0.0
 40
0.0
 40
0.0
 40
0.0
 40
0.0
 40
0.08764637458066
 40
0.2024969122230466
 40
0.3379381744021273
 40
0.4854577593636781
 40
0.6355509218816737
 40
0.7785085780619705
 40
0.9051937419137352
 40
1.007860055984232
 40
1.081254079338318
 40
1.117497884077514
 40
1.117497884077514
 40
1.117497884077514
 40
1.117497884077514
 10
704.7558909785757
 20
187.5979281693644
 30
0.0
 10
704.781466999576
 20
187.612049435145
 30
0.0
 10
704.8361315171664
 20
187.6523727158888
 30
0.0
 10
704.918826902613
 20
187.728924867499
 30
0.0
 10
705.0088050202334
 20
187.8265250122607
 30
0.0
 10
705.0998932872649
 20
187.9386052152746
 30
0.0
 10
705.1858993677661
 20
188.0577231059768
 30
0.0
 10
705.2611146995363
 20
188.1758766123495
 30
0.0
 10
705.3203422078556
 20
188.2848637892167
 30
0.0
 10
705.3607540148442
 20
188.3780811629866
 30
0.0
 10
705.3781617577916
 20
188.4461020876585
 30
0.0
 10
705.3787762026025
 20
188.4845620821777
 30
0.0
 10
705.3737614406728
 20
188.4955534062667
 30
0.0
 11
704.7558909785757
 21
187.5979281693644
 31
0.0
 11
704.8278299355358
 21
187.6479948593752
 31
0.0
 11
704.912812064174
 21
187.7252521166967
 31
0.0
 11
705.0050459718573
 21
187.8244349870633
 31
0.0
 11
705.0982460674987
 21
187.9387843207721
 31
0.0
 11
705.186060921383
 21
188.0605074035129
 31
0.0
 11
705.2625060945785
 21
188.1813090051401
 31
0.0
 11
705.3223719759645
 21
188.2929566965001
 31
0.0
 11
705.3615788053487
 21
188.3878418722361
 31
0.0
 11
705.3774547004442
 21
188.4594982649657
 31
0.0
 11
705.3737614406728
 21
188.4955534062667
 31
0.0
  0
SPLINE
  5
14D1A
330
1F
100
AcDbEntity
  8
0
100
AcDbSpline
210
0.0
220
0.0
230
1.0
 70
     8
 71
     3
 72
    17
 73
    13
 74
    11
 42
0.0000000001
 43
0.0000000001
 44
0.0000000001
 12
0.8754276876050573
 22
0.4833491116930519
 32
0.0
 13
-0.2990217411305899
 23
0.9542462985682631
 33
0.0
 40
0.0
 40
0.0
 40
0.0
 40
0.0
 40
0.0876463750372015
 40
0.2024969126798978
 40
0.3379381736133244
 40
0.4854577611478562
 40
0.6355509221831106
 40
0.7785085783635372
 40
0.9051937422150801
 40
1.007860057975522
 40
1.081254081329601
 40
1.112989102057416
 40
1.112989102057416
 40
1.112989102057416
 40
1.112989102057416
 10
697.9934765079016
 20
192.6196936511372
 30
0.0
 10
698.0190525290435
 20
192.6338149169763
 30
0.0
 10
698.0737170560241
 20
192.6741382140941
 30
0.0
 10
698.156412398187
 20
192.7506902486267
 30
0.0
 10
698.2463907118824
 20
192.848290946081
 30
0.0
 10
698.3374781530256
 20
192.9603688369515
 30
0.0
 10
698.4234873681447
 20
193.0794954937895
 30
0.0
 10
698.4986919280271
 20
193.1976188607644
 30
0.0
 10
698.5579527179411
 20
193.3066991626045
 30
0.0
 10
698.5982742309029
 20
193.3996638840648
 30
0.0
 10
698.6155073077979
 20
193.4667859409407
 30
0.0
 10
698.616179053679
 20
193.502839795021
 30
0.0
 10
698.6130158999614
 20
193.5129341370425
 30
0.0
 11
697.9934765079016
 21
192.6196936511372
 31
0.0
 11
698.0654154666906
 21
192.6697603393192
 31
0.0
 11
698.1503975953293
 21
192.7470175966408
 31
0.0
 11
698.2426315011836
 21
192.8462004670071
 31
0.0
 11
698.3358315986537
 21
192.9605498025448
 31
0.0
 11
698.4236464525385
 21
193.082272883457
 31
0.0
 11
698.5000916257336
 21
193.2030744850845
 31
0.0
 11
698.5599575071197
 21
193.3147221764442
 31
0.0
 11
698.5991643365037
 21
193.4096073540088
 31
0.0
 11
698.6150402315994
 21
193.4812637467384
 31
0.0
 11
698.6130158999614
 21
193.5129341370425
 31
0.0
  0
SPLINE
  5
14D1B
330
1F
100
AcDbEntity
  8
0
100
AcDbSpline
210
0.0
220
0.0
230
1.0
 70
     8
 71
     3
 72
    18
 73
    14
 74
    12
 42
0.0000000001
 43
0.0000000001
 44
0.0000000001
 12
0.8754276874214127
 22
0.4833491120256634
 32
0.0
 13
-0.2810371795378294
 23
0.9596968811647883
 33
0.0
 40
0.0
 40
0.0
 40
0.0
 40
0.0
 40
0.1223259357557082
 40
0.2807034051725437
 40
0.4674979584869298
 40
0.6727853423627131
 40
0.8853282467763063
 40
1.093396596477772
 40
1.285562980562961
 40
1.451511658592295
 40
1.582951640463945
 40
1.675100698883936
 40
1.704192990400344
 40
1.704192990400344
 40
1.704192990400344
 40
1.704192990400344
 10
697.5154602687116
 20
192.6322201008617
 30
0.0
 10
697.5511561057284
 20
192.6519288116701
 30
0.0
 10
697.6274131047877
 20
192.7070545711745
 30
0.0
 10
697.7430978937861
 20
192.8115757615879
 30
0.0
 10
697.8694890542972
 20
192.944839374128
 30
0.0
 10
697.9991821495535
 20
193.0992290505218
 30
0.0
 10
698.1246635412124
 20
193.2660271069961
 30
0.0
 10
698.2387234285424
 20
193.4356230030419
 30
0.0
 10
698.3347482709657
 20
193.5981587718919
 30
0.0
 10
698.4078428026342
 20
193.7444912349051
 30
0.0
 10
698.4533758565962
 20
193.8659038461166
 30
0.0
 10
698.4710172678558
 20
193.9498110695665
 30
0.0
 10
698.4658410331244
 20
193.9903700643847
 30
0.0
 10
698.4631156946063
 20
193.9996766581961
 30
0.0
 11
697.5154602687116
 21
192.6322201008617
 31
0.0
 11
697.6163286891739
 21
192.7014241203401
 31
0.0
 11
697.7347691655255
 21
192.8065681947355
 31
0.0
 11
697.8638983670585
 21
192.9415417271756
 31
0.0
 11
697.9962117727388
 21
193.0985005518905
 31
0.0
 11
698.1240198070892
 21
193.2683227900457
 31
0.0
 11
698.2398947367308
 21
193.441138989599
 31
0.0
 11
698.3371023257038
 21
193.6069057046489
 31
0.0
 11
698.4099932279279
 21
193.7559891715815
 31
0.0
 11
698.4543312842342
 21
193.8797252035099
 31
0.0
 11
698.4675397318848
 21
193.9709227137739
 31
0.0
 11
698.4631156946063
 21
193.9996766581961
 31
0.0
  0
SPLINE
  5
14D1C
330
1F
100
AcDbEntity
  8
0
100
AcDbSpline
210
0.0
220
0.0
230
1.0
 70
     8
 71
     3
 72
    19
 73
    15
 74
    13
 42
0.0000000001
 43
0.0000000001
 44
0.0000000001
 12
0.8754276876509774
 22
0.4833491116098828
 32
0.0
 13
-0.8351755121035115
 23
0.5499835124643623
 33
0.0
 40
0.0
 40
0.0
 40
0.0
 40
0.0
 40
0.1223259357553599
 40
0.2807034039588357
 40
0.4674979585939222
 40
0.6727853424700041
 40
0.8853282479836044
 40
1.09339659666689
 40
1.285562979173754
 40
1.45151165884626
 40
1.582951640717705
 40
1.675100699137924
 40
1.731637810811473
 40
1.73724114647715
 40
1.73724114647715
 40
1.73724114647715
 40
1.73724114647715
 10
697.3463999068077
 20
192.7577642380888
 30
0.0
 10
697.3820957438337
 20
192.7774729488802
 30
0.0
 10
697.4583527437363
 20
192.8325987449064
 30
0.0
 10
697.5740375257171
 20
192.9371197156833
 30
0.0
 10
697.7004287260149
 20
193.070384346263
 30
0.0
 10
697.830121644149
 20
193.2247696990834
 30
0.0
 10
697.9556037306434
 20
193.3915846080367
 30
0.0
 10
698.0696611320893
 20
193.5611200654842
 30
0.0
 10
698.165694140838
 20
193.7238546044797
 30
0.0
 10
698.238764355191
 20
193.8695950531834
 30
0.0
 10
698.2843613475901
 20
193.9925643670987
 30
0.0
 10
698.3037752359896
 20
194.0820880649398
 30
0.0
 10
698.2934929261825
 20
194.1394953664986
 30
0.0
 10
698.2768992578917
 20
194.1522020186913
 30
0.0
 10
698.2753393349803
 20
194.1532292661016
 30
0.0
 11
697.3463999068077
 21
192.7577642380888
 31
0.0
 11
697.4472683272697
 21
192.8269682575669
 31
0.0
 11
697.565708803622
 21
192.932112330134
 31
0.0
 11
697.6948380051545
 21
193.0670858644023
 31
0.0
 11
697.827151410835
 21
193.2240446891174
 31
0.0
 11
697.9549594470142
 21
193.3938669272729
 31
0.0
 11
698.0708343748268
 21
193.5666831268267
 31
0.0
 11
698.1680419637997
 21
193.732449840047
 31
0.0
 11
698.2409328660232
 21
193.8815333088089
 31
0.0
 11
698.2852709223308
 21
194.0052693407367
 31
0.0
 11
698.2984793699808
 21
194.096466851001
 31
0.0
 11
698.2797905793164
 21
194.1498257687177
 31
0.0
 11
698.2753393349803
 21
194.1532292661016
 31
0.0
  0
SPLINE
  5
14D1D
330
1F
100
AcDbEntity
  8
0
100
AcDbSpline
210
0.0
220
0.0
230
1.0
 70
     8
 71
     3
 72
    18
 73
    14
 74
    12
 42
0.0000000001
 43
0.0000000001
 44
0.0000000001
 12
0.8754276877391648
 22
0.4833491114501607
 32
0.0
 13
-0.8506056208650335
 23
0.5258042199838366
 33
0.0
 40
0.0
 40
0.0
 40
0.0
 40
0.0
 40
0.0958632233145672
 40
0.2214809980117525
 40
0.3696198774173355
 40
0.5309694260419932
 40
0.69513382120847
 40
0.8514937576694414
 40
0.9900556565856708
 40
1.102346936436897
 40
1.182621650385992
 40
1.231154943984244
 40
1.240725880832368
 40
1.240725880832368
 40
1.240725880832368
 40
1.240725880832368
 10
697.46160797916
 20
192.9542269167401
 30
0.0
 10
697.4895817524685
 20
192.9696720513434
 30
0.0
 10
697.5493710722371
 20
193.0137755543406
 30
0.0
 10
697.6398191424283
 20
193.0975049654881
 30
0.0
 10
697.738232737787
 20
193.2042528218826
 30
0.0
 10
697.8378604001512
 20
193.3268502024996
 30
0.0
 10
697.9319300463055
 20
193.4570987661782
 30
0.0
 10
698.0141951089663
 20
193.5864550949417
 30
0.0
 10
698.078980475178
 20
193.7052707113456
 30
0.0
 10
698.1231665631403
 20
193.8082828920174
 30
0.0
 10
698.1429681697736
 20
193.8831107085374
 30
0.0
 10
698.1429046375041
 20
193.9360357273102
 30
0.0
 10
698.1274259633098
 20
193.9485958070852
 30
0.0
 10
698.1247122657499
 20
193.9502732867465
 30
0.0
 11
697.46160797916
 21
192.9542269167401
 31
0.0
 11
697.5402912158492
 21
193.0089873572822
 31
0.0
 11
697.6332404184187
 21
193.0934874819068
 31
0.0
 11
697.7341212527752
 21
193.2019687468841
 31
0.0
 11
697.8360588592122
 21
193.3270383324566
 31
0.0
 11
697.9321063543917
 21
193.4601729534615
 31
0.0
 11
698.0157182637741
 21
193.5922997044982
 31
0.0
 11
698.0811965714253
 21
193.7144143680665
 31
0.0
 11
698.1240790400926
 21
193.8181950281705
 31
0.0
 11
698.1414433004107
 21
193.8965692086333
 31
0.0
 11
698.1321060072232
 21
193.9441958350457
 31
0.0
 11
698.1247122657499
 21
193.9502732867465
 31
0.0
  0
SPLINE
  5
14D1E
330
1F
100
AcDbEntity
  8
0
100
AcDbSpline
210
0.0
220
0.0
230
1.0
 70
     8
 71
     3
 72
     9
 73
     5
 74
     3
 42
0.0000000001
 43
0.0000000001
 44
0.0000000001
 12
-0.8754276841497944
 22
-0.4833491179511222
 32
0.0
 13
-0.8506056186638359
 23
0.5258042235447649
 33
0.0
 40
0.0
 40
0.0
 40
0.0
 40
0.0
 40
0.0627752134892084
 40
0.0917852890840868
 40
0.0917852890840868
 40
0.0917852890840868
 40
0.0917852890840868
 10
697.46160797916
 20
192.9542269167401
 30
0.0
 10
697.443289592571
 20
192.9441128020503
 30
0.0
 10
697.4145448477935
 20
192.9276819526014
 30
0.0
 10
697.3827694339242
 20
192.9354093980695
 30
0.0
 10
697.374544056158
 20
192.9404939381606
 30
0.0
 11
697.46160797916
 21
192.9542269167401
 31
0.0
 11
697.402552843219
 21
192.9329379912715
 31
0.0
 11
697.374544056158
 21
192.9404939381606
 31
0.0
  0
SPLINE
  5
14D1F
330
1F
100
AcDbEntity
  8
0
100
AcDbSpline
210
0.0
220
0.0
230
1.0
 70
     8
 71
     3
 72
    12
 73
     8
 74
     6
 42
0.0000000001
 43
0.0000000001
 44
0.0000000001
 12
0.2924484276269705
 22
0.9562812960518012
 32
0.0
 13
-0.8028428605125748
 23
0.5961906920809703
 33
0.0
 40
0.0
 40
0.0
 40
0.0
 40
0.0
 40
0.0692980060579315
 40
0.1687779323961951
 40
0.2705998479693124
 40
0.3730351572265071
 40
0.4741902248107764
 40
0.4741902248107764
 40
0.4741902248107764
 40
0.4741902248107764
 10
696.2575851988941
 20
194.6427915664266
 30
0.0
 10
696.2643405631972
 20
194.6648810287755
 30
0.0
 10
696.27517686152
 20
194.7205202630503
 30
0.0
 10
696.2711838590117
 20
194.8117207639653
 30
0.0
 10
696.240898671904
 20
194.9094574266917
 30
0.0
 10
696.1872730387376
 20
194.9971687342424
 30
0.0
 10
696.1379711376248
 20
195.0450794728346
 30
0.0
 10
696.1109005963533
 20
195.0651820427515
 30
0.0
 11
696.2575851988941
 21
194.6427915664266
 31
0.0
 11
696.2709923932126
 21
194.7107802477207
 31
0.0
 11
696.2670420480528
 21
194.810181709065
 31
0.0
 11
696.2371085203149
 21
194.9075042984682
 31
0.0
 11
696.1836168445199
 21
194.9948635178057
 31
0.0
 11
696.1109005963533
 21
195.0651820427515
 31
0.0
  0
SPLINE
  5
14D20
330
1F
100
AcDbEntity
  8
0
100
AcDbSpline
210
0.0
220
0.0
230
1.0
 70
     8
 71
     3
 72
    19
 73
    15
 74
    13
 42
0.0000000001
 43
0.0000000001
 44
0.0000000001
 12
0.8754276874351161
 22
0.4833491120008442
 32
0.0
 13
-0.7953120721302828
 23
0.6062002209862976
 33
0.0
 40
0.0
 40
0.0
 40
0.0
 40
0.0
 40
0.1467279739379404
 40
0.3345709548653292
 40
0.5558607573014962
 40
0.8005469872654661
 40
1.057124846668771
 40
1.313388575200262
 40
1.557150673250723
 40
1.776961727938915
 40
1.962867652087259
 40
2.107355786437178
 40
2.207228939920311
 40
2.269275305386196
 40
2.269275305386196
 40
2.269275305386196
 40
2.269275305386196
 10
693.9544623584634
 20
194.974455159537
 30
0.0
 10
693.9972789354321
 20
194.9980954381732
 30
0.0
 10
694.0886625743482
 20
195.0629983246437
 30
0.0
 10
694.2275765330655
 20
195.1857711958196
 30
0.0
 10
694.379699941881
 20
195.3421134209565
 30
0.0
 10
694.5373376092559
 20
195.5243467296882
 30
0.0
 10
694.6926206747243
 20
195.7236039864254
 30
0.0
 10
694.8377585616395
 20
195.9299757197645
 30
0.0
 10
694.9656631897068
 20
196.1331493054569
 30
0.0
 10
695.0697853195622
 20
196.3230888041786
 30
0.0
 10
695.1462878297784
 20
196.4901237252599
 30
0.0
 10
695.1895472975607
 20
196.6272969502969
 30
0.0
 10
695.2055671555938
 20
196.7287540825064
 30
0.0
 10
695.1843701056725
 20
196.7849026703931
 30
0.0
 10
695.1679213645101
 20
196.7974401772121
 30
0.0
 11
693.9544623584634
 21
194.974455159537
 31
0.0
 11
694.0759378070537
 21
195.0567522659607
 31
0.0
 11
694.2177311742668
 21
195.1799578928536
 31
0.0
 11
694.3727323490491
 21
195.3378939953708
 31
0.0
 11
694.5331689277436
 21
195.5226409990022
 31
0.0
 11
694.6909959478266
 21
195.7249349180104
 31
0.0
 11
694.8382993047306
 21
195.9346318889129
 31
0.0
 11
694.9676925922987
 21
196.1412168292602
 31
0.0
 11
695.0726874914781
 21
196.3343307099354
 31
0.0
 11
695.148019119326
 21
196.5042899947045
 31
0.0
 11
695.1899100345785
 21
196.6425722140504
 31
0.0
 11
695.1962596482955
 21
196.7422433191527
 31
0.0
 11
695.1679213645101
 21
196.7974401772121
 31
0.0
  0
SPLINE
  5
14D21
330
1F
100
AcDbEntity
  8
0
100
AcDbSpline
210
0.0
220
0.0
230
1.0
 70
     8
 71
     3
 72
    19
 73
    15
 74
    13
 42
0.0000000001
 43
0.0000000001
 44
0.0000000001
 12
0.8754276873818323
 22
0.4833491120973504
 32
0.0
 13
-0.7953120720493013
 23
0.6062002210925421
 33
0.0
 40
0.0
 40
0.0
 40
0.0
 40
0.0
 40
0.1375574737661322
 40
0.3136602681304084
 40
0.5211194598585691
 40
0.7505127996323107
 40
0.9910545424626347
 40
1.231301788607744
 40
1.459828756184555
 40
1.665901619554861
 40
1.840188423526464
 40
1.975646047977636
 40
2.069277130246492
 40
2.127445597681367
 40
2.127445597681367
 40
2.127445597681367
 40
2.127445597681367
 10
693.9873789516092
 20
195.0305873536985
 30
0.0
 10
694.0275194919896
 20
195.0527501146342
 30
0.0
 10
694.1131916519703
 20
195.1135965716137
 30
0.0
 10
694.2434234898421
 20
195.2286961363753
 30
0.0
 10
694.3860391847096
 20
195.3752669738582
 30
0.0
 10
694.5338244984616
 20
195.5461107005347
 30
0.0
 10
694.6794023723569
 20
195.7329143785288
 30
0.0
 10
694.8154691418465
 20
195.9263878785031
 30
0.0
 10
694.9353797318228
 20
196.1168631148264
 30
0.0
 10
695.0329942266757
 20
196.294931395883
 30
0.0
 10
695.1047153301817
 20
196.451526634052
 30
0.0
 10
695.1452710786145
 20
196.5801265323688
 30
0.0
 10
695.160289699186
 20
196.6752425940727
 30
0.0
 10
695.1404174623937
 20
196.7278818943626
 30
0.0
 10
695.1249967676059
 20
196.7396358069692
 30
0.0
 11
693.9873789516092
 21
195.0305873536985
 31
0.0
 11
694.1012621827195
 21
195.1077408906284
 31
0.0
 11
694.2341934649387
 21
195.2232461649255
 31
0.0
 11
694.3795070673265
 21
195.3713112627495
 31
0.0
 11
694.5299163593946
 21
195.5445115779689
 31
0.0
 11
694.6778791907233
 21
195.7341621265815
 31
0.0
 11
694.8159760886203
 21
195.9307530370314
 31
0.0
 11
694.9372822964012
 21
196.1244264189497
 31
0.0
 11
695.0357150131245
 21
196.3054706823112
 31
0.0
 11
695.1063384136602
 21
196.4648075121259
 31
0.0
 11
695.1456111456812
 21
196.5944470915049
 31
0.0
 11
695.151563909798
 21
196.6878887533384
 31
0.0
 11
695.1249967676059
 21
196.7396358069692
 31
0.0
  0
SPLINE
  5
14D22
330
1F
100
AcDbEntity
  8
0
100
AcDbSpline
210
0.0
220
0.0
230
1.0
 70
     8
 71
     3
 72
    10
 73
     6
 74
     4
 42
0.0000000001
 43
0.0000000001
 44
0.0000000001
 12
-0.8754276889593365
 22
-0.483349109240221
 32
0.0
 13
-0.7953120739395036
 23
0.6062002186126673
 33
0.0
 40
0.0
 40
0.0
 40
0.0
 40
0.0
 40
0.0957262194569544
 40
0.1563013392461764
 40
0.1576669055801256
 40
0.1576669055801256
 40
0.1576669055801256
 40
0.1576669055801256
 10
693.9873789516092
 20
195.0305873536985
 30
0.0
 10
693.9594451572519
 20
195.01516429273
 30
0.0
 10
693.9132572323983
 20
194.9916184978185
 30
0.0
 10
693.8542531540696
 20
194.9929613630203
 30
0.0
 10
693.837620916022
 20
195.0052287805953
 30
0.0
 10
693.837258898891
 20
195.0055047161321
 30
0.0
 11
693.9873789516092
 21
195.0305873536985
 31
0.0
 11
693.8982543495691
 21
194.9956543549335
 31
0.0
 11
693.8383574590507
 21
195.0046935829815
 31
0.0
 11
693.837258898891
 21
195.0055047161321
 31
0.0
  0
SPLINE
  5
14D23
330
1F
100
AcDbEntity
  8
0
100
AcDbSpline
210
0.0
220
0.0
230
1.0
 70
     8
 71
     3
 72
    10
 73
     6
 74
     4
 42
0.0000000001
 43
0.0000000001
 44
0.0000000001
 12
-0.8469686877542088
 22
-0.5316427766498041
 32
0.0
 13
-0.673521303194115
 23
-0.739167811896393
 33
0.0
 40
0.0
 40
0.0
 40
0.0
 40
0.0
 40
0.0696759471625376
 40
0.1881155650942845
 40
0.2757987433210942
 40
0.2757987433210942
 40
0.2757987433210942
 40
0.2757987433210942
 10
696.1999805683576
 20
195.2370460519819
 30
0.0
 10
696.1803094531789
 20
195.2246984806435
 30
0.0
 10
696.1301166106259
 20
195.1868119524879
 30
0.0
 10
696.0625639231112
 20
195.1242920800075
 30
0.0
 10
696.0151788382336
 20
195.074504312547
 30
0.0
 10
695.9954933420777
 20
195.052900118217
 30
0.0
 11
696.1999805683576
 21
195.2370460519819
 31
0.0
 11
696.1436924708252
 21
195.195980401017
 31
0.0
 11
696.0560546502671
 21
195.1163088533751
 31
0.0
 11
695.9954933420777
 21
195.052900118217
 31
0.0
  0
SPLINE
  5
14D24
330
1F
100
AcDbEntity
  8
0
100
AcDbSpline
210
0.0
220
0.0
230
1.0
 70
     8
 71
     3
 72
    15
 73
    11
 74
     9
 42
0.0000000001
 43
0.0000000001
 44
0.0000000001
 12
0.80284285977323
 22
-0.5961906930765877
 32
0.0
 13
-0.8754483997932444
 23
-0.483311596487657
 33
0.0
 40
0.0
 40
0.0
 40
0.0
 40
0.0
 40
0.091800402984068
 40
0.1874318662989427
 40
0.2810716669120686
 40
0.3705717900358775
 40
0.4562359771226238
 40
0.5405151347561505
 40
0.6256583567794748
 40
0.6997997811158612
 40
0.6997997811158612
 40
0.6997997811158612
 40
0.6997997811158612
 10
696.4592943206967
 20
195.2575403620216
 30
0.0
 10
696.48386142005
 20
195.2392968467283
 30
0.0
 10
696.5306211329597
 20
195.1972687526259
 30
0.0
 10
696.5882841389379
 20
195.1227489038907
 30
0.0
 10
696.6296165245585
 20
195.0386881258399
 30
0.0
 10
696.6491850749483
 20
194.9502016778634
 30
0.0
 10
696.6434815153473
 20
194.8625997185734
 30
0.0
 10
696.6116425705155
 20
194.7822244582498
 30
0.0
 10
696.5592940716676
 20
194.7185744598113
 30
0.0
 10
696.5155200960283
 20
194.6875672100361
 30
0.0
 10
696.4938844322638
 20
194.6756227399821
 30
0.0
 11
696.4592943206967
 21
195.2575403620216
 31
0.0
 11
696.5276725839404
 21
195.1962890183318
 31
0.0
 11
696.5859439784972
 21
195.1204614418695
 31
0.0
 11
696.6266170409659
 21
195.0361162330649
 31
0.0
 11
696.6451299230157
 21
194.9485517126392
 31
0.0
 11
696.6390106430012
 21
194.8631063654204
 31
0.0
 11
696.6079725456666
 21
194.7847506832699
 31
0.0
 11
696.5542038249597
 21
194.7187333148731
 31
0.0
 11
696.4938844322638
 21
194.6756227399821
 31
0.0
  0
SPLINE
  5
14D25
330
1F
100
AcDbEntity
  8
0
100
AcDbSpline
210
0.0
220
0.0
230
1.0
 70
     8
 71
     3
 72
    12
 73
     8
 74
     6
 42
0.0000000001
 43
0.0000000001
 44
0.0000000001
 12
0.8752944478716147
 22
0.4835903530108156
 32
0.0
 13
0.8028428599942511
 23
-0.5961906927789559
 33
0.0
 40
0.0
 40
0.0
 40
0.0
 40
0.0
 40
0.0119633418673107
 40
0.0864256279580393
 40
0.1639609573351773
 40
0.2475059138804134
 40
0.3345250466496896
 40
0.3345250466496896
 40
0.3345250466496896
 40
0.3345250466496896
 10
696.1459363206427
 20
195.3059640489687
 30
0.0
 10
696.1494268028808
 20
195.3078925012076
 30
0.0
 10
696.1750017819185
 20
195.3211523381962
 30
0.0
 10
696.2286810308391
 20
195.3366853048964
 30
0.0
 10
696.3083078352223
 20
195.332199587295
 30
0.0
 10
696.3872007955812
 20
195.3047863417834
 30
0.0
 10
696.4360067575544
 20
195.2748336943718
 30
0.0
 10
696.4592943206967
 20
195.2575403620216
 30
0.0
 11
696.1459363206427
 21
195.3059640489687
 31
0.0
 11
696.1565592785177
 21
195.3114662589446
 31
0.0
 11
696.2280640436107
 21
195.3322436653962
 31
0.0
 11
696.3055272878201
 21
195.3289010469354
 31
0.0
 11
696.3847929003833
 21
195.3025055467672
 31
0.0
 11
696.4592943206967
 21
195.2575403620216
 31
0.0
  0
SPLINE
  5
14D26
330
1F
100
AcDbEntity
  8
0
100
AcDbSpline
210
0.0
220
0.0
230
1.0
 70
     8
 71
     3
 72
     9
 73
     5
 74
     3
 42
0.0000000001
 43
0.0000000001
 44
0.0000000001
 12
-0.8754276839387614
 22
-0.4833491183333391
 32
0.0
 13
-0.9838175396998167
 23
0.1791732362240509
 33
0.0
 40
0.0
 40
0.0
 40
0.0
 40
0.0
 40
0.0573944809568677
 40
0.0667824578357293
 40
0.0667824578357293
 40
0.0667824578357293
 40
0.0667824578357293
 10
704.7558909785757
 20
187.5979281693644
 30
0.0
 10
704.7391427393973
 20
187.5886809787751
 30
0.0
 10
704.718002570523
 20
187.5765583703368
 30
0.0
 10
704.6956327001118
 20
187.5788140660493
 30
0.0
 10
704.6925540146731
 20
187.579374757449
 30
0.0
 11
704.7558909785757
 21
187.5979281693644
 31
0.0
 11
704.7018977104889
 21
187.5784640113911
 31
0.0
 11
704.6925540146731
 21
187.579374757449
 31
0.0
  0
SPLINE
  5
14D27
330
1F
100
AcDbEntity
  8
0
100
AcDbSpline
210
0.0
220
0.0
230
1.0
 70
     8
 71
     3
 72
     9
 73
     5
 74
     3
 42
0.0000000001
 43
0.0000000001
 44
0.0000000001
 12
-0.875427686494463
 22
-0.4833491137045274
 32
0.0
 13
-0.9950020597904478
 23
0.0998543990656703
 33
0.0
 40
0.0
 40
0.0
 40
0.0
 40
0.0
 40
0.057394479855924
 40
0.0622517520912951
 40
0.0622517520912951
 40
0.0622517520912951
 40
0.0622517520912951
 10
697.9934765079016
 20
192.6196936511372
 30
0.0
 10
697.9767282689956
 20
192.6104464608139
 30
0.0
 10
697.9570396164695
 20
192.5991121430144
 30
0.0
 10
697.9362449082369
 20
192.6003454371571
 30
0.0
 10
697.9346339096106
 20
192.6005071104905
 30
0.0
 11
697.9934765079016
 21
192.6196936511372
 31
0.0
 11
697.9394832416443
 21
192.6002294913351
 31
0.0
 11
697.9346339096106
 21
192.6005071104905
 31
0.0
  0
SPLINE
  5
14D28
330
1F
100
AcDbEntity
  8
0
100
AcDbSpline
210
0.0
220
0.0
230
1.0
 70
     8
 71
     3
 72
     9
 73
     5
 74
     3
 42
0.0000000001
 43
0.0000000001
 44
0.0000000001
 12
-0.8754276905827719
 22
-0.4833491062999027
 32
0.0
 13
-0.9988160153893433
 23
0.0486473781591055
 33
0.0
 40
0.0
 40
0.0
 40
0.0
 40
0.0
 40
0.082771759736251
 40
0.0954813372236044
 40
0.0954813372236044
 40
0.0954813372236044
 40
0.0954813372236044
 10
697.5154602687116
 20
192.6322201008617
 30
0.0
 10
697.4913067052211
 20
192.6188842154965
 30
0.0
 10
697.4615378588878
 20
192.6030349047872
 30
0.0
 10
697.4295493066726
 20
192.602585520487
 30
0.0
 10
697.4253177968249
 20
192.6027916163611
 30
0.0
 11
697.5154602687116
 21
192.6322201008617
 31
0.0
 11
697.4380260073245
 21
192.6029780186296
 31
0.0
 11
697.4253177968249
 21
192.6027916163611
 31
0.0
  0
SPLINE
  5
14D29
330
1F
100
AcDbEntity
  8
0
100
AcDbSpline
210
0.0
220
0.0
230
1.0
 70
     8
 71
     3
 72
     9
 73
     5
 74
     3
 42
0.0000000001
 43
0.0000000001
 44
0.0000000001
 12
-0.4150857326850771
 22
0.90978230061993
 32
0.0
 13
-0.8510537227391361
 23
0.52507862364779
 33
0.0
 40
0.0
 40
0.0
 40
0.0
 40
0.0
 40
0.0089190554095167
 40
0.017700519894944
 40
0.017700519894944
 40
0.017700519894944
 40
0.017700519894944
 10
705.3737614406728
 20
188.4955534062667
 30
0.0
 10
705.3725273831229
 20
188.49825820585
 30
0.0
 10
705.3693220936235
 20
188.5033483277224
 30
0.0
 10
705.3646223951496
 20
188.507078532398
 30
0.0
 10
705.3621312291357
 20
188.5086155188266
 30
0.0
 11
705.3737614406728
 21
188.4955534062667
 31
0.0
 11
705.3689177450015
 21
188.5030426092712
 31
0.0
 11
705.3621312291357
 21
188.5086155188266
 31
0.0
  0
SPLINE
  5
14D2A
330
1F
100
AcDbEntity
  8
0
100
AcDbSpline
210
0.0
220
0.0
230
1.0
 70
     8
 71
     3
 72
    19
 73
    15
 74
    13
 42
0.0000000001
 43
0.0000000001
 44
0.0000000001
 12
-0.7953120721302828
 22
0.6062002209862976
 32
0.0
 13
0.8754276874351161
 23
0.4833491120008442
 33
0.0
 40
0.0
 40
0.0
 40
0.0
 40
0.0
 40
0.0620463654659669
 40
0.1619195190653811
 40
0.3064076528847877
 40
0.4923135753617346
 40
0.7121246300494335
 40
0.9558867296501704
 40
1.212150458181424
 40
1.468728317584693
 40
1.713414547549425
 40
1.934704349985085
 40
2.122547330911952
 40
2.269275304850401
 40
2.269275304850401
 40
2.269275304850401
 40
2.269275304850401
 10
691.0330150618221
 20
196.9982545842184
 30
0.0
 10
691.0165663206598
 20
197.0107920910373
 30
0.0
 10
690.9953692702524
 20
197.0669406790092
 30
0.0
 10
691.011389132056
 20
197.1683978107177
 30
0.0
 10
691.0546485949871
 20
197.3055710361663
 30
0.0
 10
691.1311511077249
 20
197.4726059557186
 30
0.0
 10
691.2352732369101
 20
197.662545454499
 30
0.0
 10
691.3631778641506
 20
197.8657190414186
 30
0.0
 10
691.5083157516743
 20
198.0720907749569
 30
0.0
 10
691.6635988170598
 20
198.2713480317539
 30
0.0
 10
691.8212364844544
 20
198.4535813404718
 30
0.0
 10
691.9733598932658
 20
198.6099235656112
 30
0.0
 10
692.112273851984
 20
198.7326964367863
 30
0.0
 10
692.2036574908992
 20
198.7975993232577
 30
0.0
 10
692.2464740678682
 20
198.821239601894
 30
0.0
 11
691.0330150618221
 21
196.9982545842184
 31
0.0
 11
691.0046767780364
 21
197.0534514422777
 31
0.0
 11
691.0110263935822
 21
197.15312254738
 31
0.0
 11
691.0529173070059
 21
197.2914047667256
 31
0.0
 11
691.1282489348542
 21
197.4613640496663
 31
0.0
 11
691.2332438340325
 21
197.6544779303416
 31
0.0
 11
691.3626371216011
 21
197.8610628725178
 31
0.0
 11
691.5099404785052
 21
198.0707598434199
 31
0.0
 11
691.6677674985885
 21
198.2730537624278
 31
0.0
 11
691.828204077283
 21
198.4578007660603
 31
0.0
 11
691.9832052520653
 21
198.6157368685768
 31
0.0
 11
692.1249986192777
 21
198.7389424954696
 31
0.0
 11
692.2464740678682
 21
198.821239601894
 31
0.0
  0
SPLINE
  5
14D2B
330
1F
100
AcDbEntity
  8
0
100
AcDbSpline
210
0.0
220
0.0
230
1.0
 70
     8
 71
     3
 72
     9
 73
     5
 74
     3
 42
0.0000000001
 43
0.0000000001
 44
0.0000000001
 12
-0.2810371587168253
 22
0.959696887262001
 32
0.0
 13
-0.8356487301234134
 23
0.54926423499362
 33
0.0
 40
0.0
 40
0.0
 40
0.0
 40
0.0
 40
0.0284409546251297
 40
0.0340801589607223
 40
0.0340801589607223
 40
0.0340801589607223
 40
0.0340801589607223
 10
698.4631156946063
 20
193.9996766581961
 30
0.0
 10
698.4604513729133
 20
194.0087748900709
 30
0.0
 10
698.4550403108436
 20
194.0197900551709
 30
0.0
 10
698.4459404549964
 20
194.0266724216307
 30
0.0
 10
698.4443696570157
 20
194.0277048927159
 30
0.0
 11
698.4631156946063
 21
193.9996766581961
 31
0.0
 11
698.4488509412202
 21
194.0242816314906
 31
0.0
 11
698.4443696570157
 21
194.0277048927159
 31
0.0
  0
SPLINE
  5
14D2C
330
1F
100
AcDbEntity
  8
0
100
AcDbSpline
210
0.0
220
0.0
230
1.0
 70
     8
 71
     3
 72
     9
 73
     5
 74
     3
 42
0.0000000001
 43
0.0000000001
 44
0.0000000001
 12
-0.835175511734948
 22
0.5499835130240435
 32
0.0
 13
-0.8754276894017763
 23
-0.4833491084388874
 33
0.0
 40
0.0
 40
0.0
 40
0.0
 40
0.0
 40
0.0459419887989875
 40
0.1287137485356018
 40
0.1287137485356018
 40
0.1287137485356018
 40
0.1287137485356018
 10
698.2753393349803
 20
194.1532292661016
 30
0.0
 10
698.2625494603118
 20
194.1616517115666
 30
0.0
 10
698.2160175980255
 20
194.1671939042226
 30
0.0
 10
698.1770099785583
 20
194.1463388722425
 30
0.0
 10
698.1528564151004
 20
194.1330029868183
 30
0.0
 11
698.2753393349803
 21
194.1532292661016
 31
0.0
 11
698.2302906764877
 21
194.1622450690508
 31
0.0
 11
698.1528564151004
 21
194.1330029868183
 31
0.0
  0
SPLINE
  5
14D2D
330
1F
100
AcDbEntity
  8
0
100
AcDbSpline
210
0.0
220
0.0
230
1.0
 70
     8
 71
     3
 72
     9
 73
     5
 74
     3
 42
0.0000000001
 43
0.0000000001
 44
0.0000000001
 12
-0.7953120735842801
 22
0.6062002190787074
 32
0.0
 13
0.1012271348859624
 23
0.9948633409482829
 33
0.0
 40
0.0
 40
0.0
 40
0.0
 40
0.0
 40
0.0620463654655384
 40
0.1155944289017422
 40
0.1155944289017422
 40
0.1155944289017422
 40
0.1155944289017422
 10
693.7943343038156
 20
194.9477003458891
 30
0.0
 10
693.7778855626234
 20
194.9602378526685
 30
0.0
 10
693.7629060727338
 20
195.0005860999796
 30
0.0
 10
693.7624738324532
 20
195.0386601173254
 30
0.0
 10
693.7642806714666
 20
195.0564177857559
 30
0.0
 11
693.7943343038156
 21
194.9477003458891
 31
0.0
 11
693.7659960200297
 21
195.0028972039478
 31
0.0
 11
693.7642806714666
 21
195.0564177857559
 31
0.0
  0
SPLINE
  5
14D2E
330
1F
100
AcDbEntity
  8
0
100
AcDbSpline
210
0.0
220
0.0
230
1.0
 70
     8
 71
     3
 72
     8
 73
     4
 74
     0
 42
0.0000000001
 43
0.0000000001
 40
0.0948020263355762
 40
0.0948020263355762
 40
0.0948020263355762
 40
0.0948020263355762
 40
0.1771768857477059
 40
0.1771768857477059
 40
0.1771768857477059
 40
0.1771768857477059
 10
698.0863865688197
 20
194.090133387755
 30
0.0
 10
698.1077209475649
 20
194.1057071253079
 30
0.0
 10
698.1297801806132
 20
194.1202619260259
 30
0.0
 10
698.1528564151004
 20
194.1330029868183
 30
0.0
  0
SPLINE
  5
14D2F
330
1F
100
AcDbEntity
  8
0
100
AcDbSpline
210
0.0
220
0.0
230
1.0
 70
     8
 71
     3
 72
    11
 73
     7
 74
     0
 42
0.0000000001
 43
0.0000000001
 40
0.0
 40
0.0
 40
0.0
 40
0.0
 40
0.0058368079853051
 40
0.0647296326449272
 40
0.1607182351658714
 40
0.2582784275376029
 40
0.2582784275376029
 40
0.2582784275376029
 40
0.2582784275376029
 10
697.2239169869277
 20
192.7375379588055
 30
0.0
 10
697.222357064014
 20
192.7385652062125
 30
0.0
 10
697.2057633050527
 20
192.7512717622968
 30
0.0
 10
697.1954857641037
 20
192.8086841190392
 30
0.0
 10
697.2122483536716
 20
192.8860984401591
 30
0.0
 10
697.2325870487723
 20
192.9449703195004
 30
0.0
 10
697.2439975017447
 20
192.9741631442836
 30
0.0
  0
SPLINE
  5
14D30
330
1F
100
AcDbEntity
  8
0
100
AcDbSpline
210
0.0
220
0.0
230
1.0
 70
     8
 71
     3
 72
    10
 73
     6
 74
     4
 42
0.0000000001
 43
0.0000000001
 44
0.0000000001
 12
-0.7953120691179623
 22
0.6062002249383497
 32
0.0
 13
-0.9241408258153755
 23
-0.382052004393742
 33
0.0
 40
0.0
 40
0.0
 40
0.0
 40
0.0
 40
0.0014566032538503
 40
0.0660700643306979
 40
0.1154781484161073
 40
0.1154781484161073
 40
0.1154781484161073
 40
0.1154781484161073
 10
695.1679213645101
 20
196.7974401772121
 30
0.0
 10
695.1675352131275
 20
196.7977345082855
 30
0.0
 10
695.1497963032031
 20
196.8108212794392
 30
0.0
 10
695.1062464140894
 20
196.8115681769486
 30
0.0
 10
695.0705560895182
 20
196.8007235203057
 30
0.0
 10
695.0553360803087
 20
196.7944313677864
 30
0.0
 11
695.1679213645101
 21
196.7974401772121
 31
0.0
 11
695.1667495682251
 21
196.7983053861495
 31
0.0
 11
695.1028595514282
 21
196.8079472275722
 31
0.0
 11
695.0553360803087
 21
196.7944313677864
 31
0.0
  0
SPLINE
  5
14D31
330
1F
100
AcDbEntity
  8
0
100
AcDbSpline
210
0.0
220
0.0
230
1.0
 70
     8
 71
     3
 72
    10
 73
     6
 74
     4
 42
0.0000000001
 43
0.0000000001
 44
0.0000000001
 12
-0.7953120692931933
 22
0.6062002247084532
 32
0.0
 13
-0.8754276886621536
 23
-0.4833491097784702
 33
0.0
 40
0.0
 40
0.0
 40
0.0
 40
0.0
 40
0.0014566043401341
 40
0.0660700654178217
 40
0.1681780317808886
 40
0.1681780317808886
 40
0.1681780317808886
 40
0.1681780317808886
 10
692.4066021225168
 20
198.8479944137127
 30
0.0
 10
692.4062159708461
 20
198.8482887450054
 30
0.0
 10
692.388474949651
 20
198.8613740348814
 30
0.0
 10
692.3255372103135
 20
198.8628063454261
 30
0.0
 10
692.276270114864
 20
198.8376908667749
 30
0.0
 10
692.2464740678682
 20
198.821239601894
 30
0.0
 11
692.4066021225168
 21
198.8479944137127
 31
0.0
 11
692.405430326232
 21
198.8488596244793
 31
0.0
 11
692.3415403094342
 21
198.8585014659016
 31
0.0
 11
692.2464740678682
 21
198.821239601894
 31
0.0
  0
SPLINE
  5
14D32
330
1F
100
AcDbEntity
  8
0
100
AcDbSpline
210
0.0
220
0.0
230
1.0
 70
     8
 71
     3
 72
    11
 73
     7
 74
     5
 42
0.0000000001
 43
0.0000000001
 44
0.0000000001
 12
-0.8028428582195219
 22
0.5961906951688433
 32
0.0
 13
-0.9922863361082077
 23
-0.1239670406719021
 33
0.0
 40
0.0
 40
0.0
 40
0.0
 40
0.0
 40
0.0774388020876422
 40
0.1535393089979727
 40
0.2225610737943264
 40
0.2468698236951856
 40
0.2468698236951856
 40
0.2468698236951856
 40
0.2468698236951856
 10
696.3104591225084
 20
195.1753641155034
 30
0.0
 10
696.2897353927733
 20
195.1907535465866
 30
0.0
 10
696.2466651226622
 20
195.2187555360342
 30
0.0
 10
696.178289560521
 20
195.2486724001525
 30
0.0
 10
696.1217101686221
 20
195.2582369763251
 30
0.0
 10
696.0905784669935
 20
195.2562629732462
 30
0.0
 10
696.0825380535354
 20
195.2552584786503
 30
0.0
 11
696.3104591225084
 21
195.1753641155034
 31
0.0
 11
696.2452466821437
 21
195.2171266069335
 31
0.0
 11
696.1750486806042
 21
195.2465124493049
 31
0.0
 11
696.1067978810636
 21
195.2567999357654
 31
0.0
 11
696.0825380535354
 21
195.2552584786503
 31
0.0
  0
SPLINE
  5
14D33
330
1F
100
AcDbEntity
  8
0
100
AcDbSpline
210
0.0
220
0.0
230
1.0
 70
     8
 71
     3
 72
    20
 73
    16
 74
    14
 42
0.0000000001
 43
0.0000000001
 44
0.0000000001
 12
0.4371230310110131
 22
-0.8994017210122208
 32
0.0
 13
-0.8754277010375371
 23
-0.483349087364539
 33
0.0
 40
0.0
 40
0.0
 40
0.0
 40
0.0
 40
0.0678480329679207
 40
0.1679627151389895
 40
0.2996935517197381
 40
0.46064944075047
 40
0.6466165125748847
 40
0.8502199452491973
 40
1.062946655811184
 40
1.278101727230516
 40
1.489567496558642
 40
1.689119153094475
 40
1.866977214173443
 40
2.015415662417338
 40
2.130344232469075
 40
2.130344232469075
 40
2.130344232469075
 40
2.130344232469075
 10
692.3946283873577
 20
198.7777447010248
 30
0.0
 10
692.4045143666307
 20
198.7574038218186
 30
0.0
 10
692.4046452302416
 20
198.6982047186098
 30
0.0
 10
692.3843545829766
 20
198.601395207691
 30
0.0
 10
692.3386802408347
 20
198.4777488161284
 30
0.0
 10
692.2707441395273
 20
198.3334854912369
 30
0.0
 10
692.1817781636065
 20
198.1727768874888
 30
0.0
 10
692.0754516514788
 20
198.0024147764616
 30
0.0
 10
691.9558853786413
 20
197.8290829004008
 30
0.0
 10
691.8273705377681
 20
197.6589965238263
 30
0.0
 10
691.6942936552429
 20
197.4980993872702
 30
0.0
 10
691.5619685261664
 20
197.3530057537664
 30
0.0
 10
691.436569869708
 20
197.2303312380711
 30
0.0
 10
691.324094315103
 20
197.1353978233078
 30
0.0
 10
691.2513677792837
 20
197.0856254170937
 30
0.0
 10
691.2178305613291
 20
197.0671085439448
 30
0.0
 11
692.3946283873577
 21
198.7777447010248
 31
0.0
 11
692.4027431551772
 21
198.7103836876651
 31
0.0
 11
692.3843952418601
 21
198.611964666825
 31
0.0
 11
692.3405575434039
 21
198.4877420058475
 31
0.0
 11
692.2728251373402
 21
198.3417313234216
 31
0.0
 11
692.1833025390425
 21
198.1787299240503
 31
0.0
 11
692.0757870834624
 21
198.005828840745
 31
0.0
 11
691.955111164286
 21
197.8306432936315
 31
0.0
 11
691.8253794901962
 21
197.6590000662809
 31
0.0
 11
691.6904360415165
 21
197.4961871759559
 31
0.0
 11
691.5556418448619
 21
197.3490430691272
 31
0.0
 11
691.4279596886445
 21
197.2252256354821
 31
0.0
 11
691.3137763642552
 21
197.1303776447367
 31
0.0
 11
691.2178305613291
 21
197.0671085439448
 31
0.0
  0
SPLINE
  5
14D34
330
1F
100
AcDbEntity
  8
0
100
AcDbSpline
210
0.0
220
0.0
230
1.0
 70
     8
 71
     3
 72
    19
 73
    15
 74
    13
 42
0.0000000001
 43
0.0000000001
 44
0.0000000001
 12
0.8754276872645178
 22
0.4833491123098267
 32
0.0
 13
-0.8351755120604387
 23
0.5499835125297704
 33
0.0
 40
0.0
 40
0.0
 40
0.0
 40
0.0
 40
0.124822383801293
 40
0.2864320459599578
 40
0.4770387346599802
 40
0.6865156554198318
 40
0.9033961707222449
 40
1.115710813173781
 40
1.311798960431139
 40
1.481134345453718
 40
1.615256778121683
 40
1.709286427427397
 40
1.76697735724321
 40
1.772695048333283
 40
1.772695048333283
 40
1.772695048333283
 40
1.772695048333283
 10
696.2111016803802
 20
193.5806921024156
 30
0.0
 10
696.2475260039703
 20
193.6008030318845
 30
0.0
 10
696.3253392694492
 20
193.6570538444714
 30
0.0
 10
696.4433849645793
 20
193.763707897821
 30
0.0
 10
696.572355577202
 20
193.8996922143944
 30
0.0
 10
696.7046952885968
 20
194.0572282887053
 30
0.0
 10
696.8327382360666
 20
194.2274475815557
 30
0.0
 10
696.9491233367266
 20
194.4004429492337
 30
0.0
 10
697.0471162065296
 20
194.5664985986407
 30
0.0
 10
697.1216776490357
 20
194.7152133448706
 30
0.0
 10
697.1682051903739
 20
194.8406922324321
 30
0.0
 10
697.1880152854751
 20
194.9320429516425
 30
0.0
 10
697.1775231239052
 20
194.9906218187502
 30
0.0
 10
697.1605908150427
 20
195.0035877985855
 30
0.0
 10
697.1589990565147
 20
195.0046360105286
 30
0.0
 11
696.2111016803802
 21
193.5806921024156
 31
0.0
 11
696.3140286401857
 21
193.6513084492698
 31
0.0
 11
696.4348862689294
 21
193.7585983205415
 31
0.0
 11
696.5666507602886
 21
193.896326417145
 31
0.0
 11
696.7016644385467
 21
194.0564884819863
 31
0.0
 11
696.8320808025552
 21
194.2297764790221
 31
0.0
 11
696.9503205242155
 21
194.4061195413212
 31
0.0
 11
697.0495119442221
 21
194.5752692492485
 31
0.0
 11
697.1238904143116
 21
194.7273952358776
 31
0.0
 11
697.1691333297691
 21
194.8536564949624
 31
0.0
 11
697.1826113370521
 21
194.9467151768155
 31
0.0
 11
697.1635411428329
 21
195.0011630516634
 31
0.0
 11
697.1589990565147
 21
195.0046360105286
 31
0.0
  0
SPLINE
  5
14D35
330
1F
100
AcDbEntity
  8
0
100
AcDbSpline
210
0.0
220
0.0
230
1.0
 70
     8
 71
     3
 72
     9
 73
     5
 74
     3
 42
0.0000000001
 43
0.0000000001
 44
0.0000000001
 12
-0.8754276860889659
 22
-0.4833491144389522
 32
0.0
 13
-0.8351755078795637
 23
0.5499835188786232
 33
0.0
 40
0.0
 40
0.0
 40
0.0
 40
0.0
 40
0.0844609794418092
 40
0.1313405591098458
 40
0.1313405591098458
 40
0.1313405591098458
 40
0.1313405591098458
 10
696.2111016803802
 20
193.5806921024156
 30
0.0
 10
696.1864551871143
 20
193.5670840558763
 30
0.0
 10
696.1466514932984
 20
193.5458034133543
 30
0.0
 10
696.099170001364
 20
193.5514587107921
 30
0.0
 10
696.0861191091112
 20
193.5600530428553
 30
0.0
 11
696.2111016803802
 21
193.5806921024156
 31
0.0
 11
696.1320871273097
 21
193.5508532443385
 31
0.0
 11
696.0861191091112
 21
193.5600530428553
 31
0.0
  0
SPLINE
  5
14D36
330
1F
100
AcDbEntity
  8
0
100
AcDbSpline
210
0.0
220
0.0
230
1.0
 70
     8
 71
     3
 72
    15
 73
    11
 74
     9
 42
0.0000000001
 43
0.0000000001
 44
0.0000000001
 12
-0.8028428601767924
 22
0.5961906925331421
 32
0.0
 13
0.8752944481988771
 23
0.4835903524184733
 33
0.0
 40
0.0
 40
0.0
 40
0.0
 40
0.0
 40
0.0903094644861571
 40
0.1848643435488419
 40
0.2813106549790723
 40
0.3776085776172811
 40
0.4708305573426075
 40
0.5586285182005195
 40
0.639563410114457
 40
0.7035313551536829
 40
0.7035313551536829
 40
0.7035313551536829
 40
0.7035313551536829
 10
696.1301284002139
 20
194.6962184222344
 30
0.0
 10
696.1059602972909
 20
194.7141656429592
 30
0.0
 10
696.0616250886218
 20
194.7583765931062
 30
0.0
 10
696.0157355540665
 20
194.8414132606394
 30
0.0
 10
695.9916781331648
 20
194.9350573421801
 30
0.0
 10
695.9890995867972
 20
195.0310819400472
 30
0.0
 10
696.0061469711281
 20
195.1226415671362
 30
0.0
 10
696.0406434355369
 20
195.2036939118417
 30
0.0
 10
696.0881688149139
 20
195.2661927389545
 30
0.0
 10
696.1272727249242
 20
195.2956526219403
 30
0.0
 10
696.1459363206427
 20
195.3059640489687
 30
0.0
 11
696.1301284002139
 21
194.6962184222344
 31
0.0
 11
696.0660269924252
 21
194.7598329559141
 31
0.0
 11
696.0197603385019
 21
194.8422952011497
 31
0.0
 11
695.9952716933465
 21
194.935580769417
 31
0.0
 11
695.9925209239437
 21
195.0318393958986
 31
0.0
 11
696.0098513130571
 21
195.1234363124247
 31
0.0
 11
696.0448614195168
 21
195.2039519902551
 31
0.0
 11
696.0946008603984
 21
195.2677990320809
 31
0.0
 11
696.1459363206427
 21
195.3059640489687
 31
0.0
  0
SPLINE
  5
14D37
330
1F
100
AcDbEntity
  8
0
100
AcDbSpline
210
0.0
220
0.0
230
1.0
 70
     8
 71
     3
 72
    12
 73
     8
 74
     6
 42
0.0000000001
 43
0.0000000001
 44
0.0000000001
 12
-0.8754483987047402
 22
-0.4833115984593234
 32
0.0
 13
-0.8028428607933062
 23
0.5961906917029314
 33
0.0
 40
0.0
 40
0.0
 40
0.0
 40
0.0
 40
0.014468917316561
 40
0.1065996891417367
 40
0.2004419312939384
 40
0.2938118881820808
 40
0.3833418095328133
 40
0.3833418095328133
 40
0.3833418095328133
 40
0.3833418095328133
 10
696.4938844322638
 20
194.6756227399821
 30
0.0
 10
696.4896621687652
 20
194.6732917414633
 30
0.0
 10
696.4581846117398
 20
194.6568012975989
 30
0.0
 10
696.3939739791562
 20
194.6352629382967
 30
0.0
 10
696.2999715379374
 20
194.6295526376568
 30
0.0
 10
696.2085926376014
 20
194.6490037793618
 30
0.0
 10
696.1540878862751
 20
194.6784261203217
 30
0.0
 10
696.1301284002139
 20
194.6962184222344
 30
0.0
 11
696.4938844322638
 21
194.6756227399821
 31
0.0
 11
696.4810679769217
 21
194.668907977084
 31
0.0
 11
696.393784340059
 21
194.6394182186394
 31
0.0
 11
696.3001097805451
 21
194.633810784998
 31
0.0
 11
696.2088591088937
 21
194.65359117358
 31
0.0
 11
696.1301284002139
 21
194.6962184222344
 31
0.0
  0
SPLINE
  5
14D38
330
1F
100
AcDbEntity
  8
0
100
AcDbSpline
210
0.0
220
0.0
230
1.0
 70
     8
 71
     3
 72
    12
 73
     8
 74
     6
 42
0.0000000001
 43
0.0000000001
 44
0.0000000001
 12
0.4995066139888705
 22
0.8663100730000625
 32
0.0
 13
-0.795312071970927
 23
0.6062002211953665
 33
0.0
 40
0.0
 40
0.0
 40
0.0
 40
0.0
 40
0.1938846325854433
 40
0.3797905550625318
 40
0.524278689412212
 40
0.624151842895373
 40
0.6861982083613344
 40
0.6861982083613344
 40
0.6861982083613344
 40
0.6861982083613344
 10
696.1077964168366
 20
195.3266812476661
 30
0.0
 10
696.1400786356124
 20
195.3826693177356
 30
0.0
 10
696.2004639283184
 20
195.4939942339504
 30
0.0
 10
696.2733559741157
 20
195.6531637345831
 30
0.0
 10
696.316616526805
 20
195.7903358867227
 30
0.0
 10
696.3326362121025
 20
195.8917931896526
 30
0.0
 10
696.31143918381
 20
195.9479417561506
 30
0.0
 10
696.294990442651
 20
195.9604792629739
 30
0.0
 11
696.1077964168366
 21
195.3266812476661
 31
0.0
 11
696.1997565696186
 21
195.4973697975255
 31
0.0
 11
696.2750881974667
 21
195.6673290804665
 31
0.0
 11
696.3169791127194
 21
195.8056112998121
 31
0.0
 11
696.3233287264363
 21
195.9052824049144
 31
0.0
 11
696.294990442651
 21
195.9604792629739
 31
0.0
  0
SPLINE
  5
14D39
330
1F
100
AcDbEntity
  8
0
100
AcDbSpline
210
0.0
220
0.0
230
1.0
 70
     8
 71
     3
 72
     9
 73
     5
 74
     3
 42
0.0000000001
 43
0.0000000001
 44
0.0000000001
 12
0.5277670053373216
 22
0.8493891852839166
 32
0.0
 13
0.4995066182757566
 23
0.8663100705282824
 33
0.0
 40
0.0
 40
0.0
 40
0.0
 40
0.0
 40
0.1040712631128845
 40
0.1300096531135991
 40
0.1300096531135991
 40
0.1300096531135991
 40
0.1300096531135991
 10
696.0409708157657
 20
195.2151639881511
 30
0.0
 10
696.0592792753906
 20
195.2446296566134
 30
0.0
 10
696.0816981574086
 20
195.2817247783963
 30
0.0
 10
696.1034776176791
 20
195.3191910181758
 30
0.0
 10
696.1077964168366
 20
195.3266812476661
 30
0.0
 11
696.0409708157657
 21
195.2151639881511
 31
0.0
 11
696.0947616704397
 21
195.3042559168503
 31
0.0
 11
696.1077964168366
 21
195.3266812476661
 31
0.0
  0
SPLINE
  5
14D3A
330
1F
100
AcDbEntity
  8
0
100
AcDbSpline
210
0.0
220
0.0
230
1.0
 70
     8
 71
     3
 72
    14
 73
    10
 74
     8
 42
0.0000000001
 43
0.0000000001
 44
0.0000000001
 12
0.875427687374432
 22
0.4833491121107539
 32
0.0
 13
0.5277670065668758
 23
0.8493891845199346
 33
0.0
 40
0.0
 40
0.0
 40
0.0
 40
0.0
 40
0.1467279729122034
 40
0.334570953839525
 40
0.5558607575804697
 40
0.8005469875449534
 40
1.057124845506179
 40
1.313388574037972
 40
1.453103770331282
 40
1.453103770331282
 40
1.453103770331282
 40
1.453103770331282
 10
695.0815314366043
 20
194.1374942471274
 30
0.0
 10
695.1243480132709
 20
194.1611345256037
 30
0.0
 10
695.2157316518472
 20
194.2260374011026
 30
0.0
 10
695.3546456182951
 20
194.3488103252502
 30
0.0
 10
695.5067689886142
 20
194.5051523082356
 30
0.0
 10
695.6644068174876
 20
194.6873866643538
 30
0.0
 10
695.8196892418275
 20
194.8866397534337
 30
0.0
 10
695.9448700521876
 20
195.0646448749001
 30
0.0
 10
696.0163917921258
 20
195.1756064626028
 30
0.0
 10
696.0409708157657
 20
195.2151639881511
 30
0.0
 11
695.0815314366043
 21
194.1374942471274
 31
0.0
 11
695.2030068851946
 21
194.2197913517225
 31
0.0
 11
695.3448002524075
 21
194.3429969786154
 31
0.0
 11
695.4998014271898
 21
194.5009330829608
 31
0.0
 11
695.6602380058845
 21
194.6856800865927
 31
0.0
 11
695.8180650259675
 21
194.8879740037718
 31
0.0
 11
695.9653683828715
 21
195.0976709746747
 31
0.0
 11
696.0409708157657
 21
195.2151639881511
 31
0.0
  0
SPLINE
  5
14D3B
330
1F
100
AcDbEntity
  8
0
100
AcDbSpline
210
0.0
220
0.0
230
1.0
 70
     8
 71
     3
 72
    10
 73
     6
 74
     4
 42
0.0000000001
 43
0.0000000001
 44
0.0000000001
 12
-0.8754276886621536
 22
-0.4833491097784702
 32
0.0
 13
-0.7953120692931933
 23
0.6062002247084532
 33
0.0
 40
0.0
 40
0.0
 40
0.0
 40
0.0
 40
0.1021079670305644
 40
0.1667214283802982
 40
0.1681780316342639
 40
0.1681780316342639
 40
0.1681780316342639
 40
0.1681780316342639
 10
695.0815314366043
 20
194.1374942471274
 30
0.0
 10
695.0517353894138
 20
194.1210429821389
 30
0.0
 10
695.0024682793062
 20
194.0959274795653
 30
0.0
 10
694.9395305745717
 20
194.0973598401683
 30
0.0
 10
694.9217895333389
 20
194.1104451024058
 30
0.0
 10
694.9214033819562
 20
194.1107394334791
 30
0.0
 11
695.0815314366043
 21
194.1374942471274
 31
0.0
 11
694.9864651950385
 21
194.1002323812904
 31
0.0
 11
694.9225751782416
 21
194.1098742245418
 31
0.0
 11
694.9214033819562
 21
194.1107394334791
 31
0.0
  0
SPLINE
  5
14D3C
330
1F
100
AcDbEntity
  8
0
100
AcDbSpline
210
0.0
220
0.0
230
1.0
 70
     8
 71
     3
 72
    19
 73
    15
 74
    13
 42
0.0000000001
 43
0.0000000001
 44
0.0000000001
 12
0.8754276874351161
 22
0.4833491120008442
 32
0.0
 13
-0.7953120721302828
 23
0.6062002209862976
 33
0.0
 40
0.0
 40
0.0
 40
0.0
 40
0.0
 40
0.1467279729124744
 40
0.334570953839673
 40
0.5558607588616464
 40
0.8005469876268472
 40
1.057124845588117
 40
1.313388574119845
 40
1.557150674690468
 40
1.776961729378656
 40
1.962867651114625
 40
2.107355785464306
 40
2.207228938947531
 40
2.269275304413215
 40
2.269275304413215
 40
2.269275304413215
 40
2.269275304413215
 10
691.7566776555403
 20
196.6065289416615
 30
0.0
 10
691.7994942322098
 20
196.6301692201324
 30
0.0
 10
691.8908778722164
 20
196.695072104392
 30
0.0
 10
692.0297918304981
 20
196.8178449770496
 30
0.0
 10
692.181915240418
 20
196.9741872017021
 30
0.0
 10
692.3395529055298
 20
197.1564205123831
 30
0.0
 10
692.4948359725711
 20
197.3556777667219
 30
0.0
 10
692.6399738589193
 20
197.5620495009518
 30
0.0
 10
692.7678784882528
 20
197.7652230867876
 30
0.0
 10
692.8720006184496
 20
197.9551625854414
 30
0.0
 10
692.9485031268923
 20
198.1221975064156
 30
0.0
 10
692.9917625946703
 20
198.2593707305785
 30
0.0
 10
693.0077824526662
 20
198.3608278628047
 30
0.0
 10
692.9865854027491
 20
198.4169764506891
 30
0.0
 10
692.9701366615869
 20
198.429513957508
 30
0.0
 11
691.7566776555403
 21
196.6065289416615
 31
0.0
 11
691.8781531041305
 21
196.688826046257
 31
0.0
 11
692.0199464713434
 21
196.8120316731499
 31
0.0
 11
692.1749476479545
 21
196.9699677774953
 31
0.0
 11
692.3353842248204
 21
197.1547147811271
 31
0.0
 11
692.4932112449034
 21
197.3570086983063
 31
0.0
 11
692.6405146018072
 21
197.5667056692092
 31
0.0
 11
692.769907891204
 21
197.7732906113847
 31
0.0
 11
692.8749027903833
 21
197.96640449206
 31
0.0
 11
692.9502344164026
 21
198.1363637750009
 31
0.0
 11
692.9921253316552
 21
198.2746459943465
 31
0.0
 11
692.9984749453723
 21
198.3743170994489
 31
0.0
 11
692.9701366615869
 21
198.429513957508
 31
0.0
  0
SPLINE
  5
14D3D
330
1F
100
AcDbEntity
  8
0
100
AcDbSpline
210
0.0
220
0.0
230
1.0
 70
     8
 71
     3
 72
    10
 73
     6
 74
     4
 42
0.0000000001
 43
0.0000000001
 44
0.0000000001
 12
-0.8754276886621536
 22
-0.4833491097784702
 32
0.0
 13
-0.7953120692931933
 23
0.6062002247084532
 33
0.0
 40
0.0
 40
0.0
 40
0.0
 40
0.0
 40
0.1021079670306183
 40
0.1667214283803946
 40
0.1681780316343027
 40
0.1681780316343027
 40
0.1681780316343027
 40
0.1681780316343027
 10
691.7566776555403
 20
196.6065289416615
 30
0.0
 10
691.7268816083498
 20
196.5900776766729
 30
0.0
 10
691.6776144982422
 20
196.5649621741007
 30
0.0
 10
691.6146767935074
 20
196.5663945347012
 30
0.0
 10
691.5969357522749
 20
196.5794797969403
 30
0.0
 10
691.5965496008922
 20
196.5797741280136
 30
0.0
 11
691.7566776555403
 21
196.6065289416615
 31
0.0
 11
691.6616114139743
 21
196.5692670758246
 31
0.0
 11
691.5977213971774
 21
196.5789089190763
 31
0.0
 11
691.5965496008922
 21
196.5797741280136
 31
0.0
  0
SPLINE
  5
14D3E
330
1F
100
AcDbEntity
  8
0
100
AcDbSpline
210
0.0
220
0.0
230
1.0
 70
     8
 71
     3
 72
     9
 73
     5
 74
     3
 42
0.0000000001
 43
0.0000000001
 44
0.0000000001
 12
-0.8754276904792186
 22
-0.4833491064874555
 32
0.0
 13
-0.9943330386653085
 23
0.1063099629320504
 33
0.0
 40
0.0
 40
0.0
 40
0.0
 40
0.0
 40
0.0849607345150982
 40
0.1278481114699171
 40
0.1278481114699171
 40
0.1278481114699171
 40
0.1278481114699171
 10
691.2178305613291
 20
197.0671085439448
 30
0.0
 10
691.1930382347965
 20
197.0534199789067
 30
0.0
 10
691.1541249833609
 20
197.0354971903054
 30
0.0
 10
691.1110708563678
 20
197.0280558227345
 30
0.0
 10
691.0968560777519
 20
197.0295756078859
 30
0.0
 11
691.2178305613291
 21
197.0671085439448
 31
0.0
 11
691.139490385574
 21
197.0342278007658
 31
0.0
 11
691.0968560777519
 21
197.0295756078859
 31
0.0
  0
LINE
  5
14D3F
330
1F
100
AcDbEntity
  8
0
100
AcDbLine
 10
705.8000800788136
 20
187.4671221904888
 30
0.0
 11
704.692395283977
 21
187.5785031861162
 31
0.0
  0
LINE
  5
14D40
330
1F
100
AcDbEntity
  8
0
100
AcDbLine
 10
704.692395283977
 20
187.5785031861162
 30
0.0
 11
704.6758178776605
 21
187.5845482333094
 31
0.0
  0
LINE
  5
14D41
330
1F
100
AcDbEntity
  8
0
100
AcDbLine
 10
691.5965314537102
 20
196.5797690677238
 30
0.0
 11
691.0329969146397
 21
196.9982495239286
 31
0.0
  0
LINE
  5
14D42
330
1F
100
AcDbEntity
  8
0
100
AcDbLine
 10
694.921385234774
 20
194.1107343731894
 30
0.0
 11
693.7943161566337
 21
194.9476952855991
 31
0.0
  0
LINE
  5
14D43
330
1F
100
AcDbEntity
  8
0
100
AcDbLine
 10
693.8372418873931
 20
195.005499972225
 30
0.0
 11
691.7073164671911
 21
196.5871814849031
 31
0.0
  0
LINE
  5
14D44
330
1F
100
AcDbEntity
  8
0
100
AcDbLine
 10
696.0859874592862
 20
193.5597859521016
 30
0.0
 11
695.1999757260048
 21
194.217737805004
 31
0.0
  0
LINE
  5
14D45
330
1F
100
AcDbEntity
  8
0
100
AcDbLine
 10
697.3928483324781
 20
192.6117320727494
 30
0.0
 11
697.2237879705742
 21
192.7372762099768
 31
0.0
  0
LINE
  5
14D46
330
1F
100
AcDbEntity
  8
0
100
AcDbLine
 10
697.3740280254907
 20
192.9395926104233
 30
0.0
 11
697.3315099605616
 21
192.9711665033712
 31
0.0
  0
LINE
  5
14D47
330
1F
100
AcDbEntity
  8
0
100
AcDbLine
 10
704.6758178776605
 20
187.5845482333094
 30
0.0
 11
697.92178817518
 21
192.6000871887498
 31
0.0
  0
LINE
  5
14D48
330
1F
100
AcDbEntity
  8
0
100
AcDbLine
 10
697.4252849680366
 20
192.6021175664011
 30
0.0
 11
697.3928483324781
 21
192.6117320727494
 31
0.0
  0
LINE
  5
14D49
330
1F
100
AcDbEntity
  8
0
100
AcDbLine
 10
697.9345865162587
 20
192.6000348521513
 30
0.0
 11
697.4252849680366
 21
192.6021175664011
 31
0.0
  0
LINE
  5
14D4A
330
1F
100
AcDbEntity
  8
0
100
AcDbLine
 10
698.6123501253215
 20
193.5127255093673
 30
0.0
 11
698.4631104934987
 21
193.9996751348058
 31
0.0
  0
LINE
  5
14D4B
330
1F
100
AcDbEntity
  8
0
100
AcDbLine
 10
705.3626295533611
 20
188.5094232083464
 30
0.0
 11
698.6085998527101
 21
193.5249621656154
 31
0.0
  0
LINE
  5
14D4C
330
1F
100
AcDbEntity
  8
0
100
AcDbLine
 10
698.1252282964169
 20
193.9511746144838
 30
0.0
 11
698.0939907176565
 21
193.974371624285
 31
0.0
  0
LINE
  5
14D4D
330
1F
100
AcDbEntity
  8
0
100
AcDbLine
 10
698.444528713238
 20
194.0279468777031
 30
0.0
 11
698.275468351334
 21
194.1534910149305
 31
0.0
  0
LINE
  5
14D4E
330
1F
100
AcDbEntity
  8
0
100
AcDbLine
 10
697.1591307063405
 20
195.0049030994535
 30
0.0
 11
696.2731085470701
 21
195.662862695495
 31
0.0
  0
LINE
  5
14D4F
330
1F
100
AcDbEntity
  8
0
100
AcDbLine
 10
695.1250137809323
 20
196.7396405508761
 30
0.0
 11
692.9950983880412
 21
198.3213146185093
 31
0.0
  0
LINE
  5
14D50
330
1F
100
AcDbEntity
  8
0
100
AcDbLine
 10
692.9701548087686
 20
198.4295190177975
 30
0.0
 11
692.4066202696987
 21
198.8479994740025
 31
0.0
  0
LINE
  5
14D51
330
1F
100
AcDbEntity
  8
0
100
AcDbLine
 10
696.2950085898329
 20
195.9604843232631
 30
0.0
 11
695.1679395116922
 21
196.7974452375014
 31
0.0
  0
LINE
  5
14D52
330
1F
100
AcDbEntity
  8
0
100
AcDbLine
 10
696.1109005963533
 20
195.0651820427512
 30
0.0
 11
696.3104591225084
 21
195.1753641155033
 31
0.0
  0
LINE
  5
14D53
330
1F
100
AcDbEntity
  8
0
100
AcDbLine
 10
696.1109005963533
 20
195.0651820427512
 30
0.0
 11
696.0075262041693
 21
194.8888991717464
 31
0.0
  0
LINE
  5
14D54
330
1F
100
AcDbEntity
  8
0
100
AcDbLine
 10
705.8000800788136
 20
187.4671221904888
 30
0.0
 11
705.3732091942797
 21
188.4953014451751
 31
0.0
  0
SPLINE
  5
14D55
330
1F
100
AcDbEntity
  8
0
100
AcDbSpline
210
0.0
220
0.0
230
1.0
 70
     8
 71
     3
 72
    11
 73
     7
 74
     5
 42
0.0000000001
 43
0.0000000001
 44
0.0000000001
 12
0.8762233566787822
 22
-0.4819052077022698
 32
0.0
 13
-0.4643534656286029
 23
-0.8856499641273103
 33
0.0
 40
0.0
 40
0.0
 40
0.0
 40
0.0
 40
0.0087141219170055
 40
0.0574418910971593
 40
0.1440001589755848
 40
0.2672204222928238
 40
0.2672204222928238
 40
0.2672204222928238
 40
0.2672204222928238
 10
698.0964582744713
 20
194.0795974309946
 30
0.0
 10
698.0990034468568
 20
194.0781976374171
 30
0.0
 10
698.1148939769044
 20
194.0661554001311
 30
0.0
 10
698.1056350299363
 20
194.0089276191085
 30
0.0
 10
698.0812548414133
 20
193.9324757296144
 30
0.0
 10
698.0495852604719
 20
193.8675808828353
 30
0.0
 10
698.0305126750363
 20
193.8312042089064
 30
0.0
 11
698.0964582744713
 21
194.0795974309946
 31
0.0
 11
698.1033740347832
 21
194.0742957161691
 31
0.0
 11
698.1075406952233
 21
194.0257464172035
 31
0.0
 11
698.0826890420947
 21
193.9428324312006
 31
0.0
 11
698.0305126750363
 21
193.8312042089064
 31
0.0
  0
LINE
  5
14D56
330
1F
100
AcDbEntity
  8
0
100
AcDbLine
 10
697.2345214393222
 20
194.9812648883199
 30
0.0
 11
698.0964582744713
 21
194.0795974309946
 31
0.0
  0
SPLINE
  5
14D57
330
1F
100
AcDbEntity
  8
0
100
AcDbSpline
210
0.0
220
0.0
230
1.0
 70
     8
 71
     3
 72
    16
 73
    12
 74
    10
 42
0.0000000001
 43
0.0000000001
 44
0.0000000001
 12
0.8762233572592531
 22
-0.4819052066468296
 32
0.0
 13
0.4643534666425237
 23
0.8856499635957034
 33
0.0
 40
0.0
 40
0.0
 40
0.0
 40
0.0
 40
0.0265764390935578
 40
0.0920433640860153
 40
0.1959817509663685
 40
0.3338450148313867
 40
0.4972377274617922
 40
0.6756056543270354
 40
0.8572336988476166
 40
1.030160258075007
 40
1.183086135622484
 40
1.183086135622484
 40
1.183086135622484
 40
1.183086135622484
 10
697.2670011889059
 20
192.9633694693746
 30
0.0
 10
697.2747634878015
 20
192.9591003612501
 30
0.0
 10
697.3070924734399
 20
192.9532838101992
 30
0.0
 10
697.3645309528784
 20
192.9933494882357
 30
0.0
 10
697.443946085484
 20
193.0543317142064
 30
0.0
 10
697.539960117876
 20
193.151171508814
 30
0.0
 10
697.6461022144564
 20
193.2702597789677
 30
0.0
 10
697.7551037504402
 20
193.4067430807442
 30
0.0
 10
697.8595432914048
 20
193.5504735372179
 30
0.0
 10
697.9523424979634
 20
193.6919904780335
 30
0.0
 10
698.0068421212434
 20
193.7860579429455
 30
0.0
 10
698.0305126750363
 20
193.8312042089064
 30
0.0
 11
697.2670011889059
 21
192.9633694693746
 31
0.0
 11
697.2929864510923
 21
192.9577951295927
 31
0.0
 11
697.3523796863029
 21
192.9853335006262
 31
0.0
 11
697.4342175808357
 21
193.0494096060457
 31
0.0
 11
697.532923022949
 21
193.1456567629945
 31
0.0
 11
697.6417693924319
 21
193.2675158881806
 31
0.0
 11
697.7533389967089
 21
193.4066824816421
 31
0.0
 11
697.8600285443698
 21
193.5536725730642
 31
0.0
 11
697.9545673260446
 21
193.6984690289796
 31
0.0
 11
698.0305126750363
 21
193.8312042089064
 31
0.0
  0
LINE
  5
14D58
330
1F
100
AcDbEntity
  8
0
100
AcDbLine
 10
696.1427000884547
 20
193.4909084022831
 30
0.0
 11
697.2670011889059
 21
192.9633694693746
 31
0.0
  0
SPLINE
  5
14D59
330
1F
100
AcDbEntity
  8
0
100
AcDbSpline
210
0.0
220
0.0
230
1.0
 70
     8
 71
     3
 72
    16
 73
    12
 74
     0
 42
0.0000000001
 43
0.0000000001
 40
0.0
 40
0.0
 40
0.0
 40
0.0
 40
0.068271439039087
 40
0.068271439039087
 40
0.1365428780781739
 40
0.1365428780781739
 40
0.2048143171172609
 40
0.2048143171172609
 40
0.3413571951954348
 40
0.3413571951954348
 40
0.3656853215271653
 40
0.3656853215271653
 40
0.3656853215271653
 40
0.3656853215271653
 10
697.206532033585
 20
194.9694021265326
 30
0.0
 10
697.2166619811612
 20
194.9601616071769
 30
0.0
 10
697.2209109218802
 20
194.9395435637502
 30
0.0
 10
697.2163461134191
 20
194.900582352784
 30
0.0
 10
697.2094340095501
 20
194.8789720137125
 30
0.0
 10
697.1964482256088
 20
194.8377466090848
 30
0.0
 10
697.1892991397846
 20
194.8176245037464
 30
0.0
 10
697.16575515937
 20
194.7579303249428
 30
0.0
 10
697.147034366311
 20
194.7187748866701
 30
0.0
 10
697.1236290715077
 20
194.6731821775656
 30
0.0
 10
697.1200543009059
 20
194.6663030966804
 30
0.0
 10
697.1164556018492
 20
194.6594393863167
 30
0.0
  0
SPLINE
  5
14D5A
330
1F
100
AcDbEntity
  8
0
100
AcDbSpline
210
0.0
220
0.0
230
1.0
 70
     8
 71
     3
 72
    16
 73
    12
 74
     0
 42
0.0000000001
 43
0.0000000001
 40
0.0
 40
0.0
 40
0.0
 40
0.0
 40
0.062602226540079
 40
0.062602226540079
 40
0.1252044530801579
 40
0.1252044530801579
 40
0.1878066796202368
 40
0.1878066796202368
 40
0.3247692506015984
 40
0.3247692506015984
 40
0.3656853215271653
 40
0.3656853215271653
 40
0.3656853215271653
 40
0.3656853215271653
 10
697.2259411800684
 20
194.9906794626631
 30
0.0
 10
697.2469635292938
 20
194.971502914761
 30
0.0
 10
697.2492663941067
 20
194.9469205443374
 30
0.0
 10
697.2463501129047
 20
194.8994147359872
 30
0.0
 10
697.2397697958423
 20
194.8796807217939
 30
0.0
 10
697.2276024655862
 20
194.8405942060428
 30
0.0
 10
697.2212514756052
 20
194.8214782652548
 30
0.0
 10
697.1986338634547
 20
194.7611050419579
 30
0.0
 10
697.1799808828611
 20
194.7207417555243
 30
0.0
 10
697.1541261108842
 20
194.669439254574
 30
0.0
 10
697.1480695773467
 20
194.6577142269561
 30
0.0
 10
697.141962320823
 20
194.6460660065193
 30
0.0
  0
SPLINE
  5
14D5B
330
1F
100
AcDbEntity
  8
0
100
AcDbSpline
210
0.0
220
0.0
230
1.0
 70
     8
 71
     3
 72
    10
 73
     6
 74
     0
 42
0.0000000001
 43
0.0000000001
 40
0.2411329027578508
 40
0.2411329027578508
 40
0.2411329027578508
 40
0.2411329027578508
 40
0.2726328170966257
 40
0.2726328170966257
 40
0.2818955530933262
 40
0.2818955530933262
 40
0.2818955530933262
 40
0.2818955530933262
 10
697.1751004353317
 20
194.9990970636399
 30
0.0
 10
697.1872230900445
 20
195.0023594465404
 30
0.0
 10
697.200224388296
 20
195.0043518551537
 30
0.0
 10
697.2185288322322
 20
194.9963614243329
 30
0.0
 10
697.2225475642987
 20
194.993775112661
 30
0.0
 10
697.2259411800684
 20
194.9906794626631
 30
0.0
  0
SPLINE
  5
14D5C
330
1F
100
AcDbEntity
  8
0
100
AcDbSpline
210
0.0
220
0.0
230
1.0
 70
     8
 71
     3
 72
    22
 73
    18
 74
     0
 42
0.0000000001
 43
0.0000000001
 40
0.0
 40
0.0
 40
0.0
 40
0.0
 40
0.052915054816513
 40
0.052915054816513
 40
0.105830109633026
 40
0.105830109633026
 40
0.2048994418961127
 40
0.2048994418961127
 40
0.3039687741591994
 40
0.3039687741591994
 40
0.5906882738913822
 40
0.5906882738913822
 40
0.8774077736235648
 40
0.8774077736235648
 40
1.450846773087928
 40
1.450846773087928
 40
1.617681132486946
 40
1.617681132486946
 40
1.617681132486946
 40
1.617681132486946
 10
696.1366909781583
 20
193.5234062336593
 30
0.0
 10
696.1431376880597
 20
193.517525556871
 30
0.0
 10
696.1554723371167
 20
193.5184218927672
 30
0.0
 10
696.187526333416
 20
193.5298064667733
 30
0.0
 10
696.2023635718615
 20
193.5371315271981
 30
0.0
 10
696.2418446455905
 20
193.5603676703367
 30
0.0
 10
696.2663588949347
 20
193.5788599495479
 30
0.0
 10
696.3153236627499
 20
193.6181539788217
 30
0.0
 10
696.3392486387694
 20
193.639126785971
 30
0.0
 10
696.429381533184
 20
193.7223853783719
 30
0.0
 10
696.4916667880479
 20
193.7889321259993
 30
0.0
 10
696.6126567712973
 20
193.9261504189354
 30
0.0
 10
696.6706994123716
 20
193.9968535811367
 30
0.0
 10
696.8391122414796
 20
194.2135700993579
 30
0.0
 10
696.9442784865324
 20
194.3638213049302
 30
0.0
 10
697.0655497875917
 20
194.5662444311412
 30
0.0
 10
697.0918171492459
 20
194.6124470706947
 30
0.0
 10
697.1164556018585
 20
194.6594393863345
 30
0.0
  0
SPLINE
  5
14D5D
330
1F
100
AcDbEntity
  8
0
100
AcDbSpline
210
0.0
220
0.0
230
1.0
 70
     8
 71
     3
 72
    24
 73
    20
 74
     0
 42
0.0000000001
 43
0.0000000001
 40
0.0
 40
0.0
 40
0.0
 40
0.0
 40
0.0336660361682034
 40
0.0336660361682034
 40
0.0673320723364068
 40
0.0673320723364068
 40
0.1310519666916519
 40
0.1310519666916519
 40
0.194771861046897
 40
0.194771861046897
 40
0.3222116497573872
 40
0.3222116497573872
 40
0.5763441207315349
 40
0.5763441207315349
 40
1.084609062679827
 40
1.084609062679827
 40
1.592874004628123
 40
1.592874004628123
 40
1.617681132486946
 40
1.617681132486946
 40
1.617681132486946
 40
1.617681132486946
 10
696.1172818316845
 20
193.5021288975206
 30
0.0
 10
696.1306656786791
 20
193.4899201771714
 30
0.0
 10
696.1471220558482
 20
193.4895266854157
 30
0.0
 10
696.1725119218926
 20
193.4933027727101
 30
0.0
 10
696.1846100013347
 20
193.4979514658573
 30
0.0
 10
696.2163135421725
 20
193.5113812421543
 30
0.0
 10
696.2342998156343
 20
193.5220177396509
 30
0.0
 10
696.2686320482837
 20
193.5447889012859
 30
0.0
 10
696.2850784360036
 20
193.557177028226
 30
0.0
 10
696.3334489376939
 20
193.5954528512545
 30
0.0
 10
696.3649094421768
 20
193.6232256751049
 30
0.0
 10
696.4545780300031
 20
193.7075750635375
 30
0.0
 10
696.5104686479812
 20
193.7671195233857
 30
0.0
 10
696.6728985705891
 20
193.9502003163436
 30
0.0
 10
696.7739191667638
 20
194.0785872387831
 30
0.0
 10
696.9640276877722
 20
194.3438673487958
 30
0.0
 10
697.0533358344611
 20
194.4807720877161
 30
0.0
 10
697.1345094423137
 20
194.6319385259672
 30
0.0
 10
697.1382535456419
 20
194.6389923506903
 30
0.0
 10
697.1419623208134
 20
194.6460660065014
 30
0.0
  0
SPLINE
  5
14D5E
330
1F
100
AcDbEntity
  8
0
100
AcDbSpline
210
0.0
220
0.0
230
1.0
 70
     8
 71
     3
 72
     8
 73
     4
 74
     0
 42
0.0000000001
 43
0.0000000001
 40
0.2305708090866159
 40
0.2305708090866159
 40
0.2305708090866159
 40
0.2305708090866159
 40
0.2817094252584755
 40
0.2817094252584755
 40
0.2817094252584755
 40
0.2817094252584755
 10
696.0963807845887
 20
193.5585524315582
 30
0.0
 10
696.0965133667497
 20
193.5385444939146
 30
0.0
 10
696.0997370547702
 20
193.5190501735959
 30
0.0
 10
696.1177577668677
 20
193.5026117135304
 30
0.0
  0
SPLINE
  5
14D5F
330
1F
100
AcDbEntity
  8
0
100
AcDbSpline
210
0.0
220
0.0
230
1.0
 70
     8
 71
     3
 72
     8
 73
     4
 74
     0
 42
0.0000000001
 43
0.0000000001
 40
0.2305708090866159
 40
0.2305708090866159
 40
0.2305708090866159
 40
0.2305708090866159
 40
0.2817094252584755
 40
0.2817094252584755
 40
0.2817094252584755
 40
0.2817094252584755
 10
696.1251801523022
 20
193.558743269938
 30
0.0
 10
696.1252720446338
 20
193.5448758233223
 30
0.0
 10
696.1298019348677
 20
193.5306073693372
 30
0.0
 10
696.1371669133337
 20
193.5238890496759
 30
0.0
  0
LINE
  5
14D60
330
1F
100
AcDbEntity
  8
0
100
AcDbLine
 10
697.1551572198327
 20
194.6715488933027
 30
0.0
 11
697.112187094665
 21
194.7034584859866
 31
0.0
  0
LINE
  5
14D61
330
1F
100
AcDbEntity
  8
0
100
AcDbLine
 10
696.403931141671
 20
193.6599860528369
 30
0.0
 11
696.3603007585626
 21
193.6923859526872
 31
0.0
  0
MTEXT
  5
14E54
330
1F
100
AcDbEntity
  8
图框
100
AcDbMText
 10
716.0837018257345
 20
224.1638151809435
 30
0.0
 40
0.6000023545570477
 41
5.828702745953754
 46
1.35222218681682
 71
     5
 72
     5
  1
{\C4;8}
  7
Romans字体
 73
     1
 44
1.0
1001
ACAD
1000
MTEXTBEGIN
1070
    73
1070
     1
1070
    44
1040
1.0
1070
    74
1070
     0
1000
MTEXTEND
1000
ACAD_MTEXT_DEFINED_HEIGHT_BEGIN
1070
    46
1040
1.35222218681682
1000
ACAD_MTEXT_DEFINED_HEIGHT_END
  0
MTEXT
  5
14ED8
330
1F
100
AcDbEntity
  8
图框
100
AcDbMText
 10
699.4891464537622
 20
224.1666089141036
 30
0.0
 40
0.6000023545570477
 41
3.909661246359451
 46
1.352222186816528
 71
     5
 72
     5
  1
{\C4;0.62}
  7
Romans字体
 73
     1
 44
1.0
1001
ACAD
1000
MTEXTBEGIN
1070
    73
1070
     1
1070
    44
1040
1.0
1070
    74
1070
     0
1000
MTEXTEND
1000
ACAD_MTEXT_DEFINED_HEIGHT_BEGIN
1070
    46
1040
1.352222186816528
1000
ACAD_MTEXT_DEFINED_HEIGHT_END
  0
ENDSEC
  0
SECTION
  2
OBJECTS
  0
DICTIONARY
  5
C
330
0
100
AcDbDictionary
281
     1
  3
ACAD_COLOR
350
4FFE
  3
ACAD_GROUP
350
D
  3
ACAD_LAYOUT
350
1A
  3
ACAD_MATERIAL
350
4FE5
  3
ACAD_MLEADERSTYLE
350
5022
  3
ACAD_MLINESTYLE
350
17
  3
ACAD_PLOTSETTINGS
350
19
  3
ACAD_PLOTSTYLENAME
350
E
  3
ACAD_RENDER_PLOT_SETTINGS
350
6537
  3
ACAD_SCALELIST
350
5000
  3
ACAD_TABLESTYLE
350
4FE3
  3
ACAD_VISUALSTYLE
350
2A
  3
ACDB_RECOMPOSE_DATA
350
50EC
  3
AcDbVariableDictionary
350
5108
  3
ASE_INDEX_DICTIONARY
350
11ACE
  0
DICTIONARY
  5
50EE
330
8
100
AcDbDictionary
280
     1
281
     1
  0
DICTIONARY
  5
50B8
330
2
100
AcDbDictionary
280
     1
281
     1
  3
ACAD_LAYERFILTERS
360
67BE
  3
ACAD_LAYERSTATES
360
50B9
  3
ACLYDICTIONARY
360
67BD
  0
DICTIONARY
  5
50D0
330
10
100
AcDbDictionary
280
     1
281
     1
  3
ADSK_XREC_LAYER_RECONCILED
360
50D1
  0
DICTIONARY
  5
50D2
330
3B
100
AcDbDictionary
280
     1
281
     1
  3
ADSK_XREC_LAYER_RECONCILED
360
50D3
  0
DICTIONARY
  5
50AF
330
50AE
100
AcDbDictionary
280
     1
281
     1
  3
ADSK_XREC_LAYER_RECONCILED
360
50D4
  0
DICTIONARY
  5
67C0
330
1F
100
AcDbDictionary
280
     1
281
     1
  3
ACAD_SORTENTS
360
67C1
  0
DICTIONARY
  5
150C3
330
140A9
100
AcDbDictionary
280
     1
281
     1
  3
ACAD_MTEXT_2008_RT
360
150C4
  0
DICTIONARY
  5
150C5
330
140AA
100
AcDbDictionary
280
     1
281
     1
  3
ACAD_MTEXT_2008_RT
360
150C6
  0
DICTIONARY
  5
150C7
330
140CF
100
AcDbDictionary
280
     1
281
     1
  3
ACAD_MTEXT_2008_RT
360
150C8
  0
DICTIONARY
  5
150C9
330
140D2
100
AcDbDictionary
280
     1
281
     1
  3
ACAD_MTEXT_2008_RT
360
150CA
  0
DICTIONARY
  5
150CB
330
140D3
100
AcDbDictionary
280
     1
281
     1
  3
ACAD_MTEXT_2008_RT
360
150CC
  0
DICTIONARY
  5
150CD
330
140DD
100
AcDbDictionary
280
     1
281
     1
  3
ACAD_MTEXT_2008_RT
360
150CE
  0
DICTIONARY
  5
150CF
330
140DE
100
AcDbDictionary
280
     1
281
     1
  3
ACAD_MTEXT_2008_RT
360
150D0
  0
DICTIONARY
  5
150D1
330
140DF
100
AcDbDictionary
280
     1
281
     1
  3
ACAD_MTEXT_2008_RT
360
150D2
  0
DICTIONARY
  5
150D3
330
140ED
100
AcDbDictionary
280
     1
281
     1
  3
ACAD_MTEXT_2008_RT
360
150D4
  0
DICTIONARY
  5
150D5
330
140EE
100
AcDbDictionary
280
     1
281
     1
  3
ACAD_MTEXT_2008_RT
360
150D6
  0
DICTIONARY
  5
150D7
330
140EF
100
AcDbDictionary
280
     1
281
     1
  3
ACAD_MTEXT_2008_RT
360
150D8
  0
DICTIONARY
  5
150D9
330
14124
100
AcDbDictionary
280
     1
281
     1
  3
ACAD_MTEXT_2008_RT
360
150DA
  0
DICTIONARY
  5
14B57
330
14B56
100
AcDbDictionary
280
     1
281
     1
  3
ACAD_DIMASSOC
360
14B58
  0
DICTIONARY
  5
14BA4
330
14BA3
100
AcDbDictionary
280
     1
281
     1
  3
ACAD_DIMASSOC
360
14BA5
  0
DICTIONARY
  5
4FFE
102
{ACAD_REACTORS
330
C
102
}
330
C
100
AcDbDictionary
281
     1
  0
DICTIONARY
  5
D
102
{ACAD_REACTORS
330
C
102
}
330
C
100
AcDbDictionary
281
     1
  0
DICTIONARY
  5
1A
102
{ACAD_REACTORS
330
C
102
}
330
C
100
AcDbDictionary
281
     1
  3
Layout1
350
1E
  3
Layout2
350
26
  3
Model
350
22
  0
DICTIONARY
  5
4FE5
102
{ACAD_REACTORS
330
C
102
}
330
C
100
AcDbDictionary
281
     1
  3
ByBlock
350
4FEE
  3
ByLayer
350
4FE6
  3
Global
350
4FF6
  0
DICTIONARY
  5
5022
102
{ACAD_REACTORS
330
C
102
}
330
C
100
AcDbDictionary
281
     1
  3
Standard
350
5023
  0
DICTIONARY
  5
17
102
{ACAD_REACTORS
330
C
102
}
330
C
100
AcDbDictionary
281
     1
  3
Standard
350
18
  0
DICTIONARY
  5
19
102
{ACAD_REACTORS
330
C
102
}
330
C
100
AcDbDictionary
281
     1
  0
ACDBDICTIONARYWDFLT
  5
E
102
{ACAD_REACTORS
330
C
102
}
330
C
100
AcDbDictionary
281
     1
  3
Normal
350
F
100
AcDbDictionaryWithDefault
340
F
  0
DICTIONARY
  5
6537
102
{ACAD_REACTORS
330
C
102
}
330
C
100
AcDbDictionary
281
     1
  3
{1DC63513-1B1A-422F-9880-65CFD2B8D533}
350
6538
  0
DICTIONARY
  5
5000
102
{ACAD_REACTORS
330
C
102
}
330
C
100
AcDbDictionary
281
     1
  3
A0
350
5001
  3
A1
350
5002
  3
A2
350
5003
  3
A3
350
5004
  3
A4
350
5005
  3
A5
350
5006
  3
A6
350
5007
  3
A7
350
5008
  3
A8
350
5009
  3
A9
350
500A
  3
B0
350
500B
  3
B1
350
500C
  3
B2
350
500D
  3
B3
350
500E
  3
B4
350
500F
  3
B5
350
5010
  3
B6
350
5011
  3
B7
350
5012
  3
B8
350
5013
  3
B9
350
5014
  3
C0
350
5015
  3
C1
350
5016
  3
C2
350
5017
  3
C3
350
5018
  3
C4
350
5019
  3
C5
350
501A
  3
C6
350
501B
  3
C7
350
501C
  3
C8
350
501D
  3
C9
350
501E
  3
D0
350
501F
  3
D1
350
5020
  3
D2
350
5021
  0
DICTIONARY
  5
4FE3
102
{ACAD_REACTORS
330
C
102
}
330
C
100
AcDbDictionary
281
     1
  3
Standard
350
4FFF
  0
DICTIONARY
  5
2A
102
{ACAD_REACTORS
330
C
102
}
330
C
100
AcDbDictionary
281
     1
  3
2dWireframe
350
2F
  3
3D Hidden
350
31
  3
3dWireframe
350
30
  3
Basic
350
32
  3
Brighten
350
36
  3
ColorChange
350
3A
  3
Conceptual
350
34
  3
Dim
350
35
  3
Facepattern
350
39
  3
Flat
350
2B
  3
FlatWithEdges
350
2C
  3
Gouraud
350
2D
  3
GouraudWithEdges
350
2E
  3
Linepattern
350
38
  3
Realistic
350
33
  3
Thicken
350
37
  0
XRECORD
  5
50EC
102
{ACAD_REACTORS
330
C
102
}
330
C
100
AcDbXrecord
280
     1
 90
        1
330
4FFF
330
140A9
330
140AA
330
140CF
330
140D2
330
140D3
330
140DD
330
140DE
330
140DF
330
140ED
330
140EE
330
140EF
330
14124
  0
DICTIONARY
  5
5108
102
{ACAD_REACTORS
330
C
102
}
330
C
100
AcDbDictionary
281
     1
  3
CANNOSCALE
350
510B
  3
CMLEADERSTYLE
350
510A
  3
CTABLESTYLE
350
5109
  3
DIMASSOC
350
510E
  3
INDEXCTL
350
510D
  3
LIGHTINGUNITS
350
144F4
  3
MSLTSCALE
350
144F3
  3
SORTENTS
350
510C
  0
DICTIONARY
  5
11ACE
102
{ACAD_REACTORS
330
C
102
}
330
C
100
AcDbDictionary
281
     1
  3
ASEBlockHierarchyIndexRecord
350
11ACF
1001
DCO15
1040
1901191668.781
  0
DICTIONARY
  5
67BE
102
{ACAD_REACTORS
330
50B8
102
}
330
50B8
100
AcDbDictionary
281
     1
  0
DICTIONARY
  5
50B9
102
{ACAD_REACTORS
330
50B8
102
}
330
50B8
100
AcDbDictionary
281
     1
  0
DICTIONARY
  5
67BD
102
{ACAD_REACTORS
330
50B8
102
}
330
50B8
100
AcDbDictionary
281
     1
1001
ACAD
1000
<All
  0
XRECORD
  5
50D1
102
{ACAD_REACTORS
330
50D0
102
}
330
50D0
100
AcDbXrecord
280
     1
290
     1
  0
XRECORD
  5
50D3
102
{ACAD_REACTORS
330
50D2
102
}
330
50D2
100
AcDbXrecord
280
     1
290
     1
  0
XRECORD
  5
50D4
102
{ACAD_REACTORS
330
50AF
102
}
330
50AF
100
AcDbXrecord
280
     1
290
     1
  0
SORTENTSTABLE
  5
67C1
102
{ACAD_REACTORS
330
67C0
102
}
330
67C0
100
AcDbSortentsTable
330
1F
331
140D0
  5
140D0
331
14107
  5
14107
331
1410F
  5
1410F
331
140D8
  5
140D8
331
14117
  5
14117
331
1411F
  5
1411F
331
14068
  5
14068
331
140A7
  5
140A7
331
14070
  5
14070
331
140AF
  5
140AF
331
14078
  5
14078
331
140B7
  5
140B7
331
140E0
  5
140E0
331
14127
  5
14127
331
140E8
  5
140E8
331
140F0
  5
140F0
331
140F8
  5
140F8
331
1412F
  5
1412F
331
14080
  5
14080
331
140BF
  5
140BF
331
14088
  5
14088
331
14090
  5
14090
331
140C7
  5
140C7
331
14098
  5
14098
331
4842
  5
4E94
331
140CF
  5
140CF
331
140D1
  5
140D1
331
14100
  5
14100
331
14108
  5
14108
331
140D9
  5
140D9
331
14110
  5
14110
331
141A7
  5
141A8
331
2F93
  5
2FDE
331
140A0
  5
140A0
331
14069
  5
14069
331
140A8
  5
140A8
331
14071
  5
14071
331
14079
  5
14079
331
140B0
  5
140B0
331
140E1
  5
140E1
331
140E9
  5
140E9
331
140F1
  5
140F1
331
14128
  5
14128
331
140F9
  5
140F9
331
14081
  5
14081
331
140B8
  5
140B8
331
14089
  5
14089
331
140C0
  5
140C0
331
140C8
  5
140C8
331
3943
  5
4842
331
14091
  5
14091
331
14099
  5
14099
331
14130
  5
14130
331
140D2
  5
140D2
331
14101
  5
14101
331
14109
  5
14109
331
140DA
  5
140DA
331
14111
  5
14111
331
14119
  5
14119
331
140A1
  5
140A1
331
14062
  5
14062
331
1406A
  5
1406A
331
140A9
  5
140A9
331
14072
  5
14072
331
1407A
  5
1407A
331
140B1
  5
140B1
331
140E2
  5
140E2
331
140EA
  5
140EA
331
14129
  5
14129
331
140F2
  5
140F2
331
140FA
  5
140FA
331
140B9
  5
140B9
331
14082
  5
14082
331
1408A
  5
1408A
331
140C1
  5
140C1
331
14092
  5
14092
331
140C9
  5
140C9
331
1409A
  5
1409A
331
140D3
  5
140D3
331
14102
  5
14102
331
14131
  5
14131
331
141A1
  5
141A2
331
140DB
  5
140DB
331
14112
  5
14112
331
1411A
  5
1411A
331
14063
  5
14063
331
140A2
  5
140A2
331
1406B
  5
1406B
331
140AA
  5
140AA
331
14073
  5
14073
331
1407B
  5
1407B
331
140B2
  5
140B2
331
140E3
  5
140E3
331
14122
  5
14122
331
140EB
  5
140EB
331
140F3
  5
140F3
331
1412A
  5
1412A
331
140FB
  5
140FB
331
14083
  5
14083
331
140BA
  5
140BA
331
1408B
  5
1408B
331
3895
  5
3943
331
140C2
  5
140C2
331
140CA
  5
140CA
331
14093
  5
14093
331
1409B
  5
1409B
331
140D4
  5
140D4
331
14103
  5
14103
331
140DC
  5
140DC
331
14113
  5
14113
331
1411B
  5
1411B
331
140A3
  5
140A3
331
14064
  5
14064
331
1406C
  5
1406C
331
2FDE
  5
35C8
331
140AB
  5
140AB
331
14074
  5
14074
331
1407C
  5
1407C
331
140B3
  5
140B3
331
140E4
  5
140E4
331
14123
  5
14123
331
140EC
  5
140EC
331
140F4
  5
140F4
331
140FC
  5
140FC
331
2C65
  5
2EE7
331
140BB
  5
140BB
331
14084
  5
14084
331
1408C
  5
1408C
331
140C3
  5
140C3
331
14094
  5
14094
331
140CB
  5
140CB
331
1409C
  5
1409C
331
140D5
  5
140D5
331
14104
  5
14104
331
1410C
  5
1410C
331
140DD
  5
140DD
331
14114
  5
14114
331
1411C
  5
1411C
331
141AB
  5
141AC
331
140A4
  5
140A4
331
140AC
  5
140AC
331
1406D
  5
1406D
331
14075
  5
14075
331
1407D
  5
1407D
331
140B4
  5
140B4
331
140E5
  5
140E5
331
14124
  5
14124
331
140ED
  5
140ED
331
140F5
  5
140F5
331
1412C
  5
1412C
331
140FD
  5
140FD
331
28AE
  5
2A38
331
14085
  5
14085
331
3807
  5
3895
331
140BC
  5
140BC
331
1408D
  5
1408D
331
140C4
  5
140C4
331
140CC
  5
140CC
331
14095
  5
14095
331
1409D
  5
1409D
331
14105
  5
14105
331
140D6
  5
140D6
331
1410D
  5
1410D
331
140DE
  5
140DE
331
14115
  5
14115
331
141AC
  5
141AD
331
1411D
  5
1411D
331
140A5
  5
140A5
331
14066
  5
14066
331
1406E
  5
1406E
331
35C8
  5
35D8
331
140AD
  5
140AD
331
14076
  5
14076
331
35D8
  5
3807
331
140B5
  5
140B5
331
1407E
  5
1407E
331
140E6
  5
140E6
331
140EE
  5
140EE
331
140F6
  5
140F6
331
1412D
  5
1412D
331
140FE
  5
140FE
331
2EE7
  5
2F93
331
140BD
  5
140BD
331
14086
  5
14086
331
1408E
  5
1408E
331
140C5
  5
140C5
331
14096
  5
14096
331
140CD
  5
140CD
331
1409E
  5
1409E
331
140D7
  5
140D7
331
14106
  5
14106
331
1419D
  5
1419E
331
1410E
  5
1410E
331
14116
  5
14116
331
140DF
  5
140DF
331
141AD
  5
141AE
331
14067
  5
14067
331
140A6
  5
140A6
331
140AE
  5
140AE
331
1406F
  5
1406F
331
14077
  5
14077
331
1407F
  5
1407F
331
140B6
  5
140B6
331
140E7
  5
140E7
331
14126
  5
14126
331
140EF
  5
140EF
331
140F7
  5
140F7
331
1412E
  5
1412E
331
140FF
  5
140FF
331
14087
  5
14087
331
140BE
  5
140BE
331
140C6
  5
140C6
331
1408F
  5
1408F
331
140CE
  5
140CE
331
14097
  5
14097
331
1409F
  5
1409F
  0
XRECORD
  5
150C4
102
{ACAD_REACTORS
330
150C3
102
}
330
150C3
100
AcDbXrecord
280
     1
 40
3722218.0
  1
\pxqc;档案员{\H0.7x;\P\Fromans|c134;Filing Clerk\fFangSong_GB2312|b0|i0|c134|p49; }
  0
XRECORD
  5
150C6
102
{ACAD_REACTORS
330
150C5
102
}
330
150C5
100
AcDbXrecord
280
     1
 40
2054649.0
  1
\pxqc;日期{\Fromans|c134;/Date}
  0
XRECORD
  5
150C8
102
{ACAD_REACTORS
330
150C7
102
}
330
150C7
100
AcDbXrecord
280
     1
 40
1836818.0
  1
\pxsm0.7;{\fFangSong_GB2312|b0|i0|c134|p49;标准化}\PStand.
  0
XRECORD
  5
150CA
102
{ACAD_REACTORS
330
150C9
102
}
330
150C9
100
AcDbXrecord
280
     1
 40
1476476.0
  1
\pxsm0.7;签名\P{\Fromans|c134;Signature} 
  0
XRECORD
  5
150CC
102
{ACAD_REACTORS
330
150CB
102
}
330
150CB
100
AcDbXrecord
280
     1
 40
1354713.0
  1
\pxsm0.7,qc;处数\P{\Fromans|c134;Number }
  0
XRECORD
  5
150CE
102
{ACAD_REACTORS
330
150CD
102
}
330
150CD
100
AcDbXrecord
280
     1
 40
1692934.0
  1
\pxsm0.7;标记\P{\Fromans|c134;Mark}
  0
XRECORD
  5
150D0
102
{ACAD_REACTORS
330
150CF
102
}
330
150CF
100
AcDbXrecord
280
     1
 40
1391581.0
  1
\pxsm0.7;审核\P{\Fromans|c134;Checked}
  0
XRECORD
  5
150D2
102
{ACAD_REACTORS
330
150D1
102
}
330
150D1
100
AcDbXrecord
280
     1
 40
1546703.0
  1
\pxsm0.7;绘图\P{\Fromans|c134;Drawn\Ftxt|c134; }
  0
XRECORD
  5
150D4
102
{ACAD_REACTORS
330
150D3
102
}
330
150D3
100
AcDbXrecord
280
     1
 40
1293614.0
  1
\pxsm0.7;批准\P{\Fromans|c134;Approved}
  0
XRECORD
  5
150D6
102
{ACAD_REACTORS
330
150D5
102
}
330
150D5
100
AcDbXrecord
280
     1
 40
1583427.0
  1
\pxsm0.7;工艺\P{\Fromans|c134;Process}
  0
XRECORD
  5
150D8
102
{ACAD_REACTORS
330
150D7
102
}
330
150D7
100
AcDbXrecord
280
     1
 40
1435325.0
  1
\pxsm0.7;日期\P{\Fromans|c134;Date}
  0
XRECORD
  5
150DA
102
{ACAD_REACTORS
330
150D9
102
}
330
150D9
100
AcDbXrecord
280
     1
 40
321992423.0
  1
\A1;\pxql;{\f仿宋_GB2312|b0|i0|c134|p49;技术参数}:\P\pq*;- {\f仿宋_GB2312|b0|i0|c134|p49;材料}: {\f仿宋_GB2312|b0|i0|c134|p49;铜合金}\P- {\f仿宋_GB2312|b0|i0|c134|p49;表面处理}: {\f仿宋_GB2312|b0|i0|c134|p49;镀金}\P\pql;- {\f仿宋_GB2312|b0|i0|c134|p49;额定电流}: 10A\P- {\f仿宋_GB231
  1
2|b0|i0|c134|p49;接触电阻}: ≤3mΩ\P- {\f仿宋_GB2312|b0|i0|c134|p49;线径范围}: 1.0mm{\H0.7x;\S2^ ;}(18 AWG)\P\pq*;- {\f仿宋_GB2312|b0|i0|c134|p49;可插拔次数}: {\f仿宋_GB2312|b0|i0|c134|p49;≥}500\P\P\pql;Technical specification:\P- Material: copper alloy\P- Surface: hard-g
  1
old plated\P- Rated current: 10A\P- Contact resistance: ≤3mΩ\P- Wire gauge: 1.0mm{\H0.7x;\S2^ ;}(18 AWG)\P- Mating cycles: {\f仿宋_GB2312|b0|i0|c134|p49;≥}500
  0
DIMASSOC
  5
14B58
102
{ACAD_REACTORS
330
14B57
102
}
330
14B57
100
AcDbDimAssoc
330
14B56
 90
        2
 70
     0
 71
     0
  1
AcDbOsnapPointRef
 72
     1
331
14B68
 73
     2
 91
        0
 40
1.0
 10
0.0
 20
0.0
 30
2.000000000000000E+50
 75
     0
  0
DIMASSOC
  5
14BA5
102
{ACAD_REACTORS
330
14BA4
102
}
330
14BA4
100
AcDbDimAssoc
330
14BA3
 90
        2
 70
     0
 71
     0
  1
AcDbOsnapPointRef
 72
     1
331
14B9F
 73
     2
 91
        0
 40
1.0
 10
0.0
 20
0.0
 30
2.000000000000000E+50
 75
     0
  0
LAYOUT
  5
1E
102
{ACAD_REACTORS
330
1A
102
}
330
1A
100
AcDbPlotSettings
  1

  2
none_device
  4

  6

 40
0.0
 41
0.0
 42
0.0
 43
0.0
 44
0.0
 45
0.0
 46
0.0
 47
0.0
 48
0.0
 49
0.0
140
0.0
141
0.0
142
1.0
143
1.0
 70
   688
 72
     0
 73
     0
 74
     5
  7

 75
    16
147
1.0
 76
     0
 77
     2
 78
   300
148
0.0
149
0.0
100
AcDbLayout
  1
Layout1
 70
     1
 71
     1
 10
0.0
 20
0.0
 11
12.0
 21
9.0
 12
0.0
 22
0.0
 32
0.0
 14
1.000000000000000E+20
 24
1.000000000000000E+20
 34
1.000000000000000E+20
 15
-1.000000000000000E+20
 25
-1.000000000000000E+20
 35
-1.000000000000000E+20
146
0.0
 13
0.0
 23
0.0
 33
0.0
 16
1.0
 26
0.0
 36
0.0
 17
0.0
 27
1.0
 37
0.0
 76
     0
330
1B
  0
LAYOUT
  5
26
102
{ACAD_REACTORS
330
1A
102
}
330
1A
100
AcDbPlotSettings
  1

  2
none_device
  4

  6

 40
0.0
 41
0.0
 42
0.0
 43
0.0
 44
0.0
 45
0.0
 46
0.0
 47
0.0
 48
0.0
 49
0.0
140
0.0
141
0.0
142
1.0
143
1.0
 70
   688
 72
     0
 73
     0
 74
     5
  7

 75
    16
147
1.0
 76
     0
 77
     2
 78
   300
148
0.0
149
0.0
100
AcDbLayout
  1
Layout2
 70
     1
 71
     2
 10
0.0
 20
0.0
 11
0.0
 21
0.0
 12
0.0
 22
0.0
 32
0.0
 14
0.0
 24
0.0
 34
0.0
 15
0.0
 25
0.0
 35
0.0
146
0.0
 13
0.0
 23
0.0
 33
0.0
 16
1.0
 26
0.0
 36
0.0
 17
0.0
 27
1.0
 37
0.0
 76
     0
330
23
  0
LAYOUT
  5
22
102
{ACAD_REACTORS
330
1A
102
}
330
1A
100
AcDbPlotSettings
  1

  2
Adobe PDF Converter.pc3
  4
A4
  6

 40
3.174999952316281
 41
3.174999952316281
 42
3.17498779296875
 43
3.175003051757812
 44
297.0318298339844
 45
209.9733276367186
 46
0.0000000000000076
 47
1.630241740247063
 48
246.9897427644609
 49
39.36804549891383
140
544.952097801264
141
244.7492402188181
142
1.0
143
1.025046328645055
 70
  3764
 72
     1
 73
     0
 74
     4
  7
monochrome.ctb
 75
     0
147
0.9755656618192436
 76
     1
 77
     2
 78
   300
148
-246.9897427644609
149
-39.36804549891383
100
AcDbLayout
  1
Model
 70
     1
 71
     0
 10
0.0
 20
0.0
 11
12.0
 21
9.0
 12
0.0
 22
0.0
 32
0.0
 14
1.000000000000000E+20
 24
1.000000000000000E+20
 34
1.000000000000000E+20
 15
-1.000000000000000E+20
 25
-1.000000000000000E+20
 35
-1.000000000000000E+20
146
0.0
 13
0.0
 23
0.0
 33
0.0
 16
1.0
 26
0.0
 36
0.0
 17
0.0
 27
1.0
 37
0.0
 76
     0
330
1F
331
29
1001
ACAD_PSEXT
1000
Adobe PDF Converter.pc3
1000
Adobe PDF Converter
1000
桌面\*.pdf
1000

1070
     0
  0
MATERIAL
  5
4FEE
102
{ACAD_XDICTIONARY
360
4FEF
102
}
102
{ACAD_REACTORS
330
4FE5
102
}
330
4FE5
100
AcDbMaterial
  1
ByBlock
 72
     0
 43
0.0208333333333333
 43
0.0
 43
0.0
 43
0.0
 43
0.0
 43
0.0208333333333333
 43
0.0
 43
0.0
 43
0.0
 43
0.0
 43
1.0
 43
0.0
 43
0.0
 43
0.0
 43
0.0
 43
1.0
 77
     0
 47
0.0208333333333333
 47
0.0
 47
0.0
 47
0.0
 47
0.0
 47
0.0208333333333333
 47
0.0
 47
0.0
 47
0.0
 47
0.0
 47
1.0
 47
0.0
 47
0.0
 47
0.0
 47
0.0
 47
1.0
171
     0
 49
0.0208333333333333
 49
0.0
 49
0.0
 49
0.0
 49
0.0
 49
0.0208333333333333
 49
0.0
 49
0.0
 49
0.0
 49
0.0
 49
1.0
 49
0.0
 49
0.0
 49
0.0
 49
0.0
 49
1.0
175
     0
142
0.0208333333333333
142
0.0
142
0.0
142
0.0
142
0.0
142
0.0208333333333333
142
0.0
142
0.0
142
0.0
142
0.0
142
1.0
142
0.0
142
0.0
142
0.0
142
0.0
142
1.0
179
     0
144
0.0208333333333333
144
0.0
144
0.0
144
0.0
144
0.0
144
0.0208333333333333
144
0.0
144
0.0
144
0.0
144
0.0
144
1.0
144
0.0
144
0.0
144
0.0
144
0.0
144
1.0
147
0.0208333333333333
147
0.0
147
0.0
147
0.0
147
0.0
147
0.0208333333333333
147
0.0
147
0.0
147
0.0
147
0.0
147
1.0
147
0.0
147
0.0
147
0.0
147
0.0
147
1.0
  0
MATERIAL
  5
4FE6
102
{ACAD_XDICTIONARY
360
4FE7
102
}
102
{ACAD_REACTORS
330
4FE5
102
}
330
4FE5
100
AcDbMaterial
  1
ByLayer
 72
     0
 43
0.0208333333333333
 43
0.0
 43
0.0
 43
0.0
 43
0.0
 43
0.0208333333333333
 43
0.0
 43
0.0
 43
0.0
 43
0.0
 43
1.0
 43
0.0
 43
0.0
 43
0.0
 43
0.0
 43
1.0
 77
     0
 47
0.0208333333333333
 47
0.0
 47
0.0
 47
0.0
 47
0.0
 47
0.0208333333333333
 47
0.0
 47
0.0
 47
0.0
 47
0.0
 47
1.0
 47
0.0
 47
0.0
 47
0.0
 47
0.0
 47
1.0
171
     0
 49
0.0208333333333333
 49
0.0
 49
0.0
 49
0.0
 49
0.0
 49
0.0208333333333333
 49
0.0
 49
0.0
 49
0.0
 49
0.0
 49
1.0
 49
0.0
 49
0.0
 49
0.0
 49
0.0
 49
1.0
175
     0
142
0.0208333333333333
142
0.0
142
0.0
142
0.0
142
0.0
142
0.0208333333333333
142
0.0
142
0.0
142
0.0
142
0.0
142
1.0
142
0.0
142
0.0
142
0.0
142
0.0
142
1.0
179
     0
144
0.0208333333333333
144
0.0
144
0.0
144
0.0
144
0.0
144
0.0208333333333333
144
0.0
144
0.0
144
0.0
144
0.0
144
1.0
144
0.0
144
0.0
144
0.0
144
0.0
144
1.0
147
0.0208333333333333
147
0.0
147
0.0
147
0.0
147
0.0
147
0.0208333333333333
147
0.0
147
0.0
147
0.0
147
0.0
147
1.0
147
0.0
147
0.0
147
0.0
147
0.0
147
1.0
  0
MATERIAL
  5
4FF6
102
{ACAD_XDICTIONARY
360
4FF7
102
}
102
{ACAD_REACTORS
330
4FE5
102
}
330
4FE5
100
AcDbMaterial
  1
Global
 72
     0
 43
0.0208333333333333
 43
0.0
 43
0.0
 43
0.0
 43
0.0
 43
0.0208333333333333
 43
0.0
 43
0.0
 43
0.0
 43
0.0
 43
1.0
 43
0.0
 43
0.0
 43
0.0
 43
0.0
 43
1.0
 77
     0
 47
0.0208333333333333
 47
0.0
 47
0.0
 47
0.0
 47
0.0
 47
0.0208333333333333
 47
0.0
 47
0.0
 47
0.0
 47
0.0
 47
1.0
 47
0.0
 47
0.0
 47
0.0
 47
0.0
 47
1.0
171
     0
 49
0.0208333333333333
 49
0.0
 49
0.0
 49
0.0
 49
0.0
 49
0.0208333333333333
 49
0.0
 49
0.0
 49
0.0
 49
0.0
 49
1.0
 49
0.0
 49
0.0
 49
0.0
 49
0.0
 49
1.0
175
     0
142
0.0208333333333333
142
0.0
142
0.0
142
0.0
142
0.0
142
0.0208333333333333
142
0.0
142
0.0
142
0.0
142
0.0
142
1.0
142
0.0
142
0.0
142
0.0
142
0.0
142
1.0
179
     0
144
0.0208333333333333
144
0.0
144
0.0
144
0.0
144
0.0
144
0.0208333333333333
144
0.0
144
0.0
144
0.0
144
0.0
144
1.0
144
0.0
144
0.0
144
0.0
144
0.0
144
1.0
147
0.0208333333333333
147
0.0
147
0.0
147
0.0
147
0.0
147
0.0208333333333333
147
0.0
147
0.0
147
0.0
147
0.0
147
1.0
147
0.0
147
0.0
147
0.0
147
0.0
147
1.0
  0
MLEADERSTYLE
  5
5023
102
{ACAD_REACTORS
330
5022
102
}
330
5022
100
AcDbMLeaderStyle
170
     2
171
     1
172
     0
 90
        2
 40
0.0
 41
0.0
173
     1
 91
-1056964608
340
14
 92
       -2
290
     1
 42
0.09
291
     1
 43
0.36
  3
Standard
 44
0.18
300

342
11
174
     1
178
     6
175
     1
176
     0
 93
-1056964608
 45
0.18
292
     0
297
     0
 46
0.18
 94
-1056964608
 47
1.0
 49
1.0
140
1.0
293
     1
141
0.0
294
     1
177
     0
142
1.0
295
     0
296
     0
143
0.125
1001
ACAD_MLEADERVER
1070
     2
  0
MLINESTYLE
  5
18
102
{ACAD_REACTORS
330
17
102
}
330
17
100
AcDbMlineStyle
  2
STANDARD
 70
     0
  3

 62
   256
 51
90.0
 52
90.0
 71
     2
 49
0.5
 62
   256
  6
BYLAYER
 49
-0.5
 62
   256
  6
BYLAYER
  0
ACDBPLACEHOLDER
  5
F
102
{ACAD_REACTORS
330
E
102
}
330
E
  0
MENTALRAYRENDERSETTINGS
  5
6538
102
{ACAD_REACTORS
330
6537
102
}
330
6537
100
AcDbRenderSettings
 90
        2
  1
中
290
     1
290
     1
290
     1
290
     1
  1

  1
渲染质量好于“低级”。包括纹理过滤并且强制双面处于激活状态。处理中等级反锯齿和 5 反射/折射的光线跟踪深度。
 90
        0
100
AcDbMentalRayRenderSettings
 90
        2
 90
        0
 90
        1
 70
     2
 40
3.0
 40
3.0
 40
0.0500000007450581
 40
0.0500000007450581
 40
0.0500000007450581
 40
0.0500000007450581
 70
     0
290
     0
290
     1
 90
        5
 90
        5
 90
        5
290
     0
 90
      500
290
     0
 40
1.0
 90
    10000
 90
        5
 90
        5
 90
        5
290
     0
 90
      200
290
     0
290
     0
290
     0
 40
0.1
 40
1.0
 40
1500.0
 70
     0
 70
     0
 40
10.0
 70
     0
 70
     0
290
     0
  1

 90
       32
 70
     0
 90
     1048
290
     0
 40
1.0
  0
SCALE
  5
5001
102
{ACAD_REACTORS
330
5000
102
}
330
5000
100
AcDbScale
 70
     0
300
1:1
140
1.0
141
1.0
290
     1
  0
SCALE
  5
5002
102
{ACAD_REACTORS
330
5000
102
}
330
5000
100
AcDbScale
 70
     0
300
1:2
140
1.0
141
2.0
290
     0
  0
SCALE
  5
5003
102
{ACAD_REACTORS
330
5000
102
}
330
5000
100
AcDbScale
 70
     0
300
1:4
140
1.0
141
4.0
290
     0
  0
SCALE
  5
5004
102
{ACAD_REACTORS
330
5000
102
}
330
5000
100
AcDbScale
 70
     0
300
1:5
140
1.0
141
5.0
290
     0
  0
SCALE
  5
5005
102
{ACAD_REACTORS
330
5000
102
}
330
5000
100
AcDbScale
 70
     0
300
1:8
140
1.0
141
8.0
290
     0
  0
SCALE
  5
5006
102
{ACAD_REACTORS
330
5000
102
}
330
5000
100
AcDbScale
 70
     0
300
1:10
140
1.0
141
10.0
290
     0
  0
SCALE
  5
5007
102
{ACAD_REACTORS
330
5000
102
}
330
5000
100
AcDbScale
 70
     0
300
1:16
140
1.0
141
16.0
290
     0
  0
SCALE
  5
5008
102
{ACAD_REACTORS
330
5000
102
}
330
5000
100
AcDbScale
 70
     0
300
1:20
140
1.0
141
20.0
290
     0
  0
SCALE
  5
5009
102
{ACAD_REACTORS
330
5000
102
}
330
5000
100
AcDbScale
 70
     0
300
1:30
140
1.0
141
30.0
290
     0
  0
SCALE
  5
500A
102
{ACAD_REACTORS
330
5000
102
}
330
5000
100
AcDbScale
 70
     0
300
1:40
140
1.0
141
40.0
290
     0
  0
SCALE
  5
500B
102
{ACAD_REACTORS
330
5000
102
}
330
5000
100
AcDbScale
 70
     0
300
1:50
140
1.0
141
50.0
290
     0
  0
SCALE
  5
500C
102
{ACAD_REACTORS
330
5000
102
}
330
5000
100
AcDbScale
 70
     0
300
1:100
140
1.0
141
100.0
290
     0
  0
SCALE
  5
500D
102
{ACAD_REACTORS
330
5000
102
}
330
5000
100
AcDbScale
 70
     0
300
2:1
140
2.0
141
1.0
290
     0
  0
SCALE
  5
500E
102
{ACAD_REACTORS
330
5000
102
}
330
5000
100
AcDbScale
 70
     0
300
4:1
140
4.0
141
1.0
290
     0
  0
SCALE
  5
500F
102
{ACAD_REACTORS
330
5000
102
}
330
5000
100
AcDbScale
 70
     0
300
8:1
140
8.0
141
1.0
290
     0
  0
SCALE
  5
5010
102
{ACAD_REACTORS
330
5000
102
}
330
5000
100
AcDbScale
 70
     0
300
10:1
140
10.0
141
1.0
290
     0
  0
SCALE
  5
5011
102
{ACAD_REACTORS
330
5000
102
}
330
5000
100
AcDbScale
 70
     0
300
100:1
140
100.0
141
1.0
290
     0
  0
SCALE
  5
5012
102
{ACAD_REACTORS
330
5000
102
}
330
5000
100
AcDbScale
 70
     0
300
1/128" = 1'-0"
140
0.0078125
141
12.0
290
     0
  0
SCALE
  5
5013
102
{ACAD_REACTORS
330
5000
102
}
330
5000
100
AcDbScale
 70
     0
300
1/64" = 1'-0"
140
0.015625
141
12.0
290
     0
  0
SCALE
  5
5014
102
{ACAD_REACTORS
330
5000
102
}
330
5000
100
AcDbScale
 70
     0
300
1/32" = 1'-0"
140
0.03125
141
12.0
290
     0
  0
SCALE
  5
5015
102
{ACAD_REACTORS
330
5000
102
}
330
5000
100
AcDbScale
 70
     0
300
1/16" = 1'-0"
140
0.0625
141
12.0
290
     0
  0
SCALE
  5
5016
102
{ACAD_REACTORS
330
5000
102
}
330
5000
100
AcDbScale
 70
     0
300
3/32" = 1'-0"
140
0.09375
141
12.0
290
     0
  0
SCALE
  5
5017
102
{ACAD_REACTORS
330
5000
102
}
330
5000
100
AcDbScale
 70
     0
300
1/8" = 1'-0"
140
0.125
141
12.0
290
     0
  0
SCALE
  5
5018
102
{ACAD_REACTORS
330
5000
102
}
330
5000
100
AcDbScale
 70
     0
300
3/16" = 1'-0"
140
0.1875
141
12.0
290
     0
  0
SCALE
  5
5019
102
{ACAD_REACTORS
330
5000
102
}
330
5000
100
AcDbScale
 70
     0
300
1/4" = 1'-0"
140
0.25
141
12.0
290
     0
  0
SCALE
  5
501A
102
{ACAD_REACTORS
330
5000
102
}
330
5000
100
AcDbScale
 70
     0
300
3/8" = 1'-0"
140
0.375
141
12.0
290
     0
  0
SCALE
  5
501B
102
{ACAD_REACTORS
330
5000
102
}
330
5000
100
AcDbScale
 70
     0
300
1/2" = 1'-0"
140
0.5
141
12.0
290
     0
  0
SCALE
  5
501C
102
{ACAD_REACTORS
330
5000
102
}
330
5000
100
AcDbScale
 70
     0
300
3/4" = 1'-0"
140
0.75
141
12.0
290
     0
  0
SCALE
  5
501D
102
{ACAD_REACTORS
330
5000
102
}
330
5000
100
AcDbScale
 70
     0
300
1" = 1'-0"
140
1.0
141
12.0
290
     0
  0
SCALE
  5
501E
102
{ACAD_REACTORS
330
5000
102
}
330
5000
100
AcDbScale
 70
     0
300
1-1/2" = 1'-0"
140
1.5
141
12.0
290
     0
  0
SCALE
  5
501F
102
{ACAD_REACTORS
330
5000
102
}
330
5000
100
AcDbScale
 70
     0
300
3" = 1'-0"
140
3.0
141
12.0
290
     0
  0
SCALE
  5
5020
102
{ACAD_REACTORS
330
5000
102
}
330
5000
100
AcDbScale
 70
     0
300
6" = 1'-0"
140
6.0
141
12.0
290
     0
  0
SCALE
  5
5021
102
{ACAD_REACTORS
330
5000
102
}
330
5000
100
AcDbScale
 70
     0
300
1'-0" = 1'-0"
140
12.0
141
12.0
290
     0
  0
TABLESTYLE
  5
4FFF
102
{ACAD_XDICTIONARY
360
50D6
102
}
102
{ACAD_REACTORS
330
4FE3
102
}
330
4FE3
100
AcDbTableStyle
  3
Standard
 70
     0
 71
     0
 40
0.06
 41
0.06
280
     0
281
     0
  7
Standard
140
0.18
170
     2
 62
     0
 63
     7
283
     0
 90
      512
 91
        0
  1

274
    -2
284
     1
 64
     0
275
    -2
285
     1
 65
     0
276
    -2
286
     1
 66
     0
277
    -2
287
     1
 67
     0
278
    -2
288
     1
 68
     0
279
    -2
289
     1
 69
     0
  7
Standard
140
0.25
170
     5
 62
     0
 63
     7
283
     0
 90
      512
 91
        0
  1

274
    -2
284
     1
 64
     0
275
    -2
285
     1
 65
     0
276
    -2
286
     1
 66
     0
277
    -2
287
     1
 67
     0
278
    -2
288
     1
 68
     0
279
    -2
289
     1
 69
     0
  7
Standard
140
0.18
170
     5
 62
     0
 63
     7
283
     0
 90
      512
 91
        0
  1

274
    -2
284
     1
 64
     0
275
    -2
285
     1
 65
     0
276
    -2
286
     1
 66
     0
277
    -2
287
     1
 67
     0
278
    -2
288
     1
 68
     0
279
    -2
289
     1
 69
     0
  0
VISUALSTYLE
  5
2F
102
{ACAD_REACTORS
330
2A
102
}
330
2A
100
AcDbVisualStyle
  2
2dWireframe
 70
     4
 71
     0
 72
     2
 73
     0
 90
        0
 40
-0.6
 41
-30.0
 62
     5
 63
     7
 74
     1
 91
        4
 64
     7
 65
   257
 75
     1
175
     1
 42
1.0
 92
        0
 66
   257
 43
1.0
 76
     1
 77
     6
 78
     2
 67
     7
 79
     5
170
     0
171
     0
290
     0
174
     0
 93
        1
 44
0.0
173
     0
291
     0
 45
0.0
1001
ACAD
1000
AcDbSavedByObjectVersion
1070
     0
1000
AcDbSavedByObjectVersion
1070
     0
1000
AcDbSavedByObjectVersion
1070
     0
1000
AcDbSavedByObjectVersion
1070
     0
1000
AcDbSavedByObjectVersion
1070
     0
1000
AcDbSavedByObjectVersion
1070
     0
1000
AcDbSavedByObjectVersion
1070
     0
1000
AcDbSavedByObjectVersion
1070
     0
1000
AcDbSavedByObjectVersion
1070
     0
1000
AcDbSavedByObjectVersion
1070
     0
1000
AcDbSavedByObjectVersion
1070
     0
1000
AcDbSavedByObjectVersion
1070
     0
1000
AcDbSavedByObjectVersion
1070
     0
1000
AcDbSavedByObjectVersion
1070
     0
1000
AcDbSavedByObjectVersion
1070
     0
1000
AcDbSavedByObjectVersion
1070
     0
1000
AcDbSavedByObjectVersion
1070
     0
1000
AcDbSavedByObjectVersion
1070
     0
1000
AcDbSavedByObjectVersion
1070
     0
1000
AcDbSavedByObjectVersion
1070
     0
1000
AcDbSavedByObjectVersion
1070
     0
1000
AcDbSavedByObjectVersion
1070
     0
1000
AcDbSavedByObjectVersion
1070
     0
1000
AcDbSavedByObjectVersion
1070
     0
1000
AcDbSavedByObjectVersion
1070
     0
1000
AcDbSavedByObjectVersion
1070
     0
1000
AcDbSavedByObjectVersion
1070
     0
1000
AcDbSavedByObjectVersion
1070
     0
1000
AcDbSavedByObjectVersion
1070
     0
1000
AcDbSavedByObjectVersion
1070
     0
1000
AcDbSavedByObjectVersion
1070
     0
1000
AcDbSavedByObjectVersion
1070
     0
1000
AcDbSavedByObjectVersion
1070
     0
1000
AcDbSavedByObjectVersion
1070
     0
1000
AcDbSavedByObjectVersion
1070
     0
1000
AcDbSavedByObjectVersion
1070
     0
1000
AcDbSavedByObjectVersion
1070
     0
1000
AcDbSavedByObjectVersion
1070
     0
  0
VISUALSTYLE
  5
31
102
{ACAD_REACTORS
330
2A
102
}
330
2A
100
AcDbVisualStyle
  2
3D Hidden
 70
     6
 71
     1
 72
     2
 73
     2
 90
        0
 40
-0.6
 41
-30.0
 62
     5
 63
     7
 74
     2
 91
        2
 64
     7
 65
   257
 75
     2
175
     1
 42
40.0
 92
        0
 66
   257
 43
1.0
 76
     1
 77
     6
 78
     2
 67
     7
 79
     3
170
     0
171
     0
290
     0
174
     0
 93
        1
 44
0.0
173
     0
291
     0
 45
0.0
1001
ACAD
1000
AcDbSavedByObjectVersion
1070
     0
1000
AcDbSavedByObjectVersion
1070
     0
1000
AcDbSavedByObjectVersion
1070
     0
1000
AcDbSavedByObjectVersion
1070
     0
1000
AcDbSavedByObjectVersion
1070
     0
1000
AcDbSavedByObjectVersion
1070
     0
1000
AcDbSavedByObjectVersion
1070
     0
1000
AcDbSavedByObjectVersion
1070
     0
1000
AcDbSavedByObjectVersion
1070
     0
1000
AcDbSavedByObjectVersion
1070
     0
1000
AcDbSavedByObjectVersion
1070
     0
1000
AcDbSavedByObjectVersion
1070
     0
1000
AcDbSavedByObjectVersion
1070
     0
1000
AcDbSavedByObjectVersion
1070
     0
1000
AcDbSavedByObjectVersion
1070
     0
1000
AcDbSavedByObjectVersion
1070
     0
1000
AcDbSavedByObjectVersion
1070
     0
1000
AcDbSavedByObjectVersion
1070
     0
1000
AcDbSavedByObjectVersion
1070
     0
1000
AcDbSavedByObjectVersion
1070
     0
1000
AcDbSavedByObjectVersion
1070
     0
1000
AcDbSavedByObjectVersion
1070
     0
1000
AcDbSavedByObjectVersion
1070
     0
1000
AcDbSavedByObjectVersion
1070
     0
1000
AcDbSavedByObjectVersion
1070
     0
1000
AcDbSavedByObjectVersion
1070
     0
1000
AcDbSavedByObjectVersion
1070
     0
1000
AcDbSavedByObjectVersion
1070
     0
1000
AcDbSavedByObjectVersion
1070
     0
1000
AcDbSavedByObjectVersion
1070
     0
1000
AcDbSavedByObjectVersion
1070
     0
1000
AcDbSavedByObjectVersion
1070
     0
1000
AcDbSavedByObjectVersion
1070
     0
1000
AcDbSavedByObjectVersion
1070
     0
1000
AcDbSavedByObjectVersion
1070
     0
1000
AcDbSavedByObjectVersion
1070
     0
1000
AcDbSavedByObjectVersion
1070
     0
1000
AcDbSavedByObjectVersion
1070
     0
  0
VISUALSTYLE
  5
30
102
{ACAD_REACTORS
330
2A
102
}
330
2A
100
AcDbVisualStyle
  2
3dWireframe
 70
     5
 71
     0
 72
     2
 73
     0
 90
        0
 40
-0.6
 41
-30.0
 62
     5
 63
     7
 74
     1
 91
        4
 64
     7
 65
   257
 75
     1
175
     1
 42
1.0
 92
        0
 66
   257
 43
1.0
 76
     1
 77
     6
 78
     2
 67
     7
 79
     5
170
     0
171
     0
290
     0
174
     0
 93
        1
 44
0.0
173
     0
291
     0
 45
0.0
1001
ACAD
1000
AcDbSavedByObjectVersion
1070
     0
1000
AcDbSavedByObjectVersion
1070
     0
1000
AcDbSavedByObjectVersion
1070
     0
1000
AcDbSavedByObjectVersion
1070
     0
1000
AcDbSavedByObjectVersion
1070
     0
1000
AcDbSavedByObjectVersion
1070
     0
1000
AcDbSavedByObjectVersion
1070
     0
1000
AcDbSavedByObjectVersion
1070
     0
1000
AcDbSavedByObjectVersion
1070
     0
1000
AcDbSavedByObjectVersion
1070
     0
1000
AcDbSavedByObjectVersion
1070
     0
1000
AcDbSavedByObjectVersion
1070
     0
1000
AcDbSavedByObjectVersion
1070
     0
1000
AcDbSavedByObjectVersion
1070
     0
1000
AcDbSavedByObjectVersion
1070
     0
1000
AcDbSavedByObjectVersion
1070
     0
1000
AcDbSavedByObjectVersion
1070
     0
1000
AcDbSavedByObjectVersion
1070
     0
1000
AcDbSavedByObjectVersion
1070
     0
1000
AcDbSavedByObjectVersion
1070
     0
1000
AcDbSavedByObjectVersion
1070
     0
1000
AcDbSavedByObjectVersion
1070
     0
1000
AcDbSavedByObjectVersion
1070
     0
1000
AcDbSavedByObjectVersion
1070
     0
1000
AcDbSavedByObjectVersion
1070
     0
1000
AcDbSavedByObjectVersion
1070
     0
1000
AcDbSavedByObjectVersion
1070
     0
1000
AcDbSavedByObjectVersion
1070
     0
1000
AcDbSavedByObjectVersion
1070
     0
1000
AcDbSavedByObjectVersion
1070
     0
1000
AcDbSavedByObjectVersion
1070
     0
1000
AcDbSavedByObjectVersion
1070
     0
1000
AcDbSavedByObjectVersion
1070
     0
1000
AcDbSavedByObjectVersion
1070
     0
1000
AcDbSavedByObjectVersion
1070
     0
1000
AcDbSavedByObjectVersion
1070
     0
1000
AcDbSavedByObjectVersion
1070
     0
1000
AcDbSavedByObjectVersion
1070
     0
  0
VISUALSTYLE
  5
32
102
{ACAD_REACTORS
330
2A
102
}
330
2A
100
AcDbVisualStyle
  2
Basic
 70
     7
 71
     1
 72
     0
 73
     1
 90
        0
 40
-0.6
 41
-30.0
 62
     5
 63
     7
 74
     0
 91
        4
 64
     7
 65
   257
 75
     1
175
     1
 42
1.0
 92
        8
 66
     7
 43
1.0
 76
     1
 77
     6
 78
     2
 67
     7
 79
     5
170
     0
171
     0
290
     0
174
     0
 93
        1
 44
0.0
173
     0
291
     1
 45
0.0
1001
ACAD
1000
AcDbSavedByObjectVersion
1070
     0
1000
AcDbSavedByObjectVersion
1070
     0
1000
AcDbSavedByObjectVersion
1070
     0
1000
AcDbSavedByObjectVersion
1070
     0
1000
AcDbSavedByObjectVersion
1070
     0
1000
AcDbSavedByObjectVersion
1070
     0
1000
AcDbSavedByObjectVersion
1070
     0
1000
AcDbSavedByObjectVersion
1070
     0
1000
AcDbSavedByObjectVersion
1070
     0
1000
AcDbSavedByObjectVersion
1070
     0
1000
AcDbSavedByObjectVersion
1070
     0
1000
AcDbSavedByObjectVersion
1070
     0
1000
AcDbSavedByObjectVersion
1070
     0
1000
AcDbSavedByObjectVersion
1070
     0
1000
AcDbSavedByObjectVersion
1070
     0
1000
AcDbSavedByObjectVersion
1070
     0
1000
AcDbSavedByObjectVersion
1070
     0
1000
AcDbSavedByObjectVersion
1070
     0
1000
AcDbSavedByObjectVersion
1070
     0
1000
AcDbSavedByObjectVersion
1070
     0
1000
AcDbSavedByObjectVersion
1070
     0
1000
AcDbSavedByObjectVersion
1070
     0
1000
AcDbSavedByObjectVersion
1070
     0
1000
AcDbSavedByObjectVersion
1070
     0
1000
AcDbSavedByObjectVersion
1070
     0
1000
AcDbSavedByObjectVersion
1070
     0
1000
AcDbSavedByObjectVersion
1070
     0
1000
AcDbSavedByObjectVersion
1070
     0
1000
AcDbSavedByObjectVersion
1070
     0
1000
AcDbSavedByObjectVersion
1070
     0
1000
AcDbSavedByObjectVersion
1070
     0
1000
AcDbSavedByObjectVersion
1070
     0
1000
AcDbSavedByObjectVersion
1070
     0
1000
AcDbSavedByObjectVersion
1070
     0
1000
AcDbSavedByObjectVersion
1070
     0
1000
AcDbSavedByObjectVersion
1070
     0
1000
AcDbSavedByObjectVersion
1070
     0
1000
AcDbSavedByObjectVersion
1070
     0
  0
VISUALSTYLE
  5
36
102
{ACAD_REACTORS
330
2A
102
}
330
2A
100
AcDbVisualStyle
  2
Brighten
 70
    12
 71
     2
 72
     2
 73
     0
 90
        0
 40
-0.6
 41
-30.0
 62
     5
 63
     7
 74
     1
 91
        4
 64
     7
 65
   257
 75
     1
175
     1
 42
1.0
 92
        8
 66
     7
 43
1.0
 76
     1
 77
     6
 78
     2
 67
     7
 79
     5
170
     0
171
     0
290
     0
174
     0
 93
        1
 44
50.0
173
     0
291
     1
 45
0.0
1001
ACAD
1000
AcDbSavedByObjectVersion
1070
     0
1000
AcDbSavedByObjectVersion
1070
     0
1000
AcDbSavedByObjectVersion
1070
     0
1000
AcDbSavedByObjectVersion
1070
     0
1000
AcDbSavedByObjectVersion
1070
     0
1000
AcDbSavedByObjectVersion
1070
     0
1000
AcDbSavedByObjectVersion
1070
     0
1000
AcDbSavedByObjectVersion
1070
     0
1000
AcDbSavedByObjectVersion
1070
     0
1000
AcDbSavedByObjectVersion
1070
     0
1000
AcDbSavedByObjectVersion
1070
     0
1000
AcDbSavedByObjectVersion
1070
     0
1000
AcDbSavedByObjectVersion
1070
     0
1000
AcDbSavedByObjectVersion
1070
     0
1000
AcDbSavedByObjectVersion
1070
     0
1000
AcDbSavedByObjectVersion
1070
     0
1000
AcDbSavedByObjectVersion
1070
     0
1000
AcDbSavedByObjectVersion
1070
     0
1000
AcDbSavedByObjectVersion
1070
     0
1000
AcDbSavedByObjectVersion
1070
     0
1000
AcDbSavedByObjectVersion
1070
     0
1000
AcDbSavedByObjectVersion
1070
     0
1000
AcDbSavedByObjectVersion
1070
     0
1000
AcDbSavedByObjectVersion
1070
     0
1000
AcDbSavedByObjectVersion
1070
     0
1000
AcDbSavedByObjectVersion
1070
     0
1000
AcDbSavedByObjectVersion
1070
     0
1000
AcDbSavedByObjectVersion
1070
     0
1000
AcDbSavedByObjectVersion
1070
     0
1000
AcDbSavedByObjectVersion
1070
     0
1000
AcDbSavedByObjectVersion
1070
     0
1000
AcDbSavedByObjectVersion
1070
     0
1000
AcDbSavedByObjectVersion
1070
     0
1000
AcDbSavedByObjectVersion
1070
     0
1000
AcDbSavedByObjectVersion
1070
     0
1000
AcDbSavedByObjectVersion
1070
     0
1000
AcDbSavedByObjectVersion
1070
     0
1000
AcDbSavedByObjectVersion
1070
     0
  0
VISUALSTYLE
  5
3A
102
{ACAD_REACTORS
330
2A
102
}
330
2A
100
AcDbVisualStyle
  2
ColorChange
 70
    16
 71
     2
 72
     2
 73
     3
 90
        0
 40
-0.6
 41
-30.0
 62
     5
 63
     8
 74
     1
 91
        4
 64
     7
 65
   257
 75
     1
175
     1
 42
1.0
 92
        8
 66
     8
 43
1.0
 76
     1
 77
     6
 78
     2
 67
     7
 79
     5
170
     0
171
     0
290
     0
174
     0
 93
        1
 44
0.0
173
     0
291
     1
 45
0.0
1001
ACAD
1000
AcDbSavedByObjectVersion
1070
     0
1000
AcDbSavedByObjectVersion
1070
     0
1000
AcDbSavedByObjectVersion
1070
     0
1000
AcDbSavedByObjectVersion
1070
     0
1000
AcDbSavedByObjectVersion
1070
     0
1000
AcDbSavedByObjectVersion
1070
     0
1000
AcDbSavedByObjectVersion
1070
     0
1000
AcDbSavedByObjectVersion
1070
     0
1000
AcDbSavedByObjectVersion
1070
     0
1000
AcDbSavedByObjectVersion
1070
     0
1000
AcDbSavedByObjectVersion
1070
     0
1000
AcDbSavedByObjectVersion
1070
     0
1000
AcDbSavedByObjectVersion
1070
     0
1000
AcDbSavedByObjectVersion
1070
     0
1000
AcDbSavedByObjectVersion
1070
     0
1000
AcDbSavedByObjectVersion
1070
     0
1000
AcDbSavedByObjectVersion
1070
     0
1000
AcDbSavedByObjectVersion
1070
     0
1000
AcDbSavedByObjectVersion
1070
     0
1000
AcDbSavedByObjectVersion
1070
     0
1000
AcDbSavedByObjectVersion
1070
     0
1000
AcDbSavedByObjectVersion
1070
     0
1000
AcDbSavedByObjectVersion
1070
     0
1000
AcDbSavedByObjectVersion
1070
     0
1000
AcDbSavedByObjectVersion
1070
     0
1000
AcDbSavedByObjectVersion
1070
     0
1000
AcDbSavedByObjectVersion
1070
     0
1000
AcDbSavedByObjectVersion
1070
     0
1000
AcDbSavedByObjectVersion
1070
     0
1000
AcDbSavedByObjectVersion
1070
     0
1000
AcDbSavedByObjectVersion
1070
     0
1000
AcDbSavedByObjectVersion
1070
     0
1000
AcDbSavedByObjectVersion
1070
     0
1000
AcDbSavedByObjectVersion
1070
     0
1000
AcDbSavedByObjectVersion
1070
     0
1000
AcDbSavedByObjectVersion
1070
     0
1000
AcDbSavedByObjectVersion
1070
     0
1000
AcDbSavedByObjectVersion
1070
     0
  0
VISUALSTYLE
  5
34
102
{ACAD_REACTORS
330
2A
102
}
330
2A
100
AcDbVisualStyle
  2
Conceptual
 70
     9
 71
     3
 72
     2
 73
     0
 90
        0
 40
-0.6
 41
-30.0
 62
     5
 63
     7
 74
     2
 91
        2
 64
     7
 65
   257
 75
     1
175
     1
 42
40.0
 92
        8
 66
     7
 43
1.0
 76
     1
 77
     6
 78
     2
 67
     7
 79
     3
170
     0
171
     0
290
     0
174
     0
 93
        1
 44
0.0
173
     0
291
     0
 45
0.0
1001
ACAD
1000
AcDbSavedByObjectVersion
1070
     0
1000
AcDbSavedByObjectVersion
1070
     0
1000
AcDbSavedByObjectVersion
1070
     0
1000
AcDbSavedByObjectVersion
1070
     0
1000
AcDbSavedByObjectVersion
1070
     0
1000
AcDbSavedByObjectVersion
1070
     0
1000
AcDbSavedByObjectVersion
1070
     0
1000
AcDbSavedByObjectVersion
1070
     0
1000
AcDbSavedByObjectVersion
1070
     0
1000
AcDbSavedByObjectVersion
1070
     0
1000
AcDbSavedByObjectVersion
1070
     0
1000
AcDbSavedByObjectVersion
1070
     0
1000
AcDbSavedByObjectVersion
1070
     0
1000
AcDbSavedByObjectVersion
1070
     0
1000
AcDbSavedByObjectVersion
1070
     0
1000
AcDbSavedByObjectVersion
1070
     0
1000
AcDbSavedByObjectVersion
1070
     0
1000
AcDbSavedByObjectVersion
1070
     0
1000
AcDbSavedByObjectVersion
1070
     0
1000
AcDbSavedByObjectVersion
1070
     0
1000
AcDbSavedByObjectVersion
1070
     0
1000
AcDbSavedByObjectVersion
1070
     0
1000
AcDbSavedByObjectVersion
1070
     0
1000
AcDbSavedByObjectVersion
1070
     0
1000
AcDbSavedByObjectVersion
1070
     0
1000
AcDbSavedByObjectVersion
1070
     0
1000
AcDbSavedByObjectVersion
1070
     0
1000
AcDbSavedByObjectVersion
1070
     0
1000
AcDbSavedByObjectVersion
1070
     0
1000
AcDbSavedByObjectVersion
1070
     0
1000
AcDbSavedByObjectVersion
1070
     0
1000
AcDbSavedByObjectVersion
1070
     0
1000
AcDbSavedByObjectVersion
1070
     0
1000
AcDbSavedByObjectVersion
1070
     0
1000
AcDbSavedByObjectVersion
1070
     0
1000
AcDbSavedByObjectVersion
1070
     0
1000
AcDbSavedByObjectVersion
1070
     0
1000
AcDbSavedByObjectVersion
1070
     0
  0
VISUALSTYLE
  5
35
102
{ACAD_REACTORS
330
2A
102
}
330
2A
100
AcDbVisualStyle
  2
Dim
 70
    11
 71
     2
 72
     2
 73
     0
 90
        0
 40
-0.6
 41
-30.0
 62
     5
 63
     7
 74
     1
 91
        4
 64
     7
 65
   257
 75
     1
175
     1
 42
1.0
 92
        8
 66
     7
 43
1.0
 76
     1
 77
     6
 78
     2
 67
     7
 79
     5
170
     0
171
     0
290
     0
174
     0
 93
        1
 44
-50.0
173
     0
291
     1
 45
0.0
1001
ACAD
1000
AcDbSavedByObjectVersion
1070
     0
1000
AcDbSavedByObjectVersion
1070
     0
1000
AcDbSavedByObjectVersion
1070
     0
1000
AcDbSavedByObjectVersion
1070
     0
1000
AcDbSavedByObjectVersion
1070
     0
1000
AcDbSavedByObjectVersion
1070
     0
1000
AcDbSavedByObjectVersion
1070
     0
1000
AcDbSavedByObjectVersion
1070
     0
1000
AcDbSavedByObjectVersion
1070
     0
1000
AcDbSavedByObjectVersion
1070
     0
1000
AcDbSavedByObjectVersion
1070
     0
1000
AcDbSavedByObjectVersion
1070
     0
1000
AcDbSavedByObjectVersion
1070
     0
1000
AcDbSavedByObjectVersion
1070
     0
1000
AcDbSavedByObjectVersion
1070
     0
1000
AcDbSavedByObjectVersion
1070
     0
1000
AcDbSavedByObjectVersion
1070
     0
1000
AcDbSavedByObjectVersion
1070
     0
1000
AcDbSavedByObjectVersion
1070
     0
1000
AcDbSavedByObjectVersion
1070
     0
1000
AcDbSavedByObjectVersion
1070
     0
1000
AcDbSavedByObjectVersion
1070
     0
1000
AcDbSavedByObjectVersion
1070
     0
1000
AcDbSavedByObjectVersion
1070
     0
1000
AcDbSavedByObjectVersion
1070
     0
1000
AcDbSavedByObjectVersion
1070
     0
1000
AcDbSavedByObjectVersion
1070
     0
1000
AcDbSavedByObjectVersion
1070
     0
1000
AcDbSavedByObjectVersion
1070
     0
1000
AcDbSavedByObjectVersion
1070
     0
1000
AcDbSavedByObjectVersion
1070
     0
1000
AcDbSavedByObjectVersion
1070
     0
1000
AcDbSavedByObjectVersion
1070
     0
1000
AcDbSavedByObjectVersion
1070
     0
1000
AcDbSavedByObjectVersion
1070
     0
1000
AcDbSavedByObjectVersion
1070
     0
1000
AcDbSavedByObjectVersion
1070
     0
1000
AcDbSavedByObjectVersion
1070
     0
  0
VISUALSTYLE
  5
39
102
{ACAD_REACTORS
330
2A
102
}
330
2A
100
AcDbVisualStyle
  2
Facepattern
 70
    15
 71
     2
 72
     2
 73
     0
 90
        0
 40
-0.6
 41
-30.0
 62
     5
 63
     7
 74
     1
 91
        4
 64
     7
 65
   257
 75
     1
175
     1
 42
1.0
 92
        8
 66
     7
 43
1.0
 76
     1
 77
     6
 78
     2
 67
     7
 79
     5
170
     0
171
     0
290
     0
174
     0
 93
        1
 44
0.0
173
     0
291
     1
 45
0.0
1001
ACAD
1000
AcDbSavedByObjectVersion
1070
     0
1000
AcDbSavedByObjectVersion
1070
     0
1000
AcDbSavedByObjectVersion
1070
     0
1000
AcDbSavedByObjectVersion
1070
     0
1000
AcDbSavedByObjectVersion
1070
     0
1000
AcDbSavedByObjectVersion
1070
     0
1000
AcDbSavedByObjectVersion
1070
     0
1000
AcDbSavedByObjectVersion
1070
     0
1000
AcDbSavedByObjectVersion
1070
     0
1000
AcDbSavedByObjectVersion
1070
     0
1000
AcDbSavedByObjectVersion
1070
     0
1000
AcDbSavedByObjectVersion
1070
     0
1000
AcDbSavedByObjectVersion
1070
     0
1000
AcDbSavedByObjectVersion
1070
     0
1000
AcDbSavedByObjectVersion
1070
     0
1000
AcDbSavedByObjectVersion
1070
     0
1000
AcDbSavedByObjectVersion
1070
     0
1000
AcDbSavedByObjectVersion
1070
     0
1000
AcDbSavedByObjectVersion
1070
     0
1000
AcDbSavedByObjectVersion
1070
     0
1000
AcDbSavedByObjectVersion
1070
     0
1000
AcDbSavedByObjectVersion
1070
     0
1000
AcDbSavedByObjectVersion
1070
     0
1000
AcDbSavedByObjectVersion
1070
     0
1000
AcDbSavedByObjectVersion
1070
     0
1000
AcDbSavedByObjectVersion
1070
     0
1000
AcDbSavedByObjectVersion
1070
     0
1000
AcDbSavedByObjectVersion
1070
     0
1000
AcDbSavedByObjectVersion
1070
     0
1000
AcDbSavedByObjectVersion
1070
     0
1000
AcDbSavedByObjectVersion
1070
     0
1000
AcDbSavedByObjectVersion
1070
     0
1000
AcDbSavedByObjectVersion
1070
     0
1000
AcDbSavedByObjectVersion
1070
     0
1000
AcDbSavedByObjectVersion
1070
     0
1000
AcDbSavedByObjectVersion
1070
     0
1000
AcDbSavedByObjectVersion
1070
     0
1000
AcDbSavedByObjectVersion
1070
     0
  0
VISUALSTYLE
  5
2B
102
{ACAD_REACTORS
330
2A
102
}
330
2A
100
AcDbVisualStyle
  2
Flat
 70
     0
 71
     2
 72
     1
 73
     1
 90
        2
 40
-0.6
 41
30.0
 62
     5
 63
     7
 74
     0
 91
        4
 64
     7
 65
   257
 75
     1
175
     1
 42
1.0
 92
        8
 66
     7
 43
1.0
 76
     1
 77
     6
 78
     2
 67
     7
 79
     5
170
     0
171
     0
290
     0
174
     0
 93
       13
 44
0.0
173
     0
291
     1
 45
0.0
1001
ACAD
1000
AcDbSavedByObjectVersion
1070
     0
1000
AcDbSavedByObjectVersion
1070
     0
1000
AcDbSavedByObjectVersion
1070
     0
1000
AcDbSavedByObjectVersion
1070
     0
1000
AcDbSavedByObjectVersion
1070
     0
1000
AcDbSavedByObjectVersion
1070
     0
1000
AcDbSavedByObjectVersion
1070
     0
1000
AcDbSavedByObjectVersion
1070
     0
1000
AcDbSavedByObjectVersion
1070
     0
1000
AcDbSavedByObjectVersion
1070
     0
1000
AcDbSavedByObjectVersion
1070
     0
1000
AcDbSavedByObjectVersion
1070
     0
1000
AcDbSavedByObjectVersion
1070
     0
1000
AcDbSavedByObjectVersion
1070
     0
1000
AcDbSavedByObjectVersion
1070
     0
1000
AcDbSavedByObjectVersion
1070
     0
1000
AcDbSavedByObjectVersion
1070
     0
1000
AcDbSavedByObjectVersion
1070
     0
1000
AcDbSavedByObjectVersion
1070
     0
1000
AcDbSavedByObjectVersion
1070
     0
1000
AcDbSavedByObjectVersion
1070
     0
1000
AcDbSavedByObjectVersion
1070
     0
1000
AcDbSavedByObjectVersion
1070
     0
1000
AcDbSavedByObjectVersion
1070
     0
1000
AcDbSavedByObjectVersion
1070
     0
1000
AcDbSavedByObjectVersion
1070
     0
1000
AcDbSavedByObjectVersion
1070
     0
1000
AcDbSavedByObjectVersion
1070
     0
1000
AcDbSavedByObjectVersion
1070
     0
1000
AcDbSavedByObjectVersion
1070
     0
1000
AcDbSavedByObjectVersion
1070
     0
1000
AcDbSavedByObjectVersion
1070
     0
1000
AcDbSavedByObjectVersion
1070
     0
1000
AcDbSavedByObjectVersion
1070
     0
1000
AcDbSavedByObjectVersion
1070
     0
1000
AcDbSavedByObjectVersion
1070
     0
1000
AcDbSavedByObjectVersion
1070
     0
1000
AcDbSavedByObjectVersion
1070
     0
  0
VISUALSTYLE
  5
2C
102
{ACAD_REACTORS
330
2A
102
}
330
2A
100
AcDbVisualStyle
  2
FlatWithEdges
 70
     1
 71
     2
 72
     1
 73
     1
 90
        2
 40
-0.6
 41
30.0
 62
     5
 63
     7
 74
     1
 91
        4
 64
     7
 65
   257
 75
     1
175
     1
 42
1.0
 92
        0
 66
   257
 43
1.0
 76
     1
 77
     6
 78
     2
 67
     7
 79
     5
170
     0
171
     0
290
     0
174
     0
 93
       13
 44
0.0
173
     0
291
     1
 45
0.0
1001
ACAD
1000
AcDbSavedByObjectVersion
1070
     0
1000
AcDbSavedByObjectVersion
1070
     0
1000
AcDbSavedByObjectVersion
1070
     0
1000
AcDbSavedByObjectVersion
1070
     0
1000
AcDbSavedByObjectVersion
1070
     0
1000
AcDbSavedByObjectVersion
1070
     0
1000
AcDbSavedByObjectVersion
1070
     0
1000
AcDbSavedByObjectVersion
1070
     0
1000
AcDbSavedByObjectVersion
1070
     0
1000
AcDbSavedByObjectVersion
1070
     0
1000
AcDbSavedByObjectVersion
1070
     0
1000
AcDbSavedByObjectVersion
1070
     0
1000
AcDbSavedByObjectVersion
1070
     0
1000
AcDbSavedByObjectVersion
1070
     0
1000
AcDbSavedByObjectVersion
1070
     0
1000
AcDbSavedByObjectVersion
1070
     0
1000
AcDbSavedByObjectVersion
1070
     0
1000
AcDbSavedByObjectVersion
1070
     0
1000
AcDbSavedByObjectVersion
1070
     0
1000
AcDbSavedByObjectVersion
1070
     0
1000
AcDbSavedByObjectVersion
1070
     0
1000
AcDbSavedByObjectVersion
1070
     0
1000
AcDbSavedByObjectVersion
1070
     0
1000
AcDbSavedByObjectVersion
1070
     0
1000
AcDbSavedByObjectVersion
1070
     0
1000
AcDbSavedByObjectVersion
1070
     0
1000
AcDbSavedByObjectVersion
1070
     0
1000
AcDbSavedByObjectVersion
1070
     0
1000
AcDbSavedByObjectVersion
1070
     0
1000
AcDbSavedByObjectVersion
1070
     0
1000
AcDbSavedByObjectVersion
1070
     0
1000
AcDbSavedByObjectVersion
1070
     0
1000
AcDbSavedByObjectVersion
1070
     0
1000
AcDbSavedByObjectVersion
1070
     0
1000
AcDbSavedByObjectVersion
1070
     0
1000
AcDbSavedByObjectVersion
1070
     0
1000
AcDbSavedByObjectVersion
1070
     0
1000
AcDbSavedByObjectVersion
1070
     0
  0
VISUALSTYLE
  5
2D
102
{ACAD_REACTORS
330
2A
102
}
330
2A
100
AcDbVisualStyle
  2
Gouraud
 70
     2
 71
     2
 72
     2
 73
     1
 90
        2
 40
-0.6
 41
30.0
 62
     5
 63
     7
 74
     0
 91
        4
 64
     7
 65
   257
 75
     1
175
     1
 42
1.0
 92
        0
 66
     7
 43
1.0
 76
     1
 77
     6
 78
     2
 67
     7
 79
     5
170
     0
171
     0
290
     0
174
     0
 93
       13
 44
0.0
173
     0
291
     1
 45
0.0
1001
ACAD
1000
AcDbSavedByObjectVersion
1070
     0
1000
AcDbSavedByObjectVersion
1070
     0
1000
AcDbSavedByObjectVersion
1070
     0
1000
AcDbSavedByObjectVersion
1070
     0
1000
AcDbSavedByObjectVersion
1070
     0
1000
AcDbSavedByObjectVersion
1070
     0
1000
AcDbSavedByObjectVersion
1070
     0
1000
AcDbSavedByObjectVersion
1070
     0
1000
AcDbSavedByObjectVersion
1070
     0
1000
AcDbSavedByObjectVersion
1070
     0
1000
AcDbSavedByObjectVersion
1070
     0
1000
AcDbSavedByObjectVersion
1070
     0
1000
AcDbSavedByObjectVersion
1070
     0
1000
AcDbSavedByObjectVersion
1070
     0
1000
AcDbSavedByObjectVersion
1070
     0
1000
AcDbSavedByObjectVersion
1070
     0
1000
AcDbSavedByObjectVersion
1070
     0
1000
AcDbSavedByObjectVersion
1070
     0
1000
AcDbSavedByObjectVersion
1070
     0
1000
AcDbSavedByObjectVersion
1070
     0
1000
AcDbSavedByObjectVersion
1070
     0
1000
AcDbSavedByObjectVersion
1070
     0
1000
AcDbSavedByObjectVersion
1070
     0
1000
AcDbSavedByObjectVersion
1070
     0
1000
AcDbSavedByObjectVersion
1070
     0
1000
AcDbSavedByObjectVersion
1070
     0
1000
AcDbSavedByObjectVersion
1070
     0
1000
AcDbSavedByObjectVersion
1070
     0
1000
AcDbSavedByObjectVersion
1070
     0
1000
AcDbSavedByObjectVersion
1070
     0
1000
AcDbSavedByObjectVersion
1070
     0
1000
AcDbSavedByObjectVersion
1070
     0
1000
AcDbSavedByObjectVersion
1070
     0
1000
AcDbSavedByObjectVersion
1070
     0
1000
AcDbSavedByObjectVersion
1070
     0
1000
AcDbSavedByObjectVersion
1070
     0
1000
AcDbSavedByObjectVersion
1070
     0
1000
AcDbSavedByObjectVersion
1070
     0
  0
VISUALSTYLE
  5
2E
102
{ACAD_REACTORS
330
2A
102
}
330
2A
100
AcDbVisualStyle
  2
GouraudWithEdges
 70
     3
 71
     2
 72
     2
 73
     1
 90
        2
 40
-0.6
 41
30.0
 62
     5
 63
     7
 74
     1
 91
        4
 64
     7
 65
   257
 75
     1
175
     1
 42
1.0
 92
        0
 66
   257
 43
1.0
 76
     1
 77
     6
 78
     2
 67
     7
 79
     5
170
     0
171
     0
290
     0
174
     0
 93
       13
 44
0.0
173
     0
291
     1
 45
0.0
1001
ACAD
1000
AcDbSavedByObjectVersion
1070
     0
1000
AcDbSavedByObjectVersion
1070
     0
1000
AcDbSavedByObjectVersion
1070
     0
1000
AcDbSavedByObjectVersion
1070
     0
1000
AcDbSavedByObjectVersion
1070
     0
1000
AcDbSavedByObjectVersion
1070
     0
1000
AcDbSavedByObjectVersion
1070
     0
1000
AcDbSavedByObjectVersion
1070
     0
1000
AcDbSavedByObjectVersion
1070
     0
1000
AcDbSavedByObjectVersion
1070
     0
1000
AcDbSavedByObjectVersion
1070
     0
1000
AcDbSavedByObjectVersion
1070
     0
1000
AcDbSavedByObjectVersion
1070
     0
1000
AcDbSavedByObjectVersion
1070
     0
1000
AcDbSavedByObjectVersion
1070
     0
1000
AcDbSavedByObjectVersion
1070
     0
1000
AcDbSavedByObjectVersion
1070
     0
1000
AcDbSavedByObjectVersion
1070
     0
1000
AcDbSavedByObjectVersion
1070
     0
1000
AcDbSavedByObjectVersion
1070
     0
1000
AcDbSavedByObjectVersion
1070
     0
1000
AcDbSavedByObjectVersion
1070
     0
1000
AcDbSavedByObjectVersion
1070
     0
1000
AcDbSavedByObjectVersion
1070
     0
1000
AcDbSavedByObjectVersion
1070
     0
1000
AcDbSavedByObjectVersion
1070
     0
1000
AcDbSavedByObjectVersion
1070
     0
1000
AcDbSavedByObjectVersion
1070
     0
1000
AcDbSavedByObjectVersion
1070
     0
1000
AcDbSavedByObjectVersion
1070
     0
1000
AcDbSavedByObjectVersion
1070
     0
1000
AcDbSavedByObjectVersion
1070
     0
1000
AcDbSavedByObjectVersion
1070
     0
1000
AcDbSavedByObjectVersion
1070
     0
1000
AcDbSavedByObjectVersion
1070
     0
1000
AcDbSavedByObjectVersion
1070
     0
1000
AcDbSavedByObjectVersion
1070
     0
1000
AcDbSavedByObjectVersion
1070
     0
  0
VISUALSTYLE
  5
38
102
{ACAD_REACTORS
330
2A
102
}
330
2A
100
AcDbVisualStyle
  2
Linepattern
 70
    14
 71
     2
 72
     2
 73
     0
 90
        0
 40
-0.6
 41
-30.0
 62
     5
 63
     7
 74
     1
 91
        4
 64
     7
 65
   257
 75
     7
175
     7
 42
1.0
 92
        8
 66
     7
 43
1.0
 76
     1
 77
     6
 78
     2
 67
     7
 79
     5
170
     0
171
     0
290
     0
174
     0
 93
        1
 44
0.0
173
     0
291
     1
 45
0.0
1001
ACAD
1000
AcDbSavedByObjectVersion
1070
     0
1000
AcDbSavedByObjectVersion
1070
     0
1000
AcDbSavedByObjectVersion
1070
     0
1000
AcDbSavedByObjectVersion
1070
     0
1000
AcDbSavedByObjectVersion
1070
     0
1000
AcDbSavedByObjectVersion
1070
     0
1000
AcDbSavedByObjectVersion
1070
     0
1000
AcDbSavedByObjectVersion
1070
     0
1000
AcDbSavedByObjectVersion
1070
     0
1000
AcDbSavedByObjectVersion
1070
     0
1000
AcDbSavedByObjectVersion
1070
     0
1000
AcDbSavedByObjectVersion
1070
     0
1000
AcDbSavedByObjectVersion
1070
     0
1000
AcDbSavedByObjectVersion
1070
     0
1000
AcDbSavedByObjectVersion
1070
     0
1000
AcDbSavedByObjectVersion
1070
     0
1000
AcDbSavedByObjectVersion
1070
     0
1000
AcDbSavedByObjectVersion
1070
     0
1000
AcDbSavedByObjectVersion
1070
     0
1000
AcDbSavedByObjectVersion
1070
     0
1000
AcDbSavedByObjectVersion
1070
     0
1000
AcDbSavedByObjectVersion
1070
     0
1000
AcDbSavedByObjectVersion
1070
     0
1000
AcDbSavedByObjectVersion
1070
     0
1000
AcDbSavedByObjectVersion
1070
     0
1000
AcDbSavedByObjectVersion
1070
     0
1000
AcDbSavedByObjectVersion
1070
     0
1000
AcDbSavedByObjectVersion
1070
     0
1000
AcDbSavedByObjectVersion
1070
     0
1000
AcDbSavedByObjectVersion
1070
     0
1000
AcDbSavedByObjectVersion
1070
     0
1000
AcDbSavedByObjectVersion
1070
     0
1000
AcDbSavedByObjectVersion
1070
     0
1000
AcDbSavedByObjectVersion
1070
     0
1000
AcDbSavedByObjectVersion
1070
     0
1000
AcDbSavedByObjectVersion
1070
     0
1000
AcDbSavedByObjectVersion
1070
     0
1000
AcDbSavedByObjectVersion
1070
     0
  0
VISUALSTYLE
  5
33
102
{ACAD_REACTORS
330
2A
102
}
330
2A
100
AcDbVisualStyle
  2
Realistic
 70
     8
 71
     2
 72
     2
 73
     0
 90
        0
 40
-0.6
 41
-30.0
 62
     5
 63
     7
 74
     1
 91
        0
 64
     7
 65
   257
 75
     1
175
     1
 42
1.0
 92
        8
 66
     8
 43
1.0
 76
     1
 77
     6
 78
     2
 67
     7
 79
     5
170
     0
171
     0
290
     0
174
     0
 93
       13
 44
0.0
173
     0
291
     0
 45
0.0
1001
ACAD
1000
AcDbSavedByObjectVersion
1070
     0
1000
AcDbSavedByObjectVersion
1070
     0
1000
AcDbSavedByObjectVersion
1070
     0
1000
AcDbSavedByObjectVersion
1070
     0
1000
AcDbSavedByObjectVersion
1070
     0
1000
AcDbSavedByObjectVersion
1070
     0
1000
AcDbSavedByObjectVersion
1070
     0
1000
AcDbSavedByObjectVersion
1070
     0
1000
AcDbSavedByObjectVersion
1070
     0
1000
AcDbSavedByObjectVersion
1070
     0
1000
AcDbSavedByObjectVersion
1070
     0
1000
AcDbSavedByObjectVersion
1070
     0
1000
AcDbSavedByObjectVersion
1070
     0
1000
AcDbSavedByObjectVersion
1070
     0
1000
AcDbSavedByObjectVersion
1070
     0
1000
AcDbSavedByObjectVersion
1070
     0
1000
AcDbSavedByObjectVersion
1070
     0
1000
AcDbSavedByObjectVersion
1070
     0
1000
AcDbSavedByObjectVersion
1070
     0
1000
AcDbSavedByObjectVersion
1070
     0
1000
AcDbSavedByObjectVersion
1070
     0
1000
AcDbSavedByObjectVersion
1070
     0
1000
AcDbSavedByObjectVersion
1070
     0
1000
AcDbSavedByObjectVersion
1070
     0
1000
AcDbSavedByObjectVersion
1070
     0
1000
AcDbSavedByObjectVersion
1070
     0
1000
AcDbSavedByObjectVersion
1070
     0
1000
AcDbSavedByObjectVersion
1070
     0
1000
AcDbSavedByObjectVersion
1070
     0
1000
AcDbSavedByObjectVersion
1070
     0
1000
AcDbSavedByObjectVersion
1070
     0
1000
AcDbSavedByObjectVersion
1070
     0
1000
AcDbSavedByObjectVersion
1070
     0
1000
AcDbSavedByObjectVersion
1070
     0
1000
AcDbSavedByObjectVersion
1070
     0
1000
AcDbSavedByObjectVersion
1070
     0
1000
AcDbSavedByObjectVersion
1070
     0
1000
AcDbSavedByObjectVersion
1070
     0
  0
VISUALSTYLE
  5
37
102
{ACAD_REACTORS
330
2A
102
}
330
2A
100
AcDbVisualStyle
  2
Thicken
 70
    13
 71
     2
 72
     2
 73
     0
 90
        0
 40
-0.6
 41
-30.0
 62
     5
 63
     7
 74
     1
 91
        4
 64
     7
 65
   257
 75
     1
175
     1
 42
1.0
 92
       12
 66
     7
 43
1.0
 76
     1
 77
     6
 78
     2
 67
     7
 79
     5
170
     0
171
     0
290
     0
174
     0
 93
        1
 44
0.0
173
     0
291
     1
 45
0.0
1001
ACAD
1000
AcDbSavedByObjectVersion
1070
     0
1000
AcDbSavedByObjectVersion
1070
     0
1000
AcDbSavedByObjectVersion
1070
     0
1000
AcDbSavedByObjectVersion
1070
     0
1000
AcDbSavedByObjectVersion
1070
     0
1000
AcDbSavedByObjectVersion
1070
     0
1000
AcDbSavedByObjectVersion
1070
     0
1000
AcDbSavedByObjectVersion
1070
     0
1000
AcDbSavedByObjectVersion
1070
     0
1000
AcDbSavedByObjectVersion
1070
     0
1000
AcDbSavedByObjectVersion
1070
     0
1000
AcDbSavedByObjectVersion
1070
     0
1000
AcDbSavedByObjectVersion
1070
     0
1000
AcDbSavedByObjectVersion
1070
     0
1000
AcDbSavedByObjectVersion
1070
     0
1000
AcDbSavedByObjectVersion
1070
     0
1000
AcDbSavedByObjectVersion
1070
     0
1000
AcDbSavedByObjectVersion
1070
     0
1000
AcDbSavedByObjectVersion
1070
     0
1000
AcDbSavedByObjectVersion
1070
     0
1000
AcDbSavedByObjectVersion
1070
     0
1000
AcDbSavedByObjectVersion
1070
     0
1000
AcDbSavedByObjectVersion
1070
     0
1000
AcDbSavedByObjectVersion
1070
     0
1000
AcDbSavedByObjectVersion
1070
     0
1000
AcDbSavedByObjectVersion
1070
     0
1000
AcDbSavedByObjectVersion
1070
     0
1000
AcDbSavedByObjectVersion
1070
     0
1000
AcDbSavedByObjectVersion
1070
     0
1000
AcDbSavedByObjectVersion
1070
     0
1000
AcDbSavedByObjectVersion
1070
     0
1000
AcDbSavedByObjectVersion
1070
     0
1000
AcDbSavedByObjectVersion
1070
     0
1000
AcDbSavedByObjectVersion
1070
     0
1000
AcDbSavedByObjectVersion
1070
     0
1000
AcDbSavedByObjectVersion
1070
     0
1000
AcDbSavedByObjectVersion
1070
     0
1000
AcDbSavedByObjectVersion
1070
     0
  0
DICTIONARYVAR
  5
510B
102
{ACAD_REACTORS
330
5108
102
}
330
5108
100
DictionaryVariables
280
     0
  1
1:1
  0
DICTIONARYVAR
  5
510A
102
{ACAD_REACTORS
330
5108
102
}
330
5108
100
DictionaryVariables
280
     0
  1
STANDARD
  0
DICTIONARYVAR
  5
5109
102
{ACAD_REACTORS
330
5108
102
}
330
5108
100
DictionaryVariables
280
     0
  1
STANDARD
  0
DICTIONARYVAR
  5
510E
102
{ACAD_REACTORS
330
5108
102
}
330
5108
100
DictionaryVariables
280
     0
  1
1
  0
DICTIONARYVAR
  5
510D
102
{ACAD_REACTORS
330
5108
102
}
330
5108
100
DictionaryVariables
280
     0
  1
0
  0
DICTIONARYVAR
  5
144F4
102
{ACAD_REACTORS
330
5108
102
}
330
5108
100
DictionaryVariables
280
     0
  1
0
  0
DICTIONARYVAR
  5
144F3
102
{ACAD_REACTORS
330
5108
102
}
330
5108
100
DictionaryVariables
280
     0
  1
0
  0
DICTIONARYVAR
  5
510C
102
{ACAD_REACTORS
330
5108
102
}
330
5108
100
DictionaryVariables
280
     0
  1
127
  0
XRECORD
  5
11ACF
102
{ACAD_REACTORS
330
11ACE
102
}
330
11ACE
100
AcDbXrecord
280
     1
330
0
  0
DICTIONARY
  5
4FEF
330
4FEE
100
AcDbDictionary
280
     1
281
     1
  3
ACAD_XREC_ROUNDTRIP
360
14FC5
  3
BUMPTILE
360
4FF1
  3
DIFFUSETILE
360
4FF0
  3
OPACITYTILE
360
4FF4
  3
REFLECTIONTILE
360
4FF3
  3
REFRACTIONTILE
360
4FF5
  3
SPECULARTILE
360
4FF2
  0
DICTIONARY
  5
4FE7
330
4FE6
100
AcDbDictionary
280
     1
281
     1
  3
ACAD_XREC_ROUNDTRIP
360
14FC4
  3
BUMPTILE
360
4FE9
  3
DIFFUSETILE
360
4FE8
  3
OPACITYTILE
360
4FEC
  3
REFLECTIONTILE
360
4FEB
  3
REFRACTIONTILE
360
4FED
  3
SPECULARTILE
360
4FEA
  0
DICTIONARY
  5
4FF7
330
4FF6
100
AcDbDictionary
280
     1
281
     1
  3
ACAD_XREC_ROUNDTRIP
360
14FC6
  3
BUMPTILE
360
4FF9
  3
DIFFUSETILE
360
4FF8
  3
OPACITYTILE
360
4FFC
  3
REFLECTIONTILE
360
4FFB
  3
REFRACTIONTILE
360
4FFD
  3
SPECULARTILE
360
4FFA
  0
DICTIONARY
  5
50D6
330
4FFF
100
AcDbDictionary
280
     1
281
     1
  3
ACAD_ROUNDTRIP_2008_TABLESTYLE_CELLSTYLEMAP
360
150C2
  0
XRECORD
  5
14FC5
102
{ACAD_REACTORS
330
4FEF
102
}
330
4FEF
100
AcDbXrecord
280
     1
102
MATERIAL
148
0.0
149
0.0
149
0.0
 93
        0
 94
      127
282
     0
 72
     0
 77
     0
171
     0
175
     0
179
     0
273
     0
  0
XRECORD
  5
4FF1
102
{ACAD_REACTORS
330
4FEF
102
}
330
4FEF
100
AcDbXrecord
280
     1
270
     1
271
     1
  0
XRECORD
  5
4FF0
102
{ACAD_REACTORS
330
4FEF
102
}
330
4FEF
100
AcDbXrecord
280
     1
270
     1
271
     1
  0
XRECORD
  5
4FF4
102
{ACAD_REACTORS
330
4FEF
102
}
330
4FEF
100
AcDbXrecord
280
     1
270
     1
271
     1
  0
XRECORD
  5
4FF3
102
{ACAD_REACTORS
330
4FEF
102
}
330
4FEF
100
AcDbXrecord
280
     1
270
     1
271
     1
  0
XRECORD
  5
4FF5
102
{ACAD_REACTORS
330
4FEF
102
}
330
4FEF
100
AcDbXrecord
280
     1
270
     1
271
     1
  0
XRECORD
  5
4FF2
102
{ACAD_REACTORS
330
4FEF
102
}
330
4FEF
100
AcDbXrecord
280
     1
270
     1
271
     1
  0
XRECORD
  5
14FC4
102
{ACAD_REACTORS
330
4FE7
102
}
330
4FE7
100
AcDbXrecord
280
     1
102
MATERIAL
148
0.0
149
0.0
149
0.0
 93
        0
 94
      127
282
     0
 72
     0
 77
     0
171
     0
175
     0
179
     0
273
     0
  0
XRECORD
  5
4FE9
102
{ACAD_REACTORS
330
4FE7
102
}
330
4FE7
100
AcDbXrecord
280
     1
270
     1
271
     1
  0
XRECORD
  5
4FE8
102
{ACAD_REACTORS
330
4FE7
102
}
330
4FE7
100
AcDbXrecord
280
     1
270
     1
271
     1
  0
XRECORD
  5
4FEC
102
{ACAD_REACTORS
330
4FE7
102
}
330
4FE7
100
AcDbXrecord
280
     1
270
     1
271
     1
  0
XRECORD
  5
4FEB
102
{ACAD_REACTORS
330
4FE7
102
}
330
4FE7
100
AcDbXrecord
280
     1
270
     1
271
     1
  0
XRECORD
  5
4FED
102
{ACAD_REACTORS
330
4FE7
102
}
330
4FE7
100
AcDbXrecord
280
     1
270
     1
271
     1
  0
XRECORD
  5
4FEA
102
{ACAD_REACTORS
330
4FE7
102
}
330
4FE7
100
AcDbXrecord
280
     1
270
     1
271
     1
  0
XRECORD
  5
14FC6
102
{ACAD_REACTORS
330
4FF7
102
}
330
4FF7
100
AcDbXrecord
280
     1
102
MATERIAL
148
0.0
149
0.0
149
0.0
 93
        0
 94
      127
282
     0
 72
     0
 77
     0
171
     0
175
     0
179
     0
273
     0
  0
XRECORD
  5
4FF9
102
{ACAD_REACTORS
330
4FF7
102
}
330
4FF7
100
AcDbXrecord
280
     1
270
     1
271
     1
  0
XRECORD
  5
4FF8
102
{ACAD_REACTORS
330
4FF7
102
}
330
4FF7
100
AcDbXrecord
280
     1
270
     1
271
     1
  0
XRECORD
  5
4FFC
102
{ACAD_REACTORS
330
4FF7
102
}
330
4FF7
100
AcDbXrecord
280
     1
270
     1
271
     1
  0
XRECORD
  5
4FFB
102
{ACAD_REACTORS
330
4FF7
102
}
330
4FF7
100
AcDbXrecord
280
     1
270
     1
271
     1
  0
XRECORD
  5
4FFD
102
{ACAD_REACTORS
330
4FF7
102
}
330
4FF7
100
AcDbXrecord
280
     1
270
     1
271
     1
  0
XRECORD
  5
4FFA
102
{ACAD_REACTORS
330
4FF7
102
}
330
4FF7
100
AcDbXrecord
280
     1
270
     1
271
     1
  0
CELLSTYLEMAP
  5
150C2
102
{ACAD_REACTORS
330
50D6
102
}
330
50D6
100
AcDbCellStyleMap
 90
        3
300
CELLSTYLE
  1
TABLEFORMAT_BEGIN
 90
        5
170
     1
 91
        0
 92
    32768
 62
   257
 93
        1
300
CONTENTFORMAT
  1
CONTENTFORMAT_BEGIN
 90
        0
 91
        0
 92
      512
 93
        0
300

 40
0.0
140
1.0
 94
        5
 62
     0
340
11
144
0.25
309
CONTENTFORMAT_END
171
     1
301
MARGIN
  1
CELLMARGIN_BEGIN
 40
0.06
 40
0.06
 40
0.06
 40
0.06
 40
0.18
 40
0.18
309
CELLMARGIN_END
 94
        6
 95
        1
302
GRIDFORMAT
  1
GRIDFORMAT_BEGIN
 90
        0
 91
        1
 62
     0
 92
       -2
340
0
 93
        0
 40
0.045
309
GRIDFORMAT_END
 95
        2
302
GRIDFORMAT
  1
GRIDFORMAT_BEGIN
 90
        0
 91
        1
 62
     0
 92
       -2
340
0
 93
        0
 40
0.045
309
GRIDFORMAT_END
 95
        4
302
GRIDFORMAT
  1
GRIDFORMAT_BEGIN
 90
        0
 91
        1
 62
     0
 92
       -2
340
0
 93
        0
 40
0.045
309
GRIDFORMAT_END
 95
        8
302
GRIDFORMAT
  1
GRIDFORMAT_BEGIN
 90
        0
 91
        1
 62
     0
 92
       -2
340
0
 93
        0
 40
0.045
309
GRIDFORMAT_END
 95
       16
302
GRIDFORMAT
  1
GRIDFORMAT_BEGIN
 90
        0
 91
        1
 62
     0
 92
       -2
340
0
 93
        0
 40
0.045
309
GRIDFORMAT_END
 95
       32
302
GRIDFORMAT
  1
GRIDFORMAT_BEGIN
 90
        0
 91
        1
 62
     0
 92
       -2
340
0
 93
        0
 40
0.045
309
GRIDFORMAT_END
309
TABLEFORMAT_END
  1
CELLSTYLE_BEGIN
 90
        1
 91
        1
300
_TITLE
309
CELLSTYLE_END
300
CELLSTYLE
  1
TABLEFORMAT_BEGIN
 90
        5
170
     1
 91
        0
 92
        0
 62
   257
 93
        1
300
CONTENTFORMAT
  1
CONTENTFORMAT_BEGIN
 90
        0
 91
        0
 92
      512
 93
        0
300

 40
0.0
140
1.0
 94
        5
 62
     0
340
11
144
0.18
309
CONTENTFORMAT_END
171
     1
301
MARGIN
  1
CELLMARGIN_BEGIN
 40
0.06
 40
0.06
 40
0.06
 40
0.06
 40
0.18
 40
0.18
309
CELLMARGIN_END
 94
        6
 95
        1
302
GRIDFORMAT
  1
GRIDFORMAT_BEGIN
 90
        0
 91
        1
 62
     0
 92
       -2
340
0
 93
        0
 40
0.045
309
GRIDFORMAT_END
 95
        2
302
GRIDFORMAT
  1
GRIDFORMAT_BEGIN
 90
        0
 91
        1
 62
     0
 92
       -2
340
0
 93
        0
 40
0.045
309
GRIDFORMAT_END
 95
        4
302
GRIDFORMAT
  1
GRIDFORMAT_BEGIN
 90
        0
 91
        1
 62
     0
 92
       -2
340
0
 93
        0
 40
0.045
309
GRIDFORMAT_END
 95
        8
302
GRIDFORMAT
  1
GRIDFORMAT_BEGIN
 90
        0
 91
        1
 62
     0
 92
       -2
340
0
 93
        0
 40
0.045
309
GRIDFORMAT_END
 95
       16
302
GRIDFORMAT
  1
GRIDFORMAT_BEGIN
 90
        0
 91
        1
 62
     0
 92
       -2
340
0
 93
        0
 40
0.045
309
GRIDFORMAT_END
 95
       32
302
GRIDFORMAT
  1
GRIDFORMAT_BEGIN
 90
        0
 91
        1
 62
     0
 92
       -2
340
0
 93
        0
 40
0.045
309
GRIDFORMAT_END
309
TABLEFORMAT_END
  1
CELLSTYLE_BEGIN
 90
        2
 91
        1
300
_HEADER
309
CELLSTYLE_END
300
CELLSTYLE
  1
TABLEFORMAT_BEGIN
 90
        5
170
     1
 91
        0
 92
        0
 62
   257
 93
        1
300
CONTENTFORMAT
  1
CONTENTFORMAT_BEGIN
 90
        0
 91
        0
 92
      512
 93
        0
300

 40
0.0
140
1.0
 94
        2
 62
     0
340
11
144
0.18
309
CONTENTFORMAT_END
171
     1
301
MARGIN
  1
CELLMARGIN_BEGIN
 40
0.06
 40
0.06
 40
0.06
 40
0.06
 40
0.18
 40
0.18
309
CELLMARGIN_END
 94
        6
 95
        1
302
GRIDFORMAT
  1
GRIDFORMAT_BEGIN
 90
        0
 91
        1
 62
     0
 92
       -2
340
0
 93
        0
 40
0.045
309
GRIDFORMAT_END
 95
        2
302
GRIDFORMAT
  1
GRIDFORMAT_BEGIN
 90
        0
 91
        1
 62
     0
 92
       -2
340
0
 93
        0
 40
0.045
309
GRIDFORMAT_END
 95
        4
302
GRIDFORMAT
  1
GRIDFORMAT_BEGIN
 90
        0
 91
        1
 62
     0
 92
       -2
340
0
 93
        0
 40
0.045
309
GRIDFORMAT_END
 95
        8
302
GRIDFORMAT
  1
GRIDFORMAT_BEGIN
 90
        0
 91
        1
 62
     0
 92
       -2
340
0
 93
        0
 40
0.045
309
GRIDFORMAT_END
 95
       16
302
GRIDFORMAT
  1
GRIDFORMAT_BEGIN
 90
        0
 91
        1
 62
     0
 92
       -2
340
0
 93
        0
 40
0.045
309
GRIDFORMAT_END
 95
       32
302
GRIDFORMAT
  1
GRIDFORMAT_BEGIN
 90
        0
 91
        1
 62
     0
 92
       -2
340
0
 93
        0
 40
0.045
309
GRIDFORMAT_END
309
TABLEFORMAT_END
  1
CELLSTYLE_BEGIN
 90
        3
 91
        2
300
_DATA
309
CELLSTYLE_END
  0
ENDSEC
  0
EOF
