  0
SECTION
  2
HEADER
  9
$ACADVER
  1
AC1021
  9
$ACADMAINTVER
 70
    25
  9
$DWGCODEPAGE
  3
ANSI_936
  9
$LASTSAVEDBY
  1
zb.ye
  9
$INSBASE
 10
0.0
 20
0.0
 30
0.0
  9
$EXTMIN
 10
362.1913290116786
 20
289.5402423557214
 30
-0.0000000349181948
  9
$EXTMAX
 10
510.7901598111943
 20
394.5957841770394
 30
0.0000000814935746
  9
$LIMMIN
 10
0.0
 20
0.0
  9
$LIMMAX
 10
12.0
 20
9.0
  9
$ORTHOMODE
 70
     1
  9
$REGENMODE
 70
     1
  9
$FILLMODE
 70
     1
  9
$QTEXTMODE
 70
     0
  9
$MIRRTEXT
 70
     1
  9
$LTSCALE
 40
1.0
  9
$ATTMODE
 70
     1
  9
$TEXTSIZE
 40
0.2
  9
$TRACEWID
 40
0.05
  9
$TEXTSTYLE
  7
Standard
  9
$CLAYER
  8
DIM
  9
$CELTYPE
  6
ByLayer
  9
$CECOLOR
 62
   256
  9
$CELTSCALE
 40
1.0
  9
$DISPSILH
 70
     0
  9
$DIMSCALE
 40
1.0
  9
$DIMASZ
 40
1.5
  9
$DIMEXO
 40
0.2
  9
$DIMDLI
 40
0.2
  9
$DIMRND
 40
0.0
  9
$DIMDLE
 40
0.0
  9
$DIMEXE
 40
0.5
  9
$DIMTP
 40
0.0
  9
$DIMTM
 40
0.0
  9
$DIMTXT
 40
2.0
  9
$DIMCEN
 40
0.0
  9
$DIMTSZ
 40
0.0
  9
$DIMTOL
 70
     0
  9
$DIMLIM
 70
     0
  9
$DIMTIH
 70
     0
  9
$DIMTOH
 70
     0
  9
$DIMSE1
 70
     0
  9
$DIMSE2
 70
     0
  9
$DIMTAD
 70
     1
  9
$DIMZIN
 70
     8
  9
$DIMBLK
  1

  9
$DIMASO
 70
     1
  9
$DIMSHO
 70
     1
  9
$DIMPOST
  1

  9
$DIMAPOST
  1

  9
$DIMALT
 70
     0
  9
$DIMALTD
 70
     2
  9
$DIMALTF
 40
25.4
  9
$DIMLFAC
 40
1.0
  9
$DIMTOFL
 70
     0
  9
$DIMTVP
 40
0.0
  9
$DIMTIX
 70
     0
  9
$DIMSOXD
 70
     0
  9
$DIMSAH
 70
     0
  9
$DIMBLK1
  1

  9
$DIMBLK2
  1

  9
$DIMSTYLE
  2
01
  9
$DIMCLRD
 70
     1
  9
$DIMCLRE
 70
     6
  9
$DIMCLRT
 70
     4
  9
$DIMTFAC
 40
1.0
  9
$DIMGAP
 40
0.5
  9
$DIMJUST
 70
     0
  9
$DIMSD1
 70
     0
  9
$DIMSD2
 70
     0
  9
$DIMTOLJ
 70
     1
  9
$DIMTZIN
 70
     0
  9
$DIMALTZ
 70
     0
  9
$DIMALTTZ
 70
     0
  9
$DIMUPT
 70
     0
  9
$DIMDEC
 70
     1
  9
$DIMTDEC
 70
     1
  9
$DIMALTU
 70
     2
  9
$DIMALTTD
 70
     2
  9
$DIMTXSTY
  7
Romans字体
  9
$DIMAUNIT
 70
     0
  9
$DIMADEC
 70
     2
  9
$DIMALTRND
 40
0.0
  9
$DIMAZIN
 70
     2
  9
$DIMDSEP
 70
    46
  9
$DIMATFIT
 70
     3
  9
$DIMFRAC
 70
     0
  9
$DIMLDRBLK
  1

  9
$DIMLUNIT
 70
     2
  9
$DIMLWD
 70
    -2
  9
$DIMLWE
 70
    -2
  9
$DIMTMOVE
 70
     0
  9
$DIMFXL
 40
1.0
  9
$DIMFXLON
 70
     0
  9
$DIMJOGANG
 40
0.7853981633974483
  9
$DIMTFILL
 70
     0
  9
$DIMTFILLCLR
 70
     0
  9
$DIMARCSYM
 70
     0
  9
$DIMLTYPE
  6

  9
$DIMLTEX1
  6

  9
$DIMLTEX2
  6

  9
$LUNITS
 70
     2
  9
$LUPREC
 70
     4
  9
$SKETCHINC
 40
0.1
  9
$FILLETRAD
 40
0.5
  9
$AUNITS
 70
     0
  9
$AUPREC
 70
     0
  9
$MENU
  1
.
  9
$ELEVATION
 40
0.0
  9
$PELEVATION
 40
0.0
  9
$THICKNESS
 40
0.0
  9
$LIMCHECK
 70
     0
  9
$CHAMFERA
 40
0.5
  9
$CHAMFERB
 40
0.5
  9
$CHAMFERC
 40
1.0
  9
$CHAMFERD
 40
0.0
  9
$SKPOLY
 70
     0
  9
$TDCREATE
 40
2456524.383632987
  9
$TDUCREATE
 40
2456524.050299653
  9
$TDUPDATE
 40
2460290.801331238
  9
$TDUUPDATE
 40
2460290.467997905
  9
$TDINDWG
 40
1.1922631713
  9
$TDUSRTIMER
 40
1.1922439468
  9
$USRTIMER
 70
     1
  9
$ANGBASE
 50
0.0
  9
$ANGDIR
 70
     0
  9
$PDMODE
 70
     0
  9
$PDSIZE
 40
0.0
  9
$PLINEWID
 40
0.0
  9
$SPLFRAME
 70
     0
  9
$SPLINETYPE
 70
     6
  9
$SPLINESEGS
 70
     8
  9
$HANDSEED
  5
15ECD
  9
$SURFTAB1
 70
     6
  9
$SURFTAB2
 70
     6
  9
$SURFTYPE
 70
     6
  9
$SURFU
 70
     6
  9
$SURFV
 70
     6
  9
$UCSBASE
  2

  9
$UCSNAME
  2

  9
$UCSORG
 10
0.0
 20
0.0
 30
0.0
  9
$UCSXDIR
 10
1.0
 20
0.0
 30
0.0
  9
$UCSYDIR
 10
0.0
 20
1.0
 30
0.0
  9
$UCSORTHOREF
  2

  9
$UCSORTHOVIEW
 70
     0
  9
$UCSORGTOP
 10
0.0
 20
0.0
 30
0.0
  9
$UCSORGBOTTOM
 10
0.0
 20
0.0
 30
0.0
  9
$UCSORGLEFT
 10
0.0
 20
0.0
 30
0.0
  9
$UCSORGRIGHT
 10
0.0
 20
0.0
 30
0.0
  9
$UCSORGFRONT
 10
0.0
 20
0.0
 30
0.0
  9
$UCSORGBACK
 10
0.0
 20
0.0
 30
0.0
  9
$PUCSBASE
  2

  9
$PUCSNAME
  2

  9
$PUCSORG
 10
0.0
 20
0.0
 30
0.0
  9
$PUCSXDIR
 10
1.0
 20
0.0
 30
0.0
  9
$PUCSYDIR
 10
0.0
 20
1.0
 30
0.0
  9
$PUCSORTHOREF
  2

  9
$PUCSORTHOVIEW
 70
     0
  9
$PUCSORGTOP
 10
0.0
 20
0.0
 30
0.0
  9
$PUCSORGBOTTOM
 10
0.0
 20
0.0
 30
0.0
  9
$PUCSORGLEFT
 10
0.0
 20
0.0
 30
0.0
  9
$PUCSORGRIGHT
 10
0.0
 20
0.0
 30
0.0
  9
$PUCSORGFRONT
 10
0.0
 20
0.0
 30
0.0
  9
$PUCSORGBACK
 10
0.0
 20
0.0
 30
0.0
  9
$USERI1
 70
     0
  9
$USERI2
 70
     0
  9
$USERI3
 70
     0
  9
$USERI4
 70
     0
  9
$USERI5
 70
     0
  9
$USERR1
 40
0.0
  9
$USERR2
 40
0.0
  9
$USERR3
 40
0.0
  9
$USERR4
 40
0.0
  9
$USERR5
 40
0.0
  9
$WORLDVIEW
 70
     1
  9
$SHADEDGE
 70
     3
  9
$SHADEDIF
 70
    70
  9
$TILEMODE
 70
     1
  9
$MAXACTVP
 70
    64
  9
$PINSBASE
 10
0.0
 20
0.0
 30
0.0
  9
$PLIMCHECK
 70
     0
  9
$PEXTMIN
 10
1.000000000000000E+20
 20
1.000000000000000E+20
 30
1.000000000000000E+20
  9
$PEXTMAX
 10
-1.000000000000000E+20
 20
-1.000000000000000E+20
 30
-1.000000000000000E+20
  9
$PLIMMIN
 10
0.0
 20
0.0
  9
$PLIMMAX
 10
12.0
 20
9.0
  9
$UNITMODE
 70
     0
  9
$VISRETAIN
 70
     1
  9
$PLINEGEN
 70
     0
  9
$PSLTSCALE
 70
     1
  9
$TREEDEPTH
 70
  3020
  9
$CMLSTYLE
  2
Standard
  9
$CMLJUST
 70
     0
  9
$CMLSCALE
 40
1.0
  9
$PROXYGRAPHICS
 70
     1
  9
$MEASUREMENT
 70
     0
  9
$CELWEIGHT
370
    -1
  9
$ENDCAPS
280
     0
  9
$JOINSTYLE
280
     0
  9
$LWDISPLAY
290
     0
  9
$INSUNITS
 70
     1
  9
$HYPERLINKBASE
  1

  9
$STYLESHEET
  1
MONOCHROME.CTB
  9
$XEDIT
290
     1
  9
$CEPSNTYPE
380
     0
  9
$PSTYLEMODE
290
     1
  9
$FINGERPRINTGUID
  2
{4A02065B-8BB3-4A96-9036-502DC906C165}
  9
$VERSIONGUID
  2
{665DABAE-BA4F-4425-94A2-914131AC51AB}
  9
$EXTNAMES
290
     1
  9
$PSVPSCALE
 40
0.0
  9
$OLESTARTUP
290
     0
  9
$SORTENTS
280
   127
  9
$INDEXCTL
280
     0
  9
$HIDETEXT
280
     0
  9
$XCLIPFRAME
290
     0
  9
$HALOGAP
280
     0
  9
$OBSCOLOR
 70
   257
  9
$OBSLTYPE
280
     0
  9
$INTERSECTIONDISPLAY
280
     0
  9
$INTERSECTIONCOLOR
 70
   257
  9
$DIMASSOC
280
     1
  9
$PROJECTNAME
  1

  9
$CAMERADISPLAY
290
     0
  9
$LENSLENGTH
 40
50.0
  9
$CAMERAHEIGHT
 40
0.0
  9
$STEPSPERSEC
 40
2.0
  9
$STEPSIZE
 40
6.0
  9
$3DDWFPREC
 40
2.0
  9
$PSOLWIDTH
 40
0.25
  9
$PSOLHEIGHT
 40
4.0
  9
$LOFTANG1
 40
1.570796326794896
  9
$LOFTANG2
 40
1.570796326794896
  9
$LOFTMAG1
 40
0.0
  9
$LOFTMAG2
 40
0.0
  9
$LOFTPARAM
 70
     7
  9
$LOFTNORMALS
280
     1
  9
$LATITUDE
 40
37.795
  9
$LONGITUDE
 40
-122.394
  9
$NORTHDIRECTION
 40
0.0
  9
$TIMEZONE
 70
 -8000
  9
$LIGHTGLYPHDISPLAY
280
     1
  9
$TILEMODELIGHTSYNCH
280
     1
  9
$CMATERIAL
347
4FE6
  9
$SOLIDHIST
280
     1
  9
$SHOWHIST
280
     1
  9
$DWFFRAME
280
     2
  9
$DGNFRAME
280
     0
  9
$REALWORLDSCALE
290
     1
  9
$INTERFERECOLOR
 62
     1
  9
$INTERFEREOBJVS
345
33
  9
$INTERFEREVPVS
346
30
  9
$CSHADOW
280
     0
  9
$SHADOWPLANELOCATION
 40
0.0
  0
ENDSEC
  0
SECTION
  2
CLASSES
  0
CLASS
  1
ACDBDICTIONARYWDFLT
  2
AcDbDictionaryWithDefault
  3
ObjectDBX Classes
 90
        0
 91
        1
280
     0
281
     0
  0
CLASS
  1
VISUALSTYLE
  2
AcDbVisualStyle
  3
ObjectDBX Classes
 90
     4095
 91
       16
280
     0
281
     0
  0
CLASS
  1
MATERIAL
  2
AcDbMaterial
  3
ObjectDBX Classes
 90
     1153
 91
        3
280
     0
281
     0
  0
CLASS
  1
TABLESTYLE
  2
AcDbTableStyle
  3
ObjectDBX Classes
 90
     4095
 91
        1
280
     0
281
     0
  0
CLASS
  1
SCALE
  2
AcDbScale
  3
ObjectDBX Classes
 90
     1153
 91
       33
280
     0
281
     0
  0
CLASS
  1
MLEADERSTYLE
  2
AcDbMLeaderStyle
  3
ACDB_MLEADERSTYLE_CLASS
 90
     4095
 91
        1
280
     0
281
     0
  0
CLASS
  1
CELLSTYLEMAP
  2
AcDbCellStyleMap
  3
ObjectDBX Classes
 90
     1152
 91
        2
280
     0
281
     0
  0
CLASS
  1
DICTIONARYVAR
  2
AcDbDictionaryVar
  3
ObjectDBX Classes
 90
        0
 91
        8
280
     0
281
     0
  0
CLASS
  1
SORTENTSTABLE
  2
AcDbSortentsTable
  3
ObjectDBX Classes
 90
        0
 91
        1
280
     0
281
     0
  0
CLASS
  1
ACAD_EVALUATION_GRAPH
  2
AcDbEvalGraph
  3
ObjectDBX Classes
 90
     1153
 91
        1
280
     0
281
     0
  0
CLASS
  1
ACAECUSTOBJ
  2
AcAeEditorObj
  3
AcAeEditorObj
 90
     1024
 91
        1
280
     0
281
     0
  0
CLASS
  1
ACDB_DYNAMICBLOCKPURGEPREVENTER_VERSION
  2
AcDbDynamicBlockPurgePreventer
  3
ObjectDBX Classes
 90
     1153
 91
        1
280
     0
281
     0
  0
CLASS
  1
MENTALRAYRENDERSETTINGS
  2
AcDbMentalRayRenderSettings
  3
SCENEOE
 90
     1024
 91
        1
280
     0
281
     0
  0
CLASS
  1
ACDB_BLOCKREPRESENTATION_DATA
  2
AcDbBlockRepresentationData
  3
ObjectDBX Classes
 90
     1153
 91
        0
280
     0
281
     0
  0
CLASS
  1
DIMASSOC
  2
AcDbDimAssoc
  3
"AcDbDimAssoc|Product Desc:     AcDim ARX App For Dimension|Company:          Autodesk, Inc.|WEB Address:      www.autodesk.com"
 90
        0
 91
        0
280
     0
281
     0
  0
ENDSEC
  0
SECTION
  2
TABLES
  0
TABLE
  2
VPORT
  5
8
102
{ACAD_XDICTIONARY
360
50EE
102
}
330
0
100
AcDbSymbolTable
 70
     1
  0
VPORT
  5
29
330
8
100
AcDbSymbolTableRecord
100
AcDbViewportTableRecord
  2
*Active
 70
     0
 10
0.0
 20
0.0
 11
1.0
 21
1.0
 12
331.5252475395279
 22
193.5657824977825
 13
0.0
 23
0.0
 14
0.5
 24
0.5
 15
0.5
 25
0.5
 16
0.0
 26
0.0
 36
1.0
 17
104.9654968719086
 27
148.5022307685978
 37
0.0
 40
106.1202939343719
 41
2.426395939086294
 42
50.0
 43
0.0
 44
0.0
 50
0.0
 51
0.0
 71
     0
 72
   100
 73
     1
 74
     3
 75
     0
 76
     0
 77
     0
 78
     0
281
     0
 65
     1
110
0.0
120
0.0
130
0.0
111
1.0
121
0.0
131
0.0
112
0.0
122
1.0
132
0.0
 79
     0
146
0.0
348
2F
 60
     3
 61
     5
292
     1
282
     1
141
0.0
142
0.0
 63
   250
421
  3355443
  0
ENDTAB
  0
TABLE
  2
LTYPE
  5
5
330
0
100
AcDbSymbolTable
 70
     2
  0
LTYPE
  5
14
330
5
100
AcDbSymbolTableRecord
100
AcDbLinetypeTableRecord
  2
ByBlock
 70
     0
  3

 72
    65
 73
     0
 40
0.0
  0
LTYPE
  5
15
330
5
100
AcDbSymbolTableRecord
100
AcDbLinetypeTableRecord
  2
ByLayer
 70
     0
  3

 72
    65
 73
     0
 40
0.0
  0
LTYPE
  5
16
330
5
100
AcDbSymbolTableRecord
100
AcDbLinetypeTableRecord
  2
Continuous
 70
     0
  3
Solid line
 72
    65
 73
     0
 40
0.0
  0
LTYPE
  5
67BA
330
5
100
AcDbSymbolTableRecord
100
AcDbLinetypeTableRecord
  2
CENTER
 70
     0
  3
Center ____ _ ____ _ ____ _ ____ _ ____ _ ____
 72
    65
 73
     4
 40
2.0
 49
1.25
 74
     0
 49
-0.25
 74
     0
 49
0.25
 74
     0
 49
-0.25
 74
     0
  0
ENDTAB
  0
TABLE
  2
LAYER
  5
2
102
{ACAD_XDICTIONARY
360
50B8
102
}
330
0
100
AcDbSymbolTable
 70
     7
  0
LAYER
  5
10
102
{ACAD_XDICTIONARY
360
50D0
102
}
330
2
100
AcDbSymbolTableRecord
100
AcDbLayerTableRecord
  2
0
 70
     0
 62
     7
  6
Continuous
370
    30
390
F
347
4FF6
  0
LAYER
  5
3B
102
{ACAD_XDICTIONARY
360
50D2
102
}
330
2
100
AcDbSymbolTableRecord
100
AcDbLayerTableRecord
  2
图层 1
 70
     0
 62
     7
  6
Continuous
370
    -3
390
F
347
4FF6
  0
LAYER
  5
50AE
102
{ACAD_XDICTIONARY
360
50AF
102
}
330
2
100
AcDbSymbolTableRecord
100
AcDbLayerTableRecord
  2
图框
 70
     0
 62
     7
  6
Continuous
370
    20
390
F
347
4FF6
  0
LAYER
  5
5141
330
2
100
AcDbSymbolTableRecord
100
AcDbLayerTableRecord
  2
Defpoints
 70
     0
 62
     7
  6
Continuous
290
     0
370
    -3
390
F
347
4FF6
  0
LAYER
  5
5144
330
2
100
AcDbSymbolTableRecord
100
AcDbLayerTableRecord
  2
DIM
 70
     0
 62
     3
  6
Continuous
370
    15
390
F
347
4FF6
1001
AcAecLayerStandard
1000

1000

  0
LAYER
  5
52F3
330
2
100
AcDbSymbolTableRecord
100
AcDbLayerTableRecord
  2
打标文字
 70
     0
 62
     3
  6
Continuous
370
    20
390
F
347
4FF6
  0
LAYER
  5
67B7
330
2
100
AcDbSymbolTableRecord
100
AcDbLayerTableRecord
  2
CEN
 70
     0
 62
     1
  6
CENTER
370
    15
390
F
347
4FF6
1001
AcAecLayerStandard
1000

1000

  0
ENDTAB
  0
TABLE
  2
STYLE
  5
3
330
0
100
AcDbSymbolTable
 70
     4
  0
STYLE
  5
11
330
3
100
AcDbSymbolTableRecord
100
AcDbTextStyleTableRecord
  2
Standard
 70
     0
 40
0.0
 41
0.75
 50
0.0
 71
     0
 42
0.2
  3
SIMFANG.TTF
  4

1001
ACAD
1000
FangSong_GB2312
1071
    34353
  0
STYLE
  5
FD48
330
3
100
AcDbSymbolTableRecord
100
AcDbTextStyleTableRecord
  2
Romans字体
 70
     0
 40
0.0
 41
0.75
 50
0.0
 71
     0
 42
0.2
  3
romans.shx
  4

  0
STYLE
  5
11080
330
3
100
AcDbSymbolTableRecord
100
AcDbTextStyleTableRecord
  2
工程字
 70
     0
 40
0.0
 41
1.0
 50
0.0
 71
     0
 42
3.5
  3
gbenor.shx
  4
gbcbig.shx
  0
STYLE
  5
11081
330
3
100
AcDbSymbolTableRecord
100
AcDbTextStyleTableRecord
  2
Chinese
 70
     0
 40
0.0
 41
1.0
 50
0.0
 71
     0
 42
2.5
  3
PMingLiU.ttf
  4

1001
ACAD
1000
PMingLiU
1071
    34834
  0
ENDTAB
  0
TABLE
  2
VIEW
  5
6
330
0
100
AcDbSymbolTable
 70
     0
  0
ENDTAB
  0
TABLE
  2
UCS
  5
7
330
0
100
AcDbSymbolTable
 70
     0
  0
ENDTAB
  0
TABLE
  2
APPID
  5
9
330
0
100
AcDbSymbolTable
 70
    17
  0
APPID
  5
12
330
9
100
AcDbSymbolTableRecord
100
AcDbRegAppTableRecord
  2
ACAD
 70
     0
  0
APPID
  5
5024
330
9
100
AcDbSymbolTableRecord
100
AcDbRegAppTableRecord
  2
ACAD_MLEADERVER
 70
     0
  0
APPID
  5
50B5
330
9
100
AcDbSymbolTableRecord
100
AcDbRegAppTableRecord
  2
AcDbDynamicBlockGUID
 70
     0
  0
APPID
  5
50B6
330
9
100
AcDbSymbolTableRecord
100
AcDbRegAppTableRecord
  2
AcDbBlockRepETag
 70
     0
  0
APPID
  5
50B7
330
9
100
AcDbSymbolTableRecord
100
AcDbRegAppTableRecord
  2
ACAD_PSEXT
 70
     0
  0
APPID
  5
50CF
330
9
100
AcDbSymbolTableRecord
100
AcDbRegAppTableRecord
  2
AcadAnnoPO
 70
     0
  0
APPID
  5
5146
330
9
100
AcDbSymbolTableRecord
100
AcDbRegAppTableRecord
  2
AcAecLayerStandard
 70
     0
  0
APPID
  5
5147
330
9
100
AcDbSymbolTableRecord
100
AcDbRegAppTableRecord
  2
ACAD_DSTYLE_DIMJAG
 70
     0
  0
APPID
  5
5148
330
9
100
AcDbSymbolTableRecord
100
AcDbRegAppTableRecord
  2
ACAD_DSTYLE_DIMTALN
 70
     0
  0
APPID
  5
52AD
330
9
100
AcDbSymbolTableRecord
100
AcDbRegAppTableRecord
  2
ACAUTHENVIRON
 70
     0
  0
APPID
  5
52B0
330
9
100
AcDbSymbolTableRecord
100
AcDbRegAppTableRecord
  2
AcDbDynamicBlockTrueName
 70
     0
  0
APPID
  5
67C6
330
9
100
AcDbSymbolTableRecord
100
AcDbRegAppTableRecord
  2
ACAD_EXEMPT_FROM_CAD_STANDARDS
 70
     0
  0
APPID
  5
6838
330
9
100
AcDbSymbolTableRecord
100
AcDbRegAppTableRecord
  2
ACAD_NAV_VCDISPLAY
 70
     0
  0
APPID
  5
70A9
330
9
100
AcDbSymbolTableRecord
100
AcDbRegAppTableRecord
  2
DCO15
 70
     0
  0
APPID
  5
8725
330
9
100
AcDbSymbolTableRecord
100
AcDbRegAppTableRecord
  2
AcDbBlockRepBTag
 70
     0
  0
APPID
  5
FE64
330
9
100
AcDbSymbolTableRecord
100
AcDbRegAppTableRecord
  2
ACAD_DSTYLE_DIMRADIAL_EXTENSION
 70
     0
  0
APPID
  5
FF93
330
9
100
AcDbSymbolTableRecord
100
AcDbRegAppTableRecord
  2
ACAD_DSTYLE_DIMBREAK
 70
     0
  0
ENDTAB
  0
TABLE
  2
DIMSTYLE
  5
A
330
0
100
AcDbSymbolTable
 70
     2
100
AcDbDimStyleTable
 71
     2
340
5145
340
27
  0
DIMSTYLE
105
27
330
A
100
AcDbSymbolTableRecord
100
AcDbDimStyleTableRecord
  2
Standard
 70
     0
340
11
  0
DIMSTYLE
105
5145
102
{ACAD_REACTORS
330
15D54
330
15D6A
330
15D78
330
15D86
102
}
330
A
100
AcDbSymbolTableRecord
100
AcDbDimStyleTableRecord
  2
01
 70
     0
 41
1.5
 42
0.2
 43
0.2
 44
0.5
 73
     0
 74
     0
 77
     1
 78
     8
 79
     2
140
2.0
141
0.0
147
0.5
176
     1
177
     6
178
     4
179
     2
271
     1
272
     1
340
FD48
1001
ACAD_DSTYLE_DIMJAG
1070
   388
1040
1.5
1001
ACAD_DSTYLE_DIMTALN
1070
   392
1070
     0
  0
ENDTAB
  0
TABLE
  2
BLOCK_RECORD
  5
1
330
0
100
AcDbSymbolTable
 70
     7
  0
BLOCK_RECORD
  5
1F
102
{ACAD_XDICTIONARY
360
67C0
102
}
330
1
100
AcDbSymbolTableRecord
100
AcDbBlockTableRecord
  2
*Model_Space
340
22
 70
     0
280
     1
281
     0
  0
BLOCK_RECORD
  5
1B
330
1
100
AcDbSymbolTableRecord
100
AcDbBlockTableRecord
  2
*Paper_Space
340
1E
 70
     0
280
     1
281
     0
  0
BLOCK_RECORD
  5
23
330
1
100
AcDbSymbolTableRecord
100
AcDbBlockTableRecord
  2
*Paper_Space0
340
26
 70
     0
280
     1
281
     0
  0
BLOCK_RECORD
  5
156B5
102
{ACAD_XDICTIONARY
360
15EAC
102
}
330
1
100
AcDbSymbolTableRecord
100
AcDbBlockTableRecord
  2
A4图框-NEW
340
0
310
2800000020000000200000000100080000000000000400000000000000000000000000000000000000000000000080000080000000808000800000008000800080800000C0C0C000C0DCC000F0CAA6000020400000206000002080000020A0000020C0000020E00000400000004020000040400000406000004080000040A0
310
000040C0000040E00000600000006020000060400000606000006080000060A0000060C0000060E00000800000008020000080400000806000008080000080A0000080C0000080E00000A0000000A0200000A0400000A0600000A0800000A0A00000A0C00000A0E00000C0000000C0200000C0400000C0600000C0800000C0
310
A00000C0C00000C0E00000E0000000E0200000E0400000E0600000E0800000E0A00000E0C00000E0E00040000000400020004000400040006000400080004000A0004000C0004000E00040200000402020004020400040206000402080004020A0004020C0004020E000404000004040200040404000404060004040800040
310
40A0004040C0004040E00040600000406020004060400040606000406080004060A0004060C0004060E00040800000408020004080400040806000408080004080A0004080C0004080E00040A0000040A0200040A0400040A0600040A0800040A0A00040A0C00040A0E00040C0000040C0200040C0400040C0600040C08000
310
40C0A00040C0C00040C0E00040E0000040E0200040E0400040E0600040E0800040E0A00040E0C00040E0E00080000000800020008000400080006000800080008000A0008000C0008000E00080200000802020008020400080206000802080008020A0008020C0008020E00080400000804020008040400080406000804080
310
008040A0008040C0008040E00080600000806020008060400080606000806080008060A0008060C0008060E00080800000808020008080400080806000808080008080A0008080C0008080E00080A0000080A0200080A0400080A0600080A0800080A0A00080A0C00080A0E00080C0000080C0200080C0400080C0600080C0
310
800080C0A00080C0C00080C0E00080E0000080E0200080E0400080E0600080E0800080E0A00080E0C00080E0E000C0000000C0002000C0004000C0006000C0008000C000A000C000C000C000E000C0200000C0202000C0204000C0206000C0208000C020A000C020C000C020E000C0400000C0402000C0404000C0406000C0
310
408000C040A000C040C000C040E000C0600000C0602000C0604000C0606000C0608000C060A000C060C000C060E000C0800000C0802000C0804000C0806000C0808000C080A000C080C000C080E000C0A00000C0A02000C0A04000C0A06000C0A08000C0A0A000C0A0C000C0A0E000C0C00000C0C02000C0C04000C0C06000
310
C0C08000C0C0A000F0FBFF00A4A0A000808080000000FF0000FF000000FFFF00FF000000FF00FF00FFFF0000FFFFFF0000000000000000000000000000000000000000000000000000000000000000000000000000000000000000000000000000000000000000000000000000000000000000000000000000000000000000
310
000000000000000000000000000000000000000000000000000000000000000000000000000000000000000000000000000000000000000000000000000000000000000000000000000000000000000000000000000000000000000000000000000000000000000000000000000000000000F9F9F9F9F9F9F9F9F9F9F9F9F9
310
F9F9F9F9F9F9F9F9F9F9F9F9F9F9FF00000000F9FF000000000000000000FFFFFFFFFFFFFFFFFFFFFFFFF9FAFAFAFF00000000F9FF000000000000000000FFFFFFFFFFFFFFFFFFFFFFFFFFFFFFFFFF00000000F9FD000000000000000000FFFFFFFFFFFFFFFFFFFFFFFFFFFFFFFFFF00000000F9FF000000000000000000FF
310
FFFFFFFFFFFFFFFFFFFFFFFFFFFFFFFF00000000F9FD000000000000000000FFFFFFFFFFFFFFFFFFFFFFFFFFFFFFFFFF00000000F9FF00000000000000000000000000000000000000000000000000FF00000000F9FD00000000000000000000000000000000000000000000000000FF00000000F9FF000000000000000000
310
00000000000000000000000000000000FF00000000F9FD00000000000000000000000000000000000000000000000000FF00000000F9FF00000000000000000000000000000000000000000000000000FF00000000F9FD00000000000000000000000000000000000000000000000000FF00000000F9FD0000000000000000
310
0000000000000000000000000000000000FF00000000F9FF00000000000000000000000000000000000000000000000000FF00000000F9FD00000000000000000000000000000000000000000000000000FF00000000F9FF00000000000000000000000000000000000000000000000000FF00000000F9FD00000000000000
310
000000000000000000000000000000000000FF00000000F9FF00000000000000000000000000000000000000000000000000FF00000000F9FFFFFFFFFFFFFFFFFFFFFFFFFFFFFFFFFFFFFFFFFFFFFFFFFFFFFF00000000F9FFFFFFF9F9F9F9F9F9F9F9F9F9F9F9F9F9F9F9F9F9F9F9F9F9F9F9000000000000000000000000
310
00000000000000000000000000000000000000000000000000000000000000000000000000000000000000000000000000000000000000000000000000000000000000000000000000000000000000000000000000000000000000000000000000000000000000000000000000000000000000000000000000000000000000
310
0000000000000000000000000000000000000000000000000000000000000000000000000000000000000000000000000000000000000000
102
{BLKREFS
331
1575A
102
}
 70
     4
280
     1
281
     0
1001
AcDbDynamicBlockGUID
1000
{039C1F35-BE6D-4967-A188-B4809B7A2AB2}
1001
AcDbBlockRepETag
1070
     1
1071
      149
  0
BLOCK_RECORD
  5
15D55
330
1
100
AcDbSymbolTableRecord
100
AcDbBlockTableRecord
  2
*D2
340
0
 70
     0
280
     1
281
     0
  0
BLOCK_RECORD
  5
15D6B
330
1
100
AcDbSymbolTableRecord
100
AcDbBlockTableRecord
  2
*D3
340
0
 70
     0
280
     1
281
     0
  0
BLOCK_RECORD
  5
15D79
330
1
100
AcDbSymbolTableRecord
100
AcDbBlockTableRecord
  2
*D4
340
0
 70
     0
280
     1
281
     0
  0
BLOCK_RECORD
  5
15D87
330
1
100
AcDbSymbolTableRecord
100
AcDbBlockTableRecord
  2
*D5
340
0
 70
     0
280
     1
281
     0
  0
ENDTAB
  0
ENDSEC
  0
SECTION
  2
BLOCKS
  0
BLOCK
  5
20
330
1F
100
AcDbEntity
  8
0
100
AcDbBlockBegin
  2
*Model_Space
 70
     0
 10
0.0
 20
0.0
 30
0.0
  3
*Model_Space
  1

  0
ENDBLK
  5
21
330
1F
100
AcDbEntity
  8
0
100
AcDbBlockEnd
  0
BLOCK
  5
1C
330
1B
100
AcDbEntity
 67
     1
  8
0
100
AcDbBlockBegin
  2
*Paper_Space
 70
     0
 10
0.0
 20
0.0
 30
0.0
  3
*Paper_Space
  1

  0
ENDBLK
  5
1D
330
1B
100
AcDbEntity
 67
     1
  8
0
100
AcDbBlockEnd
  0
BLOCK
  5
24
330
23
100
AcDbEntity
 67
     1
  8
0
100
AcDbBlockBegin
  2
*Paper_Space0
 70
     0
 10
0.0
 20
0.0
 30
0.0
  3
*Paper_Space0
  1

  0
ENDBLK
  5
25
330
23
100
AcDbEntity
 67
     1
  8
0
100
AcDbBlockEnd
  0
BLOCK
  5
156B7
330
156B5
100
AcDbEntity
  8
0
100
AcDbBlockBegin
  2
A4图框-NEW
 70
     0
 10
0.0
 20
0.0
 30
0.0
  3
A4图框-NEW
  1

  0
MTEXT
  5
15E17
102
{ACAD_XDICTIONARY
360
15EB5
102
}
330
156B5
100
AcDbEntity
  8
图框
 62
     3
100
AcDbMText
 10
967.6594956750133
 20
499.7664151964293
 30
0.0
 40
2.985513575034151
 41
15.50176341157864
 46
6.292658374511018
 71
     5
 72
     5
  1
BQ LUO
  7
Romans字体
 73
     1
 44
1.0
1001
AcDbBlockRepETag
1070
     1
1071
        0
1005
15E17
1001
ACAD
1000
ACAD_MTEXT_DEFINED_HEIGHT_BEGIN
1070
    46
1040
6.292658374511018
1000
ACAD_MTEXT_DEFINED_HEIGHT_END
  0
MTEXT
  5
15E18
330
156B5
100
AcDbEntity
  8
图框
 62
     3
100
AcDbMText
 10
983.041569333247
 20
499.7664151964293
 30
0.0
 40
2.487927979195124
 41
15.26238390489062
 46
6.292658374511042
 71
     5
 72
     5
  1
{\W0.7;18.10.2010}
  7
Romans字体
 73
     1
 44
1.0
1001
AcDbBlockRepETag
1070
     1
1071
        1
1005
15E18
1001
ACAD
1000
ACAD_MTEXT_DEFINED_HEIGHT_BEGIN
1070
    46
1040
6.292658374511042
1000
ACAD_MTEXT_DEFINED_HEIGHT_END
  0
MTEXT
  5
15E19
330
156B5
100
AcDbEntity
  8
图框
 62
     3
100
AcDbMText
 10
1012.477254728976
 20
487.1810984474071
 30
0.0
 40
2.985513575034151
 41
17.64876416884615
 46
6.292658374511455
 71
     5
 72
     5
  1
YY LIN
  7
Romans字体
 73
     1
 44
1.0
1001
AcDbBlockRepETag
1070
     1
1071
        2
1005
15E19
1001
ACAD
1000
ACAD_MTEXT_DEFINED_HEIGHT_BEGIN
1070
    46
1040
6.292658374511455
1000
ACAD_MTEXT_DEFINED_HEIGHT_END
  0
MTEXT
  5
15E1A
330
156B5
100
AcDbEntity
  8
图框
 62
     3
100
AcDbMText
 10
1028.977802139886
 20
487.1810984474071
 30
0.0
 40
2.487927979195124
 41
15.35233065297276
 46
6.292658374511495
 71
     5
 72
     5
  1
{\W0.7;18.10.2010}
  7
Romans字体
 73
     1
 44
1.0
1001
AcDbBlockRepETag
1070
     1
1071
        3
1005
15E1A
1001
ACAD
1000
ACAD_MTEXT_DEFINED_HEIGHT_BEGIN
1070
    46
1040
6.292658374511495
1000
ACAD_MTEXT_DEFINED_HEIGHT_END
  0
MTEXT
  5
15E1B
330
156B5
100
AcDbEntity
  8
图框
 62
     3
100
AcDbMText
 10
1063.722665487208
 20
525.4145966538831
 30
0.0
 40
2.985513575034151
 41
32.4973914334545
 46
11.82914190181707
 71
     5
 72
     5
  1
-
  7
Romans字体
 73
     1
 44
1.0
1001
AcDbBlockRepETag
1070
     1
1071
        4
1005
15E1B
1001
ACAD
1000
ACAD_MTEXT_DEFINED_HEIGHT_BEGIN
1070
    46
1040
11.82914190181707
1000
ACAD_MTEXT_DEFINED_HEIGHT_END
  0
MTEXT
  5
15E1C
330
156B5
100
AcDbEntity
  8
图框
 62
     3
100
AcDbMText
 10
1063.727338552349
 20
513.5854547520641
 30
0.0
 40
2.985513575034151
 41
32.48804530317308
 46
11.82914190182139
 71
     5
 72
     5
  1
-
  7
Romans字体
 73
     1
 44
1.0
1001
AcDbBlockRepETag
1070
     1
1071
        5
1005
15E1C
1001
ACAD
1000
ACAD_MTEXT_DEFINED_HEIGHT_BEGIN
1070
    46
1040
11.82914190182139
1000
ACAD_MTEXT_DEFINED_HEIGHT_END
  0
MTEXT
  5
15E1D
330
156B5
100
AcDbEntity
  8
图框
 62
     3
100
AcDbMText
 10
1110.122306614152
 20
526.8006839312707
 30
0.0
 40
2.985513575034151
 41
33.61239199242139
 46
9.05696734704178
 71
     5
 72
     5
  1
-
  7
Romans字体
 73
     1
 44
1.0
1001
AcDbBlockRepETag
1070
     1
1071
        6
1005
15E1D
1001
ACAD
1000
ACAD_MTEXT_DEFINED_HEIGHT_BEGIN
1070
    46
1040
9.05696734704178
1000
ACAD_MTEXT_DEFINED_HEIGHT_END
  0
MTEXT
  5
15E1E
330
156B5
100
AcDbEntity
  8
图框
 62
     3
100
AcDbMText
 10
1110.122306614152
 20
500.2775205517162
 30
0.0
 40
2.985513575034151
 41
33.61239199242139
 46
8.871557304763419
 71
     5
 72
     5
  1
-
  7
Romans字体
 73
     1
 44
1.0
1001
AcDbBlockRepETag
1070
     1
1071
        7
1005
15E1E
1001
ACAD
1000
ACAD_MTEXT_DEFINED_HEIGHT_BEGIN
1070
    46
1040
8.871557304763419
1000
ACAD_MTEXT_DEFINED_HEIGHT_END
  0
MTEXT
  5
15E1F
330
156B5
100
AcDbEntity
  8
图框
 62
     3
100
AcDbMText
 10
967.6594956750133
 20
493.4737568219182
 30
0.0
 40
2.985513575034151
 41
15.50176341157864
 46
6.292658374510335
 71
     5
 72
     5
  1
P RAO
  7
Romans字体
 73
     1
 44
1.0
1001
AcDbBlockRepETag
1070
     1
1071
        8
1005
15E1F
1001
ACAD
1000
ACAD_MTEXT_DEFINED_HEIGHT_BEGIN
1070
    46
1040
6.292658374510335
1000
ACAD_MTEXT_DEFINED_HEIGHT_END
  0
MTEXT
  5
15E20
330
156B5
100
AcDbEntity
  8
图框
 62
     3
100
AcDbMText
 10
983.041569333247
 20
493.2441970450405
 30
0.0
 40
2.487927979195124
 41
15.26238390489051
 46
6.751777928266487
 71
     5
 72
     5
  1
{\W0.7;18.10.2010}
  7
Romans字体
 73
     1
 44
1.0
1001
AcDbBlockRepETag
1070
     1
1071
        9
1005
15E20
1001
ACAD
1000
ACAD_MTEXT_DEFINED_HEIGHT_BEGIN
1070
    46
1040
6.751777928266487
1000
ACAD_MTEXT_DEFINED_HEIGHT_END
  0
MTEXT
  5
15E21
330
156B5
100
AcDbEntity
  8
图框
 62
     3
100
AcDbMText
 10
1012.477254728976
 20
499.7664151964291
 30
0.0
 40
2.985513575034151
 41
17.64876416884615
 46
6.292658374511397
 71
     5
 72
     5
  1
-
  7
Romans字体
 73
     1
 44
1.0
1001
AcDbBlockRepETag
1070
     1
1071
       10
1005
15E21
1001
ACAD
1000
ACAD_MTEXT_DEFINED_HEIGHT_BEGIN
1070
    46
1040
6.292658374511397
1000
ACAD_MTEXT_DEFINED_HEIGHT_END
  0
MTEXT
  5
15E22
330
156B5
100
AcDbEntity
  8
图框
 62
     3
100
AcDbMText
 10
1028.977802139886
 20
499.7664151964289
 30
0.0
 40
2.487927979195124
 41
15.35233065297265
 46
6.292658374511382
 71
     5
 72
     5
  1
-
  7
Romans字体
 73
     1
 44
1.0
1001
AcDbBlockRepETag
1070
     1
1071
       11
1005
15E22
1001
ACAD
1000
ACAD_MTEXT_DEFINED_HEIGHT_BEGIN
1070
    46
1040
6.292658374511382
1000
ACAD_MTEXT_DEFINED_HEIGHT_END
  0
MTEXT
  5
15E23
330
156B5
100
AcDbEntity
  8
图框
 62
     3
100
AcDbMText
 10
967.6594956750133
 20
487.1810984474071
 30
0.0
 40
2.985513575034151
 41
15.50176341157863
 46
6.292658374511478
 71
     5
 72
     5
  1
-
  7
Romans字体
 73
     1
 44
1.0
1001
AcDbBlockRepETag
1070
     1
1071
       12
1005
15E23
1001
ACAD
1000
ACAD_MTEXT_DEFINED_HEIGHT_BEGIN
1070
    46
1040
6.292658374511478
1000
ACAD_MTEXT_DEFINED_HEIGHT_END
  0
MTEXT
  5
15E24
330
156B5
100
AcDbEntity
  8
图框
 62
     3
100
AcDbMText
 10
983.041569333247
 20
487.1810984474071
 30
0.0
 40
2.487927979195124
 41
15.26238390489062
 46
6.292658374511495
 71
     5
 72
     5
  1
-
  7
Romans字体
 73
     1
 44
1.0
1001
AcDbBlockRepETag
1070
     1
1071
       13
1005
15E24
1001
ACAD
1000
ACAD_MTEXT_DEFINED_HEIGHT_BEGIN
1070
    46
1040
6.292658374511495
1000
ACAD_MTEXT_DEFINED_HEIGHT_END
  0
MTEXT
  5
15E25
330
156B5
100
AcDbEntity
  8
图框
 62
     3
100
AcDbMText
 10
1074.556686986741
 20
495.8417418993361
 30
0.0
 40
2.985513575034151
 41
10.82934843438978
 46
7.886094601210427
 71
     5
 72
     5
  1
-
  7
Romans字体
 73
     1
 44
1.0
1001
AcDbBlockRepETag
1070
     1
1071
       14
1005
15E25
1001
ACAD
1000
ACAD_MTEXT_DEFINED_HEIGHT_BEGIN
1070
    46
1040
7.886094601210427
1000
ACAD_MTEXT_DEFINED_HEIGHT_END
  0
LINE
  5
15E26
330
156B5
100
AcDbEntity
  8
图框
370
    -3
100
AcDbLine
 10
1036.653967466372
 20
499.7847891999413
 30
0.0
 11
1079.971361203936
 21
499.7847891999413
 31
0.0
1001
AcDbBlockRepETag
1070
     1
1071
       15
1005
15E26
  0
MTEXT
  5
15E27
330
156B5
100
AcDbEntity
  8
图框
 62
     1
370
    20
100
AcDbMText
 10
1108.26336443907
 20
491.5162596080882
 30
0.0
 40
2.699054613030988
 41
82.30831305643079
 46
0.0
 71
     5
 72
     5
  1
{\fSimHei|b0|i0|c134|p2;厦门唯恩电气有限公司}
 73
     1
 44
1.0
1001
AcDbBlockRepETag
1070
     1
1071
       16
1005
15E27
  0
MTEXT
  5
15E28
330
156B5
100
AcDbEntity
  8
图框
 62
     3
370
    20
100
AcDbMText
 10
1108.435451459908
 20
487.298967726064
 30
0.0
 40
1.652482416141417
 41
68.08558693693567
 46
0.0
 71
     5
 72
     5
  1
{\fArial Narrow|b0|i0|c0|p34;XIAMEN WAIN ELECTRICAL CO.LTD}
  7
工程字
 73
     1
 44
1.0
1001
AcDbBlockRepETag
1070
     1
1071
       17
1005
15E28
  0
MTEXT
  5
15E29
330
156B5
100
AcDbEntity
  8
图框
 62
     1
370
    20
100
AcDbMText
 10
1085.711816899387
 20
491.0944802995856
 30
0.0
 40
2.005930044038334
 41
5.047240019334847
 46
0.0
 71
     1
 72
     5
  1
{\fArial|b0|i0|c0|p34;A}
  7
Chinese
 73
     1
 44
1.0
1001
AcDbBlockRepETag
1070
     1
1071
       18
1005
15E29
  0
MTEXT
  5
15E2A
330
156B5
100
AcDbEntity
  8
图框
 62
     1
370
    20
100
AcDbMText
 10
1088.213485935716
 20
491.0944802995856
 30
0.0
 40
2.005930044038334
 41
5.047240019334847
 46
0.0
 71
     1
 72
     5
  1
{\fArial|b0|i0|c0|p34;I}
  7
Chinese
 73
     1
 44
1.0
1001
AcDbBlockRepETag
1070
     1
1071
       19
1005
15E2A
  0
MTEXT
  5
15E2B
330
156B5
100
AcDbEntity
  8
图框
 62
     1
370
    20
100
AcDbMText
 10
1089.142375222864
 20
491.0822866326808
 30
0.0
 40
2.005930044038334
 41
5.047240019334847
 46
0.0
 71
     1
 72
     5
  1
{\fArial|b0|i0|c0|p34;N}
  7
Chinese
 73
     1
 44
1.0
1001
AcDbBlockRepETag
1070
     1
1071
       20
1005
15E2B
  0
MTEXT
  5
15E2C
330
156B5
100
AcDbEntity
  8
图框
100
AcDbMText
 10
1069.142012769545
 20
487.9667319294409
 30
0.0
 40
2.252848170144607
 41
21.65869686878327
 46
7.863925338579296
 71
     5
 72
     5
  1
{\W0.5;\C1;All Dimensions in mm\POriginal Size DIN A 4}
  7
Romans字体
 73
     1
 44
1.0
1001
AcDbBlockRepETag
1070
     1
1071
       21
1005
15E2C
1001
ACAD
1000
ACAD_MTEXT_DEFINED_HEIGHT_BEGIN
1070
    46
1040
7.863925338579296
1000
ACAD_MTEXT_DEFINED_HEIGHT_END
  0
MTEXT
  5
15E2D
330
156B5
100
AcDbEntity
  8
图框
  6
ByBlock
 62
     6
370
    18
100
AcDbMText
 10
1127.40434942308
 20
508.7896535755975
 30
0.0
 40
2.651776162684904
 41
2.557913877927211
 46
0.0
 71
     1
 72
     5
  1
A
  7
Romans字体
 11
0.0000000000000001
 21
1.0
 31
0.0
 73
     1
 44
1.0
1001
AcDbBlockRepETag
1070
     1
1071
       22
1005
15E2D
  0
MTEXT
  5
15E2E
330
156B5
100
AcDbEntity
  8
图框
 62
     6
100
AcDbMText
 10
1127.40434942308
 20
556.3746573232886
 30
0.0
 40
2.651776162684904
 41
2.557913877927211
 46
0.0
 71
     1
 72
     5
  1
B
  7
Romans字体
 11
0.0000000000000001
 21
1.0
 31
0.0
 73
     1
 44
1.0
1001
AcDbBlockRepETag
1070
     1
1071
       23
1005
15E2E
  0
MTEXT
  5
15E2F
330
156B5
100
AcDbEntity
  8
图框
 62
     6
100
AcDbMText
 10
1127.40434942308
 20
607.5539372630998
 30
0.0
 40
2.651776162684904
 41
2.557913877927211
 46
0.0
 71
     1
 72
     5
  1
C
  7
Romans字体
 11
0.0000000000000001
 21
1.0
 31
0.0
 73
     1
 44
1.0
1001
AcDbBlockRepETag
1070
     1
1071
       24
1005
15E2F
  0
MTEXT
  5
15E30
330
156B5
100
AcDbEntity
  8
图框
 62
     6
100
AcDbMText
 10
1127.40434942308
 20
658.7332172029115
 30
0.0
 40
2.651776162684904
 41
2.557913877927211
 46
0.0
 71
     1
 72
     5
  1
D
  7
Romans字体
 11
0.0000000000000001
 21
1.0
 31
0.0
 73
     1
 44
1.0
1001
AcDbBlockRepETag
1070
     1
1071
       25
1005
15E30
  0
LINE
  5
15E31
330
156B5
100
AcDbEntity
  8
图框
 62
     6
100
AcDbLine
 10
1130.411601781241
 20
634.0726090796082
 30
0.0
 11
1126.928502610363
 21
634.0726090796082
 31
0.0
1001
AcDbBlockRepETag
1070
     1
1071
       26
1005
15E31
  0
LINE
  5
15E32
330
156B5
100
AcDbEntity
  8
图框
 62
     6
100
AcDbLine
 10
1130.411601781241
 20
582.89332913979
 30
0.0
 11
1126.928502610363
 21
582.89332913979
 31
0.0
1001
AcDbBlockRepETag
1070
     1
1071
       27
1005
15E32
  0
MTEXT
  5
15E33
330
156B5
100
AcDbEntity
  8
图框
 62
     6
100
AcDbMText
 10
1105.329704038389
 20
483.6164543011163
 30
0.0
 40
2.651776162684904
 41
2.557913877927211
 46
0.0
 71
     1
 72
     5
  1
6
  7
Romans字体
 73
     1
 44
1.0
1001
AcDbBlockRepETag
1070
     1
1071
       28
1005
15E33
  0
LINE
  5
15E34
330
156B5
100
AcDbEntity
  8
图框
 62
     6
100
AcDbLine
 10
1081.088565155284
 20
484.0347692601515
 30
0.0
 11
1081.088565155284
 21
480.5347692601475
 31
0.0
1001
AcDbBlockRepETag
1070
     1
1071
       29
1005
15E34
  0
MTEXT
  5
15E35
330
156B5
100
AcDbEntity
  8
图框
 62
     6
100
AcDbMText
 10
1055.900596365941
 20
483.520053108993
 30
0.0
 40
2.651776162684904
 41
2.557913877927211
 46
0.0
 71
     1
 72
     5
  1
5
  7
Romans字体
 73
     1
 44
1.0
1001
AcDbBlockRepETag
1070
     1
1071
       30
1005
15E35
  0
LINE
  5
15E36
330
156B5
100
AcDbEntity
  8
图框
 62
     6
100
AcDbLine
 10
1031.553386436349
 20
484.0347692601515
 30
0.0
 11
1031.553386436349
 21
480.5347692601475
 31
0.0
1001
AcDbBlockRepETag
1070
     1
1071
       31
1005
15E36
  0
MTEXT
  5
15E37
330
156B5
100
AcDbEntity
  8
图框
 62
     6
100
AcDbMText
 10
1006.383180575197
 20
483.5687958215896
 30
0.0
 40
2.651776162684904
 41
2.557913877927211
 46
0.0
 71
     1
 72
     5
  1
4
  7
Romans字体
 73
     1
 44
1.0
1001
AcDbBlockRepETag
1070
     1
1071
       32
1005
15E37
  0
LINE
  5
15E38
330
156B5
100
AcDbEntity
  8
图框
 62
     6
100
AcDbLine
 10
982.0182077173887
 20
484.0347692601515
 30
0.0
 11
982.0182077173887
 21
480.5347692601475
 31
0.0
1001
AcDbBlockRepETag
1070
     1
1071
       33
1005
15E38
  0
MTEXT
  5
15E39
330
156B5
100
AcDbEntity
  8
图框
 62
     6
100
AcDbMText
 10
956.8302389280352
 20
483.5989680297948
 30
0.0
 40
2.651776162684904
 41
2.557913877927211
 46
0.0
 71
     1
 72
     5
  1
3
  7
Romans字体
 73
     1
 44
1.0
1001
AcDbBlockRepETag
1070
     1
1071
       34
1005
15E39
  0
LINE
  5
15E3A
330
156B5
100
AcDbEntity
  8
图框
 62
     6
100
AcDbLine
 10
932.4830289984245
 20
484.0347692601515
 30
0.0
 11
932.4830289984245
 21
480.5347692601475
 31
0.0
1001
AcDbBlockRepETag
1070
     1
1071
       35
1005
15E3A
  0
MTEXT
  5
15E3B
330
156B5
100
AcDbEntity
  8
图框
 62
     6
100
AcDbMText
 10
906.0252349826365
 20
483.6475250013156
 30
0.0
 40
2.651776162684904
 41
2.557913877927211
 46
0.0
 71
     1
 72
     5
  1
2
  7
Romans字体
 73
     1
 44
1.0
1001
AcDbBlockRepETag
1070
     1
1071
       36
1005
15E3B
  0
LINE
  5
15E3C
330
156B5
100
AcDbEntity
  8
图框
 62
     6
100
AcDbLine
 10
882.9478502794648
 20
484.0347692601515
 30
0.0
 11
882.9478502794648
 21
480.5347692601475
 31
0.0
1001
AcDbBlockRepETag
1070
     1
1071
       37
1005
15E3C
  0
MTEXT
  5
15E3D
330
156B5
100
AcDbEntity
  8
图框
 62
     6
100
AcDbMText
 10
857.7598814901191
 20
483.651829494754
 30
0.0
 40
2.651776162684904
 41
2.557913877927211
 46
0.0
 71
     1
 72
     5
  1
1
  7
Romans字体
 73
     1
 44
1.0
1001
AcDbBlockRepETag
1070
     1
1071
       38
1005
15E3D
  0
LINE
  5
15E3E
330
156B5
100
AcDbEntity
  8
图框
370
    50
100
AcDbLine
 10
836.8548209370597
 20
484.0347692601515
 30
0.0
 11
1126.928502610363
 21
484.0347692601515
 31
0.0
1001
AcDbBlockRepETag
1070
     1
1071
       39
1005
15E3E
  0
LINE
  5
15E3F
330
156B5
100
AcDbEntity
  8
图框
370
    50
100
AcDbLine
 10
836.9128518455362
 20
484.0178684310246
 30
0.0
 11
836.9128518455394
 21
675.0207195125422
 31
0.0
1001
AcDbBlockRepETag
1070
     1
1071
       40
1005
15E3F
  0
MTEXT
  5
15E40
330
156B5
100
AcDbEntity
  8
图框
 62
     6
100
AcDbMText
 10
833.8475685789031
 20
658.7332172029115
 30
0.0
 40
2.651776162684904
 41
2.557913877927211
 46
0.0
 71
     1
 72
     5
  1
D
  7
Romans字体
 11
0.0000000000000001
 21
1.0
 31
0.0
 73
     1
 44
1.0
1001
AcDbBlockRepETag
1070
     1
1071
       41
1005
15E40
  0
LINE
  5
15E41
330
156B5
100
AcDbEntity
  8
图框
 62
     6
100
AcDbLine
 10
836.9128518455386
 20
634.0726090796082
 30
0.0
 11
833.4128518455365
 21
634.0726090796082
 31
0.0
1001
AcDbBlockRepETag
1070
     1
1071
       42
1005
15E41
  0
MTEXT
  5
15E42
330
156B5
100
AcDbEntity
  8
图框
 62
     6
100
AcDbMText
 10
833.9039177480142
 20
607.5539372630998
 30
0.0
 40
2.651776162684904
 41
2.557913877927211
 46
0.0
 71
     1
 72
     5
  1
C
  7
Romans字体
 11
0.0000000000000001
 21
1.0
 31
0.0
 73
     1
 44
1.0
1001
AcDbBlockRepETag
1070
     1
1071
       43
1005
15E42
  0
LINE
  5
15E43
330
156B5
100
AcDbEntity
  8
图框
 62
     6
100
AcDbLine
 10
836.9128518455378
 20
582.89332913979
 30
0.0
 11
833.4128518455365
 21
582.89332913979
 31
0.0
1001
AcDbBlockRepETag
1070
     1
1071
       44
1005
15E43
  0
MTEXT
  5
15E44
330
156B5
100
AcDbEntity
  8
图框
 62
     6
100
AcDbMText
 10
833.9039177480142
 20
556.3746573232886
 30
0.0
 40
2.651776162684904
 41
2.557913877927211
 46
0.0
 71
     1
 72
     5
  1
B
  7
Romans字体
 11
0.0000000000000001
 21
1.0
 31
0.0
 73
     1
 44
1.0
1001
AcDbBlockRepETag
1070
     1
1071
       45
1005
15E44
  0
LINE
  5
15E45
330
156B5
100
AcDbEntity
  8
图框
 62
     6
100
AcDbLine
 10
836.9128518455367
 20
531.714049199969
 30
0.0
 11
833.4128518455365
 21
531.714049199969
 31
0.0
1001
AcDbBlockRepETag
1070
     1
1071
       46
1005
15E45
  0
MTEXT
  5
15E46
330
156B5
100
AcDbEntity
  8
图框
 62
     6
100
AcDbMText
 10
833.9039177480142
 20
508.7896535755975
 30
0.0
 40
2.651776162684904
 41
2.557913877927211
 46
0.0
 71
     1
 72
     5
  1
A
  7
Romans字体
 11
0.0000000000000001
 21
1.0
 31
0.0
 73
     1
 44
1.0
1001
AcDbBlockRepETag
1070
     1
1071
       47
1005
15E46
  0
LINE
  5
15E47
330
156B5
100
AcDbEntity
  8
图框
370
    -3
100
AcDbLine
 10
836.9128518455394
 20
675.0207195125422
 30
0.0
 11
836.9128518455394
 21
684.5021384922564
 31
0.0
1001
AcDbBlockRepETag
1070
     1
1071
       48
1005
15E47
  0
LINE
  5
15E48
330
156B5
100
AcDbEntity
  8
图框
370
    -3
100
AcDbLine
 10
842.6237321475781
 20
675.5347692601515
 30
0.0
 11
842.6237321475781
 21
685.0161882398658
 31
0.0
1001
AcDbBlockRepETag
1070
     1
1071
       49
1005
15E48
  0
LINE
  5
15E49
330
156B5
100
AcDbEntity
  8
图框
370
    -3
100
AcDbLine
 10
848.3346124496179
 20
675.5347692601515
 30
0.0
 11
848.3346124496179
 21
685.0161882398658
 31
0.0
1001
AcDbBlockRepETag
1070
     1
1071
       50
1005
15E49
  0
LINE
  5
15E4A
330
156B5
100
AcDbEntity
  8
图框
370
    -3
100
AcDbLine
 10
854.0454927516588
 20
675.5347692601515
 30
0.0
 11
854.0454927516588
 21
685.0161882398658
 31
0.0
1001
AcDbBlockRepETag
1070
     1
1071
       51
1005
15E4A
  0
LINE
  5
15E4B
330
156B5
100
AcDbEntity
  8
图框
370
    -3
100
AcDbLine
 10
861.5351874539182
 20
675.5347692601515
 30
0.0
 11
861.5351874539182
 21
686.7901958362482
 31
0.0
1001
AcDbBlockRepETag
1070
     1
1071
       52
1005
15E4B
  0
MTEXT
  5
15E4C
330
156B5
100
AcDbEntity
  8
图框
 62
     6
100
AcDbMText
 10
1105.329704038389
 20
678.859919059449
 30
0.0
 40
2.651776162684904
 41
2.557913877927211
 46
0.0
 71
     1
 72
     5
  1
6
  7
Romans字体
 73
     1
 44
1.0
1001
AcDbBlockRepETag
1070
     1
1071
       53
1005
15E4C
  0
LINE
  5
15E4D
330
156B5
100
AcDbEntity
  8
图框
 62
     6
100
AcDbLine
 10
1081.088565155284
 20
679.0347692601516
 30
0.0
 11
1081.088565155284
 21
675.5347692601515
 31
0.0
1001
AcDbBlockRepETag
1070
     1
1071
       54
1005
15E4D
  0
MTEXT
  5
15E4E
330
156B5
100
AcDbEntity
  8
图框
 62
     6
100
AcDbMText
 10
1055.900596365941
 20
678.859919059449
 30
0.0
 40
2.651776162684904
 41
2.557913877927211
 46
0.0
 71
     1
 72
     5
  1
5
  7
Romans字体
 73
     1
 44
1.0
1001
AcDbBlockRepETag
1070
     1
1071
       55
1005
15E4E
  0
LINE
  5
15E4F
330
156B5
100
AcDbEntity
  8
图框
 62
     6
100
AcDbLine
 10
1031.553386436349
 20
679.0347692601516
 30
0.0
 11
1031.553386436349
 21
675.5347692601515
 31
0.0
1001
AcDbBlockRepETag
1070
     1
1071
       56
1005
15E4F
  0
MTEXT
  5
15E50
330
156B5
100
AcDbEntity
  8
图框
 62
     6
100
AcDbMText
 10
1006.36541764698
 20
678.7312083656147
 30
0.0
 40
2.651776162684904
 41
2.557913877927211
 46
0.0
 71
     1
 72
     5
  1
4
  7
Romans字体
 73
     1
 44
1.0
1001
AcDbBlockRepETag
1070
     1
1071
       57
1005
15E50
  0
LINE
  5
15E51
330
156B5
100
AcDbEntity
  8
图框
 62
     6
100
AcDbLine
 10
982.0182077173887
 20
679.0347692601516
 30
0.0
 11
982.0182077173887
 21
675.5347692601515
 31
0.0
1001
AcDbBlockRepETag
1070
     1
1071
       58
1005
15E51
  0
MTEXT
  5
15E52
330
156B5
100
AcDbEntity
  8
图框
 62
     6
100
AcDbMText
 10
956.8302389280352
 20
678.859919059449
 30
0.0
 40
2.651776162684904
 41
2.557913877927211
 46
0.0
 71
     1
 72
     5
  1
3
  7
Romans字体
 73
     1
 44
1.0
1001
AcDbBlockRepETag
1070
     1
1071
       59
1005
15E52
  0
LINE
  5
15E53
330
156B5
100
AcDbEntity
  8
图框
 62
     6
100
AcDbLine
 10
932.4830289984245
 20
679.0347692601516
 30
0.0
 11
932.4830289984245
 21
675.5347692601515
 31
0.0
1001
AcDbBlockRepETag
1070
     1
1071
       60
1005
15E53
  0
MTEXT
  5
15E54
330
156B5
100
AcDbEntity
  8
图框
 62
     6
100
AcDbMText
 10
907.295060209082
 20
678.859919059449
 30
0.0
 40
2.651776162684904
 41
2.557913877927211
 46
0.0
 71
     1
 72
     5
  1
2
  7
Romans字体
 73
     1
 44
1.0
1001
AcDbBlockRepETag
1070
     1
1071
       61
1005
15E54
  0
LINE
  5
15E55
330
156B5
100
AcDbEntity
  8
图框
 62
     6
100
AcDbLine
 10
882.9478502794648
 20
678.7962435131815
 30
0.0
 11
882.9478502794648
 21
675.5347692601515
 31
0.0
1001
AcDbBlockRepETag
1070
     1
1071
       62
1005
15E55
  0
MTEXT
  5
15E56
330
156B5
100
AcDbEntity
  8
图框
 62
     6
100
AcDbMText
 10
862.6286629643733
 20
678.859919059449
 30
0.0
 40
2.651776162684904
 41
2.557913877927211
 46
0.0
 71
     1
 72
     5
  1
1
  7
Romans字体
 73
     1
 44
1.0
1001
AcDbBlockRepETag
1070
     1
1071
       63
1005
15E56
  0
LINE
  5
15E57
330
156B5
100
AcDbEntity
  8
图框
370
    -3
100
AcDbLine
 10
836.9128518455394
 20
675.0207195125422
 30
0.0
 11
836.9128518455394
 21
686.7901958362482
 31
0.0
1001
AcDbBlockRepETag
1070
     1
1071
       64
1005
15E57
  0
LINE
  5
15E58
330
156B5
100
AcDbEntity
  8
图框
370
    50
100
AcDbLine
 10
836.9128518455394
 20
675.5347692601515
 30
0.0
 11
1126.928502610363
 21
675.5347692601515
 31
0.0
1001
AcDbBlockRepETag
1070
     1
1071
       65
1005
15E58
  0
LINE
  5
15E59
330
156B5
100
AcDbEntity
  8
图框
370
    -3
100
AcDbLine
 10
842.6237321475781
 20
675.5347692601515
 30
0.0
 11
842.6237321475781
 21
686.7901958362482
 31
0.0
1001
AcDbBlockRepETag
1070
     1
1071
       66
1005
15E59
  0
LINE
  5
15E5A
330
156B5
100
AcDbEntity
  8
图框
370
    -3
100
AcDbLine
 10
848.3346124496179
 20
675.5347692601515
 30
0.0
 11
848.3346124496179
 21
686.7901958362482
 31
0.0
1001
AcDbBlockRepETag
1070
     1
1071
       67
1005
15E5A
  0
MTEXT
  5
15E5B
102
{ACAD_XDICTIONARY
360
15EB7
102
}
330
156B5
100
AcDbEntity
  8
图框
100
AcDbMText
 10
857.7903401027889
 20
686.7901958362482
 30
0.0
 40
1.958998408821398
 41
11.25542657609672
 46
7.489694702258906
 71
     4
 72
     5
  1
\pi2.6646;{\fSimSun|b0|i0|c134|p2;档案员\fFangSong_GB2312|b0|i0|c134|p49;\H0.7x;\P\pi1.4159;\Fromans|c134;Filing Clerk\fFangSong_GB2312|b0|i0|c134|p49; }
 11
-0.0000000000000002
 21
-1.0
 31
0.0
 73
     1
 44
1.0
1001
AcDbBlockRepETag
1070
     1
1071
       68
1005
15E5B
1001
ACAD
1000
ACAD_MTEXT_DEFINED_HEIGHT_BEGIN
1070
    46
1040
7.489694702258906
1000
ACAD_MTEXT_DEFINED_HEIGHT_END
  0
MTEXT
  5
15E5C
102
{ACAD_XDICTIONARY
360
15EB9
102
}
330
156B5
100
AcDbEntity
  8
图框
100
AcDbMText
 10
845.479172298598
 20
686.7901958362482
 30
0.0
 40
1.958998408821398
 41
11.25542657609672
 46
5.710880302039671
 71
     4
 72
     5
  1
\pi0.63465;{\fSimSun|b0|i0|c134|p2;日期\Fromans|c134;/Date}
 11
-0.0000000000000002
 21
-1.0
 31
0.0
 73
     1
 44
1.0
1001
AcDbBlockRepETag
1070
     1
1071
       69
1005
15E5C
1001
ACAD
1000
ACAD_MTEXT_DEFINED_HEIGHT_BEGIN
1070
    46
1040
5.710880302039671
1000
ACAD_MTEXT_DEFINED_HEIGHT_END
  0
LINE
  5
15E5D
330
156B5
100
AcDbEntity
  8
图框
370
    -3
100
AcDbLine
 10
854.0454927516588
 20
675.5347692601515
 30
0.0
 11
854.0454927516588
 21
686.7901958362482
 31
0.0
1001
AcDbBlockRepETag
1070
     1
1071
       70
1005
15E5D
  0
LINE
  5
15E5E
330
156B5
100
AcDbEntity
  8
图框
370
    -3
100
AcDbLine
 10
1036.653967466372
 20
531.3291676047914
 30
0.0
 11
1036.653967466372
 21
484.0126019753161
 31
0.0
1001
AcDbBlockRepETag
1070
     1
1071
       71
1005
15E5E
  0
LINE
  5
15E5F
330
156B5
100
AcDbEntity
  8
图框
370
    -3
100
AcDbLine
 10
1047.483315900763
 20
507.6708838011533
 30
0.0
 11
1047.483315900763
 21
491.8986945987308
 31
0.0
1001
AcDbBlockRepETag
1070
     1
1071
       72
1005
15E5F
  0
LINE
  5
15E60
330
156B5
100
AcDbEntity
  8
图框
370
    -3
100
AcDbLine
 10
1058.312664335153
 20
507.6708838011533
 30
0.0
 11
1058.312664335153
 21
484.0347692601515
 31
0.0
1001
AcDbBlockRepETag
1070
     1
1071
       73
1005
15E60
  0
LINE
  5
15E61
330
156B5
100
AcDbEntity
  8
图框
370
    25
100
AcDbLine
 10
1048.474135214456
 20
488.1095628329926
 30
0.0
 11
1054.946420288459
 21
488.1095628329926
 31
0.0
1001
AcDbBlockRepETag
1070
     1
1071
       74
1005
15E61
  0
LINE
  5
15E62
330
156B5
100
AcDbEntity
  8
图框
370
    25
100
AcDbLine
 10
1054.232527365989
 20
487.0761716842634
 30
0.0
 11
1049.156490914508
 21
486.4576273751
 31
0.0
1001
AcDbBlockRepETag
1070
     1
1071
       75
1005
15E62
  0
LINE
  5
15E63
330
156B5
100
AcDbEntity
  8
图框
370
    25
100
AcDbLine
 10
1054.232527365989
 20
489.1429539817209
 30
0.0
 11
1049.156490914508
 21
489.7614982908846
 31
0.0
1001
AcDbBlockRepETag
1070
     1
1071
       76
1005
15E63
  0
LINE
  5
15E64
330
156B5
100
AcDbEntity
  8
图框
370
    25
100
AcDbLine
 10
1049.156490914508
 20
489.7614982908846
 30
0.0
 11
1049.156490914508
 21
486.4576273751
 31
0.0
1001
AcDbBlockRepETag
1070
     1
1071
       77
1005
15E64
  0
LINE
  5
15E65
330
156B5
100
AcDbEntity
  8
图框
370
    25
100
AcDbLine
 10
1054.232527365989
 20
489.1429539817209
 30
0.0
 11
1054.232527365989
 21
487.0761716842634
 31
0.0
1001
AcDbBlockRepETag
1070
     1
1071
       78
1005
15E65
  0
CIRCLE
  5
15E66
330
156B5
100
AcDbEntity
  8
图框
370
    25
100
AcDbCircle
 10
1042.502700458579
 20
488.1095628329926
 30
0.0
 40
1.651935457891863
1001
AcDbBlockRepETag
1070
     1
1071
       79
1005
15E66
  0
CIRCLE
  5
15E67
330
156B5
100
AcDbEntity
  8
图框
370
    25
100
AcDbCircle
 10
1042.502700458579
 20
488.1095628329926
 30
0.0
 40
1.033391148728775
1001
AcDbBlockRepETag
1070
     1
1071
       80
1005
15E67
  0
LINE
  5
15E68
330
156B5
100
AcDbEntity
  8
图框
370
    25
100
AcDbLine
 10
1040.136872078216
 20
488.1095628329926
 30
0.0
 11
1044.868528838943
 21
488.1095628329926
 31
0.0
1001
AcDbBlockRepETag
1070
     1
1071
       81
1005
15E68
  0
LINE
  5
15E69
330
156B5
100
AcDbEntity
  8
图框
370
    25
100
AcDbLine
 10
1042.502700458579
 20
490.475391213355
 30
0.0
 11
1042.502700458579
 21
485.743734452629
 31
0.0
1001
AcDbBlockRepETag
1070
     1
1071
       82
1005
15E69
  0
LINE
  5
15E6A
330
156B5
100
AcDbEntity
  8
图框
370
    -3
100
AcDbLine
 10
1069.142012769546
 20
507.6708838011533
 30
0.0
 11
1069.142012769546
 21
491.8986945987308
 31
0.0
1001
AcDbBlockRepETag
1070
     1
1071
       83
1005
15E6A
  0
MTEXT
  5
15E6B
330
156B5
100
AcDbEntity
  8
图框
100
AcDbMText
 10
1086.643735910939
 20
526.8006839312707
 30
0.0
 40
2.154898249703542
 41
13.34474941400573
 46
9.056967347041775
 71
     5
 72
     5
  1
图号{\Ftxt|c134;\P\Fromans|c134;\W0.65;Drawing No.}
 73
     1
 44
1.0
1001
AcDbBlockRepETag
1070
     1
1071
       84
1005
15E6B
1001
ACAD
1000
ACAD_MTEXT_DEFINED_HEIGHT_BEGIN
1070
    46
1040
9.056967347041775
1000
ACAD_MTEXT_DEFINED_HEIGHT_END
  0
LINE
  5
15E6C
330
156B5
100
AcDbEntity
  8
图框
370
    -3
100
AcDbLine
 10
1093.316110617942
 20
531.3291676047914
 30
0.0
 11
1093.316110617942
 21
495.8417418993347
 31
0.0
1001
AcDbBlockRepETag
1070
     1
1071
       85
1005
15E6C
  0
LINE
  5
15E6D
330
156B5
100
AcDbEntity
  8
图框
370
    -3
100
AcDbLine
 10
1047.473969770481
 20
531.3291676047914
 30
0.0
 11
1047.473969770481
 21
507.6708838011533
 31
0.0
1001
AcDbBlockRepETag
1070
     1
1071
       86
1005
15E6D
  0
MTEXT
  5
15E6E
330
156B5
100
AcDbEntity
  8
图框
100
AcDbMText
 10
1063.72733855235
 20
503.7278365005473
 30
0.0
 40
2.252848170144607
 41
10.82934843439208
 46
7.886094601212128
 71
     5
 72
     5
  1
重量\P{\Fromans|c134;Weight}
 73
     1
 44
1.0
1001
AcDbBlockRepETag
1070
     1
1071
       87
1005
15E6E
1001
ACAD
1000
ACAD_MTEXT_DEFINED_HEIGHT_BEGIN
1070
    46
1040
7.886094601212128
1000
ACAD_MTEXT_DEFINED_HEIGHT_END
  0
LINE
  5
15E6F
330
156B5
100
AcDbEntity
  8
图框
370
    -3
100
AcDbLine
 10
1036.653967466372
 20
519.5000257029746
 30
0.0
 11
1079.971361203936
 21
519.5000257029746
 31
0.0
1001
AcDbBlockRepETag
1070
     1
1071
       88
1005
15E6F
  0
MTEXT
  5
15E70
330
156B5
100
AcDbEntity
  8
图框
100
AcDbMText
 10
1074.556686986741
 20
503.7278365005473
 30
0.0
 40
2.252848170144607
 41
10.82934843438984
 46
7.886094601212141
 71
     5
 72
     5
  1
数量\P{\Fromans|c134;Qty.}
 73
     1
 44
1.0
1001
AcDbBlockRepETag
1070
     1
1071
       89
1005
15E70
1001
ACAD
1000
ACAD_MTEXT_DEFINED_HEIGHT_BEGIN
1070
    46
1040
7.886094601212141
1000
ACAD_MTEXT_DEFINED_HEIGHT_END
  0
LINE
  5
15E71
330
156B5
100
AcDbEntity
  8
图框
370
    -3
100
AcDbLine
 10
1079.971361203936
 20
495.8417418993347
 30
0.0
 11
1126.928502610363
 21
495.8417418993342
 31
0.0
1001
AcDbBlockRepETag
1070
     1
1071
       90
1005
15E71
  0
LINE
  5
15E72
330
156B5
100
AcDbEntity
  8
图框
370
    -3
100
AcDbLine
 10
1079.971361203936
 20
504.7132992040975
 30
0.0
 11
1126.928502610363
 21
504.7132992040975
 31
0.0
1001
AcDbBlockRepETag
1070
     1
1071
       91
1005
15E72
  0
MTEXT
  5
15E73
330
156B5
100
AcDbEntity
  8
图框
100
AcDbMText
 10
1052.893317052817
 20
503.7278365005473
 30
0.0
 40
2.252848170144607
 41
10.83869456467139
 46
7.886094601212101
 71
     5
 72
     5
  1
版本\P{\Fromans|c134;REV.}
 73
     1
 44
1.0
1001
AcDbBlockRepETag
1070
     1
1071
       92
1005
15E73
1001
ACAD
1000
ACAD_MTEXT_DEFINED_HEIGHT_BEGIN
1070
    46
1040
7.886094601212101
1000
ACAD_MTEXT_DEFINED_HEIGHT_END
  0
MTEXT
  5
15E74
330
156B5
100
AcDbEntity
  8
图框
100
AcDbMText
 10
1042.068641683568
 20
503.7278365005473
 30
0.0
 40
2.252848170144607
 41
10.8293484343908
 46
7.886094601212136
 71
     5
 72
     5
  1
比例\P{\Fromans|c134;Scale}
 73
     1
 44
1.0
1001
AcDbBlockRepETag
1070
     1
1071
       93
1005
15E74
1001
ACAD
1000
ACAD_MTEXT_DEFINED_HEIGHT_BEGIN
1070
    46
1040
7.886094601212136
1000
ACAD_MTEXT_DEFINED_HEIGHT_END
  0
LINE
  5
15E75
330
156B5
100
AcDbEntity
  8
图框
370
    -3
100
AcDbLine
 10
1036.653967466372
 20
507.6708838011533
 30
0.0
 11
1079.971361203936
 21
507.6708838011533
 31
0.0
1001
AcDbBlockRepETag
1070
     1
1071
       94
1005
15E75
  0
LINE
  5
15E76
330
156B5
100
AcDbEntity
  8
图框
370
    -3
100
AcDbLine
 10
1036.653967466372
 20
491.8986945987308
 30
0.0
 11
1079.971361203936
 21
491.8986945987308
 31
0.0
1001
AcDbBlockRepETag
1070
     1
1071
       95
1005
15E76
  0
LINE
  5
15E77
330
156B5
100
AcDbEntity
  8
图框
370
    -3
100
AcDbLine
 10
1079.971361203936
 20
531.3291676047914
 30
0.0
 11
1079.971361203936
 21
484.0125999975168
 31
0.0
1001
AcDbBlockRepETag
1070
     1
1071
       96
1005
15E77
  0
MTEXT
  5
15E78
330
156B5
100
AcDbEntity
  8
图框
100
AcDbMText
 10
1042.063968618426
 20
525.4145966538832
 30
0.0
 40
2.252848170144607
 41
10.82000230410933
 46
11.82914190181708
 71
     5
 72
     5
  1
表面处理\P{\Fromans|c134;Finish}
 73
     1
 44
1.0
1001
AcDbBlockRepETag
1070
     1
1071
       97
1005
15E78
1001
ACAD
1000
ACAD_MTEXT_DEFINED_HEIGHT_BEGIN
1070
    46
1040
11.82914190181708
1000
ACAD_MTEXT_DEFINED_HEIGHT_END
  0
MTEXT
  5
15E79
330
156B5
100
AcDbEntity
  8
图框
100
AcDbMText
 10
1042.063968618426
 20
513.5854547520639
 30
0.0
 40
2.252848170144607
 41
10.82000230410933
 46
11.8291419018212
 71
     5
 72
     5
  1
材料\P{\Fromans|c134;Material}
 73
     1
 44
1.0
1001
AcDbBlockRepETag
1070
     1
1071
       98
1005
15E79
1001
ACAD
1000
ACAD_MTEXT_DEFINED_HEIGHT_BEGIN
1070
    46
1040
11.8291419018212
1000
ACAD_MTEXT_DEFINED_HEIGHT_END
  0
LINE
  5
15E7A
330
156B5
100
AcDbEntity
  8
图框
370
    -3
100
AcDbLine
 10
1079.971361203936
 20
522.27220025775
 30
0.0
 11
1126.928502610363
 21
522.27220025775
 31
0.0
1001
AcDbBlockRepETag
1070
     1
1071
       99
1005
15E7A
  0
LINE
  5
15E7B
330
156B5
100
AcDbEntity
  8
图框
370
    -3
100
AcDbLine
 10
1079.971361203936
 20
513.5854547520641
 30
0.0
 11
1126.928502610363
 21
513.5854547520639
 31
0.0
1001
AcDbBlockRepETag
1070
     1
1071
      100
1005
15E7B
  0
MTEXT
  5
15E7C
330
156B5
100
AcDbEntity
  8
图框
100
AcDbMText
 10
1086.643735910939
 20
517.9288275049072
 30
0.0
 40
1.958998408821398
 41
13.34474941400573
 46
8.686745505685811
 71
     5
 72
     5
  1
产品代号\P{\Fromans|c134;Part Code}
 73
     1
 44
1.0
1001
AcDbBlockRepETag
1070
     1
1071
      101
1005
15E7C
1001
ACAD
1000
ACAD_MTEXT_DEFINED_HEIGHT_BEGIN
1070
    46
1040
8.686745505685811
1000
ACAD_MTEXT_DEFINED_HEIGHT_END
  0
LINE
  5
15E7D
330
156B5
100
AcDbEntity
  8
图框
370
    -3
100
AcDbLine
 10
946.9285026103634
 20
525.7982263931411
 30
0.0
 11
1036.653967466372
 21
525.7982263931411
 31
0.0
1001
AcDbBlockRepETag
1070
     1
1071
      102
1005
15E7D
  0
LINE
  5
15E7E
330
156B5
100
AcDbEntity
  8
图框
370
    -3
100
AcDbLine
 10
946.9285026103634
 20
520.2672851814959
 30
0.0
 11
1036.653967466372
 21
520.2672851814959
 31
0.0
1001
AcDbBlockRepETag
1070
     1
1071
      103
1005
15E7E
  0
LINE
  5
15E7F
330
156B5
100
AcDbEntity
  8
图框
370
    35
100
AcDbLine
 10
946.9285026103634
 20
531.3291676047914
 30
0.0
 11
1126.928502610363
 21
531.3291676047914
 31
0.0
1001
AcDbBlockRepETag
1070
     1
1071
      104
1005
15E7F
  0
LINE
  5
15E80
330
156B5
100
AcDbEntity
  8
图框
370
    -3
100
AcDbLine
 10
990.6727612856927
 20
509.2054027581959
 30
0.0
 11
990.6727612856927
 21
484.0347692601515
 31
0.0
1001
AcDbBlockRepETag
1070
     1
1071
      105
1005
15E80
  0
MTEXT
  5
15E81
102
{ACAD_XDICTIONARY
360
15EBB
102
}
330
156B5
100
AcDbEntity
  8
图框
100
AcDbMText
 10
997.1628169651232
 20
499.816589978722
 30
0.0
 40
2.252848170144607
 41
12.98011135886052
 46
6.19230880992475
 71
     5
 72
     5
  1
{\fSimSun|b0|i0|c134|p2;标准化}\PStand.
  7
Romans字体
 73
     1
 44
1.0
1001
AcDbBlockRepETag
1070
     1
1071
      106
1005
15E81
1001
ACAD
1000
ACAD_MTEXT_DEFINED_HEIGHT_BEGIN
1070
    46
1040
6.19230880992475
1000
ACAD_MTEXT_DEFINED_HEIGHT_END
  0
LINE
  5
15E82
330
156B5
100
AcDbEntity
  8
图框
370
    -3
100
AcDbLine
 10
975.4103773808022
 20
509.2054027581959
 30
0.0
 11
975.4103773808022
 21
484.0347692601515
 31
0.0
1001
AcDbBlockRepETag
1070
     1
1071
      107
1005
15E82
  0
MTEXT
  5
15E83
330
156B5
100
AcDbEntity
  8
图框
100
AcDbMText
 10
984.5089229802068
 20
511.9708733640202
 30
0.0
 40
2.448748011026752
 41
38.287899328693
 46
5.530941211648832
 71
     5
 72
     5
  1
  变更描述{\Fromans|c134;/Description}
 73
     1
 44
1.0
1001
AcDbBlockRepETag
1070
     1
1071
      108
1005
15E83
1001
ACAD
1000
ACAD_MTEXT_DEFINED_HEIGHT_BEGIN
1070
    46
1040
5.530941211648832
1000
ACAD_MTEXT_DEFINED_HEIGHT_END
  0
MTEXT
  5
15E84
102
{ACAD_XDICTIONARY
360
15EBD
102
}
330
156B5
100
AcDbEntity
  8
图框
100
AcDbMText
 10
1012.466086049227
 20
511.9708733640202
 30
0.0
 40
1.958998408821398
 41
17.6264268093469
 46
5.530941211648825
 71
     5
 72
     5
  1
{\fSimSun|b0|i0|c134|p2;签名\P\Fromans|c134;Signature} 
 73
     1
 44
1.0
1001
AcDbBlockRepETag
1070
     1
1071
      109
1005
15E84
1001
ACAD
1000
ACAD_MTEXT_DEFINED_HEIGHT_BEGIN
1070
    46
1040
5.530941211648825
1000
ACAD_MTEXT_DEFINED_HEIGHT_END
  0
MTEXT
  5
15E85
102
{ACAD_XDICTIONARY
360
15EBF
102
}
330
156B5
100
AcDbEntity
  8
图框
100
AcDbMText
 10
960.7558556394856
 20
511.9708733640202
 30
0.0
 40
1.958998408821398
 41
9.218235352749283
 46
5.530941211648841
 71
     5
 72
     5
  1
{\fSimSun|b0|i0|c134|p2;处数\P\Fromans|c134;Number }
 73
     1
 44
1.0
1001
AcDbBlockRepETag
1070
     1
1071
      110
1005
15E85
1001
ACAD
1000
ACAD_MTEXT_DEFINED_HEIGHT_BEGIN
1070
    46
1040
5.530941211648841
1000
ACAD_MTEXT_DEFINED_HEIGHT_END
  0
LINE
  5
15E86
330
156B5
100
AcDbEntity
  8
图框
370
    -3
100
AcDbLine
 10
946.9285026103634
 20
514.7363439698449
 30
0.0
 11
1036.653967466372
 21
514.7363439698449
 31
0.0
1001
AcDbBlockRepETag
1070
     1
1071
      111
1005
15E86
  0
LINE
  5
15E87
330
156B5
100
AcDbEntity
  8
图框
370
    -3
100
AcDbLine
 10
946.9285026103634
 20
509.2054027581959
 30
0.0
 11
1036.653967466372
 21
509.2054027581959
 31
0.0
1001
AcDbBlockRepETag
1070
     1
1071
      112
1005
15E87
  0
LINE
  5
15E88
330
156B5
100
AcDbEntity
  8
图框
370
    -3
100
AcDbLine
 10
946.9285026103634
 20
502.9127443836848
 30
0.0
 11
1036.653967466372
 21
502.9127443836848
 31
0.0
1001
AcDbBlockRepETag
1070
     1
1071
      113
1005
15E88
  0
LINE
  5
15E89
330
156B5
100
AcDbEntity
  8
图框
370
    -3
100
AcDbLine
 10
946.9285026103634
 20
496.620086009173
 30
0.0
 11
1036.653967466372
 21
496.620086009173
 31
0.0
1001
AcDbBlockRepETag
1070
     1
1071
      114
1005
15E89
  0
LINE
  5
15E8A
330
156B5
100
AcDbEntity
  8
图框
370
    35
380
     1
100
AcDbLine
 10
946.9285026103634
 20
531.3291676047914
 30
0.0
 11
946.9285026103634
 21
484.0347692601515
 31
0.0
1001
AcDbBlockRepETag
1070
     1
1071
      115
1005
15E8A
  0
LINE
  5
15E8B
330
156B5
100
AcDbEntity
  8
图框
370
    -3
100
AcDbLine
 10
1021.301636813399
 20
531.3291676047914
 30
0.0
 11
1021.301636813399
 21
484.0347692601515
 31
0.0
1001
AcDbBlockRepETag
1070
     1
1071
      116
1005
15E8B
  0
LINE
  5
15E8C
330
156B5
100
AcDbEntity
  8
图框
370
    -3
100
AcDbLine
 10
1003.652872644553
 20
531.3291676047914
 30
0.0
 11
1003.652872644553
 21
484.0347692601515
 31
0.0
1001
AcDbBlockRepETag
1070
     1
1071
      117
1005
15E8C
  0
LINE
  5
15E8D
330
156B5
100
AcDbEntity
  8
图框
370
    -3
100
AcDbLine
 10
965.3649733158603
 20
531.3291676047914
 30
0.0
 11
965.3649733158603
 21
509.2054027581959
 31
0.0
1001
AcDbBlockRepETag
1070
     1
1071
      118
1005
15E8D
  0
LINE
  5
15E8E
330
156B5
100
AcDbEntity
  8
图框
370
    -3
100
AcDbLine
 10
956.1467379631109
 20
531.3291676047914
 30
0.0
 11
956.1467379631109
 21
509.2054027581959
 31
0.0
1001
AcDbBlockRepETag
1070
     1
1071
      119
1005
15E8E
  0
MTEXT
  5
15E8F
102
{ACAD_XDICTIONARY
360
15EC1
102
}
330
156B5
100
AcDbEntity
  8
图框
100
AcDbMText
 10
951.537620286737
 20
511.9708733640202
 30
0.0
 40
1.958998408821398
 41
9.218235352747692
 46
5.530941211648832
 71
     5
 72
     5
  1
{\fSimSun|b0|i0|c134|p2;标记\P\Fromans|c134;Mark}
 73
     1
 44
1.0
1001
AcDbBlockRepETag
1070
     1
1071
      120
1005
15E8F
1001
ACAD
1000
ACAD_MTEXT_DEFINED_HEIGHT_BEGIN
1070
    46
1040
5.530941211648832
1000
ACAD_MTEXT_DEFINED_HEIGHT_END
  0
MTEXT
  5
15E90
102
{ACAD_XDICTIONARY
360
15EC3
102
}
330
156B5
100
AcDbEntity
  8
图框
100
AcDbMText
 10
953.4185582897936
 20
493.4737568219182
 30
0.0
 40
2.252848170144607
 41
12.98011135886041
 46
6.292658374510382
 71
     5
 72
     5
  1
{\fSimSun|b0|i0|c134|p2;审核\P\Fromans|c134;Checked}
 73
     1
 44
1.0
1001
AcDbBlockRepETag
1070
     1
1071
      121
1005
15E90
1001
ACAD
1000
ACAD_MTEXT_DEFINED_HEIGHT_BEGIN
1070
    46
1040
6.292658374510382
1000
ACAD_MTEXT_DEFINED_HEIGHT_END
  0
MTEXT
  5
15E91
102
{ACAD_XDICTIONARY
360
15EC5
102
}
330
156B5
100
AcDbEntity
  8
图框
100
AcDbMText
 10
953.4185582897936
 20
499.8775635376777
 30
0.0
 40
2.252848170144607
 41
12.98011135886041
 46
6.070361692014189
 71
     5
 72
     5
  1
{\fSimSun|b0|i0|c134|p2;绘图\P\Fromans|c134;Drawn\Ftxt|c134; }
 73
     1
 44
1.0
1001
AcDbBlockRepETag
1070
     1
1071
      122
1005
15E91
1001
ACAD
1000
ACAD_MTEXT_DEFINED_HEIGHT_BEGIN
1070
    46
1040
6.070361692014189
1000
ACAD_MTEXT_DEFINED_HEIGHT_END
  0
ARC
  5
15E92
330
156B5
100
AcDbEntity
  8
图框
 62
     4
370
    35
100
AcDbCircle
 10
1086.900627017421
 20
490.0179944151195
 30
0.0
 40
4.063310408393665
100
AcDbArc
 50
18.95237904564806
 51
161.0476209543519
1001
AcDbBlockRepETag
1070
     1
1071
      123
1005
15E92
  0
ARC
  5
15E93
330
156B5
100
AcDbEntity
  8
图框
 62
     4
370
    35
100
AcDbCircle
 10
1086.900627017421
 20
490.0179944151195
 30
0.0
 40
4.063310408393665
100
AcDbArc
 50
198.952379045648
 51
341.0476209543519
1001
AcDbBlockRepETag
1070
     1
1071
      124
1005
15E93
  0
LINE
  5
15E94
330
156B5
100
AcDbEntity
  8
图框
 62
     4
370
    35
100
AcDbLine
 10
1083.057593369548
 20
488.6983035966752
 30
0.0
 11
1090.74366066529
 21
488.6983035966752
 31
0.0
1001
AcDbBlockRepETag
1070
     1
1071
      125
1005
15E94
  0
LINE
  5
15E95
330
156B5
100
AcDbEntity
  8
图框
 62
     4
370
    35
100
AcDbLine
 10
1083.057593369548
 20
491.3376852335652
 30
0.0
 11
1090.74366066529
 21
491.3376852335652
 31
0.0
1001
AcDbBlockRepETag
1070
     1
1071
      126
1005
15E95
  0
MTEXT
  5
15E96
330
156B5
100
AcDbEntity
  8
图框
 62
     1
370
    20
100
AcDbMText
 10
1083.034582879669
 20
491.0506288081688
 30
0.0
 40
2.005930044038334
 41
5.047240019334847
 46
0.0
 71
     1
 72
     5
  1
{\fArial|b0|i0|c0|p34;W}
  7
Chinese
 73
     1
 44
1.0
1001
AcDbBlockRepETag
1070
     1
1071
      127
1005
15E96
  0
LINE
  5
15E97
330
156B5
100
AcDbEntity
  8
图框
370
    -3
100
AcDbLine
 10
946.9285026103634
 20
490.327427634663
 30
0.0
 11
1036.653967466372
 21
490.327427634663
 31
0.0
1001
AcDbBlockRepETag
1070
     1
1071
      128
1005
15E97
  0
LINE
  5
15E98
330
156B5
100
AcDbEntity
  8
图框
370
    -3
100
AcDbLine
 10
959.9086139692238
 20
509.2054027581959
 30
0.0
 11
959.9086139692238
 21
484.0347692601515
 31
0.0
1001
AcDbBlockRepETag
1070
     1
1071
      129
1005
15E98
  0
MTEXT
  5
15E99
330
156B5
100
AcDbEntity
  8
图框
100
AcDbMText
 10
967.6594956750129
 20
506.0590735709403
 30
0.0
 40
2.252848170144607
 41
15.50176341157869
 46
6.292658374511246
 71
     5
 72
     5
  1
姓名{\Fromans|c134;/Name\Ftxt|c134; }
 73
     1
 44
1.0
1001
AcDbBlockRepETag
1070
     1
1071
      130
1005
15E99
1001
ACAD
1000
ACAD_MTEXT_DEFINED_HEIGHT_BEGIN
1070
    46
1040
6.292658374511246
1000
ACAD_MTEXT_DEFINED_HEIGHT_END
  0
MTEXT
  5
15E9A
330
156B5
100
AcDbEntity
  8
图框
100
AcDbMText
 10
983.0415693332477
 20
506.0590735709403
 30
0.0
 40
2.252848170144607
 41
15.26238390489042
 46
6.2926583745112
 71
     5
 72
     5
  1
日期{\Fromans|c134;/Date}
 73
     1
 44
1.0
1001
AcDbBlockRepETag
1070
     1
1071
      131
1005
15E9A
1001
ACAD
1000
ACAD_MTEXT_DEFINED_HEIGHT_BEGIN
1070
    46
1040
6.2926583745112
1000
ACAD_MTEXT_DEFINED_HEIGHT_END
  0
LINE
  5
15E9B
330
156B5
100
AcDbEntity
  8
图框
370
    -3
100
AcDbLine
 10
946.9285026103634
 20
509.2054027581959
 30
0.0
 11
959.9086139692238
 21
502.9127443836848
 31
0.0
1001
AcDbBlockRepETag
1070
     1
1071
      132
1005
15E9B
  0
MTEXT
  5
15E9C
330
156B5
100
AcDbEntity
  8
图框
100
AcDbMText
 10
1012.931405110086
 20
506.0185715840725
 30
0.0
 40
2.252848170144607
 41
16.93492221063566
 46
0.0
 71
     5
 72
     5
  1
姓名{\Fromans|c134;/Name}
 73
     1
 44
1.0
1001
AcDbBlockRepETag
1070
     1
1071
      133
1005
15E9C
  0
MTEXT
  5
15E9D
330
156B5
100
AcDbEntity
  8
图框
100
AcDbMText
 10
1028.977802139886
 20
506.0590735709403
 30
0.0
 40
2.252848170144607
 41
15.35233065297283
 46
6.292658374511256
 71
     5
 72
     5
  1
日期{\Fromans|c134;/Date}
 73
     1
 44
1.0
1001
AcDbBlockRepETag
1070
     1
1071
      134
1005
15E9D
1001
ACAD
1000
ACAD_MTEXT_DEFINED_HEIGHT_BEGIN
1070
    46
1040
6.292658374511256
1000
ACAD_MTEXT_DEFINED_HEIGHT_END
  0
LINE
  5
15E9E
330
156B5
100
AcDbEntity
  8
图框
370
    -3
100
AcDbLine
 10
1003.652872644553
 20
502.9127443836848
 30
0.0
 11
990.6727612856927
 21
509.2054027581959
 31
0.0
1001
AcDbBlockRepETag
1070
     1
1071
      135
1005
15E9E
  0
MTEXT
  5
15E9F
102
{ACAD_XDICTIONARY
360
15EC7
102
}
330
156B5
100
AcDbEntity
  8
图框
100
AcDbMText
 10
997.1628169651232
 20
487.1810984474071
 30
0.0
 40
2.252848170144607
 41
12.98011135886052
 46
6.292658374511517
 71
     5
 72
     5
  1
{\fSimSun|b0|i0|c134|p2;批准\P\Fromans|c134;Approved}
 73
     1
 44
1.0
1001
AcDbBlockRepETag
1070
     1
1071
      136
1005
15E9F
1001
ACAD
1000
ACAD_MTEXT_DEFINED_HEIGHT_BEGIN
1070
    46
1040
6.292658374511517
1000
ACAD_MTEXT_DEFINED_HEIGHT_END
  0
MTEXT
  5
15EA0
102
{ACAD_XDICTIONARY
360
15EC9
102
}
330
156B5
100
AcDbEntity
  8
图框
100
AcDbMText
 10
953.4185582897936
 20
487.1810984474071
 30
0.0
 40
2.252848170144607
 41
12.98011135886041
 46
6.292658374511495
 71
     5
 72
     5
  1
{\fSimSun|b0|i0|c134|p2;工艺\P\Fromans|c134;Process}
 73
     1
 44
1.0
1001
AcDbBlockRepETag
1070
     1
1071
      137
1005
15EA0
1001
ACAD
1000
ACAD_MTEXT_DEFINED_HEIGHT_BEGIN
1070
    46
1040
6.292658374511495
1000
ACAD_MTEXT_DEFINED_HEIGHT_END
  0
MTEXT
  5
15EA1
102
{ACAD_XDICTIONARY
360
15ECB
102
}
330
156B5
100
AcDbEntity
  8
图框
100
AcDbMText
 10
1028.977802139886
 20
511.8287965307664
 30
0.0
 40
1.958998408821398
 41
15.3523306529728
 46
5.246787545140668
 71
     5
 72
     5
  1
{\fSimSun|b0|i0|c134|p2;日期\P\Fromans|c134;Date}
 73
     1
 44
1.0
1001
AcDbBlockRepETag
1070
     1
1071
      138
1005
15EA1
1001
ACAD
1000
ACAD_MTEXT_DEFINED_HEIGHT_BEGIN
1070
    46
1040
5.246787545140668
1000
ACAD_MTEXT_DEFINED_HEIGHT_END
  0
MTEXT
  5
15EA2
330
156B5
100
AcDbEntity
  8
图框
100
AcDbMText
 10
1086.643735910939
 20
509.1493769780809
 30
0.0
 40
2.154898249703542
 41
13.34474941400573
 46
8.87215554796615
 71
     5
 72
     5
  1
产品料号\P{\Fromans|c134;Part No.}
 73
     1
 44
1.0
1001
AcDbBlockRepETag
1070
     1
1071
      139
1005
15EA2
1001
ACAD
1000
ACAD_MTEXT_DEFINED_HEIGHT_BEGIN
1070
    46
1040
8.87215554796615
1000
ACAD_MTEXT_DEFINED_HEIGHT_END
  0
MTEXT
  5
15EA3
330
156B5
100
AcDbEntity
  8
图框
100
AcDbMText
 10
1086.643735910939
 20
500.2775205517163
 30
0.0
 40
1.958998408821398
 41
13.34474941400573
 46
8.871557304763321
 71
     5
 72
     5
  1
产品名称\P{\Fromans|c134;Part Name}
 73
     1
 44
1.0
1001
AcDbBlockRepETag
1070
     1
1071
      140
1005
15EA3
1001
ACAD
1000
ACAD_MTEXT_DEFINED_HEIGHT_BEGIN
1070
    46
1040
8.871557304763321
1000
ACAD_MTEXT_DEFINED_HEIGHT_END
  0
LINE
  5
15EA4
330
156B5
100
AcDbEntity
  8
图框
 62
     1
370
    18
100
AcDbLine
 10
833.4128518455365
 20
690.5347692601515
 30
0.0
 11
833.4128518455365
 21
480.5347692601515
 31
0.0
1001
AcDbBlockRepETag
1070
     1
1071
      141
1005
15EA4
  0
LINE
  5
15EA5
330
156B5
100
AcDbEntity
  8
图框
 62
     1
370
    18
100
AcDbLine
 10
833.4128518455365
 20
480.5347692601515
 30
0.0
 11
1130.411601781236
 21
480.5347692601515
 31
0.0
1001
AcDbBlockRepETag
1070
     1
1071
      142
1005
15EA5
  0
LINE
  5
15EA6
330
156B5
100
AcDbEntity
  8
图框
 62
     1
370
    18
100
AcDbLine
 10
833.4128518455365
 20
690.5347692601515
 30
0.0
 11
1130.411601781236
 21
690.5347692601515
 31
0.0
1001
AcDbBlockRepETag
1070
     1
1071
      143
1005
15EA6
  0
LINE
  5
15EA7
330
156B5
100
AcDbEntity
  8
图框
 62
     1
370
    18
100
AcDbLine
 10
1130.411601781236
 20
480.5347692601515
 30
0.0
 11
1130.411601781236
 21
690.5347692601515
 31
0.0
1001
AcDbBlockRepETag
1070
     1
1071
      144
1005
15EA7
  0
LINE
  5
15EA8
330
156B5
100
AcDbEntity
  8
图框
370
    18
100
AcDbLine
 10
836.9128518455394
 20
686.7901958362482
 30
0.0
 11
861.5351874539182
 21
686.7901958362482
 31
0.0
1001
AcDbBlockRepETag
1070
     1
1071
      145
1005
15EA8
  0
LINE
  5
15EA9
330
156B5
100
AcDbEntity
  8
图框
370
    50
100
AcDbLine
 10
1126.928502610363
 20
484.3410054693078
 30
0.0
 11
1126.928502610363
 21
675.5347692601515
 31
0.0
1001
AcDbBlockRepETag
1070
     1
1071
      146
1005
15EA9
  0
MTEXT
  5
15EAA
330
156B5
100
AcDbEntity
  8
图框
 62
     3
100
AcDbMText
 10
1052.897990117958
 20
495.8417418993364
 30
0.0
 40
2.985513575034151
 41
10.82934843439114
 46
7.886094601211307
 71
     5
 72
     5
  1
V1.1
  7
Romans字体
 73
     1
 44
1.0
1001
AcDbBlockRepETag
1070
     1
1071
      147
1005
15EAA
1001
ACAD
1000
ACAD_MTEXT_DEFINED_HEIGHT_BEGIN
1070
    46
1040
7.886094601211307
1000
ACAD_MTEXT_DEFINED_HEIGHT_END
  0
LINE
  5
15EAB
330
156B5
100
AcDbEntity
  8
图框
 62
     6
100
AcDbLine
 10
1126.911601781236
 20
531.714049199969
 30
0.0
 11
1130.411601781236
 21
531.714049199969
 31
0.0
1001
AcDbBlockRepETag
1070
     1
1071
      148
1005
15EAB
  0
ENDBLK
  5
1574D
330
156B5
100
AcDbEntity
  8
0
100
AcDbBlockEnd
  0
BLOCK
  5
15D56
330
15D55
100
AcDbEntity
  8
0
100
AcDbBlockBegin
  2
*D2
 70
     1
 10
0.0
 20
0.0
 30
0.0
  3
*D2
  1

  0
LINE
  5
15DB0
330
15D55
100
AcDbEntity
  8
DIM
 62
     6
370
    -2
100
AcDbLine
 10
417.3810625100668
 20
348.0585109165527
 30
0.0
 11
417.3810625100668
 21
351.6335452691602
 31
0.0
  0
LINE
  5
15DB1
330
15D55
100
AcDbEntity
  8
DIM
 62
     6
370
    -2
100
AcDbLine
 10
445.3810582716169
 20
346.8335109165527
 30
0.0
 11
445.3810582716169
 21
351.6335452691602
 31
0.0
  0
LINE
  5
15DB2
330
15D55
100
AcDbEntity
  8
DIM
 62
     1
370
    -2
100
AcDbLine
 10
418.8810625100668
 20
351.1335452691601
 30
0.0
 11
443.8810582716168
 21
351.1335452691601
 31
0.0
  0
SOLID
  5
15DB3
330
15D55
100
AcDbEntity
  8
DIM
 62
     1
100
AcDbTrace
 10
418.8810625100668
 20
351.3835452691602
 30
0.0
 11
418.8810625100668
 21
350.8835452691601
 31
0.0
 12
417.3810625100668
 22
351.1335452691601
 32
0.0
 13
417.3810625100668
 23
351.1335452691601
 33
0.0
  0
SOLID
  5
15DB4
330
15D55
100
AcDbEntity
  8
DIM
 62
     1
100
AcDbTrace
 10
443.8810582716168
 20
351.3835452691602
 30
0.0
 11
443.8810582716168
 21
350.8835452691601
 31
0.0
 12
445.3810582716169
 22
351.1335452691601
 32
0.0
 13
445.3810582716169
 23
351.1335452691601
 33
0.0
  0
MTEXT
  5
15DB5
330
15D55
100
AcDbEntity
  8
DIM
 62
     4
100
AcDbMText
 10
431.3810603908418
 20
352.6335452691601
 30
0.0
 40
2.0
 41
0.0
 46
0.0
 71
     5
 72
     1
  1
\A1;28
  7
Romans字体
 73
     1
 44
1.0
  0
POINT
  5
15DB6
330
15D55
100
AcDbEntity
  8
Defpoints
 62
     0
100
AcDbPoint
 10
417.3810625100668
 20
347.8585109165526
 30
0.0
  0
POINT
  5
15DB7
330
15D55
100
AcDbEntity
  8
Defpoints
 62
     0
100
AcDbPoint
 10
445.3810582716169
 20
346.6335109165527
 30
0.0
  0
POINT
  5
15DB8
330
15D55
100
AcDbEntity
  8
Defpoints
 62
     0
100
AcDbPoint
 10
445.3810582716169
 20
351.1335452691601
 30
0.0
  0
ENDBLK
  5
15D57
330
15D55
100
AcDbEntity
  8
0
100
AcDbBlockEnd
  0
BLOCK
  5
15D6C
330
15D6B
100
AcDbEntity
  8
0
100
AcDbBlockBegin
  2
*D3
 70
     1
 10
0.0
 20
0.0
 30
0.0
  3
*D3
  1

  0
LINE
  5
15DB9
330
15D6B
100
AcDbEntity
  8
DIM
 62
     6
370
    -2
100
AcDbLine
 10
444.4484781276004
 20
347.1335109165527
 30
0.0
 11
450.1310450779284
 21
347.1335109165527
 31
0.0
  0
LINE
  5
15DBA
330
15D6B
100
AcDbEntity
  8
DIM
 62
     6
370
    -2
100
AcDbLine
 10
444.4484781276004
 20
346.1335109165527
 30
0.0
 11
450.1310450779284
 21
346.1335109165527
 31
0.0
  0
LINE
  5
15DBB
330
15D6B
100
AcDbEntity
  8
DIM
 62
     1
370
    -2
100
AcDbLine
 10
449.6310450779283
 20
348.6335109165525
 30
0.0
 11
449.6310450779283
 21
350.1335109165527
 31
0.0
  0
LINE
  5
15DBC
330
15D6B
100
AcDbEntity
  8
DIM
 62
     1
370
    -2
100
AcDbLine
 10
449.6310450779283
 20
344.6335109165525
 30
0.0
 11
449.6310450779283
 21
340.2049394879811
 31
0.0
  0
SOLID
  5
15DBD
330
15D6B
100
AcDbEntity
  8
DIM
 62
     1
100
AcDbTrace
 10
449.3810450779283
 20
348.6335109165525
 30
0.0
 11
449.8810450779283
 21
348.6335109165525
 31
0.0
 12
449.6310450779283
 22
347.1335109165527
 32
0.0
 13
449.6310450779283
 23
347.1335109165527
 33
0.0
  0
SOLID
  5
15DBE
330
15D6B
100
AcDbEntity
  8
DIM
 62
     1
100
AcDbTrace
 10
449.3810450779283
 20
344.6335109165525
 30
0.0
 11
449.8810450779283
 21
344.6335109165525
 31
0.0
 12
449.6310450779283
 22
346.1335109165527
 32
0.0
 13
449.6310450779283
 23
346.1335109165527
 33
0.0
  0
MTEXT
  5
15DBF
330
15D6B
100
AcDbEntity
  8
DIM
 62
     4
100
AcDbMText
 10
448.1310450779282
 20
341.669225202267
 30
0.0
 40
2.0
 41
0.0
 46
0.0
 71
     5
 72
     1
  1
\A1;%%C1
  7
Romans字体
 11
0.0000000000000001
 21
1.0
 31
0.0
 73
     1
 44
1.0
  0
POINT
  5
15DC0
330
15D6B
100
AcDbEntity
  8
Defpoints
 62
     0
100
AcDbPoint
 10
444.2484781276005
 20
347.1335109165527
 30
0.0
  0
POINT
  5
15DC1
330
15D6B
100
AcDbEntity
  8
Defpoints
 62
     0
100
AcDbPoint
 10
444.2484781276005
 20
346.1335109165527
 30
0.0
  0
POINT
  5
15DC2
330
15D6B
100
AcDbEntity
  8
Defpoints
 62
     0
100
AcDbPoint
 10
449.6310450779283
 20
346.1335109165527
 30
0.0
  0
ENDBLK
  5
15D6D
330
15D6B
100
AcDbEntity
  8
0
100
AcDbBlockEnd
  0
BLOCK
  5
15D7A
330
15D79
100
AcDbEntity
  8
0
100
AcDbBlockBegin
  2
*D4
 70
     1
 10
0.0
 20
0.0
 30
0.0
  3
*D4
  1

  0
LINE
  5
15DC3
330
15D79
100
AcDbEntity
  8
DIM
 62
     6
370
    -2
100
AcDbLine
 10
439.5810582716668
 20
348.3835113200026
 30
0.0
 11
454.351466766218
 21
348.3835113200026
 31
0.0
  0
LINE
  5
15DC4
330
15D79
100
AcDbEntity
  8
DIM
 62
     6
370
    -2
100
AcDbLine
 10
439.5810582716668
 20
344.8835896334025
 30
0.0
 11
454.351466766218
 21
344.8835896334025
 31
0.0
  0
LINE
  5
15DC5
330
15D79
100
AcDbEntity
  8
DIM
 62
     1
370
    -2
100
AcDbLine
 10
453.851466766218
 20
349.8835113200026
 30
0.0
 11
453.851466766218
 21
351.3835113200026
 31
0.0
  0
LINE
  5
15DC6
330
15D79
100
AcDbEntity
  8
DIM
 62
     1
370
    -2
100
AcDbLine
 10
453.851466766218
 20
343.3835896334025
 30
0.0
 11
453.851466766218
 21
336.3835896334026
 31
0.0
  0
SOLID
  5
15DC7
330
15D79
100
AcDbEntity
  8
DIM
 62
     1
100
AcDbTrace
 10
453.6014667662181
 20
349.8835113200026
 30
0.0
 11
454.1014667662181
 21
349.8835113200026
 31
0.0
 12
453.851466766218
 22
348.3835113200026
 32
0.0
 13
453.851466766218
 23
348.3835113200026
 33
0.0
  0
SOLID
  5
15DC8
330
15D79
100
AcDbEntity
  8
DIM
 62
     1
100
AcDbTrace
 10
453.6014667662181
 20
343.3835896334025
 30
0.0
 11
454.1014667662181
 21
343.3835896334025
 31
0.0
 12
453.851466766218
 22
344.8835896334025
 32
0.0
 13
453.851466766218
 23
344.8835896334025
 33
0.0
  0
MTEXT
  5
15DC9
330
15D79
100
AcDbEntity
  8
DIM
 62
     4
100
AcDbMText
 10
452.351466766218
 20
339.1335896334027
 30
0.0
 40
2.0
 41
0.0
 46
0.0
 71
     5
 72
     1
  1
\A1;%%C3.5
  7
Romans字体
 11
0.0000000000000001
 21
1.0
 31
0.0
 73
     1
 44
1.0
  0
POINT
  5
15DCA
330
15D79
100
AcDbEntity
  8
Defpoints
 62
     0
100
AcDbPoint
 10
439.3810582716668
 20
348.3835113200026
 30
0.0
  0
POINT
  5
15DCB
330
15D79
100
AcDbEntity
  8
Defpoints
 62
     0
100
AcDbPoint
 10
439.3810582716668
 20
344.8835896334025
 30
0.0
  0
POINT
  5
15DCC
330
15D79
100
AcDbEntity
  8
Defpoints
 62
     0
100
AcDbPoint
 10
453.851466766218
 20
344.8835896334025
 30
0.0
  0
ENDBLK
  5
15D7B
330
15D79
100
AcDbEntity
  8
0
100
AcDbBlockEnd
  0
BLOCK
  5
15D88
330
15D87
100
AcDbEntity
  8
0
100
AcDbBlockBegin
  2
*D5
 70
     1
 10
0.0
 20
0.0
 30
0.0
  3
*D5
  1

  0
LINE
  5
15DCD
330
15D87
100
AcDbEntity
  8
DIM
 62
     6
370
    -2
100
AcDbLine
 10
439.3810582716668
 20
345.1068786876206
 30
0.0
 11
439.3810582716668
 21
340.6321363617995
 31
0.0
  0
LINE
  5
15DCE
330
15D87
100
AcDbEntity
  8
DIM
 62
     6
370
    -2
100
AcDbLine
 10
445.3810582716169
 20
347.4291737372702
 30
0.0
 11
445.3810582716169
 21
340.6321363617995
 31
0.0
  0
LINE
  5
15DCF
330
15D87
100
AcDbEntity
  8
DIM
 62
     1
370
    -2
100
AcDbLine
 10
440.8810582716668
 20
341.1321363617996
 30
0.0
 11
443.8810582716168
 21
341.1321363617996
 31
0.0
  0
SOLID
  5
15DD0
330
15D87
100
AcDbEntity
  8
DIM
 62
     1
100
AcDbTrace
 10
440.8810582716668
 20
341.3821363617996
 30
0.0
 11
440.8810582716668
 21
340.8821363617996
 31
0.0
 12
439.3810582716668
 22
341.1321363617996
 32
0.0
 13
439.3810582716668
 23
341.1321363617996
 33
0.0
  0
SOLID
  5
15DD1
330
15D87
100
AcDbEntity
  8
DIM
 62
     1
100
AcDbTrace
 10
443.8810582716168
 20
341.3821363617996
 30
0.0
 11
443.8810582716168
 21
340.8821363617996
 31
0.0
 12
445.3810582716169
 22
341.1321363617996
 32
0.0
 13
445.3810582716169
 23
341.1321363617996
 33
0.0
  0
MTEXT
  5
15DD2
330
15D87
100
AcDbEntity
  8
DIM
 62
     4
100
AcDbMText
 10
442.3810582716418
 20
342.6321363617995
 30
0.0
 40
2.0
 41
0.0
 46
0.0
 71
     5
 72
     1
  1
\A1;6
  7
Romans字体
 73
     1
 44
1.0
  0
POINT
  5
15DD3
330
15D87
100
AcDbEntity
  8
Defpoints
 62
     0
100
AcDbPoint
 10
439.3810582716668
 20
345.3068786876205
 30
0.0
  0
POINT
  5
15DD4
330
15D87
100
AcDbEntity
  8
Defpoints
 62
     0
100
AcDbPoint
 10
445.3810582716169
 20
347.6291737372702
 30
0.0
  0
POINT
  5
15DD5
330
15D87
100
AcDbEntity
  8
Defpoints
 62
     0
100
AcDbPoint
 10
445.3810582716169
 20
341.1321363617996
 30
0.0
  0
ENDBLK
  5
15D89
330
15D87
100
AcDbEntity
  8
0
100
AcDbBlockEnd
  0
ENDSEC
  0
SECTION
  2
ENTITIES
  0
HATCH
  5
28AE
330
1F
100
AcDbEntity
  8
图层 1
 62
     7
100
AcDbHatch
 10
0.0
 20
0.0
 30
0.0
210
0.0
220
0.0
230
1.0
  2
SOLID
 70
     1
 71
     0
 91
        1
 92
        1
 93
        2
 72
     4
 94
        3
 73
     0
 74
     0
 95
       17
 96
       13
 40
0.0
 40
0.0
 40
0.0
 40
0.0
 40
0.3527780104152769
 40
0.3527780104152769
 40
0.3527780104152769
 40
0.7055560208305538
 40
0.7055560208305538
 40
0.7055560208305538
 40
1.058334031245828
 40
1.058334031245828
 40
1.058334031245828
 40
1.411112041661104
 40
1.411112041661104
 40
1.411112041661104
 40
1.411112041661104
 10
11.07013262565829
 20
29.50312817963231
 10
11.07013262565829
 20
29.50312817963231
 10
10.9431807732774
 20
29.50312817963231
 10
10.9431807732774
 20
29.50312817963231
 10
10.9431807732774
 20
29.50312817963231
 10
10.85843136843155
 20
29.22786486877117
 10
10.85843136843155
 20
29.22786486877117
 10
10.85843136843155
 20
29.22786486877117
 10
10.90080607085448
 20
29.2068497724476
 10
10.90080607085448
 20
29.2068497724476
 10
10.94455881238059
 20
29.31571486159919
 10
11.00346998404173
 20
29.40907701083995
 10
11.07013262565829
 20
29.50312817963231
 72
     1
 10
11.07013262565829
 20
29.50312817963231
 11
11.07013262565829
 21
29.50312817963231
 97
        0
 75
     0
 76
     1
 98
        0
450
        0
451
        0
460
0.0
461
0.0
452
        0
462
0.0
453
        0
470

  0
HATCH
  5
2C65
330
1F
100
AcDbEntity
  8
图层 1
 62
     7
100
AcDbHatch
 10
0.0
 20
0.0
 30
0.0
210
0.0
220
0.0
230
1.0
  2
SOLID
 70
     1
 71
     0
 91
        1
 92
        1
 93
        2
 72
     4
 94
        3
 73
     0
 74
     0
 95
       47
 96
       43
 40
0.0
 40
0.0
 40
0.0
 40
0.0
 40
0.3527780104152769
 40
0.3527780104152769
 40
0.3527780104152769
 40
0.7055560208305538
 40
0.7055560208305538
 40
0.7055560208305538
 40
1.058334031245828
 40
1.058334031245828
 40
1.058334031245828
 40
1.411112041661104
 40
1.411112041661104
 40
1.411112041661104
 40
1.763890052076384
 40
1.763890052076384
 40
1.763890052076384
 40
2.116668062491659
 40
2.116668062491659
 40
2.116668062491659
 40
2.469446072906936
 40
2.469446072906936
 40
2.469446072906936
 40
2.822224083322215
 40
2.822224083322215
 40
2.822224083322215
 40
3.175002093737492
 40
3.175002093737492
 40
3.175002093737492
 40
3.527780104152768
 40
3.527780104152768
 40
3.527780104152768
 40
3.880558114568044
 40
3.880558114568044
 40
3.880558114568044
 40
4.233336124983321
 40
4.233336124983321
 40
4.233336124983321
 40
4.586114135398599
 40
4.586114135398599
 40
4.586114135398599
 40
4.938892145813873
 40
4.938892145813873
 40
4.938892145813873
 40
4.938892145813873
 10
162.8986914070121
 20
257.4895347631509
 10
162.8986914070121
 20
257.4895347631509
 10
162.9200510131114
 20
257.4471600607279
 10
162.9200510131114
 20
257.4471600607279
 10
162.9200510131114
 20
257.4471600607279
 10
162.9200510131114
 20
257.404785358305
 10
162.9200510131114
 20
257.404785358305
 10
162.9200510131114
 20
257.404785358305
 10
162.8986914070121
 20
257.36258291077
 10
162.8986914070121
 20
257.36258291077
 10
162.8986914070121
 20
257.36258291077
 10
162.8986914070121
 20
257.320208208347
 10
162.8986914070121
 20
257.320208208347
 10
162.8986914070121
 20
257.320208208347
 10
162.8563167045891
 20
257.2990208571356
 10
162.8563167045891
 20
257.2990208571356
 10
162.8563167045891
 20
257.2990208571356
 10
162.8139420021662
 20
257.2563016449369
 10
162.8139420021662
 20
257.2563016449369
 10
162.8139420021662
 20
257.2563016449369
 10
162.7295371070961
 20
257.2563016449369
 10
162.7295371070961
 20
257.2563016449369
 10
162.7295371070961
 20
257.2563016449369
 10
162.6658027985738
 20
257.2778335059241
 10
162.6658027985738
 20
257.2778335059241
 10
162.6658027985738
 20
257.2778335059241
 10
162.6237726059267
 20
257.2990208571356
 10
162.6237726059267
 20
257.2990208571356
 10
162.6237726059267
 20
257.2990208571356
 10
162.5813979035038
 20
257.3413955595585
 10
162.5813979035038
 20
257.3413955595585
 10
162.5813979035038
 20
257.3413955595585
 10
162.5813979035038
 20
257.4895347631509
 10
162.5813979035038
 20
257.4895347631509
 10
162.5813979035038
 20
257.4895347631509
 10
162.6447877022503
 20
257.5525800521216
 10
162.6447877022503
 20
257.5525800521216
 10
162.6447877022503
 20
257.5525800521216
 10
162.7081775009967
 20
257.5525800521216
 10
162.7081775009967
 20
257.5525800521216
 10
162.8749202324821
 20
257.5424170137356
 10
162.7918933765152
 20
257.5939212252171
 10
162.8986914070121
 20
257.4895347631509
 72
     1
 10
162.8986914070121
 20
257.4895347631509
 11
162.8986914070121
 21
257.4895347631509
 97
        0
 75
     0
 76
     1
 98
        0
450
        0
451
        0
460
0.0
461
0.0
452
        0
462
0.0
453
        0
470

  0
HATCH
  5
2EE7
330
1F
100
AcDbEntity
  8
图层 1
 62
     7
100
AcDbHatch
 10
0.0
 20
0.0
 30
0.0
210
0.0
220
0.0
230
1.0
  2
SOLID
 70
     1
 71
     0
 91
        1
 92
        1
 93
        2
 72
     4
 94
        3
 73
     0
 74
     0
 95
       56
 96
       52
 40
0.0
 40
0.0
 40
0.0
 40
0.0
 40
0.3527780104152769
 40
0.3527780104152769
 40
0.3527780104152769
 40
0.7055560208305538
 40
0.7055560208305538
 40
0.7055560208305538
 40
1.058334031245828
 40
1.058334031245828
 40
1.058334031245828
 40
1.411112041661104
 40
1.411112041661104
 40
1.411112041661104
 40
1.763890052076384
 40
1.763890052076384
 40
1.763890052076384
 40
2.116668062491659
 40
2.116668062491659
 40
2.116668062491659
 40
2.469446072906936
 40
2.469446072906936
 40
2.469446072906936
 40
2.822224083322215
 40
2.822224083322215
 40
2.822224083322215
 40
3.175002093737492
 40
3.175002093737492
 40
3.175002093737492
 40
3.527780104152768
 40
3.527780104152768
 40
3.527780104152768
 40
3.880558114568044
 40
3.880558114568044
 40
3.880558114568044
 40
4.233336124983321
 40
4.233336124983321
 40
4.233336124983321
 40
4.586114135398599
 40
4.586114135398599
 40
4.586114135398599
 40
4.938892145813873
 40
4.938892145813873
 40
4.938892145813873
 40
5.291670156229153
 40
5.291670156229153
 40
5.291670156229153
 40
5.64444816664443
 40
5.64444816664443
 40
5.64444816664443
 40
5.997226177059705
 40
5.997226177059705
 40
5.997226177059705
 40
5.997226177059705
 10
185.4837187788815
 20
241.4451977396596
 10
185.4837187788815
 20
241.4451977396596
 10
185.4837187788815
 20
241.4028230372367
 10
185.4837187788815
 20
241.4028230372367
 10
185.4837187788815
 20
241.4028230372367
 10
185.5047338752051
 20
241.3604483348137
 10
185.5047338752051
 20
241.3604483348137
 10
185.4520238795082
 20
241.2782827532863
 10
185.4671823096433
 20
241.1897437409066
 10
185.335579575289
 20
241.2119646214456
 10
185.335579575289
 20
241.2119646214456
 10
185.2932048728662
 20
241.2119646214456
 10
185.2932048728662
 20
241.2119646214456
 10
185.2932048728662
 20
241.2119646214456
 10
185.2294705643439
 20
241.2334964824328
 10
185.2294705643439
 20
241.2334964824328
 10
185.2294705643439
 20
241.2334964824328
 10
185.1660807655974
 20
241.2543393238685
 10
185.1660807655974
 20
241.2543393238685
 10
185.1660807655974
 20
241.2543393238685
 10
185.1450656692739
 20
241.2758711848558
 10
185.1450656692739
 20
241.2758711848558
 10
185.1450656692739
 20
241.2758711848558
 10
185.1450656692739
 20
241.2967140262914
 10
185.1450656692739
 20
241.2967140262914
 10
185.1450656692739
 20
241.2967140262914
 10
185.1237060631745
 20
241.3604483348137
 10
185.1237060631745
 20
241.3604483348137
 10
185.1237060631745
 20
241.3604483348137
 10
185.1237060631745
 20
241.4028230372367
 10
185.1237060631745
 20
241.4028230372367
 10
185.1237060631745
 20
241.4028230372367
 10
185.1660807655974
 20
241.4875724420825
 10
185.1660807655974
 20
241.4875724420825
 10
185.1660807655974
 20
241.4875724420825
 10
185.2084554680203
 20
241.5085875384061
 10
185.2084554680203
 20
241.5085875384061
 10
185.2084554680203
 20
241.5085875384061
 10
185.2718452667668
 20
241.5297748896175
 10
185.2718452667668
 20
241.5297748896175
 10
185.2718452667668
 20
241.5297748896175
 10
185.3565946716127
 20
241.5297748896175
 10
185.3565946716127
 20
241.5297748896175
 10
185.3565946716127
 20
241.5297748896175
 10
185.4199844703592
 20
241.5085875384061
 10
185.4199844703592
 20
241.5085875384061
 10
185.4199844703592
 20
241.5085875384061
 10
185.4623591727821
 20
241.4875724420825
 10
185.4623591727821
 20
241.4875724420825
 10
185.4623591727821
 20
241.4875724420825
 10
185.4837187788815
 20
241.4451977396596
 10
185.4837187788815
 20
241.4451977396596
 72
     1
 10
185.4837187788815
 20
241.4451977396596
 11
185.4837187788815
 21
241.4451977396596
 97
        0
 75
     0
 76
     1
 98
        0
450
        0
451
        0
460
0.0
461
0.0
452
        0
462
0.0
453
        0
470

  0
HATCH
  5
2F93
330
1F
100
AcDbEntity
  8
图层 1
 62
     7
100
AcDbHatch
 10
0.0
 20
0.0
 30
0.0
210
0.0
220
0.0
230
1.0
  2
SOLID
 70
     1
 71
     0
 91
        1
 92
        1
 93
        2
 72
     4
 94
        3
 73
     0
 74
     0
 95
       38
 96
       34
 40
0.0
 40
0.0
 40
0.0
 40
0.0
 40
0.3527780104152769
 40
0.3527780104152769
 40
0.3527780104152769
 40
0.7055560208305538
 40
0.7055560208305538
 40
0.7055560208305538
 40
1.058334031245828
 40
1.058334031245828
 40
1.058334031245828
 40
1.411112041661104
 40
1.411112041661104
 40
1.411112041661104
 40
1.763890052076384
 40
1.763890052076384
 40
1.763890052076384
 40
2.116668062491659
 40
2.116668062491659
 40
2.116668062491659
 40
2.469446072906936
 40
2.469446072906936
 40
2.469446072906936
 40
2.822224083322215
 40
2.822224083322215
 40
2.822224083322215
 40
3.175002093737492
 40
3.175002093737492
 40
3.175002093737492
 40
3.527780104152768
 40
3.527780104152768
 40
3.527780104152768
 40
3.880558114568044
 40
3.880558114568044
 40
3.880558114568044
 40
3.880558114568044
 10
185.907121293335
 20
220.1937677098971
 10
185.9005756075949
 20
220.0449394867532
 10
185.9329595265197
 20
220.1136691870245
 10
185.864746590912
 20
219.9817219428946
 10
185.864746590912
 20
219.9817219428946
 10
185.822371888489
 20
219.9605345916831
 10
185.822371888489
 20
219.9605345916831
 10
185.822371888489
 20
219.9605345916831
 10
185.6528730787974
 20
219.9605345916831
 10
185.6528730787974
 20
219.9605345916831
 10
185.6528730787974
 20
219.9605345916831
 10
185.5894832800509
 20
220.002909294106
 10
185.5894832800509
 20
220.002909294106
 10
185.5894832800509
 20
220.002909294106
 10
185.5681236739515
 20
220.0240966453175
 10
185.5681236739515
 20
220.0240966453175
 10
185.5681236739515
 20
220.0240966453175
 10
185.5681236739515
 20
220.045283996529
 10
185.5681236739515
 20
220.045283996529
 10
185.5681236739515
 20
220.045283996529
 10
185.547108577628
 20
220.0876586989519
 10
185.547108577628
 20
220.0876586989519
 10
185.547108577628
 20
220.0876586989519
 10
185.547108577628
 20
220.1513930074742
 10
185.547108577628
 20
220.1513930074742
 10
185.547108577628
 20
220.1513930074742
 10
185.5894832800509
 20
220.23614241232
 10
185.5894832800509
 20
220.23614241232
 10
185.5894832800509
 20
220.23614241232
 10
185.6318579824738
 20
220.2573297635315
 10
185.6318579824738
 20
220.2573297635315
 10
185.7055830744942
 20
220.2566407439799
 10
185.8416644359337
 20
220.3310548555519
 10
185.907121293335
 20
220.1937677098971
 72
     1
 10
185.907121293335
 20
220.1937677098971
 11
185.907121293335
 21
220.1937677098971
 97
        0
 75
     0
 76
     1
 98
        0
450
        0
451
        0
460
0.0
461
0.0
452
        0
462
0.0
453
        0
470

  0
HATCH
  5
2FDE
330
1F
100
AcDbEntity
  8
图层 1
 62
     7
100
AcDbHatch
 10
0.0
 20
0.0
 30
0.0
210
0.0
220
0.0
230
1.0
  2
SOLID
 70
     1
 71
     0
 91
        1
 92
        1
 93
        2
 72
     4
 94
        3
 73
     0
 74
     0
 95
       50
 96
       46
 40
0.0
 40
0.0
 40
0.0
 40
0.0
 40
0.3527780104152769
 40
0.3527780104152769
 40
0.3527780104152769
 40
0.7055560208305538
 40
0.7055560208305538
 40
0.7055560208305538
 40
1.058334031245828
 40
1.058334031245828
 40
1.058334031245828
 40
1.411112041661104
 40
1.411112041661104
 40
1.411112041661104
 40
1.763890052076384
 40
1.763890052076384
 40
1.763890052076384
 40
2.116668062491659
 40
2.116668062491659
 40
2.116668062491659
 40
2.469446072906936
 40
2.469446072906936
 40
2.469446072906936
 40
2.822224083322215
 40
2.822224083322215
 40
2.822224083322215
 40
3.175002093737492
 40
3.175002093737492
 40
3.175002093737492
 40
3.527780104152768
 40
3.527780104152768
 40
3.527780104152768
 40
3.880558114568044
 40
3.880558114568044
 40
3.880558114568044
 40
4.233336124983321
 40
4.233336124983321
 40
4.233336124983321
 40
4.586114135398599
 40
4.586114135398599
 40
4.586114135398599
 40
4.938892145813873
 40
4.938892145813873
 40
4.938892145813873
 40
5.291670156229153
 40
5.291670156229153
 40
5.291670156229153
 40
5.291670156229153
 10
180.9117295442905
 20
208.9327766684477
 10
180.9117295442905
 20
208.9327766684477
 10
180.9117295442905
 20
208.7637946234197
 10
180.9117295442905
 20
208.7637946234197
 10
181.2273004989198
 20
208.6749111012643
 10
181.3833634273555
 20
208.6776671794706
 10
181.6948002646751
 20
208.5097186637701
 10
181.9542161258496
 20
208.4294478860095
 10
182.1388733656765
 20
208.2134402565853
 10
182.3297317814676
 20
208.02292635057
 10
182.3297317814676
 20
208.02292635057
 10
182.435496282637
 20
208.065301052993
 10
182.435496282637
 20
208.065301052993
 10
182.288390608372
 20
208.2733849575739
 10
182.3752070718726
 20
208.2134402565853
 10
182.1605774815516
 20
208.3824223016133
 10
182.1605774815516
 20
208.3824223016133
 10
182.1182027791287
 20
208.4247970040363
 10
182.1182027791287
 20
208.4247970040363
 10
182.1182027791287
 20
208.4247970040363
 10
182.0968431730294
 20
208.467516216235
 10
182.0968431730294
 20
208.467516216235
 10
182.0968431730294
 20
208.467516216235
 10
182.0544684706064
 20
208.4883590576707
 10
182.0544684706064
 20
208.4883590576707
 10
182.0544684706064
 20
208.4883590576707
 10
181.9910786718599
 20
208.5305615052057
 10
181.9910786718599
 20
208.5305615052057
 10
181.9910786718599
 20
208.5305615052057
 10
181.948703969437
 20
208.552093366193
 10
181.948703969437
 20
208.552093366193
 10
181.948703969437
 20
208.552093366193
 10
181.9063292670141
 20
208.5729362076286
 10
181.9063292670141
 20
208.5729362076286
 10
181.9063292670141
 20
208.5729362076286
 10
181.8639545645911
 20
208.6156554198274
 10
181.8639545645911
 20
208.6156554198274
 10
181.8639545645911
 20
208.6156554198274
 10
181.821924371944
 20
208.6368427710388
 10
181.821924371944
 20
208.6368427710388
 10
181.6637943848536
 20
208.6742220817127
 10
181.5452830219797
 20
208.8092699138248
 10
181.3771622513911
 20
208.8061693258427
 10
181.2803550043924
 20
208.8573290275484
 10
181.0126709085988
 20
208.8971199066528
 10
180.9117295442905
 20
208.9327766684477
 72
     1
 10
180.9117295442905
 20
208.9327766684477
 11
180.9117295442905
 21
208.9327766684477
 97
        0
 75
     0
 76
     1
 98
        0
450
        0
451
        0
460
0.0
461
0.0
452
        0
462
0.0
453
        0
470

  0
HATCH
  5
35C8
330
1F
100
AcDbEntity
  8
图层 1
 62
     7
100
AcDbHatch
 10
0.0
 20
0.0
 30
0.0
210
0.0
220
0.0
230
1.0
  2
SOLID
 70
     1
 71
     0
 91
        1
 92
        1
 93
        2
 72
     4
 94
        3
 73
     0
 74
     0
 95
       38
 96
       34
 40
0.0
 40
0.0
 40
0.0
 40
0.0
 40
0.3527780104152769
 40
0.3527780104152769
 40
0.3527780104152769
 40
0.7055560208305538
 40
0.7055560208305538
 40
0.7055560208305538
 40
1.058334031245828
 40
1.058334031245828
 40
1.058334031245828
 40
1.411112041661104
 40
1.411112041661104
 40
1.411112041661104
 40
1.763890052076384
 40
1.763890052076384
 40
1.763890052076384
 40
2.116668062491659
 40
2.116668062491659
 40
2.116668062491659
 40
2.469446072906936
 40
2.469446072906936
 40
2.469446072906936
 40
2.822224083322215
 40
2.822224083322215
 40
2.822224083322215
 40
3.175002093737492
 40
3.175002093737492
 40
3.175002093737492
 40
3.527780104152768
 40
3.527780104152768
 40
3.527780104152768
 40
3.880558114568044
 40
3.880558114568044
 40
3.880558114568044
 40
3.880558114568044
 10
189.145513185819
 20
166.8326485368285
 10
189.207869455238
 20
166.740492171803
 10
189.1317327947871
 20
166.6833035490209
 10
189.103138483396
 20
166.6209472796017
 10
189.103138483396
 20
166.6209472796017
 10
189.0607637809731
 20
166.5997599283903
 10
189.0607637809731
 20
166.5997599283903
 10
189.0607637809731
 20
166.5997599283903
 10
188.9973739822266
 20
166.5785725771788
 10
188.9973739822266
 20
166.5785725771788
 10
188.9973739822266
 20
166.5785725771788
 10
188.9549992798037
 20
166.5997599283903
 10
188.9549992798037
 20
166.5997599283903
 10
188.9549992798037
 20
166.5997599283903
 10
188.8916094810572
 20
166.5997599283903
 10
188.8916094810572
 20
166.5997599283903
 10
188.8916094810572
 20
166.5997599283903
 10
188.8492347786343
 20
166.6209472796017
 10
188.8492347786343
 20
166.6209472796017
 10
188.8492347786343
 20
166.6209472796017
 10
188.8278751725349
 20
166.6633219820247
 10
188.8278751725349
 20
166.6633219820247
 10
188.8278751725349
 20
166.6633219820247
 10
188.8068600762114
 20
166.6845093332361
 10
188.8068600762114
 20
166.6845093332361
 10
188.8068600762114
 20
166.6845093332361
 10
188.8068600762114
 20
166.8326485368285
 10
188.8068600762114
 20
166.8326485368285
 10
188.8068600762114
 20
166.8326485368285
 10
188.8702498749578
 20
166.896038335575
 10
188.8702498749578
 20
166.896038335575
 10
189.0228677056355
 20
166.8819134347673
 10
189.0686875058164
 20
166.9411691162043
 10
189.145513185819
 20
166.8326485368285
 72
     1
 10
189.145513185819
 20
166.8326485368285
 11
189.145513185819
 21
166.8326485368285
 97
        0
 75
     0
 76
     1
 98
        0
450
        0
451
        0
460
0.0
461
0.0
452
        0
462
0.0
453
        0
470

  0
HATCH
  5
35D8
330
1F
100
AcDbEntity
  8
图层 1
 62
     7
100
AcDbHatch
 10
0.0
 20
0.0
 30
0.0
210
0.0
220
0.0
230
1.0
  2
SOLID
 70
     1
 71
     0
 91
        1
 92
        1
 93
        2
 72
     4
 94
        3
 73
     0
 74
     0
 95
       68
 96
       64
 40
0.0
 40
0.0
 40
0.0
 40
0.0
 40
0.3527780104152769
 40
0.3527780104152769
 40
0.3527780104152769
 40
0.7055560208305538
 40
0.7055560208305538
 40
0.7055560208305538
 40
1.058334031245828
 40
1.058334031245828
 40
1.058334031245828
 40
1.411112041661104
 40
1.411112041661104
 40
1.411112041661104
 40
1.763890052076384
 40
1.763890052076384
 40
1.763890052076384
 40
2.116668062491659
 40
2.116668062491659
 40
2.116668062491659
 40
2.469446072906936
 40
2.469446072906936
 40
2.469446072906936
 40
2.822224083322215
 40
2.822224083322215
 40
2.822224083322215
 40
3.175002093737492
 40
3.175002093737492
 40
3.175002093737492
 40
3.527780104152768
 40
3.527780104152768
 40
3.527780104152768
 40
3.880558114568044
 40
3.880558114568044
 40
3.880558114568044
 40
4.233336124983321
 40
4.233336124983321
 40
4.233336124983321
 40
4.586114135398599
 40
4.586114135398599
 40
4.586114135398599
 40
4.938892145813873
 40
4.938892145813873
 40
4.938892145813873
 40
5.291670156229153
 40
5.291670156229153
 40
5.291670156229153
 40
5.64444816664443
 40
5.64444816664443
 40
5.64444816664443
 40
5.997226177059705
 40
5.997226177059705
 40
5.997226177059705
 40
6.350004187474984
 40
6.350004187474984
 40
6.350004187474984
 40
6.702782197890257
 40
6.702782197890257
 40
6.702782197890257
 40
7.055560208305537
 40
7.055560208305537
 40
7.055560208305537
 40
7.408338218720808
 40
7.408338218720808
 40
7.408338218720808
 40
7.408338218720808
 10
174.7732543591544
 20
135.4846705078077
 10
174.7732543591544
 20
135.4846705078077
 10
174.7732543591544
 20
135.3789060066383
 10
174.7732543591544
 20
135.3789060066383
 10
174.7732543591544
 20
135.3789060066383
 10
174.8156290615773
 20
135.3789060066383
 10
174.8156290615773
 20
135.3789060066383
 10
174.8156290615773
 20
135.3789060066383
 10
174.8580037640002
 20
135.3578909103147
 10
174.8580037640002
 20
135.3578909103147
 10
174.8580037640002
 20
135.3578909103147
 10
174.9213935627468
 20
135.3578909103147
 10
174.9213935627468
 20
135.3578909103147
 10
174.9213935627468
 20
135.3578909103147
 10
174.9637682651697
 20
135.3365313042154
 10
174.9637682651697
 20
135.3365313042154
 10
174.9637682651697
 20
135.3365313042154
 10
174.9847833614933
 20
135.3365313042154
 10
174.9847833614933
 20
135.3365313042154
 10
174.9847833614933
 20
135.3365313042154
 10
175.0271580639162
 20
135.3155162078918
 10
175.0271580639162
 20
135.3155162078918
 10
175.0271580639162
 20
135.3155162078918
 10
175.0485176700155
 20
135.2941566017924
 10
175.0485176700155
 20
135.2941566017924
 10
175.0485176700155
 20
135.2941566017924
 10
175.0695327663391
 20
135.2941566017924
 10
175.0695327663391
 20
135.2941566017924
 10
175.0695327663391
 20
135.2941566017924
 10
175.0908923724385
 20
135.2731415054689
 10
175.0908923724385
 20
135.2731415054689
 10
175.0908923724385
 20
135.2731415054689
 10
175.1332670748614
 20
135.2731415054689
 10
175.1332670748614
 20
135.2731415054689
 10
175.1332670748614
 20
135.2731415054689
 10
175.154282171185
 20
135.2517818993695
 10
175.154282171185
 20
135.2517818993695
 10
175.154282171185
 20
135.2517818993695
 10
175.154282171185
 20
135.3578909103147
 10
175.154282171185
 20
135.3578909103147
 10
175.154282171185
 20
135.3578909103147
 10
175.1332670748614
 20
135.3789060066383
 10
175.1332670748614
 20
135.3789060066383
 10
175.1332670748614
 20
135.3789060066383
 10
175.0908923724385
 20
135.3789060066383
 10
175.0908923724385
 20
135.3789060066383
 10
175.0908923724385
 20
135.3789060066383
 10
175.0908923724385
 20
135.3999211029619
 10
175.0908923724385
 20
135.3999211029619
 10
175.0908923724385
 20
135.3999211029619
 10
175.0695327663391
 20
135.3999211029619
 10
175.0695327663391
 20
135.3999211029619
 10
175.0695327663391
 20
135.3999211029619
 10
175.0271580639162
 20
135.4212807090612
 10
175.0271580639162
 20
135.4212807090612
 10
175.0271580639162
 20
135.4212807090612
 10
175.0061429675926
 20
135.4212807090612
 10
175.0061429675926
 20
135.4212807090612
 10
175.0061429675926
 20
135.4212807090612
 10
174.9637682651697
 20
135.4422958053848
 10
174.9637682651697
 20
135.4422958053848
 10
174.8996894468716
 20
135.4498750204523
 10
174.8394002361073
 20
135.4860485469109
 10
174.7732543591544
 20
135.4846705078077
 72
     1
 10
174.7732543591544
 20
135.4846705078077
 11
174.7732543591544
 21
135.4846705078077
 97
        0
 75
     0
 76
     1
 98
        0
450
        0
451
        0
460
0.0
461
0.0
452
        0
462
0.0
453
        0
470

  0
HATCH
  5
3807
330
1F
100
AcDbEntity
  8
图层 1
 62
     7
100
AcDbHatch
 10
0.0
 20
0.0
 30
0.0
210
0.0
220
0.0
230
1.0
  2
SOLID
 70
     1
 71
     0
 91
        1
 92
        1
 93
        2
 72
     4
 94
        3
 73
     0
 74
     0
 95
       29
 96
       25
 40
0.0
 40
0.0
 40
0.0
 40
0.0
 40
0.3527780104152769
 40
0.3527780104152769
 40
0.3527780104152769
 40
0.7055560208305538
 40
0.7055560208305538
 40
0.7055560208305538
 40
1.058334031245828
 40
1.058334031245828
 40
1.058334031245828
 40
1.411112041661104
 40
1.411112041661104
 40
1.411112041661104
 40
1.763890052076384
 40
1.763890052076384
 40
1.763890052076384
 40
2.116668062491659
 40
2.116668062491659
 40
2.116668062491659
 40
2.469446072906936
 40
2.469446072906936
 40
2.469446072906936
 40
2.822224083322215
 40
2.822224083322215
 40
2.822224083322215
 40
2.822224083322215
 10
175.4929352807925
 20
164.0174869039101
 10
175.4929352807925
 20
164.0174869039101
 10
175.5139503771161
 20
163.9751122014871
 10
175.5139503771161
 20
163.9751122014871
 10
175.5139503771161
 20
163.9751122014871
 10
175.5139503771161
 20
163.9327374990642
 10
175.5139503771161
 20
163.9327374990642
 10
175.5139503771161
 20
163.9327374990642
 10
175.4929352807925
 20
163.8903627966413
 10
175.4929352807925
 20
163.8903627966413
 10
175.4929352807925
 20
163.8903627966413
 10
175.471920184469
 20
163.8691754454298
 10
175.471920184469
 20
163.8691754454298
 10
175.471920184469
 20
163.8691754454298
 10
175.4505605783696
 20
163.8269729978948
 10
175.4505605783696
 20
163.8269729978948
 10
175.3571984291289
 20
163.7715069239916
 10
175.272449024283
 20
163.8195660377152
 10
175.1966568736079
 20
163.8691754454298
 10
175.208370205985
 20
163.9930267098286
 10
175.1563492298397
 20
164.0216210212197
 10
175.2600466723544
 20
164.0596893514451
 10
175.3330827448232
 20
164.1094710140476
 10
175.4357466580104
 20
164.0753645462439
 10
175.4929352807925
 20
164.0174869039101
 72
     1
 10
175.4929352807925
 20
164.0174869039101
 11
175.4929352807925
 21
164.0174869039101
 97
        0
 75
     0
 76
     1
 98
        0
450
        0
451
        0
460
0.0
461
0.0
452
        0
462
0.0
453
        0
470

  0
HATCH
  5
3895
330
1F
100
AcDbEntity
  8
图层 1
 62
     7
100
AcDbHatch
 10
0.0
 20
0.0
 30
0.0
210
0.0
220
0.0
230
1.0
  2
SOLID
 70
     1
 71
     0
 91
        1
 92
        1
 93
        2
 72
     4
 94
        3
 73
     0
 74
     0
 95
       11
 96
        7
 40
0.0
 40
0.0
 40
0.0
 40
0.0
 40
0.3527780104152769
 40
0.3527780104152769
 40
0.3527780104152769
 40
0.7055560208305538
 40
0.7055560208305538
 40
0.7055560208305538
 40
0.7055560208305538
 10
174.9213935627468
 20
174.5369206529582
 10
174.9213935627468
 20
174.5369206529582
 10
174.9213935627468
 20
174.3043765542958
 10
174.9213935627468
 20
174.3043765542958
 10
174.9213935627468
 20
174.3043765542958
 10
174.9213935627468
 20
174.5369206529582
 10
174.9213935627468
 20
174.5369206529582
 72
     1
 10
174.9213935627468
 20
174.5369206529582
 11
174.9213935627468
 21
174.5369206529582
 97
        0
 75
     0
 76
     1
 98
        0
450
        0
451
        0
460
0.0
461
0.0
452
        0
462
0.0
453
        0
470

  0
HATCH
  5
3943
330
1F
100
AcDbEntity
  8
图层 1
 62
     7
100
AcDbHatch
 10
0.0
 20
0.0
 30
0.0
210
0.0
220
0.0
230
1.0
  2
SOLID
 70
     1
 71
     0
 91
        1
 92
        1
 93
        2
 72
     4
 94
        3
 73
     0
 74
     0
 95
      131
 96
      127
 40
0.0
 40
0.0
 40
0.0
 40
0.0
 40
0.3527780104152769
 40
0.3527780104152769
 40
0.3527780104152769
 40
0.7055560208305538
 40
0.7055560208305538
 40
0.7055560208305538
 40
1.058334031245828
 40
1.058334031245828
 40
1.058334031245828
 40
1.411112041661104
 40
1.411112041661104
 40
1.411112041661104
 40
1.763890052076384
 40
1.763890052076384
 40
1.763890052076384
 40
2.116668062491659
 40
2.116668062491659
 40
2.116668062491659
 40
2.469446072906936
 40
2.469446072906936
 40
2.469446072906936
 40
2.822224083322215
 40
2.822224083322215
 40
2.822224083322215
 40
3.175002093737492
 40
3.175002093737492
 40
3.175002093737492
 40
3.527780104152768
 40
3.527780104152768
 40
3.527780104152768
 40
3.880558114568044
 40
3.880558114568044
 40
3.880558114568044
 40
4.233336124983321
 40
4.233336124983321
 40
4.233336124983321
 40
4.586114135398599
 40
4.586114135398599
 40
4.586114135398599
 40
4.938892145813873
 40
4.938892145813873
 40
4.938892145813873
 40
5.291670156229153
 40
5.291670156229153
 40
5.291670156229153
 40
5.64444816664443
 40
5.64444816664443
 40
5.64444816664443
 40
5.997226177059705
 40
5.997226177059705
 40
5.997226177059705
 40
6.350004187474984
 40
6.350004187474984
 40
6.350004187474984
 40
6.702782197890257
 40
6.702782197890257
 40
6.702782197890257
 40
7.055560208305537
 40
7.055560208305537
 40
7.055560208305537
 40
7.408338218720808
 40
7.408338218720808
 40
7.408338218720808
 40
7.76111622913609
 40
7.76111622913609
 40
7.76111622913609
 40
8.113894239551369
 40
8.113894239551369
 40
8.113894239551369
 40
8.466672249966642
 40
8.466672249966642
 40
8.466672249966642
 40
8.819450260381922
 40
8.819450260381922
 40
8.819450260381922
 40
9.172228270797198
 40
9.172228270797198
 40
9.172228270797198
 40
9.525006281212476
 40
9.525006281212476
 40
9.525006281212476
 40
9.877784291627751
 40
9.877784291627751
 40
9.877784291627751
 40
10.23056230204303
 40
10.23056230204303
 40
10.23056230204303
 40
10.58334031245831
 40
10.58334031245831
 40
10.58334031245831
 40
10.93611832287358
 40
10.93611832287358
 40
10.93611832287358
 40
11.28889633328886
 40
11.28889633328886
 40
11.28889633328886
 40
11.64167434370414
 40
11.64167434370414
 40
11.64167434370414
 40
11.99445235411941
 40
11.99445235411941
 40
11.99445235411941
 40
12.34723036453469
 40
12.34723036453469
 40
12.34723036453469
 40
12.70000837494997
 40
12.70000837494997
 40
12.70000837494997
 40
13.05278638536524
 40
13.05278638536524
 40
13.05278638536524
 40
13.40556439578052
 40
13.40556439578052
 40
13.40556439578052
 40
13.7583424061958
 40
13.7583424061958
 40
13.7583424061958
 40
14.11112041661107
 40
14.11112041661107
 40
14.11112041661107
 40
14.46389842702635
 40
14.46389842702635
 40
14.46389842702635
 40
14.81667643744163
 40
14.81667643744163
 40
14.81667643744163
 40
14.81667643744163
 10
173.3972823146245
 20
126.8274843518258
 10
173.3972823146245
 20
126.8274843518258
 10
173.3972823146245
 20
126.7217198506564
 10
173.3972823146245
 20
126.7217198506564
 10
173.3972823146245
 20
126.7217198506564
 10
173.4186419207238
 20
126.7217198506564
 10
173.4186419207238
 20
126.7217198506564
 10
173.4186419207238
 20
126.7217198506564
 10
173.4820317194703
 20
126.7007047543328
 10
173.4820317194703
 20
126.7007047543328
 10
173.4820317194703
 20
126.7007047543328
 10
173.5244064218933
 20
126.6793451482334
 10
173.5244064218933
 20
126.6793451482334
 10
173.5244064218933
 20
126.6793451482334
 10
173.5877962206398
 20
126.6793451482334
 10
173.5877962206398
 20
126.6793451482334
 10
173.5877962206398
 20
126.6793451482334
 10
173.6301709230627
 20
126.6583300519099
 10
173.6301709230627
 20
126.6583300519099
 10
173.7955356154449
 20
126.5911506456296
 10
173.759706598762
 20
126.6380039751379
 10
173.9478089363468
 20
126.5525655507404
 10
173.9478089363468
 20
126.5525655507404
 10
173.9688240326703
 20
126.4464565397952
 10
173.9688240326703
 20
126.4464565397952
 10
173.9688240326703
 20
126.4464565397952
 10
174.0325583411926
 20
126.5101908483175
 10
174.0325583411926
 20
126.5101908483175
 10
174.0325583411926
 20
126.5101908483175
 10
174.0749330436156
 20
126.5101908483175
 10
174.0749330436156
 20
126.5101908483175
 10
174.0749330436156
 20
126.5101908483175
 10
174.1593379386856
 20
126.4678161458946
 10
174.1593379386856
 20
126.4678161458946
 10
174.1593379386856
 20
126.4678161458946
 10
174.180697544785
 20
126.4464565397952
 10
174.180697544785
 20
126.4464565397952
 10
174.2464989119621
 20
126.3982251711837
 10
174.3298702777047
 20
126.3716979184474
 10
174.3922265471239
 20
126.3196769423022
 10
174.608234176548
 20
126.2059887162895
 10
174.7749769080334
 20
126.0278771622029
 10
174.9637682651697
 20
125.8749148217494
 10
174.9637682651697
 20
125.8749148217494
 10
175.0061429675926
 20
125.9172895241723
 10
175.0061429675926
 20
125.9172895241723
 10
174.961356696739
 20
125.9631093243532
 10
174.782211613325
 20
126.1246844092016
 10
174.7308796567315
 20
126.1501781326105
 10
174.7308796567315
 20
126.1501781326105
 10
174.6885049543085
 20
126.1925528350335
 10
174.6885049543085
 20
126.1925528350335
 10
174.6885049543085
 20
126.1925528350335
 10
174.667489857985
 20
126.2349275374564
 10
174.667489857985
 20
126.2349275374564
 10
174.667489857985
 20
126.2349275374564
 10
174.625115155562
 20
126.2559426337799
 10
174.625115155562
 20
126.2559426337799
 10
174.625115155562
 20
126.2559426337799
 10
174.5827404531391
 20
126.2983173362029
 10
174.5827404531391
 20
126.2983173362029
 10
174.5827404531391
 20
126.2983173362029
 10
174.5403657507162
 20
126.3196769423022
 10
174.5403657507162
 20
126.3196769423022
 10
174.5403657507162
 20
126.3196769423022
 10
174.4979910482932
 20
126.3620516447252
 10
174.4979910482932
 20
126.3620516447252
 10
174.4735308542117
 20
126.3875453681341
 10
174.3247026310678
 20
126.4695386947736
 10
174.2864620459544
 20
126.4888312422181
 10
174.2864620459544
 20
126.4888312422181
 10
174.2654469496308
 20
126.5101908483175
 10
174.2654469496308
 20
126.5101908483175
 10
174.2654469496308
 20
126.5101908483175
 10
174.2230722472079
 20
126.5312059446411
 10
174.2230722472079
 20
126.5312059446411
 10
174.2230722472079
 20
126.5312059446411
 10
174.2017126411085
 20
126.5525655507404
 10
174.2017126411085
 20
126.5525655507404
 10
174.2017126411085
 20
126.5525655507404
 10
174.1383228423621
 20
126.573580647064
 10
174.1383228423621
 20
126.573580647064
 10
174.1383228423621
 20
126.573580647064
 10
174.1169632362627
 20
126.5945957433876
 10
174.1169632362627
 20
126.5945957433876
 10
174.1169632362627
 20
126.5945957433876
 10
174.0959481399391
 20
126.7007047543328
 10
174.0959481399391
 20
126.7007047543328
 10
174.0959481399391
 20
126.7007047543328
 10
174.0325583411926
 20
126.6369704458105
 10
174.0325583411926
 20
126.6369704458105
 10
174.0325583411926
 20
126.6369704458105
 10
173.9901836387697
 20
126.6369704458105
 10
173.9901836387697
 20
126.6369704458105
 10
173.9901836387697
 20
126.6369704458105
 10
173.9054342339239
 20
126.6793451482334
 10
173.9054342339239
 20
126.6793451482334
 10
173.9054342339239
 20
126.6793451482334
 10
173.8420444351773
 20
126.7007047543328
 10
173.8420444351773
 20
126.7007047543328
 10
173.8420444351773
 20
126.7007047543328
 10
173.7996697327544
 20
126.7217198506564
 10
173.7996697327544
 20
126.7217198506564
 10
173.7996697327544
 20
126.7217198506564
 10
173.7572950303315
 20
126.7217198506564
 10
173.7572950303315
 20
126.7217198506564
 10
173.7572950303315
 20
126.7217198506564
 10
173.6725456254856
 20
126.7640945530793
 10
173.6725456254856
 20
126.7640945530793
 10
173.6725456254856
 20
126.7640945530793
 10
173.6515305291621
 20
126.7640945530793
 10
173.6515305291621
 20
126.7640945530793
 10
173.6515305291621
 20
126.7640945530793
 10
173.5667811243162
 20
126.7851096494029
 10
173.5667811243162
 20
126.7851096494029
 10
173.5667811243162
 20
126.7851096494029
 10
173.5033913255697
 20
126.8064692555022
 10
173.5033913255697
 20
126.8064692555022
 10
173.5033913255697
 20
126.8064692555022
 10
173.4396570170474
 20
126.8064692555022
 10
173.4396570170474
 20
126.8064692555022
 10
173.4396570170474
 20
126.8064692555022
 10
173.4186419207238
 20
126.8274843518258
 10
173.4186419207238
 20
126.8274843518258
 10
173.4186419207238
 20
126.8274843518258
 10
173.3972823146245
 20
126.8274843518258
 10
173.3972823146245
 20
126.8274843518258
 72
     1
 10
173.3972823146245
 20
126.8274843518258
 11
173.3972823146245
 21
126.8274843518258
 97
        0
 75
     0
 76
     1
 98
        0
450
        0
451
        0
460
0.0
461
0.0
452
        0
462
0.0
453
        0
470

  0
HATCH
  5
4842
330
1F
100
AcDbEntity
  8
图层 1
 62
     7
100
AcDbHatch
 10
0.0
 20
0.0
 30
0.0
210
0.0
220
0.0
230
1.0
  2
SOLID
 70
     1
 71
     0
 91
        1
 92
        1
 93
        2
 72
     4
 94
        3
 73
     0
 74
     0
 95
       47
 96
       43
 40
0.0
 40
0.0
 40
0.0
 40
0.0
 40
0.3527780104152769
 40
0.3527780104152769
 40
0.3527780104152769
 40
0.7055560208305538
 40
0.7055560208305538
 40
0.7055560208305538
 40
1.058334031245828
 40
1.058334031245828
 40
1.058334031245828
 40
1.411112041661104
 40
1.411112041661104
 40
1.411112041661104
 40
1.763890052076384
 40
1.763890052076384
 40
1.763890052076384
 40
2.116668062491659
 40
2.116668062491659
 40
2.116668062491659
 40
2.469446072906936
 40
2.469446072906936
 40
2.469446072906936
 40
2.822224083322215
 40
2.822224083322215
 40
2.822224083322215
 40
3.175002093737492
 40
3.175002093737492
 40
3.175002093737492
 40
3.527780104152768
 40
3.527780104152768
 40
3.527780104152768
 40
3.880558114568044
 40
3.880558114568044
 40
3.880558114568044
 40
4.233336124983321
 40
4.233336124983321
 40
4.233336124983321
 40
4.586114135398599
 40
4.586114135398599
 40
4.586114135398599
 40
4.938892145813873
 40
4.938892145813873
 40
4.938892145813873
 40
4.938892145813873
 10
180.1920486226523
 20
255.6479577566324
 10
180.1920486226523
 20
255.6479577566324
 10
180.2130637189759
 20
255.6055830542095
 10
180.2130637189759
 20
255.6055830542095
 10
180.2130637189759
 20
255.6055830542095
 10
180.2130637189759
 20
255.5210059042515
 10
180.2130637189759
 20
255.5210059042515
 10
180.2130637189759
 20
255.5210059042515
 10
180.1920486226523
 20
255.4786312018286
 10
180.1920486226523
 20
255.4786312018286
 10
180.1920486226523
 20
255.4786312018286
 10
180.1496739202294
 20
255.4359119896299
 10
180.1496739202294
 20
255.4359119896299
 10
180.1496739202294
 20
255.4359119896299
 10
180.1283143141301
 20
255.4147246384184
 10
180.1283143141301
 20
255.4147246384184
 10
180.1283143141301
 20
255.4147246384184
 10
180.0225498129606
 20
255.4147246384184
 10
180.0225498129606
 20
255.4147246384184
 10
180.0225498129606
 20
255.4147246384184
 10
179.9591600142141
 20
255.4359119896299
 10
179.9591600142141
 20
255.4359119896299
 10
179.9591600142141
 20
255.4359119896299
 10
179.9167853117912
 20
255.4570993408414
 10
179.9167853117912
 20
255.4570993408414
 10
179.9167853117912
 20
255.4570993408414
 10
179.8957702154676
 20
255.4786312018286
 10
179.8957702154676
 20
255.4786312018286
 10
179.8957702154676
 20
255.4786312018286
 10
179.8744106093683
 20
255.4994740432643
 10
179.8744106093683
 20
255.4994740432643
 10
179.8744106093683
 20
255.4994740432643
 10
179.8744106093683
 20
255.6479577566324
 10
179.8744106093683
 20
255.6479577566324
 10
179.9608825630931
 20
255.7323626517025
 10
180.045631967939
 20
255.7085914771726
 10
180.1496739202294
 20
255.7115198102668
 10
180.1496739202294
 20
255.7115198102668
 10
180.170689016553
 20
255.6688005980681
 10
180.170689016553
 20
255.6688005980681
 10
180.170689016553
 20
255.6688005980681
 10
180.1920486226523
 20
255.6479577566324
 10
180.1920486226523
 20
255.6479577566324
 72
     1
 10
180.1920486226523
 20
255.6479577566324
 11
180.1920486226523
 21
255.6479577566324
 97
        0
 75
     0
 76
     1
 98
        0
450
        0
451
        0
460
0.0
461
0.0
452
        0
462
0.0
453
        0
470

  0
MTEXT
  5
12C4B
102
{ACAD_XDICTIONARY
360
15EB3
102
}
330
1F
100
AcDbEntity
  8
打标文字
 62
     3
100
AcDbMText
 10
479.2635879986311
 20
351.7875383509065
 30
0.0
 40
1.5
 41
43.12740902174065
 46
53.91180554791946
 71
     1
 72
     5
  3
\A1;{\f仿宋_GB2312|b0|i0|c134|p49;技术参数}:\P- {\f仿宋_GB2312|b0|i0|c134|p49;材料}: {\f仿宋_GB2312|b0|i0|c134|p49;铜合金}\P- {\f仿宋_GB2312|b0|i0|c134|p49;表面处理}: {\f仿宋_GB2312|b0|i0|c134|p49;镀银}\P- {\f仿宋_GB2312|b0|i0|c134|p49;额定电流}: 7.5A\P- {\f仿宋_GB2312|b0|i0|c134|p4
  3
9;接触电阻}: ≤3mΩ\P- {\f仿宋_GB2312|b0|i0|c134|p49;可插拔次数}: {\f仿宋_GB2312|b0|i0|c134|p49;≥}500\P\PTechnical specification:\P- Material: copper alloy\P- Surface: hard-silver plated\P- Rated current: 7.5A\P- Contact resistance: ≤3mΩ\P- Mating cycles: {\f仿宋_GB2
  1
312|b0|i0|c134|p49;≥}500
  7
Romans字体
 73
     1
 44
1.0
1001
ACAD
1000
ACAD_MTEXT_DEFINED_HEIGHT_BEGIN
1070
    46
1040
53.91180554791946
1000
ACAD_MTEXT_DEFINED_HEIGHT_END
  0
LINE
  5
13093
330
1F
100
AcDbEntity
  8
图框
 62
     1
370
    18
100
AcDbLine
 10
362.2152432364329
 20
289.5734203896823
 30
0.0
 11
510.7146182042826
 21
289.5734203896823
 31
0.0
1001
AcDbBlockRepETag
1070
     1
1071
      143
1005
13093
  0
MTEXT
  5
15759
330
1F
100
AcDbEntity
  8
图框
 62
     3
100
AcDbMText
 10
500.5699715582569
 20
303.8807246626868
 30
0.0
 40
1.492756790756673
 41
16.8061960326837
 46
4.436077783610277
 71
     5
 72
     5
  1
1010171240052
  7
Romans字体
 73
     1
 44
1.0
1001
ACAD
1000
ACAD_MTEXT_DEFINED_HEIGHT_BEGIN
1070
    46
1040
4.436077783610277
1000
ACAD_MTEXT_DEFINED_HEIGHT_END
  0
INSERT
  5
1575A
330
1F
100
AcDbEntity
  8
DIM
100
AcDbBlockReference
  2
A4图框-NEW
 10
-54.49118295341975
 20
49.30603562116562
 30
0.0
 41
0.5000000004978915
 42
0.5000000004978915
 43
0.5000000004979071
  0
MTEXT
  5
1575B
330
1F
100
AcDbEntity
  8
图框
 62
     3
100
AcDbMText
 10
477.372487173389
 20
297.2269069685051
 30
0.0
 40
1.492756790756673
 41
5.414673580594389
 46
3.943047606109156
 71
     5
 72
     5
  1
1.24g
  7
Romans字体
 73
     1
 44
1.0
1001
ACAD
1000
ACAD_MTEXT_DEFINED_HEIGHT_BEGIN
1070
    46
1040
3.943047606109156
1000
ACAD_MTEXT_DEFINED_HEIGHT_END
  0
MTEXT
  5
1575C
330
1F
100
AcDbEntity
  8
图框
 62
     3
100
AcDbMText
 10
466.5431384072173
 20
297.2269068177162
 30
0.0
 40
1.492756789003581
 41
5.414674222587238
 46
3.943047304531788
 71
     5
 72
     5
  1
1:2
  7
Romans字体
 73
     1
 44
1.0
1001
ACAD
1000
ACAD_MTEXT_DEFINED_HEIGHT_BEGIN
1070
    46
1040
3.943047304531788
1000
ACAD_MTEXT_DEFINED_HEIGHT_END
  0
MTEXT
  5
1575D
330
1F
100
AcDbEntity
  8
图框
 62
     3
100
AcDbMText
 10
500.5699709063939
 20
308.2704496314993
 30
0.0
 40
1.492756789003581
 41
16.80619601294652
 46
4.343372757168116
 71
     5
 72
     5
  1
CDSF-P1.0Q
  7
Romans字体
 73
     1
 44
1.0
1001
ACAD
1000
ACAD_MTEXT_DEFINED_HEIGHT_BEGIN
1070
    46
1040
4.343372757168116
1000
ACAD_MTEXT_DEFINED_HEIGHT_END
  0
LINE
  5
15C45
330
1F
100
AcDbEntity
  8
0
100
AcDbLine
 10
417.3810625100668
 20
347.8585109165526
 30
0.0
 11
417.3810625100668
 21
345.4085109165526
 31
0.0
  0
LINE
  5
15C46
330
1F
100
AcDbEntity
  8
0
100
AcDbLine
 10
418.7230969799668
 20
346.2505453864527
 30
0.0
 11
417.8810625100668
 21
345.4085109165526
 31
0.0
  0
LINE
  5
15C47
330
1F
100
AcDbEntity
  8
0
100
AcDbLine
 10
419.7696069682669
 20
346.6335109165527
 30
0.0
 11
418.7585218339168
 21
345.7105688960527
 31
0.0
  0
LINE
  5
15C48
330
1F
100
AcDbEntity
  8
0
100
AcDbLine
 10
425.3810625100668
 20
346.8363318240526
 30
0.0
 11
425.3810625100668
 21
345.4085109165526
 31
0.0
  0
LINE
  5
15C49
330
1F
100
AcDbEntity
  8
0
100
AcDbLine
 10
427.3810625100668
 20
345.4085109165526
 30
0.0
 11
427.3810625100668
 21
347.8585109165526
 31
0.0
  0
LINE
  5
15C4A
330
1F
100
AcDbEntity
  8
0
100
AcDbLine
 10
429.1310728496669
 20
347.6184761077026
 30
0.0
 11
429.1310646525167
 21
347.6187893973527
 31
0.0
  0
LINE
  5
15C4B
330
1F
100
AcDbEntity
  8
0
100
AcDbLine
 10
429.1302526586668
 20
347.6877504444026
 30
0.0
 11
429.1310625218168
 21
347.6177536168527
 31
0.0
  0
LINE
  5
15C4C
330
1F
100
AcDbEntity
  8
0
100
AcDbLine
 10
429.1308902811167
 20
347.6877588977028
 30
0.0
 11
429.1310625169169
 21
347.6177592370526
 31
0.0
  0
LINE
  5
15C4D
330
1F
100
AcDbEntity
  8
0
100
AcDbLine
 10
429.1106095352668
 20
346.1711005858527
 30
0.0
 11
429.1106095352668
 21
346.7739602496526
 31
0.0
  0
LINE
  5
15C4E
330
1F
100
AcDbEntity
  8
0
100
AcDbLine
 10
429.1310608219668
 20
346.1741105799526
 30
0.0
 11
429.1310608219668
 21
346.7759454523026
 31
0.0
  0
LINE
  5
15C4F
330
1F
100
AcDbEntity
  8
0
100
AcDbLine
 10
429.1310615090169
 20
345.9155626310526
 30
0.0
 11
429.1310616200669
 21
345.7534630368026
 31
0.0
  0
LINE
  5
15C50
330
1F
100
AcDbEntity
  8
0
100
AcDbLine
 10
429.3810625100668
 20
347.9085110613527
 30
0.0
 11
429.3810625100668
 21
345.3585107717527
 31
0.0
  0
LINE
  5
15C51
330
1F
100
AcDbEntity
  8
0
100
AcDbLine
 10
429.1235151704167
 20
345.6862494070526
 30
0.0
 11
429.1310606733667
 21
345.7534632272027
 31
0.0
  0
LINE
  5
15C52
330
1F
100
AcDbEntity
  8
0
100
AcDbLine
 10
429.1223297690168
 20
345.8485326307026
 30
0.0
 11
429.1310615090169
 21
345.9155626310526
 31
0.0
  0
LINE
  5
15C53
330
1F
100
AcDbEntity
  8
0
100
AcDbLine
 10
429.1155268437669
 20
345.9395458994027
 30
0.0
 11
429.1310626317669
 21
345.9905825719027
 31
0.0
  0
LINE
  5
15C54
330
1F
100
AcDbEntity
  8
0
100
AcDbLine
 10
429.1139858000168
 20
347.2173257716026
 30
0.0
 11
429.1310638525668
 21
347.1827882390527
 31
0.0
  0
LINE
  5
15C55
330
1F
100
AcDbEntity
  8
0
100
AcDbLine
 10
429.1213927619668
 20
347.6227346168526
 30
0.0
 11
429.1310630270668
 21
347.5583545820526
 31
0.0
  0
LINE
  5
15C56
330
1F
100
AcDbEntity
  8
0
100
AcDbLine
 10
439.3810582716668
 20
344.8835109165527
 30
0.0
 11
432.3810582716668
 21
344.8835105131026
 31
0.0
  0
LINE
  5
15C57
330
1F
100
AcDbEntity
  8
0
100
AcDbLine
 10
432.3810582716668
 20
345.3585107717527
 30
0.0
 11
429.3810625100668
 21
345.3585107717527
 31
0.0
  0
LINE
  5
15C58
330
1F
100
AcDbEntity
  8
0
100
AcDbLine
 10
427.3810625100668
 20
345.4085109165526
 30
0.0
 11
425.3810625100668
 21
345.4085109165526
 31
0.0
  0
LINE
  5
15C59
330
1F
100
AcDbEntity
  8
0
100
AcDbLine
 10
417.8810625100668
 20
345.4085109165526
 30
0.0
 11
417.3810625100668
 21
345.4085109165526
 31
0.0
  0
LINE
  5
15C5A
330
1F
100
AcDbEntity
  8
0
100
AcDbLine
 10
427.3810625100668
 20
345.7335109165526
 30
0.0
 11
428.7325576671168
 21
345.7335109165526
 31
0.0
  0
LINE
  5
15C5B
330
1F
100
AcDbEntity
  8
0
100
AcDbLine
 10
429.1310616200669
 20
345.7335109165526
 30
0.0
 11
429.3810625100668
 21
345.7335109165526
 31
0.0
  0
LINE
  5
15C5C
330
1F
100
AcDbEntity
  8
0
100
AcDbLine
 10
418.7585246900669
 20
345.7105687817027
 30
0.0
 11
425.3810625100668
 21
345.4085109166026
 31
0.0
  0
LINE
  5
15C5D
330
1F
100
AcDbEntity
  8
0
100
AcDbLine
 10
429.1223292163667
 20
345.8485357314527
 30
0.0
 11
427.3810627585668
 21
345.9653462637526
 31
0.0
  0
LINE
  5
15C5E
330
1F
100
AcDbEntity
  8
0
100
AcDbLine
 10
429.1155242318168
 20
345.9395427450527
 30
0.0
 11
427.3810627750668
 21
346.0670846022026
 31
0.0
  0
LINE
  5
15C5F
330
1F
100
AcDbEntity
  8
0
100
AcDbLine
 10
429.1106095352668
 20
346.1711005858527
 30
0.0
 11
429.1310600640668
 21
346.1741106266027
 31
0.0
  0
LINE
  5
15C60
330
1F
100
AcDbEntity
  8
0
100
AcDbLine
 10
439.8810582716668
 20
346.1335109165527
 30
0.0
 11
444.8810582716169
 21
346.1335109165527
 31
0.0
  0
LINE
  5
15C61
330
1F
100
AcDbEntity
  8
0
100
AcDbLine
 10
425.3810683534168
 20
346.6335109165527
 30
0.0
 11
419.7696069682669
 21
346.6335109165527
 31
0.0
  0
LINE
  5
15C62
330
1F
100
AcDbEntity
  8
0
100
AcDbLine
 10
429.1302512637669
 20
347.6877503451027
 30
0.0
 11
429.1294051216667
 21
347.6884746366026
 31
0.0
  0
LINE
  5
15C63
330
1F
100
AcDbEntity
  8
0
100
AcDbLine
 10
432.3810582716668
 20
348.3835113200026
 30
0.0
 11
432.3810582716668
 21
344.8835104992026
 31
0.0
  0
LINE
  5
15C64
330
1F
100
AcDbEntity
  8
0
100
AcDbLine
 10
429.1106095352668
 20
346.7739602496526
 30
0.0
 11
429.1310600640668
 21
346.7759449589526
 31
0.0
  0
LINE
  5
15C65
330
1F
100
AcDbEntity
  8
0
100
AcDbLine
 10
429.1139857659167
 20
347.2173252687027
 30
0.0
 11
427.3810630879167
 21
347.1390362585026
 31
0.0
  0
LINE
  5
15C66
330
1F
100
AcDbEntity
  8
0
100
AcDbLine
 10
429.0852598851667
 20
347.6876522932026
 30
0.0
 11
427.3810625195668
 21
347.6834570875027
 31
0.0
  0
LINE
  5
15C67
330
1F
100
AcDbEntity
  8
0
100
AcDbLine
 10
425.3810625100668
 20
346.8363318240526
 30
0.0
 11
420.1373105423169
 21
346.8363318240526
 31
0.0
  0
LINE
  5
15C68
330
1F
100
AcDbEntity
  8
0
100
AcDbLine
 10
439.8810582716668
 20
347.1335109165527
 30
0.0
 11
444.8810582716169
 21
347.1335109165527
 31
0.0
  0
LINE
  5
15C69
330
1F
100
AcDbEntity
  8
0
100
AcDbLine
 10
429.1310623900168
 20
347.5335109165527
 30
0.0
 11
429.3810625100668
 21
347.5335109165527
 31
0.0
  0
LINE
  5
15C6A
330
1F
100
AcDbEntity
  8
0
100
AcDbLine
 10
429.1213946543169
 20
347.6227321001027
 30
0.0
 11
427.3810631781168
 21
347.4667758234526
 31
0.0
  0
LINE
  5
15C6B
330
1F
100
AcDbEntity
  8
0
100
AcDbLine
 10
429.1294084362667
 20
347.6884747040027
 30
0.0
 11
427.3810610962168
 21
347.6607165874526
 31
0.0
  0
LINE
  5
15C6C
330
1F
100
AcDbEntity
  8
0
100
AcDbLine
 10
427.3810625100668
 20
347.8585109165526
 30
0.0
 11
417.3810625100668
 21
347.8585109165526
 31
0.0
  0
LINE
  5
15C6D
330
1F
100
AcDbEntity
  8
0
100
AcDbLine
 10
432.3810582716668
 20
347.9085110613527
 30
0.0
 11
429.3810625100668
 21
347.9085110613527
 31
0.0
  0
LINE
  5
15C6E
330
1F
100
AcDbEntity
  8
0
100
AcDbLine
 10
439.3810582716668
 20
348.3835113200026
 30
0.0
 11
432.3810582716668
 21
348.3835113200026
 31
0.0
  0
LINE
  5
15C6F
330
1F
100
AcDbEntity
  8
0
100
AcDbLine
 10
439.3810582716668
 20
348.3834326036026
 30
0.0
 11
439.3810582716668
 21
344.8835896334026
 31
0.0
  0
LINE
  5
15C70
330
1F
100
AcDbEntity
  8
0
100
AcDbLine
 10
439.8810582716668
 20
347.1335109165527
 30
0.0
 11
439.8810582716668
 21
346.1335109165527
 31
0.0
  0
LINE
  5
15C71
330
1F
100
AcDbEntity
  8
0
100
AcDbLine
 10
444.8810582716169
 20
346.1335109165527
 30
0.0
 11
444.8810582716169
 21
347.1335109165527
 31
0.0
  0
LINE
  5
15C72
330
1F
100
AcDbEntity
  8
0
100
AcDbLine
 10
375.3924257915437
 20
311.5359186718514
 30
0.0
 11
375.3924286384436
 21
311.3842198520514
 31
0.0
  0
LINE
  5
15C73
330
1F
100
AcDbEntity
  8
0
100
AcDbLine
 10
381.5395734613436
 20
307.7178793797014
 30
0.0
 11
381.0891759498937
 21
307.4695332082514
 31
0.0
  0
LINE
  5
15C74
330
1F
100
AcDbEntity
  8
0
100
AcDbLine
 10
383.0302544089436
 20
307.3427012796015
 30
0.0
 11
382.9888555321937
 21
307.2970030859014
 31
0.0
  0
LINE
  5
15C75
330
1F
100
AcDbEntity
  8
0
100
AcDbLine
 10
382.3734636281436
 20
307.2106101237514
 30
0.0
 11
382.7963493405936
 21
307.4437855865514
 31
0.0
  0
LINE
  5
15C76
330
1F
100
AcDbEntity
  8
0
100
AcDbLine
 10
382.3857490927437
 20
307.1467979123014
 30
0.0
 11
382.8077414930437
 21
307.3794808106014
 31
0.0
  0
LINE
  5
15C77
330
1F
100
AcDbEntity
  8
0
100
AcDbLine
 10
388.8540922180936
 20
300.3288200159514
 30
0.0
 11
383.9043243437936
 21
303.1865056470014
 31
0.0
  0
LINE
  5
15C78
330
1F
100
AcDbEntity
  8
0
100
AcDbLine
 10
381.7351755039936
 20
305.1461976298514
 30
0.0
 11
380.5174217976937
 21
306.1375311504014
 31
0.0
  0
LINE
  5
15C79
330
1F
100
AcDbEntity
  8
0
100
AcDbLine
 10
381.7748875583437
 20
304.8705414569014
 30
0.0
 11
380.6459646474936
 21
305.8671931639014
 31
0.0
  0
LWPOLYLINE
  5
15C7A
330
1F
100
AcDbEntity
  8
0
100
AcDbPolyline
 90
        3
 70
     0
 43
0.0
 10
380.6683359656436
 20
305.8466459296014
 10
381.0203598777436
 20
305.5270493866014
 10
381.4367751780936
 20
305.1420255477014
  0
LINE
  5
15C7B
330
1F
100
AcDbEntity
  8
0
100
AcDbLine
 10
381.4367751780936
 20
305.1420255477014
 30
0.0
 11
381.8579695401937
 21
304.7481705578014
 31
0.0
  0
LINE
  5
15C7C
330
1F
100
AcDbEntity
  8
0
100
AcDbLine
 10
382.9613022264936
 20
307.4421938806513
 30
0.0
 11
382.9357728182437
 21
307.3781200994514
 31
0.0
  0
LINE
  5
15C7D
330
1F
100
AcDbEntity
  8
0
100
AcDbLine
 10
382.0563130559436
 20
304.6667595314013
 30
0.0
 11
382.0928107347937
 21
304.7216437064514
 31
0.0
  0
LINE
  5
15C7E
330
1F
100
AcDbEntity
  8
0
100
AcDbLine
 10
381.7748844406436
 20
304.8705403995013
 30
0.0
 11
381.8272457487936
 21
304.9138837265514
 31
0.0
  0
LINE
  5
15C7F
330
1F
100
AcDbEntity
  8
0
100
AcDbLine
 10
381.7351655083436
 20
306.0513839146513
 30
0.0
 11
381.7852459318436
 21
306.0808014809014
 31
0.0
  0
LINE
  5
15C80
330
1F
100
AcDbEntity
  8
0
100
AcDbLine
 10
381.7356213102936
 20
305.6059941079514
 30
0.0
 11
381.7771768964937
 21
305.6298683162514
 31
0.0
  0
LINE
  5
15C81
330
1F
100
AcDbEntity
  8
0
100
AcDbLine
 10
383.5424741383706
 20
303.9438947208546
 30
0.0
 11
382.0204940632936
 21
304.8225904481514
 31
0.0
  0
LINE
  5
15C82
330
1F
100
AcDbEntity
  8
0
100
AcDbLine
 10
380.6312742612436
 20
305.6823735977014
 30
0.0
 11
373.5601770097436
 21
309.7647811429014
 31
0.0
  0
LINE
  5
15C83
330
1F
100
AcDbEntity
  8
0
100
AcDbLine
 10
381.7356187765936
 20
305.6059926398514
 30
0.0
 11
380.5013429092936
 21
306.3232791548013
 31
0.0
  0
LINE
  5
15C84
330
1F
100
AcDbEntity
  8
0
100
AcDbLine
 10
382.3734636281436
 20
307.2106101237514
 30
0.0
 11
382.3857505985437
 21
307.1467962577014
 31
0.0
  0
LINE
  5
15C85
330
1F
100
AcDbEntity
  8
0
100
AcDbLine
 10
381.7351764186436
 20
305.1461969938513
 30
0.0
 11
381.7852441060936
 21
305.1732607316014
 31
0.0
  0
LINE
  5
15C86
330
1F
100
AcDbEntity
  8
0
100
AcDbLine
 10
381.7351626245436
 20
306.0513822384014
 30
0.0
 11
380.5174227119437
 21
306.5275953137513
 31
0.0
  0
LINE
  5
15C87
330
1F
100
AcDbEntity
  8
0
100
AcDbLine
 10
381.7749525949936
 20
306.3874051190514
 30
0.0
 11
380.6545594142936
 21
306.9635474854014
 31
0.0
  0
LINE
  5
15C88
330
1F
100
AcDbEntity
  8
0
100
AcDbLine
 10
389.8326366779937
 20
301.2072378652014
 30
0.0
 11
393.3681853037437
 21
299.1660340926014
 31
0.0
  0
LINE
  5
15C89
330
1F
100
AcDbEntity
  8
0
100
AcDbLine
 10
382.0569991938937
 20
306.9282940168514
 30
0.0
 11
382.0942347518936
 21
306.8895895746014
 31
0.0
  0
LINE
  5
15C8A
330
1F
100
AcDbEntity
  8
0
100
AcDbLine
 10
382.7963493405936
 20
307.4437855865514
 30
0.0
 11
382.8077430038937
 21
307.3794791588014
 31
0.0
  0
LINE
  5
15C8B
330
1F
100
AcDbEntity
  8
0
100
AcDbLine
 10
381.7749519771437
 20
306.3874052981014
 30
0.0
 11
381.8266845187936
 21
306.3868120586014
 31
0.0
  0
LINE
  5
15C8C
330
1F
100
AcDbEntity
  8
0
100
AcDbLine
 10
382.0569988646436
 20
306.9282941136014
 30
0.0
 11
380.8863060764936
 21
307.3096134511514
 31
0.0
  0
LINE
  5
15C8D
330
1F
100
AcDbEntity
  8
0
100
AcDbLine
 10
390.3326281944936
 20
302.0732681669013
 30
0.0
 11
393.8681768201937
 21
300.0320643943013
 31
0.0
  0
LINE
  5
15C8E
330
1F
100
AcDbEntity
  8
0
100
AcDbLine
 10
375.9782209639936
 20
310.6040658851514
 30
0.0
 11
379.6861289766436
 21
308.4633526253514
 31
0.0
  0
LINE
  5
15C8F
330
1F
100
AcDbEntity
  8
0
100
AcDbLine
 10
382.3663466224936
 20
307.1343765315514
 30
0.0
 11
382.6567532084936
 21
306.9667140040014
 31
0.0
  0
LINE
  5
15C90
330
1F
100
AcDbEntity
  8
0
100
AcDbLine
 10
382.9153597402936
 20
307.4622110007013
 30
0.0
 11
382.5065262661436
 21
307.5513612004014
 31
0.0
  0
LINE
  5
15C91
330
1F
100
AcDbEntity
  8
0
100
AcDbLine
 10
382.5065262661436
 20
307.5513612004014
 30
0.0
 11
382.1084204030436
 21
307.6400041397513
 31
0.0
  0
LINE
  5
15C92
330
1F
100
AcDbEntity
  8
0
100
AcDbLine
 10
382.1084204030436
 20
307.6400041397513
 30
0.0
 11
381.6442866746436
 21
307.7471398351514
 31
0.0
  0
LINE
  5
15C93
330
1F
100
AcDbEntity
  8
0
100
AcDbLine
 10
382.9154334102936
 20
307.4625474893514
 30
0.0
 11
382.9613022264936
 21
307.4421938806513
 31
0.0
  0
LINE
  5
15C94
330
1F
100
AcDbEntity
  8
0
100
AcDbLine
 10
382.8996034546936
 20
307.3944514427014
 30
0.0
 11
382.9357706569436
 21
307.3781219755514
 31
0.0
  0
LINE
  5
15C95
330
1F
100
AcDbEntity
  8
0
100
AcDbLine
 10
380.4420340263436
 20
308.6206293458513
 30
0.0
 11
380.4189571667937
 21
308.6329843496514
 31
0.0
  0
LINE
  5
15C96
330
1F
100
AcDbEntity
  8
0
100
AcDbLine
 10
381.8562534765936
 20
307.8041478368013
 30
0.0
 11
380.4420340263436
 21
308.6206293458513
 31
0.0
  0
LINE
  5
15C97
330
1F
100
AcDbEntity
  8
0
100
AcDbLine
 10
375.3929291329936
 20
311.5356654682514
 30
0.0
 11
374.7851562251437
 21
311.8865553820514
 31
0.0
  0
LINE
  5
15C98
330
1F
100
AcDbEntity
  8
0
100
AcDbLine
 10
384.8196030380436
 20
306.1510307421013
 30
0.0
 11
383.2954725751437
 21
307.0309679683014
 31
0.0
  0
LINE
  5
15C99
330
1F
100
AcDbEntity
  8
0
100
AcDbLine
 10
390.6040627274936
 20
303.3599264212514
 30
0.0
 11
385.6542948531936
 21
306.2176120523014
 31
0.0
  0
LINE
  5
15C9A
330
1F
100
AcDbEntity
  8
0
100
AcDbLine
 10
381.6488727276936
 20
307.7461833613514
 30
0.0
 11
381.6442865263937
 21
307.7471398370513
 31
0.0
  0
LINE
  5
15C9B
330
1F
100
AcDbEntity
  8
0
100
AcDbLine
 10
405.3585732155307
 20
346.6335109165527
 30
0.0
 11
405.3585732155307
 21
346.5834109165527
 31
0.0
  0
LINE
  5
15C9C
330
1F
100
AcDbEntity
  8
0
100
AcDbLine
 10
405.3585732155307
 20
346.6335109165527
 30
0.0
 11
405.3585732155307
 21
346.6836109165527
 31
0.0
  0
LINE
  5
15C9D
330
1F
100
AcDbEntity
  8
0
100
AcDbLine
 10
405.3585732155307
 20
346.6335109165527
 30
0.0
 11
405.3084732155308
 21
346.6335109165527
 31
0.0
  0
LINE
  5
15C9E
330
1F
100
AcDbEntity
  8
0
100
AcDbLine
 10
405.3585732155307
 20
346.6335109165527
 30
0.0
 11
405.4086732155308
 21
346.6335109165527
 31
0.0
  0
CIRCLE
  5
15C9F
330
1F
100
AcDbEntity
  8
0
100
AcDbCircle
 10
405.3585732155307
 20
346.6335109165527
 30
0.0
 40
1.75
  0
CIRCLE
  5
15CA0
330
1F
100
AcDbEntity
  8
0
100
AcDbCircle
 10
405.3585732155307
 20
346.6335109165527
 30
0.0
 40
1.0
  0
CIRCLE
  5
15CA1
330
1F
100
AcDbEntity
  8
0
100
AcDbCircle
 10
405.3585732155307
 20
346.6335109165527
 30
0.0
 40
0.5
  0
ARC
  5
15CA2
330
1F
100
AcDbEntity
  8
0
100
AcDbCircle
 10
409.0680599514668
 20
-126.3632757453973
 30
0.0
 40
473.5615567392
100
AcDbArc
 50
87.57434568519794
 51
87.78377394809842
  0
ARC
  5
15CA3
330
1F
100
AcDbEntity
  8
0
100
AcDbCircle
 10
473.3419310693668
 20
346.6633399846526
 30
0.0
 40
44.2314581914
100
AcDbArc
 50
179.3250242238008
 51
179.8567063121999
  0
ARC
  5
15CA4
330
1F
100
AcDbEntity
  8
0
100
AcDbCircle
 10
438.6283169577668
 20
347.3116009469027
 30
0.0
 40
9.51212040945
100
AcDbArc
 50
178.4835985930008
 51
178.7199850479014
  0
ARC
  5
15CA5
330
1F
100
AcDbEntity
  8
0
100
AcDbCircle
 10
435.1416035989167
 20
346.1732563435527
 30
0.0
 40
6.0309992848
100
AcDbArc
 50
180.0204808844006
 51
181.5910258037989
  0
ARC
  5
15CA6
330
1F
100
AcDbEntity
  8
0
100
AcDbCircle
 10
434.1398557229668
 20
347.4354779949526
 30
0.0
 40
5.021955448349999
100
AcDbArc
 50
177.8986142627983
 51
178.5412717559007
  0
ARC
  5
15CA7
330
1F
100
AcDbEntity
  8
0
100
AcDbCircle
 10
431.4277471177669
 20
346.0434382815527
 30
0.0
 40
2.314555885899999
100
AcDbArc
 50
182.5727490661986
 51
183.5351302324009
  0
ARC
  5
15CA8
330
1F
100
AcDbEntity
  8
0
100
AcDbCircle
 10
420.1373105423169
 20
344.8363318240526
 30
0.0
 40
2.0
100
AcDbArc
 50
90.0
 51
134.9999999996985
  0
ARC
  5
15CA9
330
1F
100
AcDbEntity
  8
0
100
AcDbCircle
 10
444.8810582716169
 20
346.6335109165527
 30
0.0
 40
0.5
100
AcDbArc
 50
270.0
 51
90.0
  0
ARC
  5
15CAA
330
1F
100
AcDbEntity
  8
0
100
AcDbCircle
 10
439.8810582716668
 20
345.6335109165526
 30
0.0
 40
0.5
100
AcDbArc
 50
90.0
 51
180.0
  0
ARC
  5
15CAB
330
1F
100
AcDbEntity
  8
0
100
AcDbCircle
 10
439.8810582716668
 20
347.6335109165527
 30
0.0
 40
0.5
100
AcDbArc
 50
180.0
 51
270.0
  0
ARC
  5
15CAC
330
1F
100
AcDbEntity
  8
0
100
AcDbCircle
 10
579.5605780119935
 20
694.9244342449012
 30
0.0
 40
434.93677072985
100
AcDbArc
 50
242.1764997128043
 51
242.6633071028994
  0
ARC
  5
15CAD
330
1F
100
AcDbEntity
  8
0
100
AcDbCircle
 10
526.6651995407436
 20
604.1376874614012
 30
0.0
 40
329.7135013458
100
AcDbArc
 50
242.7735038759003
 51
243.6690418939022
  0
ARC
  5
15CAE
330
1F
100
AcDbEntity
  8
0
100
AcDbCircle
 10
364.1576253582436
 20
226.6682364694514
 30
0.0
 40
82.89302185750001
100
AcDbArc
 50
77.60125860849932
 51
77.74359947680089
  0
ARC
  5
15CAF
330
1F
100
AcDbEntity
  8
0
100
AcDbCircle
 10
374.4154077926936
 20
273.8862844855514
 30
0.0
 40
34.57360382685
100
AcDbArc
 50
77.74394880769775
 51
77.94060707540205
  0
ARC
  5
15CB0
330
1F
100
AcDbEntity
  8
0
100
AcDbCircle
 10
376.4475304813436
 20
283.4064346277014
 30
0.0
 40
24.838986361
100
AcDbArc
 50
77.9366268755005
 51
78.17038095240149
  0
ARC
  5
15CB1
330
1F
100
AcDbEntity
  8
0
100
AcDbCircle
 10
383.3301793542436
 20
305.8857328745514
 30
0.0
 40
1.63413748305
100
AcDbArc
 50
161.4959265923016
 51
162.1217641205006
  0
ARC
  5
15CB2
330
1F
100
AcDbEntity
  8
0
100
AcDbCircle
 10
383.3500029264936
 20
305.3723908327014
 30
0.0
 40
1.5954820065
100
AcDbArc
 50
169.8990643625988
 51
170.5361966555017
  0
ARC
  5
15CB3
330
1F
100
AcDbEntity
  8
0
100
AcDbCircle
 10
383.3144290787436
 20
305.3782532916013
 30
0.0
 40
1.55942840005
100
AcDbArc
 50
170.5337517744021
 51
171.7863340100992
  0
ARC
  5
15CB4
330
1F
100
AcDbEntity
  8
0
100
AcDbCircle
 10
376.7471165121937
 20
311.9380253289514
 30
0.0
 40
1.53969093055
100
AcDbArc
 50
235.704728292101
 51
240.0408089009004
  0
ARC
  5
15CB5
330
1F
100
AcDbEntity
  8
0
100
AcDbCircle
 10
376.7092245613437
 20
311.8819355202514
 30
0.0
 40
1.472002139499998
100
AcDbArc
 50
234.426554753304
 51
235.693050933899
  0
ARC
  5
15CB6
330
1F
100
AcDbEntity
  8
0
100
AcDbCircle
 10
389.0543180943936
 20
302.1286005448514
 30
0.0
 40
1.29280331255
100
AcDbArc
 50
310.5180758007999
 51
311.5065558410989
  0
ARC
  5
15CB7
330
1F
100
AcDbEntity
  8
0
100
AcDbCircle
 10
389.0727678565436
 20
302.1070626785014
 30
0.0
 40
1.264443617199999
100
AcDbArc
 50
309.8366282359012
 51
310.5165969206009
  0
ARC
  5
15CB8
330
1F
100
AcDbEntity
  8
0
100
AcDbCircle
 10
382.7895353143436
 20
306.1105882008015
 30
0.0
 40
1.001690632999999
100
AcDbArc
 50
163.9928213216001
 51
164.6559112379998
  0
ARC
  5
15CB9
330
1F
100
AcDbEntity
  8
0
100
AcDbCircle
 10
390.1658407989937
 20
301.9067080507514
 30
0.0
 40
0.8715108288500001
100
AcDbArc
 50
115.4865348355013
 51
120.0765360162985
  0
ARC
  5
15CBA
330
1F
100
AcDbEntity
  8
0
100
AcDbCircle
 10
389.2923143520437
 20
301.7820387280514
 30
0.0
 40
0.8715108201499999
100
AcDbArc
 50
295.4865349156987
 51
300.0765360036978
  0
ARC
  5
15CBB
330
1F
100
AcDbEntity
  8
0
100
AcDbCircle
 10
382.5761428318936
 20
305.3653638151514
 30
0.0
 40
0.8166797237
100
AcDbArc
 50
192.5755273075984
 51
193.7280331227008
  0
ARC
  5
15CBC
330
1F
100
AcDbEntity
  8
0
100
AcDbCircle
 10
382.5584347597437
 20
305.3610673374513
 30
0.0
 40
0.7984579043500001
100
AcDbArc
 50
193.7300870703997
 51
194.3434491582993
  0
ARC
  5
15CBD
330
1F
100
AcDbEntity
  8
0
100
AcDbCircle
 10
382.6853340504936
 20
306.6186760044014
 30
0.0
 40
0.6690681639000001
100
AcDbArc
 50
117.7830863992967
 51
119.7852074355996
  0
ARC
  5
15CBE
330
1F
100
AcDbEntity
  8
0
100
AcDbCircle
 10
393.6181810619436
 20
299.5990492234514
 30
0.0
 40
0.4999999827
100
AcDbArc
 50
240.0005601173955
 51
60.0002138500968
  0
ARC
  5
15CBF
330
1F
100
AcDbEntity
  8
0
100
AcDbCircle
 10
381.5858876563936
 20
307.3896023681014
 30
0.0
 40
0.49876698175
100
AcDbArc
 50
34.34015534659744
 51
34.58839444580102
  0
ARC
  5
15CC0
330
1F
100
AcDbEntity
  8
0
100
AcDbCircle
 10
390.3010139568936
 20
301.6714205195514
 30
0.0
 40
0.4357552171
100
AcDbArc
 50
115.4865338061037
 51
120.0765370754982
  0
ARC
  5
15CC1
330
1F
100
AcDbEntity
  8
0
100
AcDbCircle
 10
380.8509704719436
 20
306.0497271695013
 30
0.0
 40
0.27313197965
100
AcDbArc
 50
224.0191023571977
 51
225.0825749726007
  0
ARC
  5
15CC2
330
1F
100
AcDbEntity
  8
0
100
AcDbCircle
 10
380.8480174705437
 20
306.0467358224014
 30
0.0
 40
0.2689286567
100
AcDbArc
 50
225.078088800402
 51
228.0761037420007
  0
ARC
  5
15CC3
330
1F
100
AcDbEntity
  8
0
100
AcDbCircle
 10
382.8689474273937
 20
307.3099470772514
 30
0.0
 40
0.16139750265
100
AcDbArc
 50
41.11850702600035
 51
46.76114458530146
  0
ARC
  5
15CC4
330
1F
100
AcDbEntity
  8
0
100
AcDbCircle
 10
382.8747803013937
 20
307.3161380050513
 30
0.0
 40
0.1528916262
100
AcDbArc
 50
46.76422955670434
 51
55.53613548889978
  0
LINE
  5
15CC5
330
1F
100
AcDbEntity
  8
0
100
AcDbLine
 10
429.1310623900168
 20
347.5583493024526
 30
0.0
 11
429.1310623780669
 21
347.6183653745526
 31
0.0
  0
LINE
  5
15CC6
330
1F
100
AcDbEntity
  8
0
100
AcDbLine
 10
429.1310603893669
 20
347.1827863322026
 30
0.0
 11
429.1310557208169
 21
347.2193102087026
 31
0.0
  0
LINE
  5
15CC7
330
1F
100
AcDbEntity
  8
0
100
AcDbLine
 10
429.1310557208169
 20
347.2193102087026
 30
0.0
 11
429.1310625249168
 21
347.5583493289026
 31
0.0
  0
LINE
  5
15CC8
330
1F
100
AcDbEntity
  8
0
100
AcDbLine
 10
429.1310603120669
 20
346.7759454490026
 30
0.0
 11
429.1310607437169
 21
347.1827862996527
 31
0.0
  0
SPLINE
  5
15CC9
330
1F
100
AcDbEntity
  8
0
100
AcDbSpline
210
0.0
220
0.0
230
1.0
 70
     8
 71
     3
 72
    10
 73
     6
 74
     0
 42
0.0000000001
 43
0.0000000001
 40
0.0
 40
0.0
 40
0.0
 40
0.0
 40
0.5000152758
 40
0.7500159254000001
 40
1.0
 40
1.0
 40
1.0
 40
1.0
 10
429.1232985611167
 20
345.6863027969026
 30
0.0
 10
428.8328500411168
 20
345.7213031309526
 30
0.0
 10
428.3971991972668
 20
345.7739534670027
 30
0.0
 10
427.8164398761668
 20
345.8449392116527
 30
0.0
 10
427.5261478137168
 20
345.8810786755027
 30
0.0
 10
427.3810641246668
 20
345.8995997897527
 30
0.0
  0
LINE
  5
15CCA
330
1F
100
AcDbEntity
  8
0
100
AcDbLine
 10
429.1310633323668
 20
345.9155702507027
 30
0.0
 11
429.1310625312668
 21
345.9584910812527
 31
0.0
  0
LINE
  5
15CCB
330
1F
100
AcDbEntity
  8
0
100
AcDbLine
 10
429.1310625312668
 20
345.9584910812527
 30
0.0
 11
429.1310627575168
 21
345.9905813345026
 31
0.0
  0
LINE
  5
15CCC
330
1F
100
AcDbEntity
  8
0
100
AcDbLine
 10
429.1310626171167
 20
345.9905813463527
 30
0.0
 11
429.1310617722167
 21
346.1054113837527
 31
0.0
  0
LINE
  5
15CCD
330
1F
100
AcDbEntity
  8
0
100
AcDbLine
 10
429.1310617722167
 20
346.1054113837527
 30
0.0
 11
429.1310612238668
 21
346.1741105603027
 31
0.0
  0
SPLINE
  5
15CCE
330
1F
100
AcDbEntity
  8
0
100
AcDbSpline
210
0.0
220
0.0
230
1.0
 70
     8
 71
     3
 72
     9
 73
     5
 74
     0
 42
0.0000000001
 43
0.0000000001
 40
0.0
 40
0.0
 40
0.0
 40
0.0
 40
0.3032874915
 40
1.0
 40
1.0
 40
1.0
 40
1.0
 10
429.1294077413168
 20
347.6884731932027
 30
0.0
 10
429.1288831747668
 20
347.6884617340527
 30
0.0
 10
429.1279155263167
 20
347.6864728297027
 30
0.0
 10
429.1275646670168
 20
347.6850219039527
 30
0.0
 10
429.1272940431168
 20
347.6838473550026
 30
0.0
  0
SPLINE
  5
15CCF
330
1F
100
AcDbEntity
  8
0
100
AcDbSpline
210
0.0
220
0.0
230
1.0
 70
     8
 71
     3
 72
    10
 73
     6
 74
     0
 42
0.0000000001
 43
0.0000000001
 40
0.0
 40
0.0
 40
0.0
 40
0.0
 40
0.1434566838
 40
0.3585461418
 40
1.0
 40
1.0
 40
1.0
 40
1.0
 10
429.1272940431168
 20
347.6838473550026
 30
0.0
 10
429.1266344557667
 20
347.6809846456526
 30
0.0
 10
429.1255399762668
 20
347.6737113579027
 30
0.0
 10
429.1233373500668
 20
347.6533568350526
 30
0.0
 10
429.1221818718668
 20
347.6358442156027
 30
0.0
 10
429.1213946543169
 20
347.6227321001027
 30
0.0
  0
SPLINE
  5
15CD0
330
1F
100
AcDbEntity
  8
0
100
AcDbSpline
210
0.0
220
0.0
230
1.0
 70
     8
 71
     3
 72
     9
 73
     5
 74
     0
 42
0.0000000001
 43
0.0000000001
 40
0.0
 40
0.0
 40
0.0
 40
0.0
 40
0.2280238274
 40
1.0
 40
1.0
 40
1.0
 40
1.0
 10
429.1155234880168
 20
345.9395436039025
 30
0.0
 10
429.1152519892168
 20
345.9445766343026
 30
0.0
 10
429.1141681119666
 20
345.9666547903527
 30
0.0
 10
429.113417676517
 20
345.9887480811527
 30
0.0
 10
429.1129294083668
 20
346.0058052251526
 30
0.0
  0
LINE
  5
15CD1
330
1F
100
AcDbEntity
  8
0
100
AcDbLine
 10
429.1213945002168
 20
347.6227322308527
 30
0.0
 11
429.1212775033669
 21
347.6196224453027
 31
0.0
  0
SPLINE
  5
15CD2
330
1F
100
AcDbEntity
  8
0
100
AcDbSpline
210
0.0
220
0.0
230
1.0
 70
     8
 71
     3
 72
     9
 73
     5
 74
     0
 42
0.0000000001
 43
0.0000000001
 40
0.0
 40
0.0
 40
0.0
 40
0.0
 40
0.2097968113
 40
1.0
 40
1.0
 40
1.0
 40
1.0
 10
429.1185701841667
 20
347.5240885624527
 30
0.0
 10
429.1180870068168
 20
347.5026388762526
 30
0.0
 10
429.1160617481168
 20
347.4003923806527
 30
0.0
 10
429.1147935978168
 20
347.2981323266527
 30
0.0
 10
429.1139857659167
 20
347.2173252687027
 30
0.0
  0
LINE
  5
15CD3
330
1F
100
AcDbEntity
  8
0
100
AcDbLine
 10
429.1139865437168
 20
347.2173255203027
 30
0.0
 11
429.1135420932167
 21
347.1843988222527
 31
0.0
  0
SPLINE
  5
15CD4
330
1F
100
AcDbEntity
  8
0
100
AcDbSpline
210
0.0
220
0.0
230
1.0
 70
     8
 71
     3
 72
    10
 73
     6
 74
     0
 42
0.0000000001
 43
0.0000000001
 40
0.0
 40
0.0
 40
0.0
 40
0.0
 40
0.2500023936
 40
0.5000041391
 40
1.0
 40
1.0
 40
1.0
 40
1.0
 10
429.1106099901668
 20
346.1711005603027
 30
0.0
 10
428.9664853354167
 20
346.1744286389526
 30
0.0
 10
428.6782297056666
 20
346.1807983465527
 30
0.0
 10
428.1017252272167
 20
346.1935650422026
 30
0.0
 10
427.6693452679168
 20
346.2032265901026
 30
0.0
 10
427.3810627001668
 20
346.2079342272027
 30
0.0
  0
SPLINE
  5
15CD5
330
1F
100
AcDbEntity
  8
0
100
AcDbSpline
210
0.0
220
0.0
230
1.0
 70
     8
 71
     3
 72
     9
 73
     5
 74
     0
 42
0.0000000001
 43
0.0000000001
 40
0.0
 40
0.0
 40
0.0
 40
0.0
 40
0.2759711952
 40
1.0
 40
1.0
 40
1.0
 40
1.0
 10
429.1175954160168
 20
345.9007215560027
 30
0.0
 10
429.1177725796168
 20
345.8979068672527
 30
0.0
 10
429.1184408479668
 20
345.8877094176027
 30
0.0
 10
429.1192143648667
 20
345.8775182163527
 30
0.0
 10
429.1198807583167
 20
345.8701491497527
 30
0.0
  0
SPLINE
  5
15CD6
330
1F
100
AcDbEntity
  8
0
100
AcDbSpline
210
0.0
220
0.0
230
1.0
 70
     8
 71
     3
 72
     9
 73
     5
 74
     0
 42
0.0000000001
 43
0.0000000001
 40
0.0
 40
0.0
 40
0.0
 40
0.0
 40
0.289170866
 40
1.0
 40
1.0
 40
1.0
 40
1.0
 10
429.1198807583167
 20
345.8701491497527
 30
0.0
 10
429.1200696024168
 20
345.8680608864026
 30
0.0
 10
429.1207565891667
 20
345.8608429381527
 30
0.0
 10
429.1215668372668
 20
345.8536332753027
 30
0.0
 10
429.1223292163667
 20
345.8485357314527
 30
0.0
  0
LINE
  5
15CD7
330
1F
100
AcDbEntity
  8
0
100
AcDbLine
 10
429.1223294860168
 20
345.8485303792526
 30
0.0
 11
429.1225804489168
 21
345.8013377384526
 31
0.0
  0
SPLINE
  5
15CD8
330
1F
100
AcDbEntity
  8
0
100
AcDbSpline
210
0.0
220
0.0
230
1.0
 70
     8
 71
     3
 72
     9
 73
     5
 74
     0
 42
0.0000000001
 43
0.0000000001
 40
0.0
 40
0.0
 40
0.0
 40
0.0
 40
0.320622112
 40
1.0
 40
1.0
 40
1.0
 40
1.0
 10
429.1225804489168
 20
345.8013377384526
 30
0.0
 10
429.1226411924168
 20
345.7890428398026
 30
0.0
 10
429.1228324478668
 20
345.7506958899027
 30
0.0
 10
429.1230352835168
 20
345.7123486919027
 30
0.0
 10
429.1232981684166
 20
345.6862975911026
 30
0.0
  0
SPLINE
  5
15CD9
330
1F
100
AcDbEntity
  8
0
100
AcDbSpline
210
0.0
220
0.0
230
1.0
 70
     8
 71
     3
 72
    13
 73
     9
 74
     0
 42
0.0000000001
 43
0.0000000001
 40
0.0
 40
0.0
 40
0.0
 40
0.0
 40
0.0843595432
 40
0.18440241
 40
0.2977407794
 40
0.4221624939
 40
0.6970602574
 40
1.0
 40
1.0
 40
1.0
 40
1.0
 10
375.3924286384436
 20
311.3842198520514
 30
0.0
 10
375.3924288992936
 20
311.3599559229014
 30
0.0
 10
375.3985830665936
 20
311.3069154969013
 30
0.0
 10
375.4212203286936
 20
311.2241002243014
 30
0.0
 10
375.4584501006936
 20
311.1340925268014
 30
0.0
 10
375.5297766606436
 20
311.0047515277014
 30
0.0
 10
375.6551908850436
 20
310.8445305671514
 30
0.0
 10
375.7820238971937
 20
310.7353449646514
 30
0.0
 10
375.8528931140937
 20
310.6846524496514
 30
0.0
  0
SPLINE
  5
15CDA
330
1F
100
AcDbEntity
  8
0
100
AcDbSpline
210
0.0
220
0.0
230
1.0
 70
     8
 71
     3
 72
    20
 73
    16
 74
     0
 42
0.0000000001
 43
0.0000000001
 40
0.0
 40
0.0
 40
0.0
 40
0.0
 40
0.2532268955
 40
0.4673650158
 40
0.6420570871
 40
0.7149344198000001
 40
0.7784919946
 40
0.8330214373
 40
0.8788558437
 40
0.9163627980999999
 40
0.9459359239000001
 40
0.9680259354
 40
0.9832459844
 40
0.9927804187999999
 40
1.0
 40
1.0
 40
1.0
 40
1.0
 10
375.7997588738937
 20
310.7277413027014
 30
0.0
 10
375.7999796532436
 20
310.7472173570514
 30
0.0
 10
375.8005513884437
 20
310.7831617955514
 30
0.0
 10
375.8019622181436
 20
310.8325277197014
 30
0.0
 10
375.8035684750436
 20
310.8680071681014
 30
0.0
 10
375.8051109087937
 20
310.8918889982013
 30
0.0
 10
375.8062819521437
 20
310.9065310352514
 30
0.0
 10
375.8075295737437
 20
310.9190790414514
 30
0.0
 10
375.8088451064436
 20
310.9296013050514
 30
0.0
 10
375.8102219181436
 20
310.9381840331514
 30
0.0
 10
375.8116425361937
 20
310.9448844075014
 30
0.0
 10
375.8131116918436
 20
310.9498572318514
 30
0.0
 10
375.8145856500937
 20
310.9530884672513
 30
0.0
 10
375.8162626466436
 20
310.9551457119014
 30
0.0
 10
375.8177508779436
 20
310.9550830604514
 30
0.0
 10
375.8182445699936
 20
310.9548288341013
 30
0.0
  0
SPLINE
  5
15CDB
330
1F
100
AcDbEntity
  8
0
100
AcDbSpline
210
0.0
220
0.0
230
1.0
 70
     8
 71
     3
 72
     9
 73
     5
 74
     0
 42
0.0000000001
 43
0.0000000001
 40
0.0
 40
0.0
 40
0.0
 40
0.0
 40
0.2428940442
 40
1.0
 40
1.0
 40
1.0
 40
1.0
 10
379.8295716081436
 20
308.5599742556514
 30
0.0
 10
379.8174396753936
 20
308.5529699228014
 30
0.0
 10
379.7680186071436
 20
308.5232256345514
 30
0.0
 10
379.7207062702436
 20
308.4900188458014
 30
0.0
 10
379.6861289766436
 20
308.4633526253514
 30
0.0
  0
SPLINE
  5
15CDC
330
1F
100
AcDbEntity
  8
0
100
AcDbSpline
210
0.0
220
0.0
230
1.0
 70
     8
 71
     3
 72
    11
 73
     7
 74
     0
 42
0.0000000001
 43
0.0000000001
 40
0.0
 40
0.0
 40
0.0
 40
0.0
 40
0.2463291195
 40
0.4915656853
 40
0.7412741134000001
 40
1.0
 40
1.0
 40
1.0
 40
1.0
 10
381.8579726055937
 20
304.7481614894014
 30
0.0
 10
381.8710695251937
 20
304.7358692176014
 30
0.0
 10
381.8994552013937
 20
304.7136007188513
 30
0.0
 10
381.9476753781937
 20
304.6885214951014
 30
0.0
 10
382.0004974510437
 20
304.6723639871014
 30
0.0
 10
382.0374702102936
 20
304.6676848308514
 30
0.0
 10
382.0563133874437
 20
304.6667605204014
 30
0.0
  0
SPLINE
  5
15CDD
330
1F
100
AcDbEntity
  8
0
100
AcDbSpline
210
0.0
220
0.0
230
1.0
 70
     8
 71
     3
 72
    13
 73
     9
 74
     0
 42
0.0000000001
 43
0.0000000001
 40
0.0
 40
0.0
 40
0.0
 40
0.0
 40
0.289376575
 40
0.5483134705000002
 40
0.6677431900000002
 40
0.781768166
 40
0.8919070379
 40
1.0
 40
1.0
 40
1.0
 40
1.0
 10
373.3064644168436
 20
310.3255691739513
 30
0.0
 10
373.3064644168436
 20
310.2634846565014
 30
0.0
 10
373.3158230211437
 20
310.1454939317014
 30
0.0
 10
373.3568113043936
 20
310.0066884990014
 30
0.0
 10
373.4065757361936
 20
309.9131371994014
 30
0.0
 10
373.4504659301936
 20
309.8535485294513
 30
0.0
 10
373.5014732360436
 20
309.8033180203013
 30
0.0
 10
373.5400974120937
 20
309.7763833230514
 30
0.0
 10
373.5601815209437
 20
309.7647882464514
 30
0.0
  0
SPLINE
  5
15CDE
330
1F
100
AcDbEntity
  8
0
100
AcDbSpline
210
0.0
220
0.0
230
1.0
 70
     8
 71
     3
 72
    20
 73
    16
 74
     0
 42
0.0000000001
 43
0.0000000001
 40
0.0
 40
0.0
 40
0.0
 40
0.0
 40
0.0469543134
 40
0.0764972057
 40
0.089049284
 40
0.0932038608
 40
0.1135293241
 40
0.1485396037
 40
0.1965770687
 40
0.2560595753
 40
0.3254990133
 40
0.4035276833000001
 40
0.5811308178
 40
0.7819874495999999
 40
1.0
 40
1.0
 40
1.0
 40
1.0
 10
390.2825472775936
 20
302.1169696636514
 30
0.0
 10
390.2822114353936
 20
302.1181886438014
 30
0.0
 10
390.2814781696437
 20
302.1204759118514
 30
0.0
 10
390.2810970723436
 20
302.1219286242013
 30
0.0
 10
390.2801437317937
 20
302.1241446817514
 30
0.0
 10
390.2807677283937
 20
302.1230182099014
 30
0.0
 10
390.2814104477936
 20
302.1218075126014
 30
0.0
 10
390.2829014618936
 20
302.1192911802514
 30
0.0
 10
390.2849340483936
 20
302.1161064885014
 30
0.0
 10
390.2876754685436
 20
302.1121793705014
 30
0.0
 10
390.2910711470436
 20
302.1077671261014
 30
0.0
 10
390.2967781688936
 20
302.1011202009514
 30
0.0
 10
390.3055645487937
 20
302.0924906941514
 30
0.0
 10
390.3180755711436
 20
302.0823811114514
 30
0.0
 10
390.3275439909937
 20
302.0762034667513
 30
0.0
 10
390.3326281944936
 20
302.0732681669013
 30
0.0
  0
SPLINE
  5
15CDF
330
1F
100
AcDbEntity
  8
0
100
AcDbSpline
210
0.0
220
0.0
230
1.0
 70
     8
 71
     3
 72
    10
 73
     6
 74
     0
 42
0.0000000001
 43
0.0000000001
 40
0.0
 40
0.0
 40
0.0
 40
0.0
 40
0.3272398269
 40
0.6156876859000002
 40
1.0
 40
1.0
 40
1.0
 40
1.0
 10
389.8326366779937
 20
301.2072378652014
 30
0.0
 10
389.8259927176437
 20
301.2110736707514
 30
0.0
 10
389.8129458143936
 20
301.2173894478014
 30
0.0
 10
389.7906995956436
 20
301.2248768422514
 30
0.0
 10
389.7748979273936
 20
301.2272729586014
 30
0.0
 10
389.7658882030436
 20
301.2272581487514
 30
0.0
  0
SPLINE
  5
15CE0
330
1F
100
AcDbEntity
  8
0
100
AcDbSpline
210
0.0
220
0.0
230
1.0
 70
     8
 71
     3
 72
    18
 73
    14
 74
     0
 42
0.0000000001
 43
0.0000000001
 40
0.0
 40
0.0
 40
0.0
 40
0.0
 40
0.0432665007
 40
0.0877614406
 40
0.1345502029
 40
0.1844296187
 40
0.294932014
 40
0.3559679513
 40
0.4205517265000001
 40
0.5586059367000002
 40
0.7048870948000002
 40
0.8539346881
 40
1.0
 40
1.0
 40
1.0
 40
1.0
 10
385.6543385533437
 20
306.2175865954514
 30
0.0
 10
385.6188820355936
 20
306.2380589650014
 30
0.0
 10
385.5423082974437
 20
306.2720220973514
 30
0.0
 10
385.4170408635437
 20
306.2988826577014
 30
0.0
 10
385.2827619389936
 20
306.3018602305514
 30
0.0
 10
385.0880672438936
 20
306.2732757038014
 30
0.0
 10
384.8901236991936
 20
306.1965810370014
 30
0.0
 10
384.6970745125937
 20
306.0837865296514
 30
0.0
 10
384.4946967260936
 20
305.9371601899514
 30
0.0
 10
384.2545620680937
 20
305.7082359344014
 30
0.0
 10
384.0023626695936
 20
305.3831347161014
 30
0.0
 10
383.7938403543437
 20
305.0197720687514
 30
0.0
 10
383.6893634517936
 20
304.7595320762514
 30
0.0
 10
383.6479433580937
 20
304.6276648243014
 30
0.0
  0
SPLINE
  5
15CE1
330
1F
100
AcDbEntity
  8
0
100
AcDbSpline
210
0.0
220
0.0
230
1.0
 70
     8
 71
     3
 72
    10
 73
     6
 74
     0
 42
0.0000000001
 43
0.0000000001
 40
0.0
 40
0.0
 40
0.0
 40
0.0
 40
0.5154734949000001
 40
0.7598894195
 40
1.0
 40
1.0
 40
1.0
 40
1.0
 10
380.9040881648936
 20
305.6270537042514
 30
0.0
 10
380.8557948643436
 20
305.6229377967515
 30
0.0
 10
380.7830874715437
 20
305.6258013307513
 30
0.0
 10
380.6923302932436
 20
305.6515451540513
 30
0.0
 10
380.6508826331936
 20
305.6710676792514
 30
0.0
 10
380.6313285394936
 20
305.6823527039514
 30
0.0
  0
SPLINE
  5
15CE2
330
1F
100
AcDbEntity
  8
0
100
AcDbSpline
210
0.0
220
0.0
230
1.0
 70
     8
 71
     3
 72
    14
 73
    10
 74
     0
 42
0.0000000001
 43
0.0000000001
 40
0.0
 40
0.0
 40
0.0
 40
0.0
 40
0.1080494981
 40
0.2181355472
 40
0.332113847
 40
0.451494185
 40
0.5774371835000001
 40
0.7107352647000002
 40
1.0
 40
1.0
 40
1.0
 40
1.0
 10
388.8539687046936
 20
300.3288961938014
 30
0.0
 10
388.8826626328436
 20
300.3123248577514
 30
0.0
 10
388.9435806529936
 20
300.2837763737014
 30
0.0
 10
389.0421598575437
 20
300.2564961450513
 30
0.0
 10
389.1472461276436
 20
300.2447742397513
 30
0.0
 10
389.2577149934437
 20
300.2485831533014
 30
0.0
 10
389.3725326962936
 20
300.2678406966514
 30
0.0
 10
389.5342939013436
 20
300.3150024127514
 30
0.0
 10
389.6522523898937
 20
300.3711392228514
 30
0.0
 10
389.7290761281436
 20
300.4154931640514
 30
0.0
  0
SPLINE
  5
15CE3
330
1F
100
AcDbEntity
  8
0
100
AcDbSpline
210
0.0
220
0.0
230
1.0
 70
     8
 71
     3
 72
    19
 73
    15
 74
     0
 42
0.0000000001
 43
0.0000000001
 40
0.0
 40
0.0
 40
0.0
 40
0.0
 40
0.0428628759
 40
0.0871880019
 40
0.1342013475
 40
0.1847667149
 40
0.2393574528
 40
0.2980915191
 40
0.3608088554
 40
0.4271120813
 40
0.5679628456
 40
0.7149160118000001
 40
0.8611680857999999
 40
1.0
 40
1.0
 40
1.0
 40
1.0
 10
383.2954715133936
 20
307.0309584352014
 30
0.0
 10
383.2670704855436
 20
307.0473554558514
 30
0.0
 10
383.2051666143436
 20
307.0740278993514
 30
0.0
 10
383.1034169145436
 20
307.0926249075014
 30
0.0
 10
382.9942105440437
 20
307.0901634862014
 30
0.0
 10
382.8795867904937
 20
307.0669973351014
 30
0.0
 10
382.7614518157437
 20
307.0237509540514
 30
0.0
 10
382.6417319519936
 20
306.9613307547514
 30
0.0
 10
382.5224351428937
 20
306.8808129801014
 30
0.0
 10
382.3634696084937
 20
306.7486039234514
 30
0.0
 10
382.1798764439436
 20
306.5474403395013
 30
0.0
 10
381.9962258131937
 20
306.2692502923514
 30
0.0
 10
381.8571145795436
 20
305.9680625709014
 30
0.0
 10
381.7978782369936
 20
305.7567855445014
 30
0.0
 10
381.7792503867437
 20
305.6522109390514
 30
0.0
  0
SPLINE
  5
15CE4
330
1F
100
AcDbEntity
  8
0
100
AcDbSpline
210
0.0
220
0.0
230
1.0
 70
     8
 71
     3
 72
     9
 73
     5
 74
     0
 42
0.0000000001
 43
0.0000000001
 40
0.0
 40
0.0
 40
0.0
 40
0.0
 40
0.2578031051
 40
1.0
 40
1.0
 40
1.0
 40
1.0
 10
381.7709970092437
 20
305.6010410418514
 30
0.0
 10
381.7685989208936
 20
305.5844208109014
 30
0.0
 10
381.7603574066437
 20
305.5198078422014
 30
0.0
 10
381.7564258243436
 20
305.4546118304014
 30
0.0
 10
381.7564258243436
 20
305.4062678529013
 30
0.0
  0
SPLINE
  5
15CE5
330
1F
100
AcDbEntity
  8
0
100
AcDbSpline
210
0.0
220
0.0
230
1.0
 70
     8
 71
     3
 72
     9
 73
     5
 74
     0
 42
0.0000000001
 43
0.0000000001
 40
0.0
 40
0.0
 40
0.0
 40
0.0
 40
0.4851699604000001
 40
1.0
 40
1.0
 40
1.0
 40
1.0
 10
381.9059416571936
 20
304.7989709024514
 30
0.0
 10
381.8894226100436
 20
304.8144561591514
 30
0.0
 10
381.8590573713436
 20
304.8504568156513
 30
0.0
 10
381.8367695448936
 20
304.8918172657014
 30
0.0
 10
381.8272491082436
 20
304.9138770059014
 30
0.0
  0
LINE
  5
15CE6
330
1F
100
AcDbEntity
  8
0
100
AcDbLine
 10
382.7859729816436
 20
307.0250206272514
 30
0.0
 11
382.4545567925936
 21
307.1847390181014
 31
0.0
  0
SPLINE
  5
15CE7
330
1F
100
AcDbEntity
  8
0
100
AcDbSpline
210
0.0
220
0.0
230
1.0
 70
     8
 71
     3
 72
     9
 73
     5
 74
     0
 42
0.0000000001
 43
0.0000000001
 40
0.0
 40
0.0
 40
0.0
 40
0.0
 40
0.5355211993
 40
1.0
 40
1.0
 40
1.0
 40
1.0
 10
382.8077414946936
 20
307.3794808959513
 30
0.0
 10
382.8229502464936
 20
307.3867016309014
 30
0.0
 10
382.8530249797437
 20
307.3971836734514
 30
0.0
 10
382.8853261446436
 20
307.3975150773514
 30
0.0
 10
382.8996035598937
 20
307.3944515813514
 30
0.0
  0
SPLINE
  5
15CE8
330
1F
100
AcDbEntity
  8
0
100
AcDbSpline
210
0.0
220
0.0
230
1.0
 70
     8
 71
     3
 72
    10
 73
     6
 74
     0
 42
0.0000000001
 43
0.0000000001
 40
0.0
 40
0.0
 40
0.0
 40
0.0
 40
0.5261017114000001
 40
0.7710836135
 40
1.0
 40
1.0
 40
1.0
 40
1.0
 10
382.0942162572936
 20
306.8895654550014
 30
0.0
 10
382.1358879272937
 20
306.9440964580514
 30
0.0
 10
382.2042381545437
 20
307.0190762751014
 30
0.0
 10
382.3064979411936
 20
307.1003801179014
 30
0.0
 10
382.3592769273938
 20
307.1329784883015
 30
0.0
 10
382.3857493365437
 20
307.1467978720014
 30
0.0
  0
SPLINE
  5
15CE9
330
1F
100
AcDbEntity
  8
0
100
AcDbSpline
210
0.0
220
0.0
230
1.0
 70
     8
 71
     3
 72
     9
 73
     5
 74
     0
 42
0.0000000001
 43
0.0000000001
 40
0.0
 40
0.0
 40
0.0
 40
0.0
 40
0.4972027790000002
 40
1.0
 40
1.0
 40
1.0
 40
1.0
 10
381.8266851981436
 20
306.3868116032514
 30
0.0
 10
381.8565996820436
 20
306.4766653316014
 30
0.0
 10
381.9328882672436
 20
306.6522690657014
 30
0.0
 10
382.0360355257436
 20
306.8134960720014
 30
0.0
 10
382.0942159831937
 20
306.8895655423514
 30
0.0
  0
SPLINE
  5
15CEA
330
1F
100
AcDbEntity
  8
0
100
AcDbSpline
210
0.0
220
0.0
230
1.0
 70
     8
 71
     3
 72
    15
 73
    11
 74
     0
 42
0.0000000001
 43
0.0000000001
 40
0.0
 40
0.0
 40
0.0
 40
0.0
 40
0.1086919585
 40
0.230256478
 40
0.3559929714
 40
0.4808635987
 40
0.6065928865
 40
0.7349745008
 40
0.8663707052999999
 40
1.0
 40
1.0
 40
1.0
 40
1.0
 10
381.7852434581936
 20
306.0808000162014
 30
0.0
 10
381.7870869666436
 20
306.0914580862014
 30
0.0
 10
381.7881542652937
 20
306.1144703264514
 30
0.0
 10
381.7872258471936
 20
306.1498429148514
 30
0.0
 10
381.7873196415437
 20
306.1869249691514
 30
0.0
 10
381.7912122013936
 20
306.2242248858014
 30
0.0
 10
381.7975039987936
 20
306.2614192830514
 30
0.0
 10
381.8050861165436
 20
306.2990290513014
 30
0.0
 10
381.8135354239436
 20
306.3372588264014
 30
0.0
 10
381.8200312866937
 20
306.3628270472014
 30
0.0
 10
381.8235508613436
 20
306.3756507609515
 30
0.0
  0
SPLINE
  5
15CEB
330
1F
100
AcDbEntity
  8
0
100
AcDbSpline
210
0.0
220
0.0
230
1.0
 70
     8
 71
     3
 72
     9
 73
     5
 74
     0
 42
0.0000000001
 43
0.0000000001
 40
0.0
 40
0.0
 40
0.0
 40
0.0
 40
0.470328479
 40
1.0
 40
1.0
 40
1.0
 40
1.0
 10
381.8272490315936
 20
304.9138770934514
 30
0.0
 10
381.8107521477937
 20
304.9518980321514
 30
0.0
 10
381.7875984955937
 20
305.0380311140514
 30
0.0
 10
381.7835705966436
 20
305.1266154344514
 30
0.0
 10
381.7852435257937
 20
305.1732604014014
 30
0.0
  0
SPLINE
  5
15CEC
330
1F
100
AcDbEntity
  8
0
100
AcDbSpline
210
0.0
220
0.0
230
1.0
 70
     8
 71
     3
 72
    20
 73
    16
 74
     0
 42
0.0000000001
 43
0.0000000001
 40
0.0
 40
0.0
 40
0.0
 40
0.0
 40
0.0428304382
 40
0.0874311927
 40
0.1352348669
 40
0.1871648992
 40
0.243635893
 40
0.3046191786
 40
0.3697431195
 40
0.4383805781000002
 40
0.5826322509000002
 40
0.7296936340000002
 40
0.8711903676999998
 40
0.937600102
 40
1.0
 40
1.0
 40
1.0
 40
1.0
 10
374.7851517139437
 20
311.8865482784514
 30
0.0
 10
374.7549520900936
 20
311.9039833041014
 30
0.0
 10
374.6883830438437
 20
311.9316562854014
 30
0.0
 10
374.5784900830936
 20
311.9477615539014
 30
0.0
 10
374.4604844680436
 20
311.9390650290513
 30
0.0
 10
374.3369800059937
 20
311.9062619777514
 30
0.0
 10
374.2104089529436
 20
311.8503181696514
 30
0.0
 10
374.0832934668437
 20
311.7725415617014
 30
0.0
 10
373.9581895242437
 20
311.6746160298514
 30
0.0
 10
373.7949508273936
 20
311.5173585023514
 30
0.0
 10
373.6135337933437
 20
311.2850353468013
 30
0.0
 10
373.4451388705937
 20
310.9738288338014
 30
0.0
 10
373.3519425690437
 20
310.6983214961514
 30
0.0
 10
373.3133649480436
 20
310.4813203812014
 30
0.0
 10
373.3064644168436
 20
310.3763731479514
 30
0.0
 10
373.3064644168436
 20
310.3255691739513
 30
0.0
  0
SPLINE
  5
15CED
330
1F
100
AcDbEntity
  8
0
100
AcDbSpline
210
0.0
220
0.0
230
1.0
 70
     8
 71
     3
 72
     9
 73
     5
 74
     0
 42
0.0000000001
 43
0.0000000001
 40
0.0
 40
0.0
 40
0.0
 40
0.0
 40
0.4915222251
 40
1.0
 40
1.0
 40
1.0
 40
1.0
 10
381.8561991983436
 20
307.8041687305514
 30
0.0
 10
381.8836505772436
 20
307.7883260383014
 30
0.0
 10
381.9358709784936
 20
307.7493821720513
 30
0.0
 10
381.9778850655436
 20
307.6997338904014
 30
0.0
 10
381.9964982580937
 20
307.6727409134514
 30
0.0
  0
SPLINE
  5
15CEE
330
1F
100
AcDbEntity
  8
0
100
AcDbSpline
210
0.0
220
0.0
230
1.0
 70
     8
 71
     3
 72
     9
 73
     5
 74
     0
 42
0.0000000001
 43
0.0000000001
 40
0.0
 40
0.0
 40
0.0
 40
0.0
 40
0.2613311764
 40
1.0
 40
1.0
 40
1.0
 40
1.0
 10
381.7564258243436
 20
305.4062678529013
 30
0.0
 10
381.7564258243436
 20
305.3870928371514
 30
0.0
 10
381.7581973335936
 20
305.3137453847014
 30
0.0
 10
381.7672521426936
 20
305.2404496388014
 30
0.0
 10
381.7790553786936
 20
305.1875510960514
 30
0.0
  0
SPLINE
  5
15CEF
330
1F
100
AcDbEntity
  8
0
100
AcDbSpline
210
0.0
220
0.0
230
1.0
 70
     8
 71
     3
 72
     9
 73
     5
 74
     0
 42
0.0000000001
 43
0.0000000001
 40
0.0
 40
0.0
 40
0.0
 40
0.0
 40
0.5188079722
 40
1.0
 40
1.0
 40
1.0
 40
1.0
 10
381.7848662687437
 20
305.1632623457014
 30
0.0
 10
381.7947817774436
 20
305.1244873898514
 30
0.0
 10
381.8195624781436
 20
305.0510122286514
 30
0.0
 10
381.8574966950436
 20
304.9831636173514
 30
0.0
 10
381.8790327235936
 20
304.9529285902014
 30
0.0
  0
SPLINE
  5
15CF0
330
1F
100
AcDbEntity
  8
0
100
AcDbSpline
210
0.0
220
0.0
230
1.0
 70
     8
 71
     3
 72
     9
 73
     5
 74
     0
 42
0.0000000001
 43
0.0000000001
 40
0.0
 40
0.0
 40
0.0
 40
0.0
 40
0.5078900235
 40
1.0
 40
1.0
 40
1.0
 40
1.0
 10
381.8790327235936
 20
304.9529285902014
 30
0.0
 10
381.8980352900437
 20
304.9262503608014
 30
0.0
 10
381.9406510909936
 20
304.8771546301014
 30
0.0
 10
381.9930105025936
 20
304.8384679253514
 30
0.0
 10
382.0204951250436
 20
304.8225999812514
 30
0.0
  0
SPLINE
  5
15CF1
330
1F
100
AcDbEntity
  8
0
100
AcDbSpline
210
0.0
220
0.0
230
1.0
 70
     8
 71
     3
 72
    10
 73
     6
 74
     0
 42
0.0000000001
 43
0.0000000001
 40
0.0
 40
0.0
 40
0.0
 40
0.0
 40
0.2327141698
 40
0.4783858517000001
 40
1.0
 40
1.0
 40
1.0
 40
1.0
 10
389.7290761281436
 20
300.4154931640514
 30
0.0
 10
389.7815250609436
 20
300.4457743887514
 30
0.0
 10
389.8859813853436
 20
300.5139954565513
 30
0.0
 10
390.0896713578437
 20
300.6763794306014
 30
0.0
 10
390.2290391527436
 20
300.8210041900014
 30
0.0
 10
390.3159637150936
 20
300.9252707243514
 30
0.0
  0
SPLINE
  5
15CF2
330
1F
100
AcDbEntity
  8
0
100
AcDbSpline
210
0.0
220
0.0
230
1.0
 70
     8
 71
     3
 72
    16
 73
    12
 74
     0
 42
0.0000000001
 43
0.0000000001
 40
0.0
 40
0.0
 40
0.0
 40
0.0
 40
0.1570567547
 40
0.3067741105
 40
0.4471947538000001
 40
0.5769969917000001
 40
0.6957309301000001
 40
0.8041035435999999
 40
0.9042496440999999
 40
0.9524260871999999
 40
1.0
 40
1.0
 40
1.0
 40
1.0
 10
390.8180625787437
 20
301.7945151501514
 30
0.0
 10
390.8488243279436
 20
301.8781090065014
 30
0.0
 10
390.9011732676437
 20
302.0443943732514
 30
0.0
 10
390.9516763975436
 20
302.2934451550014
 30
0.0
 10
390.9714674767436
 20
302.5314177513513
 30
0.0
 10
390.9599463520436
 20
302.7524957405514
 30
0.0
 10
390.9170788221937
 20
302.9513949905013
 30
0.0
 10
390.8434059995436
 20
303.1232024430014
 30
0.0
 10
390.7556807525936
 20
303.2415048033513
 30
0.0
 10
390.6727424729937
 20
303.3158667734014
 30
0.0
 10
390.6275510873937
 20
303.3463565618514
 30
0.0
 10
390.6041862421436
 20
303.3598502421514
 30
0.0
  0
SPLINE
  5
15CF3
330
1F
100
AcDbEntity
  8
0
100
AcDbSpline
210
0.0
220
0.0
230
1.0
 70
     8
 71
     3
 72
    10
 73
     6
 74
     0
 42
0.0000000001
 43
0.0000000001
 40
0.0
 40
0.0
 40
0.0
 40
0.0
 40
0.5144595948
 40
0.7592696930000002
 40
1.0
 40
1.0
 40
1.0
 40
1.0
 10
383.6479433580937
 20
303.4700720465014
 30
0.0
 10
383.6772964658436
 20
303.4105156435014
 30
0.0
 10
383.7319044259436
 20
303.3271048348514
 30
0.0
 10
383.8256086966437
 20
303.2377829277014
 30
0.0
 10
383.8774592902436
 20
303.2020113325014
 30
0.0
 10
383.9043675850437
 20
303.1864797096514
 30
0.0
  0
SPLINE
  5
15CF4
330
1F
100
AcDbEntity
  8
0
100
AcDbSpline
210
0.0
220
0.0
230
1.0
 70
     8
 71
     3
 72
    12
 73
     8
 74
     0
 42
0.0000000001
 43
0.0000000001
 40
0.0
 40
0.0
 40
0.0
 40
0.0
 40
0.2114917288
 40
0.3273059463
 40
0.4498970047000002
 40
0.7140575211
 40
1.0
 40
1.0
 40
1.0
 40
1.0
 10
383.6479433580937
 20
303.4700712333014
 30
0.0
 10
383.6110838567936
 20
303.5448577045014
 30
0.0
 10
383.5714490538937
 20
303.6695730565014
 30
0.0
 10
383.5460011336436
 20
303.8452158234014
 30
0.0
 10
383.5373355572937
 20
304.0434933781014
 30
0.0
 10
383.5621875810436
 20
304.3087888173014
 30
0.0
 10
383.6141624714437
 20
304.5201181654014
 30
0.0
 10
383.6479433580937
 20
304.6276648243014
 30
0.0
  0
SPLINE
  5
15CF5
330
1F
100
AcDbEntity
  8
0
100
AcDbSpline
210
0.0
220
0.0
230
1.0
 70
     8
 71
     3
 72
     9
 73
     5
 74
     0
 42
0.0000000001
 43
0.0000000001
 40
0.0
 40
0.0
 40
0.0
 40
0.0
 40
0.2403148012
 40
1.0
 40
1.0
 40
1.0
 40
1.0
 10
382.0563137594937
 20
304.6667622006014
 30
0.0
 10
382.0640234573937
 20
304.6656734659514
 30
0.0
 10
382.0962890789936
 20
304.6624638712013
 30
0.0
 10
382.1289660582436
 20
304.6643328291014
 30
0.0
 10
382.1533119056936
 20
304.6679546651513
 30
0.0
  0
SPLINE
  5
15CF6
330
1F
100
AcDbEntity
  8
0
100
AcDbSpline
210
0.0
220
0.0
230
1.0
 70
     8
 71
     3
 72
     9
 73
     5
 74
     0
 42
0.0000000001
 43
0.0000000001
 40
0.0
 40
0.0
 40
0.0
 40
0.0
 40
0.2406801706
 40
1.0
 40
1.0
 40
1.0
 40
1.0
 10
382.1533119056936
 20
304.6679546651513
 30
0.0
 10
382.1608039824436
 20
304.6690692320014
 30
0.0
 10
382.1918009471937
 20
304.6745736643014
 30
0.0
 10
382.2221691505436
 20
304.6834105257014
 30
0.0
 10
382.2446346482936
 20
304.6915566364514
 30
0.0
  0
SPLINE
  5
15CF7
330
1F
100
AcDbEntity
  8
0
100
AcDbSpline
210
0.0
220
0.0
230
1.0
 70
     8
 71
     3
 72
     9
 73
     5
 74
     0
 42
0.0000000001
 43
0.0000000001
 40
0.0
 40
0.0
 40
0.0
 40
0.0
 40
0.2652495855
 40
1.0
 40
1.0
 40
1.0
 40
1.0
 10
383.0302531613936
 20
307.3426980960014
 30
0.0
 10
383.0280320506937
 20
307.3497636867514
 30
0.0
 10
383.0185324051437
 20
307.3760090132514
 30
0.0
 10
383.0040345461936
 20
307.4006346979014
 30
0.0
 10
382.9905363998936
 20
307.4160850800514
 30
0.0
  0
LINE
  5
15CF8
330
1F
100
AcDbEntity
  8
0
100
AcDbLine
 10
381.7852455915436
 20
306.0808012890514
 30
0.0
 11
381.7852427974936
 21
305.6753146469014
 31
0.0
  0
LINE
  5
15CF9
330
1F
100
AcDbEntity
  8
0
100
AcDbLine
 10
383.1006249991436
 20
307.0830658308014
 30
0.0
 11
383.0302531393436
 21
307.3426981722513
 31
0.0
  0
SPLINE
  5
15CFA
330
1F
100
AcDbEntity
  8
0
100
AcDbSpline
210
0.0
220
0.0
230
1.0
 70
     8
 71
     3
 72
    11
 73
     7
 74
     0
 42
0.0000000001
 43
0.0000000001
 40
0.0
 40
0.0
 40
0.0
 40
0.0
 40
0.2771791909
 40
0.5341979009000001
 40
0.7735432657
 40
1.0
 40
1.0
 40
1.0
 40
1.0
 10
380.5174227792936
 20
306.1375303822514
 30
0.0
 10
380.5211734168436
 20
306.1095578061514
 30
0.0
 10
380.5318277666937
 20
306.0560042828513
 30
0.0
 10
380.5589751553436
 20
305.9816824758514
 30
0.0
 10
380.5964523354937
 20
305.9178323322015
 30
0.0
 10
380.6286315244936
 20
305.8823997746014
 30
0.0
 10
380.6459642248936
 20
305.8671925292514
 30
0.0
  0
SPLINE
  5
15CFB
330
1F
100
AcDbEntity
  8
0
100
AcDbSpline
210
0.0
220
0.0
230
1.0
 70
     8
 71
     3
 72
    17
 73
    13
 74
     0
 42
0.0000000001
 43
0.0000000001
 40
0.0
 40
0.0
 40
0.0
 40
0.0
 40
0.0428603478
 40
0.0874902734
 40
0.1353238197
 40
0.1872882885
 40
0.3045533046
 40
0.4382245295000002
 40
0.5825707789
 40
0.7297287552
 40
0.8713172717
 40
1.0
 40
1.0
 40
1.0
 40
1.0
 10
393.3681888155937
 20
299.1660401774513
 30
0.0
 10
393.3558586949436
 20
299.1731518802514
 30
0.0
 10
393.3324932664437
 20
299.1910418986514
 30
0.0
 10
393.3043709300437
 20
299.2265972163514
 30
0.0
 10
393.2833590790936
 20
299.2700872503013
 30
0.0
 10
393.2644842636436
 20
299.3400069758014
 30
0.0
 10
393.2621182795437
 20
299.4419534649014
 30
0.0
 10
393.2885088142437
 20
299.5713327321014
 30
0.0
 10
393.3416789638437
 20
299.7029261378514
 30
0.0
 10
393.4173722017936
 20
299.8260323366514
 30
0.0
 10
393.5093270865436
 20
299.9306486857514
 30
0.0
 10
393.5811706133437
 20
299.9859325872014
 30
0.0
 10
393.6181810619436
 20
300.0073004520014
 30
0.0
  0
SPLINE
  5
15CFC
330
1F
100
AcDbEntity
  8
0
100
AcDbSpline
210
0.0
220
0.0
230
1.0
 70
     8
 71
     3
 72
     9
 73
     5
 74
     0
 42
0.0000000001
 43
0.0000000001
 40
0.0
 40
0.0
 40
0.0
 40
0.0
 40
0.4735151309
 40
1.0
 40
1.0
 40
1.0
 40
1.0
 10
382.9357685666436
 20
307.3781224484014
 30
0.0
 10
382.9485208426937
 20
307.3692448479514
 30
0.0
 10
382.9715195325436
 20
307.3445194145014
 30
0.0
 10
382.9842925660936
 20
307.3136669061514
 30
0.0
 10
382.9888560782936
 20
307.2970042670014
 30
0.0
  0
LINE
  5
15CFD
330
1F
100
AcDbEntity
  8
0
100
AcDbLine
 10
382.9888560782936
 20
307.2970042670014
 30
0.0
 11
382.8814235022937
 21
307.3251852983014
 31
0.0
  0
LINE
  5
15CFE
330
1F
100
AcDbEntity
  8
0
100
AcDbLine
 10
382.8814235022937
 20
307.3251852983014
 30
0.0
 11
382.7991326130436
 21
307.3467569007513
 31
0.0
  0
LINE
  5
15CFF
330
1F
100
AcDbEntity
  8
0
100
AcDbLine
 10
382.7991326130436
 20
307.3467569007513
 30
0.0
 11
382.7646807294936
 21
307.3557851437513
 31
0.0
  0
LINE
  5
15D00
330
1F
100
AcDbEntity
  8
0
100
AcDbLine
 10
382.9357975712436
 20
307.3781043300514
 30
0.0
 11
382.8978551374436
 21
307.3867927572515
 31
0.0
  0
LINE
  5
15D01
330
1F
100
AcDbEntity
  8
0
100
AcDbLine
 10
382.8978551374436
 20
307.3867927572515
 30
0.0
 11
382.8623953681936
 21
307.3949125871514
 31
0.0
  0
SPLINE
  5
15D02
330
1F
100
AcDbEntity
  8
0
100
AcDbSpline
210
0.0
220
0.0
230
1.0
 70
     8
 71
     3
 72
    13
 73
     9
 74
     0
 42
0.0000000001
 43
0.0000000001
 40
0.0
 40
0.0
 40
0.0
 40
0.0
 40
0.1080935499
 40
0.2182326555
 40
0.3322564816
 40
0.4516855995000002
 40
0.7106244339
 40
1.0
 40
1.0
 40
1.0
 40
1.0
 10
380.6313285394936
 20
305.6823527039514
 30
0.0
 10
380.6112407556936
 20
305.6939457309514
 30
0.0
 10
380.5726092674937
 20
305.7208777727514
 30
0.0
 10
380.5215930656936
 20
305.7711080754514
 30
0.0
 10
380.4776924932937
 20
305.8306968264014
 30
0.0
 10
380.4279189101436
 20
305.9242540720014
 30
0.0
 10
380.3869220086936
 20
306.0630704680514
 30
0.0
 10
380.3775616683437
 20
306.1810718879014
 30
0.0
 10
380.3775616683437
 20
306.2431616287514
 30
0.0
  0
SPLINE
  5
15D03
330
1F
100
AcDbEntity
  8
0
100
AcDbSpline
210
0.0
220
0.0
230
1.0
 70
     8
 71
     3
 72
    14
 73
    10
 74
     0
 42
0.0000000001
 43
0.0000000001
 40
0.0
 40
0.0
 40
0.0
 40
0.0
 40
0.108049449
 40
0.2181354601
 40
0.3321137417
 40
0.4514940902000001
 40
0.5774371297
 40
0.7107352606
 40
1.0
 40
1.0
 40
1.0
 40
1.0
 10
390.6041862421436
 20
303.3598502421514
 30
0.0
 10
390.5754922338437
 20
303.3764216241514
 30
0.0
 10
390.5145740306437
 20
303.4049701734014
 30
0.0
 10
390.4159945162437
 20
303.4322504117513
 30
0.0
 10
390.3109079040937
 20
303.4439722358514
 30
0.0
 10
390.2004386737436
 20
303.4401631376014
 30
0.0
 10
390.0856206035436
 20
303.4209053139514
 30
0.0
 10
389.9238589279436
 20
303.3737431571513
 30
0.0
 10
389.8059001164936
 20
303.3176060390514
 30
0.0
 10
389.7290761281436
 20
303.2732519534514
 30
0.0
  0
SPLINE
  5
15D04
330
1F
100
AcDbEntity
  8
0
100
AcDbSpline
210
0.0
220
0.0
230
1.0
 70
     8
 71
     3
 72
    11
 73
     7
 74
     0
 42
0.0000000001
 43
0.0000000001
 40
0.0
 40
0.0
 40
0.0
 40
0.0
 40
0.2226527489
 40
0.4579572735000001
 40
0.7156537425
 40
1.0
 40
1.0
 40
1.0
 40
1.0
 10
390.3326226709436
 20
302.0732585991514
 30
0.0
 10
390.3179918591437
 20
302.0817043526014
 30
0.0
 10
390.2850124524936
 20
302.0944718926514
 30
0.0
 10
390.2302511501936
 20
302.0987605933513
 30
0.0
 10
390.1716273726937
 20
302.0888601166014
 30
0.0
 10
390.1329882320937
 20
302.0740452512514
 30
0.0
 10
390.1135089441936
 20
302.0647708461014
 30
0.0
  0
SPLINE
  5
15D05
330
1F
100
AcDbEntity
  8
0
100
AcDbSpline
210
0.0
220
0.0
230
1.0
 70
     8
 71
     3
 72
    18
 73
    14
 74
     0
 42
0.0000000001
 43
0.0000000001
 40
0.0
 40
0.0
 40
0.0
 40
0.0
 40
0.0117026854
 40
0.0307662421
 40
0.0575562307
 40
0.0919035209
 40
0.1335248285
 40
0.1821481922
 40
0.2992635943
 40
0.441209251
 40
0.6062231435000001
 40
0.7928971946
 40
1.0
 40
1.0
 40
1.0
 40
1.0
 10
375.8182445699936
 20
310.9548288341013
 30
0.0
 10
375.8191984800437
 20
310.9543376188514
 30
0.0
 10
375.8209557373437
 20
310.9519175922514
 30
0.0
 10
375.8230450277436
 20
310.9471412829514
 30
0.0
 10
375.8252798500937
 20
310.9400915946514
 30
0.0
 10
375.8275692507436
 20
310.9309631344514
 30
0.0
 10
375.8299254011936
 20
310.9197787858513
 30
0.0
 10
375.8333392846436
 20
310.9010765643014
 30
0.0
 10
375.8375670836437
 20
310.8731786770014
 30
0.0
 10
375.8425247254436
 20
310.8346138867014
 30
0.0
 10
375.8475818290436
 20
310.7896368795514
 30
0.0
 10
375.8527109465437
 20
310.7386610033513
 30
0.0
 10
375.8559976148436
 20
310.7027071051514
 30
0.0
 10
375.8576591954936
 20
310.6837917894014
 30
0.0
  0
SPLINE
  5
15D06
330
1F
100
AcDbEntity
  8
0
100
AcDbSpline
210
0.0
220
0.0
230
1.0
 70
     8
 71
     3
 72
    12
 73
     8
 74
     0
 42
0.0000000001
 43
0.0000000001
 40
0.0
 40
0.0
 40
0.0
 40
0.0
 40
0.1078984065
 40
0.2183406513
 40
0.4523306576
 40
0.7117284407
 40
1.0
 40
1.0
 40
1.0
 40
1.0
 10
380.4189550881936
 20
308.6329805651514
 30
0.0
 10
380.3990594850437
 20
308.6428294166014
 30
0.0
 10
380.3570916430937
 20
308.6594941718014
 30
0.0
 10
380.2659576241937
 20
308.6798880613514
 30
0.0
 10
380.1399910636936
 20
308.6791113450514
 30
0.0
 10
379.9831193386436
 20
308.6386599234014
 30
0.0
 10
379.8809095938436
 20
308.5896132080014
 30
0.0
 10
379.8295444186436
 20
308.5599576873014
 30
0.0
  0
SPLINE
  5
15D07
330
1F
100
AcDbEntity
  8
0
100
AcDbSpline
210
0.0
220
0.0
230
1.0
 70
     8
 71
     3
 72
     9
 73
     5
 74
     0
 42
0.0000000001
 43
0.0000000001
 40
0.0
 40
0.0
 40
0.0
 40
0.0
 40
0.5090346132
 40
1.0
 40
1.0
 40
1.0
 40
1.0
 10
382.0928096342436
 20
304.7216439727014
 30
0.0
 10
382.0718015506436
 20
304.7227431091514
 30
0.0
 10
382.0306077372936
 20
304.7287114449014
 30
0.0
 10
381.9914634994936
 20
304.7430424473514
 30
0.0
 10
381.9732921999936
 20
304.7520696788514
 30
0.0
  0
SPLINE
  5
15D08
330
1F
100
AcDbEntity
  8
0
100
AcDbSpline
210
0.0
220
0.0
230
1.0
 70
     8
 71
     3
 72
     9
 73
     5
 74
     0
 42
0.0000000001
 43
0.0000000001
 40
0.0
 40
0.0
 40
0.0
 40
0.0
 40
0.2492689847
 40
1.0
 40
1.0
 40
1.0
 40
1.0
 10
381.9732921999936
 20
304.7520696788514
 30
0.0
 10
381.9671726083437
 20
304.7551098010514
 30
0.0
 10
381.9430745358437
 20
304.7682005245514
 30
0.0
 10
381.9209558268436
 20
304.7848963454514
 30
0.0
 10
381.9059416571936
 20
304.7989709024514
 30
0.0
  0
SPLINE
  5
15D09
330
1F
100
AcDbEntity
  8
0
100
AcDbSpline
210
0.0
220
0.0
230
1.0
 70
     8
 71
     3
 72
     9
 73
     5
 74
     0
 42
0.0000000001
 43
0.0000000001
 40
0.0
 40
0.0
 40
0.0
 40
0.0
 40
0.261258814
 40
1.0
 40
1.0
 40
1.0
 40
1.0
 10
382.1915374653436
 20
304.7225694636515
 30
0.0
 10
382.1830275741937
 20
304.7212105133514
 30
0.0
 10
382.1502979642436
 20
304.7171337835514
 30
0.0
 10
382.1168771466938
 20
304.7178282710013
 30
0.0
 10
382.0928099078436
 20
304.7216426904014
 30
0.0
  0
LINE
  5
15D0A
330
1F
100
AcDbEntity
  8
0
100
AcDbLine
 10
382.0928099078436
 20
304.7216426904014
 30
0.0
 11
382.0044342428436
 21
304.8056380843513
 31
0.0
  0
LINE
  5
15D0B
330
1F
100
AcDbEntity
  8
0
100
AcDbLine
 10
382.0044342428436
 20
304.8056380843513
 30
0.0
 11
381.9560317695937
 21
304.8516340122014
 31
0.0
  0
LINE
  5
15D0C
330
1F
100
AcDbEntity
  8
0
100
AcDbLine
 10
381.9560317695937
 20
304.8516340122014
 30
0.0
 11
381.8572964035437
 21
304.9454379334514
 31
0.0
  0
LINE
  5
15D0D
330
1F
100
AcDbEntity
  8
0
100
AcDbLine
 10
381.8572964035437
 20
304.9454379334514
 30
0.0
 11
381.8004042073436
 21
304.9994718503514
 31
0.0
  0
SPLINE
  5
15D0E
330
1F
100
AcDbEntity
  8
0
100
AcDbSpline
210
0.0
220
0.0
230
1.0
 70
     8
 71
     3
 72
    23
 73
    19
 74
     0
 42
0.0000000001
 43
0.0000000001
 40
0.0
 40
0.0
 40
0.0
 40
0.0
 40
0.0623768861
 40
0.1287464064
 40
0.1983398176
 40
0.2703266957999999
 40
0.3437148617
 40
0.417456204
 40
0.4904919729000001
 40
0.5617894132
 40
0.6303979195000001
 40
0.6954980935
 40
0.7564571220000002
 40
0.8129054224999999
 40
0.8648178208
 40
0.9126030795
 40
0.9571858951999999
 40
1.0
 40
1.0
 40
1.0
 40
1.0
 10
389.7290761281436
 20
303.2732519534514
 30
0.0
 10
389.6662206588437
 20
303.2369625479514
 30
0.0
 10
389.5413276617936
 20
303.1534791393514
 30
0.0
 10
389.3644413899437
 20
303.0046565216514
 30
0.0
 10
389.1953656391436
 20
302.8310502545014
 30
0.0
 10
389.0377108716937
 20
302.6364432440514
 30
0.0
 10
388.8948054579937
 20
302.4249283165014
 30
0.0
 10
388.7696962203436
 20
302.2010313618014
 30
0.0
 10
388.6650531763436
 20
301.9695256736014
 30
0.0
 10
388.5831196896937
 20
301.7353369898513
 30
0.0
 10
388.5256231110937
 20
301.5034447280013
 30
0.0
 10
388.4937939087436
 20
301.2787390416014
 30
0.0
 10
388.4883669030437
 20
301.0659133932013
 30
0.0
 10
388.5095548492437
 20
300.8693614549013
 30
0.0
 10
388.5571448331436
 20
300.6931178941514
 30
0.0
 10
388.6306645306937
 20
300.5408996685014
 30
0.0
 10
388.7290714112436
 20
300.4164400071514
 30
0.0
 10
388.8108293584937
 20
300.3538100570514
 30
0.0
 10
388.8539687046936
 20
300.3288961938014
 30
0.0
  0
SPLINE
  5
15D0F
330
1F
100
AcDbEntity
  8
0
100
AcDbSpline
210
0.0
220
0.0
230
1.0
 70
     8
 71
     3
 72
    26
 73
    22
 74
     0
 42
0.0000000001
 43
0.0000000001
 40
0.0
 40
0.0
 40
0.0
 40
0.0
 40
0.066456678
 40
0.1380859968
 40
0.2134520436
 40
0.2908946006
 40
0.368548989
 40
0.4445539985
 40
0.5171629728
 40
0.5849063641
 40
0.6467663090000002
 40
0.7023916652
 40
0.752361953
 40
0.7757907835
 40
0.7985606612
 40
0.821052521
 40
0.8436731234999999
 40
0.8668125672
 40
0.8908224887999999
 40
0.9424478780999999
 40
1.0
 40
1.0
 40
1.0
 40
1.0
 10
389.7290775737436
 20
302.6608758105013
 30
0.0
 10
389.6820785947436
 20
302.6337410994013
 30
0.0
 10
389.5891664761936
 20
302.5689409196013
 30
0.0
 10
389.4608688989436
 20
302.4503010868514
 30
0.0
 10
389.3421025286436
 20
302.3101517115514
 30
0.0
 10
389.2370657655936
 20
302.1535353695514
 30
0.0
 10
389.1494793676936
 20
301.9859408464514
 30
0.0
 10
389.0824424188937
 20
301.8133244796014
 30
0.0
 10
389.0383315250436
 20
301.6417629916014
 30
0.0
 10
389.0187066861937
 20
301.4772402074513
 30
0.0
 10
389.0243877449436
 20
301.3253343953014
 30
0.0
 10
389.0554491622936
 20
301.1911645879014
 30
0.0
 10
389.1035710360936
 20
301.0958402468014
 30
0.0
 10
389.1539283255937
 20
301.0352034252514
 30
0.0
 10
389.1962812601437
 20
300.9980456885514
 30
0.0
 10
389.2436172915936
 20
300.9687067473513
 30
0.0
 10
389.2954347254936
 20
300.9475085525514
 30
0.0
 10
389.3511695727436
 20
300.9345976676014
 30
0.0
 10
389.4318704387436
 20
300.9284686690514
 30
0.0
 10
389.5408615382436
 20
300.9434875706014
 30
0.0
 10
389.6248906505937
 20
300.9751342611514
 30
0.0
 10
389.6673245588436
 20
300.9953377337014
 30
0.0
  0
SPLINE
  5
15D10
330
1F
100
AcDbEntity
  8
0
100
AcDbSpline
210
0.0
220
0.0
230
1.0
 70
     8
 71
     3
 72
     9
 73
     5
 74
     0
 42
0.0000000001
 43
0.0000000001
 40
0.0
 40
0.0
 40
0.0
 40
0.0
 40
0.2406107882
 40
1.0
 40
1.0
 40
1.0
 40
1.0
 10
389.7290775727936
 20
301.0278709757014
 30
0.0
 10
389.7421444845436
 20
301.0354151156014
 30
0.0
 10
389.7956883995937
 20
301.0680844215014
 30
0.0
 10
389.8462045719936
 20
301.1056241506513
 30
0.0
 10
389.8827713474937
 20
301.1361291041514
 30
0.0
  0
SPLINE
  5
15D11
330
1F
100
AcDbEntity
  8
0
100
AcDbSpline
210
0.0
220
0.0
230
1.0
 70
     8
 71
     3
 72
    18
 73
    14
 74
     0
 42
0.0000000001
 43
0.0000000001
 40
0.0
 40
0.0
 40
0.0
 40
0.0
 40
0.1578127854
 40
0.3000484206
 40
0.4258822539000002
 40
0.4834536718
 40
0.5382110474
 40
0.5911105649000002
 40
0.6432945504
 40
0.6959869838
 40
0.7503415625
 40
0.8674843759999999
 40
1.0
 40
1.0
 40
1.0
 40
1.0
 10
390.4127799219436
 20
302.0308222948014
 30
0.0
 10
390.4253096760936
 20
302.0928859539014
 30
0.0
 10
390.4407222818936
 20
302.2129127286014
 30
0.0
 10
390.4322075218936
 20
302.3845592786014
 30
0.0
 10
390.3963581768936
 20
302.5119177290014
 30
0.0
 10
390.3504826798937
 20
302.5961542602014
 30
0.0
 10
390.3094927855936
 20
302.6486721035514
 30
0.0
 10
390.2613939952436
 20
302.6916373097514
 30
0.0
 10
390.2067756769936
 20
302.7243866929514
 30
0.0
 10
390.1464253769436
 20
302.7464490490014
 30
0.0
 10
390.0573346216436
 20
302.7617069940514
 30
0.0
 10
389.9338139882936
 20
302.7509372534014
 30
0.0
 10
389.8388338001437
 20
302.7162641611014
 30
0.0
 10
389.7908305895937
 20
302.6934090534514
 30
0.0
  0
SPLINE
  5
15D12
330
1F
100
AcDbEntity
  8
0
100
AcDbSpline
210
0.0
220
0.0
230
1.0
 70
     8
 71
     3
 72
    17
 73
    13
 74
     0
 42
0.0000000001
 43
0.0000000001
 40
0.0
 40
0.0
 40
0.0
 40
0.0
 40
0.1246538934
 40
0.2613355485
 40
0.4041581292
 40
0.5462914058
 40
0.6809974583000002
 40
0.8027327983999999
 40
0.8577587334
 40
0.9087164395999998
 40
0.955898327
 40
1.0
 40
1.0
 40
1.0
 40
1.0
 10
390.0826324362436
 20
302.0485042246014
 30
0.0
 10
390.0487597596936
 20
302.0289479425013
 30
0.0
 10
389.9826801042936
 20
301.9792159139014
 30
0.0
 10
389.8964476534937
 20
301.8855110318014
 30
0.0
 10
389.8231009397936
 20
301.7747560064014
 30
0.0
 10
389.7677901490437
 20
301.6546558319014
 30
0.0
 10
389.7343376080436
 20
301.5335642110013
 30
0.0
 10
389.7263347384937
 20
301.4352908456514
 30
0.0
 10
389.7339910244436
 20
301.3640542754514
 30
0.0
 10
389.7459287595936
 20
301.3172982500514
 30
0.0
 10
389.7641134501936
 20
301.2762913425014
 30
0.0
 10
389.7807298016437
 20
301.2526598749513
 30
0.0
 10
389.7899093668436
 20
301.2423051346514
 30
0.0
  0
SPLINE
  5
15D13
330
1F
100
AcDbEntity
  8
0
100
AcDbSpline
210
0.0
220
0.0
230
1.0
 70
     8
 71
     3
 72
     9
 73
     5
 74
     0
 42
0.0000000001
 43
0.0000000001
 40
0.0
 40
0.0
 40
0.0
 40
0.0
 40
0.2542228251
 40
1.0
 40
1.0
 40
1.0
 40
1.0
 10
389.7899093668436
 20
301.2423051346514
 30
0.0
 10
389.7930241077937
 20
301.2387916421014
 30
0.0
 10
389.8057929707436
 20
301.2254394718514
 30
0.0
 10
389.8207130432437
 20
301.2141336352514
 30
0.0
 10
389.8326422015437
 20
301.2072474329514
 30
0.0
  0
SPLINE
  5
15D14
330
1F
100
AcDbEntity
  8
0
100
AcDbSpline
210
0.0
220
0.0
230
1.0
 70
     8
 71
     3
 72
    20
 73
    16
 74
     0
 42
0.0000000001
 43
0.0000000001
 40
0.0
 40
0.0
 40
0.0
 40
0.0
 40
0.0623990711
 40
0.128806316
 40
0.2702977861
 40
0.4173552677
 40
0.5616079520000002
 40
0.6302471847
 40
0.6953728898
 40
0.7563576856000001
 40
0.8128303278
 40
0.8647617198999999
 40
0.912566542
 40
0.9571686059999999
 40
1.0
 40
1.0
 40
1.0
 40
1.0
 10
380.3775616683437
 20
306.2431616287514
 30
0.0
 10
380.3775616683437
 20
306.2939637492513
 30
0.0
 10
380.3844612414437
 20
306.3989058697513
 30
0.0
 10
380.4230357312436
 20
306.6158952117014
 30
0.0
 10
380.5162220126437
 20
306.8913884599013
 30
0.0
 10
380.6846033677937
 20
307.2025854462014
 30
0.0
 10
380.8660100991436
 20
307.4349064742014
 30
0.0
 10
381.0292413134936
 20
307.5921694464514
 30
0.0
 10
381.1543418058936
 20
307.6901001290514
 30
0.0
 10
381.2814544161437
 20
307.7678822975014
 30
0.0
 10
381.4080218939436
 20
307.8238349463014
 30
0.0
 10
381.5315243500436
 20
307.8566476358014
 30
0.0
 10
381.6495291432936
 20
307.8653538010514
 30
0.0
 10
381.7594247494936
 20
307.8492649534514
 30
0.0
 10
381.8259968868936
 20
307.8215990362013
 30
0.0
 10
381.8561991983436
 20
307.8041687305514
 30
0.0
  0
SPLINE
  5
15D15
330
1F
100
AcDbEntity
  8
0
100
AcDbSpline
210
0.0
220
0.0
230
1.0
 70
     8
 71
     3
 72
    11
 73
     7
 74
     0
 42
0.0000000001
 43
0.0000000001
 40
0.0
 40
0.0
 40
0.0
 40
0.0
 40
0.289634932
 40
0.5490971568000002
 40
0.7822253437000001
 40
1.0
 40
1.0
 40
1.0
 40
1.0
 10
393.6181810619436
 20
300.0073004520014
 30
0.0
 10
393.6401150661437
 20
300.0199639796014
 30
0.0
 10
393.6837631628936
 20
300.0407196953013
 30
0.0
 10
393.7508402950436
 20
300.0569306281014
 30
0.0
 10
393.8137947292436
 20
300.0553498714014
 30
0.0
 10
393.8516771861437
 20
300.0415728569513
 30
0.0
 10
393.8681733083437
 20
300.0320583094514
 30
0.0
  0
SPLINE
  5
15D16
330
1F
100
AcDbEntity
  8
0
100
AcDbSpline
210
0.0
220
0.0
230
1.0
 70
     8
 71
     3
 72
     9
 73
     5
 74
     0
 42
0.0000000001
 43
0.0000000001
 40
0.0
 40
0.0
 40
0.0
 40
0.0
 40
0.4686754031
 40
1.0
 40
1.0
 40
1.0
 40
1.0
 10
381.6442865263937
 20
307.7471398370513
 30
0.0
 10
381.6271671201936
 20
307.7473097535513
 30
0.0
 10
381.5904984130936
 20
307.7416322827014
 30
0.0
 10
381.5566694201436
 20
307.7270678647514
 30
0.0
 10
381.5395734613436
 20
307.7178793797014
 30
0.0
  0
SPLINE
  5
15D17
330
1F
100
AcDbEntity
  8
0
100
AcDbSpline
210
0.0
220
0.0
230
1.0
 70
     8
 71
     3
 72
     9
 73
     5
 74
     0
 42
0.0000000001
 43
0.0000000001
 40
0.0
 40
0.0
 40
0.0
 40
0.0
 40
0.5151166411000001
 40
1.0
 40
1.0
 40
1.0
 40
1.0
 10
381.7748873568937
 20
304.8705417828013
 30
0.0
 10
381.7848533302936
 20
304.8470297878514
 30
0.0
 10
381.8082791928936
 20
304.8029504442014
 30
0.0
 10
381.8404452018437
 20
304.7646120454514
 30
0.0
 10
381.8579726055937
 20
304.7481614894014
 30
0.0
  0
SPLINE
  5
15D18
330
1F
100
AcDbEntity
  8
0
100
AcDbSpline
210
0.0
220
0.0
230
1.0
 70
     8
 71
     3
 72
     9
 73
     5
 74
     0
 42
0.0000000001
 43
0.0000000001
 40
0.0
 40
0.0
 40
0.0
 40
0.0
 40
0.2337268962
 40
1.0
 40
1.0
 40
1.0
 40
1.0
 10
381.0891759498937
 20
307.4695332082514
 30
0.0
 10
381.0714086006937
 20
307.4599738262514
 30
0.0
 10
380.9973650017937
 20
307.4154082071514
 30
0.0
 10
380.9317151693436
 20
307.3577106519514
 30
0.0
 10
380.8863057787436
 20
307.3096139141514
 30
0.0
  0
SPLINE
  5
15D19
330
1F
100
AcDbEntity
  8
0
100
AcDbSpline
210
0.0
220
0.0
230
1.0
 70
     8
 71
     3
 72
     9
 73
     5
 74
     0
 42
0.0000000001
 43
0.0000000001
 40
0.0
 40
0.0
 40
0.0
 40
0.0
 40
0.5313107228
 40
1.0
 40
1.0
 40
1.0
 40
1.0
 10
381.7351755024936
 20
305.1461975846514
 30
0.0
 10
381.7324923475936
 20
305.0966400288014
 30
0.0
 10
381.7349863253436
 20
305.0026763618514
 30
0.0
 10
381.7579939081436
 20
304.9109313991014
 30
0.0
 10
381.7748875583437
 20
304.8705414569014
 30
0.0
  0
LINE
  5
15D1A
330
1F
100
AcDbEntity
  8
0
100
AcDbLine
 10
381.7356187765936
 20
305.6059926352514
 30
0.0
 11
381.7354246616436
 21
305.4523078787513
 31
0.0
  0
LINE
  5
15D1B
330
1F
100
AcDbEntity
  8
0
100
AcDbLine
 10
381.7354246616436
 20
305.4523078787513
 30
0.0
 11
381.7353664459436
 21
305.4062906570014
 31
0.0
  0
LINE
  5
15D1C
330
1F
100
AcDbEntity
  8
0
100
AcDbLine
 10
381.7353664459436
 20
305.4062906570014
 30
0.0
 11
381.7351755039936
 21
305.1461976298514
 31
0.0
  0
LINE
  5
15D1D
330
1F
100
AcDbEntity
  8
0
100
AcDbLine
 10
381.7351629866936
 20
306.0513824620013
 30
0.0
 11
381.7356193335937
 21
305.6059929281014
 31
0.0
  0
SPLINE
  5
15D1E
330
1F
100
AcDbEntity
  8
0
100
AcDbSpline
210
0.0
220
0.0
230
1.0
 70
     8
 71
     3
 72
     9
 73
     5
 74
     0
 42
0.0000000001
 43
0.0000000001
 40
0.0
 40
0.0
 40
0.0
 40
0.0
 40
0.5202750981000001
 40
1.0
 40
1.0
 40
1.0
 40
1.0
 10
381.7749526569937
 20
306.3874052256013
 30
0.0
 10
381.7596009784937
 20
306.3305785388014
 30
0.0
 10
381.7372206401437
 20
306.2192565447014
 30
0.0
 10
381.7322272581936
 20
306.1055787606014
 30
0.0
 10
381.7351626245436
 20
306.0513822384014
 30
0.0
  0
SPLINE
  5
15D1F
330
1F
100
AcDbEntity
  8
0
100
AcDbSpline
210
0.0
220
0.0
230
1.0
 70
     8
 71
     3
 72
     9
 73
     5
 74
     0
 42
0.0000000001
 43
0.0000000001
 40
0.0
 40
0.0
 40
0.0
 40
0.0
 40
0.5019208745000002
 40
1.0
 40
1.0
 40
1.0
 40
1.0
 10
382.0569559363436
 20
306.9282386195014
 30
0.0
 10
381.9971137881936
 20
306.8488563941514
 30
0.0
 10
381.8912043423936
 20
306.6804092320014
 30
0.0
 10
381.8118322988436
 20
306.4979133585514
 30
0.0
 10
381.7805249909437
 20
306.4043624801513
 30
0.0
  0
SPLINE
  5
15D20
330
1F
100
AcDbEntity
  8
0
100
AcDbSpline
210
0.0
220
0.0
230
1.0
 70
     8
 71
     3
 72
    10
 73
     6
 74
     0
 42
0.0000000001
 43
0.0000000001
 40
0.0
 40
0.0
 40
0.0
 40
0.0
 40
0.2311506322
 40
0.4765367522
 40
1.0
 40
1.0
 40
1.0
 40
1.0
 10
382.3529745031936
 20
307.1993560706014
 30
0.0
 10
382.3259800386936
 20
307.1839166276014
 30
0.0
 10
382.2723939805936
 20
307.1483799713015
 30
0.0
 10
382.1688567485436
 20
307.0622298237513
 30
0.0
 10
382.0993397133936
 20
306.9845685890514
 30
0.0
 10
382.0569988646436
 20
306.9282941136014
 30
0.0
  0
SPLINE
  5
15D21
330
1F
100
AcDbEntity
  8
0
100
AcDbSpline
210
0.0
220
0.0
230
1.0
 70
     8
 71
     3
 72
    10
 73
     6
 74
     0
 42
0.0000000001
 43
0.0000000001
 40
0.0
 40
0.0
 40
0.0
 40
0.0
 40
0.2501170501
 40
0.6254539002000002
 40
1.0
 40
1.0
 40
1.0
 40
1.0
 10
382.3734636233937
 20
307.2106125587014
 30
0.0
 10
382.2663817324936
 20
307.2321601651514
 30
0.0
 10
381.9986184655937
 20
307.2860953645013
 30
0.0
 10
381.5703926150437
 20
307.3717542651014
 30
0.0
 10
381.2494464059436
 20
307.4368492320514
 30
0.0
 10
381.0891778677436
 20
307.4695350165513
 30
0.0
  0
LINE
  5
15D22
330
1F
100
AcDbEntity
  8
0
100
AcDbLine
 10
382.7963493669436
 20
307.4437880386014
 30
0.0
 11
381.9814901084437
 21
307.6223359342014
 31
0.0
  0
LINE
  5
15D23
330
1F
100
AcDbEntity
  8
0
100
AcDbLine
 10
381.9814901084437
 20
307.6223359342014
 30
0.0
 11
381.9559071001436
 21
307.6279439769515
 31
0.0
  0
SPLINE
  5
15D24
330
1F
100
AcDbEntity
  8
0
100
AcDbSpline
210
0.0
220
0.0
230
1.0
 70
     8
 71
     3
 72
     9
 73
     5
 74
     0
 42
0.0000000001
 43
0.0000000001
 40
0.0
 40
0.0
 40
0.0
 40
0.0
 40
0.4946577927000001
 40
1.0
 40
1.0
 40
1.0
 40
1.0
 10
380.8863057787436
 20
307.3096139141514
 30
0.0
 10
380.8388876903436
 20
307.2596212027014
 30
0.0
 10
380.7520338591436
 20
307.1497717798514
 30
0.0
 10
380.6837935872437
 20
307.0275820966013
 30
0.0
 10
380.6545589677936
 20
306.9635477520514
 30
0.0
  0
SPLINE
  5
15D25
330
1F
100
AcDbEntity
  8
0
100
AcDbSpline
210
0.0
220
0.0
230
1.0
 70
     8
 71
     3
 72
     9
 73
     5
 74
     0
 42
0.0000000001
 43
0.0000000001
 40
0.0
 40
0.0
 40
0.0
 40
0.0
 40
0.5168425806000001
 40
1.0
 40
1.0
 40
1.0
 40
1.0
 10
380.6545589677936
 20
306.9635477520514
 30
0.0
 10
380.6187633285436
 20
306.8930815956514
 30
0.0
 10
380.5598775863436
 20
306.7511730860013
 30
0.0
 10
380.5259447883937
 20
306.6009876924514
 30
0.0
 10
380.5174227777937
 20
306.5275952724014
 30
0.0
  0
SPLINE
  5
15D26
330
1F
100
AcDbEntity
  8
0
100
AcDbSpline
210
0.0
220
0.0
230
1.0
 70
     8
 71
     3
 72
     9
 73
     5
 74
     0
 42
0.0000000001
 43
0.0000000001
 40
0.0
 40
0.0
 40
0.0
 40
0.0
 40
0.2550324645
 40
1.0
 40
1.0
 40
1.0
 40
1.0
 10
380.5174227777937
 20
306.5275952724014
 30
0.0
 10
380.5152543125436
 20
306.5103042978514
 30
0.0
 10
380.5075108542936
 20
306.4424133285013
 30
0.0
 10
380.5028587112937
 20
306.3741603615513
 30
0.0
 10
380.5013429024936
 20
306.3232791586514
 30
0.0
  0
LINE
  5
15D27
330
1F
100
AcDbEntity
  8
0
100
AcDbLine
 10
383.0447975315936
 20
307.0895523430014
 30
0.0
 11
382.9888592417436
 21
307.2970075724014
 31
0.0
  0
SPLINE
  5
15D28
330
1F
100
AcDbEntity
  8
0
100
AcDbSpline
210
0.0
220
0.0
230
1.0
 70
     8
 71
     3
 72
     9
 73
     5
 74
     0
 42
0.0000000001
 43
0.0000000001
 40
0.0
 40
0.0
 40
0.0
 40
0.0
 40
0.2561288835
 40
1.0
 40
1.0
 40
1.0
 40
1.0
 10
380.5013429024936
 20
306.3232791586514
 30
0.0
 10
380.5018341985436
 20
306.3073640592514
 30
0.0
 10
380.5045780547936
 20
306.2452571334514
 30
0.0
 10
380.5107139429936
 20
306.1832851458014
 30
0.0
 10
380.5174227792936
 20
306.1375303822514
 30
0.0
  0
SPLINE
  5
15D29
330
1F
100
AcDbEntity
  8
0
100
AcDbSpline
210
0.0
220
0.0
230
1.0
 70
     8
 71
     3
 72
     9
 73
     5
 74
     0
 42
0.0000000001
 43
0.0000000001
 40
0.0
 40
0.0
 40
0.0
 40
0.0
 40
0.532014608
 40
1.0
 40
1.0
 40
1.0
 40
1.0
 10
382.7963487614936
 20
307.4437853074514
 30
0.0
 10
382.8159171502436
 20
307.4531112167514
 30
0.0
 10
382.8549238903936
 20
307.4667342515514
 30
0.0
 10
382.8968262353436
 20
307.4667148804014
 30
0.0
 10
382.9154329393936
 20
307.4625452937514
 30
0.0
  0
DIMENSION
  5
15D54
330
1F
100
AcDbEntity
  8
DIM
100
AcDbDimension
  2
*D2
 10
445.3810582716169
 20
351.1335452691601
 30
0.0
 11
431.3810603908418
 21
352.6335452691601
 31
0.0
 70
    32
 71
     5
 42
27.99999576155006
 73
     0
 74
     0
 75
     0
  3
01
100
AcDbAlignedDimension
 13
417.3810625100668
 23
347.8585109165526
 33
0.0
 14
445.3810582716169
 24
346.6335109165527
 34
0.0
100
AcDbRotatedDimension
  0
DIMENSION
  5
15D6A
330
1F
100
AcDbEntity
  8
DIM
100
AcDbDimension
  2
*D3
 10
449.6310450779283
 20
346.1335109165527
 30
0.0
 11
448.1310450779282
 21
341.669225202267
 31
0.0
 70
    32
  1
%%C<>
 71
     5
 42
-1.0
 73
     0
 74
     0
 75
     0
  3
01
100
AcDbAlignedDimension
 13
444.2484781276005
 23
347.1335109165527
 33
0.0
 14
444.2484781276005
 24
346.1335109165527
 34
0.0
 50
90.0
100
AcDbRotatedDimension
  0
DIMENSION
  5
15D78
330
1F
100
AcDbEntity
  8
DIM
100
AcDbDimension
  2
*D4
 10
453.851466766218
 20
344.8835896334025
 30
0.0
 11
452.351466766218
 21
339.1335896334027
 31
0.0
 70
    32
  1
%%C<>
 71
     5
 42
3.499921686600032
 73
     0
 74
     0
 75
     0
  3
01
100
AcDbAlignedDimension
 13
439.3810582716668
 23
348.3835113200026
 33
0.0
 14
439.3810582716668
 24
344.8835896334026
 34
0.0
 50
90.0
100
AcDbRotatedDimension
  0
DIMENSION
  5
15D86
330
1F
100
AcDbEntity
  8
DIM
100
AcDbDimension
  2
*D5
 10
445.3810582716169
 20
341.1321363617996
 30
0.0
 11
442.3810582716418
 21
342.6321363617995
 31
0.0
 70
    32
 71
     5
 42
5.999999999949977
 73
     0
 74
     0
 75
     0
  3
01
100
AcDbAlignedDimension
 13
439.3810582716668
 23
345.3068786876205
 33
0.0
 14
445.3810582716169
 24
347.6291737372702
 34
0.0
100
AcDbRotatedDimension
  0
LINE
  5
15DA7
330
1F
100
AcDbEntity
  8
CEN
 48
2.0
100
AcDbLine
 10
446.2542890581378
 20
346.6335111185027
 30
0.0
 11
416.2958149769332
 21
346.6335111185027
 31
0.0
  0
LINE
  5
15DAE
330
1F
100
AcDbEntity
  8
CEN
 48
2.0
100
AcDbLine
 10
407.9494684059026
 20
346.6335109165527
 30
0.0
 11
402.7567671959691
 21
346.6335109165527
 31
0.0
  0
LINE
  5
15DAF
330
1F
100
AcDbEntity
  8
CEN
 48
2.0
100
AcDbLine
 10
405.3585732155307
 20
349.0878587182574
 30
0.0
 11
405.3585732155307
 21
344.3162078371666
 31
0.0
  0
ENDSEC
  0
SECTION
  2
OBJECTS
  0
DICTIONARY
  5
C
330
0
100
AcDbDictionary
281
     1
  3
ACAD_COLOR
350
4FFE
  3
ACAD_GROUP
350
D
  3
ACAD_LAYOUT
350
1A
  3
ACAD_MATERIAL
350
4FE5
  3
ACAD_MLEADERSTYLE
350
5022
  3
ACAD_MLINESTYLE
350
17
  3
ACAD_PLOTSETTINGS
350
19
  3
ACAD_PLOTSTYLENAME
350
E
  3
ACAD_RENDER_PLOT_SETTINGS
350
6537
  3
ACAD_SCALELIST
350
5000
  3
ACAD_TABLESTYLE
350
4FE3
  3
ACAD_VISUALSTYLE
350
2A
  3
ACDB_RECOMPOSE_DATA
350
50EC
  3
AcDbVariableDictionary
350
5108
  3
ASE_INDEX_DICTIONARY
350
11ACE
  0
DICTIONARY
  5
50EE
330
8
100
AcDbDictionary
280
     1
281
     1
  0
DICTIONARY
  5
50B8
330
2
100
AcDbDictionary
280
     1
281
     1
  3
ACAD_LAYERFILTERS
360
15496
  3
ACAD_LAYERSTATES
360
50B9
  3
ACLYDICTIONARY
360
15495
  0
DICTIONARY
  5
50D0
330
10
100
AcDbDictionary
280
     1
281
     1
  3
ADSK_XREC_LAYER_RECONCILED
360
50D1
  0
DICTIONARY
  5
50D2
330
3B
100
AcDbDictionary
280
     1
281
     1
  3
ADSK_XREC_LAYER_RECONCILED
360
50D3
  0
DICTIONARY
  5
50AF
330
50AE
100
AcDbDictionary
280
     1
281
     1
  3
ADSK_XREC_LAYER_RECONCILED
360
50D4
  0
DICTIONARY
  5
67C0
330
1F
100
AcDbDictionary
280
     1
281
     1
  3
ACAD_SORTENTS
360
67C1
  0
DICTIONARY
  5
15EAC
330
156B5
100
AcDbDictionary
280
     1
281
     1
  0
DICTIONARY
  5
15EB5
330
15E17
100
AcDbDictionary
280
     1
281
     1
  3
ACAD_MTEXT_2008_RT
360
15EB6
  0
DICTIONARY
  5
15EB7
330
15E5B
100
AcDbDictionary
280
     1
281
     1
  3
ACAD_MTEXT_2008_RT
360
15EB8
  0
DICTIONARY
  5
15EB9
330
15E5C
100
AcDbDictionary
280
     1
281
     1
  3
ACAD_MTEXT_2008_RT
360
15EBA
  0
DICTIONARY
  5
15EBB
330
15E81
100
AcDbDictionary
280
     1
281
     1
  3
ACAD_MTEXT_2008_RT
360
15EBC
  0
DICTIONARY
  5
15EBD
330
15E84
100
AcDbDictionary
280
     1
281
     1
  3
ACAD_MTEXT_2008_RT
360
15EBE
  0
DICTIONARY
  5
15EBF
330
15E85
100
AcDbDictionary
280
     1
281
     1
  3
ACAD_MTEXT_2008_RT
360
15EC0
  0
DICTIONARY
  5
15EC1
330
15E8F
100
AcDbDictionary
280
     1
281
     1
  3
ACAD_MTEXT_2008_RT
360
15EC2
  0
DICTIONARY
  5
15EC3
330
15E90
100
AcDbDictionary
280
     1
281
     1
  3
ACAD_MTEXT_2008_RT
360
15EC4
  0
DICTIONARY
  5
15EC5
330
15E91
100
AcDbDictionary
280
     1
281
     1
  3
ACAD_MTEXT_2008_RT
360
15EC6
  0
DICTIONARY
  5
15EC7
330
15E9F
100
AcDbDictionary
280
     1
281
     1
  3
ACAD_MTEXT_2008_RT
360
15EC8
  0
DICTIONARY
  5
15EC9
330
15EA0
100
AcDbDictionary
280
     1
281
     1
  3
ACAD_MTEXT_2008_RT
360
15ECA
  0
DICTIONARY
  5
15ECB
330
15EA1
100
AcDbDictionary
280
     1
281
     1
  3
ACAD_MTEXT_2008_RT
360
15ECC
  0
DICTIONARY
  5
15EB3
330
12C4B
100
AcDbDictionary
280
     1
281
     1
  3
ACAD_MTEXT_2008_RT
360
15EB4
  0
DICTIONARY
  5
4FFE
102
{ACAD_REACTORS
330
C
102
}
330
C
100
AcDbDictionary
281
     1
  0
DICTIONARY
  5
D
102
{ACAD_REACTORS
330
C
102
}
330
C
100
AcDbDictionary
281
     1
  0
DICTIONARY
  5
1A
102
{ACAD_REACTORS
330
C
102
}
330
C
100
AcDbDictionary
281
     1
  3
Layout1
350
1E
  3
Layout2
350
26
  3
Model
350
22
  0
DICTIONARY
  5
4FE5
102
{ACAD_REACTORS
330
C
102
}
330
C
100
AcDbDictionary
281
     1
  3
ByBlock
350
4FEE
  3
ByLayer
350
4FE6
  3
Global
350
4FF6
  0
DICTIONARY
  5
5022
102
{ACAD_REACTORS
330
C
102
}
330
C
100
AcDbDictionary
281
     1
  3
Standard
350
5023
  0
DICTIONARY
  5
17
102
{ACAD_REACTORS
330
C
102
}
330
C
100
AcDbDictionary
281
     1
  3
Standard
350
18
  0
DICTIONARY
  5
19
102
{ACAD_REACTORS
330
C
102
}
330
C
100
AcDbDictionary
281
     1
  0
ACDBDICTIONARYWDFLT
  5
E
102
{ACAD_REACTORS
330
C
102
}
330
C
100
AcDbDictionary
281
     1
  3
Normal
350
F
100
AcDbDictionaryWithDefault
340
F
  0
DICTIONARY
  5
6537
102
{ACAD_REACTORS
330
C
102
}
330
C
100
AcDbDictionary
281
     1
  3
{1DC63513-1B1A-422F-9880-65CFD2B8D533}
350
6538
  0
DICTIONARY
  5
5000
102
{ACAD_REACTORS
330
C
102
}
330
C
100
AcDbDictionary
281
     1
  3
A0
350
5001
  3
A1
350
5002
  3
A2
350
5003
  3
A3
350
5004
  3
A4
350
5005
  3
A5
350
5006
  3
A6
350
5007
  3
A7
350
5008
  3
A8
350
5009
  3
A9
350
500A
  3
B0
350
500B
  3
B1
350
500C
  3
B2
350
500D
  3
B3
350
500E
  3
B4
350
500F
  3
B5
350
5010
  3
B6
350
5011
  3
B7
350
5012
  3
B8
350
5013
  3
B9
350
5014
  3
C0
350
5015
  3
C1
350
5016
  3
C2
350
5017
  3
C3
350
5018
  3
C4
350
5019
  3
C5
350
501A
  3
C6
350
501B
  3
C7
350
501C
  3
C8
350
501D
  3
C9
350
501E
  3
D0
350
501F
  3
D1
350
5020
  3
D2
350
5021
  0
DICTIONARY
  5
4FE3
102
{ACAD_REACTORS
330
C
102
}
330
C
100
AcDbDictionary
281
     1
  3
Standard
350
4FFF
  0
DICTIONARY
  5
2A
102
{ACAD_REACTORS
330
C
102
}
330
C
100
AcDbDictionary
281
     1
  3
2dWireframe
350
2F
  3
3D Hidden
350
31
  3
3dWireframe
350
30
  3
Basic
350
32
  3
Brighten
350
36
  3
ColorChange
350
3A
  3
Conceptual
350
34
  3
Dim
350
35
  3
Facepattern
350
39
  3
Flat
350
2B
  3
FlatWithEdges
350
2C
  3
Gouraud
350
2D
  3
GouraudWithEdges
350
2E
  3
Linepattern
350
38
  3
Realistic
350
33
  3
Thicken
350
37
  0
XRECORD
  5
50EC
102
{ACAD_REACTORS
330
C
102
}
330
C
100
AcDbXrecord
280
     1
 90
        1
330
4FFF
330
12C4B
330
15E17
330
15E5B
330
15E5C
330
15E81
330
15E84
330
15E85
330
15E8F
330
15E90
330
15E91
330
15E9F
330
15EA0
330
15EA1
  0
DICTIONARY
  5
5108
102
{ACAD_REACTORS
330
C
102
}
330
C
100
AcDbDictionary
281
     1
  3
CANNOSCALE
350
510B
  3
CMLEADERSTYLE
350
510A
  3
CTABLESTYLE
350
5109
  3
DIMASSOC
350
510E
  3
INDEXCTL
350
510D
  3
LIGHTINGUNITS
350
15EB1
  3
MSLTSCALE
350
15EB0
  3
SORTENTS
350
510C
  0
DICTIONARY
  5
11ACE
102
{ACAD_REACTORS
330
C
102
}
330
C
100
AcDbDictionary
281
     1
  3
ASEBlockHierarchyIndexRecord
350
11ACF
1001
DCO15
1040
1901191674.187
  0
DICTIONARY
  5
15496
102
{ACAD_REACTORS
330
50B8
102
}
330
50B8
100
AcDbDictionary
281
     1
  0
DICTIONARY
  5
50B9
102
{ACAD_REACTORS
330
50B8
102
}
330
50B8
100
AcDbDictionary
281
     1
  0
DICTIONARY
  5
15495
102
{ACAD_REACTORS
330
50B8
102
}
330
50B8
100
AcDbDictionary
281
     1
1001
ACAD
1000
<All
  0
XRECORD
  5
50D1
102
{ACAD_REACTORS
330
50D0
102
}
330
50D0
100
AcDbXrecord
280
     1
290
     1
  0
XRECORD
  5
50D3
102
{ACAD_REACTORS
330
50D2
102
}
330
50D2
100
AcDbXrecord
280
     1
290
     1
  0
XRECORD
  5
50D4
102
{ACAD_REACTORS
330
50AF
102
}
330
50AF
100
AcDbXrecord
280
     1
290
     1
  0
SORTENTSTABLE
  5
67C1
102
{ACAD_REACTORS
330
67C0
102
}
330
67C0
100
AcDbSortentsTable
330
1F
331
28AE
  5
2A38
331
2EE7
  5
2F93
331
2C65
  5
2EE7
331
3943
  5
4842
331
3895
  5
3943
331
35D8
  5
3807
331
4842
  5
4E94
331
3807
  5
3895
331
2F93
  5
2FDE
331
13093
  5
12B2B
331
35C8
  5
35D8
331
12C4B
  5
1307F
331
2FDE
  5
35C8
  0
XRECORD
  5
15EB6
102
{ACAD_REACTORS
330
15EB5
102
}
330
15EB5
100
AcDbXrecord
280
     1
 40
1527.0
  1
\pxqc;BQ LUO
  0
XRECORD
  5
15EB8
102
{ACAD_REACTORS
330
15EB7
102
}
330
15EB7
100
AcDbXrecord
280
     1
 40
3624820.0
  1
\pxqc;档案员{\H0.7x;\P\Fromans|c134;Filing Clerk\fFangSong_GB2312|b0|i0|c134|p49; }
  0
XRECORD
  5
15EBA
102
{ACAD_REACTORS
330
15EB9
102
}
330
15EB9
100
AcDbXrecord
280
     1
 40
2054623.0
  1
\pxqc;日期{\Fromans|c134;/Date}
  0
XRECORD
  5
15EBC
102
{ACAD_REACTORS
330
15EBB
102
}
330
15EBB
100
AcDbXrecord
280
     1
 40
1836818.0
  1
\pxsm0.7;{\fFangSong_GB2312|b0|i0|c134|p49;标准化}\PStand.
  0
XRECORD
  5
15EBE
102
{ACAD_REACTORS
330
15EBD
102
}
330
15EBD
100
AcDbXrecord
280
     1
 40
1476476.0
  1
\pxsm0.7;签名\P{\Fromans|c134;Signature} 
  0
XRECORD
  5
15EC0
102
{ACAD_REACTORS
330
15EBF
102
}
330
15EBF
100
AcDbXrecord
280
     1
 40
1354713.0
  1
\pxsm0.7,qc;处数\P{\Fromans|c134;Number }
  0
XRECORD
  5
15EC2
102
{ACAD_REACTORS
330
15EC1
102
}
330
15EC1
100
AcDbXrecord
280
     1
 40
1692934.0
  1
\pxsm0.7;标记\P{\Fromans|c134;Mark}
  0
XRECORD
  5
15EC4
102
{ACAD_REACTORS
330
15EC3
102
}
330
15EC3
100
AcDbXrecord
280
     1
 40
1391581.0
  1
\pxsm0.7;审核\P{\Fromans|c134;Checked}
  0
XRECORD
  5
15EC6
102
{ACAD_REACTORS
330
15EC5
102
}
330
15EC5
100
AcDbXrecord
280
     1
 40
1546703.0
  1
\pxsm0.7;绘图\P{\Fromans|c134;Drawn\Ftxt|c134; }
  0
XRECORD
  5
15EC8
102
{ACAD_REACTORS
330
15EC7
102
}
330
15EC7
100
AcDbXrecord
280
     1
 40
1293614.0
  1
\pxsm0.7;批准\P{\Fromans|c134;Approved}
  0
XRECORD
  5
15ECA
102
{ACAD_REACTORS
330
15EC9
102
}
330
15EC9
100
AcDbXrecord
280
     1
 40
1583427.0
  1
\pxsm0.7;工艺\P{\Fromans|c134;Process}
  0
XRECORD
  5
15ECC
102
{ACAD_REACTORS
330
15ECB
102
}
330
15ECB
100
AcDbXrecord
280
     1
 40
1435325.0
  1
\pxsm0.7;日期\P{\Fromans|c134;Date}
  0
XRECORD
  5
15EB4
102
{ACAD_REACTORS
330
15EB3
102
}
330
15EB3
100
AcDbXrecord
280
     1
 40
252113679.0
  1
\A1;\pxql;{\f仿宋_GB2312|b0|i0|c134|p49;技术参数}:\P\pq*;- {\f仿宋_GB2312|b0|i0|c134|p49;材料}: {\f仿宋_GB2312|b0|i0|c134|p49;铜合金}\P- {\f仿宋_GB2312|b0|i0|c134|p49;表面处理}: {\f仿宋_GB2312|b0|i0|c134|p49;镀银}\P\pql;- {\f仿宋_GB2312|b0|i0|c134|p49;额定电流}: 7.5A\P- {\f仿宋_GB23
  1
12|b0|i0|c134|p49;接触电阻}: ≤3mΩ\P- {\f仿宋_GB2312|b0|i0|c134|p49;可插拔次数}: {\f仿宋_GB2312|b0|i0|c134|p49;≥}500\P\pq*;\P\pql;Technical specification:\P- Material: copper alloy\P- Surface: hard-silver plated\P- Rated current: 7.5A\P- Contact resistance: ≤3mΩ\P
  1
- Mating cycles: {\f仿宋_GB2312|b0|i0|c134|p49;≥}500
  0
LAYOUT
  5
1E
102
{ACAD_REACTORS
330
1A
102
}
330
1A
100
AcDbPlotSettings
  1

  2
none_device
  4

  6

 40
0.0
 41
0.0
 42
0.0
 43
0.0
 44
0.0
 45
0.0
 46
0.0
 47
0.0
 48
0.0
 49
0.0
140
0.0
141
0.0
142
1.0
143
1.0
 70
   688
 72
     0
 73
     0
 74
     5
  7

 75
    16
147
1.0
 76
     0
 77
     2
 78
   300
148
0.0
149
0.0
100
AcDbLayout
  1
Layout1
 70
     1
 71
     1
 10
0.0
 20
0.0
 11
12.0
 21
9.0
 12
0.0
 22
0.0
 32
0.0
 14
1.000000000000000E+20
 24
1.000000000000000E+20
 34
1.000000000000000E+20
 15
-1.000000000000000E+20
 25
-1.000000000000000E+20
 35
-1.000000000000000E+20
146
0.0
 13
0.0
 23
0.0
 33
0.0
 16
1.0
 26
0.0
 36
0.0
 17
0.0
 27
1.0
 37
0.0
 76
     0
330
1B
  0
LAYOUT
  5
26
102
{ACAD_REACTORS
330
1A
102
}
330
1A
100
AcDbPlotSettings
  1

  2
none_device
  4

  6

 40
0.0
 41
0.0
 42
0.0
 43
0.0
 44
0.0
 45
0.0
 46
0.0
 47
0.0
 48
0.0
 49
0.0
140
0.0
141
0.0
142
1.0
143
1.0
 70
   688
 72
     0
 73
     0
 74
     5
  7

 75
    16
147
1.0
 76
     0
 77
     2
 78
   300
148
0.0
149
0.0
100
AcDbLayout
  1
Layout2
 70
     1
 71
     2
 10
0.0
 20
0.0
 11
0.0
 21
0.0
 12
0.0
 22
0.0
 32
0.0
 14
0.0
 24
0.0
 34
0.0
 15
0.0
 25
0.0
 35
0.0
146
0.0
 13
0.0
 23
0.0
 33
0.0
 16
1.0
 26
0.0
 36
0.0
 17
0.0
 27
1.0
 37
0.0
 76
     0
330
23
  0
LAYOUT
  5
22
102
{ACAD_REACTORS
330
1A
102
}
330
1A
100
AcDbPlotSettings
  1

  2
Adobe PDF Converter.pc3
  4
A4
  6

 40
3.174999952316281
 41
3.174999952316281
 42
3.17498779296875
 43
3.175003051757812
 44
297.0318298339844
 45
209.9733276367186
 46
0.0000000000000076
 47
1.630241740247063
 48
246.9897427644609
 49
39.36804549891383
140
544.952097801264
141
244.7492402188181
142
1.0
143
1.025046328645055
 70
  3764
 72
     1
 73
     0
 74
     4
  7
monochrome.ctb
 75
     0
147
0.9755656618192436
 76
     1
 77
     2
 78
   300
148
-246.9897427644609
149
-39.36804549891383
100
AcDbLayout
  1
Model
 70
     1
 71
     0
 10
0.0
 20
0.0
 11
12.0
 21
9.0
 12
0.0
 22
0.0
 32
0.0
 14
1.000000000000000E+20
 24
1.000000000000000E+20
 34
1.000000000000000E+20
 15
-1.000000000000000E+20
 25
-1.000000000000000E+20
 35
-1.000000000000000E+20
146
0.0
 13
0.0
 23
0.0
 33
0.0
 16
1.0
 26
0.0
 36
0.0
 17
0.0
 27
1.0
 37
0.0
 76
     0
330
1F
331
29
1001
ACAD_PSEXT
1000
Adobe PDF Converter.pc3
1000
Adobe PDF Converter
1000
桌面\*.pdf
1000

1070
     0
  0
MATERIAL
  5
4FEE
102
{ACAD_XDICTIONARY
360
4FEF
102
}
102
{ACAD_REACTORS
330
4FE5
102
}
330
4FE5
100
AcDbMaterial
  1
ByBlock
 72
     0
 43
0.0208333333333333
 43
0.0
 43
0.0
 43
0.0
 43
0.0
 43
0.0208333333333333
 43
0.0
 43
0.0
 43
0.0
 43
0.0
 43
1.0
 43
0.0
 43
0.0
 43
0.0
 43
0.0
 43
1.0
 77
     0
 47
0.0208333333333333
 47
0.0
 47
0.0
 47
0.0
 47
0.0
 47
0.0208333333333333
 47
0.0
 47
0.0
 47
0.0
 47
0.0
 47
1.0
 47
0.0
 47
0.0
 47
0.0
 47
0.0
 47
1.0
171
     0
 49
0.0208333333333333
 49
0.0
 49
0.0
 49
0.0
 49
0.0
 49
0.0208333333333333
 49
0.0
 49
0.0
 49
0.0
 49
0.0
 49
1.0
 49
0.0
 49
0.0
 49
0.0
 49
0.0
 49
1.0
175
     0
142
0.0208333333333333
142
0.0
142
0.0
142
0.0
142
0.0
142
0.0208333333333333
142
0.0
142
0.0
142
0.0
142
0.0
142
1.0
142
0.0
142
0.0
142
0.0
142
0.0
142
1.0
179
     0
144
0.0208333333333333
144
0.0
144
0.0
144
0.0
144
0.0
144
0.0208333333333333
144
0.0
144
0.0
144
0.0
144
0.0
144
1.0
144
0.0
144
0.0
144
0.0
144
0.0
144
1.0
147
0.0208333333333333
147
0.0
147
0.0
147
0.0
147
0.0
147
0.0208333333333333
147
0.0
147
0.0
147
0.0
147
0.0
147
1.0
147
0.0
147
0.0
147
0.0
147
0.0
147
1.0
  0
MATERIAL
  5
4FE6
102
{ACAD_XDICTIONARY
360
4FE7
102
}
102
{ACAD_REACTORS
330
4FE5
102
}
330
4FE5
100
AcDbMaterial
  1
ByLayer
 72
     0
 43
0.0208333333333333
 43
0.0
 43
0.0
 43
0.0
 43
0.0
 43
0.0208333333333333
 43
0.0
 43
0.0
 43
0.0
 43
0.0
 43
1.0
 43
0.0
 43
0.0
 43
0.0
 43
0.0
 43
1.0
 77
     0
 47
0.0208333333333333
 47
0.0
 47
0.0
 47
0.0
 47
0.0
 47
0.0208333333333333
 47
0.0
 47
0.0
 47
0.0
 47
0.0
 47
1.0
 47
0.0
 47
0.0
 47
0.0
 47
0.0
 47
1.0
171
     0
 49
0.0208333333333333
 49
0.0
 49
0.0
 49
0.0
 49
0.0
 49
0.0208333333333333
 49
0.0
 49
0.0
 49
0.0
 49
0.0
 49
1.0
 49
0.0
 49
0.0
 49
0.0
 49
0.0
 49
1.0
175
     0
142
0.0208333333333333
142
0.0
142
0.0
142
0.0
142
0.0
142
0.0208333333333333
142
0.0
142
0.0
142
0.0
142
0.0
142
1.0
142
0.0
142
0.0
142
0.0
142
0.0
142
1.0
179
     0
144
0.0208333333333333
144
0.0
144
0.0
144
0.0
144
0.0
144
0.0208333333333333
144
0.0
144
0.0
144
0.0
144
0.0
144
1.0
144
0.0
144
0.0
144
0.0
144
0.0
144
1.0
147
0.0208333333333333
147
0.0
147
0.0
147
0.0
147
0.0
147
0.0208333333333333
147
0.0
147
0.0
147
0.0
147
0.0
147
1.0
147
0.0
147
0.0
147
0.0
147
0.0
147
1.0
  0
MATERIAL
  5
4FF6
102
{ACAD_XDICTIONARY
360
4FF7
102
}
102
{ACAD_REACTORS
330
4FE5
102
}
330
4FE5
100
AcDbMaterial
  1
Global
 72
     0
 43
0.0208333333333333
 43
0.0
 43
0.0
 43
0.0
 43
0.0
 43
0.0208333333333333
 43
0.0
 43
0.0
 43
0.0
 43
0.0
 43
1.0
 43
0.0
 43
0.0
 43
0.0
 43
0.0
 43
1.0
 77
     0
 47
0.0208333333333333
 47
0.0
 47
0.0
 47
0.0
 47
0.0
 47
0.0208333333333333
 47
0.0
 47
0.0
 47
0.0
 47
0.0
 47
1.0
 47
0.0
 47
0.0
 47
0.0
 47
0.0
 47
1.0
171
     0
 49
0.0208333333333333
 49
0.0
 49
0.0
 49
0.0
 49
0.0
 49
0.0208333333333333
 49
0.0
 49
0.0
 49
0.0
 49
0.0
 49
1.0
 49
0.0
 49
0.0
 49
0.0
 49
0.0
 49
1.0
175
     0
142
0.0208333333333333
142
0.0
142
0.0
142
0.0
142
0.0
142
0.0208333333333333
142
0.0
142
0.0
142
0.0
142
0.0
142
1.0
142
0.0
142
0.0
142
0.0
142
0.0
142
1.0
179
     0
144
0.0208333333333333
144
0.0
144
0.0
144
0.0
144
0.0
144
0.0208333333333333
144
0.0
144
0.0
144
0.0
144
0.0
144
1.0
144
0.0
144
0.0
144
0.0
144
0.0
144
1.0
147
0.0208333333333333
147
0.0
147
0.0
147
0.0
147
0.0
147
0.0208333333333333
147
0.0
147
0.0
147
0.0
147
0.0
147
1.0
147
0.0
147
0.0
147
0.0
147
0.0
147
1.0
  0
MLEADERSTYLE
  5
5023
102
{ACAD_REACTORS
330
5022
102
}
330
5022
100
AcDbMLeaderStyle
170
     2
171
     1
172
     0
 90
        2
 40
0.0
 41
0.0
173
     1
 91
-1056964608
340
14
 92
       -2
290
     1
 42
0.09
291
     1
 43
0.36
  3
Standard
 44
0.18
300

342
11
174
     1
178
     6
175
     1
176
     0
 93
-1056964608
 45
0.18
292
     0
297
     0
 46
0.18
 94
-1056964608
 47
1.0
 49
1.0
140
1.0
293
     1
141
0.0
294
     1
177
     0
142
1.0
295
     0
296
     0
143
0.125
1001
ACAD_MLEADERVER
1070
     2
  0
MLINESTYLE
  5
18
102
{ACAD_REACTORS
330
17
102
}
330
17
100
AcDbMlineStyle
  2
STANDARD
 70
     0
  3

 62
   256
 51
90.0
 52
90.0
 71
     2
 49
0.5
 62
   256
  6
BYLAYER
 49
-0.5
 62
   256
  6
BYLAYER
  0
ACDBPLACEHOLDER
  5
F
102
{ACAD_REACTORS
330
E
102
}
330
E
  0
MENTALRAYRENDERSETTINGS
  5
6538
102
{ACAD_REACTORS
330
6537
102
}
330
6537
100
AcDbRenderSettings
 90
        2
  1
中
290
     1
290
     1
290
     1
290
     1
  1

  1
渲染质量好于“低级”。包括纹理过滤并且强制双面处于激活状态。处理中等级反锯齿和 5 反射/折射的光线跟踪深度。
 90
        0
100
AcDbMentalRayRenderSettings
 90
        2
 90
        0
 90
        1
 70
     2
 40
3.0
 40
3.0
 40
0.0500000007450581
 40
0.0500000007450581
 40
0.0500000007450581
 40
0.0500000007450581
 70
     0
290
     0
290
     1
 90
        5
 90
        5
 90
        5
290
     0
 90
      500
290
     0
 40
1.0
 90
    10000
 90
        5
 90
        5
 90
        5
290
     0
 90
      200
290
     0
290
     0
290
     0
 40
0.1
 40
1.0
 40
1500.0
 70
     0
 70
     0
 40
10.0
 70
     0
 70
     0
290
     0
  1

 90
       32
 70
     0
 90
     1048
290
     0
 40
1.0
  0
SCALE
  5
5001
102
{ACAD_REACTORS
330
5000
102
}
330
5000
100
AcDbScale
 70
     0
300
1:1
140
1.0
141
1.0
290
     1
  0
SCALE
  5
5002
102
{ACAD_REACTORS
330
5000
102
}
330
5000
100
AcDbScale
 70
     0
300
1:2
140
1.0
141
2.0
290
     0
  0
SCALE
  5
5003
102
{ACAD_REACTORS
330
5000
102
}
330
5000
100
AcDbScale
 70
     0
300
1:4
140
1.0
141
4.0
290
     0
  0
SCALE
  5
5004
102
{ACAD_REACTORS
330
5000
102
}
330
5000
100
AcDbScale
 70
     0
300
1:5
140
1.0
141
5.0
290
     0
  0
SCALE
  5
5005
102
{ACAD_REACTORS
330
5000
102
}
330
5000
100
AcDbScale
 70
     0
300
1:8
140
1.0
141
8.0
290
     0
  0
SCALE
  5
5006
102
{ACAD_REACTORS
330
5000
102
}
330
5000
100
AcDbScale
 70
     0
300
1:10
140
1.0
141
10.0
290
     0
  0
SCALE
  5
5007
102
{ACAD_REACTORS
330
5000
102
}
330
5000
100
AcDbScale
 70
     0
300
1:16
140
1.0
141
16.0
290
     0
  0
SCALE
  5
5008
102
{ACAD_REACTORS
330
5000
102
}
330
5000
100
AcDbScale
 70
     0
300
1:20
140
1.0
141
20.0
290
     0
  0
SCALE
  5
5009
102
{ACAD_REACTORS
330
5000
102
}
330
5000
100
AcDbScale
 70
     0
300
1:30
140
1.0
141
30.0
290
     0
  0
SCALE
  5
500A
102
{ACAD_REACTORS
330
5000
102
}
330
5000
100
AcDbScale
 70
     0
300
1:40
140
1.0
141
40.0
290
     0
  0
SCALE
  5
500B
102
{ACAD_REACTORS
330
5000
102
}
330
5000
100
AcDbScale
 70
     0
300
1:50
140
1.0
141
50.0
290
     0
  0
SCALE
  5
500C
102
{ACAD_REACTORS
330
5000
102
}
330
5000
100
AcDbScale
 70
     0
300
1:100
140
1.0
141
100.0
290
     0
  0
SCALE
  5
500D
102
{ACAD_REACTORS
330
5000
102
}
330
5000
100
AcDbScale
 70
     0
300
2:1
140
2.0
141
1.0
290
     0
  0
SCALE
  5
500E
102
{ACAD_REACTORS
330
5000
102
}
330
5000
100
AcDbScale
 70
     0
300
4:1
140
4.0
141
1.0
290
     0
  0
SCALE
  5
500F
102
{ACAD_REACTORS
330
5000
102
}
330
5000
100
AcDbScale
 70
     0
300
8:1
140
8.0
141
1.0
290
     0
  0
SCALE
  5
5010
102
{ACAD_REACTORS
330
5000
102
}
330
5000
100
AcDbScale
 70
     0
300
10:1
140
10.0
141
1.0
290
     0
  0
SCALE
  5
5011
102
{ACAD_REACTORS
330
5000
102
}
330
5000
100
AcDbScale
 70
     0
300
100:1
140
100.0
141
1.0
290
     0
  0
SCALE
  5
5012
102
{ACAD_REACTORS
330
5000
102
}
330
5000
100
AcDbScale
 70
     0
300
1/128" = 1'-0"
140
0.0078125
141
12.0
290
     0
  0
SCALE
  5
5013
102
{ACAD_REACTORS
330
5000
102
}
330
5000
100
AcDbScale
 70
     0
300
1/64" = 1'-0"
140
0.015625
141
12.0
290
     0
  0
SCALE
  5
5014
102
{ACAD_REACTORS
330
5000
102
}
330
5000
100
AcDbScale
 70
     0
300
1/32" = 1'-0"
140
0.03125
141
12.0
290
     0
  0
SCALE
  5
5015
102
{ACAD_REACTORS
330
5000
102
}
330
5000
100
AcDbScale
 70
     0
300
1/16" = 1'-0"
140
0.0625
141
12.0
290
     0
  0
SCALE
  5
5016
102
{ACAD_REACTORS
330
5000
102
}
330
5000
100
AcDbScale
 70
     0
300
3/32" = 1'-0"
140
0.09375
141
12.0
290
     0
  0
SCALE
  5
5017
102
{ACAD_REACTORS
330
5000
102
}
330
5000
100
AcDbScale
 70
     0
300
1/8" = 1'-0"
140
0.125
141
12.0
290
     0
  0
SCALE
  5
5018
102
{ACAD_REACTORS
330
5000
102
}
330
5000
100
AcDbScale
 70
     0
300
3/16" = 1'-0"
140
0.1875
141
12.0
290
     0
  0
SCALE
  5
5019
102
{ACAD_REACTORS
330
5000
102
}
330
5000
100
AcDbScale
 70
     0
300
1/4" = 1'-0"
140
0.25
141
12.0
290
     0
  0
SCALE
  5
501A
102
{ACAD_REACTORS
330
5000
102
}
330
5000
100
AcDbScale
 70
     0
300
3/8" = 1'-0"
140
0.375
141
12.0
290
     0
  0
SCALE
  5
501B
102
{ACAD_REACTORS
330
5000
102
}
330
5000
100
AcDbScale
 70
     0
300
1/2" = 1'-0"
140
0.5
141
12.0
290
     0
  0
SCALE
  5
501C
102
{ACAD_REACTORS
330
5000
102
}
330
5000
100
AcDbScale
 70
     0
300
3/4" = 1'-0"
140
0.75
141
12.0
290
     0
  0
SCALE
  5
501D
102
{ACAD_REACTORS
330
5000
102
}
330
5000
100
AcDbScale
 70
     0
300
1" = 1'-0"
140
1.0
141
12.0
290
     0
  0
SCALE
  5
501E
102
{ACAD_REACTORS
330
5000
102
}
330
5000
100
AcDbScale
 70
     0
300
1-1/2" = 1'-0"
140
1.5
141
12.0
290
     0
  0
SCALE
  5
501F
102
{ACAD_REACTORS
330
5000
102
}
330
5000
100
AcDbScale
 70
     0
300
3" = 1'-0"
140
3.0
141
12.0
290
     0
  0
SCALE
  5
5020
102
{ACAD_REACTORS
330
5000
102
}
330
5000
100
AcDbScale
 70
     0
300
6" = 1'-0"
140
6.0
141
12.0
290
     0
  0
SCALE
  5
5021
102
{ACAD_REACTORS
330
5000
102
}
330
5000
100
AcDbScale
 70
     0
300
1'-0" = 1'-0"
140
12.0
141
12.0
290
     0
  0
TABLESTYLE
  5
4FFF
102
{ACAD_XDICTIONARY
360
50D6
102
}
102
{ACAD_REACTORS
330
4FE3
102
}
330
4FE3
100
AcDbTableStyle
  3
Standard
 70
     0
 71
     0
 40
0.06
 41
0.06
280
     0
281
     0
  7
Standard
140
0.18
170
     2
 62
     0
 63
     7
283
     0
 90
      512
 91
        0
  1

274
    -2
284
     1
 64
     0
275
    -2
285
     1
 65
     0
276
    -2
286
     1
 66
     0
277
    -2
287
     1
 67
     0
278
    -2
288
     1
 68
     0
279
    -2
289
     1
 69
     0
  7
Standard
140
0.25
170
     5
 62
     0
 63
     7
283
     0
 90
      512
 91
        0
  1

274
    -2
284
     1
 64
     0
275
    -2
285
     1
 65
     0
276
    -2
286
     1
 66
     0
277
    -2
287
     1
 67
     0
278
    -2
288
     1
 68
     0
279
    -2
289
     1
 69
     0
  7
Standard
140
0.18
170
     5
 62
     0
 63
     7
283
     0
 90
      512
 91
        0
  1

274
    -2
284
     1
 64
     0
275
    -2
285
     1
 65
     0
276
    -2
286
     1
 66
     0
277
    -2
287
     1
 67
     0
278
    -2
288
     1
 68
     0
279
    -2
289
     1
 69
     0
  0
VISUALSTYLE
  5
2F
102
{ACAD_REACTORS
330
2A
102
}
330
2A
100
AcDbVisualStyle
  2
2dWireframe
 70
     4
 71
     0
 72
     2
 73
     0
 90
        0
 40
-0.6
 41
-30.0
 62
     5
 63
     7
 74
     1
 91
        4
 64
     7
 65
   257
 75
     1
175
     1
 42
1.0
 92
        0
 66
   257
 43
1.0
 76
     1
 77
     6
 78
     2
 67
     7
 79
     5
170
     0
171
     0
290
     0
174
     0
 93
        1
 44
0.0
173
     0
291
     0
 45
0.0
1001
ACAD
1000
AcDbSavedByObjectVersion
1070
     0
1000
AcDbSavedByObjectVersion
1070
     0
1000
AcDbSavedByObjectVersion
1070
     0
1000
AcDbSavedByObjectVersion
1070
     0
1000
AcDbSavedByObjectVersion
1070
     0
1000
AcDbSavedByObjectVersion
1070
     0
1000
AcDbSavedByObjectVersion
1070
     0
1000
AcDbSavedByObjectVersion
1070
     0
1000
AcDbSavedByObjectVersion
1070
     0
1000
AcDbSavedByObjectVersion
1070
     0
1000
AcDbSavedByObjectVersion
1070
     0
1000
AcDbSavedByObjectVersion
1070
     0
1000
AcDbSavedByObjectVersion
1070
     0
1000
AcDbSavedByObjectVersion
1070
     0
1000
AcDbSavedByObjectVersion
1070
     0
1000
AcDbSavedByObjectVersion
1070
     0
1000
AcDbSavedByObjectVersion
1070
     0
1000
AcDbSavedByObjectVersion
1070
     0
1000
AcDbSavedByObjectVersion
1070
     0
1000
AcDbSavedByObjectVersion
1070
     0
1000
AcDbSavedByObjectVersion
1070
     0
1000
AcDbSavedByObjectVersion
1070
     0
1000
AcDbSavedByObjectVersion
1070
     0
1000
AcDbSavedByObjectVersion
1070
     0
1000
AcDbSavedByObjectVersion
1070
     0
1000
AcDbSavedByObjectVersion
1070
     0
1000
AcDbSavedByObjectVersion
1070
     0
1000
AcDbSavedByObjectVersion
1070
     0
1000
AcDbSavedByObjectVersion
1070
     0
1000
AcDbSavedByObjectVersion
1070
     0
1000
AcDbSavedByObjectVersion
1070
     0
1000
AcDbSavedByObjectVersion
1070
     0
1000
AcDbSavedByObjectVersion
1070
     0
1000
AcDbSavedByObjectVersion
1070
     0
1000
AcDbSavedByObjectVersion
1070
     0
1000
AcDbSavedByObjectVersion
1070
     0
1000
AcDbSavedByObjectVersion
1070
     0
1000
AcDbSavedByObjectVersion
1070
     0
1000
AcDbSavedByObjectVersion
1070
     0
1000
AcDbSavedByObjectVersion
1070
     0
1000
AcDbSavedByObjectVersion
1070
     0
1000
AcDbSavedByObjectVersion
1070
     0
1000
AcDbSavedByObjectVersion
1070
     0
1000
AcDbSavedByObjectVersion
1070
     0
1000
AcDbSavedByObjectVersion
1070
     0
1000
AcDbSavedByObjectVersion
1070
     0
1000
AcDbSavedByObjectVersion
1070
     0
1000
AcDbSavedByObjectVersion
1070
     0
1000
AcDbSavedByObjectVersion
1070
     0
  0
VISUALSTYLE
  5
31
102
{ACAD_REACTORS
330
2A
102
}
330
2A
100
AcDbVisualStyle
  2
3D Hidden
 70
     6
 71
     1
 72
     2
 73
     2
 90
        0
 40
-0.6
 41
-30.0
 62
     5
 63
     7
 74
     2
 91
        2
 64
     7
 65
   257
 75
     2
175
     1
 42
40.0
 92
        0
 66
   257
 43
1.0
 76
     1
 77
     6
 78
     2
 67
     7
 79
     3
170
     0
171
     0
290
     0
174
     0
 93
        1
 44
0.0
173
     0
291
     0
 45
0.0
1001
ACAD
1000
AcDbSavedByObjectVersion
1070
     0
1000
AcDbSavedByObjectVersion
1070
     0
1000
AcDbSavedByObjectVersion
1070
     0
1000
AcDbSavedByObjectVersion
1070
     0
1000
AcDbSavedByObjectVersion
1070
     0
1000
AcDbSavedByObjectVersion
1070
     0
1000
AcDbSavedByObjectVersion
1070
     0
1000
AcDbSavedByObjectVersion
1070
     0
1000
AcDbSavedByObjectVersion
1070
     0
1000
AcDbSavedByObjectVersion
1070
     0
1000
AcDbSavedByObjectVersion
1070
     0
1000
AcDbSavedByObjectVersion
1070
     0
1000
AcDbSavedByObjectVersion
1070
     0
1000
AcDbSavedByObjectVersion
1070
     0
1000
AcDbSavedByObjectVersion
1070
     0
1000
AcDbSavedByObjectVersion
1070
     0
1000
AcDbSavedByObjectVersion
1070
     0
1000
AcDbSavedByObjectVersion
1070
     0
1000
AcDbSavedByObjectVersion
1070
     0
1000
AcDbSavedByObjectVersion
1070
     0
1000
AcDbSavedByObjectVersion
1070
     0
1000
AcDbSavedByObjectVersion
1070
     0
1000
AcDbSavedByObjectVersion
1070
     0
1000
AcDbSavedByObjectVersion
1070
     0
1000
AcDbSavedByObjectVersion
1070
     0
1000
AcDbSavedByObjectVersion
1070
     0
1000
AcDbSavedByObjectVersion
1070
     0
1000
AcDbSavedByObjectVersion
1070
     0
1000
AcDbSavedByObjectVersion
1070
     0
1000
AcDbSavedByObjectVersion
1070
     0
1000
AcDbSavedByObjectVersion
1070
     0
1000
AcDbSavedByObjectVersion
1070
     0
1000
AcDbSavedByObjectVersion
1070
     0
1000
AcDbSavedByObjectVersion
1070
     0
1000
AcDbSavedByObjectVersion
1070
     0
1000
AcDbSavedByObjectVersion
1070
     0
1000
AcDbSavedByObjectVersion
1070
     0
1000
AcDbSavedByObjectVersion
1070
     0
1000
AcDbSavedByObjectVersion
1070
     0
1000
AcDbSavedByObjectVersion
1070
     0
1000
AcDbSavedByObjectVersion
1070
     0
1000
AcDbSavedByObjectVersion
1070
     0
1000
AcDbSavedByObjectVersion
1070
     0
1000
AcDbSavedByObjectVersion
1070
     0
1000
AcDbSavedByObjectVersion
1070
     0
1000
AcDbSavedByObjectVersion
1070
     0
1000
AcDbSavedByObjectVersion
1070
     0
1000
AcDbSavedByObjectVersion
1070
     0
1000
AcDbSavedByObjectVersion
1070
     0
  0
VISUALSTYLE
  5
30
102
{ACAD_REACTORS
330
2A
102
}
330
2A
100
AcDbVisualStyle
  2
3dWireframe
 70
     5
 71
     0
 72
     2
 73
     0
 90
        0
 40
-0.6
 41
-30.0
 62
     5
 63
     7
 74
     1
 91
        4
 64
     7
 65
   257
 75
     1
175
     1
 42
1.0
 92
        0
 66
   257
 43
1.0
 76
     1
 77
     6
 78
     2
 67
     7
 79
     5
170
     0
171
     0
290
     0
174
     0
 93
        1
 44
0.0
173
     0
291
     0
 45
0.0
1001
ACAD
1000
AcDbSavedByObjectVersion
1070
     0
1000
AcDbSavedByObjectVersion
1070
     0
1000
AcDbSavedByObjectVersion
1070
     0
1000
AcDbSavedByObjectVersion
1070
     0
1000
AcDbSavedByObjectVersion
1070
     0
1000
AcDbSavedByObjectVersion
1070
     0
1000
AcDbSavedByObjectVersion
1070
     0
1000
AcDbSavedByObjectVersion
1070
     0
1000
AcDbSavedByObjectVersion
1070
     0
1000
AcDbSavedByObjectVersion
1070
     0
1000
AcDbSavedByObjectVersion
1070
     0
1000
AcDbSavedByObjectVersion
1070
     0
1000
AcDbSavedByObjectVersion
1070
     0
1000
AcDbSavedByObjectVersion
1070
     0
1000
AcDbSavedByObjectVersion
1070
     0
1000
AcDbSavedByObjectVersion
1070
     0
1000
AcDbSavedByObjectVersion
1070
     0
1000
AcDbSavedByObjectVersion
1070
     0
1000
AcDbSavedByObjectVersion
1070
     0
1000
AcDbSavedByObjectVersion
1070
     0
1000
AcDbSavedByObjectVersion
1070
     0
1000
AcDbSavedByObjectVersion
1070
     0
1000
AcDbSavedByObjectVersion
1070
     0
1000
AcDbSavedByObjectVersion
1070
     0
1000
AcDbSavedByObjectVersion
1070
     0
1000
AcDbSavedByObjectVersion
1070
     0
1000
AcDbSavedByObjectVersion
1070
     0
1000
AcDbSavedByObjectVersion
1070
     0
1000
AcDbSavedByObjectVersion
1070
     0
1000
AcDbSavedByObjectVersion
1070
     0
1000
AcDbSavedByObjectVersion
1070
     0
1000
AcDbSavedByObjectVersion
1070
     0
1000
AcDbSavedByObjectVersion
1070
     0
1000
AcDbSavedByObjectVersion
1070
     0
1000
AcDbSavedByObjectVersion
1070
     0
1000
AcDbSavedByObjectVersion
1070
     0
1000
AcDbSavedByObjectVersion
1070
     0
1000
AcDbSavedByObjectVersion
1070
     0
1000
AcDbSavedByObjectVersion
1070
     0
1000
AcDbSavedByObjectVersion
1070
     0
1000
AcDbSavedByObjectVersion
1070
     0
1000
AcDbSavedByObjectVersion
1070
     0
1000
AcDbSavedByObjectVersion
1070
     0
1000
AcDbSavedByObjectVersion
1070
     0
1000
AcDbSavedByObjectVersion
1070
     0
1000
AcDbSavedByObjectVersion
1070
     0
1000
AcDbSavedByObjectVersion
1070
     0
1000
AcDbSavedByObjectVersion
1070
     0
1000
AcDbSavedByObjectVersion
1070
     0
  0
VISUALSTYLE
  5
32
102
{ACAD_REACTORS
330
2A
102
}
330
2A
100
AcDbVisualStyle
  2
Basic
 70
     7
 71
     1
 72
     0
 73
     1
 90
        0
 40
-0.6
 41
-30.0
 62
     5
 63
     7
 74
     0
 91
        4
 64
     7
 65
   257
 75
     1
175
     1
 42
1.0
 92
        8
 66
     7
 43
1.0
 76
     1
 77
     6
 78
     2
 67
     7
 79
     5
170
     0
171
     0
290
     0
174
     0
 93
        1
 44
0.0
173
     0
291
     1
 45
0.0
1001
ACAD
1000
AcDbSavedByObjectVersion
1070
     0
1000
AcDbSavedByObjectVersion
1070
     0
1000
AcDbSavedByObjectVersion
1070
     0
1000
AcDbSavedByObjectVersion
1070
     0
1000
AcDbSavedByObjectVersion
1070
     0
1000
AcDbSavedByObjectVersion
1070
     0
1000
AcDbSavedByObjectVersion
1070
     0
1000
AcDbSavedByObjectVersion
1070
     0
1000
AcDbSavedByObjectVersion
1070
     0
1000
AcDbSavedByObjectVersion
1070
     0
1000
AcDbSavedByObjectVersion
1070
     0
1000
AcDbSavedByObjectVersion
1070
     0
1000
AcDbSavedByObjectVersion
1070
     0
1000
AcDbSavedByObjectVersion
1070
     0
1000
AcDbSavedByObjectVersion
1070
     0
1000
AcDbSavedByObjectVersion
1070
     0
1000
AcDbSavedByObjectVersion
1070
     0
1000
AcDbSavedByObjectVersion
1070
     0
1000
AcDbSavedByObjectVersion
1070
     0
1000
AcDbSavedByObjectVersion
1070
     0
1000
AcDbSavedByObjectVersion
1070
     0
1000
AcDbSavedByObjectVersion
1070
     0
1000
AcDbSavedByObjectVersion
1070
     0
1000
AcDbSavedByObjectVersion
1070
     0
1000
AcDbSavedByObjectVersion
1070
     0
1000
AcDbSavedByObjectVersion
1070
     0
1000
AcDbSavedByObjectVersion
1070
     0
1000
AcDbSavedByObjectVersion
1070
     0
1000
AcDbSavedByObjectVersion
1070
     0
1000
AcDbSavedByObjectVersion
1070
     0
1000
AcDbSavedByObjectVersion
1070
     0
1000
AcDbSavedByObjectVersion
1070
     0
1000
AcDbSavedByObjectVersion
1070
     0
1000
AcDbSavedByObjectVersion
1070
     0
1000
AcDbSavedByObjectVersion
1070
     0
1000
AcDbSavedByObjectVersion
1070
     0
1000
AcDbSavedByObjectVersion
1070
     0
1000
AcDbSavedByObjectVersion
1070
     0
1000
AcDbSavedByObjectVersion
1070
     0
1000
AcDbSavedByObjectVersion
1070
     0
1000
AcDbSavedByObjectVersion
1070
     0
1000
AcDbSavedByObjectVersion
1070
     0
1000
AcDbSavedByObjectVersion
1070
     0
1000
AcDbSavedByObjectVersion
1070
     0
1000
AcDbSavedByObjectVersion
1070
     0
1000
AcDbSavedByObjectVersion
1070
     0
1000
AcDbSavedByObjectVersion
1070
     0
1000
AcDbSavedByObjectVersion
1070
     0
1000
AcDbSavedByObjectVersion
1070
     0
  0
VISUALSTYLE
  5
36
102
{ACAD_REACTORS
330
2A
102
}
330
2A
100
AcDbVisualStyle
  2
Brighten
 70
    12
 71
     2
 72
     2
 73
     0
 90
        0
 40
-0.6
 41
-30.0
 62
     5
 63
     7
 74
     1
 91
        4
 64
     7
 65
   257
 75
     1
175
     1
 42
1.0
 92
        8
 66
     7
 43
1.0
 76
     1
 77
     6
 78
     2
 67
     7
 79
     5
170
     0
171
     0
290
     0
174
     0
 93
        1
 44
50.0
173
     0
291
     1
 45
0.0
1001
ACAD
1000
AcDbSavedByObjectVersion
1070
     0
1000
AcDbSavedByObjectVersion
1070
     0
1000
AcDbSavedByObjectVersion
1070
     0
1000
AcDbSavedByObjectVersion
1070
     0
1000
AcDbSavedByObjectVersion
1070
     0
1000
AcDbSavedByObjectVersion
1070
     0
1000
AcDbSavedByObjectVersion
1070
     0
1000
AcDbSavedByObjectVersion
1070
     0
1000
AcDbSavedByObjectVersion
1070
     0
1000
AcDbSavedByObjectVersion
1070
     0
1000
AcDbSavedByObjectVersion
1070
     0
1000
AcDbSavedByObjectVersion
1070
     0
1000
AcDbSavedByObjectVersion
1070
     0
1000
AcDbSavedByObjectVersion
1070
     0
1000
AcDbSavedByObjectVersion
1070
     0
1000
AcDbSavedByObjectVersion
1070
     0
1000
AcDbSavedByObjectVersion
1070
     0
1000
AcDbSavedByObjectVersion
1070
     0
1000
AcDbSavedByObjectVersion
1070
     0
1000
AcDbSavedByObjectVersion
1070
     0
1000
AcDbSavedByObjectVersion
1070
     0
1000
AcDbSavedByObjectVersion
1070
     0
1000
AcDbSavedByObjectVersion
1070
     0
1000
AcDbSavedByObjectVersion
1070
     0
1000
AcDbSavedByObjectVersion
1070
     0
1000
AcDbSavedByObjectVersion
1070
     0
1000
AcDbSavedByObjectVersion
1070
     0
1000
AcDbSavedByObjectVersion
1070
     0
1000
AcDbSavedByObjectVersion
1070
     0
1000
AcDbSavedByObjectVersion
1070
     0
1000
AcDbSavedByObjectVersion
1070
     0
1000
AcDbSavedByObjectVersion
1070
     0
1000
AcDbSavedByObjectVersion
1070
     0
1000
AcDbSavedByObjectVersion
1070
     0
1000
AcDbSavedByObjectVersion
1070
     0
1000
AcDbSavedByObjectVersion
1070
     0
1000
AcDbSavedByObjectVersion
1070
     0
1000
AcDbSavedByObjectVersion
1070
     0
1000
AcDbSavedByObjectVersion
1070
     0
1000
AcDbSavedByObjectVersion
1070
     0
1000
AcDbSavedByObjectVersion
1070
     0
1000
AcDbSavedByObjectVersion
1070
     0
1000
AcDbSavedByObjectVersion
1070
     0
1000
AcDbSavedByObjectVersion
1070
     0
1000
AcDbSavedByObjectVersion
1070
     0
1000
AcDbSavedByObjectVersion
1070
     0
1000
AcDbSavedByObjectVersion
1070
     0
1000
AcDbSavedByObjectVersion
1070
     0
1000
AcDbSavedByObjectVersion
1070
     0
  0
VISUALSTYLE
  5
3A
102
{ACAD_REACTORS
330
2A
102
}
330
2A
100
AcDbVisualStyle
  2
ColorChange
 70
    16
 71
     2
 72
     2
 73
     3
 90
        0
 40
-0.6
 41
-30.0
 62
     5
 63
     8
 74
     1
 91
        4
 64
     7
 65
   257
 75
     1
175
     1
 42
1.0
 92
        8
 66
     8
 43
1.0
 76
     1
 77
     6
 78
     2
 67
     7
 79
     5
170
     0
171
     0
290
     0
174
     0
 93
        1
 44
0.0
173
     0
291
     1
 45
0.0
1001
ACAD
1000
AcDbSavedByObjectVersion
1070
     0
1000
AcDbSavedByObjectVersion
1070
     0
1000
AcDbSavedByObjectVersion
1070
     0
1000
AcDbSavedByObjectVersion
1070
     0
1000
AcDbSavedByObjectVersion
1070
     0
1000
AcDbSavedByObjectVersion
1070
     0
1000
AcDbSavedByObjectVersion
1070
     0
1000
AcDbSavedByObjectVersion
1070
     0
1000
AcDbSavedByObjectVersion
1070
     0
1000
AcDbSavedByObjectVersion
1070
     0
1000
AcDbSavedByObjectVersion
1070
     0
1000
AcDbSavedByObjectVersion
1070
     0
1000
AcDbSavedByObjectVersion
1070
     0
1000
AcDbSavedByObjectVersion
1070
     0
1000
AcDbSavedByObjectVersion
1070
     0
1000
AcDbSavedByObjectVersion
1070
     0
1000
AcDbSavedByObjectVersion
1070
     0
1000
AcDbSavedByObjectVersion
1070
     0
1000
AcDbSavedByObjectVersion
1070
     0
1000
AcDbSavedByObjectVersion
1070
     0
1000
AcDbSavedByObjectVersion
1070
     0
1000
AcDbSavedByObjectVersion
1070
     0
1000
AcDbSavedByObjectVersion
1070
     0
1000
AcDbSavedByObjectVersion
1070
     0
1000
AcDbSavedByObjectVersion
1070
     0
1000
AcDbSavedByObjectVersion
1070
     0
1000
AcDbSavedByObjectVersion
1070
     0
1000
AcDbSavedByObjectVersion
1070
     0
1000
AcDbSavedByObjectVersion
1070
     0
1000
AcDbSavedByObjectVersion
1070
     0
1000
AcDbSavedByObjectVersion
1070
     0
1000
AcDbSavedByObjectVersion
1070
     0
1000
AcDbSavedByObjectVersion
1070
     0
1000
AcDbSavedByObjectVersion
1070
     0
1000
AcDbSavedByObjectVersion
1070
     0
1000
AcDbSavedByObjectVersion
1070
     0
1000
AcDbSavedByObjectVersion
1070
     0
1000
AcDbSavedByObjectVersion
1070
     0
1000
AcDbSavedByObjectVersion
1070
     0
1000
AcDbSavedByObjectVersion
1070
     0
1000
AcDbSavedByObjectVersion
1070
     0
1000
AcDbSavedByObjectVersion
1070
     0
1000
AcDbSavedByObjectVersion
1070
     0
1000
AcDbSavedByObjectVersion
1070
     0
1000
AcDbSavedByObjectVersion
1070
     0
1000
AcDbSavedByObjectVersion
1070
     0
1000
AcDbSavedByObjectVersion
1070
     0
1000
AcDbSavedByObjectVersion
1070
     0
1000
AcDbSavedByObjectVersion
1070
     0
  0
VISUALSTYLE
  5
34
102
{ACAD_REACTORS
330
2A
102
}
330
2A
100
AcDbVisualStyle
  2
Conceptual
 70
     9
 71
     3
 72
     2
 73
     0
 90
        0
 40
-0.6
 41
-30.0
 62
     5
 63
     7
 74
     2
 91
        2
 64
     7
 65
   257
 75
     1
175
     1
 42
40.0
 92
        8
 66
     7
 43
1.0
 76
     1
 77
     6
 78
     2
 67
     7
 79
     3
170
     0
171
     0
290
     0
174
     0
 93
        1
 44
0.0
173
     0
291
     0
 45
0.0
1001
ACAD
1000
AcDbSavedByObjectVersion
1070
     0
1000
AcDbSavedByObjectVersion
1070
     0
1000
AcDbSavedByObjectVersion
1070
     0
1000
AcDbSavedByObjectVersion
1070
     0
1000
AcDbSavedByObjectVersion
1070
     0
1000
AcDbSavedByObjectVersion
1070
     0
1000
AcDbSavedByObjectVersion
1070
     0
1000
AcDbSavedByObjectVersion
1070
     0
1000
AcDbSavedByObjectVersion
1070
     0
1000
AcDbSavedByObjectVersion
1070
     0
1000
AcDbSavedByObjectVersion
1070
     0
1000
AcDbSavedByObjectVersion
1070
     0
1000
AcDbSavedByObjectVersion
1070
     0
1000
AcDbSavedByObjectVersion
1070
     0
1000
AcDbSavedByObjectVersion
1070
     0
1000
AcDbSavedByObjectVersion
1070
     0
1000
AcDbSavedByObjectVersion
1070
     0
1000
AcDbSavedByObjectVersion
1070
     0
1000
AcDbSavedByObjectVersion
1070
     0
1000
AcDbSavedByObjectVersion
1070
     0
1000
AcDbSavedByObjectVersion
1070
     0
1000
AcDbSavedByObjectVersion
1070
     0
1000
AcDbSavedByObjectVersion
1070
     0
1000
AcDbSavedByObjectVersion
1070
     0
1000
AcDbSavedByObjectVersion
1070
     0
1000
AcDbSavedByObjectVersion
1070
     0
1000
AcDbSavedByObjectVersion
1070
     0
1000
AcDbSavedByObjectVersion
1070
     0
1000
AcDbSavedByObjectVersion
1070
     0
1000
AcDbSavedByObjectVersion
1070
     0
1000
AcDbSavedByObjectVersion
1070
     0
1000
AcDbSavedByObjectVersion
1070
     0
1000
AcDbSavedByObjectVersion
1070
     0
1000
AcDbSavedByObjectVersion
1070
     0
1000
AcDbSavedByObjectVersion
1070
     0
1000
AcDbSavedByObjectVersion
1070
     0
1000
AcDbSavedByObjectVersion
1070
     0
1000
AcDbSavedByObjectVersion
1070
     0
1000
AcDbSavedByObjectVersion
1070
     0
1000
AcDbSavedByObjectVersion
1070
     0
1000
AcDbSavedByObjectVersion
1070
     0
1000
AcDbSavedByObjectVersion
1070
     0
1000
AcDbSavedByObjectVersion
1070
     0
1000
AcDbSavedByObjectVersion
1070
     0
1000
AcDbSavedByObjectVersion
1070
     0
1000
AcDbSavedByObjectVersion
1070
     0
1000
AcDbSavedByObjectVersion
1070
     0
1000
AcDbSavedByObjectVersion
1070
     0
1000
AcDbSavedByObjectVersion
1070
     0
  0
VISUALSTYLE
  5
35
102
{ACAD_REACTORS
330
2A
102
}
330
2A
100
AcDbVisualStyle
  2
Dim
 70
    11
 71
     2
 72
     2
 73
     0
 90
        0
 40
-0.6
 41
-30.0
 62
     5
 63
     7
 74
     1
 91
        4
 64
     7
 65
   257
 75
     1
175
     1
 42
1.0
 92
        8
 66
     7
 43
1.0
 76
     1
 77
     6
 78
     2
 67
     7
 79
     5
170
     0
171
     0
290
     0
174
     0
 93
        1
 44
-50.0
173
     0
291
     1
 45
0.0
1001
ACAD
1000
AcDbSavedByObjectVersion
1070
     0
1000
AcDbSavedByObjectVersion
1070
     0
1000
AcDbSavedByObjectVersion
1070
     0
1000
AcDbSavedByObjectVersion
1070
     0
1000
AcDbSavedByObjectVersion
1070
     0
1000
AcDbSavedByObjectVersion
1070
     0
1000
AcDbSavedByObjectVersion
1070
     0
1000
AcDbSavedByObjectVersion
1070
     0
1000
AcDbSavedByObjectVersion
1070
     0
1000
AcDbSavedByObjectVersion
1070
     0
1000
AcDbSavedByObjectVersion
1070
     0
1000
AcDbSavedByObjectVersion
1070
     0
1000
AcDbSavedByObjectVersion
1070
     0
1000
AcDbSavedByObjectVersion
1070
     0
1000
AcDbSavedByObjectVersion
1070
     0
1000
AcDbSavedByObjectVersion
1070
     0
1000
AcDbSavedByObjectVersion
1070
     0
1000
AcDbSavedByObjectVersion
1070
     0
1000
AcDbSavedByObjectVersion
1070
     0
1000
AcDbSavedByObjectVersion
1070
     0
1000
AcDbSavedByObjectVersion
1070
     0
1000
AcDbSavedByObjectVersion
1070
     0
1000
AcDbSavedByObjectVersion
1070
     0
1000
AcDbSavedByObjectVersion
1070
     0
1000
AcDbSavedByObjectVersion
1070
     0
1000
AcDbSavedByObjectVersion
1070
     0
1000
AcDbSavedByObjectVersion
1070
     0
1000
AcDbSavedByObjectVersion
1070
     0
1000
AcDbSavedByObjectVersion
1070
     0
1000
AcDbSavedByObjectVersion
1070
     0
1000
AcDbSavedByObjectVersion
1070
     0
1000
AcDbSavedByObjectVersion
1070
     0
1000
AcDbSavedByObjectVersion
1070
     0
1000
AcDbSavedByObjectVersion
1070
     0
1000
AcDbSavedByObjectVersion
1070
     0
1000
AcDbSavedByObjectVersion
1070
     0
1000
AcDbSavedByObjectVersion
1070
     0
1000
AcDbSavedByObjectVersion
1070
     0
1000
AcDbSavedByObjectVersion
1070
     0
1000
AcDbSavedByObjectVersion
1070
     0
1000
AcDbSavedByObjectVersion
1070
     0
1000
AcDbSavedByObjectVersion
1070
     0
1000
AcDbSavedByObjectVersion
1070
     0
1000
AcDbSavedByObjectVersion
1070
     0
1000
AcDbSavedByObjectVersion
1070
     0
1000
AcDbSavedByObjectVersion
1070
     0
1000
AcDbSavedByObjectVersion
1070
     0
1000
AcDbSavedByObjectVersion
1070
     0
1000
AcDbSavedByObjectVersion
1070
     0
  0
VISUALSTYLE
  5
39
102
{ACAD_REACTORS
330
2A
102
}
330
2A
100
AcDbVisualStyle
  2
Facepattern
 70
    15
 71
     2
 72
     2
 73
     0
 90
        0
 40
-0.6
 41
-30.0
 62
     5
 63
     7
 74
     1
 91
        4
 64
     7
 65
   257
 75
     1
175
     1
 42
1.0
 92
        8
 66
     7
 43
1.0
 76
     1
 77
     6
 78
     2
 67
     7
 79
     5
170
     0
171
     0
290
     0
174
     0
 93
        1
 44
0.0
173
     0
291
     1
 45
0.0
1001
ACAD
1000
AcDbSavedByObjectVersion
1070
     0
1000
AcDbSavedByObjectVersion
1070
     0
1000
AcDbSavedByObjectVersion
1070
     0
1000
AcDbSavedByObjectVersion
1070
     0
1000
AcDbSavedByObjectVersion
1070
     0
1000
AcDbSavedByObjectVersion
1070
     0
1000
AcDbSavedByObjectVersion
1070
     0
1000
AcDbSavedByObjectVersion
1070
     0
1000
AcDbSavedByObjectVersion
1070
     0
1000
AcDbSavedByObjectVersion
1070
     0
1000
AcDbSavedByObjectVersion
1070
     0
1000
AcDbSavedByObjectVersion
1070
     0
1000
AcDbSavedByObjectVersion
1070
     0
1000
AcDbSavedByObjectVersion
1070
     0
1000
AcDbSavedByObjectVersion
1070
     0
1000
AcDbSavedByObjectVersion
1070
     0
1000
AcDbSavedByObjectVersion
1070
     0
1000
AcDbSavedByObjectVersion
1070
     0
1000
AcDbSavedByObjectVersion
1070
     0
1000
AcDbSavedByObjectVersion
1070
     0
1000
AcDbSavedByObjectVersion
1070
     0
1000
AcDbSavedByObjectVersion
1070
     0
1000
AcDbSavedByObjectVersion
1070
     0
1000
AcDbSavedByObjectVersion
1070
     0
1000
AcDbSavedByObjectVersion
1070
     0
1000
AcDbSavedByObjectVersion
1070
     0
1000
AcDbSavedByObjectVersion
1070
     0
1000
AcDbSavedByObjectVersion
1070
     0
1000
AcDbSavedByObjectVersion
1070
     0
1000
AcDbSavedByObjectVersion
1070
     0
1000
AcDbSavedByObjectVersion
1070
     0
1000
AcDbSavedByObjectVersion
1070
     0
1000
AcDbSavedByObjectVersion
1070
     0
1000
AcDbSavedByObjectVersion
1070
     0
1000
AcDbSavedByObjectVersion
1070
     0
1000
AcDbSavedByObjectVersion
1070
     0
1000
AcDbSavedByObjectVersion
1070
     0
1000
AcDbSavedByObjectVersion
1070
     0
1000
AcDbSavedByObjectVersion
1070
     0
1000
AcDbSavedByObjectVersion
1070
     0
1000
AcDbSavedByObjectVersion
1070
     0
1000
AcDbSavedByObjectVersion
1070
     0
1000
AcDbSavedByObjectVersion
1070
     0
1000
AcDbSavedByObjectVersion
1070
     0
1000
AcDbSavedByObjectVersion
1070
     0
1000
AcDbSavedByObjectVersion
1070
     0
1000
AcDbSavedByObjectVersion
1070
     0
1000
AcDbSavedByObjectVersion
1070
     0
1000
AcDbSavedByObjectVersion
1070
     0
  0
VISUALSTYLE
  5
2B
102
{ACAD_REACTORS
330
2A
102
}
330
2A
100
AcDbVisualStyle
  2
Flat
 70
     0
 71
     2
 72
     1
 73
     1
 90
        2
 40
-0.6
 41
30.0
 62
     5
 63
     7
 74
     0
 91
        4
 64
     7
 65
   257
 75
     1
175
     1
 42
1.0
 92
        8
 66
     7
 43
1.0
 76
     1
 77
     6
 78
     2
 67
     7
 79
     5
170
     0
171
     0
290
     0
174
     0
 93
       13
 44
0.0
173
     0
291
     1
 45
0.0
1001
ACAD
1000
AcDbSavedByObjectVersion
1070
     0
1000
AcDbSavedByObjectVersion
1070
     0
1000
AcDbSavedByObjectVersion
1070
     0
1000
AcDbSavedByObjectVersion
1070
     0
1000
AcDbSavedByObjectVersion
1070
     0
1000
AcDbSavedByObjectVersion
1070
     0
1000
AcDbSavedByObjectVersion
1070
     0
1000
AcDbSavedByObjectVersion
1070
     0
1000
AcDbSavedByObjectVersion
1070
     0
1000
AcDbSavedByObjectVersion
1070
     0
1000
AcDbSavedByObjectVersion
1070
     0
1000
AcDbSavedByObjectVersion
1070
     0
1000
AcDbSavedByObjectVersion
1070
     0
1000
AcDbSavedByObjectVersion
1070
     0
1000
AcDbSavedByObjectVersion
1070
     0
1000
AcDbSavedByObjectVersion
1070
     0
1000
AcDbSavedByObjectVersion
1070
     0
1000
AcDbSavedByObjectVersion
1070
     0
1000
AcDbSavedByObjectVersion
1070
     0
1000
AcDbSavedByObjectVersion
1070
     0
1000
AcDbSavedByObjectVersion
1070
     0
1000
AcDbSavedByObjectVersion
1070
     0
1000
AcDbSavedByObjectVersion
1070
     0
1000
AcDbSavedByObjectVersion
1070
     0
1000
AcDbSavedByObjectVersion
1070
     0
1000
AcDbSavedByObjectVersion
1070
     0
1000
AcDbSavedByObjectVersion
1070
     0
1000
AcDbSavedByObjectVersion
1070
     0
1000
AcDbSavedByObjectVersion
1070
     0
1000
AcDbSavedByObjectVersion
1070
     0
1000
AcDbSavedByObjectVersion
1070
     0
1000
AcDbSavedByObjectVersion
1070
     0
1000
AcDbSavedByObjectVersion
1070
     0
1000
AcDbSavedByObjectVersion
1070
     0
1000
AcDbSavedByObjectVersion
1070
     0
1000
AcDbSavedByObjectVersion
1070
     0
1000
AcDbSavedByObjectVersion
1070
     0
1000
AcDbSavedByObjectVersion
1070
     0
1000
AcDbSavedByObjectVersion
1070
     0
1000
AcDbSavedByObjectVersion
1070
     0
1000
AcDbSavedByObjectVersion
1070
     0
1000
AcDbSavedByObjectVersion
1070
     0
1000
AcDbSavedByObjectVersion
1070
     0
1000
AcDbSavedByObjectVersion
1070
     0
1000
AcDbSavedByObjectVersion
1070
     0
1000
AcDbSavedByObjectVersion
1070
     0
1000
AcDbSavedByObjectVersion
1070
     0
1000
AcDbSavedByObjectVersion
1070
     0
1000
AcDbSavedByObjectVersion
1070
     0
  0
VISUALSTYLE
  5
2C
102
{ACAD_REACTORS
330
2A
102
}
330
2A
100
AcDbVisualStyle
  2
FlatWithEdges
 70
     1
 71
     2
 72
     1
 73
     1
 90
        2
 40
-0.6
 41
30.0
 62
     5
 63
     7
 74
     1
 91
        4
 64
     7
 65
   257
 75
     1
175
     1
 42
1.0
 92
        0
 66
   257
 43
1.0
 76
     1
 77
     6
 78
     2
 67
     7
 79
     5
170
     0
171
     0
290
     0
174
     0
 93
       13
 44
0.0
173
     0
291
     1
 45
0.0
1001
ACAD
1000
AcDbSavedByObjectVersion
1070
     0
1000
AcDbSavedByObjectVersion
1070
     0
1000
AcDbSavedByObjectVersion
1070
     0
1000
AcDbSavedByObjectVersion
1070
     0
1000
AcDbSavedByObjectVersion
1070
     0
1000
AcDbSavedByObjectVersion
1070
     0
1000
AcDbSavedByObjectVersion
1070
     0
1000
AcDbSavedByObjectVersion
1070
     0
1000
AcDbSavedByObjectVersion
1070
     0
1000
AcDbSavedByObjectVersion
1070
     0
1000
AcDbSavedByObjectVersion
1070
     0
1000
AcDbSavedByObjectVersion
1070
     0
1000
AcDbSavedByObjectVersion
1070
     0
1000
AcDbSavedByObjectVersion
1070
     0
1000
AcDbSavedByObjectVersion
1070
     0
1000
AcDbSavedByObjectVersion
1070
     0
1000
AcDbSavedByObjectVersion
1070
     0
1000
AcDbSavedByObjectVersion
1070
     0
1000
AcDbSavedByObjectVersion
1070
     0
1000
AcDbSavedByObjectVersion
1070
     0
1000
AcDbSavedByObjectVersion
1070
     0
1000
AcDbSavedByObjectVersion
1070
     0
1000
AcDbSavedByObjectVersion
1070
     0
1000
AcDbSavedByObjectVersion
1070
     0
1000
AcDbSavedByObjectVersion
1070
     0
1000
AcDbSavedByObjectVersion
1070
     0
1000
AcDbSavedByObjectVersion
1070
     0
1000
AcDbSavedByObjectVersion
1070
     0
1000
AcDbSavedByObjectVersion
1070
     0
1000
AcDbSavedByObjectVersion
1070
     0
1000
AcDbSavedByObjectVersion
1070
     0
1000
AcDbSavedByObjectVersion
1070
     0
1000
AcDbSavedByObjectVersion
1070
     0
1000
AcDbSavedByObjectVersion
1070
     0
1000
AcDbSavedByObjectVersion
1070
     0
1000
AcDbSavedByObjectVersion
1070
     0
1000
AcDbSavedByObjectVersion
1070
     0
1000
AcDbSavedByObjectVersion
1070
     0
1000
AcDbSavedByObjectVersion
1070
     0
1000
AcDbSavedByObjectVersion
1070
     0
1000
AcDbSavedByObjectVersion
1070
     0
1000
AcDbSavedByObjectVersion
1070
     0
1000
AcDbSavedByObjectVersion
1070
     0
1000
AcDbSavedByObjectVersion
1070
     0
1000
AcDbSavedByObjectVersion
1070
     0
1000
AcDbSavedByObjectVersion
1070
     0
1000
AcDbSavedByObjectVersion
1070
     0
1000
AcDbSavedByObjectVersion
1070
     0
1000
AcDbSavedByObjectVersion
1070
     0
  0
VISUALSTYLE
  5
2D
102
{ACAD_REACTORS
330
2A
102
}
330
2A
100
AcDbVisualStyle
  2
Gouraud
 70
     2
 71
     2
 72
     2
 73
     1
 90
        2
 40
-0.6
 41
30.0
 62
     5
 63
     7
 74
     0
 91
        4
 64
     7
 65
   257
 75
     1
175
     1
 42
1.0
 92
        0
 66
     7
 43
1.0
 76
     1
 77
     6
 78
     2
 67
     7
 79
     5
170
     0
171
     0
290
     0
174
     0
 93
       13
 44
0.0
173
     0
291
     1
 45
0.0
1001
ACAD
1000
AcDbSavedByObjectVersion
1070
     0
1000
AcDbSavedByObjectVersion
1070
     0
1000
AcDbSavedByObjectVersion
1070
     0
1000
AcDbSavedByObjectVersion
1070
     0
1000
AcDbSavedByObjectVersion
1070
     0
1000
AcDbSavedByObjectVersion
1070
     0
1000
AcDbSavedByObjectVersion
1070
     0
1000
AcDbSavedByObjectVersion
1070
     0
1000
AcDbSavedByObjectVersion
1070
     0
1000
AcDbSavedByObjectVersion
1070
     0
1000
AcDbSavedByObjectVersion
1070
     0
1000
AcDbSavedByObjectVersion
1070
     0
1000
AcDbSavedByObjectVersion
1070
     0
1000
AcDbSavedByObjectVersion
1070
     0
1000
AcDbSavedByObjectVersion
1070
     0
1000
AcDbSavedByObjectVersion
1070
     0
1000
AcDbSavedByObjectVersion
1070
     0
1000
AcDbSavedByObjectVersion
1070
     0
1000
AcDbSavedByObjectVersion
1070
     0
1000
AcDbSavedByObjectVersion
1070
     0
1000
AcDbSavedByObjectVersion
1070
     0
1000
AcDbSavedByObjectVersion
1070
     0
1000
AcDbSavedByObjectVersion
1070
     0
1000
AcDbSavedByObjectVersion
1070
     0
1000
AcDbSavedByObjectVersion
1070
     0
1000
AcDbSavedByObjectVersion
1070
     0
1000
AcDbSavedByObjectVersion
1070
     0
1000
AcDbSavedByObjectVersion
1070
     0
1000
AcDbSavedByObjectVersion
1070
     0
1000
AcDbSavedByObjectVersion
1070
     0
1000
AcDbSavedByObjectVersion
1070
     0
1000
AcDbSavedByObjectVersion
1070
     0
1000
AcDbSavedByObjectVersion
1070
     0
1000
AcDbSavedByObjectVersion
1070
     0
1000
AcDbSavedByObjectVersion
1070
     0
1000
AcDbSavedByObjectVersion
1070
     0
1000
AcDbSavedByObjectVersion
1070
     0
1000
AcDbSavedByObjectVersion
1070
     0
1000
AcDbSavedByObjectVersion
1070
     0
1000
AcDbSavedByObjectVersion
1070
     0
1000
AcDbSavedByObjectVersion
1070
     0
1000
AcDbSavedByObjectVersion
1070
     0
1000
AcDbSavedByObjectVersion
1070
     0
1000
AcDbSavedByObjectVersion
1070
     0
1000
AcDbSavedByObjectVersion
1070
     0
1000
AcDbSavedByObjectVersion
1070
     0
1000
AcDbSavedByObjectVersion
1070
     0
1000
AcDbSavedByObjectVersion
1070
     0
1000
AcDbSavedByObjectVersion
1070
     0
  0
VISUALSTYLE
  5
2E
102
{ACAD_REACTORS
330
2A
102
}
330
2A
100
AcDbVisualStyle
  2
GouraudWithEdges
 70
     3
 71
     2
 72
     2
 73
     1
 90
        2
 40
-0.6
 41
30.0
 62
     5
 63
     7
 74
     1
 91
        4
 64
     7
 65
   257
 75
     1
175
     1
 42
1.0
 92
        0
 66
   257
 43
1.0
 76
     1
 77
     6
 78
     2
 67
     7
 79
     5
170
     0
171
     0
290
     0
174
     0
 93
       13
 44
0.0
173
     0
291
     1
 45
0.0
1001
ACAD
1000
AcDbSavedByObjectVersion
1070
     0
1000
AcDbSavedByObjectVersion
1070
     0
1000
AcDbSavedByObjectVersion
1070
     0
1000
AcDbSavedByObjectVersion
1070
     0
1000
AcDbSavedByObjectVersion
1070
     0
1000
AcDbSavedByObjectVersion
1070
     0
1000
AcDbSavedByObjectVersion
1070
     0
1000
AcDbSavedByObjectVersion
1070
     0
1000
AcDbSavedByObjectVersion
1070
     0
1000
AcDbSavedByObjectVersion
1070
     0
1000
AcDbSavedByObjectVersion
1070
     0
1000
AcDbSavedByObjectVersion
1070
     0
1000
AcDbSavedByObjectVersion
1070
     0
1000
AcDbSavedByObjectVersion
1070
     0
1000
AcDbSavedByObjectVersion
1070
     0
1000
AcDbSavedByObjectVersion
1070
     0
1000
AcDbSavedByObjectVersion
1070
     0
1000
AcDbSavedByObjectVersion
1070
     0
1000
AcDbSavedByObjectVersion
1070
     0
1000
AcDbSavedByObjectVersion
1070
     0
1000
AcDbSavedByObjectVersion
1070
     0
1000
AcDbSavedByObjectVersion
1070
     0
1000
AcDbSavedByObjectVersion
1070
     0
1000
AcDbSavedByObjectVersion
1070
     0
1000
AcDbSavedByObjectVersion
1070
     0
1000
AcDbSavedByObjectVersion
1070
     0
1000
AcDbSavedByObjectVersion
1070
     0
1000
AcDbSavedByObjectVersion
1070
     0
1000
AcDbSavedByObjectVersion
1070
     0
1000
AcDbSavedByObjectVersion
1070
     0
1000
AcDbSavedByObjectVersion
1070
     0
1000
AcDbSavedByObjectVersion
1070
     0
1000
AcDbSavedByObjectVersion
1070
     0
1000
AcDbSavedByObjectVersion
1070
     0
1000
AcDbSavedByObjectVersion
1070
     0
1000
AcDbSavedByObjectVersion
1070
     0
1000
AcDbSavedByObjectVersion
1070
     0
1000
AcDbSavedByObjectVersion
1070
     0
1000
AcDbSavedByObjectVersion
1070
     0
1000
AcDbSavedByObjectVersion
1070
     0
1000
AcDbSavedByObjectVersion
1070
     0
1000
AcDbSavedByObjectVersion
1070
     0
1000
AcDbSavedByObjectVersion
1070
     0
1000
AcDbSavedByObjectVersion
1070
     0
1000
AcDbSavedByObjectVersion
1070
     0
1000
AcDbSavedByObjectVersion
1070
     0
1000
AcDbSavedByObjectVersion
1070
     0
1000
AcDbSavedByObjectVersion
1070
     0
1000
AcDbSavedByObjectVersion
1070
     0
  0
VISUALSTYLE
  5
38
102
{ACAD_REACTORS
330
2A
102
}
330
2A
100
AcDbVisualStyle
  2
Linepattern
 70
    14
 71
     2
 72
     2
 73
     0
 90
        0
 40
-0.6
 41
-30.0
 62
     5
 63
     7
 74
     1
 91
        4
 64
     7
 65
   257
 75
     7
175
     7
 42
1.0
 92
        8
 66
     7
 43
1.0
 76
     1
 77
     6
 78
     2
 67
     7
 79
     5
170
     0
171
     0
290
     0
174
     0
 93
        1
 44
0.0
173
     0
291
     1
 45
0.0
1001
ACAD
1000
AcDbSavedByObjectVersion
1070
     0
1000
AcDbSavedByObjectVersion
1070
     0
1000
AcDbSavedByObjectVersion
1070
     0
1000
AcDbSavedByObjectVersion
1070
     0
1000
AcDbSavedByObjectVersion
1070
     0
1000
AcDbSavedByObjectVersion
1070
     0
1000
AcDbSavedByObjectVersion
1070
     0
1000
AcDbSavedByObjectVersion
1070
     0
1000
AcDbSavedByObjectVersion
1070
     0
1000
AcDbSavedByObjectVersion
1070
     0
1000
AcDbSavedByObjectVersion
1070
     0
1000
AcDbSavedByObjectVersion
1070
     0
1000
AcDbSavedByObjectVersion
1070
     0
1000
AcDbSavedByObjectVersion
1070
     0
1000
AcDbSavedByObjectVersion
1070
     0
1000
AcDbSavedByObjectVersion
1070
     0
1000
AcDbSavedByObjectVersion
1070
     0
1000
AcDbSavedByObjectVersion
1070
     0
1000
AcDbSavedByObjectVersion
1070
     0
1000
AcDbSavedByObjectVersion
1070
     0
1000
AcDbSavedByObjectVersion
1070
     0
1000
AcDbSavedByObjectVersion
1070
     0
1000
AcDbSavedByObjectVersion
1070
     0
1000
AcDbSavedByObjectVersion
1070
     0
1000
AcDbSavedByObjectVersion
1070
     0
1000
AcDbSavedByObjectVersion
1070
     0
1000
AcDbSavedByObjectVersion
1070
     0
1000
AcDbSavedByObjectVersion
1070
     0
1000
AcDbSavedByObjectVersion
1070
     0
1000
AcDbSavedByObjectVersion
1070
     0
1000
AcDbSavedByObjectVersion
1070
     0
1000
AcDbSavedByObjectVersion
1070
     0
1000
AcDbSavedByObjectVersion
1070
     0
1000
AcDbSavedByObjectVersion
1070
     0
1000
AcDbSavedByObjectVersion
1070
     0
1000
AcDbSavedByObjectVersion
1070
     0
1000
AcDbSavedByObjectVersion
1070
     0
1000
AcDbSavedByObjectVersion
1070
     0
1000
AcDbSavedByObjectVersion
1070
     0
1000
AcDbSavedByObjectVersion
1070
     0
1000
AcDbSavedByObjectVersion
1070
     0
1000
AcDbSavedByObjectVersion
1070
     0
1000
AcDbSavedByObjectVersion
1070
     0
1000
AcDbSavedByObjectVersion
1070
     0
1000
AcDbSavedByObjectVersion
1070
     0
1000
AcDbSavedByObjectVersion
1070
     0
1000
AcDbSavedByObjectVersion
1070
     0
1000
AcDbSavedByObjectVersion
1070
     0
1000
AcDbSavedByObjectVersion
1070
     0
  0
VISUALSTYLE
  5
33
102
{ACAD_REACTORS
330
2A
102
}
330
2A
100
AcDbVisualStyle
  2
Realistic
 70
     8
 71
     2
 72
     2
 73
     0
 90
        0
 40
-0.6
 41
-30.0
 62
     5
 63
     7
 74
     1
 91
        0
 64
     7
 65
   257
 75
     1
175
     1
 42
1.0
 92
        8
 66
     8
 43
1.0
 76
     1
 77
     6
 78
     2
 67
     7
 79
     5
170
     0
171
     0
290
     0
174
     0
 93
       13
 44
0.0
173
     0
291
     0
 45
0.0
1001
ACAD
1000
AcDbSavedByObjectVersion
1070
     0
1000
AcDbSavedByObjectVersion
1070
     0
1000
AcDbSavedByObjectVersion
1070
     0
1000
AcDbSavedByObjectVersion
1070
     0
1000
AcDbSavedByObjectVersion
1070
     0
1000
AcDbSavedByObjectVersion
1070
     0
1000
AcDbSavedByObjectVersion
1070
     0
1000
AcDbSavedByObjectVersion
1070
     0
1000
AcDbSavedByObjectVersion
1070
     0
1000
AcDbSavedByObjectVersion
1070
     0
1000
AcDbSavedByObjectVersion
1070
     0
1000
AcDbSavedByObjectVersion
1070
     0
1000
AcDbSavedByObjectVersion
1070
     0
1000
AcDbSavedByObjectVersion
1070
     0
1000
AcDbSavedByObjectVersion
1070
     0
1000
AcDbSavedByObjectVersion
1070
     0
1000
AcDbSavedByObjectVersion
1070
     0
1000
AcDbSavedByObjectVersion
1070
     0
1000
AcDbSavedByObjectVersion
1070
     0
1000
AcDbSavedByObjectVersion
1070
     0
1000
AcDbSavedByObjectVersion
1070
     0
1000
AcDbSavedByObjectVersion
1070
     0
1000
AcDbSavedByObjectVersion
1070
     0
1000
AcDbSavedByObjectVersion
1070
     0
1000
AcDbSavedByObjectVersion
1070
     0
1000
AcDbSavedByObjectVersion
1070
     0
1000
AcDbSavedByObjectVersion
1070
     0
1000
AcDbSavedByObjectVersion
1070
     0
1000
AcDbSavedByObjectVersion
1070
     0
1000
AcDbSavedByObjectVersion
1070
     0
1000
AcDbSavedByObjectVersion
1070
     0
1000
AcDbSavedByObjectVersion
1070
     0
1000
AcDbSavedByObjectVersion
1070
     0
1000
AcDbSavedByObjectVersion
1070
     0
1000
AcDbSavedByObjectVersion
1070
     0
1000
AcDbSavedByObjectVersion
1070
     0
1000
AcDbSavedByObjectVersion
1070
     0
1000
AcDbSavedByObjectVersion
1070
     0
1000
AcDbSavedByObjectVersion
1070
     0
1000
AcDbSavedByObjectVersion
1070
     0
1000
AcDbSavedByObjectVersion
1070
     0
1000
AcDbSavedByObjectVersion
1070
     0
1000
AcDbSavedByObjectVersion
1070
     0
1000
AcDbSavedByObjectVersion
1070
     0
1000
AcDbSavedByObjectVersion
1070
     0
1000
AcDbSavedByObjectVersion
1070
     0
1000
AcDbSavedByObjectVersion
1070
     0
1000
AcDbSavedByObjectVersion
1070
     0
1000
AcDbSavedByObjectVersion
1070
     0
  0
VISUALSTYLE
  5
37
102
{ACAD_REACTORS
330
2A
102
}
330
2A
100
AcDbVisualStyle
  2
Thicken
 70
    13
 71
     2
 72
     2
 73
     0
 90
        0
 40
-0.6
 41
-30.0
 62
     5
 63
     7
 74
     1
 91
        4
 64
     7
 65
   257
 75
     1
175
     1
 42
1.0
 92
       12
 66
     7
 43
1.0
 76
     1
 77
     6
 78
     2
 67
     7
 79
     5
170
     0
171
     0
290
     0
174
     0
 93
        1
 44
0.0
173
     0
291
     1
 45
0.0
1001
ACAD
1000
AcDbSavedByObjectVersion
1070
     0
1000
AcDbSavedByObjectVersion
1070
     0
1000
AcDbSavedByObjectVersion
1070
     0
1000
AcDbSavedByObjectVersion
1070
     0
1000
AcDbSavedByObjectVersion
1070
     0
1000
AcDbSavedByObjectVersion
1070
     0
1000
AcDbSavedByObjectVersion
1070
     0
1000
AcDbSavedByObjectVersion
1070
     0
1000
AcDbSavedByObjectVersion
1070
     0
1000
AcDbSavedByObjectVersion
1070
     0
1000
AcDbSavedByObjectVersion
1070
     0
1000
AcDbSavedByObjectVersion
1070
     0
1000
AcDbSavedByObjectVersion
1070
     0
1000
AcDbSavedByObjectVersion
1070
     0
1000
AcDbSavedByObjectVersion
1070
     0
1000
AcDbSavedByObjectVersion
1070
     0
1000
AcDbSavedByObjectVersion
1070
     0
1000
AcDbSavedByObjectVersion
1070
     0
1000
AcDbSavedByObjectVersion
1070
     0
1000
AcDbSavedByObjectVersion
1070
     0
1000
AcDbSavedByObjectVersion
1070
     0
1000
AcDbSavedByObjectVersion
1070
     0
1000
AcDbSavedByObjectVersion
1070
     0
1000
AcDbSavedByObjectVersion
1070
     0
1000
AcDbSavedByObjectVersion
1070
     0
1000
AcDbSavedByObjectVersion
1070
     0
1000
AcDbSavedByObjectVersion
1070
     0
1000
AcDbSavedByObjectVersion
1070
     0
1000
AcDbSavedByObjectVersion
1070
     0
1000
AcDbSavedByObjectVersion
1070
     0
1000
AcDbSavedByObjectVersion
1070
     0
1000
AcDbSavedByObjectVersion
1070
     0
1000
AcDbSavedByObjectVersion
1070
     0
1000
AcDbSavedByObjectVersion
1070
     0
1000
AcDbSavedByObjectVersion
1070
     0
1000
AcDbSavedByObjectVersion
1070
     0
1000
AcDbSavedByObjectVersion
1070
     0
1000
AcDbSavedByObjectVersion
1070
     0
1000
AcDbSavedByObjectVersion
1070
     0
1000
AcDbSavedByObjectVersion
1070
     0
1000
AcDbSavedByObjectVersion
1070
     0
1000
AcDbSavedByObjectVersion
1070
     0
1000
AcDbSavedByObjectVersion
1070
     0
1000
AcDbSavedByObjectVersion
1070
     0
1000
AcDbSavedByObjectVersion
1070
     0
1000
AcDbSavedByObjectVersion
1070
     0
1000
AcDbSavedByObjectVersion
1070
     0
1000
AcDbSavedByObjectVersion
1070
     0
1000
AcDbSavedByObjectVersion
1070
     0
  0
DICTIONARYVAR
  5
510B
102
{ACAD_REACTORS
330
5108
102
}
330
5108
100
DictionaryVariables
280
     0
  1
1:1
  0
DICTIONARYVAR
  5
510A
102
{ACAD_REACTORS
330
5108
102
}
330
5108
100
DictionaryVariables
280
     0
  1
STANDARD
  0
DICTIONARYVAR
  5
5109
102
{ACAD_REACTORS
330
5108
102
}
330
5108
100
DictionaryVariables
280
     0
  1
STANDARD
  0
DICTIONARYVAR
  5
510E
102
{ACAD_REACTORS
330
5108
102
}
330
5108
100
DictionaryVariables
280
     0
  1
1
  0
DICTIONARYVAR
  5
510D
102
{ACAD_REACTORS
330
5108
102
}
330
5108
100
DictionaryVariables
280
     0
  1
0
  0
DICTIONARYVAR
  5
15EB1
102
{ACAD_REACTORS
330
5108
102
}
330
5108
100
DictionaryVariables
280
     0
  1
0
  0
DICTIONARYVAR
  5
15EB0
102
{ACAD_REACTORS
330
5108
102
}
330
5108
100
DictionaryVariables
280
     0
  1
0
  0
DICTIONARYVAR
  5
510C
102
{ACAD_REACTORS
330
5108
102
}
330
5108
100
DictionaryVariables
280
     0
  1
127
  0
XRECORD
  5
11ACF
102
{ACAD_REACTORS
330
11ACE
102
}
330
11ACE
100
AcDbXrecord
280
     1
330
12A95
  0
DICTIONARY
  5
4FEF
330
4FEE
100
AcDbDictionary
280
     1
281
     1
  3
ACAD_XREC_ROUNDTRIP
360
7C2C
  3
BUMPTILE
360
4FF1
  3
DIFFUSETILE
360
4FF0
  3
OPACITYTILE
360
4FF4
  3
REFLECTIONTILE
360
4FF3
  3
REFRACTIONTILE
360
4FF5
  3
SPECULARTILE
360
4FF2
  0
DICTIONARY
  5
4FE7
330
4FE6
100
AcDbDictionary
280
     1
281
     1
  3
ACAD_XREC_ROUNDTRIP
360
7C2B
  3
BUMPTILE
360
4FE9
  3
DIFFUSETILE
360
4FE8
  3
OPACITYTILE
360
4FEC
  3
REFLECTIONTILE
360
4FEB
  3
REFRACTIONTILE
360
4FED
  3
SPECULARTILE
360
4FEA
  0
DICTIONARY
  5
4FF7
330
4FF6
100
AcDbDictionary
280
     1
281
     1
  3
ACAD_XREC_ROUNDTRIP
360
7C2D
  3
BUMPTILE
360
4FF9
  3
DIFFUSETILE
360
4FF8
  3
OPACITYTILE
360
4FFC
  3
REFLECTIONTILE
360
4FFB
  3
REFRACTIONTILE
360
4FFD
  3
SPECULARTILE
360
4FFA
  0
DICTIONARY
  5
50D6
330
4FFF
100
AcDbDictionary
280
     1
281
     1
  3
ACAD_ROUNDTRIP_2008_TABLESTYLE_CELLSTYLEMAP
360
15EB2
  0
XRECORD
  5
7C2C
102
{ACAD_REACTORS
330
4FEF
102
}
330
4FEF
100
AcDbXrecord
280
     1
102
MATERIAL
148
0.0
149
0.0
149
0.0
 93
        0
 94
      127
282
     0
 72
     0
 77
     0
171
     0
175
     0
179
     0
273
     0
  0
XRECORD
  5
4FF1
102
{ACAD_REACTORS
330
4FEF
102
}
330
4FEF
100
AcDbXrecord
280
     1
270
     1
271
     1
  0
XRECORD
  5
4FF0
102
{ACAD_REACTORS
330
4FEF
102
}
330
4FEF
100
AcDbXrecord
280
     1
270
     1
271
     1
  0
XRECORD
  5
4FF4
102
{ACAD_REACTORS
330
4FEF
102
}
330
4FEF
100
AcDbXrecord
280
     1
270
     1
271
     1
  0
XRECORD
  5
4FF3
102
{ACAD_REACTORS
330
4FEF
102
}
330
4FEF
100
AcDbXrecord
280
     1
270
     1
271
     1
  0
XRECORD
  5
4FF5
102
{ACAD_REACTORS
330
4FEF
102
}
330
4FEF
100
AcDbXrecord
280
     1
270
     1
271
     1
  0
XRECORD
  5
4FF2
102
{ACAD_REACTORS
330
4FEF
102
}
330
4FEF
100
AcDbXrecord
280
     1
270
     1
271
     1
  0
XRECORD
  5
7C2B
102
{ACAD_REACTORS
330
4FE7
102
}
330
4FE7
100
AcDbXrecord
280
     1
102
MATERIAL
148
0.0
149
0.0
149
0.0
 93
        0
 94
      127
282
     0
 72
     0
 77
     0
171
     0
175
     0
179
     0
273
     0
  0
XRECORD
  5
4FE9
102
{ACAD_REACTORS
330
4FE7
102
}
330
4FE7
100
AcDbXrecord
280
     1
270
     1
271
     1
  0
XRECORD
  5
4FE8
102
{ACAD_REACTORS
330
4FE7
102
}
330
4FE7
100
AcDbXrecord
280
     1
270
     1
271
     1
  0
XRECORD
  5
4FEC
102
{ACAD_REACTORS
330
4FE7
102
}
330
4FE7
100
AcDbXrecord
280
     1
270
     1
271
     1
  0
XRECORD
  5
4FEB
102
{ACAD_REACTORS
330
4FE7
102
}
330
4FE7
100
AcDbXrecord
280
     1
270
     1
271
     1
  0
XRECORD
  5
4FED
102
{ACAD_REACTORS
330
4FE7
102
}
330
4FE7
100
AcDbXrecord
280
     1
270
     1
271
     1
  0
XRECORD
  5
4FEA
102
{ACAD_REACTORS
330
4FE7
102
}
330
4FE7
100
AcDbXrecord
280
     1
270
     1
271
     1
  0
XRECORD
  5
7C2D
102
{ACAD_REACTORS
330
4FF7
102
}
330
4FF7
100
AcDbXrecord
280
     1
102
MATERIAL
148
0.0
149
0.0
149
0.0
 93
        0
 94
      127
282
     0
 72
     0
 77
     0
171
     0
175
     0
179
     0
273
     0
  0
XRECORD
  5
4FF9
102
{ACAD_REACTORS
330
4FF7
102
}
330
4FF7
100
AcDbXrecord
280
     1
270
     1
271
     1
  0
XRECORD
  5
4FF8
102
{ACAD_REACTORS
330
4FF7
102
}
330
4FF7
100
AcDbXrecord
280
     1
270
     1
271
     1
  0
XRECORD
  5
4FFC
102
{ACAD_REACTORS
330
4FF7
102
}
330
4FF7
100
AcDbXrecord
280
     1
270
     1
271
     1
  0
XRECORD
  5
4FFB
102
{ACAD_REACTORS
330
4FF7
102
}
330
4FF7
100
AcDbXrecord
280
     1
270
     1
271
     1
  0
XRECORD
  5
4FFD
102
{ACAD_REACTORS
330
4FF7
102
}
330
4FF7
100
AcDbXrecord
280
     1
270
     1
271
     1
  0
XRECORD
  5
4FFA
102
{ACAD_REACTORS
330
4FF7
102
}
330
4FF7
100
AcDbXrecord
280
     1
270
     1
271
     1
  0
CELLSTYLEMAP
  5
15EB2
102
{ACAD_REACTORS
330
50D6
102
}
330
50D6
100
AcDbCellStyleMap
 90
        3
300
CELLSTYLE
  1
TABLEFORMAT_BEGIN
 90
        5
170
     1
 91
        0
 92
    32768
 62
   257
 93
        1
300
CONTENTFORMAT
  1
CONTENTFORMAT_BEGIN
 90
        0
 91
        0
 92
      512
 93
        0
300

 40
0.0
140
1.0
 94
        5
 62
     0
340
11
144
0.25
309
CONTENTFORMAT_END
171
     1
301
MARGIN
  1
CELLMARGIN_BEGIN
 40
0.06
 40
0.06
 40
0.06
 40
0.06
 40
0.18
 40
0.18
309
CELLMARGIN_END
 94
        6
 95
        1
302
GRIDFORMAT
  1
GRIDFORMAT_BEGIN
 90
        0
 91
        1
 62
     0
 92
       -2
340
0
 93
        0
 40
0.045
309
GRIDFORMAT_END
 95
        2
302
GRIDFORMAT
  1
GRIDFORMAT_BEGIN
 90
        0
 91
        1
 62
     0
 92
       -2
340
0
 93
        0
 40
0.045
309
GRIDFORMAT_END
 95
        4
302
GRIDFORMAT
  1
GRIDFORMAT_BEGIN
 90
        0
 91
        1
 62
     0
 92
       -2
340
0
 93
        0
 40
0.045
309
GRIDFORMAT_END
 95
        8
302
GRIDFORMAT
  1
GRIDFORMAT_BEGIN
 90
        0
 91
        1
 62
     0
 92
       -2
340
0
 93
        0
 40
0.045
309
GRIDFORMAT_END
 95
       16
302
GRIDFORMAT
  1
GRIDFORMAT_BEGIN
 90
        0
 91
        1
 62
     0
 92
       -2
340
0
 93
        0
 40
0.045
309
GRIDFORMAT_END
 95
       32
302
GRIDFORMAT
  1
GRIDFORMAT_BEGIN
 90
        0
 91
        1
 62
     0
 92
       -2
340
0
 93
        0
 40
0.045
309
GRIDFORMAT_END
309
TABLEFORMAT_END
  1
CELLSTYLE_BEGIN
 90
        1
 91
        1
300
_TITLE
309
CELLSTYLE_END
300
CELLSTYLE
  1
TABLEFORMAT_BEGIN
 90
        5
170
     1
 91
        0
 92
        0
 62
   257
 93
        1
300
CONTENTFORMAT
  1
CONTENTFORMAT_BEGIN
 90
        0
 91
        0
 92
      512
 93
        0
300

 40
0.0
140
1.0
 94
        5
 62
     0
340
11
144
0.18
309
CONTENTFORMAT_END
171
     1
301
MARGIN
  1
CELLMARGIN_BEGIN
 40
0.06
 40
0.06
 40
0.06
 40
0.06
 40
0.18
 40
0.18
309
CELLMARGIN_END
 94
        6
 95
        1
302
GRIDFORMAT
  1
GRIDFORMAT_BEGIN
 90
        0
 91
        1
 62
     0
 92
       -2
340
0
 93
        0
 40
0.045
309
GRIDFORMAT_END
 95
        2
302
GRIDFORMAT
  1
GRIDFORMAT_BEGIN
 90
        0
 91
        1
 62
     0
 92
       -2
340
0
 93
        0
 40
0.045
309
GRIDFORMAT_END
 95
        4
302
GRIDFORMAT
  1
GRIDFORMAT_BEGIN
 90
        0
 91
        1
 62
     0
 92
       -2
340
0
 93
        0
 40
0.045
309
GRIDFORMAT_END
 95
        8
302
GRIDFORMAT
  1
GRIDFORMAT_BEGIN
 90
        0
 91
        1
 62
     0
 92
       -2
340
0
 93
        0
 40
0.045
309
GRIDFORMAT_END
 95
       16
302
GRIDFORMAT
  1
GRIDFORMAT_BEGIN
 90
        0
 91
        1
 62
     0
 92
       -2
340
0
 93
        0
 40
0.045
309
GRIDFORMAT_END
 95
       32
302
GRIDFORMAT
  1
GRIDFORMAT_BEGIN
 90
        0
 91
        1
 62
     0
 92
       -2
340
0
 93
        0
 40
0.045
309
GRIDFORMAT_END
309
TABLEFORMAT_END
  1
CELLSTYLE_BEGIN
 90
        2
 91
        1
300
_HEADER
309
CELLSTYLE_END
300
CELLSTYLE
  1
TABLEFORMAT_BEGIN
 90
        5
170
     1
 91
        0
 92
        0
 62
   257
 93
        1
300
CONTENTFORMAT
  1
CONTENTFORMAT_BEGIN
 90
        0
 91
        0
 92
      512
 93
        0
300

 40
0.0
140
1.0
 94
        2
 62
     0
340
11
144
0.18
309
CONTENTFORMAT_END
171
     1
301
MARGIN
  1
CELLMARGIN_BEGIN
 40
0.06
 40
0.06
 40
0.06
 40
0.06
 40
0.18
 40
0.18
309
CELLMARGIN_END
 94
        6
 95
        1
302
GRIDFORMAT
  1
GRIDFORMAT_BEGIN
 90
        0
 91
        1
 62
     0
 92
       -2
340
0
 93
        0
 40
0.045
309
GRIDFORMAT_END
 95
        2
302
GRIDFORMAT
  1
GRIDFORMAT_BEGIN
 90
        0
 91
        1
 62
     0
 92
       -2
340
0
 93
        0
 40
0.045
309
GRIDFORMAT_END
 95
        4
302
GRIDFORMAT
  1
GRIDFORMAT_BEGIN
 90
        0
 91
        1
 62
     0
 92
       -2
340
0
 93
        0
 40
0.045
309
GRIDFORMAT_END
 95
        8
302
GRIDFORMAT
  1
GRIDFORMAT_BEGIN
 90
        0
 91
        1
 62
     0
 92
       -2
340
0
 93
        0
 40
0.045
309
GRIDFORMAT_END
 95
       16
302
GRIDFORMAT
  1
GRIDFORMAT_BEGIN
 90
        0
 91
        1
 62
     0
 92
       -2
340
0
 93
        0
 40
0.045
309
GRIDFORMAT_END
 95
       32
302
GRIDFORMAT
  1
GRIDFORMAT_BEGIN
 90
        0
 91
        1
 62
     0
 92
       -2
340
0
 93
        0
 40
0.045
309
GRIDFORMAT_END
309
TABLEFORMAT_END
  1
CELLSTYLE_BEGIN
 90
        3
 91
        2
300
_DATA
309
CELLSTYLE_END
  0
ENDSEC
  0
EOF
