  0
SECTION
  2
HEADER
  9
$ACADVER
  1
AC1021
  9
$ACADMAINTVER
 70
    25
  9
$DWGCODEPAGE
  3
ANSI_936
  9
$LASTSAVEDBY
  1
zb.ye
  9
$INSBASE
 10
0.0
 20
0.0
 30
0.0
  9
$EXTMIN
 10
694.0009669093164
 20
184.0076098895922
 30
-0.0000000349181948
  9
$EXTMAX
 10
768.3465067171077
 20
236.5872325940179
 30
0.0000000814935746
  9
$LIMMIN
 10
0.0
 20
0.0
  9
$LIMMAX
 10
12.0
 20
9.0
  9
$ORTHOMODE
 70
     0
  9
$REGENMODE
 70
     1
  9
$FILLMODE
 70
     1
  9
$QTEXTMODE
 70
     0
  9
$MIRRTEXT
 70
     1
  9
$LTSCALE
 40
1.0
  9
$ATTMODE
 70
     1
  9
$TEXTSIZE
 40
0.2
  9
$TRACEWID
 40
0.05
  9
$TEXTSTYLE
  7
Standard
  9
$CLAYER
  8
0
  9
$CELTYPE
  6
ByLayer
  9
$CECOLOR
 62
   256
  9
$CELTSCALE
 40
1.0
  9
$DISPSILH
 70
     0
  9
$DIMSCALE
 40
1.0
  9
$DIMASZ
 40
1.5
  9
$DIMEXO
 40
0.2
  9
$DIMDLI
 40
0.2
  9
$DIMRND
 40
0.0
  9
$DIMDLE
 40
0.0
  9
$DIMEXE
 40
0.5
  9
$DIMTP
 40
0.0
  9
$DIMTM
 40
0.0
  9
$DIMTXT
 40
2.0
  9
$DIMCEN
 40
0.0
  9
$DIMTSZ
 40
0.0
  9
$DIMTOL
 70
     0
  9
$DIMLIM
 70
     0
  9
$DIMTIH
 70
     0
  9
$DIMTOH
 70
     0
  9
$DIMSE1
 70
     0
  9
$DIMSE2
 70
     0
  9
$DIMTAD
 70
     1
  9
$DIMZIN
 70
     8
  9
$DIMBLK
  1

  9
$DIMASO
 70
     1
  9
$DIMSHO
 70
     1
  9
$DIMPOST
  1

  9
$DIMAPOST
  1

  9
$DIMALT
 70
     0
  9
$DIMALTD
 70
     2
  9
$DIMALTF
 40
25.4
  9
$DIMLFAC
 40
1.0
  9
$DIMTOFL
 70
     0
  9
$DIMTVP
 40
0.0
  9
$DIMTIX
 70
     0
  9
$DIMSOXD
 70
     0
  9
$DIMSAH
 70
     0
  9
$DIMBLK1
  1

  9
$DIMBLK2
  1

  9
$DIMSTYLE
  2
01
  9
$DIMCLRD
 70
     1
  9
$DIMCLRE
 70
     6
  9
$DIMCLRT
 70
     4
  9
$DIMTFAC
 40
1.0
  9
$DIMGAP
 40
0.5
  9
$DIMJUST
 70
     0
  9
$DIMSD1
 70
     0
  9
$DIMSD2
 70
     0
  9
$DIMTOLJ
 70
     1
  9
$DIMTZIN
 70
     0
  9
$DIMALTZ
 70
     0
  9
$DIMALTTZ
 70
     0
  9
$DIMUPT
 70
     0
  9
$DIMDEC
 70
     1
  9
$DIMTDEC
 70
     1
  9
$DIMALTU
 70
     2
  9
$DIMALTTD
 70
     2
  9
$DIMTXSTY
  7
Romans字体
  9
$DIMAUNIT
 70
     0
  9
$DIMADEC
 70
     2
  9
$DIMALTRND
 40
0.0
  9
$DIMAZIN
 70
     2
  9
$DIMDSEP
 70
    46
  9
$DIMATFIT
 70
     3
  9
$DIMFRAC
 70
     0
  9
$DIMLDRBLK
  1

  9
$DIMLUNIT
 70
     2
  9
$DIMLWD
 70
    -2
  9
$DIMLWE
 70
    -2
  9
$DIMTMOVE
 70
     0
  9
$DIMFXL
 40
1.0
  9
$DIMFXLON
 70
     0
  9
$DIMJOGANG
 40
0.7853981633974483
  9
$DIMTFILL
 70
     0
  9
$DIMTFILLCLR
 70
     0
  9
$DIMARCSYM
 70
     0
  9
$DIMLTYPE
  6

  9
$DIMLTEX1
  6

  9
$DIMLTEX2
  6

  9
$LUNITS
 70
     2
  9
$LUPREC
 70
     4
  9
$SKETCHINC
 40
0.1
  9
$FILLETRAD
 40
0.5
  9
$AUNITS
 70
     0
  9
$AUPREC
 70
     0
  9
$MENU
  1
.
  9
$ELEVATION
 40
0.0
  9
$PELEVATION
 40
0.0
  9
$THICKNESS
 40
0.0
  9
$LIMCHECK
 70
     0
  9
$CHAMFERA
 40
0.5
  9
$CHAMFERB
 40
0.5
  9
$CHAMFERC
 40
1.0
  9
$CHAMFERD
 40
0.0
  9
$SKPOLY
 70
     0
  9
$TDCREATE
 40
2456524.383632987
  9
$TDUCREATE
 40
2456524.050299653
  9
$TDUPDATE
 40
2460290.638748693
  9
$TDUUPDATE
 40
2460290.305415359
  9
$TDINDWG
 40
1.4781252315
  9
$TDUSRTIMER
 40
1.4781063194
  9
$USRTIMER
 70
     1
  9
$ANGBASE
 50
0.0
  9
$ANGDIR
 70
     0
  9
$PDMODE
 70
     0
  9
$PDSIZE
 40
0.0
  9
$PLINEWID
 40
0.0
  9
$SPLFRAME
 70
     0
  9
$SPLINETYPE
 70
     6
  9
$SPLINESEGS
 70
     8
  9
$HANDSEED
  5
DA4
  9
$SURFTAB1
 70
     6
  9
$SURFTAB2
 70
     6
  9
$SURFTYPE
 70
     6
  9
$SURFU
 70
     6
  9
$SURFV
 70
     6
  9
$UCSBASE
  2

  9
$UCSNAME
  2

  9
$UCSORG
 10
0.0
 20
0.0
 30
0.0
  9
$UCSXDIR
 10
1.0
 20
0.0
 30
0.0
  9
$UCSYDIR
 10
0.0
 20
1.0
 30
0.0
  9
$UCSORTHOREF
  2

  9
$UCSORTHOVIEW
 70
     0
  9
$UCSORGTOP
 10
0.0
 20
0.0
 30
0.0
  9
$UCSORGBOTTOM
 10
0.0
 20
0.0
 30
0.0
  9
$UCSORGLEFT
 10
0.0
 20
0.0
 30
0.0
  9
$UCSORGRIGHT
 10
0.0
 20
0.0
 30
0.0
  9
$UCSORGFRONT
 10
0.0
 20
0.0
 30
0.0
  9
$UCSORGBACK
 10
0.0
 20
0.0
 30
0.0
  9
$PUCSBASE
  2

  9
$PUCSNAME
  2

  9
$PUCSORG
 10
0.0
 20
0.0
 30
0.0
  9
$PUCSXDIR
 10
1.0
 20
0.0
 30
0.0
  9
$PUCSYDIR
 10
0.0
 20
1.0
 30
0.0
  9
$PUCSORTHOREF
  2

  9
$PUCSORTHOVIEW
 70
     0
  9
$PUCSORGTOP
 10
0.0
 20
0.0
 30
0.0
  9
$PUCSORGBOTTOM
 10
0.0
 20
0.0
 30
0.0
  9
$PUCSORGLEFT
 10
0.0
 20
0.0
 30
0.0
  9
$PUCSORGRIGHT
 10
0.0
 20
0.0
 30
0.0
  9
$PUCSORGFRONT
 10
0.0
 20
0.0
 30
0.0
  9
$PUCSORGBACK
 10
0.0
 20
0.0
 30
0.0
  9
$USERI1
 70
     0
  9
$USERI2
 70
     0
  9
$USERI3
 70
     0
  9
$USERI4
 70
     0
  9
$USERI5
 70
     0
  9
$USERR1
 40
0.0
  9
$USERR2
 40
0.0
  9
$USERR3
 40
0.0
  9
$USERR4
 40
0.0
  9
$USERR5
 40
0.0
  9
$WORLDVIEW
 70
     1
  9
$SHADEDGE
 70
     3
  9
$SHADEDIF
 70
    70
  9
$TILEMODE
 70
     1
  9
$MAXACTVP
 70
    64
  9
$PINSBASE
 10
0.0
 20
0.0
 30
0.0
  9
$PLIMCHECK
 70
     0
  9
$PEXTMIN
 10
1.000000000000000E+20
 20
1.000000000000000E+20
 30
1.000000000000000E+20
  9
$PEXTMAX
 10
-1.000000000000000E+20
 20
-1.000000000000000E+20
 30
-1.000000000000000E+20
  9
$PLIMMIN
 10
0.0
 20
0.0
  9
$PLIMMAX
 10
12.0
 20
9.0
  9
$UNITMODE
 70
     0
  9
$VISRETAIN
 70
     1
  9
$PLINEGEN
 70
     0
  9
$PSLTSCALE
 70
     1
  9
$TREEDEPTH
 70
  3020
  9
$CMLSTYLE
  2
Standard
  9
$CMLJUST
 70
     0
  9
$CMLSCALE
 40
1.0
  9
$PROXYGRAPHICS
 70
     1
  9
$MEASUREMENT
 70
     0
  9
$CELWEIGHT
370
    -1
  9
$ENDCAPS
280
     0
  9
$JOINSTYLE
280
     0
  9
$LWDISPLAY
290
     0
  9
$INSUNITS
 70
     4
  9
$HYPERLINKBASE
  1

  9
$STYLESHEET
  1
monochrome.ctb
  9
$XEDIT
290
     1
  9
$CEPSNTYPE
380
     0
  9
$PSTYLEMODE
290
     1
  9
$FINGERPRINTGUID
  2
{58F35D0F-9E7E-477A-9A2B-021866C83E8C}
  9
$VERSIONGUID
  2
{AB745D06-0C16-4B92-AB73-9B5B68AB657A}
  9
$EXTNAMES
290
     1
  9
$PSVPSCALE
 40
0.0
  9
$OLESTARTUP
290
     0
  9
$SORTENTS
280
   127
  9
$INDEXCTL
280
     0
  9
$HIDETEXT
280
     1
  9
$XCLIPFRAME
290
     0
  9
$HALOGAP
280
     0
  9
$OBSCOLOR
 70
   257
  9
$OBSLTYPE
280
     0
  9
$INTERSECTIONDISPLAY
280
     0
  9
$INTERSECTIONCOLOR
 70
   257
  9
$DIMASSOC
280
     1
  9
$PROJECTNAME
  1

  9
$CAMERADISPLAY
290
     0
  9
$LENSLENGTH
 40
50.0
  9
$CAMERAHEIGHT
 40
0.0
  9
$STEPSPERSEC
 40
2.0
  9
$STEPSIZE
 40
6.0
  9
$3DDWFPREC
 40
2.0
  9
$PSOLWIDTH
 40
0.25
  9
$PSOLHEIGHT
 40
4.0
  9
$LOFTANG1
 40
1.570795999999999
  9
$LOFTANG2
 40
1.570795999999999
  9
$LOFTMAG1
 40
0.0
  9
$LOFTMAG2
 40
0.0
  9
$LOFTPARAM
 70
     7
  9
$LOFTNORMALS
280
     1
  9
$LATITUDE
 40
37.795
  9
$LONGITUDE
 40
-122.394
  9
$NORTHDIRECTION
 40
0.0
  9
$TIMEZONE
 70
 -8000
  9
$LIGHTGLYPHDISPLAY
280
     1
  9
$TILEMODELIGHTSYNCH
280
     1
  9
$CMATERIAL
347
1D7
  9
$SOLIDHIST
280
     1
  9
$SHOWHIST
280
     1
  9
$DWFFRAME
280
     2
  9
$DGNFRAME
280
     0
  9
$REALWORLDSCALE
290
     1
  9
$INTERFERECOLOR
 62
     1
  9
$INTERFEREOBJVS
345
1ED
  9
$INTERFEREVPVS
346
1EE
  9
$CSHADOW
280
     0
  9
$SHADOWPLANELOCATION
 40
0.0
  0
ENDSEC
  0
SECTION
  2
CLASSES
  0
CLASS
  1
ACDBDICTIONARYWDFLT
  2
AcDbDictionaryWithDefault
  3
ObjectDBX Classes
 90
        0
 91
        1
280
     0
281
     0
  0
CLASS
  1
VISUALSTYLE
  2
AcDbVisualStyle
  3
ObjectDBX Classes
 90
     4095
 91
       16
280
     0
281
     0
  0
CLASS
  1
MATERIAL
  2
AcDbMaterial
  3
ObjectDBX Classes
 90
     1153
 91
        3
280
     0
281
     0
  0
CLASS
  1
TABLESTYLE
  2
AcDbTableStyle
  3
ObjectDBX Classes
 90
     4095
 91
        1
280
     0
281
     0
  0
CLASS
  1
SCALE
  2
AcDbScale
  3
ObjectDBX Classes
 90
     1153
 91
       33
280
     0
281
     0
  0
CLASS
  1
MLEADERSTYLE
  2
AcDbMLeaderStyle
  3
ACDB_MLEADERSTYLE_CLASS
 90
     4095
 91
        1
280
     0
281
     0
  0
CLASS
  1
CELLSTYLEMAP
  2
AcDbCellStyleMap
  3
ObjectDBX Classes
 90
     1152
 91
        4
280
     0
281
     0
  0
CLASS
  1
DICTIONARYVAR
  2
AcDbDictionaryVar
  3
ObjectDBX Classes
 90
        0
 91
       11
280
     0
281
     0
  0
CLASS
  1
SORTENTSTABLE
  2
AcDbSortentsTable
  3
ObjectDBX Classes
 90
        0
 91
        1
280
     0
281
     0
  0
CLASS
  1
ACAD_EVALUATION_GRAPH
  2
AcDbEvalGraph
  3
ObjectDBX Classes
 90
     1153
 91
        1
280
     0
281
     0
  0
CLASS
  1
ACAECUSTOBJ
  2
AcAeEditorObj
  3
AcAeEditorObj
 90
     1024
 91
        1
280
     1
281
     0
  0
CLASS
  1
ACDB_DYNAMICBLOCKPURGEPREVENTER_VERSION
  2
AcDbDynamicBlockPurgePreventer
  3
ObjectDBX Classes
 90
     1153
 91
        1
280
     0
281
     0
  0
CLASS
  1
MENTALRAYRENDERSETTINGS
  2
AcDbMentalRayRenderSettings
  3
SCENEOE
 90
     1024
 91
        0
280
     0
281
     0
  0
CLASS
  1
ACDB_BLOCKREPRESENTATION_DATA
  2
AcDbBlockRepresentationData
  3
ObjectDBX Classes
 90
     1153
 91
        0
280
     0
281
     0
  0
CLASS
  1
DIMASSOC
  2
AcDbDimAssoc
  3
"AcDbDimAssoc|Product Desc:     AcDim ARX App For Dimension|Company:          Autodesk, Inc.|WEB Address:      www.autodesk.com"
 90
        0
 91
        2
280
     0
281
     0
  0
ENDSEC
  0
SECTION
  2
TABLES
  0
TABLE
  2
VPORT
  5
1CB
102
{ACAD_XDICTIONARY
360
1CF
102
}
330
0
100
AcDbSymbolTable
 70
     1
  0
VPORT
  5
1CC
330
1CB
100
AcDbSymbolTableRecord
100
AcDbViewportTableRecord
  2
*Active
 70
     0
 10
0.0
 20
0.0
 11
1.0
 21
1.0
 12
629.6232552225575
 22
61.7053223247812
 13
0.0
 23
0.0
 14
0.5
 24
0.5
 15
0.5
 25
0.5
 16
0.0
 26
0.0
 36
1.0
 17
104.9654968719086
 27
148.5022307685978
 37
0.0
 40
53.1234917787504
 41
2.426395939086294
 42
50.0
 43
0.0
 44
0.0
 50
0.0
 51
0.0
 71
     0
 72
   100
 73
     1
 74
     3
 75
     0
 76
     0
 77
     0
 78
     0
281
     0
 65
     1
110
0.0
120
0.0
130
0.0
111
1.0
121
0.0
131
0.0
112
0.0
122
1.0
132
0.0
 79
     0
146
0.0
348
1CD
 60
     3
 61
     5
292
     1
282
     1
141
0.0
142
0.0
 63
   250
421
  3355443
  0
ENDTAB
  0
TABLE
  2
LTYPE
  5
1C6
330
0
100
AcDbSymbolTable
 70
     2
  0
LTYPE
  5
1C7
330
1C6
100
AcDbSymbolTableRecord
100
AcDbLinetypeTableRecord
  2
ByBlock
 70
     0
  3

 72
    65
 73
     0
 40
0.0
  0
LTYPE
  5
1C8
330
1C6
100
AcDbSymbolTableRecord
100
AcDbLinetypeTableRecord
  2
ByLayer
 70
     0
  3

 72
    65
 73
     0
 40
0.0
  0
LTYPE
  5
15
330
1C6
100
AcDbSymbolTableRecord
100
AcDbLinetypeTableRecord
  2
Continuous
 70
     0
  3
Solid line
 72
    65
 73
     0
 40
0.0
  0
LTYPE
  5
12E
330
1C6
100
AcDbSymbolTableRecord
100
AcDbLinetypeTableRecord
  2
CENTER
 70
     0
  3
Center ____ _ ____ _ ____ _ ____ _ ____ _ ____
 72
    65
 73
     4
 40
2.0
 49
1.25
 74
     0
 49
-0.25
 74
     0
 49
0.25
 74
     0
 49
-0.25
 74
     0
  0
ENDTAB
  0
TABLE
  2
LAYER
  5
1BF
102
{ACAD_XDICTIONARY
360
1C0
102
}
330
0
100
AcDbSymbolTable
 70
     9
  0
LAYER
  5
6
102
{ACAD_XDICTIONARY
360
7
102
}
330
1BF
100
AcDbSymbolTableRecord
100
AcDbLayerTableRecord
  2
0
 70
     0
 62
     7
  6
Continuous
370
    25
390
9
347
C
  0
LAYER
  5
17
102
{ACAD_XDICTIONARY
360
18
102
}
330
1BF
100
AcDbSymbolTableRecord
100
AcDbLayerTableRecord
  2
图层 1
 70
     0
 62
     7
  6
Continuous
370
    -3
390
9
347
C
  0
LAYER
  5
25
102
{ACAD_XDICTIONARY
360
26
102
}
330
1BF
100
AcDbSymbolTableRecord
100
AcDbLayerTableRecord
  2
图框
 70
     0
 62
     7
  6
Continuous
370
    20
390
9
347
C
  0
LAYER
  5
F1
330
1BF
100
AcDbSymbolTableRecord
100
AcDbLayerTableRecord
  2
Defpoints
 70
     0
 62
     7
  6
Continuous
290
     0
370
    -3
390
9
347
C
  0
LAYER
  5
E5
330
1BF
100
AcDbSymbolTableRecord
100
AcDbLayerTableRecord
  2
DIM
 70
     0
 62
     3
  6
Continuous
370
    15
390
9
347
C
1001
AcAecLayerStandard
1000

1000

  0
LAYER
  5
D5
330
1BF
100
AcDbSymbolTableRecord
100
AcDbLayerTableRecord
  2
打标文字
 70
     0
 62
     3
  6
Continuous
370
    20
390
9
347
C
  0
LAYER
  5
151
330
1BF
100
AcDbSymbolTableRecord
100
AcDbLayerTableRecord
  2
CEN
 70
     0
 62
     1
  6
CENTER
370
    15
390
9
347
C
1001
AcAecLayerStandard
1000

1000

  0
LAYER
  5
113
330
1BF
100
AcDbSymbolTableRecord
100
AcDbLayerTableRecord
  2
hat
 70
     0
 62
     6
  6
Continuous
370
    15
390
9
347
C
1001
AcAecLayerStandard
1000

1000

  0
LAYER
  5
108
330
1BF
100
AcDbSymbolTableRecord
100
AcDbLayerTableRecord
  2
02___PRT_ALL_AXES
 70
     0
 62
     7
  6
Continuous
370
    -3
390
9
347
C
  0
ENDTAB
  0
TABLE
  2
STYLE
  5
1C4
330
0
100
AcDbSymbolTable
 70
     5
  0
STYLE
  5
42
330
1C4
100
AcDbSymbolTableRecord
100
AcDbTextStyleTableRecord
  2
Standard
 70
     0
 40
0.0
 41
0.75
 50
0.0
 71
     0
 42
0.2
  3
SIMFANG.TTF
  4

1001
ACAD
1000
FangSong_GB2312
1071
    34353
  0
STYLE
  5
28
330
1C4
100
AcDbSymbolTableRecord
100
AcDbTextStyleTableRecord
  2
Romans字体
 70
     0
 40
0.0
 41
0.75
 50
0.0
 71
     0
 42
0.2
  3
romans.shx
  4

  0
STYLE
  5
44
330
1C4
100
AcDbSymbolTableRecord
100
AcDbTextStyleTableRecord
  2
工程字
 70
     0
 40
0.0
 41
1.0
 50
0.0
 71
     0
 42
3.5
  3
gbenor.shx
  4
gbcbig.shx
  0
STYLE
  5
46
330
1C4
100
AcDbSymbolTableRecord
100
AcDbTextStyleTableRecord
  2
Chinese
 70
     0
 40
0.0
 41
1.0
 50
0.0
 71
     0
 42
2.5
  3
PMingLiU.ttf
  4

1001
ACAD
1000
PMingLiU
1071
    34834
  0
ENDTAB
  0
TABLE
  2
VIEW
  5
1C9
330
0
100
AcDbSymbolTable
 70
     0
  0
ENDTAB
  0
TABLE
  2
UCS
  5
1CA
330
0
100
AcDbSymbolTable
 70
     0
  0
ENDTAB
  0
TABLE
  2
APPID
  5
1D0
330
0
100
AcDbSymbolTable
 70
    10
  0
APPID
  5
29
330
1D0
100
AcDbSymbolTableRecord
100
AcDbRegAppTableRecord
  2
ACAD
 70
     0
  0
APPID
  5
31
330
1D0
100
AcDbSymbolTableRecord
100
AcDbRegAppTableRecord
  2
AcDbBlockRepETag
 70
     0
  0
APPID
  5
1B6
330
1D0
100
AcDbSymbolTableRecord
100
AcDbRegAppTableRecord
  2
ACAD_PSEXT
 70
     0
  0
APPID
  5
E6
330
1D0
100
AcDbSymbolTableRecord
100
AcDbRegAppTableRecord
  2
AcAecLayerStandard
 70
     0
  0
APPID
  5
F6
330
1D0
100
AcDbSymbolTableRecord
100
AcDbRegAppTableRecord
  2
ACAD_DSTYLE_DIMJAG
 70
     0
  0
APPID
  5
F7
330
1D0
100
AcDbSymbolTableRecord
100
AcDbRegAppTableRecord
  2
ACAD_DSTYLE_DIMTALN
 70
     0
  0
APPID
  5
24D
330
1D0
100
AcDbSymbolTableRecord
100
AcDbRegAppTableRecord
  2
ACAD_MLEADERVER
 70
     0
  0
APPID
  5
342
330
1D0
100
AcDbSymbolTableRecord
100
AcDbRegAppTableRecord
  2
AcDbDynamicBlockGUID
 70
     0
  0
APPID
  5
ADA
330
1D0
100
AcDbSymbolTableRecord
100
AcDbRegAppTableRecord
  2
ACAUTHENVIRON
 70
     0
  0
APPID
  5
ADD
330
1D0
100
AcDbSymbolTableRecord
100
AcDbRegAppTableRecord
  2
AcDbDynamicBlockTrueName
 70
     0
  0
ENDTAB
  0
TABLE
  2
DIMSTYLE
  5
1D1
330
0
100
AcDbSymbolTable
 70
     3
100
AcDbDimStyleTable
 71
     2
340
F5
340
1D2
  0
DIMSTYLE
105
1D2
330
1D1
100
AcDbSymbolTableRecord
100
AcDbDimStyleTableRecord
  2
Standard
 70
     0
340
42
  0
DIMSTYLE
105
F5
102
{ACAD_REACTORS
330
5C2
330
59E
330
5D8
330
5B7
330
59B
102
}
330
1D1
100
AcDbSymbolTableRecord
100
AcDbDimStyleTableRecord
  2
01
 70
     0
 41
1.5
 42
0.2
 43
0.2
 44
0.5
 73
     0
 74
     0
 77
     1
 78
     8
 79
     2
140
2.0
141
0.0
147
0.5
176
     1
177
     6
178
     4
179
     2
271
     1
272
     1
340
28
1001
ACAD_DSTYLE_DIMJAG
1070
   388
1040
1.5
1001
ACAD_DSTYLE_DIMTALN
1070
   392
1070
     0
  0
ENDTAB
  0
TABLE
  2
BLOCK_RECORD
  5
1
330
0
100
AcDbSymbolTable
 70
     9
  0
BLOCK_RECORD
  5
2
102
{ACAD_XDICTIONARY
360
3
102
}
330
1
100
AcDbSymbolTableRecord
100
AcDbBlockTableRecord
  2
*Model_Space
340
1B4
 70
     0
280
     1
281
     0
  0
BLOCK_RECORD
  5
1B7
330
1
100
AcDbSymbolTableRecord
100
AcDbBlockTableRecord
  2
*Paper_Space
340
1BA
 70
     0
280
     1
281
     0
  0
BLOCK_RECORD
  5
1BB
330
1
100
AcDbSymbolTableRecord
100
AcDbBlockTableRecord
  2
*Paper_Space0
340
1BE
 70
     0
280
     1
281
     0
  0
BLOCK_RECORD
  5
25D
102
{ACAD_XDICTIONARY
360
D47
102
}
330
1
100
AcDbSymbolTableRecord
100
AcDbBlockTableRecord
  2
A4图框-NEW
340
0
310
2800000020000000200000000100080000000000000400000000000000000000000000000000000000000000000080000080000000808000800000008000800080800000C0C0C000C0DCC000F0CAA6000020400000206000002080000020A0000020C0000020E00000400000004020000040400000406000004080000040A0
310
000040C0000040E00000600000006020000060400000606000006080000060A0000060C0000060E00000800000008020000080400000806000008080000080A0000080C0000080E00000A0000000A0200000A0400000A0600000A0800000A0A00000A0C00000A0E00000C0000000C0200000C0400000C0600000C0800000C0
310
A00000C0C00000C0E00000E0000000E0200000E0400000E0600000E0800000E0A00000E0C00000E0E00040000000400020004000400040006000400080004000A0004000C0004000E00040200000402020004020400040206000402080004020A0004020C0004020E000404000004040200040404000404060004040800040
310
40A0004040C0004040E00040600000406020004060400040606000406080004060A0004060C0004060E00040800000408020004080400040806000408080004080A0004080C0004080E00040A0000040A0200040A0400040A0600040A0800040A0A00040A0C00040A0E00040C0000040C0200040C0400040C0600040C08000
310
40C0A00040C0C00040C0E00040E0000040E0200040E0400040E0600040E0800040E0A00040E0C00040E0E00080000000800020008000400080006000800080008000A0008000C0008000E00080200000802020008020400080206000802080008020A0008020C0008020E00080400000804020008040400080406000804080
310
008040A0008040C0008040E00080600000806020008060400080606000806080008060A0008060C0008060E00080800000808020008080400080806000808080008080A0008080C0008080E00080A0000080A0200080A0400080A0600080A0800080A0A00080A0C00080A0E00080C0000080C0200080C0400080C0600080C0
310
800080C0A00080C0C00080C0E00080E0000080E0200080E0400080E0600080E0800080E0A00080E0C00080E0E000C0000000C0002000C0004000C0006000C0008000C000A000C000C000C000E000C0200000C0202000C0204000C0206000C0208000C020A000C020C000C020E000C0400000C0402000C0404000C0406000C0
310
408000C040A000C040C000C040E000C0600000C0602000C0604000C0606000C0608000C060A000C060C000C060E000C0800000C0802000C0804000C0806000C0808000C080A000C080C000C080E000C0A00000C0A02000C0A04000C0A06000C0A08000C0A0A000C0A0C000C0A0E000C0C00000C0C02000C0C04000C0C06000
310
C0C08000C0C0A000F0FBFF00A4A0A000808080000000FF0000FF000000FFFF00FF000000FF00FF00FFFF0000FFFFFF0000000000000000000000000000000000000000000000000000000000000000000000000000000000000000000000000000000000000000000000000000000000000000000000000000000000000000
310
000000000000000000000000000000000000000000000000000000000000000000000000000000000000000000000000000000000000000000000000000000000000000000000000000000000000000000000000000000000000000000000000000000000000000000000000000000000000F9F9F9F9F9F9F9F9F9F9F9F9F9
310
F9F9F9F9F9F9F9F9F9F9F9F9F9F9FF00000000F9FF000000000000000000FFFFFFFFFFFFFFFFFFFFFFFFF9FAFAFAFF00000000F9FF000000000000000000FFFFFFFFFFFFFFFFFFFFFFFFFFFFFFFFFF00000000F9FD000000000000000000FFFFFFFFFFFFFFFFFFFFFFFFFFFFFFFFFF00000000F9FF000000000000000000FF
310
FFFFFFFFFFFFFFFFFFFFFFFFFFFFFFFF00000000F9FD000000000000000000FFFFFFFFFFFFFFFFFFFFFFFFFFFFFFFFFF00000000F9FF00000000000000000000000000000000000000000000000000FF00000000F9FD00000000000000000000000000000000000000000000000000FF00000000F9FF000000000000000000
310
00000000000000000000000000000000FF00000000F9FD00000000000000000000000000000000000000000000000000FF00000000F9FF00000000000000000000000000000000000000000000000000FF00000000F9FD00000000000000000000000000000000000000000000000000FF00000000F9FD0000000000000000
310
0000000000000000000000000000000000FF00000000F9FF00000000000000000000000000000000000000000000000000FF00000000F9FD00000000000000000000000000000000000000000000000000FF00000000F9FF00000000000000000000000000000000000000000000000000FF00000000F9FD00000000000000
310
000000000000000000000000000000000000FF00000000F9FF00000000000000000000000000000000000000000000000000FF00000000F9FFFFFFFFFFFFFFFFFFFFFFFFFFFFFFFFFFFFFFFFFFFFFFFFFFFFFF00000000F9FFFFFFF9F9F9F9F9F9F9F9F9F9F9F9F9F9F9F9F9F9F9F9F9F9F9F9000000000000000000000000
310
00000000000000000000000000000000000000000000000000000000000000000000000000000000000000000000000000000000000000000000000000000000000000000000000000000000000000000000000000000000000000000000000000000000000000000000000000000000000000000000000000000000000000
310
0000000000000000000000000000000000000000000000000000000000000000000000000000000000000000000000000000000000000000
102
{BLKREFS
331
516
102
}
 70
     4
280
     1
281
     0
1001
AcDbDynamicBlockGUID
1000
{55296BB0-2F67-43EA-9875-E6DF1EAE95F8}
1001
AcDbBlockRepETag
1070
     1
1071
      149
  0
BLOCK_RECORD
  5
621
330
1
100
AcDbSymbolTableRecord
100
AcDbBlockTableRecord
  2
*D2
340
0
 70
     0
280
     1
281
     0
  0
BLOCK_RECORD
  5
62D
330
1
100
AcDbSymbolTableRecord
100
AcDbBlockTableRecord
  2
*D3
340
0
 70
     0
280
     1
281
     0
  0
BLOCK_RECORD
  5
643
330
1
100
AcDbSymbolTableRecord
100
AcDbBlockTableRecord
  2
*D4
340
0
 70
     0
280
     1
281
     0
  0
BLOCK_RECORD
  5
64F
330
1
100
AcDbSymbolTableRecord
100
AcDbBlockTableRecord
  2
*D5
340
0
 70
     0
280
     1
281
     0
  0
BLOCK_RECORD
  5
666
330
1
100
AcDbSymbolTableRecord
100
AcDbBlockTableRecord
  2
*D6
340
0
 70
     0
280
     1
281
     0
  0
ENDTAB
  0
ENDSEC
  0
SECTION
  2
BLOCKS
  0
BLOCK
  5
5
330
2
100
AcDbEntity
  8
0
100
AcDbBlockBegin
  2
*Model_Space
 70
     0
 10
0.0
 20
0.0
 30
0.0
  3
*Model_Space
  1

  0
ENDBLK
  5
1B3
330
2
100
AcDbEntity
  8
0
100
AcDbBlockEnd
  0
BLOCK
  5
1B8
330
1B7
100
AcDbEntity
 67
     1
  8
0
100
AcDbBlockBegin
  2
*Paper_Space
 70
     0
 10
0.0
 20
0.0
 30
0.0
  3
*Paper_Space
  1

  0
ENDBLK
  5
1B9
330
1B7
100
AcDbEntity
 67
     1
  8
0
100
AcDbBlockEnd
  0
BLOCK
  5
1BC
330
1BB
100
AcDbEntity
 67
     1
  8
0
100
AcDbBlockBegin
  2
*Paper_Space0
 70
     0
 10
0.0
 20
0.0
 30
0.0
  3
*Paper_Space0
  1

  0
ENDBLK
  5
1BD
330
1BB
100
AcDbEntity
 67
     1
  8
0
100
AcDbBlockEnd
  0
BLOCK
  5
25F
330
25D
100
AcDbEntity
  8
0
100
AcDbBlockBegin
  2
A4图框-NEW
 70
     0
 10
0.0
 20
0.0
 30
0.0
  3
A4图框-NEW
  1

  0
MTEXT
  5
CB2
102
{ACAD_XDICTIONARY
360
D8C
102
}
330
25D
100
AcDbEntity
  8
图框
 62
     3
100
AcDbMText
 10
967.6594956750133
 20
499.7664151964293
 30
0.0
 40
2.985513575034151
 41
15.50176341157864
 46
6.292658374511018
 71
     5
 72
     5
  1
BQ LUO
  7
Romans字体
 73
     1
 44
1.0
1001
AcDbBlockRepETag
1070
     1
1071
        0
1005
CB2
1001
ACAD
1000
MTEXTBEGIN
1070
    73
1070
     1
1070
    44
1040
1.0
1070
    74
1070
     0
1000
MTEXTEND
1000
ACAD_MTEXT_DEFINED_HEIGHT_BEGIN
1070
    46
1040
6.292658374511018
1000
ACAD_MTEXT_DEFINED_HEIGHT_END
  0
MTEXT
  5
CB3
330
25D
100
AcDbEntity
  8
图框
 62
     3
100
AcDbMText
 10
983.041569333247
 20
499.7664151964293
 30
0.0
 40
2.487927979195124
 41
15.26238390489062
 46
6.292658374511042
 71
     5
 72
     5
  1
{\W0.7;05.05.2018}
  7
Romans字体
 73
     1
 44
1.0
1001
AcDbBlockRepETag
1070
     1
1071
        1
1005
CB3
1001
ACAD
1000
MTEXTBEGIN
1070
    73
1070
     1
1070
    44
1040
1.0
1070
    74
1070
     0
1000
MTEXTEND
1000
ACAD_MTEXT_DEFINED_HEIGHT_BEGIN
1070
    46
1040
6.292658374511042
1000
ACAD_MTEXT_DEFINED_HEIGHT_END
  0
MTEXT
  5
CB4
330
25D
100
AcDbEntity
  8
图框
 62
     3
100
AcDbMText
 10
1012.477254728976
 20
487.1810984474071
 30
0.0
 40
2.985513575034151
 41
17.64876416884615
 46
6.292658374511455
 71
     5
 72
     5
  1
HQ ZHANG
  7
Romans字体
 73
     1
 44
1.0
1001
AcDbBlockRepETag
1070
     1
1071
        2
1005
CB4
1001
ACAD
1000
MTEXTBEGIN
1070
    73
1070
     1
1070
    44
1040
1.0
1070
    74
1070
     0
1000
MTEXTEND
1000
ACAD_MTEXT_DEFINED_HEIGHT_BEGIN
1070
    46
1040
6.292658374511455
1000
ACAD_MTEXT_DEFINED_HEIGHT_END
  0
MTEXT
  5
CB5
330
25D
100
AcDbEntity
  8
图框
 62
     3
100
AcDbMText
 10
1028.977802139886
 20
487.1810984474071
 30
0.0
 40
2.487927979195124
 41
15.35233065297276
 46
6.292658374511495
 71
     5
 72
     5
  1
{\W0.7;05.05.2018}
  7
Romans字体
 73
     1
 44
1.0
1001
AcDbBlockRepETag
1070
     1
1071
        3
1005
CB5
1001
ACAD
1000
MTEXTBEGIN
1070
    73
1070
     1
1070
    44
1040
1.0
1070
    74
1070
     0
1000
MTEXTEND
1000
ACAD_MTEXT_DEFINED_HEIGHT_BEGIN
1070
    46
1040
6.292658374511495
1000
ACAD_MTEXT_DEFINED_HEIGHT_END
  0
MTEXT
  5
CB6
330
25D
100
AcDbEntity
  8
图框
 62
     3
100
AcDbMText
 10
1063.722665487208
 20
525.4145966538831
 30
0.0
 40
2.985513575034151
 41
32.4973914334545
 46
11.82914190181707
 71
     5
 72
     5
  1
-
  7
Romans字体
 73
     1
 44
1.0
1001
AcDbBlockRepETag
1070
     1
1071
        4
1005
CB6
1001
ACAD
1000
MTEXTBEGIN
1070
    73
1070
     1
1070
    44
1040
1.0
1070
    74
1070
     0
1000
MTEXTEND
1000
ACAD_MTEXT_DEFINED_HEIGHT_BEGIN
1070
    46
1040
11.82914190181707
1000
ACAD_MTEXT_DEFINED_HEIGHT_END
  0
MTEXT
  5
CB7
330
25D
100
AcDbEntity
  8
图框
 62
     3
100
AcDbMText
 10
1063.727338552349
 20
513.5854547520641
 30
0.0
 40
2.985513575034151
 41
32.48804530317308
 46
11.82914190182139
 71
     5
 72
     5
  1
-
  7
Romans字体
 73
     1
 44
1.0
1001
AcDbBlockRepETag
1070
     1
1071
        5
1005
CB7
1001
ACAD
1000
MTEXTBEGIN
1070
    73
1070
     1
1070
    44
1040
1.0
1070
    74
1070
     0
1000
MTEXTEND
1000
ACAD_MTEXT_DEFINED_HEIGHT_BEGIN
1070
    46
1040
11.82914190182139
1000
ACAD_MTEXT_DEFINED_HEIGHT_END
  0
MTEXT
  5
CB8
330
25D
100
AcDbEntity
  8
图框
 62
     3
100
AcDbMText
 10
1110.122306614152
 20
526.8006839312707
 30
0.0
 40
2.985513575034151
 41
33.61239199242139
 46
9.05696734704178
 71
     5
 72
     5
  1
-
  7
Romans字体
 73
     1
 44
1.0
1001
AcDbBlockRepETag
1070
     1
1071
        6
1005
CB8
1001
ACAD
1000
MTEXTBEGIN
1070
    73
1070
     1
1070
    44
1040
1.0
1070
    74
1070
     0
1000
MTEXTEND
1000
ACAD_MTEXT_DEFINED_HEIGHT_BEGIN
1070
    46
1040
9.05696734704178
1000
ACAD_MTEXT_DEFINED_HEIGHT_END
  0
MTEXT
  5
CB9
330
25D
100
AcDbEntity
  8
图框
 62
     3
100
AcDbMText
 10
1110.122306614152
 20
500.2775205517162
 30
0.0
 40
2.985513575034151
 41
33.61239199242139
 46
8.871557304763419
 71
     5
 72
     5
  1
-
  7
Romans字体
 73
     1
 44
1.0
1001
AcDbBlockRepETag
1070
     1
1071
        7
1005
CB9
1001
ACAD
1000
MTEXTBEGIN
1070
    73
1070
     1
1070
    44
1040
1.0
1070
    74
1070
     0
1000
MTEXTEND
1000
ACAD_MTEXT_DEFINED_HEIGHT_BEGIN
1070
    46
1040
8.871557304763419
1000
ACAD_MTEXT_DEFINED_HEIGHT_END
  0
MTEXT
  5
CBA
330
25D
100
AcDbEntity
  8
图框
 62
     3
100
AcDbMText
 10
967.6594956750133
 20
493.4737568219182
 30
0.0
 40
2.985513575034151
 41
15.50176341157864
 46
6.292658374510335
 71
     5
 72
     5
  1
HZ LAN
  7
Romans字体
 73
     1
 44
1.0
1001
AcDbBlockRepETag
1070
     1
1071
        8
1005
CBA
1001
ACAD
1000
MTEXTBEGIN
1070
    73
1070
     1
1070
    44
1040
1.0
1070
    74
1070
     0
1000
MTEXTEND
1000
ACAD_MTEXT_DEFINED_HEIGHT_BEGIN
1070
    46
1040
6.292658374510335
1000
ACAD_MTEXT_DEFINED_HEIGHT_END
  0
MTEXT
  5
CBB
330
25D
100
AcDbEntity
  8
图框
 62
     3
100
AcDbMText
 10
983.041569333247
 20
493.2441970450405
 30
0.0
 40
2.487927979195124
 41
15.26238390489051
 46
6.751777928266487
 71
     5
 72
     5
  1
{\W0.7;05.05.2018}
  7
Romans字体
 73
     1
 44
1.0
1001
AcDbBlockRepETag
1070
     1
1071
        9
1005
CBB
1001
ACAD
1000
MTEXTBEGIN
1070
    73
1070
     1
1070
    44
1040
1.0
1070
    74
1070
     0
1000
MTEXTEND
1000
ACAD_MTEXT_DEFINED_HEIGHT_BEGIN
1070
    46
1040
6.751777928266487
1000
ACAD_MTEXT_DEFINED_HEIGHT_END
  0
MTEXT
  5
CBC
330
25D
100
AcDbEntity
  8
图框
 62
     3
100
AcDbMText
 10
1012.477254728976
 20
499.7664151964291
 30
0.0
 40
2.985513575034151
 41
17.64876416884615
 46
6.292658374511397
 71
     5
 72
     5
  1
-
  7
Romans字体
 73
     1
 44
1.0
1001
AcDbBlockRepETag
1070
     1
1071
       10
1005
CBC
1001
ACAD
1000
MTEXTBEGIN
1070
    73
1070
     1
1070
    44
1040
1.0
1070
    74
1070
     0
1000
MTEXTEND
1000
ACAD_MTEXT_DEFINED_HEIGHT_BEGIN
1070
    46
1040
6.292658374511397
1000
ACAD_MTEXT_DEFINED_HEIGHT_END
  0
MTEXT
  5
CBD
330
25D
100
AcDbEntity
  8
图框
 62
     3
100
AcDbMText
 10
1028.977802139886
 20
499.7664151964289
 30
0.0
 40
2.487927979195124
 41
15.35233065297265
 46
6.292658374511382
 71
     5
 72
     5
  1
-
  7
Romans字体
 73
     1
 44
1.0
1001
AcDbBlockRepETag
1070
     1
1071
       11
1005
CBD
1001
ACAD
1000
MTEXTBEGIN
1070
    73
1070
     1
1070
    44
1040
1.0
1070
    74
1070
     0
1000
MTEXTEND
1000
ACAD_MTEXT_DEFINED_HEIGHT_BEGIN
1070
    46
1040
6.292658374511382
1000
ACAD_MTEXT_DEFINED_HEIGHT_END
  0
MTEXT
  5
CBE
330
25D
100
AcDbEntity
  8
图框
 62
     3
100
AcDbMText
 10
967.6594956750133
 20
487.1810984474071
 30
0.0
 40
2.985513575034151
 41
15.50176341157863
 46
6.292658374511478
 71
     5
 72
     5
  1
-
  7
Romans字体
 73
     1
 44
1.0
1001
AcDbBlockRepETag
1070
     1
1071
       12
1005
CBE
1001
ACAD
1000
MTEXTBEGIN
1070
    73
1070
     1
1070
    44
1040
1.0
1070
    74
1070
     0
1000
MTEXTEND
1000
ACAD_MTEXT_DEFINED_HEIGHT_BEGIN
1070
    46
1040
6.292658374511478
1000
ACAD_MTEXT_DEFINED_HEIGHT_END
  0
MTEXT
  5
CBF
330
25D
100
AcDbEntity
  8
图框
 62
     3
100
AcDbMText
 10
983.041569333247
 20
487.1810984474071
 30
0.0
 40
2.487927979195124
 41
15.26238390489062
 46
6.292658374511495
 71
     5
 72
     5
  1
-
  7
Romans字体
 73
     1
 44
1.0
1001
AcDbBlockRepETag
1070
     1
1071
       13
1005
CBF
1001
ACAD
1000
MTEXTBEGIN
1070
    73
1070
     1
1070
    44
1040
1.0
1070
    74
1070
     0
1000
MTEXTEND
1000
ACAD_MTEXT_DEFINED_HEIGHT_BEGIN
1070
    46
1040
6.292658374511495
1000
ACAD_MTEXT_DEFINED_HEIGHT_END
  0
MTEXT
  5
CC0
330
25D
100
AcDbEntity
  8
图框
 62
     3
100
AcDbMText
 10
1074.556686986741
 20
495.8417418993361
 30
0.0
 40
2.985513575034151
 41
10.82934843438978
 46
7.886094601210427
 71
     5
 72
     5
  1
-
  7
Romans字体
 73
     1
 44
1.0
1001
AcDbBlockRepETag
1070
     1
1071
       14
1005
CC0
1001
ACAD
1000
MTEXTBEGIN
1070
    73
1070
     1
1070
    44
1040
1.0
1070
    74
1070
     0
1000
MTEXTEND
1000
ACAD_MTEXT_DEFINED_HEIGHT_BEGIN
1070
    46
1040
7.886094601210427
1000
ACAD_MTEXT_DEFINED_HEIGHT_END
  0
LINE
  5
CC1
330
25D
100
AcDbEntity
  8
图框
370
    -3
100
AcDbLine
 10
1036.653967466372
 20
499.7847891999413
 30
0.0
 11
1079.971361203936
 21
499.7847891999413
 31
0.0
1001
AcDbBlockRepETag
1070
     1
1071
       15
1005
CC1
  0
MTEXT
  5
CC2
330
25D
100
AcDbEntity
  8
图框
 62
     1
370
    20
100
AcDbMText
 10
1108.26336443907
 20
491.5162596080882
 30
0.0
 40
2.699054613030988
 41
82.30831305643079
 46
0.0
 71
     5
 72
     5
  1
{\fSimHei|b0|i0|c134|p2;厦门唯恩电气有限公司}
 73
     1
 44
1.0
1001
AcDbBlockRepETag
1070
     1
1071
       16
1005
CC2
1001
ACAD
1000
MTEXTBEGIN
1070
    73
1070
     1
1070
    44
1040
1.0
1070
    74
1070
     0
1000
MTEXTEND
  0
MTEXT
  5
CC3
330
25D
100
AcDbEntity
  8
图框
 62
     3
370
    20
100
AcDbMText
 10
1108.435451459908
 20
487.298967726064
 30
0.0
 40
1.652482416141417
 41
68.08558693693567
 46
0.0
 71
     5
 72
     5
  1
{\fArial Narrow|b0|i0|c0|p34;XIAMEN WAIN ELECTRICAL CO.LTD}
  7
工程字
 73
     1
 44
1.0
1001
AcDbBlockRepETag
1070
     1
1071
       17
1005
CC3
1001
ACAD
1000
MTEXTBEGIN
1070
    73
1070
     1
1070
    44
1040
1.0
1070
    74
1070
     0
1000
MTEXTEND
  0
MTEXT
  5
CC4
330
25D
100
AcDbEntity
  8
图框
 62
     1
370
    20
100
AcDbMText
 10
1085.711816899387
 20
491.0944802995856
 30
0.0
 40
2.005930044038334
 41
5.047240019334847
 46
0.0
 71
     1
 72
     5
  1
{\fArial|b0|i0|c0|p34;A}
  7
Chinese
 73
     1
 44
1.0
1001
AcDbBlockRepETag
1070
     1
1071
       18
1005
CC4
1001
ACAD
1000
MTEXTBEGIN
1070
    73
1070
     1
1070
    44
1040
1.0
1070
    74
1070
     0
1000
MTEXTEND
  0
MTEXT
  5
CC5
330
25D
100
AcDbEntity
  8
图框
 62
     1
370
    20
100
AcDbMText
 10
1088.213485935716
 20
491.0944802995856
 30
0.0
 40
2.005930044038334
 41
5.047240019334847
 46
0.0
 71
     1
 72
     5
  1
{\fArial|b0|i0|c0|p34;I}
  7
Chinese
 73
     1
 44
1.0
1001
AcDbBlockRepETag
1070
     1
1071
       19
1005
CC5
1001
ACAD
1000
MTEXTBEGIN
1070
    73
1070
     1
1070
    44
1040
1.0
1070
    74
1070
     0
1000
MTEXTEND
  0
MTEXT
  5
CC6
330
25D
100
AcDbEntity
  8
图框
 62
     1
370
    20
100
AcDbMText
 10
1089.142375222864
 20
491.0822866326808
 30
0.0
 40
2.005930044038334
 41
5.047240019334847
 46
0.0
 71
     1
 72
     5
  1
{\fArial|b0|i0|c0|p34;N}
  7
Chinese
 73
     1
 44
1.0
1001
AcDbBlockRepETag
1070
     1
1071
       20
1005
CC6
1001
ACAD
1000
MTEXTBEGIN
1070
    73
1070
     1
1070
    44
1040
1.0
1070
    74
1070
     0
1000
MTEXTEND
  0
MTEXT
  5
CC7
330
25D
100
AcDbEntity
  8
图框
100
AcDbMText
 10
1069.142012769545
 20
487.9667319294409
 30
0.0
 40
2.252848170144607
 41
21.65869686878327
 46
7.863925338579296
 71
     5
 72
     5
  1
{\W0.5;\C1;All Dimensions in mm\POriginal Size DIN A 4}
  7
Romans字体
 73
     1
 44
1.0
1001
AcDbBlockRepETag
1070
     1
1071
       21
1005
CC7
1001
ACAD
1000
MTEXTBEGIN
1070
    73
1070
     1
1070
    44
1040
1.0
1070
    74
1070
     0
1000
MTEXTEND
1000
ACAD_MTEXT_DEFINED_HEIGHT_BEGIN
1070
    46
1040
7.863925338579296
1000
ACAD_MTEXT_DEFINED_HEIGHT_END
  0
MTEXT
  5
CC8
330
25D
100
AcDbEntity
  8
图框
  6
ByBlock
 62
     6
370
    18
100
AcDbMText
 10
1127.40434942308
 20
508.7896535755975
 30
0.0
 40
2.651776162684904
 41
2.557913877927211
 46
0.0
 71
     1
 72
     5
  1
A
  7
Romans字体
 11
0.0000000000000001
 21
1.0
 31
0.0
 73
     1
 44
1.0
1001
AcDbBlockRepETag
1070
     1
1071
       22
1005
CC8
1001
ACAD
1000
MTEXTBEGIN
1070
    73
1070
     1
1070
    44
1040
1.0
1070
    74
1070
     0
1000
MTEXTEND
  0
MTEXT
  5
CC9
330
25D
100
AcDbEntity
  8
图框
 62
     6
100
AcDbMText
 10
1127.40434942308
 20
556.3746573232886
 30
0.0
 40
2.651776162684904
 41
2.557913877927211
 46
0.0
 71
     1
 72
     5
  1
B
  7
Romans字体
 11
0.0000000000000001
 21
1.0
 31
0.0
 73
     1
 44
1.0
1001
AcDbBlockRepETag
1070
     1
1071
       23
1005
CC9
1001
ACAD
1000
MTEXTBEGIN
1070
    73
1070
     1
1070
    44
1040
1.0
1070
    74
1070
     0
1000
MTEXTEND
  0
MTEXT
  5
CCA
330
25D
100
AcDbEntity
  8
图框
 62
     6
100
AcDbMText
 10
1127.40434942308
 20
607.5539372630998
 30
0.0
 40
2.651776162684904
 41
2.557913877927211
 46
0.0
 71
     1
 72
     5
  1
C
  7
Romans字体
 11
0.0000000000000001
 21
1.0
 31
0.0
 73
     1
 44
1.0
1001
AcDbBlockRepETag
1070
     1
1071
       24
1005
CCA
1001
ACAD
1000
MTEXTBEGIN
1070
    73
1070
     1
1070
    44
1040
1.0
1070
    74
1070
     0
1000
MTEXTEND
  0
MTEXT
  5
CCB
330
25D
100
AcDbEntity
  8
图框
 62
     6
100
AcDbMText
 10
1127.40434942308
 20
658.7332172029115
 30
0.0
 40
2.651776162684904
 41
2.557913877927211
 46
0.0
 71
     1
 72
     5
  1
D
  7
Romans字体
 11
0.0000000000000001
 21
1.0
 31
0.0
 73
     1
 44
1.0
1001
AcDbBlockRepETag
1070
     1
1071
       25
1005
CCB
1001
ACAD
1000
MTEXTBEGIN
1070
    73
1070
     1
1070
    44
1040
1.0
1070
    74
1070
     0
1000
MTEXTEND
  0
LINE
  5
CCC
330
25D
100
AcDbEntity
  8
图框
 62
     6
100
AcDbLine
 10
1130.411601781241
 20
634.0726090796082
 30
0.0
 11
1126.928502610363
 21
634.0726090796082
 31
0.0
1001
AcDbBlockRepETag
1070
     1
1071
       26
1005
CCC
  0
LINE
  5
CCD
330
25D
100
AcDbEntity
  8
图框
 62
     6
100
AcDbLine
 10
1130.411601781241
 20
582.89332913979
 30
0.0
 11
1126.928502610363
 21
582.89332913979
 31
0.0
1001
AcDbBlockRepETag
1070
     1
1071
       27
1005
CCD
  0
MTEXT
  5
CCE
330
25D
100
AcDbEntity
  8
图框
 62
     6
100
AcDbMText
 10
1105.329704038389
 20
483.6164543011163
 30
0.0
 40
2.651776162684904
 41
2.557913877927211
 46
0.0
 71
     1
 72
     5
  1
6
  7
Romans字体
 73
     1
 44
1.0
1001
AcDbBlockRepETag
1070
     1
1071
       28
1005
CCE
1001
ACAD
1000
MTEXTBEGIN
1070
    73
1070
     1
1070
    44
1040
1.0
1070
    74
1070
     0
1000
MTEXTEND
  0
LINE
  5
CCF
330
25D
100
AcDbEntity
  8
图框
 62
     6
100
AcDbLine
 10
1081.088565155284
 20
484.0347692601515
 30
0.0
 11
1081.088565155284
 21
480.5347692601475
 31
0.0
1001
AcDbBlockRepETag
1070
     1
1071
       29
1005
CCF
  0
MTEXT
  5
CD0
330
25D
100
AcDbEntity
  8
图框
 62
     6
100
AcDbMText
 10
1055.900596365941
 20
483.520053108993
 30
0.0
 40
2.651776162684904
 41
2.557913877927211
 46
0.0
 71
     1
 72
     5
  1
5
  7
Romans字体
 73
     1
 44
1.0
1001
AcDbBlockRepETag
1070
     1
1071
       30
1005
CD0
1001
ACAD
1000
MTEXTBEGIN
1070
    73
1070
     1
1070
    44
1040
1.0
1070
    74
1070
     0
1000
MTEXTEND
  0
LINE
  5
CD1
330
25D
100
AcDbEntity
  8
图框
 62
     6
100
AcDbLine
 10
1031.553386436349
 20
484.0347692601515
 30
0.0
 11
1031.553386436349
 21
480.5347692601475
 31
0.0
1001
AcDbBlockRepETag
1070
     1
1071
       31
1005
CD1
  0
MTEXT
  5
CD2
330
25D
100
AcDbEntity
  8
图框
 62
     6
100
AcDbMText
 10
1006.383180575197
 20
483.5687958215896
 30
0.0
 40
2.651776162684904
 41
2.557913877927211
 46
0.0
 71
     1
 72
     5
  1
4
  7
Romans字体
 73
     1
 44
1.0
1001
AcDbBlockRepETag
1070
     1
1071
       32
1005
CD2
1001
ACAD
1000
MTEXTBEGIN
1070
    73
1070
     1
1070
    44
1040
1.0
1070
    74
1070
     0
1000
MTEXTEND
  0
LINE
  5
CD3
330
25D
100
AcDbEntity
  8
图框
 62
     6
100
AcDbLine
 10
982.0182077173887
 20
484.0347692601515
 30
0.0
 11
982.0182077173887
 21
480.5347692601475
 31
0.0
1001
AcDbBlockRepETag
1070
     1
1071
       33
1005
CD3
  0
MTEXT
  5
CD4
330
25D
100
AcDbEntity
  8
图框
 62
     6
100
AcDbMText
 10
956.8302389280352
 20
483.5989680297948
 30
0.0
 40
2.651776162684904
 41
2.557913877927211
 46
0.0
 71
     1
 72
     5
  1
3
  7
Romans字体
 73
     1
 44
1.0
1001
AcDbBlockRepETag
1070
     1
1071
       34
1005
CD4
1001
ACAD
1000
MTEXTBEGIN
1070
    73
1070
     1
1070
    44
1040
1.0
1070
    74
1070
     0
1000
MTEXTEND
  0
LINE
  5
CD5
330
25D
100
AcDbEntity
  8
图框
 62
     6
100
AcDbLine
 10
932.4830289984245
 20
484.0347692601515
 30
0.0
 11
932.4830289984245
 21
480.5347692601475
 31
0.0
1001
AcDbBlockRepETag
1070
     1
1071
       35
1005
CD5
  0
MTEXT
  5
CD6
330
25D
100
AcDbEntity
  8
图框
 62
     6
100
AcDbMText
 10
906.0252349826365
 20
483.6475250013156
 30
0.0
 40
2.651776162684904
 41
2.557913877927211
 46
0.0
 71
     1
 72
     5
  1
2
  7
Romans字体
 73
     1
 44
1.0
1001
AcDbBlockRepETag
1070
     1
1071
       36
1005
CD6
1001
ACAD
1000
MTEXTBEGIN
1070
    73
1070
     1
1070
    44
1040
1.0
1070
    74
1070
     0
1000
MTEXTEND
  0
LINE
  5
CD7
330
25D
100
AcDbEntity
  8
图框
 62
     6
100
AcDbLine
 10
882.9478502794648
 20
484.0347692601515
 30
0.0
 11
882.9478502794648
 21
480.5347692601475
 31
0.0
1001
AcDbBlockRepETag
1070
     1
1071
       37
1005
CD7
  0
MTEXT
  5
CD8
330
25D
100
AcDbEntity
  8
图框
 62
     6
100
AcDbMText
 10
857.7598814901191
 20
483.651829494754
 30
0.0
 40
2.651776162684904
 41
2.557913877927211
 46
0.0
 71
     1
 72
     5
  1
1
  7
Romans字体
 73
     1
 44
1.0
1001
AcDbBlockRepETag
1070
     1
1071
       38
1005
CD8
1001
ACAD
1000
MTEXTBEGIN
1070
    73
1070
     1
1070
    44
1040
1.0
1070
    74
1070
     0
1000
MTEXTEND
  0
LINE
  5
CD9
330
25D
100
AcDbEntity
  8
图框
370
    50
100
AcDbLine
 10
836.8548209370597
 20
484.0347692601515
 30
0.0
 11
1126.928502610363
 21
484.0347692601515
 31
0.0
1001
AcDbBlockRepETag
1070
     1
1071
       39
1005
CD9
  0
LINE
  5
CDA
330
25D
100
AcDbEntity
  8
图框
370
    50
100
AcDbLine
 10
836.9128518455362
 20
484.0178684310246
 30
0.0
 11
836.9128518455394
 21
675.0207195125422
 31
0.0
1001
AcDbBlockRepETag
1070
     1
1071
       40
1005
CDA
  0
MTEXT
  5
CDB
330
25D
100
AcDbEntity
  8
图框
 62
     6
100
AcDbMText
 10
833.8475685789031
 20
658.7332172029115
 30
0.0
 40
2.651776162684904
 41
2.557913877927211
 46
0.0
 71
     1
 72
     5
  1
D
  7
Romans字体
 11
0.0000000000000001
 21
1.0
 31
0.0
 73
     1
 44
1.0
1001
AcDbBlockRepETag
1070
     1
1071
       41
1005
CDB
1001
ACAD
1000
MTEXTBEGIN
1070
    73
1070
     1
1070
    44
1040
1.0
1070
    74
1070
     0
1000
MTEXTEND
  0
LINE
  5
CDC
330
25D
100
AcDbEntity
  8
图框
 62
     6
100
AcDbLine
 10
836.9128518455386
 20
634.0726090796082
 30
0.0
 11
833.4128518455365
 21
634.0726090796082
 31
0.0
1001
AcDbBlockRepETag
1070
     1
1071
       42
1005
CDC
  0
MTEXT
  5
CDD
330
25D
100
AcDbEntity
  8
图框
 62
     6
100
AcDbMText
 10
833.9039177480142
 20
607.5539372630998
 30
0.0
 40
2.651776162684904
 41
2.557913877927211
 46
0.0
 71
     1
 72
     5
  1
C
  7
Romans字体
 11
0.0000000000000001
 21
1.0
 31
0.0
 73
     1
 44
1.0
1001
AcDbBlockRepETag
1070
     1
1071
       43
1005
CDD
1001
ACAD
1000
MTEXTBEGIN
1070
    73
1070
     1
1070
    44
1040
1.0
1070
    74
1070
     0
1000
MTEXTEND
  0
LINE
  5
CDE
330
25D
100
AcDbEntity
  8
图框
 62
     6
100
AcDbLine
 10
836.9128518455378
 20
582.89332913979
 30
0.0
 11
833.4128518455365
 21
582.89332913979
 31
0.0
1001
AcDbBlockRepETag
1070
     1
1071
       44
1005
CDE
  0
MTEXT
  5
CDF
330
25D
100
AcDbEntity
  8
图框
 62
     6
100
AcDbMText
 10
833.9039177480142
 20
556.3746573232886
 30
0.0
 40
2.651776162684904
 41
2.557913877927211
 46
0.0
 71
     1
 72
     5
  1
B
  7
Romans字体
 11
0.0000000000000001
 21
1.0
 31
0.0
 73
     1
 44
1.0
1001
AcDbBlockRepETag
1070
     1
1071
       45
1005
CDF
1001
ACAD
1000
MTEXTBEGIN
1070
    73
1070
     1
1070
    44
1040
1.0
1070
    74
1070
     0
1000
MTEXTEND
  0
LINE
  5
CE0
330
25D
100
AcDbEntity
  8
图框
 62
     6
100
AcDbLine
 10
836.9128518455367
 20
531.714049199969
 30
0.0
 11
833.4128518455365
 21
531.714049199969
 31
0.0
1001
AcDbBlockRepETag
1070
     1
1071
       46
1005
CE0
  0
MTEXT
  5
CE1
330
25D
100
AcDbEntity
  8
图框
 62
     6
100
AcDbMText
 10
833.9039177480142
 20
508.7896535755975
 30
0.0
 40
2.651776162684904
 41
2.557913877927211
 46
0.0
 71
     1
 72
     5
  1
A
  7
Romans字体
 11
0.0000000000000001
 21
1.0
 31
0.0
 73
     1
 44
1.0
1001
AcDbBlockRepETag
1070
     1
1071
       47
1005
CE1
1001
ACAD
1000
MTEXTBEGIN
1070
    73
1070
     1
1070
    44
1040
1.0
1070
    74
1070
     0
1000
MTEXTEND
  0
LINE
  5
CE2
330
25D
100
AcDbEntity
  8
图框
370
    -3
100
AcDbLine
 10
836.9128518455394
 20
675.0207195125422
 30
0.0
 11
836.9128518455394
 21
684.5021384922564
 31
0.0
1001
AcDbBlockRepETag
1070
     1
1071
       48
1005
CE2
  0
LINE
  5
CE3
330
25D
100
AcDbEntity
  8
图框
370
    -3
100
AcDbLine
 10
842.6237321475781
 20
675.5347692601515
 30
0.0
 11
842.6237321475781
 21
685.0161882398658
 31
0.0
1001
AcDbBlockRepETag
1070
     1
1071
       49
1005
CE3
  0
LINE
  5
CE4
330
25D
100
AcDbEntity
  8
图框
370
    -3
100
AcDbLine
 10
848.3346124496179
 20
675.5347692601515
 30
0.0
 11
848.3346124496179
 21
685.0161882398658
 31
0.0
1001
AcDbBlockRepETag
1070
     1
1071
       50
1005
CE4
  0
LINE
  5
CE5
330
25D
100
AcDbEntity
  8
图框
370
    -3
100
AcDbLine
 10
854.0454927516588
 20
675.5347692601515
 30
0.0
 11
854.0454927516588
 21
685.0161882398658
 31
0.0
1001
AcDbBlockRepETag
1070
     1
1071
       51
1005
CE5
  0
LINE
  5
CE6
330
25D
100
AcDbEntity
  8
图框
370
    -3
100
AcDbLine
 10
861.5351874539182
 20
675.5347692601515
 30
0.0
 11
861.5351874539182
 21
686.7901958362482
 31
0.0
1001
AcDbBlockRepETag
1070
     1
1071
       52
1005
CE6
  0
MTEXT
  5
CE7
330
25D
100
AcDbEntity
  8
图框
 62
     6
100
AcDbMText
 10
1105.329704038389
 20
678.859919059449
 30
0.0
 40
2.651776162684904
 41
2.557913877927211
 46
0.0
 71
     1
 72
     5
  1
6
  7
Romans字体
 73
     1
 44
1.0
1001
AcDbBlockRepETag
1070
     1
1071
       53
1005
CE7
1001
ACAD
1000
MTEXTBEGIN
1070
    73
1070
     1
1070
    44
1040
1.0
1070
    74
1070
     0
1000
MTEXTEND
  0
LINE
  5
CE8
330
25D
100
AcDbEntity
  8
图框
 62
     6
100
AcDbLine
 10
1081.088565155284
 20
679.0347692601516
 30
0.0
 11
1081.088565155284
 21
675.5347692601515
 31
0.0
1001
AcDbBlockRepETag
1070
     1
1071
       54
1005
CE8
  0
MTEXT
  5
CE9
330
25D
100
AcDbEntity
  8
图框
 62
     6
100
AcDbMText
 10
1055.900596365941
 20
678.859919059449
 30
0.0
 40
2.651776162684904
 41
2.557913877927211
 46
0.0
 71
     1
 72
     5
  1
5
  7
Romans字体
 73
     1
 44
1.0
1001
AcDbBlockRepETag
1070
     1
1071
       55
1005
CE9
1001
ACAD
1000
MTEXTBEGIN
1070
    73
1070
     1
1070
    44
1040
1.0
1070
    74
1070
     0
1000
MTEXTEND
  0
LINE
  5
CEA
330
25D
100
AcDbEntity
  8
图框
 62
     6
100
AcDbLine
 10
1031.553386436349
 20
679.0347692601516
 30
0.0
 11
1031.553386436349
 21
675.5347692601515
 31
0.0
1001
AcDbBlockRepETag
1070
     1
1071
       56
1005
CEA
  0
MTEXT
  5
CEB
330
25D
100
AcDbEntity
  8
图框
 62
     6
100
AcDbMText
 10
1006.36541764698
 20
678.7312083656147
 30
0.0
 40
2.651776162684904
 41
2.557913877927211
 46
0.0
 71
     1
 72
     5
  1
4
  7
Romans字体
 73
     1
 44
1.0
1001
AcDbBlockRepETag
1070
     1
1071
       57
1005
CEB
1001
ACAD
1000
MTEXTBEGIN
1070
    73
1070
     1
1070
    44
1040
1.0
1070
    74
1070
     0
1000
MTEXTEND
  0
LINE
  5
CEC
330
25D
100
AcDbEntity
  8
图框
 62
     6
100
AcDbLine
 10
982.0182077173887
 20
679.0347692601516
 30
0.0
 11
982.0182077173887
 21
675.5347692601515
 31
0.0
1001
AcDbBlockRepETag
1070
     1
1071
       58
1005
CEC
  0
MTEXT
  5
CED
330
25D
100
AcDbEntity
  8
图框
 62
     6
100
AcDbMText
 10
956.8302389280352
 20
678.859919059449
 30
0.0
 40
2.651776162684904
 41
2.557913877927211
 46
0.0
 71
     1
 72
     5
  1
3
  7
Romans字体
 73
     1
 44
1.0
1001
AcDbBlockRepETag
1070
     1
1071
       59
1005
CED
1001
ACAD
1000
MTEXTBEGIN
1070
    73
1070
     1
1070
    44
1040
1.0
1070
    74
1070
     0
1000
MTEXTEND
  0
LINE
  5
CEE
330
25D
100
AcDbEntity
  8
图框
 62
     6
100
AcDbLine
 10
932.4830289984245
 20
679.0347692601516
 30
0.0
 11
932.4830289984245
 21
675.5347692601515
 31
0.0
1001
AcDbBlockRepETag
1070
     1
1071
       60
1005
CEE
  0
MTEXT
  5
CEF
330
25D
100
AcDbEntity
  8
图框
 62
     6
100
AcDbMText
 10
907.295060209082
 20
678.859919059449
 30
0.0
 40
2.651776162684904
 41
2.557913877927211
 46
0.0
 71
     1
 72
     5
  1
2
  7
Romans字体
 73
     1
 44
1.0
1001
AcDbBlockRepETag
1070
     1
1071
       61
1005
CEF
1001
ACAD
1000
MTEXTBEGIN
1070
    73
1070
     1
1070
    44
1040
1.0
1070
    74
1070
     0
1000
MTEXTEND
  0
LINE
  5
CF0
330
25D
100
AcDbEntity
  8
图框
 62
     6
100
AcDbLine
 10
882.9478502794648
 20
678.7962435131815
 30
0.0
 11
882.9478502794648
 21
675.5347692601515
 31
0.0
1001
AcDbBlockRepETag
1070
     1
1071
       62
1005
CF0
  0
MTEXT
  5
CF1
330
25D
100
AcDbEntity
  8
图框
 62
     6
100
AcDbMText
 10
862.6286629643733
 20
678.859919059449
 30
0.0
 40
2.651776162684904
 41
2.557913877927211
 46
0.0
 71
     1
 72
     5
  1
1
  7
Romans字体
 73
     1
 44
1.0
1001
AcDbBlockRepETag
1070
     1
1071
       63
1005
CF1
1001
ACAD
1000
MTEXTBEGIN
1070
    73
1070
     1
1070
    44
1040
1.0
1070
    74
1070
     0
1000
MTEXTEND
  0
LINE
  5
CF2
330
25D
100
AcDbEntity
  8
图框
370
    -3
100
AcDbLine
 10
836.9128518455394
 20
675.0207195125422
 30
0.0
 11
836.9128518455394
 21
686.7901958362482
 31
0.0
1001
AcDbBlockRepETag
1070
     1
1071
       64
1005
CF2
  0
LINE
  5
CF3
330
25D
100
AcDbEntity
  8
图框
370
    50
100
AcDbLine
 10
836.9128518455394
 20
675.5347692601515
 30
0.0
 11
1126.928502610363
 21
675.5347692601515
 31
0.0
1001
AcDbBlockRepETag
1070
     1
1071
       65
1005
CF3
  0
LINE
  5
CF4
330
25D
100
AcDbEntity
  8
图框
370
    -3
100
AcDbLine
 10
842.6237321475781
 20
675.5347692601515
 30
0.0
 11
842.6237321475781
 21
686.7901958362482
 31
0.0
1001
AcDbBlockRepETag
1070
     1
1071
       66
1005
CF4
  0
LINE
  5
CF5
330
25D
100
AcDbEntity
  8
图框
370
    -3
100
AcDbLine
 10
848.3346124496179
 20
675.5347692601515
 30
0.0
 11
848.3346124496179
 21
686.7901958362482
 31
0.0
1001
AcDbBlockRepETag
1070
     1
1071
       67
1005
CF5
  0
MTEXT
  5
CF6
102
{ACAD_XDICTIONARY
360
D8E
102
}
330
25D
100
AcDbEntity
  8
图框
100
AcDbMText
 10
857.7903401027889
 20
686.7901958362482
 30
0.0
 40
1.958998408821398
 41
11.25542657609672
 46
7.489694702258906
 71
     4
 72
     5
  1
\pi2.6646;{\fSimSun|b0|i0|c134|p2;档案员\fFangSong_GB2312|b0|i0|c134|p49;\H0.7x;\P\pi1.4159;\Fromans|c134;Filing Clerk\fFangSong_GB2312|b0|i0|c134|p49; }
 11
-0.0000000000000002
 21
-1.0
 31
0.0
 73
     1
 44
1.0
1001
AcDbBlockRepETag
1070
     1
1071
       68
1005
CF6
1001
ACAD
1000
MTEXTBEGIN
1070
    73
1070
     1
1070
    44
1040
1.0
1070
    74
1070
     0
1000
MTEXTEND
1000
ACAD_MTEXT_DEFINED_HEIGHT_BEGIN
1070
    46
1040
7.489694702258906
1000
ACAD_MTEXT_DEFINED_HEIGHT_END
  0
MTEXT
  5
CF7
102
{ACAD_XDICTIONARY
360
D90
102
}
330
25D
100
AcDbEntity
  8
图框
100
AcDbMText
 10
845.479172298598
 20
686.7901958362482
 30
0.0
 40
1.958998408821398
 41
11.25542657609672
 46
5.710880302039671
 71
     4
 72
     5
  1
\pi0.63465;{\fSimSun|b0|i0|c134|p2;日期\Fromans|c134;/Date}
 11
-0.0000000000000002
 21
-1.0
 31
0.0
 73
     1
 44
1.0
1001
AcDbBlockRepETag
1070
     1
1071
       69
1005
CF7
1001
ACAD
1000
MTEXTBEGIN
1070
    73
1070
     1
1070
    44
1040
1.0
1070
    74
1070
     0
1000
MTEXTEND
1000
ACAD_MTEXT_DEFINED_HEIGHT_BEGIN
1070
    46
1040
5.710880302039671
1000
ACAD_MTEXT_DEFINED_HEIGHT_END
  0
LINE
  5
CF8
330
25D
100
AcDbEntity
  8
图框
370
    -3
100
AcDbLine
 10
854.0454927516588
 20
675.5347692601515
 30
0.0
 11
854.0454927516588
 21
686.7901958362482
 31
0.0
1001
AcDbBlockRepETag
1070
     1
1071
       70
1005
CF8
  0
LINE
  5
CF9
330
25D
100
AcDbEntity
  8
图框
370
    -3
100
AcDbLine
 10
1036.653967466372
 20
531.3291676047914
 30
0.0
 11
1036.653967466372
 21
484.0126019753161
 31
0.0
1001
AcDbBlockRepETag
1070
     1
1071
       71
1005
CF9
  0
LINE
  5
CFA
330
25D
100
AcDbEntity
  8
图框
370
    -3
100
AcDbLine
 10
1047.483315900763
 20
507.6708838011533
 30
0.0
 11
1047.483315900763
 21
491.8986945987308
 31
0.0
1001
AcDbBlockRepETag
1070
     1
1071
       72
1005
CFA
  0
LINE
  5
CFB
330
25D
100
AcDbEntity
  8
图框
370
    -3
100
AcDbLine
 10
1058.312664335153
 20
507.6708838011533
 30
0.0
 11
1058.312664335153
 21
484.0347692601515
 31
0.0
1001
AcDbBlockRepETag
1070
     1
1071
       73
1005
CFB
  0
LINE
  5
CFC
330
25D
100
AcDbEntity
  8
图框
370
    25
100
AcDbLine
 10
1048.474135214456
 20
488.1095628329926
 30
0.0
 11
1054.946420288459
 21
488.1095628329926
 31
0.0
1001
AcDbBlockRepETag
1070
     1
1071
       74
1005
CFC
  0
LINE
  5
CFD
330
25D
100
AcDbEntity
  8
图框
370
    25
100
AcDbLine
 10
1054.232527365989
 20
487.0761716842634
 30
0.0
 11
1049.156490914508
 21
486.4576273751
 31
0.0
1001
AcDbBlockRepETag
1070
     1
1071
       75
1005
CFD
  0
LINE
  5
CFE
330
25D
100
AcDbEntity
  8
图框
370
    25
100
AcDbLine
 10
1054.232527365989
 20
489.1429539817209
 30
0.0
 11
1049.156490914508
 21
489.7614982908846
 31
0.0
1001
AcDbBlockRepETag
1070
     1
1071
       76
1005
CFE
  0
LINE
  5
CFF
330
25D
100
AcDbEntity
  8
图框
370
    25
100
AcDbLine
 10
1049.156490914508
 20
489.7614982908846
 30
0.0
 11
1049.156490914508
 21
486.4576273751
 31
0.0
1001
AcDbBlockRepETag
1070
     1
1071
       77
1005
CFF
  0
LINE
  5
D00
330
25D
100
AcDbEntity
  8
图框
370
    25
100
AcDbLine
 10
1054.232527365989
 20
489.1429539817209
 30
0.0
 11
1054.232527365989
 21
487.0761716842634
 31
0.0
1001
AcDbBlockRepETag
1070
     1
1071
       78
1005
D00
  0
CIRCLE
  5
D01
330
25D
100
AcDbEntity
  8
图框
370
    25
100
AcDbCircle
 10
1042.502700458579
 20
488.1095628329926
 30
0.0
 40
1.651935457891863
1001
AcDbBlockRepETag
1070
     1
1071
       79
1005
D01
  0
CIRCLE
  5
D02
330
25D
100
AcDbEntity
  8
图框
370
    25
100
AcDbCircle
 10
1042.502700458579
 20
488.1095628329926
 30
0.0
 40
1.033391148728775
1001
AcDbBlockRepETag
1070
     1
1071
       80
1005
D02
  0
LINE
  5
D03
330
25D
100
AcDbEntity
  8
图框
370
    25
100
AcDbLine
 10
1040.136872078216
 20
488.1095628329926
 30
0.0
 11
1044.868528838943
 21
488.1095628329926
 31
0.0
1001
AcDbBlockRepETag
1070
     1
1071
       81
1005
D03
  0
LINE
  5
D04
330
25D
100
AcDbEntity
  8
图框
370
    25
100
AcDbLine
 10
1042.502700458579
 20
490.475391213355
 30
0.0
 11
1042.502700458579
 21
485.743734452629
 31
0.0
1001
AcDbBlockRepETag
1070
     1
1071
       82
1005
D04
  0
LINE
  5
D05
330
25D
100
AcDbEntity
  8
图框
370
    -3
100
AcDbLine
 10
1069.142012769546
 20
507.6708838011533
 30
0.0
 11
1069.142012769546
 21
491.8986945987308
 31
0.0
1001
AcDbBlockRepETag
1070
     1
1071
       83
1005
D05
  0
MTEXT
  5
D06
330
25D
100
AcDbEntity
  8
图框
100
AcDbMText
 10
1086.643735910939
 20
526.8006839312707
 30
0.0
 40
2.154898249703542
 41
13.34474941400573
 46
9.056967347041775
 71
     5
 72
     5
  1
图号{\Ftxt|c134;\P\Fromans|c134;\W0.65;Drawing No.}
 73
     1
 44
1.0
1001
AcDbBlockRepETag
1070
     1
1071
       84
1005
D06
1001
ACAD
1000
MTEXTBEGIN
1070
    73
1070
     1
1070
    44
1040
1.0
1070
    74
1070
     0
1000
MTEXTEND
1000
ACAD_MTEXT_DEFINED_HEIGHT_BEGIN
1070
    46
1040
9.056967347041775
1000
ACAD_MTEXT_DEFINED_HEIGHT_END
  0
LINE
  5
D07
330
25D
100
AcDbEntity
  8
图框
370
    -3
100
AcDbLine
 10
1093.316110617942
 20
531.3291676047914
 30
0.0
 11
1093.316110617942
 21
495.8417418993347
 31
0.0
1001
AcDbBlockRepETag
1070
     1
1071
       85
1005
D07
  0
LINE
  5
D08
330
25D
100
AcDbEntity
  8
图框
370
    -3
100
AcDbLine
 10
1047.473969770481
 20
531.3291676047914
 30
0.0
 11
1047.473969770481
 21
507.6708838011533
 31
0.0
1001
AcDbBlockRepETag
1070
     1
1071
       86
1005
D08
  0
MTEXT
  5
D09
330
25D
100
AcDbEntity
  8
图框
100
AcDbMText
 10
1063.72733855235
 20
503.7278365005473
 30
0.0
 40
2.252848170144607
 41
10.82934843439208
 46
7.886094601212128
 71
     5
 72
     5
  1
重量\P{\Fromans|c134;Weight}
 73
     1
 44
1.0
1001
AcDbBlockRepETag
1070
     1
1071
       87
1005
D09
1001
ACAD
1000
MTEXTBEGIN
1070
    73
1070
     1
1070
    44
1040
1.0
1070
    74
1070
     0
1000
MTEXTEND
1000
ACAD_MTEXT_DEFINED_HEIGHT_BEGIN
1070
    46
1040
7.886094601212128
1000
ACAD_MTEXT_DEFINED_HEIGHT_END
  0
LINE
  5
D0A
330
25D
100
AcDbEntity
  8
图框
370
    -3
100
AcDbLine
 10
1036.653967466372
 20
519.5000257029746
 30
0.0
 11
1079.971361203936
 21
519.5000257029746
 31
0.0
1001
AcDbBlockRepETag
1070
     1
1071
       88
1005
D0A
  0
MTEXT
  5
D0B
330
25D
100
AcDbEntity
  8
图框
100
AcDbMText
 10
1074.556686986741
 20
503.7278365005473
 30
0.0
 40
2.252848170144607
 41
10.82934843438984
 46
7.886094601212141
 71
     5
 72
     5
  1
数量\P{\Fromans|c134;Qty.}
 73
     1
 44
1.0
1001
AcDbBlockRepETag
1070
     1
1071
       89
1005
D0B
1001
ACAD
1000
MTEXTBEGIN
1070
    73
1070
     1
1070
    44
1040
1.0
1070
    74
1070
     0
1000
MTEXTEND
1000
ACAD_MTEXT_DEFINED_HEIGHT_BEGIN
1070
    46
1040
7.886094601212141
1000
ACAD_MTEXT_DEFINED_HEIGHT_END
  0
LINE
  5
D0C
330
25D
100
AcDbEntity
  8
图框
370
    -3
100
AcDbLine
 10
1079.971361203936
 20
495.8417418993347
 30
0.0
 11
1126.928502610363
 21
495.8417418993342
 31
0.0
1001
AcDbBlockRepETag
1070
     1
1071
       90
1005
D0C
  0
LINE
  5
D0D
330
25D
100
AcDbEntity
  8
图框
370
    -3
100
AcDbLine
 10
1079.971361203936
 20
504.7132992040975
 30
0.0
 11
1126.928502610363
 21
504.7132992040975
 31
0.0
1001
AcDbBlockRepETag
1070
     1
1071
       91
1005
D0D
  0
MTEXT
  5
D0E
330
25D
100
AcDbEntity
  8
图框
100
AcDbMText
 10
1052.893317052817
 20
503.7278365005473
 30
0.0
 40
2.252848170144607
 41
10.83869456467139
 46
7.886094601212101
 71
     5
 72
     5
  1
版本\P{\Fromans|c134;REV.}
 73
     1
 44
1.0
1001
AcDbBlockRepETag
1070
     1
1071
       92
1005
D0E
1001
ACAD
1000
MTEXTBEGIN
1070
    73
1070
     1
1070
    44
1040
1.0
1070
    74
1070
     0
1000
MTEXTEND
1000
ACAD_MTEXT_DEFINED_HEIGHT_BEGIN
1070
    46
1040
7.886094601212101
1000
ACAD_MTEXT_DEFINED_HEIGHT_END
  0
MTEXT
  5
D0F
330
25D
100
AcDbEntity
  8
图框
100
AcDbMText
 10
1042.068641683568
 20
503.7278365005473
 30
0.0
 40
2.252848170144607
 41
10.8293484343908
 46
7.886094601212136
 71
     5
 72
     5
  1
比例\P{\Fromans|c134;Scale}
 73
     1
 44
1.0
1001
AcDbBlockRepETag
1070
     1
1071
       93
1005
D0F
1001
ACAD
1000
MTEXTBEGIN
1070
    73
1070
     1
1070
    44
1040
1.0
1070
    74
1070
     0
1000
MTEXTEND
1000
ACAD_MTEXT_DEFINED_HEIGHT_BEGIN
1070
    46
1040
7.886094601212136
1000
ACAD_MTEXT_DEFINED_HEIGHT_END
  0
LINE
  5
D10
330
25D
100
AcDbEntity
  8
图框
370
    -3
100
AcDbLine
 10
1036.653967466372
 20
507.6708838011533
 30
0.0
 11
1079.971361203936
 21
507.6708838011533
 31
0.0
1001
AcDbBlockRepETag
1070
     1
1071
       94
1005
D10
  0
LINE
  5
D11
330
25D
100
AcDbEntity
  8
图框
370
    -3
100
AcDbLine
 10
1036.653967466372
 20
491.8986945987308
 30
0.0
 11
1079.971361203936
 21
491.8986945987308
 31
0.0
1001
AcDbBlockRepETag
1070
     1
1071
       95
1005
D11
  0
LINE
  5
D12
330
25D
100
AcDbEntity
  8
图框
370
    -3
100
AcDbLine
 10
1079.971361203936
 20
531.3291676047914
 30
0.0
 11
1079.971361203936
 21
484.0125999975168
 31
0.0
1001
AcDbBlockRepETag
1070
     1
1071
       96
1005
D12
  0
MTEXT
  5
D13
330
25D
100
AcDbEntity
  8
图框
100
AcDbMText
 10
1042.063968618426
 20
525.4145966538832
 30
0.0
 40
2.252848170144607
 41
10.82000230410933
 46
11.82914190181708
 71
     5
 72
     5
  1
表面处理\P{\Fromans|c134;Finish}
 73
     1
 44
1.0
1001
AcDbBlockRepETag
1070
     1
1071
       97
1005
D13
1001
ACAD
1000
MTEXTBEGIN
1070
    73
1070
     1
1070
    44
1040
1.0
1070
    74
1070
     0
1000
MTEXTEND
1000
ACAD_MTEXT_DEFINED_HEIGHT_BEGIN
1070
    46
1040
11.82914190181708
1000
ACAD_MTEXT_DEFINED_HEIGHT_END
  0
MTEXT
  5
D14
330
25D
100
AcDbEntity
  8
图框
100
AcDbMText
 10
1042.063968618426
 20
513.5854547520639
 30
0.0
 40
2.252848170144607
 41
10.82000230410933
 46
11.8291419018212
 71
     5
 72
     5
  1
材料\P{\Fromans|c134;Material}
 73
     1
 44
1.0
1001
AcDbBlockRepETag
1070
     1
1071
       98
1005
D14
1001
ACAD
1000
MTEXTBEGIN
1070
    73
1070
     1
1070
    44
1040
1.0
1070
    74
1070
     0
1000
MTEXTEND
1000
ACAD_MTEXT_DEFINED_HEIGHT_BEGIN
1070
    46
1040
11.8291419018212
1000
ACAD_MTEXT_DEFINED_HEIGHT_END
  0
LINE
  5
D15
330
25D
100
AcDbEntity
  8
图框
370
    -3
100
AcDbLine
 10
1079.971361203936
 20
522.27220025775
 30
0.0
 11
1126.928502610363
 21
522.27220025775
 31
0.0
1001
AcDbBlockRepETag
1070
     1
1071
       99
1005
D15
  0
LINE
  5
D16
330
25D
100
AcDbEntity
  8
图框
370
    -3
100
AcDbLine
 10
1079.971361203936
 20
513.5854547520641
 30
0.0
 11
1126.928502610363
 21
513.5854547520639
 31
0.0
1001
AcDbBlockRepETag
1070
     1
1071
      100
1005
D16
  0
MTEXT
  5
D17
330
25D
100
AcDbEntity
  8
图框
100
AcDbMText
 10
1086.643735910939
 20
517.9288275049072
 30
0.0
 40
1.958998408821398
 41
13.34474941400573
 46
8.686745505685811
 71
     5
 72
     5
  1
产品代号\P{\Fromans|c134;Part Code}
 73
     1
 44
1.0
1001
AcDbBlockRepETag
1070
     1
1071
      101
1005
D17
1001
ACAD
1000
MTEXTBEGIN
1070
    73
1070
     1
1070
    44
1040
1.0
1070
    74
1070
     0
1000
MTEXTEND
1000
ACAD_MTEXT_DEFINED_HEIGHT_BEGIN
1070
    46
1040
8.686745505685811
1000
ACAD_MTEXT_DEFINED_HEIGHT_END
  0
LINE
  5
D18
330
25D
100
AcDbEntity
  8
图框
370
    -3
100
AcDbLine
 10
946.9285026103634
 20
525.7982263931411
 30
0.0
 11
1036.653967466372
 21
525.7982263931411
 31
0.0
1001
AcDbBlockRepETag
1070
     1
1071
      102
1005
D18
  0
LINE
  5
D19
330
25D
100
AcDbEntity
  8
图框
370
    -3
100
AcDbLine
 10
946.9285026103634
 20
520.2672851814959
 30
0.0
 11
1036.653967466372
 21
520.2672851814959
 31
0.0
1001
AcDbBlockRepETag
1070
     1
1071
      103
1005
D19
  0
LINE
  5
D1A
330
25D
100
AcDbEntity
  8
图框
370
    35
100
AcDbLine
 10
946.9285026103634
 20
531.3291676047914
 30
0.0
 11
1126.928502610363
 21
531.3291676047914
 31
0.0
1001
AcDbBlockRepETag
1070
     1
1071
      104
1005
D1A
  0
LINE
  5
D1B
330
25D
100
AcDbEntity
  8
图框
370
    -3
100
AcDbLine
 10
990.6727612856927
 20
509.2054027581959
 30
0.0
 11
990.6727612856927
 21
484.0347692601515
 31
0.0
1001
AcDbBlockRepETag
1070
     1
1071
      105
1005
D1B
  0
MTEXT
  5
D1C
102
{ACAD_XDICTIONARY
360
D92
102
}
330
25D
100
AcDbEntity
  8
图框
100
AcDbMText
 10
997.1628169651232
 20
499.816589978722
 30
0.0
 40
2.252848170144607
 41
12.98011135886052
 46
6.19230880992475
 71
     5
 72
     5
  1
{\fSimSun|b0|i0|c134|p2;标准化}\PStand.
  7
Romans字体
 73
     1
 44
1.0
1001
AcDbBlockRepETag
1070
     1
1071
      106
1005
D1C
1001
ACAD
1000
MTEXTBEGIN
1070
    73
1070
     1
1070
    44
1040
1.0
1070
    74
1070
     0
1000
MTEXTEND
1000
ACAD_MTEXT_DEFINED_HEIGHT_BEGIN
1070
    46
1040
6.19230880992475
1000
ACAD_MTEXT_DEFINED_HEIGHT_END
  0
LINE
  5
D1D
330
25D
100
AcDbEntity
  8
图框
370
    -3
100
AcDbLine
 10
975.4103773808022
 20
509.2054027581959
 30
0.0
 11
975.4103773808022
 21
484.0347692601515
 31
0.0
1001
AcDbBlockRepETag
1070
     1
1071
      107
1005
D1D
  0
MTEXT
  5
D1E
330
25D
100
AcDbEntity
  8
图框
100
AcDbMText
 10
984.5089229802068
 20
511.9708733640202
 30
0.0
 40
2.448748011026752
 41
38.287899328693
 46
5.530941211648832
 71
     5
 72
     5
  1
  变更描述{\Fromans|c134;/Description}
 73
     1
 44
1.0
1001
AcDbBlockRepETag
1070
     1
1071
      108
1005
D1E
1001
ACAD
1000
MTEXTBEGIN
1070
    73
1070
     1
1070
    44
1040
1.0
1070
    74
1070
     0
1000
MTEXTEND
1000
ACAD_MTEXT_DEFINED_HEIGHT_BEGIN
1070
    46
1040
5.530941211648832
1000
ACAD_MTEXT_DEFINED_HEIGHT_END
  0
MTEXT
  5
D1F
102
{ACAD_XDICTIONARY
360
D94
102
}
330
25D
100
AcDbEntity
  8
图框
100
AcDbMText
 10
1012.466086049227
 20
511.9708733640202
 30
0.0
 40
1.958998408821398
 41
17.6264268093469
 46
5.530941211648825
 71
     5
 72
     5
  1
{\fSimSun|b0|i0|c134|p2;签名\P\Fromans|c134;Signature} 
 73
     1
 44
1.0
1001
AcDbBlockRepETag
1070
     1
1071
      109
1005
D1F
1001
ACAD
1000
MTEXTBEGIN
1070
    73
1070
     1
1070
    44
1040
1.0
1070
    74
1070
     0
1000
MTEXTEND
1000
ACAD_MTEXT_DEFINED_HEIGHT_BEGIN
1070
    46
1040
5.530941211648825
1000
ACAD_MTEXT_DEFINED_HEIGHT_END
  0
MTEXT
  5
D20
102
{ACAD_XDICTIONARY
360
D96
102
}
330
25D
100
AcDbEntity
  8
图框
100
AcDbMText
 10
960.7558556394856
 20
511.9708733640202
 30
0.0
 40
1.958998408821398
 41
9.218235352749283
 46
5.530941211648841
 71
     5
 72
     5
  1
{\fSimSun|b0|i0|c134|p2;处数\P\Fromans|c134;Number }
 73
     1
 44
1.0
1001
AcDbBlockRepETag
1070
     1
1071
      110
1005
D20
1001
ACAD
1000
MTEXTBEGIN
1070
    73
1070
     1
1070
    44
1040
1.0
1070
    74
1070
     0
1000
MTEXTEND
1000
ACAD_MTEXT_DEFINED_HEIGHT_BEGIN
1070
    46
1040
5.530941211648841
1000
ACAD_MTEXT_DEFINED_HEIGHT_END
  0
LINE
  5
D21
330
25D
100
AcDbEntity
  8
图框
370
    -3
100
AcDbLine
 10
946.9285026103634
 20
514.7363439698449
 30
0.0
 11
1036.653967466372
 21
514.7363439698449
 31
0.0
1001
AcDbBlockRepETag
1070
     1
1071
      111
1005
D21
  0
LINE
  5
D22
330
25D
100
AcDbEntity
  8
图框
370
    -3
100
AcDbLine
 10
946.9285026103634
 20
509.2054027581959
 30
0.0
 11
1036.653967466372
 21
509.2054027581959
 31
0.0
1001
AcDbBlockRepETag
1070
     1
1071
      112
1005
D22
  0
LINE
  5
D23
330
25D
100
AcDbEntity
  8
图框
370
    -3
100
AcDbLine
 10
946.9285026103634
 20
502.9127443836848
 30
0.0
 11
1036.653967466372
 21
502.9127443836848
 31
0.0
1001
AcDbBlockRepETag
1070
     1
1071
      113
1005
D23
  0
LINE
  5
D24
330
25D
100
AcDbEntity
  8
图框
370
    -3
100
AcDbLine
 10
946.9285026103634
 20
496.620086009173
 30
0.0
 11
1036.653967466372
 21
496.620086009173
 31
0.0
1001
AcDbBlockRepETag
1070
     1
1071
      114
1005
D24
  0
LINE
  5
D25
330
25D
100
AcDbEntity
  8
图框
370
    35
380
     1
100
AcDbLine
 10
946.9285026103634
 20
531.3291676047914
 30
0.0
 11
946.9285026103634
 21
484.0347692601515
 31
0.0
1001
AcDbBlockRepETag
1070
     1
1071
      115
1005
D25
  0
LINE
  5
D26
330
25D
100
AcDbEntity
  8
图框
370
    -3
100
AcDbLine
 10
1021.301636813399
 20
531.3291676047914
 30
0.0
 11
1021.301636813399
 21
484.0347692601515
 31
0.0
1001
AcDbBlockRepETag
1070
     1
1071
      116
1005
D26
  0
LINE
  5
D27
330
25D
100
AcDbEntity
  8
图框
370
    -3
100
AcDbLine
 10
1003.652872644553
 20
531.3291676047914
 30
0.0
 11
1003.652872644553
 21
484.0347692601515
 31
0.0
1001
AcDbBlockRepETag
1070
     1
1071
      117
1005
D27
  0
LINE
  5
D28
330
25D
100
AcDbEntity
  8
图框
370
    -3
100
AcDbLine
 10
965.3649733158603
 20
531.3291676047914
 30
0.0
 11
965.3649733158603
 21
509.2054027581959
 31
0.0
1001
AcDbBlockRepETag
1070
     1
1071
      118
1005
D28
  0
LINE
  5
D29
330
25D
100
AcDbEntity
  8
图框
370
    -3
100
AcDbLine
 10
956.1467379631109
 20
531.3291676047914
 30
0.0
 11
956.1467379631109
 21
509.2054027581959
 31
0.0
1001
AcDbBlockRepETag
1070
     1
1071
      119
1005
D29
  0
MTEXT
  5
D2A
102
{ACAD_XDICTIONARY
360
D98
102
}
330
25D
100
AcDbEntity
  8
图框
100
AcDbMText
 10
951.537620286737
 20
511.9708733640202
 30
0.0
 40
1.958998408821398
 41
9.218235352747692
 46
5.530941211648832
 71
     5
 72
     5
  1
{\fSimSun|b0|i0|c134|p2;标记\P\Fromans|c134;Mark}
 73
     1
 44
1.0
1001
AcDbBlockRepETag
1070
     1
1071
      120
1005
D2A
1001
ACAD
1000
MTEXTBEGIN
1070
    73
1070
     1
1070
    44
1040
1.0
1070
    74
1070
     0
1000
MTEXTEND
1000
ACAD_MTEXT_DEFINED_HEIGHT_BEGIN
1070
    46
1040
5.530941211648832
1000
ACAD_MTEXT_DEFINED_HEIGHT_END
  0
MTEXT
  5
D2B
102
{ACAD_XDICTIONARY
360
D9A
102
}
330
25D
100
AcDbEntity
  8
图框
100
AcDbMText
 10
953.4185582897936
 20
493.4737568219182
 30
0.0
 40
2.252848170144607
 41
12.98011135886041
 46
6.292658374510382
 71
     5
 72
     5
  1
{\fSimSun|b0|i0|c134|p2;审核\P\Fromans|c134;Checked}
 73
     1
 44
1.0
1001
AcDbBlockRepETag
1070
     1
1071
      121
1005
D2B
1001
ACAD
1000
MTEXTBEGIN
1070
    73
1070
     1
1070
    44
1040
1.0
1070
    74
1070
     0
1000
MTEXTEND
1000
ACAD_MTEXT_DEFINED_HEIGHT_BEGIN
1070
    46
1040
6.292658374510382
1000
ACAD_MTEXT_DEFINED_HEIGHT_END
  0
MTEXT
  5
D2C
102
{ACAD_XDICTIONARY
360
D9C
102
}
330
25D
100
AcDbEntity
  8
图框
100
AcDbMText
 10
953.4185582897936
 20
499.8775635376777
 30
0.0
 40
2.252848170144607
 41
12.98011135886041
 46
6.070361692014189
 71
     5
 72
     5
  1
{\fSimSun|b0|i0|c134|p2;绘图\P\Fromans|c134;Drawn\Ftxt|c134; }
 73
     1
 44
1.0
1001
AcDbBlockRepETag
1070
     1
1071
      122
1005
D2C
1001
ACAD
1000
MTEXTBEGIN
1070
    73
1070
     1
1070
    44
1040
1.0
1070
    74
1070
     0
1000
MTEXTEND
1000
ACAD_MTEXT_DEFINED_HEIGHT_BEGIN
1070
    46
1040
6.070361692014189
1000
ACAD_MTEXT_DEFINED_HEIGHT_END
  0
ARC
  5
D2D
330
25D
100
AcDbEntity
  8
图框
 62
     4
370
    35
100
AcDbCircle
 10
1086.900627017421
 20
490.0179944151195
 30
0.0
 40
4.063310408393665
100
AcDbArc
 50
18.95237904564806
 51
161.0476209543519
1001
AcDbBlockRepETag
1070
     1
1071
      123
1005
D2D
  0
ARC
  5
D2E
330
25D
100
AcDbEntity
  8
图框
 62
     4
370
    35
100
AcDbCircle
 10
1086.900627017421
 20
490.0179944151195
 30
0.0
 40
4.063310408393665
100
AcDbArc
 50
198.952379045648
 51
341.0476209543519
1001
AcDbBlockRepETag
1070
     1
1071
      124
1005
D2E
  0
LINE
  5
D2F
330
25D
100
AcDbEntity
  8
图框
 62
     4
370
    35
100
AcDbLine
 10
1083.057593369548
 20
488.6983035966752
 30
0.0
 11
1090.74366066529
 21
488.6983035966752
 31
0.0
1001
AcDbBlockRepETag
1070
     1
1071
      125
1005
D2F
  0
LINE
  5
D30
330
25D
100
AcDbEntity
  8
图框
 62
     4
370
    35
100
AcDbLine
 10
1083.057593369548
 20
491.3376852335652
 30
0.0
 11
1090.74366066529
 21
491.3376852335652
 31
0.0
1001
AcDbBlockRepETag
1070
     1
1071
      126
1005
D30
  0
MTEXT
  5
D31
330
25D
100
AcDbEntity
  8
图框
 62
     1
370
    20
100
AcDbMText
 10
1083.034582879669
 20
491.0506288081688
 30
0.0
 40
2.005930044038334
 41
5.047240019334847
 46
0.0
 71
     1
 72
     5
  1
{\fArial|b0|i0|c0|p34;W}
  7
Chinese
 73
     1
 44
1.0
1001
AcDbBlockRepETag
1070
     1
1071
      127
1005
D31
1001
ACAD
1000
MTEXTBEGIN
1070
    73
1070
     1
1070
    44
1040
1.0
1070
    74
1070
     0
1000
MTEXTEND
  0
LINE
  5
D32
330
25D
100
AcDbEntity
  8
图框
370
    -3
100
AcDbLine
 10
946.9285026103634
 20
490.327427634663
 30
0.0
 11
1036.653967466372
 21
490.327427634663
 31
0.0
1001
AcDbBlockRepETag
1070
     1
1071
      128
1005
D32
  0
LINE
  5
D33
330
25D
100
AcDbEntity
  8
图框
370
    -3
100
AcDbLine
 10
959.9086139692238
 20
509.2054027581959
 30
0.0
 11
959.9086139692238
 21
484.0347692601515
 31
0.0
1001
AcDbBlockRepETag
1070
     1
1071
      129
1005
D33
  0
MTEXT
  5
D34
330
25D
100
AcDbEntity
  8
图框
100
AcDbMText
 10
967.6594956750129
 20
506.0590735709403
 30
0.0
 40
2.252848170144607
 41
15.50176341157869
 46
6.292658374511246
 71
     5
 72
     5
  1
姓名{\Fromans|c134;/Name\Ftxt|c134; }
 73
     1
 44
1.0
1001
AcDbBlockRepETag
1070
     1
1071
      130
1005
D34
1001
ACAD
1000
MTEXTBEGIN
1070
    73
1070
     1
1070
    44
1040
1.0
1070
    74
1070
     0
1000
MTEXTEND
1000
ACAD_MTEXT_DEFINED_HEIGHT_BEGIN
1070
    46
1040
6.292658374511246
1000
ACAD_MTEXT_DEFINED_HEIGHT_END
  0
MTEXT
  5
D35
330
25D
100
AcDbEntity
  8
图框
100
AcDbMText
 10
983.0415693332477
 20
506.0590735709403
 30
0.0
 40
2.252848170144607
 41
15.26238390489042
 46
6.2926583745112
 71
     5
 72
     5
  1
日期{\Fromans|c134;/Date}
 73
     1
 44
1.0
1001
AcDbBlockRepETag
1070
     1
1071
      131
1005
D35
1001
ACAD
1000
MTEXTBEGIN
1070
    73
1070
     1
1070
    44
1040
1.0
1070
    74
1070
     0
1000
MTEXTEND
1000
ACAD_MTEXT_DEFINED_HEIGHT_BEGIN
1070
    46
1040
6.2926583745112
1000
ACAD_MTEXT_DEFINED_HEIGHT_END
  0
LINE
  5
D36
330
25D
100
AcDbEntity
  8
图框
370
    -3
100
AcDbLine
 10
946.9285026103634
 20
509.2054027581959
 30
0.0
 11
959.9086139692238
 21
502.9127443836848
 31
0.0
1001
AcDbBlockRepETag
1070
     1
1071
      132
1005
D36
  0
MTEXT
  5
D37
330
25D
100
AcDbEntity
  8
图框
100
AcDbMText
 10
1012.931405110086
 20
506.0185715840725
 30
0.0
 40
2.252848170144607
 41
16.93492221063566
 46
0.0
 71
     5
 72
     5
  1
姓名{\Fromans|c134;/Name}
 73
     1
 44
1.0
1001
AcDbBlockRepETag
1070
     1
1071
      133
1005
D37
1001
ACAD
1000
MTEXTBEGIN
1070
    73
1070
     1
1070
    44
1040
1.0
1070
    74
1070
     0
1000
MTEXTEND
  0
MTEXT
  5
D38
330
25D
100
AcDbEntity
  8
图框
100
AcDbMText
 10
1028.977802139886
 20
506.0590735709403
 30
0.0
 40
2.252848170144607
 41
15.35233065297283
 46
6.292658374511256
 71
     5
 72
     5
  1
日期{\Fromans|c134;/Date}
 73
     1
 44
1.0
1001
AcDbBlockRepETag
1070
     1
1071
      134
1005
D38
1001
ACAD
1000
MTEXTBEGIN
1070
    73
1070
     1
1070
    44
1040
1.0
1070
    74
1070
     0
1000
MTEXTEND
1000
ACAD_MTEXT_DEFINED_HEIGHT_BEGIN
1070
    46
1040
6.292658374511256
1000
ACAD_MTEXT_DEFINED_HEIGHT_END
  0
LINE
  5
D39
330
25D
100
AcDbEntity
  8
图框
370
    -3
100
AcDbLine
 10
1003.652872644553
 20
502.9127443836848
 30
0.0
 11
990.6727612856927
 21
509.2054027581959
 31
0.0
1001
AcDbBlockRepETag
1070
     1
1071
      135
1005
D39
  0
MTEXT
  5
D3A
102
{ACAD_XDICTIONARY
360
D9E
102
}
330
25D
100
AcDbEntity
  8
图框
100
AcDbMText
 10
997.1628169651232
 20
487.1810984474071
 30
0.0
 40
2.252848170144607
 41
12.98011135886052
 46
6.292658374511517
 71
     5
 72
     5
  1
{\fSimSun|b0|i0|c134|p2;批准\P\Fromans|c134;Approved}
 73
     1
 44
1.0
1001
AcDbBlockRepETag
1070
     1
1071
      136
1005
D3A
1001
ACAD
1000
MTEXTBEGIN
1070
    73
1070
     1
1070
    44
1040
1.0
1070
    74
1070
     0
1000
MTEXTEND
1000
ACAD_MTEXT_DEFINED_HEIGHT_BEGIN
1070
    46
1040
6.292658374511517
1000
ACAD_MTEXT_DEFINED_HEIGHT_END
  0
MTEXT
  5
D3B
102
{ACAD_XDICTIONARY
360
DA0
102
}
330
25D
100
AcDbEntity
  8
图框
100
AcDbMText
 10
953.4185582897936
 20
487.1810984474071
 30
0.0
 40
2.252848170144607
 41
12.98011135886041
 46
6.292658374511495
 71
     5
 72
     5
  1
{\fSimSun|b0|i0|c134|p2;工艺\P\Fromans|c134;Process}
 73
     1
 44
1.0
1001
AcDbBlockRepETag
1070
     1
1071
      137
1005
D3B
1001
ACAD
1000
MTEXTBEGIN
1070
    73
1070
     1
1070
    44
1040
1.0
1070
    74
1070
     0
1000
MTEXTEND
1000
ACAD_MTEXT_DEFINED_HEIGHT_BEGIN
1070
    46
1040
6.292658374511495
1000
ACAD_MTEXT_DEFINED_HEIGHT_END
  0
MTEXT
  5
D3C
102
{ACAD_XDICTIONARY
360
DA2
102
}
330
25D
100
AcDbEntity
  8
图框
100
AcDbMText
 10
1028.977802139886
 20
511.8287965307664
 30
0.0
 40
1.958998408821398
 41
15.3523306529728
 46
5.246787545140668
 71
     5
 72
     5
  1
{\fSimSun|b0|i0|c134|p2;日期\P\Fromans|c134;Date}
 73
     1
 44
1.0
1001
AcDbBlockRepETag
1070
     1
1071
      138
1005
D3C
1001
ACAD
1000
MTEXTBEGIN
1070
    73
1070
     1
1070
    44
1040
1.0
1070
    74
1070
     0
1000
MTEXTEND
1000
ACAD_MTEXT_DEFINED_HEIGHT_BEGIN
1070
    46
1040
5.246787545140668
1000
ACAD_MTEXT_DEFINED_HEIGHT_END
  0
MTEXT
  5
D3D
330
25D
100
AcDbEntity
  8
图框
100
AcDbMText
 10
1086.643735910939
 20
509.1493769780809
 30
0.0
 40
2.154898249703542
 41
13.34474941400573
 46
8.87215554796615
 71
     5
 72
     5
  1
产品料号\P{\Fromans|c134;Part No.}
 73
     1
 44
1.0
1001
AcDbBlockRepETag
1070
     1
1071
      139
1005
D3D
1001
ACAD
1000
MTEXTBEGIN
1070
    73
1070
     1
1070
    44
1040
1.0
1070
    74
1070
     0
1000
MTEXTEND
1000
ACAD_MTEXT_DEFINED_HEIGHT_BEGIN
1070
    46
1040
8.87215554796615
1000
ACAD_MTEXT_DEFINED_HEIGHT_END
  0
MTEXT
  5
D3E
330
25D
100
AcDbEntity
  8
图框
100
AcDbMText
 10
1086.643735910939
 20
500.2775205517163
 30
0.0
 40
1.958998408821398
 41
13.34474941400573
 46
8.871557304763321
 71
     5
 72
     5
  1
产品名称\P{\Fromans|c134;Part Name}
 73
     1
 44
1.0
1001
AcDbBlockRepETag
1070
     1
1071
      140
1005
D3E
1001
ACAD
1000
MTEXTBEGIN
1070
    73
1070
     1
1070
    44
1040
1.0
1070
    74
1070
     0
1000
MTEXTEND
1000
ACAD_MTEXT_DEFINED_HEIGHT_BEGIN
1070
    46
1040
8.871557304763321
1000
ACAD_MTEXT_DEFINED_HEIGHT_END
  0
LINE
  5
D3F
330
25D
100
AcDbEntity
  8
图框
 62
     1
370
    18
100
AcDbLine
 10
833.4128518455365
 20
690.5347692601515
 30
0.0
 11
833.4128518455365
 21
480.5347692601515
 31
0.0
1001
AcDbBlockRepETag
1070
     1
1071
      141
1005
D3F
  0
LINE
  5
D40
330
25D
100
AcDbEntity
  8
图框
 62
     1
370
    18
100
AcDbLine
 10
833.4128518455365
 20
480.5347692601515
 30
0.0
 11
1130.411601781236
 21
480.5347692601515
 31
0.0
1001
AcDbBlockRepETag
1070
     1
1071
      142
1005
D40
  0
LINE
  5
D41
330
25D
100
AcDbEntity
  8
图框
 62
     1
370
    18
100
AcDbLine
 10
833.4128518455365
 20
690.5347692601515
 30
0.0
 11
1130.411601781236
 21
690.5347692601515
 31
0.0
1001
AcDbBlockRepETag
1070
     1
1071
      143
1005
D41
  0
LINE
  5
D42
330
25D
100
AcDbEntity
  8
图框
 62
     1
370
    18
100
AcDbLine
 10
1130.411601781236
 20
480.5347692601515
 30
0.0
 11
1130.411601781236
 21
690.5347692601515
 31
0.0
1001
AcDbBlockRepETag
1070
     1
1071
      144
1005
D42
  0
LINE
  5
D43
330
25D
100
AcDbEntity
  8
图框
370
    18
100
AcDbLine
 10
836.9128518455394
 20
686.7901958362482
 30
0.0
 11
861.5351874539182
 21
686.7901958362482
 31
0.0
1001
AcDbBlockRepETag
1070
     1
1071
      145
1005
D43
  0
LINE
  5
D44
330
25D
100
AcDbEntity
  8
图框
370
    50
100
AcDbLine
 10
1126.928502610363
 20
484.0347692601514
 30
0.0
 11
1126.928502610363
 21
675.5347692601515
 31
0.0
1001
AcDbBlockRepETag
1070
     1
1071
      146
1005
D44
  0
MTEXT
  5
D45
330
25D
100
AcDbEntity
  8
图框
 62
     3
100
AcDbMText
 10
1052.897990117958
 20
495.8417418993364
 30
0.0
 40
2.985513575034151
 41
10.82934843439114
 46
7.886094601211307
 71
     5
 72
     5
  1
V1.2
  7
Romans字体
 73
     1
 44
1.0
1001
AcDbBlockRepETag
1070
     1
1071
      147
1005
D45
1001
ACAD
1000
MTEXTBEGIN
1070
    73
1070
     1
1070
    44
1040
1.0
1070
    74
1070
     0
1000
MTEXTEND
1000
ACAD_MTEXT_DEFINED_HEIGHT_BEGIN
1070
    46
1040
7.886094601211307
1000
ACAD_MTEXT_DEFINED_HEIGHT_END
  0
LINE
  5
D46
330
25D
100
AcDbEntity
  8
图框
 62
     6
100
AcDbLine
 10
1126.911601781236
 20
531.714049199969
 30
0.0
 11
1130.411601781236
 21
531.714049199969
 31
0.0
1001
AcDbBlockRepETag
1070
     1
1071
      148
1005
D46
  0
ENDBLK
  5
2F5
330
25D
100
AcDbEntity
  8
0
100
AcDbBlockEnd
  0
BLOCK
  5
622
330
621
100
AcDbEntity
  8
0
100
AcDbBlockBegin
  2
*D2
 70
     1
 10
0.0
 20
0.0
 30
0.0
  3
*D2
  1

  0
LINE
  5
8D3
330
621
100
AcDbEntity
  8
DIM
 62
     6
370
    -2
100
AcDbLine
 10
713.104272162433
 20
216.8497279828045
 30
0.0
 11
713.104272162433
 21
217.336139990402
 31
0.0
  0
LINE
  5
8D4
330
621
100
AcDbEntity
  8
DIM
 62
     6
370
    -2
100
AcDbLine
 10
719.1042721624327
 20
214.7257665269894
 30
0.0
 11
719.1042721624327
 21
217.336139990402
 31
0.0
  0
LINE
  5
8D5
330
621
100
AcDbEntity
  8
DIM
 62
     1
370
    -2
100
AcDbLine
 10
714.104272162433
 20
217.136139990402
 30
0.0
 11
718.1042721624327
 21
217.136139990402
 31
0.0
  0
SOLID
  5
8D6
330
621
100
AcDbEntity
  8
DIM
 62
     1
100
AcDbTrace
 10
714.104272162433
 20
217.3028066570687
 30
0.0
 11
714.104272162433
 21
216.9694733237353
 31
0.0
 12
713.104272162433
 22
217.136139990402
 32
0.0
 13
713.104272162433
 23
217.136139990402
 33
0.0
  0
SOLID
  5
8D7
330
621
100
AcDbEntity
  8
DIM
 62
     1
100
AcDbTrace
 10
718.1042721624327
 20
217.3028066570687
 30
0.0
 11
718.1042721624327
 21
216.9694733237353
 31
0.0
 12
719.1042721624327
 22
217.136139990402
 32
0.0
 13
719.1042721624327
 23
217.136139990402
 33
0.0
  0
MTEXT
  5
8D8
330
621
100
AcDbEntity
  8
DIM
 62
     4
100
AcDbMText
 10
716.1042721624331
 20
217.936139990402
 30
0.0
 40
1.199999999999999
 41
0.0
 46
0.0
 71
     5
 72
     1
  1
\A1;6
  7
Romans字体
 73
     1
 44
1.0
1001
ACAD
1000
MTEXTBEGIN
1070
    73
1070
     1
1070
    44
1040
1.0
1070
    74
1070
     0
1000
MTEXTEND
  0
POINT
  5
8D9
330
621
100
AcDbEntity
  8
Defpoints
 62
     0
100
AcDbPoint
 10
713.104272162433
 20
216.6497279828045
 30
0.0
  0
POINT
  5
8DA
330
621
100
AcDbEntity
  8
Defpoints
 62
     0
100
AcDbPoint
 10
719.1042721624327
 20
214.5257665269893
 30
0.0
  0
POINT
  5
8DB
330
621
100
AcDbEntity
  8
Defpoints
 62
     0
100
AcDbPoint
 10
719.1042721624327
 20
217.136139990402
 30
0.0
  0
ENDBLK
  5
623
330
621
100
AcDbEntity
  8
0
100
AcDbBlockEnd
  0
BLOCK
  5
62E
330
62D
100
AcDbEntity
  8
0
100
AcDbBlockBegin
  2
*D3
 70
     1
 10
0.0
 20
0.0
 30
0.0
  3
*D3
  1

  0
LINE
  5
8C9
330
62D
100
AcDbEntity
  8
DIM
 62
     6
370
    -2
100
AcDbLine
 10
712.904272162433
 20
215.000766527389
 30
0.0
 11
708.3623997105664
 21
215.000766527389
 31
0.0
  0
LINE
  5
8CA
330
62D
100
AcDbEntity
  8
DIM
 62
     6
370
    -2
100
AcDbLine
 10
712.904272162433
 20
211.8007665265884
 30
0.0
 11
708.3623997105664
 21
211.8007665265884
 31
0.0
  0
LINE
  5
8CB
330
62D
100
AcDbEntity
  8
DIM
 62
     1
370
    -2
100
AcDbLine
 10
708.5623997105665
 20
212.8007665265884
 30
0.0
 11
708.5623997105665
 21
214.000766527389
 31
0.0
  0
LINE
  5
8CC
330
62D
100
AcDbEntity
  8
DIM
 62
     1
370
    -2
100
AcDbLine
 10
708.5623997105665
 20
215.000766527389
 30
0.0
 11
708.5623997105665
 21
219.100766527389
 31
0.0
  0
SOLID
  5
8CD
330
62D
100
AcDbEntity
  8
DIM
 62
     1
100
AcDbTrace
 10
708.3957330438996
 20
212.8007665265884
 30
0.0
 11
708.7290663772331
 21
212.8007665265884
 31
0.0
 12
708.5623997105665
 22
211.8007665265884
 32
0.0
 13
708.5623997105665
 23
211.8007665265884
 33
0.0
  0
SOLID
  5
8CE
330
62D
100
AcDbEntity
  8
DIM
 62
     1
100
AcDbTrace
 10
708.3957330438996
 20
214.000766527389
 30
0.0
 11
708.7290663772331
 21
214.000766527389
 31
0.0
 12
708.5623997105665
 22
215.000766527389
 32
0.0
 13
708.5623997105665
 23
215.000766527389
 33
0.0
  0
MTEXT
  5
8CF
330
62D
100
AcDbEntity
  8
DIM
 62
     4
100
AcDbMText
 10
707.7623997105665
 20
217.5507665273891
 30
0.0
 40
1.199999999999999
 41
0.0
 46
0.0
 71
     5
 72
     1
  1
\A1;%%c3.2
  7
Romans字体
 11
0.0000000000000001
 21
1.0
 31
0.0
 73
     1
 44
1.0
1001
ACAD
1000
MTEXTBEGIN
1070
    73
1070
     1
1070
    44
1040
1.0
1070
    74
1070
     0
1000
MTEXTEND
  0
POINT
  5
8D0
330
62D
100
AcDbEntity
  8
Defpoints
 62
     0
100
AcDbPoint
 10
713.104272162433
 20
215.000766527389
 30
0.0
  0
POINT
  5
8D1
330
62D
100
AcDbEntity
  8
Defpoints
 62
     0
100
AcDbPoint
 10
713.104272162433
 20
211.8007665265884
 30
0.0
  0
POINT
  5
8D2
330
62D
100
AcDbEntity
  8
Defpoints
 62
     0
100
AcDbPoint
 10
708.5623997105665
 20
211.8007665265884
 30
0.0
  0
ENDBLK
  5
62F
330
62D
100
AcDbEntity
  8
0
100
AcDbBlockEnd
  0
BLOCK
  5
644
330
643
100
AcDbEntity
  8
0
100
AcDbBlockBegin
  2
*D4
 70
     1
 10
0.0
 20
0.0
 30
0.0
  3
*D4
  1

  0
LINE
  5
8C0
330
643
100
AcDbEntity
  8
DIM
 62
     6
370
    -2
100
AcDbLine
 10
738.0899128082727
 20
213.6007665269889
 30
0.0
 11
738.0899128082727
 21
219.9247346842627
 31
0.0
  0
LINE
  5
8C1
330
643
100
AcDbEntity
  8
DIM
 62
     6
370
    -2
100
AcDbLine
 10
713.104272162433
 20
215.200766527389
 30
0.0
 11
713.104272162433
 21
219.9247346842627
 31
0.0
  0
LINE
  5
8C2
330
643
100
AcDbEntity
  8
DIM
 62
     1
370
    -2
100
AcDbLine
 10
737.0899128082727
 20
219.7247346842627
 30
0.0
 11
714.104272162433
 21
219.7247346842627
 31
0.0
  0
SOLID
  5
8C3
330
643
100
AcDbEntity
  8
DIM
 62
     1
100
AcDbTrace
 10
737.0899128082727
 20
219.8914013509294
 30
0.0
 11
737.0899128082727
 21
219.5580680175961
 31
0.0
 12
738.0899128082727
 22
219.7247346842627
 32
0.0
 13
738.0899128082727
 23
219.7247346842627
 33
0.0
  0
SOLID
  5
8C4
330
643
100
AcDbEntity
  8
DIM
 62
     1
100
AcDbTrace
 10
714.104272162433
 20
219.8914013509294
 30
0.0
 11
714.104272162433
 21
219.5580680175961
 31
0.0
 12
713.104272162433
 22
219.7247346842627
 32
0.0
 13
713.104272162433
 23
219.7247346842627
 33
0.0
  0
MTEXT
  5
8C5
330
643
100
AcDbEntity
  8
DIM
 62
     4
100
AcDbMText
 10
725.5970924853529
 20
220.5247346842627
 30
0.0
 40
1.199999999999999
 41
0.0
 46
0.0
 71
     5
 72
     1
  1
\A1;25
  7
Romans字体
 73
     1
 44
1.0
1001
ACAD
1000
MTEXTBEGIN
1070
    73
1070
     1
1070
    44
1040
1.0
1070
    74
1070
     0
1000
MTEXTEND
  0
POINT
  5
8C6
330
643
100
AcDbEntity
  8
Defpoints
 62
     0
100
AcDbPoint
 10
738.0899128082727
 20
213.4007665269889
 30
0.0
  0
POINT
  5
8C7
330
643
100
AcDbEntity
  8
Defpoints
 62
     0
100
AcDbPoint
 10
713.104272162433
 20
215.000766527389
 30
0.0
  0
POINT
  5
8C8
330
643
100
AcDbEntity
  8
Defpoints
 62
     0
100
AcDbPoint
 10
713.104272162433
 20
219.7247346842627
 30
0.0
  0
ENDBLK
  5
645
330
643
100
AcDbEntity
  8
0
100
AcDbBlockEnd
  0
BLOCK
  5
650
330
64F
100
AcDbEntity
  8
0
100
AcDbBlockBegin
  2
*D5
 70
     1
 10
0.0
 20
0.0
 30
0.0
  3
*D5
  1

  0
LINE
  5
A05
330
64F
100
AcDbEntity
  8
DIM
 62
     6
370
    -2
100
AcDbLine
 10
714.0734134880009
 20
212.2757665269892
 30
0.0
 11
710.6742387068351
 21
212.2757665269892
 31
0.0
  0
LINE
  5
A06
330
64F
100
AcDbEntity
  8
DIM
 62
     6
370
    -2
100
AcDbLine
 10
714.0734134880009
 20
214.5257665269893
 30
0.0
 11
710.6742387068351
 21
214.5257665269893
 31
0.0
  0
LINE
  5
A07
330
64F
100
AcDbEntity
  8
DIM
 62
     1
370
    -2
100
AcDbLine
 10
710.8742387068351
 20
211.2757665269892
 30
0.0
 11
710.8742387068351
 21
210.2757665269892
 31
0.0
  0
LINE
  5
A08
330
64F
100
AcDbEntity
  8
DIM
 62
     1
370
    -2
100
AcDbLine
 10
710.8742387068351
 20
215.5257665269893
 30
0.0
 11
710.8742387068351
 21
220.4829093841322
 31
0.0
  0
SOLID
  5
A09
330
64F
100
AcDbEntity
  8
DIM
 62
     1
100
AcDbTrace
 10
710.7075720401684
 20
211.2757665269892
 30
0.0
 11
711.0409053735017
 21
211.2757665269892
 31
0.0
 12
710.8742387068351
 22
212.2757665269892
 32
0.0
 13
710.8742387068351
 23
212.2757665269892
 33
0.0
  0
SOLID
  5
A0A
330
64F
100
AcDbEntity
  8
DIM
 62
     1
100
AcDbTrace
 10
710.7075720401684
 20
215.5257665269893
 30
0.0
 11
711.0409053735017
 21
215.5257665269893
 31
0.0
 12
710.8742387068351
 22
214.5257665269893
 32
0.0
 13
710.8742387068351
 23
214.5257665269893
 33
0.0
  0
MTEXT
  5
A0B
330
64F
100
AcDbEntity
  8
DIM
 62
     4
100
AcDbMText
 10
710.0742387068351
 20
218.5043379555609
 30
0.0
 40
1.199999999999999
 41
0.0
 46
0.0
 71
     5
 72
     1
  1
\A1;%%C2.25
  7
Romans字体
 11
0.0000000000000001
 21
1.0
 31
0.0
 73
     1
 44
1.0
1001
ACAD
1000
MTEXTBEGIN
1070
    73
1070
     1
1070
    44
1040
1.0
1070
    74
1070
     0
1000
MTEXTEND
  0
POINT
  5
A0C
330
64F
100
AcDbEntity
  8
Defpoints
 62
     0
100
AcDbPoint
 10
714.273413488001
 20
212.2757665269892
 30
0.0
  0
POINT
  5
A0D
330
64F
100
AcDbEntity
  8
Defpoints
 62
     0
100
AcDbPoint
 10
714.273413488001
 20
214.5257665269893
 30
0.0
  0
POINT
  5
A0E
330
64F
100
AcDbEntity
  8
Defpoints
 62
     0
100
AcDbPoint
 10
710.8742387068351
 20
214.5257665269893
 30
0.0
  0
ENDBLK
  5
651
330
64F
100
AcDbEntity
  8
0
100
AcDbBlockEnd
  0
BLOCK
  5
667
330
666
100
AcDbEntity
  8
0
100
AcDbBlockBegin
  2
*D6
 70
     1
 10
0.0
 20
0.0
 30
0.0
  3
*D6
  1

  0
LINE
  5
8B6
330
666
100
AcDbEntity
  8
DIM
 62
     6
370
    -2
100
AcDbLine
 10
736.5098953635774
 20
214.2007665271889
 30
0.0
 11
741.0722924047279
 21
214.2007665271889
 31
0.0
  0
LINE
  5
8B7
330
666
100
AcDbEntity
  8
DIM
 62
     6
370
    -2
100
AcDbLine
 10
736.5098953635774
 20
212.6007665267888
 30
0.0
 11
741.0722924047279
 21
212.6007665267888
 31
0.0
  0
LINE
  5
8B8
330
666
100
AcDbEntity
  8
DIM
 62
     1
370
    -2
100
AcDbLine
 10
740.8722924047277
 20
211.6007665267888
 30
0.0
 11
740.8722924047277
 21
210.6007665267888
 31
0.0
  0
LINE
  5
8B9
330
666
100
AcDbEntity
  8
DIM
 62
     1
370
    -2
100
AcDbLine
 10
740.8722924047277
 20
215.2007665271889
 30
0.0
 11
740.8722924047277
 21
219.3007665271889
 31
0.0
  0
SOLID
  5
8BA
330
666
100
AcDbEntity
  8
DIM
 62
     1
100
AcDbTrace
 10
740.7056257380612
 20
211.6007665267888
 30
0.0
 11
741.0389590713945
 21
211.6007665267888
 31
0.0
 12
740.8722924047277
 22
212.6007665267888
 32
0.0
 13
740.8722924047277
 23
212.6007665267888
 33
0.0
  0
SOLID
  5
8BB
330
666
100
AcDbEntity
  8
DIM
 62
     1
100
AcDbTrace
 10
740.7056257380612
 20
215.2007665271889
 30
0.0
 11
741.0389590713945
 21
215.2007665271889
 31
0.0
 12
740.8722924047277
 22
214.2007665271889
 32
0.0
 13
740.8722924047277
 23
214.2007665271889
 33
0.0
  0
MTEXT
  5
8BC
330
666
100
AcDbEntity
  8
DIM
 62
     4
100
AcDbMText
 10
740.0722924047279
 20
217.750766527189
 30
0.0
 40
1.199999999999999
 41
0.0
 46
0.0
 71
     5
 72
     1
  1
\A1;%%c1.6
  7
Romans字体
 11
0.0000000000000001
 21
1.0
 31
0.0
 73
     1
 44
1.0
1001
ACAD
1000
MTEXTBEGIN
1070
    73
1070
     1
1070
    44
1040
1.0
1070
    74
1070
     0
1000
MTEXTEND
  0
POINT
  5
8BD
330
666
100
AcDbEntity
  8
Defpoints
 62
     0
100
AcDbPoint
 10
736.3098953635774
 20
214.2007665271889
 30
0.0
  0
POINT
  5
8BE
330
666
100
AcDbEntity
  8
Defpoints
 62
     0
100
AcDbPoint
 10
736.3098953635774
 20
212.6007665267888
 30
0.0
  0
POINT
  5
8BF
330
666
100
AcDbEntity
  8
Defpoints
 62
     0
100
AcDbPoint
 10
740.8722924047277
 20
212.6007665267888
 30
0.0
  0
ENDBLK
  5
668
330
666
100
AcDbEntity
  8
0
100
AcDbBlockEnd
  0
ENDSEC
  0
SECTION
  2
ENTITIES
  0
HATCH
  5
16
330
2
100
AcDbEntity
  8
图层 1
 62
     7
100
AcDbHatch
 10
0.0
 20
0.0
 30
0.0
210
0.0
220
0.0
230
1.0
  2
SOLID
 70
     1
 71
     0
 91
        1
 92
        1
 93
        2
 72
     4
 94
        3
 73
     0
 74
     0
 95
       17
 96
       13
 40
0.0
 40
0.0
 40
0.0
 40
0.0
 40
0.3527780104152769
 40
0.3527780104152769
 40
0.3527780104152769
 40
0.7055560208305538
 40
0.7055560208305538
 40
0.7055560208305538
 40
1.058334031245828
 40
1.058334031245828
 40
1.058334031245828
 40
1.411112041661104
 40
1.411112041661104
 40
1.411112041661104
 40
1.411112041661104
 10
11.07013262565829
 20
29.50312817963231
 10
11.07013262565829
 20
29.50312817963231
 10
10.9431807732774
 20
29.50312817963231
 10
10.9431807732774
 20
29.50312817963231
 10
10.9431807732774
 20
29.50312817963231
 10
10.85843136843155
 20
29.22786486877117
 10
10.85843136843155
 20
29.22786486877117
 10
10.85843136843155
 20
29.22786486877117
 10
10.90080607085448
 20
29.2068497724476
 10
10.90080607085448
 20
29.2068497724476
 10
10.94455881238059
 20
29.31571486159919
 10
11.00346998404173
 20
29.40907701083995
 10
11.07013262565829
 20
29.50312817963231
 72
     1
 10
11.07013262565829
 20
29.50312817963231
 11
11.07013262565829
 21
29.50312817963231
 97
        0
 75
     0
 76
     1
 98
        0
450
        0
451
        0
460
0.0
461
0.0
452
        0
462
0.0
453
        0
470

  0
HATCH
  5
1A
330
2
100
AcDbEntity
  8
图层 1
 62
     7
100
AcDbHatch
 10
0.0
 20
0.0
 30
0.0
210
0.0
220
0.0
230
1.0
  2
SOLID
 70
     1
 71
     0
 91
        1
 92
        1
 93
        2
 72
     4
 94
        3
 73
     0
 74
     0
 95
       47
 96
       43
 40
0.0
 40
0.0
 40
0.0
 40
0.0
 40
0.3527780104152769
 40
0.3527780104152769
 40
0.3527780104152769
 40
0.7055560208305538
 40
0.7055560208305538
 40
0.7055560208305538
 40
1.058334031245828
 40
1.058334031245828
 40
1.058334031245828
 40
1.411112041661104
 40
1.411112041661104
 40
1.411112041661104
 40
1.763890052076384
 40
1.763890052076384
 40
1.763890052076384
 40
2.116668062491659
 40
2.116668062491659
 40
2.116668062491659
 40
2.469446072906936
 40
2.469446072906936
 40
2.469446072906936
 40
2.822224083322215
 40
2.822224083322215
 40
2.822224083322215
 40
3.175002093737492
 40
3.175002093737492
 40
3.175002093737492
 40
3.527780104152768
 40
3.527780104152768
 40
3.527780104152768
 40
3.880558114568044
 40
3.880558114568044
 40
3.880558114568044
 40
4.233336124983321
 40
4.233336124983321
 40
4.233336124983321
 40
4.586114135398599
 40
4.586114135398599
 40
4.586114135398599
 40
4.938892145813873
 40
4.938892145813873
 40
4.938892145813873
 40
4.938892145813873
 10
162.8986914070121
 20
257.4895347631509
 10
162.8986914070121
 20
257.4895347631509
 10
162.9200510131114
 20
257.4471600607279
 10
162.9200510131114
 20
257.4471600607279
 10
162.9200510131114
 20
257.4471600607279
 10
162.9200510131114
 20
257.404785358305
 10
162.9200510131114
 20
257.404785358305
 10
162.9200510131114
 20
257.404785358305
 10
162.8986914070121
 20
257.36258291077
 10
162.8986914070121
 20
257.36258291077
 10
162.8986914070121
 20
257.36258291077
 10
162.8986914070121
 20
257.320208208347
 10
162.8986914070121
 20
257.320208208347
 10
162.8986914070121
 20
257.320208208347
 10
162.8563167045891
 20
257.2990208571356
 10
162.8563167045891
 20
257.2990208571356
 10
162.8563167045891
 20
257.2990208571356
 10
162.8139420021662
 20
257.2563016449369
 10
162.8139420021662
 20
257.2563016449369
 10
162.8139420021662
 20
257.2563016449369
 10
162.7295371070961
 20
257.2563016449369
 10
162.7295371070961
 20
257.2563016449369
 10
162.7295371070961
 20
257.2563016449369
 10
162.6658027985738
 20
257.2778335059241
 10
162.6658027985738
 20
257.2778335059241
 10
162.6658027985738
 20
257.2778335059241
 10
162.6237726059267
 20
257.2990208571356
 10
162.6237726059267
 20
257.2990208571356
 10
162.6237726059267
 20
257.2990208571356
 10
162.5813979035038
 20
257.3413955595585
 10
162.5813979035038
 20
257.3413955595585
 10
162.5813979035038
 20
257.3413955595585
 10
162.5813979035038
 20
257.4895347631509
 10
162.5813979035038
 20
257.4895347631509
 10
162.5813979035038
 20
257.4895347631509
 10
162.6447877022503
 20
257.5525800521216
 10
162.6447877022503
 20
257.5525800521216
 10
162.6447877022503
 20
257.5525800521216
 10
162.7081775009967
 20
257.5525800521216
 10
162.7081775009967
 20
257.5525800521216
 10
162.8749202324821
 20
257.5424170137356
 10
162.7918933765152
 20
257.5939212252171
 10
162.8986914070121
 20
257.4895347631509
 72
     1
 10
162.8986914070121
 20
257.4895347631509
 11
162.8986914070121
 21
257.4895347631509
 97
        0
 75
     0
 76
     1
 98
        0
450
        0
451
        0
460
0.0
461
0.0
452
        0
462
0.0
453
        0
470

  0
HATCH
  5
1B
330
2
100
AcDbEntity
  8
图层 1
 62
     7
100
AcDbHatch
 10
0.0
 20
0.0
 30
0.0
210
0.0
220
0.0
230
1.0
  2
SOLID
 70
     1
 71
     0
 91
        1
 92
        1
 93
        2
 72
     4
 94
        3
 73
     0
 74
     0
 95
       56
 96
       52
 40
0.0
 40
0.0
 40
0.0
 40
0.0
 40
0.3527780104152769
 40
0.3527780104152769
 40
0.3527780104152769
 40
0.7055560208305538
 40
0.7055560208305538
 40
0.7055560208305538
 40
1.058334031245828
 40
1.058334031245828
 40
1.058334031245828
 40
1.411112041661104
 40
1.411112041661104
 40
1.411112041661104
 40
1.763890052076384
 40
1.763890052076384
 40
1.763890052076384
 40
2.116668062491659
 40
2.116668062491659
 40
2.116668062491659
 40
2.469446072906936
 40
2.469446072906936
 40
2.469446072906936
 40
2.822224083322215
 40
2.822224083322215
 40
2.822224083322215
 40
3.175002093737492
 40
3.175002093737492
 40
3.175002093737492
 40
3.527780104152768
 40
3.527780104152768
 40
3.527780104152768
 40
3.880558114568044
 40
3.880558114568044
 40
3.880558114568044
 40
4.233336124983321
 40
4.233336124983321
 40
4.233336124983321
 40
4.586114135398599
 40
4.586114135398599
 40
4.586114135398599
 40
4.938892145813873
 40
4.938892145813873
 40
4.938892145813873
 40
5.291670156229153
 40
5.291670156229153
 40
5.291670156229153
 40
5.64444816664443
 40
5.64444816664443
 40
5.64444816664443
 40
5.997226177059705
 40
5.997226177059705
 40
5.997226177059705
 40
5.997226177059705
 10
185.4837187788815
 20
241.4451977396596
 10
185.4837187788815
 20
241.4451977396596
 10
185.4837187788815
 20
241.4028230372367
 10
185.4837187788815
 20
241.4028230372367
 10
185.4837187788815
 20
241.4028230372367
 10
185.5047338752051
 20
241.3604483348137
 10
185.5047338752051
 20
241.3604483348137
 10
185.4520238795082
 20
241.2782827532863
 10
185.4671823096433
 20
241.1897437409066
 10
185.335579575289
 20
241.2119646214456
 10
185.335579575289
 20
241.2119646214456
 10
185.2932048728662
 20
241.2119646214456
 10
185.2932048728662
 20
241.2119646214456
 10
185.2932048728662
 20
241.2119646214456
 10
185.2294705643439
 20
241.2334964824328
 10
185.2294705643439
 20
241.2334964824328
 10
185.2294705643439
 20
241.2334964824328
 10
185.1660807655974
 20
241.2543393238685
 10
185.1660807655974
 20
241.2543393238685
 10
185.1660807655974
 20
241.2543393238685
 10
185.1450656692739
 20
241.2758711848558
 10
185.1450656692739
 20
241.2758711848558
 10
185.1450656692739
 20
241.2758711848558
 10
185.1450656692739
 20
241.2967140262914
 10
185.1450656692739
 20
241.2967140262914
 10
185.1450656692739
 20
241.2967140262914
 10
185.1237060631745
 20
241.3604483348137
 10
185.1237060631745
 20
241.3604483348137
 10
185.1237060631745
 20
241.3604483348137
 10
185.1237060631745
 20
241.4028230372367
 10
185.1237060631745
 20
241.4028230372367
 10
185.1237060631745
 20
241.4028230372367
 10
185.1660807655974
 20
241.4875724420825
 10
185.1660807655974
 20
241.4875724420825
 10
185.1660807655974
 20
241.4875724420825
 10
185.2084554680203
 20
241.5085875384061
 10
185.2084554680203
 20
241.5085875384061
 10
185.2084554680203
 20
241.5085875384061
 10
185.2718452667668
 20
241.5297748896175
 10
185.2718452667668
 20
241.5297748896175
 10
185.2718452667668
 20
241.5297748896175
 10
185.3565946716127
 20
241.5297748896175
 10
185.3565946716127
 20
241.5297748896175
 10
185.3565946716127
 20
241.5297748896175
 10
185.4199844703592
 20
241.5085875384061
 10
185.4199844703592
 20
241.5085875384061
 10
185.4199844703592
 20
241.5085875384061
 10
185.4623591727821
 20
241.4875724420825
 10
185.4623591727821
 20
241.4875724420825
 10
185.4623591727821
 20
241.4875724420825
 10
185.4837187788815
 20
241.4451977396596
 10
185.4837187788815
 20
241.4451977396596
 72
     1
 10
185.4837187788815
 20
241.4451977396596
 11
185.4837187788815
 21
241.4451977396596
 97
        0
 75
     0
 76
     1
 98
        0
450
        0
451
        0
460
0.0
461
0.0
452
        0
462
0.0
453
        0
470

  0
HATCH
  5
1C
330
2
100
AcDbEntity
  8
图层 1
 62
     7
100
AcDbHatch
 10
0.0
 20
0.0
 30
0.0
210
0.0
220
0.0
230
1.0
  2
SOLID
 70
     1
 71
     0
 91
        1
 92
        1
 93
        2
 72
     4
 94
        3
 73
     0
 74
     0
 95
       38
 96
       34
 40
0.0
 40
0.0
 40
0.0
 40
0.0
 40
0.3527780104152769
 40
0.3527780104152769
 40
0.3527780104152769
 40
0.7055560208305538
 40
0.7055560208305538
 40
0.7055560208305538
 40
1.058334031245828
 40
1.058334031245828
 40
1.058334031245828
 40
1.411112041661104
 40
1.411112041661104
 40
1.411112041661104
 40
1.763890052076384
 40
1.763890052076384
 40
1.763890052076384
 40
2.116668062491659
 40
2.116668062491659
 40
2.116668062491659
 40
2.469446072906936
 40
2.469446072906936
 40
2.469446072906936
 40
2.822224083322215
 40
2.822224083322215
 40
2.822224083322215
 40
3.175002093737492
 40
3.175002093737492
 40
3.175002093737492
 40
3.527780104152768
 40
3.527780104152768
 40
3.527780104152768
 40
3.880558114568044
 40
3.880558114568044
 40
3.880558114568044
 40
3.880558114568044
 10
185.907121293335
 20
220.1937677098971
 10
185.9005756075949
 20
220.0449394867532
 10
185.9329595265197
 20
220.1136691870245
 10
185.864746590912
 20
219.9817219428946
 10
185.864746590912
 20
219.9817219428946
 10
185.822371888489
 20
219.9605345916831
 10
185.822371888489
 20
219.9605345916831
 10
185.822371888489
 20
219.9605345916831
 10
185.6528730787974
 20
219.9605345916831
 10
185.6528730787974
 20
219.9605345916831
 10
185.6528730787974
 20
219.9605345916831
 10
185.5894832800509
 20
220.002909294106
 10
185.5894832800509
 20
220.002909294106
 10
185.5894832800509
 20
220.002909294106
 10
185.5681236739515
 20
220.0240966453175
 10
185.5681236739515
 20
220.0240966453175
 10
185.5681236739515
 20
220.0240966453175
 10
185.5681236739515
 20
220.045283996529
 10
185.5681236739515
 20
220.045283996529
 10
185.5681236739515
 20
220.045283996529
 10
185.547108577628
 20
220.0876586989519
 10
185.547108577628
 20
220.0876586989519
 10
185.547108577628
 20
220.0876586989519
 10
185.547108577628
 20
220.1513930074742
 10
185.547108577628
 20
220.1513930074742
 10
185.547108577628
 20
220.1513930074742
 10
185.5894832800509
 20
220.23614241232
 10
185.5894832800509
 20
220.23614241232
 10
185.5894832800509
 20
220.23614241232
 10
185.6318579824738
 20
220.2573297635315
 10
185.6318579824738
 20
220.2573297635315
 10
185.7055830744942
 20
220.2566407439799
 10
185.8416644359337
 20
220.3310548555519
 10
185.907121293335
 20
220.1937677098971
 72
     1
 10
185.907121293335
 20
220.1937677098971
 11
185.907121293335
 21
220.1937677098971
 97
        0
 75
     0
 76
     1
 98
        0
450
        0
451
        0
460
0.0
461
0.0
452
        0
462
0.0
453
        0
470

  0
HATCH
  5
1D
330
2
100
AcDbEntity
  8
图层 1
 62
     7
100
AcDbHatch
 10
0.0
 20
0.0
 30
0.0
210
0.0
220
0.0
230
1.0
  2
SOLID
 70
     1
 71
     0
 91
        1
 92
        1
 93
        2
 72
     4
 94
        3
 73
     0
 74
     0
 95
       50
 96
       46
 40
0.0
 40
0.0
 40
0.0
 40
0.0
 40
0.3527780104152769
 40
0.3527780104152769
 40
0.3527780104152769
 40
0.7055560208305538
 40
0.7055560208305538
 40
0.7055560208305538
 40
1.058334031245828
 40
1.058334031245828
 40
1.058334031245828
 40
1.411112041661104
 40
1.411112041661104
 40
1.411112041661104
 40
1.763890052076384
 40
1.763890052076384
 40
1.763890052076384
 40
2.116668062491659
 40
2.116668062491659
 40
2.116668062491659
 40
2.469446072906936
 40
2.469446072906936
 40
2.469446072906936
 40
2.822224083322215
 40
2.822224083322215
 40
2.822224083322215
 40
3.175002093737492
 40
3.175002093737492
 40
3.175002093737492
 40
3.527780104152768
 40
3.527780104152768
 40
3.527780104152768
 40
3.880558114568044
 40
3.880558114568044
 40
3.880558114568044
 40
4.233336124983321
 40
4.233336124983321
 40
4.233336124983321
 40
4.586114135398599
 40
4.586114135398599
 40
4.586114135398599
 40
4.938892145813873
 40
4.938892145813873
 40
4.938892145813873
 40
5.291670156229153
 40
5.291670156229153
 40
5.291670156229153
 40
5.291670156229153
 10
180.9117295442905
 20
208.9327766684477
 10
180.9117295442905
 20
208.9327766684477
 10
180.9117295442905
 20
208.7637946234197
 10
180.9117295442905
 20
208.7637946234197
 10
181.2273004989198
 20
208.6749111012643
 10
181.3833634273555
 20
208.6776671794706
 10
181.6948002646751
 20
208.5097186637701
 10
181.9542161258496
 20
208.4294478860095
 10
182.1388733656765
 20
208.2134402565853
 10
182.3297317814676
 20
208.02292635057
 10
182.3297317814676
 20
208.02292635057
 10
182.435496282637
 20
208.065301052993
 10
182.435496282637
 20
208.065301052993
 10
182.288390608372
 20
208.2733849575739
 10
182.3752070718726
 20
208.2134402565853
 10
182.1605774815516
 20
208.3824223016133
 10
182.1605774815516
 20
208.3824223016133
 10
182.1182027791287
 20
208.4247970040363
 10
182.1182027791287
 20
208.4247970040363
 10
182.1182027791287
 20
208.4247970040363
 10
182.0968431730294
 20
208.467516216235
 10
182.0968431730294
 20
208.467516216235
 10
182.0968431730294
 20
208.467516216235
 10
182.0544684706064
 20
208.4883590576707
 10
182.0544684706064
 20
208.4883590576707
 10
182.0544684706064
 20
208.4883590576707
 10
181.9910786718599
 20
208.5305615052057
 10
181.9910786718599
 20
208.5305615052057
 10
181.9910786718599
 20
208.5305615052057
 10
181.948703969437
 20
208.552093366193
 10
181.948703969437
 20
208.552093366193
 10
181.948703969437
 20
208.552093366193
 10
181.9063292670141
 20
208.5729362076286
 10
181.9063292670141
 20
208.5729362076286
 10
181.9063292670141
 20
208.5729362076286
 10
181.8639545645911
 20
208.6156554198274
 10
181.8639545645911
 20
208.6156554198274
 10
181.8639545645911
 20
208.6156554198274
 10
181.821924371944
 20
208.6368427710388
 10
181.821924371944
 20
208.6368427710388
 10
181.6637943848536
 20
208.6742220817127
 10
181.5452830219797
 20
208.8092699138248
 10
181.3771622513911
 20
208.8061693258427
 10
181.2803550043924
 20
208.8573290275484
 10
181.0126709085988
 20
208.8971199066528
 10
180.9117295442905
 20
208.9327766684477
 72
     1
 10
180.9117295442905
 20
208.9327766684477
 11
180.9117295442905
 21
208.9327766684477
 97
        0
 75
     0
 76
     1
 98
        0
450
        0
451
        0
460
0.0
461
0.0
452
        0
462
0.0
453
        0
470

  0
HATCH
  5
1E
330
2
100
AcDbEntity
  8
图层 1
 62
     7
100
AcDbHatch
 10
0.0
 20
0.0
 30
0.0
210
0.0
220
0.0
230
1.0
  2
SOLID
 70
     1
 71
     0
 91
        1
 92
        1
 93
        2
 72
     4
 94
        3
 73
     0
 74
     0
 95
       38
 96
       34
 40
0.0
 40
0.0
 40
0.0
 40
0.0
 40
0.3527780104152769
 40
0.3527780104152769
 40
0.3527780104152769
 40
0.7055560208305538
 40
0.7055560208305538
 40
0.7055560208305538
 40
1.058334031245828
 40
1.058334031245828
 40
1.058334031245828
 40
1.411112041661104
 40
1.411112041661104
 40
1.411112041661104
 40
1.763890052076384
 40
1.763890052076384
 40
1.763890052076384
 40
2.116668062491659
 40
2.116668062491659
 40
2.116668062491659
 40
2.469446072906936
 40
2.469446072906936
 40
2.469446072906936
 40
2.822224083322215
 40
2.822224083322215
 40
2.822224083322215
 40
3.175002093737492
 40
3.175002093737492
 40
3.175002093737492
 40
3.527780104152768
 40
3.527780104152768
 40
3.527780104152768
 40
3.880558114568044
 40
3.880558114568044
 40
3.880558114568044
 40
3.880558114568044
 10
189.145513185819
 20
166.8326485368285
 10
189.207869455238
 20
166.740492171803
 10
189.1317327947871
 20
166.6833035490209
 10
189.103138483396
 20
166.6209472796017
 10
189.103138483396
 20
166.6209472796017
 10
189.0607637809731
 20
166.5997599283903
 10
189.0607637809731
 20
166.5997599283903
 10
189.0607637809731
 20
166.5997599283903
 10
188.9973739822266
 20
166.5785725771788
 10
188.9973739822266
 20
166.5785725771788
 10
188.9973739822266
 20
166.5785725771788
 10
188.9549992798037
 20
166.5997599283903
 10
188.9549992798037
 20
166.5997599283903
 10
188.9549992798037
 20
166.5997599283903
 10
188.8916094810572
 20
166.5997599283903
 10
188.8916094810572
 20
166.5997599283903
 10
188.8916094810572
 20
166.5997599283903
 10
188.8492347786343
 20
166.6209472796017
 10
188.8492347786343
 20
166.6209472796017
 10
188.8492347786343
 20
166.6209472796017
 10
188.8278751725349
 20
166.6633219820247
 10
188.8278751725349
 20
166.6633219820247
 10
188.8278751725349
 20
166.6633219820247
 10
188.8068600762114
 20
166.6845093332361
 10
188.8068600762114
 20
166.6845093332361
 10
188.8068600762114
 20
166.6845093332361
 10
188.8068600762114
 20
166.8326485368285
 10
188.8068600762114
 20
166.8326485368285
 10
188.8068600762114
 20
166.8326485368285
 10
188.8702498749578
 20
166.896038335575
 10
188.8702498749578
 20
166.896038335575
 10
189.0228677056355
 20
166.8819134347673
 10
189.0686875058164
 20
166.9411691162043
 10
189.145513185819
 20
166.8326485368285
 72
     1
 10
189.145513185819
 20
166.8326485368285
 11
189.145513185819
 21
166.8326485368285
 97
        0
 75
     0
 76
     1
 98
        0
450
        0
451
        0
460
0.0
461
0.0
452
        0
462
0.0
453
        0
470

  0
HATCH
  5
1F
330
2
100
AcDbEntity
  8
图层 1
 62
     7
100
AcDbHatch
 10
0.0
 20
0.0
 30
0.0
210
0.0
220
0.0
230
1.0
  2
SOLID
 70
     1
 71
     0
 91
        1
 92
        1
 93
        2
 72
     4
 94
        3
 73
     0
 74
     0
 95
       68
 96
       64
 40
0.0
 40
0.0
 40
0.0
 40
0.0
 40
0.3527780104152769
 40
0.3527780104152769
 40
0.3527780104152769
 40
0.7055560208305538
 40
0.7055560208305538
 40
0.7055560208305538
 40
1.058334031245828
 40
1.058334031245828
 40
1.058334031245828
 40
1.411112041661104
 40
1.411112041661104
 40
1.411112041661104
 40
1.763890052076384
 40
1.763890052076384
 40
1.763890052076384
 40
2.116668062491659
 40
2.116668062491659
 40
2.116668062491659
 40
2.469446072906936
 40
2.469446072906936
 40
2.469446072906936
 40
2.822224083322215
 40
2.822224083322215
 40
2.822224083322215
 40
3.175002093737492
 40
3.175002093737492
 40
3.175002093737492
 40
3.527780104152768
 40
3.527780104152768
 40
3.527780104152768
 40
3.880558114568044
 40
3.880558114568044
 40
3.880558114568044
 40
4.233336124983321
 40
4.233336124983321
 40
4.233336124983321
 40
4.586114135398599
 40
4.586114135398599
 40
4.586114135398599
 40
4.938892145813873
 40
4.938892145813873
 40
4.938892145813873
 40
5.291670156229153
 40
5.291670156229153
 40
5.291670156229153
 40
5.64444816664443
 40
5.64444816664443
 40
5.64444816664443
 40
5.997226177059705
 40
5.997226177059705
 40
5.997226177059705
 40
6.350004187474984
 40
6.350004187474984
 40
6.350004187474984
 40
6.702782197890257
 40
6.702782197890257
 40
6.702782197890257
 40
7.055560208305537
 40
7.055560208305537
 40
7.055560208305537
 40
7.408338218720808
 40
7.408338218720808
 40
7.408338218720808
 40
7.408338218720808
 10
174.7732543591544
 20
135.4846705078077
 10
174.7732543591544
 20
135.4846705078077
 10
174.7732543591544
 20
135.3789060066383
 10
174.7732543591544
 20
135.3789060066383
 10
174.7732543591544
 20
135.3789060066383
 10
174.8156290615773
 20
135.3789060066383
 10
174.8156290615773
 20
135.3789060066383
 10
174.8156290615773
 20
135.3789060066383
 10
174.8580037640002
 20
135.3578909103147
 10
174.8580037640002
 20
135.3578909103147
 10
174.8580037640002
 20
135.3578909103147
 10
174.9213935627468
 20
135.3578909103147
 10
174.9213935627468
 20
135.3578909103147
 10
174.9213935627468
 20
135.3578909103147
 10
174.9637682651697
 20
135.3365313042154
 10
174.9637682651697
 20
135.3365313042154
 10
174.9637682651697
 20
135.3365313042154
 10
174.9847833614933
 20
135.3365313042154
 10
174.9847833614933
 20
135.3365313042154
 10
174.9847833614933
 20
135.3365313042154
 10
175.0271580639162
 20
135.3155162078918
 10
175.0271580639162
 20
135.3155162078918
 10
175.0271580639162
 20
135.3155162078918
 10
175.0485176700155
 20
135.2941566017924
 10
175.0485176700155
 20
135.2941566017924
 10
175.0485176700155
 20
135.2941566017924
 10
175.0695327663391
 20
135.2941566017924
 10
175.0695327663391
 20
135.2941566017924
 10
175.0695327663391
 20
135.2941566017924
 10
175.0908923724385
 20
135.2731415054689
 10
175.0908923724385
 20
135.2731415054689
 10
175.0908923724385
 20
135.2731415054689
 10
175.1332670748614
 20
135.2731415054689
 10
175.1332670748614
 20
135.2731415054689
 10
175.1332670748614
 20
135.2731415054689
 10
175.154282171185
 20
135.2517818993695
 10
175.154282171185
 20
135.2517818993695
 10
175.154282171185
 20
135.2517818993695
 10
175.154282171185
 20
135.3578909103147
 10
175.154282171185
 20
135.3578909103147
 10
175.154282171185
 20
135.3578909103147
 10
175.1332670748614
 20
135.3789060066383
 10
175.1332670748614
 20
135.3789060066383
 10
175.1332670748614
 20
135.3789060066383
 10
175.0908923724385
 20
135.3789060066383
 10
175.0908923724385
 20
135.3789060066383
 10
175.0908923724385
 20
135.3789060066383
 10
175.0908923724385
 20
135.3999211029619
 10
175.0908923724385
 20
135.3999211029619
 10
175.0908923724385
 20
135.3999211029619
 10
175.0695327663391
 20
135.3999211029619
 10
175.0695327663391
 20
135.3999211029619
 10
175.0695327663391
 20
135.3999211029619
 10
175.0271580639162
 20
135.4212807090612
 10
175.0271580639162
 20
135.4212807090612
 10
175.0271580639162
 20
135.4212807090612
 10
175.0061429675926
 20
135.4212807090612
 10
175.0061429675926
 20
135.4212807090612
 10
175.0061429675926
 20
135.4212807090612
 10
174.9637682651697
 20
135.4422958053848
 10
174.9637682651697
 20
135.4422958053848
 10
174.8996894468716
 20
135.4498750204523
 10
174.8394002361073
 20
135.4860485469109
 10
174.7732543591544
 20
135.4846705078077
 72
     1
 10
174.7732543591544
 20
135.4846705078077
 11
174.7732543591544
 21
135.4846705078077
 97
        0
 75
     0
 76
     1
 98
        0
450
        0
451
        0
460
0.0
461
0.0
452
        0
462
0.0
453
        0
470

  0
HATCH
  5
20
330
2
100
AcDbEntity
  8
图层 1
 62
     7
100
AcDbHatch
 10
0.0
 20
0.0
 30
0.0
210
0.0
220
0.0
230
1.0
  2
SOLID
 70
     1
 71
     0
 91
        1
 92
        1
 93
        2
 72
     4
 94
        3
 73
     0
 74
     0
 95
       29
 96
       25
 40
0.0
 40
0.0
 40
0.0
 40
0.0
 40
0.3527780104152769
 40
0.3527780104152769
 40
0.3527780104152769
 40
0.7055560208305538
 40
0.7055560208305538
 40
0.7055560208305538
 40
1.058334031245828
 40
1.058334031245828
 40
1.058334031245828
 40
1.411112041661104
 40
1.411112041661104
 40
1.411112041661104
 40
1.763890052076384
 40
1.763890052076384
 40
1.763890052076384
 40
2.116668062491659
 40
2.116668062491659
 40
2.116668062491659
 40
2.469446072906936
 40
2.469446072906936
 40
2.469446072906936
 40
2.822224083322215
 40
2.822224083322215
 40
2.822224083322215
 40
2.822224083322215
 10
175.4929352807925
 20
164.0174869039101
 10
175.4929352807925
 20
164.0174869039101
 10
175.5139503771161
 20
163.9751122014871
 10
175.5139503771161
 20
163.9751122014871
 10
175.5139503771161
 20
163.9751122014871
 10
175.5139503771161
 20
163.9327374990642
 10
175.5139503771161
 20
163.9327374990642
 10
175.5139503771161
 20
163.9327374990642
 10
175.4929352807925
 20
163.8903627966413
 10
175.4929352807925
 20
163.8903627966413
 10
175.4929352807925
 20
163.8903627966413
 10
175.471920184469
 20
163.8691754454298
 10
175.471920184469
 20
163.8691754454298
 10
175.471920184469
 20
163.8691754454298
 10
175.4505605783696
 20
163.8269729978948
 10
175.4505605783696
 20
163.8269729978948
 10
175.3571984291289
 20
163.7715069239916
 10
175.272449024283
 20
163.8195660377152
 10
175.1966568736079
 20
163.8691754454298
 10
175.208370205985
 20
163.9930267098286
 10
175.1563492298397
 20
164.0216210212197
 10
175.2600466723544
 20
164.0596893514451
 10
175.3330827448232
 20
164.1094710140476
 10
175.4357466580104
 20
164.0753645462439
 10
175.4929352807925
 20
164.0174869039101
 72
     1
 10
175.4929352807925
 20
164.0174869039101
 11
175.4929352807925
 21
164.0174869039101
 97
        0
 75
     0
 76
     1
 98
        0
450
        0
451
        0
460
0.0
461
0.0
452
        0
462
0.0
453
        0
470

  0
HATCH
  5
21
330
2
100
AcDbEntity
  8
图层 1
 62
     7
100
AcDbHatch
 10
0.0
 20
0.0
 30
0.0
210
0.0
220
0.0
230
1.0
  2
SOLID
 70
     1
 71
     0
 91
        1
 92
        1
 93
        2
 72
     4
 94
        3
 73
     0
 74
     0
 95
       11
 96
        7
 40
0.0
 40
0.0
 40
0.0
 40
0.0
 40
0.3527780104152769
 40
0.3527780104152769
 40
0.3527780104152769
 40
0.7055560208305538
 40
0.7055560208305538
 40
0.7055560208305538
 40
0.7055560208305538
 10
174.9213935627468
 20
174.5369206529582
 10
174.9213935627468
 20
174.5369206529582
 10
174.9213935627468
 20
174.3043765542958
 10
174.9213935627468
 20
174.3043765542958
 10
174.9213935627468
 20
174.3043765542958
 10
174.9213935627468
 20
174.5369206529582
 10
174.9213935627468
 20
174.5369206529582
 72
     1
 10
174.9213935627468
 20
174.5369206529582
 11
174.9213935627468
 21
174.5369206529582
 97
        0
 75
     0
 76
     1
 98
        0
450
        0
451
        0
460
0.0
461
0.0
452
        0
462
0.0
453
        0
470

  0
HATCH
  5
22
330
2
100
AcDbEntity
  8
图层 1
 62
     7
100
AcDbHatch
 10
0.0
 20
0.0
 30
0.0
210
0.0
220
0.0
230
1.0
  2
SOLID
 70
     1
 71
     0
 91
        1
 92
        1
 93
        2
 72
     4
 94
        3
 73
     0
 74
     0
 95
      131
 96
      127
 40
0.0
 40
0.0
 40
0.0
 40
0.0
 40
0.3527780104152769
 40
0.3527780104152769
 40
0.3527780104152769
 40
0.7055560208305538
 40
0.7055560208305538
 40
0.7055560208305538
 40
1.058334031245828
 40
1.058334031245828
 40
1.058334031245828
 40
1.411112041661104
 40
1.411112041661104
 40
1.411112041661104
 40
1.763890052076384
 40
1.763890052076384
 40
1.763890052076384
 40
2.116668062491659
 40
2.116668062491659
 40
2.116668062491659
 40
2.469446072906936
 40
2.469446072906936
 40
2.469446072906936
 40
2.822224083322215
 40
2.822224083322215
 40
2.822224083322215
 40
3.175002093737492
 40
3.175002093737492
 40
3.175002093737492
 40
3.527780104152768
 40
3.527780104152768
 40
3.527780104152768
 40
3.880558114568044
 40
3.880558114568044
 40
3.880558114568044
 40
4.233336124983321
 40
4.233336124983321
 40
4.233336124983321
 40
4.586114135398599
 40
4.586114135398599
 40
4.586114135398599
 40
4.938892145813873
 40
4.938892145813873
 40
4.938892145813873
 40
5.291670156229153
 40
5.291670156229153
 40
5.291670156229153
 40
5.64444816664443
 40
5.64444816664443
 40
5.64444816664443
 40
5.997226177059705
 40
5.997226177059705
 40
5.997226177059705
 40
6.350004187474984
 40
6.350004187474984
 40
6.350004187474984
 40
6.702782197890257
 40
6.702782197890257
 40
6.702782197890257
 40
7.055560208305537
 40
7.055560208305537
 40
7.055560208305537
 40
7.408338218720808
 40
7.408338218720808
 40
7.408338218720808
 40
7.76111622913609
 40
7.76111622913609
 40
7.76111622913609
 40
8.113894239551369
 40
8.113894239551369
 40
8.113894239551369
 40
8.466672249966642
 40
8.466672249966642
 40
8.466672249966642
 40
8.819450260381922
 40
8.819450260381922
 40
8.819450260381922
 40
9.172228270797198
 40
9.172228270797198
 40
9.172228270797198
 40
9.525006281212476
 40
9.525006281212476
 40
9.525006281212476
 40
9.877784291627751
 40
9.877784291627751
 40
9.877784291627751
 40
10.23056230204303
 40
10.23056230204303
 40
10.23056230204303
 40
10.58334031245831
 40
10.58334031245831
 40
10.58334031245831
 40
10.93611832287358
 40
10.93611832287358
 40
10.93611832287358
 40
11.28889633328886
 40
11.28889633328886
 40
11.28889633328886
 40
11.64167434370414
 40
11.64167434370414
 40
11.64167434370414
 40
11.99445235411941
 40
11.99445235411941
 40
11.99445235411941
 40
12.34723036453469
 40
12.34723036453469
 40
12.34723036453469
 40
12.70000837494997
 40
12.70000837494997
 40
12.70000837494997
 40
13.05278638536524
 40
13.05278638536524
 40
13.05278638536524
 40
13.40556439578052
 40
13.40556439578052
 40
13.40556439578052
 40
13.7583424061958
 40
13.7583424061958
 40
13.7583424061958
 40
14.11112041661107
 40
14.11112041661107
 40
14.11112041661107
 40
14.46389842702635
 40
14.46389842702635
 40
14.46389842702635
 40
14.81667643744163
 40
14.81667643744163
 40
14.81667643744163
 40
14.81667643744163
 10
173.3972823146245
 20
126.8274843518258
 10
173.3972823146245
 20
126.8274843518258
 10
173.3972823146245
 20
126.7217198506564
 10
173.3972823146245
 20
126.7217198506564
 10
173.3972823146245
 20
126.7217198506564
 10
173.4186419207238
 20
126.7217198506564
 10
173.4186419207238
 20
126.7217198506564
 10
173.4186419207238
 20
126.7217198506564
 10
173.4820317194703
 20
126.7007047543328
 10
173.4820317194703
 20
126.7007047543328
 10
173.4820317194703
 20
126.7007047543328
 10
173.5244064218933
 20
126.6793451482334
 10
173.5244064218933
 20
126.6793451482334
 10
173.5244064218933
 20
126.6793451482334
 10
173.5877962206398
 20
126.6793451482334
 10
173.5877962206398
 20
126.6793451482334
 10
173.5877962206398
 20
126.6793451482334
 10
173.6301709230627
 20
126.6583300519099
 10
173.6301709230627
 20
126.6583300519099
 10
173.7955356154449
 20
126.5911506456296
 10
173.759706598762
 20
126.6380039751379
 10
173.9478089363468
 20
126.5525655507404
 10
173.9478089363468
 20
126.5525655507404
 10
173.9688240326703
 20
126.4464565397952
 10
173.9688240326703
 20
126.4464565397952
 10
173.9688240326703
 20
126.4464565397952
 10
174.0325583411926
 20
126.5101908483175
 10
174.0325583411926
 20
126.5101908483175
 10
174.0325583411926
 20
126.5101908483175
 10
174.0749330436156
 20
126.5101908483175
 10
174.0749330436156
 20
126.5101908483175
 10
174.0749330436156
 20
126.5101908483175
 10
174.1593379386856
 20
126.4678161458946
 10
174.1593379386856
 20
126.4678161458946
 10
174.1593379386856
 20
126.4678161458946
 10
174.180697544785
 20
126.4464565397952
 10
174.180697544785
 20
126.4464565397952
 10
174.2464989119621
 20
126.3982251711837
 10
174.3298702777047
 20
126.3716979184474
 10
174.3922265471239
 20
126.3196769423022
 10
174.608234176548
 20
126.2059887162895
 10
174.7749769080334
 20
126.0278771622029
 10
174.9637682651697
 20
125.8749148217494
 10
174.9637682651697
 20
125.8749148217494
 10
175.0061429675926
 20
125.9172895241723
 10
175.0061429675926
 20
125.9172895241723
 10
174.961356696739
 20
125.9631093243532
 10
174.782211613325
 20
126.1246844092016
 10
174.7308796567315
 20
126.1501781326105
 10
174.7308796567315
 20
126.1501781326105
 10
174.6885049543085
 20
126.1925528350335
 10
174.6885049543085
 20
126.1925528350335
 10
174.6885049543085
 20
126.1925528350335
 10
174.667489857985
 20
126.2349275374564
 10
174.667489857985
 20
126.2349275374564
 10
174.667489857985
 20
126.2349275374564
 10
174.625115155562
 20
126.2559426337799
 10
174.625115155562
 20
126.2559426337799
 10
174.625115155562
 20
126.2559426337799
 10
174.5827404531391
 20
126.2983173362029
 10
174.5827404531391
 20
126.2983173362029
 10
174.5827404531391
 20
126.2983173362029
 10
174.5403657507162
 20
126.3196769423022
 10
174.5403657507162
 20
126.3196769423022
 10
174.5403657507162
 20
126.3196769423022
 10
174.4979910482932
 20
126.3620516447252
 10
174.4979910482932
 20
126.3620516447252
 10
174.4735308542117
 20
126.3875453681341
 10
174.3247026310678
 20
126.4695386947736
 10
174.2864620459544
 20
126.4888312422181
 10
174.2864620459544
 20
126.4888312422181
 10
174.2654469496308
 20
126.5101908483175
 10
174.2654469496308
 20
126.5101908483175
 10
174.2654469496308
 20
126.5101908483175
 10
174.2230722472079
 20
126.5312059446411
 10
174.2230722472079
 20
126.5312059446411
 10
174.2230722472079
 20
126.5312059446411
 10
174.2017126411085
 20
126.5525655507404
 10
174.2017126411085
 20
126.5525655507404
 10
174.2017126411085
 20
126.5525655507404
 10
174.1383228423621
 20
126.573580647064
 10
174.1383228423621
 20
126.573580647064
 10
174.1383228423621
 20
126.573580647064
 10
174.1169632362627
 20
126.5945957433876
 10
174.1169632362627
 20
126.5945957433876
 10
174.1169632362627
 20
126.5945957433876
 10
174.0959481399391
 20
126.7007047543328
 10
174.0959481399391
 20
126.7007047543328
 10
174.0959481399391
 20
126.7007047543328
 10
174.0325583411926
 20
126.6369704458105
 10
174.0325583411926
 20
126.6369704458105
 10
174.0325583411926
 20
126.6369704458105
 10
173.9901836387697
 20
126.6369704458105
 10
173.9901836387697
 20
126.6369704458105
 10
173.9901836387697
 20
126.6369704458105
 10
173.9054342339239
 20
126.6793451482334
 10
173.9054342339239
 20
126.6793451482334
 10
173.9054342339239
 20
126.6793451482334
 10
173.8420444351773
 20
126.7007047543328
 10
173.8420444351773
 20
126.7007047543328
 10
173.8420444351773
 20
126.7007047543328
 10
173.7996697327544
 20
126.7217198506564
 10
173.7996697327544
 20
126.7217198506564
 10
173.7996697327544
 20
126.7217198506564
 10
173.7572950303315
 20
126.7217198506564
 10
173.7572950303315
 20
126.7217198506564
 10
173.7572950303315
 20
126.7217198506564
 10
173.6725456254856
 20
126.7640945530793
 10
173.6725456254856
 20
126.7640945530793
 10
173.6725456254856
 20
126.7640945530793
 10
173.6515305291621
 20
126.7640945530793
 10
173.6515305291621
 20
126.7640945530793
 10
173.6515305291621
 20
126.7640945530793
 10
173.5667811243162
 20
126.7851096494029
 10
173.5667811243162
 20
126.7851096494029
 10
173.5667811243162
 20
126.7851096494029
 10
173.5033913255697
 20
126.8064692555022
 10
173.5033913255697
 20
126.8064692555022
 10
173.5033913255697
 20
126.8064692555022
 10
173.4396570170474
 20
126.8064692555022
 10
173.4396570170474
 20
126.8064692555022
 10
173.4396570170474
 20
126.8064692555022
 10
173.4186419207238
 20
126.8274843518258
 10
173.4186419207238
 20
126.8274843518258
 10
173.4186419207238
 20
126.8274843518258
 10
173.3972823146245
 20
126.8274843518258
 10
173.3972823146245
 20
126.8274843518258
 72
     1
 10
173.3972823146245
 20
126.8274843518258
 11
173.3972823146245
 21
126.8274843518258
 97
        0
 75
     0
 76
     1
 98
        0
450
        0
451
        0
460
0.0
461
0.0
452
        0
462
0.0
453
        0
470

  0
HATCH
  5
23
330
2
100
AcDbEntity
  8
图层 1
 62
     7
100
AcDbHatch
 10
0.0
 20
0.0
 30
0.0
210
0.0
220
0.0
230
1.0
  2
SOLID
 70
     1
 71
     0
 91
        1
 92
        1
 93
        2
 72
     4
 94
        3
 73
     0
 74
     0
 95
       47
 96
       43
 40
0.0
 40
0.0
 40
0.0
 40
0.0
 40
0.3527780104152769
 40
0.3527780104152769
 40
0.3527780104152769
 40
0.7055560208305538
 40
0.7055560208305538
 40
0.7055560208305538
 40
1.058334031245828
 40
1.058334031245828
 40
1.058334031245828
 40
1.411112041661104
 40
1.411112041661104
 40
1.411112041661104
 40
1.763890052076384
 40
1.763890052076384
 40
1.763890052076384
 40
2.116668062491659
 40
2.116668062491659
 40
2.116668062491659
 40
2.469446072906936
 40
2.469446072906936
 40
2.469446072906936
 40
2.822224083322215
 40
2.822224083322215
 40
2.822224083322215
 40
3.175002093737492
 40
3.175002093737492
 40
3.175002093737492
 40
3.527780104152768
 40
3.527780104152768
 40
3.527780104152768
 40
3.880558114568044
 40
3.880558114568044
 40
3.880558114568044
 40
4.233336124983321
 40
4.233336124983321
 40
4.233336124983321
 40
4.586114135398599
 40
4.586114135398599
 40
4.586114135398599
 40
4.938892145813873
 40
4.938892145813873
 40
4.938892145813873
 40
4.938892145813873
 10
180.1920486226523
 20
255.6479577566324
 10
180.1920486226523
 20
255.6479577566324
 10
180.2130637189759
 20
255.6055830542095
 10
180.2130637189759
 20
255.6055830542095
 10
180.2130637189759
 20
255.6055830542095
 10
180.2130637189759
 20
255.5210059042515
 10
180.2130637189759
 20
255.5210059042515
 10
180.2130637189759
 20
255.5210059042515
 10
180.1920486226523
 20
255.4786312018286
 10
180.1920486226523
 20
255.4786312018286
 10
180.1920486226523
 20
255.4786312018286
 10
180.1496739202294
 20
255.4359119896299
 10
180.1496739202294
 20
255.4359119896299
 10
180.1496739202294
 20
255.4359119896299
 10
180.1283143141301
 20
255.4147246384184
 10
180.1283143141301
 20
255.4147246384184
 10
180.1283143141301
 20
255.4147246384184
 10
180.0225498129606
 20
255.4147246384184
 10
180.0225498129606
 20
255.4147246384184
 10
180.0225498129606
 20
255.4147246384184
 10
179.9591600142141
 20
255.4359119896299
 10
179.9591600142141
 20
255.4359119896299
 10
179.9591600142141
 20
255.4359119896299
 10
179.9167853117912
 20
255.4570993408414
 10
179.9167853117912
 20
255.4570993408414
 10
179.9167853117912
 20
255.4570993408414
 10
179.8957702154676
 20
255.4786312018286
 10
179.8957702154676
 20
255.4786312018286
 10
179.8957702154676
 20
255.4786312018286
 10
179.8744106093683
 20
255.4994740432643
 10
179.8744106093683
 20
255.4994740432643
 10
179.8744106093683
 20
255.4994740432643
 10
179.8744106093683
 20
255.6479577566324
 10
179.8744106093683
 20
255.6479577566324
 10
179.9608825630931
 20
255.7323626517025
 10
180.045631967939
 20
255.7085914771726
 10
180.1496739202294
 20
255.7115198102668
 10
180.1496739202294
 20
255.7115198102668
 10
180.170689016553
 20
255.6688005980681
 10
180.170689016553
 20
255.6688005980681
 10
180.170689016553
 20
255.6688005980681
 10
180.1920486226523
 20
255.6479577566324
 10
180.1920486226523
 20
255.6479577566324
 72
     1
 10
180.1920486226523
 20
255.6479577566324
 11
180.1920486226523
 21
255.6479577566324
 97
        0
 75
     0
 76
     1
 98
        0
450
        0
451
        0
460
0.0
461
0.0
452
        0
462
0.0
453
        0
470

  0
INSERT
  5
516
330
2
100
AcDbEntity
  8
DIM
100
AcDbBlockReference
  2
A4图框-NEW
 10
485.7033340613945
 20
63.91521937681516
 30
0.0
 41
0.25
 42
0.25
 43
0.25
  0
MTEXT
  5
517
330
2
100
AcDbEntity
  8
图框
 62
     3
100
AcDbMText
 10
751.6351688599804
 20
187.8756549270434
 30
0.0
 40
0.746378394635083
 41
2.707336787601192
 46
1.971523801091308
 71
     5
 72
     5
  1
0.62g
  7
Romans字体
 73
     1
 44
1.0
1001
ACAD
1000
MTEXTBEGIN
1070
    73
1070
     1
1070
    44
1040
1.0
1070
    74
1070
     0
1000
MTEXTEND
1000
ACAD_MTEXT_DEFINED_HEIGHT_BEGIN
1070
    46
1040
1.971523801091308
1000
ACAD_MTEXT_DEFINED_HEIGHT_END
  0
MTEXT
  5
518
330
2
100
AcDbEntity
  8
图框
 62
     3
100
AcDbMText
 10
746.2204944822862
 20
187.875654851649
 30
0.0
 40
0.7463783937585367
 41
2.707337108597616
 46
1.971523650302624
 71
     5
 72
     5
  1
4:1
  7
Romans字体
 73
     1
 44
1.0
1001
ACAD
1000
MTEXTBEGIN
1070
    73
1070
     1
1070
    44
1040
1.0
1070
    74
1070
     0
1000
MTEXTEND
1000
ACAD_MTEXT_DEFINED_HEIGHT_BEGIN
1070
    46
1040
1.971523650302624
1000
ACAD_MTEXT_DEFINED_HEIGHT_END
  0
MTEXT
  5
598
330
2
100
AcDbEntity
  8
图框
 62
     3
100
AcDbMText
 10
763.2339107149325
 20
193.3974262530419
 30
0.0
 40
0.7463783937585367
 41
8.403097998105339
 46
2.171686376421464
 71
     5
 72
     5
  1
CDSM-2.5
  7
Romans字体
 73
     1
 44
1.0
1001
ACAD
1000
MTEXTBEGIN
1070
    73
1070
     1
1070
    44
1040
1.0
1070
    74
1070
     0
1000
MTEXTEND
1000
ACAD_MTEXT_DEFINED_HEIGHT_BEGIN
1070
    46
1040
2.171686376421464
1000
ACAD_MTEXT_DEFINED_HEIGHT_END
  0
MTEXT
  5
599
330
2
100
AcDbEntity
  8
图框
 62
     3
100
AcDbMText
 10
763.2339107149325
 20
191.2025636213354
 30
0.0
 40
0.7463783937585367
 41
8.403097998105339
 46
2.218038886991525
 71
     5
 72
     5
  1
1010171101001
  7
Romans字体
 73
     1
 44
1.0
1001
ACAD
1000
MTEXTBEGIN
1070
    73
1070
     1
1070
    44
1040
1.0
1070
    74
1070
     0
1000
MTEXTEND
1000
ACAD_MTEXT_DEFINED_HEIGHT_BEGIN
1070
    46
1040
2.218038886991525
1000
ACAD_MTEXT_DEFINED_HEIGHT_END
  0
MTEXT
  5
59A
102
{ACAD_XDICTIONARY
360
D8A
102
}
330
2
100
AcDbEntity
  8
打标文字
 62
     3
100
AcDbMText
 10
750.2190743483176
 20
221.037388623549
 30
0.0
 40
0.75
 41
21.56370451087032
 46
26.95590277395973
 71
     1
 72
     5
  3
\A1;{\f仿宋_GB2312|b0|i0|c134|p49;技术参数}:\P- {\f仿宋_GB2312|b0|i0|c134|p49;材料}: {\f仿宋_GB2312|b0|i0|c134|p49;铜合金}\P- {\f仿宋_GB2312|b0|i0|c134|p49;表面处理}: {\f仿宋_GB2312|b0|i0|c134|p49;镀银}\P- {\f仿宋_GB2312|b0|i0|c134|p49;额定电流}: 10A\P- {\f仿宋_GB2312|b0|i0|c134|p49
  3
;接触电阻}: ≤3mΩ\P- {\f仿宋_GB2312|b0|i0|c134|p49;线径范围}: 2.5mm{\H0.7x;\S2^ ;}(14 AWG)\P- {\f仿宋_GB2312|b0|i0|c134|p49;可插拔次数}: {\f仿宋_GB2312|b0|i0|c134|p49;≥}500\P- {\f仿宋_GB2312|b0|i0|c134|p49;剥线长度：} 6mm\P\PTechnical specification:\P- Material: copper alloy\P-
  1
 Surface: hard-silver plated\P- Rated current: 10A\P- Contact resistance: ≤3mΩ\P- Wire gauge: 2.5mm{\H0.7x;\S2^ ;}(14 AWG)\P- Mating cycles: {\f仿宋_GB2312|b0|i0|c134|p49;≥}500\P- {\A0;Stripping Length: 6mm\P} 
  7
Romans字体
 73
     1
 44
1.0
1001
ACAD
1000
MTEXTBEGIN
1070
    73
1070
     1
1070
    44
1040
1.0
1070
    74
1070
     0
1000
MTEXTEND
1000
ACAD_MTEXT_DEFINED_HEIGHT_BEGIN
1070
    46
1040
26.95590277395973
1000
ACAD_MTEXT_DEFINED_HEIGHT_END
  0
DIMENSION
  5
59B
330
2
100
AcDbEntity
  8
DIM
100
AcDbDimension
  2
*D6
 10
740.8722924047277
 20
212.6007665267888
 30
0.0
 11
740.8722924047277
 21
217.750766527189
 31
0.0
 70
   160
  1
%%c<>
 71
     5
 42
1.600000000400086
 73
     0
 74
     0
 75
     0
  3
01
100
AcDbAlignedDimension
 13
736.3098953635774
 23
214.2007665271889
 33
0.0
 14
736.3098953635774
 24
212.6007665267888
 34
0.0
 50
270.0
100
AcDbRotatedDimension
1001
ACAD
1000
DSTYLE
1002
{
1070
    41
1040
1.0
1070
    44
1040
0.2
1070
   140
1040
1.199999999999999
1070
   147
1040
0.2
1002
}
  0
DIMENSION
  5
59E
102
{ACAD_XDICTIONARY
360
59F
102
}
102
{ACAD_REACTORS
330
5A0
102
}
330
2
100
AcDbEntity
  8
DIM
100
AcDbDimension
  2
*D4
 10
713.104272162433
 20
219.7247346842627
 30
0.0
 11
725.5970924853529
 21
220.5247346842627
 31
0.0
 70
    32
  1
25
 71
     5
 42
24.98564064583968
 73
     0
 74
     0
 75
     0
  3
01
100
AcDbAlignedDimension
 13
738.0899128082727
 23
213.4007665269889
 33
0.0
 14
713.104272162433
 24
215.000766527389
 34
0.0
100
AcDbRotatedDimension
1001
ACAD
1000
DSTYLE
1002
{
1070
    41
1040
1.0
1070
    44
1040
0.2
1070
   140
1040
1.199999999999999
1070
   147
1040
0.2
1002
}
  0
LINE
  5
5A1
330
2
100
AcDbEntity
  8
02___PRT_ALL_AXES
  6
Continuous
 62
     7
370
    25
100
AcDbLine
 10
724.2042721613723
 20
212.1757665258894
 30
0.0
 11
723.8042721619327
 21
212.175766525889
 31
0.0
  0
LINE
  5
5A2
330
2
100
AcDbEntity
  8
02___PRT_ALL_AXES
  6
Continuous
 62
     7
370
    25
100
AcDbLine
 10
736.5624730837397
 20
212.6007665267891
 30
0.0
 11
724.8042721627927
 21
212.6007665267891
 31
0.0
  0
LINE
  5
5A3
330
2
100
AcDbEntity
  8
02___PRT_ALL_AXES
  6
Continuous
 62
     7
370
    25
100
AcDbLine
 10
724.8042721627927
 20
212.6007665267891
 30
0.0
 11
724.2042721613731
 21
212.175766525889
 31
0.0
  0
LINE
  5
5A4
330
2
100
AcDbEntity
  8
02___PRT_ALL_AXES
  6
Continuous
 62
     7
370
    25
100
AcDbLine
 10
736.7841677463816
 20
214.2007665271887
 30
0.0
 11
724.8042721627927
 21
214.2007665271892
 31
0.0
  0
LINE
  5
5A5
330
2
100
AcDbEntity
  8
02___PRT_ALL_AXES
  6
Continuous
 62
     7
370
    25
100
AcDbLine
 10
724.8042721627927
 20
214.2007665271892
 30
0.0
 11
724.2042721613731
 21
214.6257665255491
 31
0.0
  0
LINE
  5
5A6
330
2
100
AcDbEntity
  8
02___PRT_ALL_AXES
  6
Continuous
 62
     7
370
    25
100
AcDbLine
 10
724.8042721627927
 20
212.6007665267896
 30
0.0
 11
724.8042721627927
 21
214.2007665271892
 31
0.0
  0
LINE
  5
5A7
330
2
100
AcDbEntity
  8
02___PRT_ALL_AXES
  6
Continuous
 62
     7
370
    25
100
AcDbLine
 10
724.2042721613715
 20
214.6257665255491
 30
0.0
 11
723.8042721619327
 21
214.6257665255491
 31
0.0
  0
LINE
  5
5A8
330
2
100
AcDbEntity
  8
02___PRT_ALL_AXES
  6
Continuous
 62
     7
370
    25
100
AcDbLine
 10
724.2042721613731
 20
212.175766525889
 30
0.0
 11
724.2042721613731
 21
214.6257665255491
 31
0.0
  0
LINE
  5
5A9
330
2
100
AcDbEntity
  8
02___PRT_ALL_AXES
  6
Continuous
 62
     7
370
    25
100
AcDbLine
 10
723.8042721619327
 20
212.175766525889
 30
0.0
 11
723.8042721619327
 21
214.6257665255491
 31
0.0
  0
LINE
  5
5AA
330
2
100
AcDbEntity
  8
02___PRT_ALL_AXES
  6
Continuous
 62
     7
370
    25
100
AcDbLine
 10
721.8042721614327
 20
212.1507665276292
 30
0.0
 11
721.8042721614327
 21
214.6507665263492
 31
0.0
  0
HATCH
  5
5AB
330
2
100
AcDbEntity
  8
hat
100
AcDbHatch
 10
0.0
 20
0.0
 30
0.0
210
0.0
220
0.0
230
1.0
  2
ANSI31
 70
     0
 71
     0
 91
        3
 92
        7
 72
     0
 73
     1
 93
        5
 10
718.1542721624325
 20
214.5257665269893
 10
718.1542721624325
 20
215.000766527389
 10
713.104272162433
 20
215.0007665273891
 10
713.104272162433
 20
214.9007665269892
 10
714.273413488001
 20
214.5257665269893
 97
        0
 92
        5
 93
        8
 72
     1
 10
720.1042721629331
 20
214.650766526349
 11
720.1042721629331
 21
215.0007665273891
 72
     1
 10
720.1042721629331
 20
215.0007665273891
 11
719.0542721624325
 21
215.0007665273891
 72
     1
 10
719.0542721624325
 20
215.0007665273891
 11
719.0542721624325
 21
214.5257665269893
 72
     1
 10
719.0542721624325
 20
214.5257665269893
 11
719.1042721624327
 21
214.5257665269893
 72
     1
 10
719.1042721624327
 20
214.5257665269893
 11
719.7537912152705
 21
213.4007665269889
 72
     1
 10
719.7537912152705
 20
213.4007665269889
 11
721.0661155565076
 21
213.4007665269889
 72
     4
 94
        3
 73
     0
 74
     0
 95
       10
 96
        6
 40
0.0
 40
0.0
 40
0.0
 40
0.0
 40
0.2638941500247012
 40
0.7400240933447742
 40
1.441654713590728
 40
1.441654713590728
 40
1.441654713590728
 40
1.441654713590728
 10
721.0661155565076
 20
213.4007665269889
 10
721.026590111968
 20
213.487513425233
 10
720.9578788320397
 20
213.7245011285787
 10
721.5175151383459
 20
214.0857154947671
 10
721.1645469161132
 20
214.4398167734852
 10
720.954272162183
 20
214.6507665263489
 72
     1
 10
720.954272162183
 20
214.6507665263489
 11
720.1042721629331
 21
214.650766526349
 97
        0
 92
        5
 93
        9
 72
     1
 10
714.273413488001
 20
212.2757665269892
 11
713.104272162433
 21
211.9007665269894
 72
     1
 10
713.104272162433
 20
211.9007665269894
 11
713.104272162433
 21
211.8007665265893
 72
     1
 10
713.104272162433
 20
211.8007665265893
 11
720.1042721629329
 21
211.8007665265889
 72
     1
 10
720.1042721629329
 20
211.8007665265889
 11
720.1042721629329
 21
212.1507665276288
 72
     1
 10
720.1042721629329
 20
212.1507665276288
 11
721.1258727074922
 21
212.1507665276288
 72
     4
 94
        3
 73
     0
 74
     0
 95
       10
 96
        6
 40
1.441654713590728
 40
1.441654713590728
 40
1.441654713590728
 40
1.441654713590728
 40
1.818734918784238
 40
2.266223958045519
 40
2.798921131773473
 40
2.798921131773473
 40
2.798921131773473
 40
2.798921131773473
 10
721.1258727074922
 20
212.1507665276288
 10
721.0503658635854
 20
212.2732924897052
 10
720.8852534541455
 20
212.5412225973693
 10
721.4053489090121
 20
212.8866844261481
 10
721.1459016851289
 20
213.2256590927392
 10
721.0661155565076
 20
213.4007665269889
 72
     1
 10
721.0661155565076
 20
213.4007665269889
 11
719.7537912152704
 21
213.4007665269889
 72
     1
 10
719.7537912152704
 20
213.4007665269889
 11
719.1042721624326
 21
212.2757665269892
 72
     1
 10
719.1042721624326
 20
212.2757665269892
 11
714.273413488001
 21
212.2757665269892
 97
        0
 75
     0
 76
     1
 52
0.0
 41
0.15
 77
     0
 78
     1
 53
45.0
 43
3669.2724146027
 44
430.724829385472
 45
-0.3367596045400932
 46
0.3367596045400933
 79
     0
 47
0.0161229023581542
 98
        3
 10
717.0050458903572
 20
214.7418054077436
 10
720.4418852611546
 20
214.1452579181054
 10
718.4249608412216
 20
212.0654035675345
1001
ACAD
1010
0.0
1020
0.0
1030
0.0
  0
LINE
  5
5AC
102
{ACAD_REACTORS
330
5A0
102
}
330
2
100
AcDbEntity
  8
02___PRT_ALL_AXES
  6
Continuous
 62
     7
370
    25
100
AcDbLine
 10
713.104272162433
 20
211.8007665265893
 30
0.0
 11
713.104272162433
 21
215.000766527389
 31
0.0
  0
LINE
  5
5AD
330
2
100
AcDbEntity
  8
0
  6
Continuous
 62
     7
370
    25
100
AcDbLine
 10
721.8042721639728
 20
214.295766525149
 30
0.0
 11
721.8042721639728
 21
214.6857665249292
 31
0.0
  0
LINE
  5
5AE
330
2
100
AcDbEntity
  8
02___PRT_ALL_AXES
  6
Continuous
 62
     7
370
    25
100
AcDbLine
 10
721.8042721639728
 20
211.6657665273494
 30
0.0
 11
721.8042721639728
 21
213.0657665261994
 31
0.0
  0
LINE
  5
5AF
330
2
100
AcDbEntity
  8
02___PRT_ALL_AXES
  6
Continuous
 62
     7
370
    25
100
AcDbLine
 10
721.8042721639728
 20
211.6657665273494
 30
0.0
 11
723.4542721619333
 21
212.2597665268724
 31
0.0
  0
LINE
  5
5B0
330
2
100
AcDbEntity
  8
0
  6
Continuous
 62
     7
370
    25
100
AcDbLine
 10
721.8042721639728
 20
215.1657665250493
 30
0.0
 11
723.4542721619333
 21
214.5717665255258
 31
0.0
  0
LINE
  5
5B1
330
2
100
AcDbEntity
  8
0
  6
Continuous
 62
     7
370
    25
100
AcDbLine
 10
721.8042721639728
 20
215.1657665250493
 30
0.0
 11
721.8042721639728
 21
213.7657665261993
 31
0.0
  0
LINE
  5
5B2
330
2
100
AcDbEntity
  8
0
  6
Continuous
 62
     7
370
    25
100
AcDbLine
 10
721.8042721639728
 20
213.0657665261994
 30
0.0
 11
723.4542721619333
 21
213.0657665261994
 31
0.0
  0
LINE
  5
5B3
330
2
100
AcDbEntity
  8
0
  6
Continuous
 62
     7
370
    25
100
AcDbLine
 10
721.8042721639728
 20
213.7657665261993
 30
0.0
 11
723.4542721619333
 21
213.7657665261993
 31
0.0
  0
LINE
  5
5B4
330
2
100
AcDbEntity
  8
0
  6
Continuous
 62
     7
370
    25
100
AcDbLine
 10
723.4542721619333
 20
213.7657665261993
 30
0.0
 11
723.4542721619333
 21
214.5717665255263
 31
0.0
  0
LINE
  5
5B5
330
2
100
AcDbEntity
  8
02___PRT_ALL_AXES
  6
Continuous
 62
     7
370
    25
100
AcDbLine
 10
723.4542721619333
 20
212.2597665268724
 30
0.0
 11
723.4542721619333
 21
213.0657665261994
 31
0.0
  0
LINE
  5
5B6
330
2
100
AcDbEntity
  8
02___PRT_ALL_AXES
  6
Continuous
 62
     7
370
    25
100
AcDbLine
 10
721.8042721639728
 20
214.6857665249292
 30
0.0
 11
721.8042721639728
 21
212.1457665249297
 31
0.0
  0
DIMENSION
  5
5B7
330
2
100
AcDbEntity
  8
DIM
100
AcDbDimension
  2
*D3
 10
708.5623997105665
 20
211.8007665265884
 30
0.0
 11
708.5623997105665
 21
217.5507665273891
 31
0.0
 70
   160
  1
%%c<>
 71
     5
 42
3.200000000800598
 73
     0
 74
     0
 75
     0
  3
01
100
AcDbAlignedDimension
 13
713.104272162433
 23
215.000766527389
 33
0.0
 14
713.104272162433
 24
211.8007665265884
 34
0.0
 50
270.0
100
AcDbRotatedDimension
1001
ACAD
1000
DSTYLE
1002
{
1070
    41
1040
1.0
1070
    44
1040
0.2
1070
   140
1040
1.199999999999999
1070
   147
1040
0.2
1002
}
  0
LINE
  5
5B8
330
2
100
AcDbEntity
  8
CEN
100
AcDbLine
 10
712.2032494868797
 20
213.4007665269889
 30
0.0
 11
739.1048496578368
 21
213.4007665269889
 31
0.0
  0
LINE
  5
5B9
330
2
100
AcDbEntity
  8
02___PRT_ALL_AXES
  6
Continuous
 62
     7
370
    25
100
AcDbLine
 10
723.4542721619333
 20
212.5007665269889
 30
0.0
 11
723.8042721619327
 21
212.5007665269889
 31
0.0
  0
LINE
  5
5BA
330
2
100
AcDbEntity
  8
DIM
100
AcDbLine
 10
736.7841677463816
 20
214.2007665271892
 30
0.0
 11
736.5624730837397
 21
214.2007665271892
 31
0.0
  0
ARC
  5
5BB
330
2
100
AcDbEntity
  8
0
 62
     7
100
AcDbCircle
 10
736.5624730837397
 20
213.6007665267891
 30
0.0
 40
1.0
100
AcDbArc
 50
270.0
 51
295.0000000000069
  0
LINE
  5
5BC
330
2
100
AcDbEntity
  8
0
 62
     7
100
AcDbLine
 10
737.9166982867949
 20
213.1288741908777
 30
0.0
 11
736.9850913454805
 21
212.6944587397523
 31
0.0
  0
LINE
  5
5BD
330
2
100
AcDbEntity
  8
0
 62
     7
100
AcDbLine
 10
737.9166982867949
 20
213.6726588630997
 30
0.0
 11
736.9850913454805
 21
214.1070743142252
 31
0.0
  0
LINE
  5
5BE
330
2
100
AcDbEntity
  8
DIM
100
AcDbLine
 10
736.985091345481
 20
214.1070743142247
 30
0.0
 11
736.7841677463816
 21
214.2007665271892
 31
0.0
  0
ARC
  5
5BF
330
2
100
AcDbEntity
  8
0
 62
     7
100
AcDbCircle
 10
736.5624730837397
 20
213.2007665271888
 30
0.0
 40
1.0
100
AcDbArc
 50
64.9999999999931
 51
90.0
  0
ARC
  5
5C0
330
2
100
AcDbEntity
  8
0
 62
     7
100
AcDbCircle
 10
737.7899128082731
 20
213.4007665269889
 30
0.0
 40
0.3
100
AcDbArc
 50
295.0000000000069
 51
64.9999999999931
  0
LINE
  5
5C1
330
2
100
AcDbEntity
  8
02___PRT_ALL_AXES
  6
Continuous
 62
     7
370
    25
100
AcDbLine
 10
723.4542721619333
 20
214.3007665269889
 30
0.0
 11
723.8042721619327
 21
214.3007665269889
 31
0.0
  0
DIMENSION
  5
5C2
330
2
100
AcDbEntity
  8
DIM
100
AcDbDimension
  2
*D2
 10
719.1042721624327
 20
217.136139990402
 30
0.0
 11
716.1042721624331
 21
217.936139990402
 31
0.0
 70
    32
 71
     5
 42
5.999999999999886
 73
     0
 74
     0
 75
     0
  3
01
100
AcDbAlignedDimension
 13
713.104272162433
 23
216.6497279828045
 33
0.0
 14
719.1042721624327
 24
214.5257665269893
 34
0.0
100
AcDbRotatedDimension
1001
ACAD
1000
DSTYLE
1002
{
1070
    41
1040
1.0
1070
    44
1040
0.2
1070
   140
1040
1.199999999999999
1070
   147
1040
0.2
1002
}
  0
LINE
  5
5C3
330
2
100
AcDbEntity
  8
0
 62
     7
100
AcDbLine
 10
721.8042721614327
 20
214.6507665263488
 30
0.0
 11
720.1042721629331
 21
214.650766526349
 31
0.0
  0
LINE
  5
5C4
330
2
100
AcDbEntity
  8
0
 62
     7
100
AcDbLine
 10
720.1042721629331
 20
215.0007665273891
 30
0.0
 11
719.054272162432
 21
215.0007665273891
 31
0.0
  0
LINE
  5
5C5
330
2
100
AcDbEntity
  8
0
 62
     7
100
AcDbLine
 10
718.1542721624325
 20
215.0007665273891
 30
0.0
 11
713.1042721624326
 21
215.0007665273891
 31
0.0
  0
LINE
  5
5C6
330
2
100
AcDbEntity
  8
0
 62
     7
100
AcDbLine
 10
714.273413488001
 20
214.5257665269893
 30
0.0
 11
713.104272162433
 21
214.9007665269892
 31
0.0
  0
LINE
  5
5C7
330
2
100
AcDbEntity
  8
0
 62
     7
100
AcDbLine
 10
719.1042721624326
 20
212.2757665269892
 30
0.0
 11
714.273413488001
 21
212.2757665269892
 31
0.0
  0
LINE
  5
5C8
330
2
100
AcDbEntity
  8
0
 62
     7
100
AcDbLine
 10
719.1042721624326
 20
214.5257665269893
 30
0.0
 11
719.0542721624325
 21
214.5257665269893
 31
0.0
  0
LINE
  5
5C9
330
2
100
AcDbEntity
  8
0
 62
     7
100
AcDbLine
 10
718.1542721624325
 20
214.5257665269893
 30
0.0
 11
714.273413488001
 21
214.5257665269893
 31
0.0
  0
LINE
  5
5CA
102
{ACAD_REACTORS
330
5DA
102
}
330
2
100
AcDbEntity
  8
0
 62
     7
100
AcDbLine
 10
714.273413488001
 20
214.5257665269893
 30
0.0
 11
714.273413488001
 21
212.2757665269892
 31
0.0
  0
LINE
  5
5CB
330
2
100
AcDbEntity
  8
0
 62
     7
100
AcDbLine
 10
719.1042721624327
 20
212.2757665269892
 30
0.0
 11
719.1042721624327
 21
214.5257665269893
 31
0.0
  0
LINE
  5
5CC
330
2
100
AcDbEntity
  8
0
 62
     7
100
AcDbLine
 10
718.1542721624325
 20
215.0007665299292
 30
0.0
 11
718.1542721624325
 21
214.5257665269893
 31
0.0
  0
LINE
  5
5CD
330
2
100
AcDbEntity
  8
0
 62
     7
100
AcDbLine
 10
719.1042721624327
 20
214.5257665269893
 30
0.0
 11
719.7537912152704
 21
213.4007665269892
 31
0.0
  0
LINE
  5
5CE
330
2
100
AcDbEntity
  8
CEN
100
AcDbLine
 10
718.604272162433
 20
214.2313571681079
 30
0.0
 11
718.604272162433
 21
215.1668814352903
 31
0.0
  0
ARC
  5
5CF
330
2
100
AcDbEntity
  8
0
100
AcDbCircle
 10
718.6042721624326
 20
216.2960389033961
 30
0.0
 40
1.3712149824323
100
AcDbArc
 50
250.841889826874
 51
289.1581101731536
  0
ARC
  5
5D0
330
2
100
AcDbEntity
  8
0
100
AcDbCircle
 10
718.604272162433
 20
215.8210388581281
 30
0.0
 40
1.371214940048969
100
AcDbArc
 50
250.8418892116136
 51
289.1581107883864
  0
LINE
  5
5D1
330
2
100
AcDbEntity
  8
0
 62
     7
100
AcDbLine
 10
721.8042721614327
 20
212.1507665276288
 30
0.0
 11
720.1042721629329
 21
212.1507665276288
 31
0.0
  0
LINE
  5
5D2
330
2
100
AcDbEntity
  8
0
 62
     7
100
AcDbLine
 10
720.1042721629329
 20
211.8007665265889
 30
0.0
 11
713.104272162433
 21
211.8007665265893
 31
0.0
  0
LINE
  5
5D3
102
{ACAD_REACTORS
330
5DA
102
}
330
2
100
AcDbEntity
  8
0
 62
     7
100
AcDbLine
 10
714.273413488001
 20
212.2757665269892
 30
0.0
 11
713.1042721624326
 21
211.9007665269893
 31
0.0
  0
LINE
  5
5D4
330
2
100
AcDbEntity
  8
0
 62
     7
100
AcDbLine
 10
719.1042721624326
 20
212.2757665269892
 30
0.0
 11
719.7537912152704
 21
213.4007665269892
 31
0.0
  0
LINE
  5
5D5
330
2
100
AcDbEntity
  8
0
 62
     7
100
AcDbLine
 10
719.0542721624325
 20
215.000766529929
 30
0.0
 11
719.0542721624325
 21
214.5257665269893
 31
0.0
  0
LINE
  5
5D6
330
2
100
AcDbEntity
  8
0
 62
     7
100
AcDbLine
 10
720.1042721629331
 20
214.6507665263489
 30
0.0
 11
720.1042721629331
 21
215.0007665273892
 31
0.0
  0
LINE
  5
5D7
330
2
100
AcDbEntity
  8
0
 62
     7
100
AcDbLine
 10
720.1042721629329
 20
212.1507665276283
 30
0.0
 11
720.1042721629329
 21
211.8007665265881
 31
0.0
  0
DIMENSION
  5
5D8
102
{ACAD_XDICTIONARY
360
5D9
102
}
102
{ACAD_REACTORS
330
5DA
102
}
330
2
100
AcDbEntity
  8
DIM
100
AcDbDimension
  2
*D5
 10
710.8742387068351
 20
214.5257665269893
 30
0.0
 11
710.0742387068351
 21
218.5043379555609
 31
0.0
 70
    32
  1
%%C<>
 71
     5
 42
2.250000000000142
 73
     0
 74
     0
 75
     0
  3
01
100
AcDbAlignedDimension
 13
714.273413488001
 23
212.2757665269892
 33
0.0
 14
714.273413488001
 24
214.5257665269893
 34
0.0
 50
90.0
100
AcDbRotatedDimension
1001
ACAD
1000
DSTYLE
1002
{
1070
   271
1070
     2
1070
    41
1040
1.0
1070
    44
1040
0.2
1070
   140
1040
1.199999999999999
1070
   147
1040
0.2
1002
}
  0
SPLINE
  5
5DB
330
2
100
AcDbEntity
  8
hat
100
AcDbSpline
210
0.0
220
0.0
230
1.0
 70
     8
 71
     3
 72
    12
 73
     8
 74
     6
 42
0.0000000001
 43
0.0000000001
 44
0.0000000001
 40
0.0
 40
0.0
 40
0.0
 40
0.0
 40
0.7016306202461154
 40
1.177760563566253
 40
1.974351887318908
 40
2.421840926580006
 40
2.798921131773535
 40
2.798921131773535
 40
2.798921131773535
 40
2.798921131773535
 10
720.954272162183
 20
214.6507665263489
 30
0.0
 10
721.1645469161131
 20
214.4398167734852
 30
0.0
 10
721.5175151383459
 20
214.0857154947671
 30
0.0
 10
720.7510909820265
 20
213.5910309778107
 30
0.0
 10
721.506471390313
 20
212.9538527834067
 30
0.0
 10
720.8852534541456
 20
212.5412225973694
 30
0.0
 10
721.0503658635852
 20
212.2732924897053
 30
0.0
 10
721.1258727074922
 20
212.1507665276288
 30
0.0
 11
720.954272162183
 21
214.6507665263489
 31
0.0
 11
721.2975713876503
 21
214.0388587154325
 31
0.0
 11
721.0228533369162
 21
213.6499760653607
 31
0.0
 11
721.2403384942644
 21
212.8836484960985
 31
0.0
 11
720.999960098321
 21
212.5062035769083
 31
0.0
 11
721.1258727074922
 21
212.1507665276288
 31
0.0
  0
SPLINE
  5
5DC
330
2
100
AcDbEntity
  8
02___PRT_ALL_AXES
 62
     7
100
AcDbSpline
210
0.0
220
0.0
230
1.0
 70
     8
 71
     3
 72
     9
 73
     5
 74
     3
 42
0.0000000001
 43
0.0000000001
 44
0.0000000001
 12
0.4833491084388872
 22
-0.8754276894017763
 32
0.0
 13
-0.5499835130240438
 23
-0.8351755117349476
 33
0.0
 40
0.0
 40
0.0
 40
0.0
 40
0.0
 40
0.0689764664467701
 40
0.107261457112776
 40
0.107261457112776
 40
0.107261457112776
 40
0.107261457112776
 10
704.7437485318413
 20
194.1805960035458
 30
0.0
 10
704.7548617696947
 20
194.1604680339976
 30
0.0
 10
704.7722409630106
 20
194.1279616844417
 30
0.0
 10
704.7676224691311
 20
194.0891851325362
 30
0.0
 10
704.760603764577
 20
194.0785269036458
 30
0.0
 11
704.7437485318413
 21
194.1805960035458
 31
0.0
 11
704.7681169337011
 21
194.1160674523899
 31
0.0
 11
704.760603764577
 21
194.0785269036458
 31
0.0
  0
SPLINE
  5
5DD
330
2
100
AcDbEntity
  8
02___PRT_ALL_AXES
 62
     7
100
AcDbSpline
210
0.0
220
0.0
230
1.0
 70
     8
 71
     3
 72
    19
 73
    15
 74
    13
 42
0.0000000001
 43
0.0000000001
 44
0.0000000001
 12
-0.483349112000844
 22
0.8754276874351162
 32
0.0
 13
-0.6062002209862979
 23
-0.7953120721302824
 33
0.0
 40
0.0
 40
0.0
 40
0.0
 40
0.0
 40
0.122273311615044
 40
0.2788091290543833
 40
0.4632172988187461
 40
0.6671224894562303
 40
0.8809373722925135
 40
1.09449047815477
 40
1.297625561963935
 40
1.480801440870591
 40
1.635723043711039
 40
1.756129820876544
 40
1.839357450299937
 40
1.891062753499041
 40
1.891062753499041
 40
1.891062753499041
 40
1.891062753499041
 10
701.1877108986932
 20
189.0528820115976
 30
0.0
 10
701.1680106664963
 20
189.088562492405
 30
0.0
 10
701.1139249278308
 20
189.1647155248967
 30
0.0
 10
701.0116142012631
 20
189.2804771570627
 30
0.0
 10
700.8813290152403
 20
189.407246666099
 30
0.0
 10
700.7294679229616
 20
189.538611387092
 30
0.0
 10
700.5634202098915
 20
189.6680139414478
 30
0.0
 10
700.3914437658427
 20
189.7889621816488
 30
0.0
 10
700.2221324443216
 20
189.8955493720274
 30
0.0
 10
700.0638495286237
 20
189.9823178145383
 30
0.0
 10
699.9246537605844
 20
190.0460699037831
 30
0.0
 10
699.8103427404498
 20
190.0821194610057
 30
0.0
 10
699.7257951302792
 20
190.0954693430993
 30
0.0
 10
699.6790046408968
 20
190.0778051339123
 30
0.0
 10
699.6685567188215
 20
190.0640978499699
 30
0.0
 11
701.1877108986932
 21
189.0528820115976
 31
0.0
 11
701.1191299766736
 21
189.1541115520897
 31
0.0
 11
701.0164586209294
 21
189.2722726914336
 31
0.0
 11
700.884845202165
 21
189.4014403386097
 31
0.0
 11
700.7308893658054
 21
189.5351374859978
 31
0.0
 11
700.5623110999652
 21
189.6666600027339
 31
0.0
 11
700.3875636257373
 21
189.7894128001538
 31
0.0
 11
700.2154095072572
 21
189.8972405413176
 31
0.0
 11
700.0544812733614
 21
189.9847362906337
 31
0.0
 11
699.9128485360527
 21
190.0475126456498
 31
0.0
 11
699.7976133547894
 21
190.0824217416936
 31
0.0
 11
699.7145540990136
 21
190.0877130864578
 31
0.0
 11
699.6685567188215
 21
190.0640978499699
 31
0.0
  0
SPLINE
  5
5DE
330
2
100
AcDbEntity
  8
0
 62
     7
100
AcDbSpline
210
0.0
220
0.0
230
1.0
 70
     8
 71
     3
 72
    22
 73
    18
 74
    16
 42
0.0000000001
 43
0.0000000001
 44
0.0000000001
 12
-0.1063099702921713
 22
-0.9943330378783949
 32
0.0
 13
-0.4833490869465246
 23
0.8754277012683349
 33
0.0
 40
0.0
 40
0.0
 40
0.0
 40
0.0
 40
0.0140983604358572
 40
0.054888324530125
 40
0.1120849792997367
 40
0.1955138793314093
 40
0.3052895764817049
 40
0.4394194853895475
 40
0.5943920452434282
 40
0.7640615719832275
 40
0.9413338311750907
 40
1.120629724024143
 40
1.296851198464457
 40
1.463144244453958
 40
1.611359297508214
 40
1.735058002231713
 40
1.830831811447081
 40
1.830831811447081
 40
1.830831811447081
 40
1.830831811447081
 10
701.1839057236771
 20
188.9726428126658
 30
0.0
 10
701.1834061249174
 20
188.967969990812
 30
0.0
 10
701.1791944802414
 20
188.9498965756079
 30
0.0
 10
701.1490582470242
 20
188.9211904121265
 30
0.0
 10
701.0855319488618
 20
188.9210454165589
 30
0.0
 10
701.0044499531895
 20
188.937974458389
 30
0.0
 10
700.9014897833239
 20
188.9760461715598
 30
0.0
 10
700.7812419422953
 20
189.0326560564178
 30
0.0
 10
700.6473275605409
 20
189.1067955451536
 30
0.0
 10
700.5053562206717
 20
189.1954006129456
 30
0.0
 10
700.3609138292082
 20
189.295039274346
 30
0.0
 10
700.2191749523022
 20
189.4021349476631
 30
0.0
 10
700.0850940651912
 20
189.5130323563276
 30
0.0
 10
699.9641826902082
 20
189.6233032971018
 30
0.0
 10
699.8619539300305
 20
189.7278021769899
 30
0.0
 10
699.7828427513832
 20
189.8215318068258
 30
0.0
 10
699.7413657448154
 20
189.8821372518326
 30
0.0
 10
699.7259350170695
 20
189.9100849337137
 30
0.0
 11
701.1839057236771
 21
188.9726428126658
 31
0.0
 11
701.1805467789095
 21
188.9589504331419
 31
0.0
 11
701.1520890141333
 21
188.9297275517858
 31
0.0
 11
701.0953309701692
 21
188.9226577736978
 31
0.0
 11
701.0133151209932
 21
188.9379476999378
 31
0.0
 11
700.9097962368455
 21
188.9744791153177
 31
0.0
 11
700.7881206666336
 21
189.0309227870377
 31
0.0
 11
700.6522861671574
 21
189.1055249522858
 31
0.0
 11
700.5082019325932
 21
189.1951211667938
 31
0.0
 11
700.3622139751414
 21
189.2956844312498
 31
0.0
 11
700.2191779523497
 21
189.4037941596578
 31
0.0
 11
700.0835005437456
 21
189.5162470335579
 31
0.0
 11
699.9608804562454
 21
189.6285755307699
 31
0.0
 11
699.8576992600169
 21
189.7349773291417
 31
0.0
 11
699.7786592692532
 21
189.8301300979419
 31
0.0
 11
699.7259350170695
 21
189.9100849337137
 31
0.0
  0
SPLINE
  5
5DF
330
2
100
AcDbEntity
  8
0
 62
     7
100
AcDbSpline
210
0.0
220
0.0
230
1.0
 70
     8
 71
     3
 72
    11
 73
     7
 74
     5
 42
0.0000000001
 43
0.0000000001
 44
0.0000000001
 12
-0.4833491023753201
 22
0.8754276927496484
 32
0.0
 13
0.8994017228819116
 23
0.4371230271640345
 33
0.0
 40
0.0
 40
0.0
 40
0.0
 40
0.0
 40
0.070800613501494
 40
0.12002430727531
 40
0.1608142713404915
 40
0.1615097904228453
 40
0.1615097904228453
 40
0.1615097904228453
 40
0.1615097904228453
 10
699.7259350170695
 20
189.9100849337137
 30
0.0
 10
699.7145278794083
 20
189.930745206288
 30
0.0
 10
699.6978232083143
 20
189.9663151435391
 30
0.0
 10
699.6897431444247
 20
190.0242112820878
 30
0.0
 10
699.7144935272731
 20
190.0479105370256
 30
0.0
 10
699.7268896290411
 20
190.0540183948689
 30
0.0
 10
699.7270981460614
 20
190.0541197373378
 30
0.0
 11
699.7259350170695
 21
189.9100849337137
 31
0.0
 11
699.6985343977533
 21
189.9753684150338
 31
0.0
 11
699.6980165151216
 21
190.0245893844098
 31
0.0
 11
699.7264742814214
 21
190.0538122642417
 31
0.0
 11
699.7270981460614
 21
190.0541197373378
 31
0.0
  0
SPLINE
  5
5E0
330
2
100
AcDbEntity
  8
02___PRT_ALL_AXES
 62
     7
100
AcDbSpline
210
0.0
220
0.0
230
1.0
 70
     8
 71
     3
 72
    10
 73
     6
 74
     4
 42
0.0000000001
 43
0.0000000001
 44
0.0000000001
 12
0.48334910977847
 22
-0.8754276886621537
 32
0.0
 13
-0.6062002247084532
 23
-0.7953120692931931
 33
0.0
 40
0.0
 40
0.0
 40
0.0
 40
0.0
 40
0.0850899719693723
 40
0.1389345228666447
 40
0.1401483589115095
 40
0.1401483589115095
 40
0.1401483589115095
 40
0.1401483589115095
 10
701.1877108986932
 20
189.0528820115976
 30
0.0
 10
701.201420286094
 20
189.0280519724344
 30
0.0
 10
701.2223498685271
 20
188.9869960470766
 30
0.0
 10
701.2211562378131
 20
188.9345479598303
 30
0.0
 10
701.2102518526274
 20
188.9197637588768
 30
0.0
 10
701.2100065767331
 20
188.9194419660579
 30
0.0
 11
701.1877108986932
 21
189.0528820115976
 31
0.0
 11
701.2187624520329
 21
188.9736601436258
 31
0.0
 11
701.2107275841815
 21
188.9204184629617
 31
0.0
 11
701.2100065767331
 21
188.9194419660579
 31
0.0
  0
SPLINE
  5
5E1
330
2
100
AcDbEntity
  8
02___PRT_ALL_AXES
 62
     7
100
AcDbSpline
210
0.0
220
0.0
230
1.0
 70
     8
 71
     3
 72
    17
 73
    13
 74
    11
 42
0.0000000001
 43
0.0000000001
 44
0.0000000001
 12
-0.483349112209875
 22
0.8754276873197042
 32
0.0
 13
-0.9097823063630771
 23
-0.4150857200972829
 33
0.0
 40
0.0
 40
0.0
 40
0.0
 40
0.0
 40
0.0730386454836859
 40
0.1687474268528334
 40
0.2816151453353619
 40
0.4045481328030442
 40
0.5296257682351047
 40
0.6487571483850701
 40
0.7543281182614906
 40
0.8398833799868127
 40
0.9010450661152328
 40
0.9312482367312108
 40
0.9312482367312108
 40
0.9312482367312108
 40
0.9312482367312108
 10
709.0436119224452
 20
200.3551718966859
 30
0.0
 10
709.0318442009613
 20
200.3764852475195
 30
0.0
 10
708.998241467008
 20
200.422039012178
 30
0.0
 10
708.9344480073328
 20
200.4909518333837
 30
0.0
 10
708.8531145533645
 20
200.5659335980671
 30
0.0
 10
708.7597143841867
 20
200.6418404872605
 30
0.0
 10
708.6604494752681
 20
200.7135122210116
 30
0.0
 10
708.5619882199573
 20
200.7761916641533
 30
0.0
 10
708.4711655725683
 20
200.8255479210858
 30
0.0
 10
708.3934844277599
 20
200.8592244269091
 30
0.0
 10
708.3368003238667
 20
200.8737308793658
 30
0.0
 10
708.304750328434
 20
200.8742429167086
 30
0.0
 10
708.2955908916932
 20
200.8700639484338
 30
0.0
 11
709.0436119224452
 21
200.3551718966859
 31
0.0
 11
709.0018896807695
 21
200.4151210274857
 31
0.0
 11
708.9375086330012
 21
200.485939468018
 31
0.0
 11
708.8548562410291
 21
200.5628010577539
 31
0.0
 11
708.7595651296054
 21
200.6404678041218
 31
0.0
 11
708.6581292273213
 21
200.7136468490259
 31
0.0
 11
708.5574612259654
 21
200.7773511600217
 31
0.0
 11
708.4644214831653
 21
200.8272393945098
 31
0.0
 11
708.3853505033853
 21
200.8599117523298
 31
0.0
 11
708.3256368427774
 21
200.8731416649097
 31
0.0
 11
708.2955908916932
 21
200.8700639484338
 31
0.0
  0
SPLINE
  5
5E2
330
2
100
AcDbEntity
  8
02___PRT_ALL_AXES
 62
     7
100
AcDbSpline
210
0.0
220
0.0
230
1.0
 70
     8
 71
     3
 72
    17
 73
    13
 74
    11
 42
0.0000000001
 43
0.0000000001
 44
0.0000000001
 12
-0.4833491116930519
 22
0.8754276876050573
 32
0.0
 13
-0.9542462985682631
 23
-0.2990217411305896
 33
0.0
 40
0.0
 40
0.0
 40
0.0
 40
0.0
 40
0.0730386458642467
 40
0.1687474272330386
 40
0.2816151446775548
 40
0.4045481342899566
 40
0.5296257684857578
 40
0.6487571486361329
 40
0.7543281185122528
 40
0.839883381645914
 40
0.9010450677746053
 40
0.9274909183809622
 40
0.9274909183809622
 40
0.9274909183809622
 40
0.9274909183809622
 10
704.8588073543011
 20
194.7198265044578
 30
0.0
 10
704.8470396327685
 20
194.7411398554094
 30
0.0
 10
704.8134368851703
 20
194.7866936278931
 30
0.0
 10
704.7496435230596
 20
194.8556064130286
 30
0.0
 10
704.6683096085144
 20
194.9305883411082
 30
0.0
 10
704.5749113661223
 20
195.0064945420608
 30
0.0
 10
704.4756391520909
 20
195.0781688879935
 30
0.0
 10
704.3772030129452
 20
195.1408393545626
 30
0.0
 10
704.2863027614118
 20
195.1902233461572
 30
0.0
 10
704.2088321601945
 20
195.2238246069578
 30
0.0
 10
704.1528971127981
 20
195.2381855043712
 30
0.0
 10
704.1228522343978
 20
195.2387452926052
 30
0.0
 10
704.1144402827133
 20
195.2361093311739
 30
0.0
 11
704.8588073543011
 21
194.7198265044578
 31
0.0
 11
704.8170851141493
 21
194.7797756367818
 31
0.0
 11
704.7527040663814
 21
194.8505940773139
 31
0.0
 11
704.6700516744095
 21
194.9274556655258
 31
0.0
 11
704.5747605614612
 21
195.0051224134178
 31
0.0
 11
704.4733246607013
 21
195.0783014583218
 31
0.0
 11
704.3726566593451
 21
195.1420057693178
 31
0.0
 11
704.2796169165454
 21
195.1918940038059
 31
0.0
 11
704.2005459352414
 21
195.2245663616256
 31
0.0
 11
704.1408322746332
 21
195.2377962742057
 31
0.0
 11
704.1144402827133
 21
195.2361093311739
 31
0.0
  0
SPLINE
  5
5E3
330
2
100
AcDbEntity
  8
02___PRT_ALL_AXES
 62
     7
100
AcDbSpline
210
0.0
220
0.0
230
1.0
 70
     8
 71
     3
 72
    18
 73
    14
 74
    12
 42
0.0000000001
 43
0.0000000001
 44
0.0000000001
 12
-0.4833491120256634
 22
0.8754276874214127
 32
0.0
 13
-0.9596968811647885
 23
-0.2810371795378291
 33
0.0
 40
0.0
 40
0.0
 40
0.0
 40
0.0
 40
0.1019382797968435
 40
0.2339195043106962
 40
0.3895816320727872
 40
0.5606544519692293
 40
0.7377735389804416
 40
0.9111638303982639
 40
1.07130248380229
 40
1.209593048827095
 40
1.319126367053466
 40
1.39591724906994
 40
1.420160825333568
 40
1.420160825333568
 40
1.420160825333568
 40
1.420160825333568
 10
704.8483686461974
 20
194.3214796384657
 30
0.0
 10
704.8319447205236
 20
194.3512261693131
 30
0.0
 10
704.786006587603
 20
194.4147736685291
 30
0.0
 10
704.6989055955921
 20
194.5111776593616
 30
0.0
 10
704.5878525851421
 20
194.6165036264542
 30
0.0
 10
704.4591945214805
 20
194.7245812058339
 30
0.0
 10
704.3201961410854
 20
194.8291490322165
 30
0.0
 10
704.1788662277135
 20
194.9241989383243
 30
0.0
 10
704.0434197536726
 20
195.0042196403448
 30
0.0
 10
703.9214760344941
 20
195.0651317500672
 30
0.0
 10
703.8202988584853
 20
195.1030759617037
 30
0.0
 10
703.7503761722766
 20
195.1177771377525
 30
0.0
 10
703.7165770099284
 20
195.1134636088095
 30
0.0
 10
703.7088215150856
 20
195.1111924933778
 30
0.0
 11
704.8483686461974
 21
194.3214796384657
 31
0.0
 11
704.7906986299651
 21
194.4055366555178
 31
0.0
 11
704.7030785679692
 21
194.5042370524776
 31
0.0
 11
704.5906006242691
 21
194.6118447204219
 31
0.0
 11
704.4598016036732
 21
194.7221058918218
 31
0.0
 11
704.3182830718773
 21
194.8286125871138
 31
0.0
 11
704.1742695722494
 21
194.9251750284816
 31
0.0
 11
704.0361306430416
 21
195.0061813526259
 31
0.0
 11
703.9118944205974
 21
195.0669237711458
 31
0.0
 11
703.8087810606572
 21
195.1038721514017
 31
0.0
 11
703.7327831354373
 21
195.1148791911099
 31
0.0
 11
703.7088215150856
 21
195.1111924933778
 31
0.0
  0
SPLINE
  5
5E4
330
2
100
AcDbEntity
  8
02___PRT_ALL_AXES
 62
     7
100
AcDbSpline
210
0.0
220
0.0
230
1.0
 70
     8
 71
     3
 72
    19
 73
    15
 74
    13
 42
0.0000000001
 43
0.0000000001
 44
0.0000000001
 12
-0.4833491116098826
 22
0.8754276876509774
 32
0.0
 13
-0.5499835124643627
 23
-0.8351755121035113
 33
0.0
 40
0.0
 40
0.0
 40
0.0
 40
0.0
 40
0.1019382797961589
 40
0.2339195032989924
 40
0.389581632161914
 40
0.5606544520581779
 40
0.7377735399861951
 40
0.9111638305557461
 40
1.071302482644583
 40
1.209593049038747
 40
1.319126367264738
 40
1.395917249281637
 40
1.443031509009684
 40
1.447700955397658
 40
1.447700955397658
 40
1.447700955397658
 40
1.447700955397658
 10
704.7437485318413
 20
194.1805960035458
 30
0.0
 10
704.7273246061818
 20
194.2103425344008
 30
0.0
 10
704.6813864428267
 20
194.2738900343198
 30
0.0
 10
704.594285633846
 20
194.3702940193037
 30
0.0
 10
704.4832317750294
 20
194.4756200195517
 30
0.0
 10
704.3545773143461
 20
194.5836974513305
 30
0.0
 10
704.2155648902182
 20
194.6882658567423
 30
0.0
 10
704.0742853423455
 20
194.7833136912804
 30
0.0
 10
703.9386732265158
 20
194.8633411985711
 30
0.0
 10
703.8172228525962
 20
194.9242330438656
 30
0.0
 10
703.7147484243331
 20
194.9622305375315
 30
0.0
 10
703.640145342799
 20
194.9784087778636
 30
0.0
 10
703.592305924833
 20
194.9698401863586
 30
0.0
 10
703.5817170480059
 20
194.9560121294492
 30
0.0
 10
703.5808610084973
 20
194.9547121936898
 30
0.0
 11
704.7437485318413
 21
194.1805960035458
 31
0.0
 11
704.6860785156098
 21
194.2646530205976
 31
0.0
 11
704.5984584551371
 21
194.3633534175577
 31
0.0
 11
704.4859805099131
 21
194.4709610855016
 31
0.0
 11
704.3551814893178
 21
194.5812222569019
 31
0.0
 11
704.2136629575215
 21
194.6877289537179
 31
0.0
 11
704.0696494578932
 21
194.7842913935618
 31
0.0
 11
703.9315105302098
 21
194.8652977177058
 31
0.0
 11
703.8072743062413
 21
194.9260401362258
 31
0.0
 11
703.7041609463016
 21
194.9629885164818
 31
0.0
 11
703.6281630210813
 21
194.9739955561899
 31
0.0
 11
703.5836972563172
 21
194.9584215639698
 31
0.0
 11
703.5808610084973
 21
194.9547121936898
 31
0.0
  0
SPLINE
  5
5E5
330
2
100
AcDbEntity
  8
02___PRT_ALL_AXES
 62
     7
100
AcDbSpline
210
0.0
220
0.0
230
1.0
 70
     8
 71
     3
 72
    18
 73
    14
 74
    12
 42
0.0000000001
 43
0.0000000001
 44
0.0000000001
 12
-0.4833491114501606
 22
0.8754276877391648
 32
0.0
 13
-0.5258042199838369
 23
-0.8506056208650333
 33
0.0
 40
0.0
 40
0.0
 40
0.0
 40
0.0
 40
0.0798860194291143
 40
0.1845674983433819
 40
0.3080165645148361
 40
0.442474521702041
 40
0.5792781843407365
 40
0.7095781313911895
 40
0.8250463804882768
 40
0.9186224470306838
 40
0.9855180419884581
 40
1.025962453320244
 40
1.033938234027218
 40
1.033938234027218
 40
1.033938234027218
 40
1.033938234027218
 10
704.5800296329652
 20
194.2766027305058
 30
0.0
 10
704.5671586874624
 20
194.299914208263
 30
0.0
 10
704.5304057682982
 20
194.3497386414039
 30
0.0
 10
704.4606312590084
 20
194.4251120332295
 30
0.0
 10
704.3716747120132
 20
194.5071233626959
 30
0.0
 10
704.2695102281657
 20
194.5901464146656
 30
0.0
 10
704.160969758433
 20
194.66853778646
 30
0.0
 10
704.0531728177975
 20
194.7370920053451
 30
0.0
 10
703.9541598041271
 20
194.7910798105204
 30
0.0
 10
703.8683163202344
 20
194.8279015504899
 30
0.0
 10
703.8059598064673
 20
194.8444028893509
 30
0.0
 10
703.7618556241572
 20
194.8443499457928
 30
0.0
 10
703.7513888910109
 20
194.8314510506312
 30
0.0
 10
703.7499909912932
 20
194.8291896359978
 30
0.0
 11
704.5800296329652
 21
194.2766027305058
 31
0.0
 11
704.5343959325134
 21
194.3421720944139
 31
0.0
 11
704.4639791619929
 21
194.4196297632217
 31
0.0
 11
704.3735781078453
 21
194.5036971251858
 31
0.0
 11
704.2693534532014
 21
194.5886451305498
 31
0.0
 11
704.1584079356971
 21
194.6686847098657
 31
0.0
 11
704.0483023098337
 21
194.7383613010178
 31
0.0
 11
703.9465400901931
 21
194.7929265573937
 31
0.0
 11
703.8600562067735
 21
194.8286619479499
 31
0.0
 11
703.794744389721
 21
194.8431321648819
 31
0.0
 11
703.7550555343774
 21
194.8353510872257
 31
0.0
 11
703.7499909912932
 21
194.8291896359978
 31
0.0
  0
SPLINE
  5
5E6
330
2
100
AcDbEntity
  8
02___PRT_ALL_AXES
 62
     7
100
AcDbSpline
210
0.0
220
0.0
230
1.0
 70
     8
 71
     3
 72
     9
 73
     5
 74
     3
 42
0.0000000001
 43
0.0000000001
 44
0.0000000001
 12
0.4833491179511219
 22
-0.8754276841497945
 32
0.0
 13
-0.5258042235447653
 23
-0.8506056186638357
 33
0.0
 40
0.0
 40
0.0
 40
0.0
 40
0.0
 40
0.0523126779076494
 40
0.0764877409031543
 40
0.0764877409031543
 40
0.0764877409031543
 40
0.0764877409031543
 10
704.5800296329652
 20
194.2766027305058
 30
0.0
 10
704.5884580618733
 20
194.2613374083483
 30
0.0
 10
704.6021504364147
 20
194.2373834543672
 30
0.0
 10
704.595710898524
 20
194.2109039428097
 30
0.0
 10
704.5914737817816
 20
194.2040494613379
 30
0.0
 11
704.5800296329652
 21
194.2766027305058
 31
0.0
 11
704.5977704041892
 21
194.2273901172218
 31
0.0
 11
704.5914737817816
 21
194.2040494613379
 31
0.0
  0
SPLINE
  5
5E7
330
2
100
AcDbEntity
  8
02___PRT_ALL_AXES
 62
     7
100
AcDbSpline
210
0.0
220
0.0
230
1.0
 70
     8
 71
     3
 72
     9
 73
     5
 74
     3
 42
0.0000000001
 43
0.0000000001
 44
0.0000000001
 12
0.4833491183333388
 22
-0.8754276839387616
 32
0.0
 13
-0.1791732362240511
 23
-0.9838175396998167
 33
0.0
 40
0.0
 40
0.0
 40
0.0
 40
0.0
 40
0.0478287341302517
 40
0.0556520481963002
 40
0.0556520481963002
 40
0.0556520481963002
 40
0.0556520481963002
 10
709.0436119224452
 20
200.3551718966859
 30
0.0
 10
709.0513179146028
 20
200.3412150307041
 30
0.0
 10
709.0614200883013
 20
200.3235982233089
 30
0.0
 10
709.0595403418744
 20
200.3049566646328
 30
0.0
 10
709.0590730990412
 20
200.3023910934339
 30
0.0
 11
709.0436119224452
 21
200.3551718966859
 31
0.0
 11
709.0598320540895
 21
200.310177506614
 31
0.0
 11
709.0590730990412
 21
200.3023910934339
 31
0.0
  0
SPLINE
  5
5E8
330
2
100
AcDbEntity
  8
02___PRT_ALL_AXES
 62
     7
100
AcDbSpline
210
0.0
220
0.0
230
1.0
 70
     8
 71
     3
 72
     9
 73
     5
 74
     3
 42
0.0000000001
 43
0.0000000001
 44
0.0000000001
 12
0.4833491137045271
 22
-0.8754276864944632
 32
0.0
 13
-0.0998543990656703
 23
-0.995002059790448
 33
0.0
 40
0.0
 40
0.0
 40
0.0
 40
0.0
 40
0.0478287332133107
 40
0.051876460076138
 40
0.051876460076138
 40
0.051876460076138
 40
0.051876460076138
 10
704.8588073543011
 20
194.7198265044578
 30
0.0
 10
704.8665133462371
 20
194.7058696387028
 30
0.0
 10
704.8759586110685
 20
194.6894624282641
 30
0.0
 10
704.874930865951
 20
194.6721335047371
 30
0.0
 10
704.8747961381732
 20
194.6707910058818
 30
0.0
 11
704.8588073543011
 21
194.7198265044578
 31
0.0
 11
704.8750274874691
 21
194.6748321159099
 31
0.0
 11
704.8747961381732
 21
194.6707910058818
 31
0.0
  0
SPLINE
  5
5E9
330
2
100
AcDbEntity
  8
02___PRT_ALL_AXES
 62
     7
100
AcDbSpline
210
0.0
220
0.0
230
1.0
 70
     8
 71
     3
 72
     9
 73
     5
 74
     3
 42
0.0000000001
 43
0.0000000001
 44
0.0000000001
 12
0.4833491062999025
 22
-0.8754276905827719
 32
0.0
 13
-0.0486473781591057
 23
-0.9988160153893433
 33
0.0
 40
0.0
 40
0.0
 40
0.0
 40
0.0
 40
0.0689764664467701
 40
0.0795677810193547
 40
0.0795677810193547
 40
0.0795677810193547
 40
0.0795677810193547
 10
704.8483686461974
 20
194.3214796384657
 30
0.0
 10
704.8594818840016
 20
194.3013516688903
 30
0.0
 10
704.8726896429259
 20
194.276544296946
 30
0.0
 10
704.8730641298426
 20
194.2498871701
 30
0.0
 10
704.8728923832809
 20
194.2463609118937
 30
0.0
 11
704.8483686461974
 21
194.3214796384657
 31
0.0
 11
704.8727370480572
 21
194.2569510873098
 31
0.0
 11
704.8728923832809
 21
194.2463609118937
 31
0.0
  0
SPLINE
  5
5EA
330
2
100
AcDbEntity
  8
02___PRT_ALL_AXES
 62
     7
100
AcDbSpline
210
0.0
220
0.0
230
1.0
 70
     8
 71
     3
 72
     9
 73
     5
 74
     3
 42
0.0000000001
 43
0.0000000001
 44
0.0000000001
 12
-0.9097823006199302
 22
-0.4150857326850769
 32
0.0
 13
-0.52507862364779
 23
-0.8510537227391361
 33
0.0
 40
0.0
 40
0.0
 40
0.0
 40
0.0
 40
0.0074325461748671
 40
0.0147504332459684
 40
0.0147504332459684
 40
0.0147504332459684
 40
0.0147504332459684
 10
708.2955908916932
 20
200.8700639484338
 30
0.0
 10
708.2933368920404
 20
200.8690355671422
 30
0.0
 10
708.289095123814
 20
200.8663644925583
 30
0.0
 10
708.285986619917
 20
200.862448077164
 30
0.0
 10
708.2847057978932
 20
200.8603721054859
 30
0.0
 11
708.2955908916932
 21
200.8700639484338
 31
0.0
 11
708.2893498891896
 21
200.8660275353738
 31
0.0
 11
708.2847057978932
 21
200.8603721054859
 31
0.0
  0
SPLINE
  5
5EB
330
2
100
AcDbEntity
  8
02___PRT_ALL_AXES
 62
     7
100
AcDbSpline
210
0.0
220
0.0
230
1.0
 70
     8
 71
     3
 72
    19
 73
    15
 74
    13
 42
0.0000000001
 43
0.0000000001
 44
0.0000000001
 12
-0.6062002209862979
 22
-0.7953120721302824
 32
0.0
 13
-0.483349112000844
 23
0.8754276874351162
 33
0.0
 40
0.0
 40
0.0
 40
0.0
 40
0.0
 40
0.0517053045547645
 40
0.1349329325541417
 40
0.2553397107371931
 40
0.4102613128012223
 40
0.5934371917078782
 40
0.7965722747081583
 40
1.010125381817606
 40
1.22394026465369
 40
1.427845456290985
 40
1.612253624987161
 40
1.768789442426618
 40
1.89106275404187
 40
1.89106275404187
 40
1.89106275404187
 40
1.89106275404187
 10
701.2100065767331
 20
188.9194419660579
 30
0.0
 10
701.199558654384
 20
188.905734681756
 30
0.0
 10
701.1527681644074
 20
188.8880704730835
 30
0.0
 10
701.0682205546506
 20
188.9014203579191
 30
0.0
 10
700.9539095334434
 20
188.9374699103622
 30
0.0
 10
700.8147137671494
 20
189.0012220043096
 30
0.0
 10
700.6564308515002
 20
189.0879904452991
 30
0.0
 10
700.4871195290662
 20
189.1945776346647
 30
0.0
 10
700.3151430844511
 20
189.3155258742681
 30
0.0
 10
700.1490953704541
 20
189.4449284287562
 30
0.0
 10
699.9972342798553
 20
189.5762931515845
 30
0.0
 10
699.8669490922393
 20
189.7030626589277
 30
0.0
 10
699.7646383662599
 20
189.8188242911927
 30
0.0
 10
699.710552627534
 20
189.8949773236223
 30
0.0
 10
699.690852395337
 20
189.9306578044298
 30
0.0
 11
701.2100065767331
 21
188.9194419660579
 31
0.0
 11
701.1640091950172
 21
188.8958267295699
 31
0.0
 11
701.0809499407654
 21
188.9011180758578
 31
0.0
 11
700.9657147579773
 21
188.9360271703777
 31
0.0
 11
700.8240820221933
 21
188.9988035269178
 31
0.0
 11
700.6631537882974
 21
189.0862992762338
 31
0.0
 11
700.4909996698172
 21
189.1941270158737
 31
0.0
 11
700.3162521940654
 21
189.3168798132938
 31
0.0
 11
700.1476739282256
 21
189.44840233003
 31
0.0
 11
699.9937180918649
 21
189.5820994789418
 31
0.0
 11
699.8621046731015
 21
189.7112671245938
 31
0.0
 11
699.7594333173572
 21
189.8294282639378
 31
0.0
 11
699.690852395337
 21
189.9306578044298
 31
0.0
  0
SPLINE
  5
5EC
330
2
100
AcDbEntity
  8
02___PRT_ALL_AXES
 62
     7
100
AcDbSpline
210
0.0
220
0.0
230
1.0
 70
     8
 71
     3
 72
     9
 73
     5
 74
     3
 42
0.0000000001
 43
0.0000000001
 44
0.0000000001
 12
-0.9596968872620012
 22
-0.281037158716825
 32
0.0
 13
-0.54926423499362
 23
-0.8356487301234134
 33
0.0
 40
0.0
 40
0.0
 40
0.0
 40
0.0
 40
0.0237007955210001
 40
0.0284001324675343
 40
0.0284001324675343
 40
0.0284001324675343
 40
0.0284001324675343
 10
703.7088215150856
 20
195.1111924933778
 30
0.0
 10
703.7012396551898
 20
195.1089722253003
 30
0.0
 10
703.6920603509389
 20
195.1044630069096
 30
0.0
 10
703.6863250455565
 20
195.0968797937029
 30
0.0
 10
703.6854646529855
 20
195.0955707953857
 30
0.0
 11
703.7088215150856
 21
195.1111924933778
 31
0.0
 11
703.6883173706732
 21
195.0993051988898
 31
0.0
 11
703.6854646529855
 21
195.0955707953857
 31
0.0
  0
SPLINE
  5
5ED
330
2
100
AcDbEntity
  8
02___PRT_ALL_AXES
 62
     7
100
AcDbSpline
210
0.0
220
0.0
230
1.0
 70
     8
 71
     3
 72
     9
 73
     5
 74
     3
 42
0.0000000001
 43
0.0000000001
 44
0.0000000001
 12
-0.5499835130240438
 22
-0.8351755117349476
 32
0.0
 13
0.4833491084388872
 23
-0.8754276894017763
 33
0.0
 40
0.0
 40
0.0
 40
0.0
 40
0.0
 40
0.0382849906658108
 40
0.1072614571129678
 40
0.1072614571129678
 40
0.1072614571129678
 40
0.1072614571129678
 10
703.5808610084973
 20
194.9547121936898
 30
0.0
 10
703.5738423039431
 20
194.9440539647994
 30
0.0
 10
703.5692238100633
 20
194.9052774128938
 30
0.0
 10
703.5866030033801
 20
194.8727710633381
 30
0.0
 10
703.5977162412335
 20
194.8526430937898
 30
0.0
 11
703.5808610084973
 21
194.9547121936898
 31
0.0
 11
703.5733478393731
 21
194.9171716449459
 31
0.0
 11
703.5977162412335
 21
194.8526430937898
 31
0.0
  0
SPLINE
  5
5EE
330
2
100
AcDbEntity
  8
02___PRT_ALL_AXES
 62
     7
100
AcDbSpline
210
0.0
220
0.0
230
1.0
 70
     8
 71
     3
 72
     8
 73
     4
 74
     0
 42
0.0000000001
 43
0.0000000001
 40
0.0948020263355762
 40
0.0948020263355762
 40
0.0948020263355762
 40
0.0948020263355762
 40
0.177176885747706
 40
0.177176885747706
 40
0.177176885747706
 40
0.177176885747706
 10
703.6334409071196
 20
194.7972515552228
 30
0.0
 10
703.620462792492
 20
194.8150302041768
 30
0.0
 10
703.6083337918937
 20
194.8334128983836
 30
0.0
 10
703.5977162412335
 20
194.8526430937898
 30
0.0
  0
SPLINE
  5
5EF
330
2
100
AcDbEntity
  8
02___PRT_ALL_AXES
 62
     7
100
AcDbSpline
210
0.0
220
0.0
230
1.0
 70
     8
 71
     3
 72
    11
 73
     7
 74
     0
 42
0.0000000001
 43
0.0000000001
 40
0.0
 40
0.0
 40
0.0
 40
0.0
 40
0.0058368079853051
 40
0.0647296326449272
 40
0.1607182351658714
 40
0.2582784275376029
 40
0.2582784275376029
 40
0.2582784275376029
 40
0.2582784275376029
 10
704.760603764577
 20
194.0785269036458
 30
0.0
 10
704.7597477250715
 20
194.0772269678845
 30
0.0
 10
704.7491589283348
 20
194.0633988354166
 30
0.0
 10
704.7013152977162
 20
194.0548342179589
 30
0.0
 10
704.6368033634494
 20
194.068803042599
 30
0.0
 10
704.5877434639982
 20
194.0857519551826
 30
0.0
 10
704.5634161100125
 20
194.0952606659936
 30
0.0
  0
SPLINE
  5
5F0
330
2
100
AcDbEntity
  8
02___PRT_ALL_AXES
 62
     7
100
AcDbSpline
210
0.0
220
0.0
230
1.0
 70
     8
 71
     3
 72
    10
 73
     6
 74
     4
 42
0.0000000001
 43
0.0000000001
 44
0.0000000001
 12
-0.6062002247084532
 22
-0.7953120692931931
 32
0.0
 13
0.48334910977847
 23
-0.8754276886621537
 33
0.0
 40
0.0
 40
0.0
 40
0.0
 40
0.0
 40
0.0012138369504795
 40
0.05505838784764
 40
0.1401483598171331
 40
0.1401483598171331
 40
0.1401483598171331
 40
0.1401483598171331
 10
699.6685567188215
 20
190.0640978499699
 30
0.0
 10
699.6683114427441
 20
190.0637760569109
 30
0.0
 10
699.6574070345159
 20
190.0489918725829
 30
0.0
 10
699.656213442392
 20
189.9965437564666
 30
0.0
 10
699.6771430079363
 20
189.955487843593
 30
0.0
 10
699.690852395337
 20
189.9306578044298
 30
0.0
 11
699.6685567188215
 21
190.0640978499699
 31
0.0
 11
699.6678357098492
 21
190.0631213530656
 31
0.0
 11
699.6598008419972
 21
190.0098796724017
 31
0.0
 11
699.690852395337
 21
189.9306578044298
 31
0.0
  0
SPLINE
  5
5F1
330
2
100
AcDbEntity
  8
0
 62
     7
100
AcDbSpline
210
0.0
220
0.0
230
1.0
 70
     8
 71
     3
 72
    20
 73
    16
 74
    14
 42
0.0000000001
 43
0.0000000001
 44
0.0000000001
 12
0.8994017210122212
 22
0.4371230310110127
 32
0.0
 13
0.4833490873645384
 23
-0.8754277010375373
 33
0.0
 40
0.0
 40
0.0
 40
0.0
 40
0.0
 40
0.0565400274730162
 40
0.1399689292825279
 40
0.2497446264330474
 40
0.3838745339586054
 40
0.5388470938124001
 40
0.7085166210410896
 40
0.8857888798427142
 40
1.065084772692272
 40
1.241306247132371
 40
1.407599294245349
 40
1.555814345144699
 40
1.679513052014208
 40
1.775286860390815
 40
1.775286860390815
 40
1.775286860390815
 40
1.775286860390815
 10
699.7270981460614
 20
190.0541197373378
 30
0.0
 10
699.7440488787331
 20
190.0623580533986
 30
0.0
 10
699.7933814647407
 20
190.0624671064075
 30
0.0
 10
699.8740560571729
 20
190.0455582336866
 30
0.0
 10
699.9770947168086
 20
190.0074962819023
 30
0.0
 10
700.0973141542178
 20
189.9508828641456
 30
0.0
 10
700.2312379906747
 20
189.8767445508784
 30
0.0
 10
700.3732064165306
 20
189.7881391241047
 30
0.0
 10
700.5176496465812
 20
189.6885005634074
 30
0.0
 10
700.659388293727
 20
189.5814048626797
 30
0.0
 10
700.7934692408569
 20
189.4705074605751
 30
0.0
 10
700.91438060211
 20
189.3602365196782
 30
0.0
 10
701.0166093651892
 20
189.255737639296
 30
0.0
 10
701.0957205441595
 20
189.1620080104593
 30
0.0
 10
701.137197549337
 20
189.1014025639427
 30
0.0
 10
701.1526282769612
 20
189.0734548823138
 30
0.0
 11
699.7270981460614
 21
190.0541197373378
 31
0.0
 11
699.7832323238609
 21
190.0608820438539
 31
0.0
 11
699.8652481745613
 21
190.0455921160897
 31
0.0
 11
699.9687670587092
 21
190.0090607007098
 31
0.0
 11
700.0904426273973
 21
189.9526170289898
 31
0.0
 11
700.2262771268735
 21
189.8780148637417
 31
0.0
 11
700.3703613629611
 21
189.7884186507579
 31
0.0
 11
700.5163493188891
 21
189.6878553847778
 31
0.0
 11
700.6593853416815
 21
189.5797456563697
 31
0.0
 11
700.7950627502855
 21
189.4672927824698
 31
0.0
 11
700.9176828393092
 21
189.3549642852577
 31
0.0
 11
701.0208640340136
 21
189.2485624884098
 31
0.0
 11
701.0999040263016
 21
189.1534097180859
 31
0.0
 11
701.1526282769612
 21
189.0734548823138
 31
0.0
  0
SPLINE
  5
5F2
330
2
100
AcDbEntity
  8
02___PRT_ALL_AXES
 62
     7
100
AcDbSpline
210
0.0
220
0.0
230
1.0
 70
     8
 71
     3
 72
    19
 73
    15
 74
    13
 42
0.0000000001
 43
0.0000000001
 44
0.0000000001
 12
-0.4833491123098263
 22
0.8754276872645183
 32
0.0
 13
-0.5499835125297709
 23
-0.8351755120604384
 33
0.0
 40
0.0
 40
0.0
 40
0.0
 40
0.0
 40
0.1040186531672408
 40
0.2386933716329272
 40
0.3975322788835459
 40
0.5720963795164255
 40
0.7528301422682069
 40
0.9297590109780193
 40
1.093165800359421
 40
1.234278621211604
 40
1.34604731510141
 40
1.424405356189604
 40
1.472481131035985
 40
1.477245873610896
 40
1.477245873610896
 40
1.477245873610896
 40
1.477245873610896
 10
704.057975311569
 20
193.2345141481897
 30
0.0
 10
704.0412162036783
 20
193.2648677511812
 30
0.0
 10
703.9943405265222
 20
193.3297121390801
 30
0.0
 10
703.9054621487314
 20
193.4280835516886
 30
0.0
 10
703.7921418849203
 20
193.535559062208
 30
0.0
 10
703.6608618229942
 20
193.6458421550367
 30
0.0
 10
703.5190124122853
 20
193.7525446112615
 30
0.0
 10
703.3748496058875
 20
193.849532195145
 30
0.0
 10
703.236469898048
 20
193.9311929199807
 30
0.0
 10
703.1125409428563
 20
193.9933274554026
 30
0.0
 10
703.0079752032218
 20
194.0321004065177
 30
0.0
 10
702.9318496038795
 20
194.0486088191023
 30
0.0
 10
702.8830338812906
 20
194.0398653511266
 30
0.0
 10
702.872228898094
 20
194.0257550937419
 30
0.0
 10
702.8713553881415
 20
194.024428628302
 30
0.0
 11
704.057975311569
 21
193.2345141481897
 31
0.0
 11
703.9991283558572
 21
193.3202866146937
 31
0.0
 11
703.9097201297976
 21
193.4210013053137
 31
0.0
 11
703.794946715961
 21
193.5308050481136
 31
0.0
 11
703.6614783285934
 21
193.6433164466618
 31
0.0
 11
703.5170716643971
 21
193.7519967500019
 31
0.0
 11
703.3701191124811
 21
193.8505298513857
 31
0.0
 11
703.2291610225414
 21
193.9331893680578
 31
0.0
 11
703.102389367017
 21
193.9951714264658
 31
0.0
 11
702.9971716511132
 21
194.0328738560138
 31
0.0
 11
702.9196227495689
 21
194.0441055287497
 31
0.0
 11
702.8742495205291
 21
194.0282137002337
 31
0.0
 11
702.8713553881415
 21
194.024428628302
 31
0.0
  0
SPLINE
  5
5F3
330
2
100
AcDbEntity
  8
02___PRT_ALL_AXES
 62
     7
100
AcDbSpline
210
0.0
220
0.0
230
1.0
 70
     8
 71
     3
 72
     9
 73
     5
 74
     3
 42
0.0000000001
 43
0.0000000001
 44
0.0000000001
 12
0.4833491144389521
 22
-0.8754276860889659
 32
0.0
 13
-0.5499835188786237
 23
-0.8351755078795635
 33
0.0
 40
0.0
 40
0.0
 40
0.0
 40
0.0
 40
0.0703841495347004
 40
0.1094504659248488
 40
0.1094504659248488
 40
0.1094504659248488
 40
0.1094504659248488
 10
704.057975311569
 20
193.2345141481897
 30
0.0
 10
704.0693153503517
 20
193.2139754038015
 30
0.0
 10
704.0870492191202
 20
193.1808056589549
 30
0.0
 10
704.0823364712553
 20
193.1412377490096
 30
0.0
 10
704.0751745278693
 20
193.1303620054656
 30
0.0
 11
704.057975311569
 21
193.2345141481897
 31
0.0
 11
704.0828410266333
 21
193.1686686872978
 31
0.0
 11
704.0751745278693
 21
193.1303620054656
 31
0.0
  0
SPLINE
  5
5F4
330
2
100
AcDbEntity
  8
02___PRT_ALL_AXES
 62
     7
100
AcDbSpline
210
0.0
220
0.0
230
1.0
 70
     8
 71
     3
 72
    12
 73
     8
 74
     6
 42
0.0000000001
 43
0.0000000001
 44
0.0000000001
 12
-0.8663100730000625
 22
0.4995066139888706
 32
0.0
 13
-0.6062002211953669
 23
-0.7953120719709266
 33
0.0
 40
0.0
 40
0.0
 40
0.0
 40
0.0
 40
0.1615705271547562
 40
0.3164921292187626
 40
0.4368989078437937
 40
0.520126535746397
 40
0.5718318403014027
 40
0.5718318403014027
 40
0.5718318403014027
 40
0.5718318403014027
 10
702.6029843571937
 20
193.1484264285699
 30
0.0
 10
702.5563276321357
 20
193.1753282775497
 30
0.0
 10
702.4635568686237
 20
193.2256493548051
 30
0.0
 10
702.3309156180961
 20
193.2863927263021
 30
0.0
 10
702.2166054913132
 20
193.3224431868776
 30
0.0
 10
702.1320577388713
 20
193.3357929246252
 30
0.0
 10
702.08526726679
 20
193.318128734381
 30
0.0
 10
702.0748193444372
 20
193.3044214500818
 30
0.0
 11
702.6029843571937
 21
193.1484264285699
 31
0.0
 11
702.4607438989775
 21
193.2250598892218
 31
0.0
 11
702.3191111631935
 21
193.2878362457616
 31
0.0
 11
702.2038759804053
 21
193.3227453418059
 31
0.0
 11
702.1208167261534
 21
193.3280366865699
 31
0.0
 11
702.0748193444372
 21
193.3044214500818
 31
0.0
  0
SPLINE
  5
5F5
330
2
100
AcDbEntity
  8
02___PRT_ALL_AXES
 62
     7
100
AcDbSpline
210
0.0
220
0.0
230
1.0
 70
     8
 71
     3
 72
     9
 73
     5
 74
     3
 42
0.0000000001
 43
0.0000000001
 44
0.0000000001
 12
-0.8493891852839164
 22
0.5277670053373221
 32
0.0
 13
-0.8663100705282824
 23
0.4995066182757566
 33
0.0
 40
0.0
 40
0.0
 40
0.0
 40
0.0
 40
0.0867260525939682
 40
0.1083413775944402
 40
0.1083413775944402
 40
0.1083413775944402
 40
0.1083413775944402
 10
702.6959154067895
 20
193.0927384276778
 30
0.0
 10
702.6713606830711
 20
193.1079954773652
 30
0.0
 10
702.6404480815852
 20
193.1266778790466
 30
0.0
 10
702.6092262151023
 20
193.1448274292719
 30
0.0
 10
702.6029843571937
 20
193.1484264285699
 30
0.0
 11
702.6959154067895
 21
193.0927384276778
 31
0.0
 11
702.6216721328735
 21
193.1375641399059
 31
0.0
 11
702.6029843571937
 21
193.1484264285699
 31
0.0
  0
SPLINE
  5
5F6
330
2
100
AcDbEntity
  8
02___PRT_ALL_AXES
 62
     7
100
AcDbSpline
210
0.0
220
0.0
230
1.0
 70
     8
 71
     3
 72
    14
 73
    10
 74
     8
 42
0.0000000001
 43
0.0000000001
 44
0.0000000001
 12
-0.4833491121107537
 22
0.8754276873744318
 32
0.0
 13
-0.8493891845199343
 23
0.527767006566876
 33
0.0
 40
0.0
 40
0.0
 40
0.0
 40
0.0
 40
0.1222733107603322
 40
0.2788091281996612
 40
0.4632172979838336
 40
0.6671224896207732
 40
0.8809373712550812
 40
1.094490478364929
 40
1.210919808609337
 40
1.210919808609337
 40
1.210919808609337
 40
1.210919808609337
 10
703.5939735243093
 20
192.2932056117099
 30
0.0
 10
703.5742732922455
 20
192.3288860922654
 30
0.0
 10
703.5201875626633
 20
192.4050391244123
 30
0.0
 10
703.4178767925403
 20
192.5208007631191
 30
0.0
 10
703.287591806719
 20
192.6475702383848
 30
0.0
 10
703.1357298432867
 20
192.7789350957785
 30
0.0
 10
702.9696856023872
 20
192.9083371160625
 30
0.0
 10
702.821348001165
 20
193.0126544580288
 30
0.0
 10
702.7288800114131
 20
193.0722559079779
 30
0.0
 10
702.6959154067895
 20
193.0927384276778
 30
0.0
 11
703.5939735243093
 21
192.2932056117099
 31
0.0
 11
703.5253926038133
 21
192.3944351522019
 31
0.0
 11
703.4227212480693
 21
192.5125962915459
 31
0.0
 11
703.2911078277813
 21
192.6417639371978
 31
0.0
 11
703.1371519914212
 21
192.7754610861097
 31
0.0
 11
702.9685737271054
 21
192.9069836028457
 31
0.0
 11
702.793826251353
 21
193.0297364002657
 31
0.0
 11
702.6959154067895
 21
193.0927384276778
 31
0.0
  0
SPLINE
  5
5F7
330
2
100
AcDbEntity
  8
02___PRT_ALL_AXES
 62
     7
100
AcDbSpline
210
0.0
220
0.0
230
1.0
 70
     8
 71
     3
 72
    10
 73
     6
 74
     4
 42
0.0000000001
 43
0.0000000001
 44
0.0000000001
 12
0.48334910977847
 22
-0.8754276886621537
 32
0.0
 13
-0.6062002247084532
 23
-0.7953120692931931
 33
0.0
 40
0.0
 40
0.0
 40
0.0
 40
0.0
 40
0.0850899725258192
 40
0.1389345236506057
 40
0.1401483596953376
 40
0.1401483596953376
 40
0.1401483596953376
 40
0.1401483596953376
 10
703.5939735243093
 20
192.2932056117099
 30
0.0
 10
703.6076829117997
 20
192.2683755723844
 30
0.0
 10
703.6286124972721
 20
192.2273196472986
 30
0.0
 10
703.6274188634485
 20
192.1748715600104
 30
0.0
 10
703.6165144782436
 20
192.1600873589887
 30
0.0
 10
703.6162692023492
 20
192.1597655661698
 30
0.0
 11
703.5939735243093
 21
192.2932056117099
 31
0.0
 11
703.6250250791733
 21
192.2139837437379
 31
0.0
 11
703.6169902097972
 21
192.1607420630738
 31
0.0
 11
703.6162692023492
 21
192.1597655661698
 31
0.0
  0
SPLINE
  5
5F8
330
2
100
AcDbEntity
  8
0
 62
     7
100
AcDbSpline
210
0.0
220
0.0
230
1.0
 70
     8
 71
     3
 72
     9
 73
     5
 74
     3
 42
0.0000000001
 43
0.0000000001
 44
0.0000000001
 12
0.4833491064874547
 22
-0.8754276904792188
 32
0.0
 13
-0.1063099629320507
 23
-0.9943330386653085
 33
0.0
 40
0.0
 40
0.0
 40
0.0
 40
0.0
 40
0.0708006120962072
 40
0.1065400928919355
 40
0.1065400928919355
 40
0.1065400928919355
 40
0.1065400928919355
 10
701.1526282769612
 20
189.0734548823138
 30
0.0
 10
701.164035414493
 20
189.0527946102031
 30
0.0
 10
701.1789710716612
 20
189.0203669006735
 30
0.0
 10
701.1851722113033
 20
188.9844884615125
 30
0.0
 10
701.1839057236771
 20
188.9726428126658
 30
0.0
 11
701.1526282769612
 21
189.0734548823138
 31
0.0
 11
701.1800288962773
 21
189.0081714025177
 31
0.0
 11
701.1839057236771
 21
188.9726428126658
 31
0.0
  0
LINE
  5
5F9
330
2
100
AcDbEntity
  8
02___PRT_ALL_AXES
 62
     7
100
AcDbLine
 10
709.1392198532182
 20
201.0920957064039
 30
0.0
 11
709.0597994084852
 21
200.3022588178539
 31
0.0
  0
ARC
  5
5FA
330
2
100
AcDbEntity
  8
02___PRT_ALL_AXES
 62
     7
100
AcDbCircle
 10
709.0596212479128
 20
201.1000995825524
 30
0.0
 40
0.08
100
AcDbArc
 50
354.2580394435859
 51
112.5468397319514
  0
LINE
  5
5FB
330
2
100
AcDbEntity
  8
02___PRT_ALL_AXES
 62
     7
100
AcDbLine
 10
709.0597994084852
 20
200.3022588178539
 30
0.0
 11
709.0547618691577
 21
200.2884443125898
 31
0.0
  0
LINE
  5
5FC
330
2
100
AcDbEntity
  8
02___PRT_ALL_AXES
 62
     7
100
AcDbLine
 10
701.5587445071454
 20
189.3890389592978
 30
0.0
 11
701.2100107936412
 21
188.9194268434058
 31
0.0
  0
LINE
  5
5FD
330
2
100
AcDbEntity
  8
02___PRT_ALL_AXES
 62
     7
100
AcDbLine
 10
703.6162734192576
 20
192.1597504435176
 30
0.0
 11
703.1370961215912
 21
191.5144802683063
 31
0.0
  0
LINE
  5
5FE
330
2
100
AcDbEntity
  8
02___PRT_ALL_AXES
 62
     7
100
AcDbLine
 10
703.1370961215912
 20
191.5144802683063
 30
0.0
 11
701.5587445071454
 21
189.3890389592978
 31
0.0
  0
LINE
  5
5FF
330
2
100
AcDbEntity
  8
02___PRT_ALL_AXES
 62
     7
100
AcDbLine
 10
704.0753971034972
 20
193.1302522972778
 30
0.0
 11
703.5271038927452
 21
192.3919091862097
 31
0.0
  0
LINE
  5
600
330
2
100
AcDbEntity
  8
02___PRT_ALL_AXES
 62
     7
100
AcDbLine
 10
704.8654420029576
 20
194.2193030249378
 30
0.0
 11
704.7608218886015
 21
194.0784193900178
 31
0.0
  0
LINE
  5
601
330
2
100
AcDbEntity
  8
02___PRT_ALL_AXES
 62
     7
100
AcDbLine
 10
704.5922248882292
 20
194.2036194357816
 30
0.0
 11
704.5659133107725
 21
194.1681877150078
 31
0.0
  0
LINE
  5
602
330
2
100
AcDbEntity
  8
02___PRT_ALL_AXES
 62
     7
100
AcDbLine
 10
709.0547618691577
 20
200.2884443125898
 30
0.0
 11
704.8751460729572
 21
194.6600862271898
 31
0.0
  0
LINE
  5
603
330
2
100
AcDbEntity
  8
02___PRT_ALL_AXES
 62
     7
100
AcDbLine
 10
704.8734540915813
 20
194.2463335545698
 30
0.0
 11
704.8654420029576
 21
194.2193030249378
 31
0.0
  0
LINE
  5
604
330
2
100
AcDbEntity
  8
02___PRT_ALL_AXES
 62
     7
100
AcDbLine
 10
704.8751896867892
 20
194.6707515114218
 30
0.0
 11
704.8734540915813
 21
194.2463335545698
 31
0.0
  0
LINE
  5
605
330
2
100
AcDbEntity
  8
02___PRT_ALL_AXES
 62
     7
100
AcDbLine
 10
704.1146141391092
 20
195.2355545189738
 30
0.0
 11
703.7088227845774
 21
195.1111881591218
 31
0.0
  0
LINE
  5
606
330
2
100
AcDbEntity
  8
02___PRT_ALL_AXES
 62
     7
100
AcDbLine
 10
708.2840327232933
 20
200.8607873756737
 30
0.0
 11
704.1044169255693
 21
195.2324292917978
 31
0.0
  0
LINE
  5
607
330
2
100
AcDbEntity
  8
02___PRT_ALL_AXES
 62
     7
100
AcDbLine
 10
703.7492398848455
 20
194.8296196615537
 30
0.0
 11
703.7299090433446
 21
194.8035883459202
 31
0.0
  0
LINE
  5
608
330
2
100
AcDbEntity
  8
02___PRT_ALL_AXES
 62
     7
100
AcDbLine
 10
703.6852629988296
 20
195.0957033422378
 30
0.0
 11
703.5806428844733
 21
194.9548197073178
 31
0.0
  0
LINE
  5
609
330
2
100
AcDbEntity
  8
02___PRT_ALL_AXES
 62
     7
100
AcDbLine
 10
702.8711328140373
 20
194.0245383364897
 30
0.0
 11
702.3228331506697
 21
193.2861865370977
 31
0.0
  0
LINE
  5
60A
330
2
100
AcDbEntity
  8
02___PRT_ALL_AXES
 62
     7
100
AcDbLine
 10
700.0172862154171
 20
190.5337250885136
 30
0.0
 11
699.6685525019135
 21
190.0641129726216
 31
0.0
  0
LINE
  5
60B
330
2
100
AcDbEntity
  8
02___PRT_ALL_AXES
 62
     7
100
AcDbLine
 10
702.0748151275296
 20
193.3044365727338
 30
0.0
 11
701.6571245291023
 21
192.7419656732485
 31
0.0
  0
LINE
  5
60C
330
2
100
AcDbEntity
  8
02___PRT_ALL_AXES
 62
     7
100
AcDbLine
 10
701.6687530568987
 20
192.7556762362542
 30
0.0
 11
700.0172862154171
 21
190.5337250885136
 31
0.0
  0
LINE
  5
60D
330
2
100
AcDbEntity
  8
02___PRT_ALL_AXES
 62
     7
100
AcDbLine
 10
709.0289461612816
 20
201.1739848927308
 30
0.0
 11
708.2958008592692
 21
200.8696037431058
 31
0.0
  0
SPLINE
  5
60E
330
2
100
AcDbEntity
  8
02___PRT_ALL_AXES
 62
     7
100
AcDbSpline
210
0.0
220
0.0
230
1.0
 70
     8
 71
     3
 72
    11
 73
     7
 74
     5
 42
0.0000000001
 43
0.0000000001
 44
0.0000000001
 12
0.4819052077022702
 22
0.876223356678782
 32
0.0
 13
0.8856499641273101
 23
-0.4643534656286032
 33
0.0
 40
0.0
 40
0.0
 40
0.0
 40
0.0
 40
0.0072617682644386
 40
0.0478682425810564
 40
0.1200001324797245
 40
0.222683685244366
 40
0.222683685244366
 40
0.222683685244366
 40
0.222683685244366
 10
703.6422208710862
 20
194.8056446432658
 30
0.0
 10
703.6433873657341
 20
194.8077656202538
 30
0.0
 10
703.6534225634729
 20
194.8210077286267
 30
0.0
 10
703.701112380991
 20
194.8132919394856
 30
0.0
 10
703.7648222889039
 20
194.7929751157184
 30
0.0
 10
703.8189013278858
 20
194.766583798266
 30
0.0
 10
703.8492152228267
 20
194.7506899770696
 30
0.0
 11
703.6422208710862
 21
194.8056446432658
 31
0.0
 11
703.6466389667744
 21
194.8114077768593
 31
0.0
 11
703.6870967159122
 21
194.814879993892
 31
0.0
 11
703.7561917042482
 21
194.7941702829521
 31
0.0
 11
703.8492152228267
 21
194.7506899770696
 31
0.0
  0
LINE
  5
60F
330
2
100
AcDbEntity
  8
02___PRT_ALL_AXES
 62
     7
100
AcDbLine
 10
702.8908313233154
 20
194.0873639473079
 30
0.0
 11
703.6422208710862
 21
194.8056446432658
 31
0.0
  0
SPLINE
  5
610
330
2
100
AcDbEntity
  8
02___PRT_ALL_AXES
 62
     7
100
AcDbSpline
210
0.0
220
0.0
230
1.0
 70
     8
 71
     3
 72
    16
 73
    12
 74
    10
 42
0.0000000001
 43
0.0000000001
 44
0.0000000001
 12
0.4819052066468297
 22
0.8762233572592529
 32
0.0
 13
-0.8856499635957032
 23
0.4643534666425241
 33
0.0
 40
0.0
 40
0.0
 40
0.0
 40
0.0
 40
0.0221470325777329
 40
0.0767028034048197
 40
0.1633181258052139
 40
0.2782041790262047
 40
0.4143647728847803
 40
0.5630047119389796
 40
0.7143614157059627
 40
0.858466881728763
 40
0.9859051130184337
 40
0.9859051130184337
 40
0.9859051130184337
 40
0.9859051130184337
 10
704.5724108391032
 20
194.1144304052946
 30
0.0
 10
704.5759684292069
 20
194.1208989877074
 30
0.0
 10
704.5808155550826
 20
194.1478398090726
 30
0.0
 10
704.5474274900518
 20
194.1957052086047
 30
0.0
 10
704.4966089684099
 20
194.2618844857761
 30
0.0
 10
704.4159091395702
 20
194.3418961794366
 30
0.0
 10
704.3166689144425
 20
194.4303479265868
 30
0.0
 10
704.2029328296288
 20
194.5211825399065
 30
0.0
 10
704.083157449234
 20
194.6082154907097
 30
0.0
 10
703.9652266652206
 20
194.6855481628422
 30
0.0
 10
703.8868371111275
 20
194.7309645155755
 30
0.0
 10
703.8492152228267
 20
194.7506899770696
 30
0.0
 11
704.5724108391032
 21
194.1144304052946
 31
0.0
 11
704.5770561222548
 21
194.1360847904496
 31
0.0
 11
704.5541074797267
 21
194.1855791531251
 31
0.0
 11
704.5007107252104
 21
194.2537773985692
 31
0.0
 11
704.4205047610866
 21
194.336031933664
 31
0.0
 11
704.3189554900982
 21
194.4267372415663
 31
0.0
 11
704.2029833288803
 21
194.5197119117969
 31
0.0
 11
704.0804915860286
 21
194.6086198681808
 31
0.0
 11
703.9598278727658
 21
194.6874021862431
 31
0.0
 11
703.8492152228267
 21
194.7506899770696
 31
0.0
  0
LINE
  5
611
330
2
100
AcDbEntity
  8
02___PRT_ALL_AXES
 62
     7
100
AcDbLine
 10
704.1327950616795
 20
193.1775128215848
 30
0.0
 11
704.5724108391032
 21
194.1144304052946
 31
0.0
  0
SPLINE
  5
612
330
2
100
AcDbEntity
  8
02___PRT_ALL_AXES
 62
     7
100
AcDbSpline
210
0.0
220
0.0
230
1.0
 70
     8
 71
     3
 72
    16
 73
    12
 74
     0
 42
0.0000000001
 43
0.0000000001
 40
0.0
 40
0.0
 40
0.0
 40
0.0
 40
0.062602226540079
 40
0.062602226540079
 40
0.1252044530801579
 40
0.1252044530801579
 40
0.1878066796202368
 40
0.1878066796202368
 40
0.3247692506015984
 40
0.3247692506015984
 40
0.3656853215271653
 40
0.3656853215271653
 40
0.3656853215271653
 40
0.3656853215271653
 10
702.8829858446962
 20
194.0802137312629
 30
0.0
 10
702.8989663012812
 20
194.0977323556178
 30
0.0
 10
702.9194516099678
 20
194.0996514096284
 30
0.0
 10
702.9590397835926
 20
194.0972211752933
 30
0.0
 10
702.9754847954206
 20
194.0917375777412
 30
0.0
 10
703.0080568918797
 20
194.0815981358616
 30
0.0
 10
703.0239868425362
 20
194.0763056442108
 30
0.0
 10
703.0742978619505
 20
194.0574576340849
 30
0.0
 10
703.1079339339783
 20
194.0419134835904
 30
0.0
 10
703.1506860181037
 20
194.0203678402765
 30
0.0
 10
703.1604568744519
 20
194.0153207289951
 30
0.0
 10
703.1701637248156
 20
194.0102313485584
 30
0.0
  0
SPLINE
  5
613
330
2
100
AcDbEntity
  8
02___PRT_ALL_AXES
 62
     7
100
AcDbSpline
210
0.0
220
0.0
230
1.0
 70
     8
 71
     3
 72
    10
 73
     6
 74
     0
 42
0.0000000001
 43
0.0000000001
 40
0.2411329027578508
 40
0.2411329027578508
 40
0.2411329027578508
 40
0.2411329027578508
 40
0.2726328170966257
 40
0.2726328170966257
 40
0.2818955530933262
 40
0.2818955530933262
 40
0.2818955530933262
 40
0.2818955530933262
 10
702.8759711772155
 20
194.0378464439826
 30
0.0
 10
702.8732525247984
 20
194.047948656243
 30
0.0
 10
702.8715921842872
 20
194.0587830714533
 30
0.0
 10
702.8782508766379
 20
194.0740367747331
 30
0.0
 10
702.8804061363646
 20
194.0773857181216
 30
0.0
 10
702.8829858446962
 20
194.080213731263
 30
0.0
  0
SPLINE
  5
614
330
2
100
AcDbEntity
  8
02___PRT_ALL_AXES
 62
     7
100
AcDbSpline
210
0.0
220
0.0
230
1.0
 70
     8
 71
     3
 72
    24
 73
    20
 74
     0
 42
0.0000000001
 43
0.0000000001
 40
0.0
 40
0.0
 40
0.0
 40
0.0
 40
0.0336660361682034
 40
0.0336660361682034
 40
0.0673320723364068
 40
0.0673320723364068
 40
0.1310519666916519
 40
0.1310519666916519
 40
0.194771861046897
 40
0.194771861046897
 40
0.3222116497573872
 40
0.3222116497573872
 40
0.5763441207315349
 40
0.5763441207315349
 40
1.084609062679827
 40
1.084609062679827
 40
1.59287400462812
 40
1.59287400462812
 40
1.617681132486946
 40
1.617681132486946
 40
1.617681132486946
 40
1.617681132486946
 10
704.1234446489816
 20
193.1563309409433
 30
0.0
 10
704.1336185826057
 20
193.1674841467718
 30
0.0
 10
704.1339464924021
 20
193.181197794413
 30
0.0
 10
704.1307997529902
 20
193.2023560161171
 30
0.0
 10
704.1269258420343
 20
193.2124377489849
 30
0.0
 10
704.1157343617868
 20
193.2388573663497
 30
0.0
 10
704.1068706138727
 20
193.2538459275681
 30
0.0
 10
704.0878946458438
 20
193.2824561214424
 30
0.0
 10
704.077571206727
 20
193.2961614445425
 30
0.0
 10
704.0456746875364
 20
193.3364701959512
 30
0.0
 10
704.0225306676611
 20
193.3626872830203
 30
0.0
 10
703.9522395106343
 20
193.4374111062087
 30
0.0
 10
703.9026191274272
 20
193.4839866211903
 30
0.0
 10
703.7500517999623
 20
193.6193448900301
 30
0.0
 10
703.6430626979297
 20
193.7035287201763
 30
0.0
 10
703.4219959395856
 20
193.861952487683
 30
0.0
 10
703.3079086571521
 20
193.9363759432571
 30
0.0
 10
703.1819366252761
 20
194.0040206164676
 30
0.0
 10
703.1760584380069
 20
194.0071407025742
 30
0.0
 10
703.1701637248309
 20
194.0102313485507
 30
0.0
  0
SPLINE
  5
615
330
2
100
AcDbEntity
  8
02___PRT_ALL_AXES
 62
     7
100
AcDbSpline
210
0.0
220
0.0
230
1.0
 70
     8
 71
     3
 72
     8
 73
     4
 74
     0
 42
0.0000000001
 43
0.0000000001
 40
0.2305708090866159
 40
0.2305708090866159
 40
0.2305708090866159
 40
0.2305708090866159
 40
0.2817094252584755
 40
0.2817094252584755
 40
0.2817094252584755
 40
0.2817094252584755
 10
704.0764250372833
 20
193.1389134016966
 30
0.0
 10
704.0930983186531
 20
193.1390238868306
 30
0.0
 10
704.1093435855855
 20
193.1417102935146
 30
0.0
 10
704.1230423023067
 20
193.1567275535958
 30
0.0
  0
LINE
  5
616
330
2
100
AcDbEntity
  8
02___PRT_ALL_AXES
 62
     7
100
AcDbLine
 10
703.1489279858297
 20
194.0212270977333
 30
0.0
 11
703.1223366585933
 21
193.9854186600939
 31
0.0
  0
LINE
  5
617
330
2
100
AcDbEntity
  8
02___PRT_ALL_AXES
 62
     7
100
AcDbLine
 10
703.9918970195514
 20
193.3952053659317
 30
0.0
 11
703.9648971030092
 21
193.3588467133418
 31
0.0
  0
LINE
  5
618
330
2
100
AcDbEntity
  8
02___PRT_ALL_AXES
  6
Continuous
 62
     7
370
    25
100
AcDbLine
 10
701.9791342044396
 20
192.1935230401614
 30
0.0
 11
702.1258932902854
 21
192.1074617500866
 31
0.0
  0
LINE
  5
619
330
2
100
AcDbEntity
  8
02___PRT_ALL_AXES
  6
Continuous
 62
     7
370
    25
100
AcDbLine
 10
701.9791342044396
 20
192.1935230401614
 30
0.0
 11
701.8874053814322
 21
192.3596595836852
 31
0.0
  0
SPLINE
  5
61A
330
2
100
AcDbEntity
  8
02___PRT_ALL_AXES
  6
Continuous
 62
     7
370
    25
100
AcDbSpline
210
0.0
220
0.0
230
1.0
 70
     8
 71
     3
 72
    12
 73
     8
 74
     6
 42
0.0000000001
 43
0.0000000001
 44
0.0000000001
 12
0.4833115984593232
 22
-0.8754483987047404
 32
0.0
 13
-0.5961906917029316
 23
-0.8028428607933062
 33
0.0
 40
0.0
 40
0.0
 40
0.0
 40
0.0
 40
0.0120456687962128
 40
0.0887464155801056
 40
0.1668719963212293
 40
0.2446043899461471
 40
0.3191398756594246
 40
0.3191398756594246
 40
0.3191398756594246
 40
0.3191398756594246
 10
702.3034502700402
 20
192.5123648954786
 30
0.0
 10
702.3053908738537
 20
192.5088497749922
 30
0.0
 10
702.3191195047344
 20
192.4826440667041
 30
0.0
 10
702.3370506281837
 20
192.429187405341
 30
0.0
 10
702.3418045699422
 20
192.3509284556091
 30
0.0
 10
702.325611097717
 20
192.2748536571763
 30
0.0
 10
702.3011163987256
 20
192.2294773399352
 30
0.0
 10
702.2863039444644
 20
192.209530579075
 30
0.0
 11
702.3034502700402
 21
192.5123648954786
 31
0.0
 11
702.3090404471173
 21
192.5016949349822
 31
0.0
 11
702.3335912725407
 21
192.4290295269242
 31
0.0
 11
702.338259575425
 21
192.3510435453998
 31
0.0
 11
702.3217919984593
 21
192.2750754999627
 31
0.0
 11
702.2863039444644
 21
192.209530579075
 31
0.0
  0
SPLINE
  5
61B
330
2
100
AcDbEntity
  8
02___PRT_ALL_AXES
  6
Continuous
 62
     7
370
    25
100
AcDbSpline
210
0.0
220
0.0
230
1.0
 70
     8
 71
     3
 72
    15
 73
    11
 74
     9
 42
0.0000000001
 43
0.0000000001
 44
0.0000000001
 12
-0.5961906925331423
 22
-0.8028428601767924
 32
0.0
 13
-0.4835903524184733
 23
0.8752944481988771
 33
0.0
 40
0.0
 40
0.0
 40
0.0
 40
0.0
 40
0.0751844712743957
 40
0.1539033367792523
 40
0.2341968583106816
 40
0.314366843146367
 40
0.3919760427652936
 40
0.4650696360401057
 40
0.5324495844299603
 40
0.5857042034629142
 40
0.5857042034629142
 40
0.5857042034629142
 40
0.5857042034629142
 10
702.2863039444644
 20
192.209530579075
 30
0.0
 10
702.2713625171321
 20
192.1894101404221
 30
0.0
 10
702.2345559993403
 20
192.152500174877
 30
0.0
 10
702.1654262798772
 20
192.1142962013263
 30
0.0
 10
702.087465671887
 20
192.0942679077146
 30
0.0
 10
702.0075232354983
 20
192.0921212152667
 30
0.0
 10
701.9312979783578
 20
192.106313510447
 30
0.0
 10
701.8638202481227
 20
192.1350325207095
 30
0.0
 10
701.8117886997303
 20
192.1745983684409
 30
0.0
 10
701.7872627462359
 20
192.2071531711476
 30
0.0
 10
701.7786782729073
 20
192.2226909952744
 30
0.0
 11
702.2863039444644
 21
192.209530579075
 31
0.0
 11
702.2333435475967
 21
192.156164849581
 31
0.0
 11
702.1646920464128
 21
192.1176469164645
 31
0.0
 11
702.0870299080358
 21
192.0972596198653
 31
0.0
 11
702.006892638052
 21
192.0949695482282
 31
0.0
 11
701.9306363366937
 21
192.1093974506622
 31
0.0
 11
701.8636053925797
 21
192.138544078409
 31
0.0
 11
701.8104514279382
 21
192.1799531775046
 31
0.0
 11
701.7786782729073
 21
192.2226909952744
 31
0.0
  0
SPLINE
  5
61C
330
2
100
AcDbEntity
  8
02___PRT_ALL_AXES
  6
Continuous
 62
     7
370
    25
100
AcDbSpline
210
0.0
220
0.0
230
1.0
 70
     8
 71
     3
 72
    11
 73
     7
 74
     5
 42
0.0000000001
 43
0.0000000001
 44
0.0000000001
 12
-0.5961906951688433
 22
-0.8028428582195219
 32
0.0
 13
0.123967040671902
 23
-0.9922863361082077
 33
0.0
 40
0.0
 40
0.0
 40
0.0
 40
0.0
 40
0.0644693822977575
 40
0.1278246065622103
 40
0.1852866336284396
 40
0.2055241637588205
 40
0.2055241637588205
 40
0.2055241637588205
 40
0.2055241637588205
 10
701.8874053814322
 20
192.3596595836853
 30
0.0
 10
701.8745933661492
 20
192.3424066559681
 30
0.0
 10
701.8512811387632
 20
192.3065497775737
 30
0.0
 10
701.8263747391544
 20
192.249625727399
 30
0.0
 10
701.8184120343978
 20
192.2025222295639
 30
0.0
 10
701.8200554322249
 20
192.1766044529485
 30
0.0
 10
701.8208916944652
 20
192.1699106447402
 30
0.0
 11
701.8874053814322
 21
192.3596595836853
 31
0.0
 11
701.8526372554654
 21
192.3053688969093
 31
0.0
 11
701.8281729422929
 21
192.2469276287626
 31
0.0
 11
701.8196083999753
 21
192.1901074459976
 31
0.0
 11
701.8208916944652
 21
192.1699106447402
 31
0.0
  0
SPLINE
  5
61D
330
2
100
AcDbEntity
  8
02___PRT_ALL_AXES
  6
Continuous
 62
     7
370
    25
100
AcDbSpline
210
0.0
220
0.0
230
1.0
 70
     8
 71
     3
 72
    12
 73
     8
 74
     6
 42
0.0000000001
 43
0.0000000001
 44
0.0000000001
 12
-0.4835903530108153
 22
0.875294447871615
 32
0.0
 13
0.5961906927789562
 23
0.8028428599942509
 33
0.0
 40
0.0
 40
0.0
 40
0.0
 40
0.0
 40
0.0099597261271102
 40
0.0719510981437323
 40
0.1365008413790901
 40
0.2060537218131554
 40
0.2784989248184659
 40
0.2784989248184659
 40
0.2784989248184659
 40
0.2784989248184659
 10
701.7786782729073
 20
192.2226909952744
 30
0.0
 10
701.7770727970827
 20
192.2255968929349
 30
0.0
 10
701.766033712323
 20
192.2468885846507
 30
0.0
 10
701.7531022007095
 20
192.2915776542997
 30
0.0
 10
701.7568366521104
 20
192.357868593139
 30
0.0
 10
701.7796587381611
 20
192.4235485918584
 30
0.0
 10
701.8045949280908
 20
192.4641805507223
 30
0.0
 10
701.8189919800136
 20
192.4835679220469
 30
0.0
 11
701.7786782729073
 21
192.2226909952744
 31
0.0
 11
701.7740975708711
 21
192.2315348243875
 31
0.0
 11
701.7567999561923
 21
192.2910639998474
 31
0.0
 11
701.7595827542419
 21
192.3555537307103
 31
0.0
 11
701.7815575465347
 21
192.4215439699913
 31
0.0
 11
701.8189919800136
 21
192.4835679220469
 31
0.0
  0
SPLINE
  5
61E
330
2
100
AcDbEntity
  8
02___PRT_ALL_AXES
  6
Continuous
 62
     7
370
    25
100
AcDbSpline
210
0.0
220
0.0
230
1.0
 70
     8
 71
     3
 72
    15
 73
    11
 74
     9
 42
0.0000000001
 43
0.0000000001
 44
0.0000000001
 12
0.5961906930765883
 22
0.8028428597732295
 32
0.0
 13
0.483311596487657
 23
-0.8754483997932444
 33
0.0
 40
0.0
 40
0.0
 40
0.0
 40
0.0
 40
0.0764257079850413
 40
0.1560408518395276
 40
0.2339978958699793
 40
0.3085085739518266
 40
0.3798257570382593
 40
0.4499898748547004
 40
0.520873343900004
 40
0.5825975919615227
 40
0.5825975919615227
 40
0.5825975919615227
 40
0.5825975919615227
 10
701.8189919800136
 20
192.4835679220469
 30
0.0
 10
701.8341800786178
 20
192.5040205333665
 30
0.0
 10
701.8691693242277
 20
192.5429489481452
 30
0.0
 10
701.9312086183199
 20
192.5909545768048
 30
0.0
 10
702.0011909306787
 20
192.6253646309129
 30
0.0
 10
702.0748577035235
 20
192.6416558482619
 30
0.0
 10
702.1477881214956
 20
192.6369075185555
 30
0.0
 10
702.2147021651715
 20
192.610400947548
 30
0.0
 10
702.2676920871735
 20
192.5668197544768
 30
0.0
 10
702.2935062550827
 20
192.5303770268765
 30
0.0
 10
702.3034502700402
 20
192.5123648954786
 30
0.0
 11
701.8189919800136
 21
192.4835679220469
 31
0.0
 11
701.8699849730116
 21
192.540494220944
 31
0.0
 11
701.933112977111
 21
192.5890063455047
 31
0.0
 11
702.0033320838741
 21
192.6228674996399
 31
0.0
 11
702.0762313332283
 21
192.6382798515631
 31
0.0
 11
702.1473663276609
 21
192.6331854261329
 31
0.0
 11
702.2125990313135
 21
192.6073455770017
 31
0.0
 11
702.2675598370946
 21
192.5625820202642
 31
0.0
 11
702.3034502700402
 21
192.5123648954786
 31
0.0
  0
SPLINE
  5
61F
330
2
100
AcDbEntity
  8
0
  6
Continuous
 62
     7
370
    25
100
AcDbSpline
210
0.0
220
0.0
230
1.0
 70
     8
 71
     3
 72
    10
 73
     6
 74
     4
 42
0.0000000001
 43
0.0000000001
 44
0.0000000001
 12
0.5316427766498041
 22
-0.8469686877542089
 32
0.0
 13
0.7391678118963926
 23
-0.6735213031941153
 33
0.0
 40
0.0
 40
0.0
 40
0.0
 40
0.0
 40
0.058006647229429
 40
0.1566100450326728
 40
0.2296080794259361
 40
0.2296080794259361
 40
0.2296080794259361
 40
0.2296080794259361
 10
701.8360539111554
 20
192.267683933866
 30
0.0
 10
701.8463335161544
 20
192.2513073292377
 30
0.0
 10
701.8778748236349
 20
192.2095207640026
 30
0.0
 10
701.9299238927252
 20
192.1532817737388
 30
0.0
 10
701.9713732246836
 20
192.1138327240402
 30
0.0
 10
701.9893591571355
 20
192.0974441469551
 30
0.0
 11
701.8360539111554
 21
192.267683933866
 31
0.0
 11
701.870241903221
 21
192.2208229445324
 31
0.0
 11
701.9365700917351
 21
192.1478626713231
 31
0.0
 11
701.9893591571355
 21
192.0974441469551
 31
0.0
  0
SPLINE
  5
620
330
2
100
AcDbEntity
  8
02___PRT_ALL_AXES
  6
Continuous
 62
     7
370
    25
100
AcDbSpline
210
0.0
220
0.0
230
1.0
 70
     8
 71
     3
 72
    12
 73
     8
 74
     6
 42
0.0000000001
 43
0.0000000001
 44
0.0000000001
 12
-0.956281296051801
 22
0.2924484276269709
 32
0.0
 13
-0.5961906920809705
 23
-0.8028428605125746
 33
0.0
 40
0.0
 40
0.0
 40
0.0
 40
0.0
 40
0.0576920035508538
 40
0.1405110713715898
 40
0.2252798930011929
 40
0.3105593773844446
 40
0.3947730344610692
 40
0.3947730344610692
 40
0.3947730344610692
 40
0.3947730344610692
 10
702.3307828916999
 20
192.3156409637791
 30
0.0
 10
702.312392963724
 20
192.3212649423541
 30
0.0
 10
702.2660721662877
 20
192.3302863817414
 30
0.0
 10
702.1901458890119
 20
192.3269621257058
 30
0.0
 10
702.1087781237058
 20
192.3017490896963
 30
0.0
 10
702.0357566710767
 20
192.2571046562548
 30
0.0
 10
701.9958700039381
 20
192.216059817942
 30
0.0
 10
701.9791342044396
 20
192.1935230401615
 30
0.0
 11
702.3307828916999
 21
192.3156409637791
 31
0.0
 11
702.2741809277219
 21
192.3268027265228
 31
0.0
 11
702.1914271836091
 21
192.3235139836
 31
0.0
 11
702.110404142791
 21
192.2985937111885
 31
0.0
 11
702.0376758107809
 21
192.2540607999913
 31
0.0
 11
701.9791342044396
 21
192.1935230401615
 31
0.0
  0
ENDSEC
  0
SECTION
  2
OBJECTS
  0
DICTIONARY
  5
B
330
0
100
AcDbDictionary
281
     1
  3
ACAD_COLOR
350
1E7
  3
ACAD_GROUP
350
1D4
  3
ACAD_LAYOUT
350
1B5
  3
ACAD_MATERIAL
350
D
  3
ACAD_MLEADERSTYLE
350
24B
  3
ACAD_MLINESTYLE
350
1D5
  3
ACAD_PLOTSETTINGS
350
1D6
  3
ACAD_PLOTSTYLENAME
350
A
  3
ACAD_SCALELIST
350
1E8
  3
ACAD_TABLESTYLE
350
1E9
  3
ACAD_VISUALSTYLE
350
1CE
  3
ACDB_RECOMPOSE_DATA
350
23B
  3
AcDbVariableDictionary
350
211
  0
DICTIONARY
  5
1CF
330
1CB
100
AcDbDictionary
280
     1
281
     1
  0
DICTIONARY
  5
1C0
330
1BF
100
AcDbDictionary
280
     1
281
     1
  3
ACAD_LAYERFILTERS
360
1C1
  3
ACAD_LAYERSTATES
360
1C2
  3
ACLYDICTIONARY
360
1C3
  0
DICTIONARY
  5
7
330
6
100
AcDbDictionary
280
     1
281
     1
  3
ADSK_XREC_LAYER_RECONCILED
360
8
  0
DICTIONARY
  5
18
330
17
100
AcDbDictionary
280
     1
281
     1
  3
ADSK_XREC_LAYER_RECONCILED
360
19
  0
DICTIONARY
  5
26
330
25
100
AcDbDictionary
280
     1
281
     1
  3
ADSK_XREC_LAYER_RECONCILED
360
27
  0
DICTIONARY
  5
3
330
2
100
AcDbDictionary
280
     1
281
     1
  3
ACAD_SORTENTS
360
210
  0
DICTIONARY
  5
D47
330
25D
100
AcDbDictionary
280
     1
281
     1
  0
DICTIONARY
  5
D8C
330
CB2
100
AcDbDictionary
280
     1
281
     1
  3
ACAD_MTEXT_2008_RT
360
D8D
  0
DICTIONARY
  5
D8E
330
CF6
100
AcDbDictionary
280
     1
281
     1
  3
ACAD_MTEXT_2008_RT
360
D8F
  0
DICTIONARY
  5
D90
330
CF7
100
AcDbDictionary
280
     1
281
     1
  3
ACAD_MTEXT_2008_RT
360
D91
  0
DICTIONARY
  5
D92
330
D1C
100
AcDbDictionary
280
     1
281
     1
  3
ACAD_MTEXT_2008_RT
360
D93
  0
DICTIONARY
  5
D94
330
D1F
100
AcDbDictionary
280
     1
281
     1
  3
ACAD_MTEXT_2008_RT
360
D95
  0
DICTIONARY
  5
D96
330
D20
100
AcDbDictionary
280
     1
281
     1
  3
ACAD_MTEXT_2008_RT
360
D97
  0
DICTIONARY
  5
D98
330
D2A
100
AcDbDictionary
280
     1
281
     1
  3
ACAD_MTEXT_2008_RT
360
D99
  0
DICTIONARY
  5
D9A
330
D2B
100
AcDbDictionary
280
     1
281
     1
  3
ACAD_MTEXT_2008_RT
360
D9B
  0
DICTIONARY
  5
D9C
330
D2C
100
AcDbDictionary
280
     1
281
     1
  3
ACAD_MTEXT_2008_RT
360
D9D
  0
DICTIONARY
  5
D9E
330
D3A
100
AcDbDictionary
280
     1
281
     1
  3
ACAD_MTEXT_2008_RT
360
D9F
  0
DICTIONARY
  5
DA0
330
D3B
100
AcDbDictionary
280
     1
281
     1
  3
ACAD_MTEXT_2008_RT
360
DA1
  0
DICTIONARY
  5
DA2
330
D3C
100
AcDbDictionary
280
     1
281
     1
  3
ACAD_MTEXT_2008_RT
360
DA3
  0
DICTIONARY
  5
D8A
330
59A
100
AcDbDictionary
280
     1
281
     1
  3
ACAD_MTEXT_2008_RT
360
D8B
  0
DICTIONARY
  5
59F
330
59E
100
AcDbDictionary
280
     1
281
     1
  3
ACAD_DIMASSOC
360
5A0
  0
DICTIONARY
  5
5D9
330
5D8
100
AcDbDictionary
280
     1
281
     1
  3
ACAD_DIMASSOC
360
5DA
  0
DICTIONARY
  5
1E7
102
{ACAD_REACTORS
330
B
102
}
330
B
100
AcDbDictionary
281
     1
  0
DICTIONARY
  5
1D4
102
{ACAD_REACTORS
330
B
102
}
330
B
100
AcDbDictionary
281
     1
  0
DICTIONARY
  5
1B5
102
{ACAD_REACTORS
330
B
102
}
330
B
100
AcDbDictionary
281
     1
  3
Layout1
350
1BA
  3
Layout2
350
1BE
  3
Model
350
1B4
  0
DICTIONARY
  5
D
102
{ACAD_REACTORS
330
B
102
}
330
B
100
AcDbDictionary
281
     1
  3
ByBlock
350
1DF
  3
ByLayer
350
1D7
  3
Global
350
C
  0
DICTIONARY
  5
24B
102
{ACAD_REACTORS
330
B
102
}
330
B
100
AcDbDictionary
281
     1
  3
Standard
350
24C
  0
DICTIONARY
  5
1D5
102
{ACAD_REACTORS
330
B
102
}
330
B
100
AcDbDictionary
281
     1
  3
Standard
350
1EA
  0
DICTIONARY
  5
1D6
102
{ACAD_REACTORS
330
B
102
}
330
B
100
AcDbDictionary
281
     1
  0
ACDBDICTIONARYWDFLT
  5
A
102
{ACAD_REACTORS
330
B
102
}
330
B
100
AcDbDictionary
281
     1
  3
Normal
350
9
100
AcDbDictionaryWithDefault
340
9
  0
DICTIONARY
  5
1E8
102
{ACAD_REACTORS
330
B
102
}
330
B
100
AcDbDictionary
281
     1
  3
A0
350
1EF
  3
A1
350
1F0
  3
A2
350
1F1
  3
A3
350
1F2
  3
A4
350
1F3
  3
A5
350
1F4
  3
A6
350
1F5
  3
A7
350
1F6
  3
A8
350
1F7
  3
A9
350
1F8
  3
B0
350
1F9
  3
B1
350
1FA
  3
B2
350
1FB
  3
B3
350
1FC
  3
B4
350
1FD
  3
B5
350
1FE
  3
B6
350
1FF
  3
B7
350
200
  3
B8
350
201
  3
B9
350
202
  3
C0
350
203
  3
C1
350
204
  3
C2
350
205
  3
C3
350
206
  3
C4
350
207
  3
C5
350
208
  3
C6
350
209
  3
C7
350
20A
  3
C8
350
20B
  3
C9
350
20C
  3
D0
350
20D
  3
D1
350
20E
  3
D2
350
20F
  0
DICTIONARY
  5
1E9
102
{ACAD_REACTORS
330
B
102
}
330
B
100
AcDbDictionary
281
     1
  3
Standard
350
1EB
  0
DICTIONARY
  5
1CE
102
{ACAD_REACTORS
330
B
102
}
330
B
100
AcDbDictionary
281
     1
  3
2dWireframe
350
1CD
  3
3D Hidden
350
243
  3
3dWireframe
350
1EE
  3
Basic
350
242
  3
Brighten
350
246
  3
ColorChange
350
24A
  3
Conceptual
350
244
  3
Dim
350
245
  3
Facepattern
350
249
  3
Flat
350
23E
  3
FlatWithEdges
350
23F
  3
Gouraud
350
240
  3
GouraudWithEdges
350
241
  3
Linepattern
350
248
  3
Realistic
350
1ED
  3
Thicken
350
247
  0
XRECORD
  5
23B
102
{ACAD_REACTORS
330
B
102
}
330
B
100
AcDbXrecord
280
     1
 90
        1
330
1EB
330
59A
330
CB2
330
CF6
330
CF7
330
D1C
330
D1F
330
D20
330
D2A
330
D2B
330
D2C
330
D3A
330
D3B
330
D3C
  0
DICTIONARY
  5
211
102
{ACAD_REACTORS
330
B
102
}
330
B
100
AcDbDictionary
281
     1
  3
CANNOSCALE
350
214
  3
CMLEADERSTYLE
350
213
  3
CTABLESTYLE
350
212
  3
DIMASSOC
350
6CD
  3
HIDETEXT
350
6CC
  3
INDEXCTL
350
6CB
  3
LIGHTINGUNITS
350
215
  3
MSLTSCALE
350
6C9
  3
SORTENTS
350
6CA
  0
DICTIONARY
  5
1C1
102
{ACAD_REACTORS
330
1C0
102
}
330
1C0
100
AcDbDictionary
281
     1
  0
DICTIONARY
  5
1C2
102
{ACAD_REACTORS
330
1C0
102
}
330
1C0
100
AcDbDictionary
281
     1
  0
DICTIONARY
  5
1C3
102
{ACAD_REACTORS
330
1C0
102
}
330
1C0
100
AcDbDictionary
281
     1
1001
ACAD
1000
<All
  0
XRECORD
  5
8
102
{ACAD_REACTORS
330
7
102
}
330
7
100
AcDbXrecord
280
     1
290
     1
  0
XRECORD
  5
19
102
{ACAD_REACTORS
330
18
102
}
330
18
100
AcDbXrecord
280
     1
290
     1
  0
XRECORD
  5
27
102
{ACAD_REACTORS
330
26
102
}
330
26
100
AcDbXrecord
280
     1
290
     1
  0
SORTENTSTABLE
  5
210
102
{ACAD_REACTORS
330
3
102
}
330
3
100
AcDbSortentsTable
330
2
  0
XRECORD
  5
D8D
102
{ACAD_REACTORS
330
D8C
102
}
330
D8C
100
AcDbXrecord
280
     1
 40
1527.0
  1
\pxqc;BQ LUO
  0
XRECORD
  5
D8F
102
{ACAD_REACTORS
330
D8E
102
}
330
D8E
100
AcDbXrecord
280
     1
 40
3624820.0
  1
\pxqc;档案员{\H0.7x;\P\Fromans|c134;Filing Clerk\fFangSong_GB2312|b0|i0|c134|p49; }
  0
XRECORD
  5
D91
102
{ACAD_REACTORS
330
D90
102
}
330
D90
100
AcDbXrecord
280
     1
 40
2054623.0
  1
\pxqc;日期{\Fromans|c134;/Date}
  0
XRECORD
  5
D93
102
{ACAD_REACTORS
330
D92
102
}
330
D92
100
AcDbXrecord
280
     1
 40
1836818.0
  1
\pxsm0.7;{\fFangSong_GB2312|b0|i0|c134|p49;标准化}\PStand.
  0
XRECORD
  5
D95
102
{ACAD_REACTORS
330
D94
102
}
330
D94
100
AcDbXrecord
280
     1
 40
1476476.0
  1
\pxsm0.7;签名\P{\Fromans|c134;Signature} 
  0
XRECORD
  5
D97
102
{ACAD_REACTORS
330
D96
102
}
330
D96
100
AcDbXrecord
280
     1
 40
1354713.0
  1
\pxsm0.7,qc;处数\P{\Fromans|c134;Number }
  0
XRECORD
  5
D99
102
{ACAD_REACTORS
330
D98
102
}
330
D98
100
AcDbXrecord
280
     1
 40
1692934.0
  1
\pxsm0.7;标记\P{\Fromans|c134;Mark}
  0
XRECORD
  5
D9B
102
{ACAD_REACTORS
330
D9A
102
}
330
D9A
100
AcDbXrecord
280
     1
 40
1391581.0
  1
\pxsm0.7;审核\P{\Fromans|c134;Checked}
  0
XRECORD
  5
D9D
102
{ACAD_REACTORS
330
D9C
102
}
330
D9C
100
AcDbXrecord
280
     1
 40
1546703.0
  1
\pxsm0.7;绘图\P{\Fromans|c134;Drawn\Ftxt|c134; }
  0
XRECORD
  5
D9F
102
{ACAD_REACTORS
330
D9E
102
}
330
D9E
100
AcDbXrecord
280
     1
 40
1293614.0
  1
\pxsm0.7;批准\P{\Fromans|c134;Approved}
  0
XRECORD
  5
DA1
102
{ACAD_REACTORS
330
DA0
102
}
330
DA0
100
AcDbXrecord
280
     1
 40
1583427.0
  1
\pxsm0.7;工艺\P{\Fromans|c134;Process}
  0
XRECORD
  5
DA3
102
{ACAD_REACTORS
330
DA2
102
}
330
DA2
100
AcDbXrecord
280
     1
 40
1435325.0
  1
\pxsm0.7;日期\P{\Fromans|c134;Date}
  0
XRECORD
  5
D8B
102
{ACAD_REACTORS
330
D8A
102
}
330
D8A
100
AcDbXrecord
280
     1
 40
426030158.0
  1
\A1;\pxql;{\f仿宋_GB2312|b0|i0|c134|p49;技术参数}:\P\pq*;- {\f仿宋_GB2312|b0|i0|c134|p49;材料}: {\f仿宋_GB2312|b0|i0|c134|p49;铜合金}\P\pql;- {\f仿宋_GB2312|b0|i0|c134|p49;表面处理}: {\f仿宋_GB2312|b0|i0|c134|p49;镀银}\P- {\f仿宋_GB2312|b0|i0|c134|p49;额定电流}: 10A\P- {\f仿宋_GB231
  1
2|b0|i0|c134|p49;接触电阻}: ≤3mΩ\P- {\f仿宋_GB2312|b0|i0|c134|p49;线径范围}: 2.5mm{\H0.7x;\S2^ ;}(14 AWG)\P\pq*;- {\f仿宋_GB2312|b0|i0|c134|p49;可插拔次数}: {\f仿宋_GB2312|b0|i0|c134|p49;≥}500\P- {\f仿宋_GB2312|b0|i0|c134|p49;剥线长度：} 6mm\P\P\pql;Technical specification:\P-
  1
 Material: copper alloy\P- Surface: hard-silver plated\P- Rated current: 10A\P- Contact resistance: ≤3mΩ\P- Wire gauge: 2.5mm{\H0.7x;\S2^ ;}(14 AWG)\P- Mating cycles: {\f仿宋_GB2312|b0|i0|c134|p49;≥}500\P\pq*;- {\A0;Stripping Length: 6mm\P\pql;} 
  0
DIMASSOC
  5
5A0
102
{ACAD_REACTORS
330
59F
102
}
330
59F
100
AcDbDimAssoc
330
59E
 90
        2
 70
     0
 71
     0
  1
AcDbOsnapPointRef
 72
     1
331
5AC
 73
     2
 91
        0
 40
1.0
 10
0.0
 20
0.0
 30
2.000000000000000E+50
 75
     0
  0
DIMASSOC
  5
5DA
102
{ACAD_REACTORS
330
5D9
102
}
330
5D9
100
AcDbDimAssoc
330
5D8
 90
        3
 70
     0
 71
     0
  1
AcDbOsnapPointRef
 72
    13
331
5D3
 73
     2
 91
        0
 40
0.0
 10
0.0
 20
0.0
 30
2.000000000000000E+50
 75
     0
  1
AcDbOsnapPointRef
 72
    13
331
5CA
 73
     2
 91
        0
 40
0.0
 10
0.0
 20
0.0
 30
2.000000000000000E+50
 75
     0
  0
LAYOUT
  5
1BA
102
{ACAD_REACTORS
330
1B5
102
}
330
1B5
100
AcDbPlotSettings
  1

  2
none_device
  4

  6

 40
0.0
 41
0.0
 42
0.0
 43
0.0
 44
0.0
 45
0.0
 46
0.0
 47
0.0
 48
0.0
 49
0.0
140
0.0
141
0.0
142
1.0
143
1.0
 70
   688
 72
     0
 73
     0
 74
     5
  7

 75
    16
147
1.0
 76
     0
 77
     2
 78
   300
148
0.0
149
0.0
100
AcDbLayout
  1
Layout1
 70
     1
 71
     1
 10
0.0
 20
0.0
 11
12.0
 21
9.0
 12
0.0
 22
0.0
 32
0.0
 14
1.000000000000000E+20
 24
1.000000000000000E+20
 34
1.000000000000000E+20
 15
-1.000000000000000E+20
 25
-1.000000000000000E+20
 35
-1.000000000000000E+20
146
0.0
 13
0.0
 23
0.0
 33
0.0
 16
1.0
 26
0.0
 36
0.0
 17
0.0
 27
1.0
 37
0.0
 76
     0
330
1B7
  0
LAYOUT
  5
1BE
102
{ACAD_REACTORS
330
1B5
102
}
330
1B5
100
AcDbPlotSettings
  1

  2
none_device
  4

  6

 40
0.0
 41
0.0
 42
0.0
 43
0.0
 44
0.0
 45
0.0
 46
0.0
 47
0.0
 48
0.0
 49
0.0
140
0.0
141
0.0
142
1.0
143
1.0
 70
   688
 72
     0
 73
     0
 74
     5
  7

 75
    16
147
1.0
 76
     0
 77
     2
 78
   300
148
0.0
149
0.0
100
AcDbLayout
  1
Layout2
 70
     1
 71
     2
 10
0.0
 20
0.0
 11
0.0
 21
0.0
 12
0.0
 22
0.0
 32
0.0
 14
0.0
 24
0.0
 34
0.0
 15
0.0
 25
0.0
 35
0.0
146
0.0
 13
0.0
 23
0.0
 33
0.0
 16
1.0
 26
0.0
 36
0.0
 17
0.0
 27
1.0
 37
0.0
 76
     0
330
1BB
  0
LAYOUT
  5
1B4
102
{ACAD_REACTORS
330
1B5
102
}
330
1B5
100
AcDbPlotSettings
  1

  2
Adobe PDF Converter.pc3
  4
A4
  6

 40
3.174999952316281
 41
3.174999952316281
 42
3.17498779296875
 43
3.175003051757812
 44
297.0318298339844
 45
209.9733276367186
 46
0.0000000000000076
 47
1.630241740247063
 48
246.9897427644609
 49
39.36804549891383
140
544.952097801264
141
244.7492402188181
142
1.0
143
1.025046328645055
 70
  3764
 72
     1
 73
     0
 74
     4
  7
monochrome.ctb
 75
     0
147
0.9755656618192436
 76
     1
 77
     2
 78
   300
148
-246.9897427644609
149
-39.36804549891383
100
AcDbLayout
  1
Model
 70
     1
 71
     0
 10
0.0
 20
0.0
 11
12.0
 21
9.0
 12
0.0
 22
0.0
 32
0.0
 14
1.000000000000000E+20
 24
1.000000000000000E+20
 34
1.000000000000000E+20
 15
-1.000000000000000E+20
 25
-1.000000000000000E+20
 35
-1.000000000000000E+20
146
0.0
 13
0.0
 23
0.0
 33
0.0
 16
1.0
 26
0.0
 36
0.0
 17
0.0
 27
1.0
 37
0.0
 76
     0
330
2
331
1CC
1001
ACAD_PSEXT
1000
Adobe PDF Converter.pc3
1000
Adobe PDF Converter
1000
桌面\*.pdf
1000

1070
     0
  0
MATERIAL
  5
1DF
102
{ACAD_XDICTIONARY
360
1E0
102
}
102
{ACAD_REACTORS
330
D
102
}
330
D
100
AcDbMaterial
  1
ByBlock
 72
     0
 43
0.0208333333333333
 43
0.0
 43
0.0
 43
0.0
 43
0.0
 43
0.0208333333333333
 43
0.0
 43
0.0
 43
0.0
 43
0.0
 43
1.0
 43
0.0
 43
0.0
 43
0.0
 43
0.0
 43
1.0
 77
     0
 47
0.0208333333333333
 47
0.0
 47
0.0
 47
0.0
 47
0.0
 47
0.0208333333333333
 47
0.0
 47
0.0
 47
0.0
 47
0.0
 47
1.0
 47
0.0
 47
0.0
 47
0.0
 47
0.0
 47
1.0
171
     0
 49
0.0208333333333333
 49
0.0
 49
0.0
 49
0.0
 49
0.0
 49
0.0208333333333333
 49
0.0
 49
0.0
 49
0.0
 49
0.0
 49
1.0
 49
0.0
 49
0.0
 49
0.0
 49
0.0
 49
1.0
175
     0
142
0.0208333333333333
142
0.0
142
0.0
142
0.0
142
0.0
142
0.0208333333333333
142
0.0
142
0.0
142
0.0
142
0.0
142
1.0
142
0.0
142
0.0
142
0.0
142
0.0
142
1.0
179
     0
144
0.0208333333333333
144
0.0
144
0.0
144
0.0
144
0.0
144
0.0208333333333333
144
0.0
144
0.0
144
0.0
144
0.0
144
1.0
144
0.0
144
0.0
144
0.0
144
0.0
144
1.0
147
0.0208333333333333
147
0.0
147
0.0
147
0.0
147
0.0
147
0.0208333333333333
147
0.0
147
0.0
147
0.0
147
0.0
147
1.0
147
0.0
147
0.0
147
0.0
147
0.0
147
1.0
  0
MATERIAL
  5
1D7
102
{ACAD_XDICTIONARY
360
1D8
102
}
102
{ACAD_REACTORS
330
D
102
}
330
D
100
AcDbMaterial
  1
ByLayer
 72
     0
 43
0.0208333333333333
 43
0.0
 43
0.0
 43
0.0
 43
0.0
 43
0.0208333333333333
 43
0.0
 43
0.0
 43
0.0
 43
0.0
 43
1.0
 43
0.0
 43
0.0
 43
0.0
 43
0.0
 43
1.0
 77
     0
 47
0.0208333333333333
 47
0.0
 47
0.0
 47
0.0
 47
0.0
 47
0.0208333333333333
 47
0.0
 47
0.0
 47
0.0
 47
0.0
 47
1.0
 47
0.0
 47
0.0
 47
0.0
 47
0.0
 47
1.0
171
     0
 49
0.0208333333333333
 49
0.0
 49
0.0
 49
0.0
 49
0.0
 49
0.0208333333333333
 49
0.0
 49
0.0
 49
0.0
 49
0.0
 49
1.0
 49
0.0
 49
0.0
 49
0.0
 49
0.0
 49
1.0
175
     0
142
0.0208333333333333
142
0.0
142
0.0
142
0.0
142
0.0
142
0.0208333333333333
142
0.0
142
0.0
142
0.0
142
0.0
142
1.0
142
0.0
142
0.0
142
0.0
142
0.0
142
1.0
179
     0
144
0.0208333333333333
144
0.0
144
0.0
144
0.0
144
0.0
144
0.0208333333333333
144
0.0
144
0.0
144
0.0
144
0.0
144
1.0
144
0.0
144
0.0
144
0.0
144
0.0
144
1.0
147
0.0208333333333333
147
0.0
147
0.0
147
0.0
147
0.0
147
0.0208333333333333
147
0.0
147
0.0
147
0.0
147
0.0
147
1.0
147
0.0
147
0.0
147
0.0
147
0.0
147
1.0
  0
MATERIAL
  5
C
102
{ACAD_XDICTIONARY
360
E
102
}
102
{ACAD_REACTORS
330
D
102
}
330
D
100
AcDbMaterial
  1
Global
 72
     0
 43
0.0208333333333333
 43
0.0
 43
0.0
 43
0.0
 43
0.0
 43
0.0208333333333333
 43
0.0
 43
0.0
 43
0.0
 43
0.0
 43
1.0
 43
0.0
 43
0.0
 43
0.0
 43
0.0
 43
1.0
 77
     0
 47
0.0208333333333333
 47
0.0
 47
0.0
 47
0.0
 47
0.0
 47
0.0208333333333333
 47
0.0
 47
0.0
 47
0.0
 47
0.0
 47
1.0
 47
0.0
 47
0.0
 47
0.0
 47
0.0
 47
1.0
171
     0
 49
0.0208333333333333
 49
0.0
 49
0.0
 49
0.0
 49
0.0
 49
0.0208333333333333
 49
0.0
 49
0.0
 49
0.0
 49
0.0
 49
1.0
 49
0.0
 49
0.0
 49
0.0
 49
0.0
 49
1.0
175
     0
142
0.0208333333333333
142
0.0
142
0.0
142
0.0
142
0.0
142
0.0208333333333333
142
0.0
142
0.0
142
0.0
142
0.0
142
1.0
142
0.0
142
0.0
142
0.0
142
0.0
142
1.0
179
     0
144
0.0208333333333333
144
0.0
144
0.0
144
0.0
144
0.0
144
0.0208333333333333
144
0.0
144
0.0
144
0.0
144
0.0
144
1.0
144
0.0
144
0.0
144
0.0
144
0.0
144
1.0
147
0.0208333333333333
147
0.0
147
0.0
147
0.0
147
0.0
147
0.0208333333333333
147
0.0
147
0.0
147
0.0
147
0.0
147
1.0
147
0.0
147
0.0
147
0.0
147
0.0
147
1.0
  0
MLEADERSTYLE
  5
24C
102
{ACAD_REACTORS
330
24B
102
}
330
24B
100
AcDbMLeaderStyle
170
     2
171
     1
172
     0
 90
        2
 40
0.0
 41
0.0
173
     1
 91
-1056964608
340
1C7
 92
       -2
290
     1
 42
0.09
291
     1
 43
0.36
  3
Standard
 44
0.18
300

342
42
174
     1
178
     6
175
     1
176
     0
 93
-1056964608
 45
0.18
292
     0
297
     0
 46
0.18
 94
-1056964608
 47
1.0
 49
1.0
140
1.0
293
     1
141
0.0
294
     1
177
     0
142
1.0
295
     0
296
     0
143
0.125
1001
ACAD_MLEADERVER
1070
     2
  0
MLINESTYLE
  5
1EA
102
{ACAD_REACTORS
330
1D5
102
}
330
1D5
100
AcDbMlineStyle
  2
STANDARD
 70
     0
  3

 62
   256
 51
90.0
 52
90.0
 71
     2
 49
0.5
 62
   256
  6
BYLAYER
 49
-0.5
 62
   256
  6
BYLAYER
  0
ACDBPLACEHOLDER
  5
9
102
{ACAD_REACTORS
330
A
102
}
330
A
  0
SCALE
  5
1EF
102
{ACAD_REACTORS
330
1E8
102
}
330
1E8
100
AcDbScale
 70
     0
300
1:1
140
1.0
141
1.0
290
     1
  0
SCALE
  5
1F0
102
{ACAD_REACTORS
330
1E8
102
}
330
1E8
100
AcDbScale
 70
     0
300
1:2
140
1.0
141
2.0
290
     0
  0
SCALE
  5
1F1
102
{ACAD_REACTORS
330
1E8
102
}
330
1E8
100
AcDbScale
 70
     0
300
1:4
140
1.0
141
4.0
290
     0
  0
SCALE
  5
1F2
102
{ACAD_REACTORS
330
1E8
102
}
330
1E8
100
AcDbScale
 70
     0
300
1:5
140
1.0
141
5.0
290
     0
  0
SCALE
  5
1F3
102
{ACAD_REACTORS
330
1E8
102
}
330
1E8
100
AcDbScale
 70
     0
300
1:8
140
1.0
141
8.0
290
     0
  0
SCALE
  5
1F4
102
{ACAD_REACTORS
330
1E8
102
}
330
1E8
100
AcDbScale
 70
     0
300
1:10
140
1.0
141
10.0
290
     0
  0
SCALE
  5
1F5
102
{ACAD_REACTORS
330
1E8
102
}
330
1E8
100
AcDbScale
 70
     0
300
1:16
140
1.0
141
16.0
290
     0
  0
SCALE
  5
1F6
102
{ACAD_REACTORS
330
1E8
102
}
330
1E8
100
AcDbScale
 70
     0
300
1:20
140
1.0
141
20.0
290
     0
  0
SCALE
  5
1F7
102
{ACAD_REACTORS
330
1E8
102
}
330
1E8
100
AcDbScale
 70
     0
300
1:30
140
1.0
141
30.0
290
     0
  0
SCALE
  5
1F8
102
{ACAD_REACTORS
330
1E8
102
}
330
1E8
100
AcDbScale
 70
     0
300
1:40
140
1.0
141
40.0
290
     0
  0
SCALE
  5
1F9
102
{ACAD_REACTORS
330
1E8
102
}
330
1E8
100
AcDbScale
 70
     0
300
1:50
140
1.0
141
50.0
290
     0
  0
SCALE
  5
1FA
102
{ACAD_REACTORS
330
1E8
102
}
330
1E8
100
AcDbScale
 70
     0
300
1:100
140
1.0
141
100.0
290
     0
  0
SCALE
  5
1FB
102
{ACAD_REACTORS
330
1E8
102
}
330
1E8
100
AcDbScale
 70
     0
300
2:1
140
2.0
141
1.0
290
     0
  0
SCALE
  5
1FC
102
{ACAD_REACTORS
330
1E8
102
}
330
1E8
100
AcDbScale
 70
     0
300
4:1
140
4.0
141
1.0
290
     0
  0
SCALE
  5
1FD
102
{ACAD_REACTORS
330
1E8
102
}
330
1E8
100
AcDbScale
 70
     0
300
8:1
140
8.0
141
1.0
290
     0
  0
SCALE
  5
1FE
102
{ACAD_REACTORS
330
1E8
102
}
330
1E8
100
AcDbScale
 70
     0
300
10:1
140
10.0
141
1.0
290
     0
  0
SCALE
  5
1FF
102
{ACAD_REACTORS
330
1E8
102
}
330
1E8
100
AcDbScale
 70
     0
300
100:1
140
100.0
141
1.0
290
     0
  0
SCALE
  5
200
102
{ACAD_REACTORS
330
1E8
102
}
330
1E8
100
AcDbScale
 70
     0
300
1/128" = 1'-0"
140
0.0078125
141
12.0
290
     0
  0
SCALE
  5
201
102
{ACAD_REACTORS
330
1E8
102
}
330
1E8
100
AcDbScale
 70
     0
300
1/64" = 1'-0"
140
0.015625
141
12.0
290
     0
  0
SCALE
  5
202
102
{ACAD_REACTORS
330
1E8
102
}
330
1E8
100
AcDbScale
 70
     0
300
1/32" = 1'-0"
140
0.03125
141
12.0
290
     0
  0
SCALE
  5
203
102
{ACAD_REACTORS
330
1E8
102
}
330
1E8
100
AcDbScale
 70
     0
300
1/16" = 1'-0"
140
0.0625
141
12.0
290
     0
  0
SCALE
  5
204
102
{ACAD_REACTORS
330
1E8
102
}
330
1E8
100
AcDbScale
 70
     0
300
3/32" = 1'-0"
140
0.09375
141
12.0
290
     0
  0
SCALE
  5
205
102
{ACAD_REACTORS
330
1E8
102
}
330
1E8
100
AcDbScale
 70
     0
300
1/8" = 1'-0"
140
0.125
141
12.0
290
     0
  0
SCALE
  5
206
102
{ACAD_REACTORS
330
1E8
102
}
330
1E8
100
AcDbScale
 70
     0
300
3/16" = 1'-0"
140
0.1875
141
12.0
290
     0
  0
SCALE
  5
207
102
{ACAD_REACTORS
330
1E8
102
}
330
1E8
100
AcDbScale
 70
     0
300
1/4" = 1'-0"
140
0.25
141
12.0
290
     0
  0
SCALE
  5
208
102
{ACAD_REACTORS
330
1E8
102
}
330
1E8
100
AcDbScale
 70
     0
300
3/8" = 1'-0"
140
0.375
141
12.0
290
     0
  0
SCALE
  5
209
102
{ACAD_REACTORS
330
1E8
102
}
330
1E8
100
AcDbScale
 70
     0
300
1/2" = 1'-0"
140
0.5
141
12.0
290
     0
  0
SCALE
  5
20A
102
{ACAD_REACTORS
330
1E8
102
}
330
1E8
100
AcDbScale
 70
     0
300
3/4" = 1'-0"
140
0.75
141
12.0
290
     0
  0
SCALE
  5
20B
102
{ACAD_REACTORS
330
1E8
102
}
330
1E8
100
AcDbScale
 70
     0
300
1" = 1'-0"
140
1.0
141
12.0
290
     0
  0
SCALE
  5
20C
102
{ACAD_REACTORS
330
1E8
102
}
330
1E8
100
AcDbScale
 70
     0
300
1-1/2" = 1'-0"
140
1.5
141
12.0
290
     0
  0
SCALE
  5
20D
102
{ACAD_REACTORS
330
1E8
102
}
330
1E8
100
AcDbScale
 70
     0
300
3" = 1'-0"
140
3.0
141
12.0
290
     0
  0
SCALE
  5
20E
102
{ACAD_REACTORS
330
1E8
102
}
330
1E8
100
AcDbScale
 70
     0
300
6" = 1'-0"
140
6.0
141
12.0
290
     0
  0
SCALE
  5
20F
102
{ACAD_REACTORS
330
1E8
102
}
330
1E8
100
AcDbScale
 70
     0
300
1'-0" = 1'-0"
140
12.0
141
12.0
290
     0
  0
TABLESTYLE
  5
1EB
102
{ACAD_XDICTIONARY
360
1EC
102
}
102
{ACAD_REACTORS
330
1E9
102
}
330
1E9
100
AcDbTableStyle
  3
Standard
 70
     0
 71
     0
 40
0.06
 41
0.06
280
     0
281
     0
  7
Standard
140
0.18
170
     2
 62
     0
 63
     7
283
     0
 90
      512
 91
        0
  1

274
    -2
284
     1
 64
     0
275
    -2
285
     1
 65
     0
276
    -2
286
     1
 66
     0
277
    -2
287
     1
 67
     0
278
    -2
288
     1
 68
     0
279
    -2
289
     1
 69
     0
  7
Standard
140
0.25
170
     5
 62
     0
 63
     7
283
     0
 90
      512
 91
        0
  1

274
    -2
284
     1
 64
     0
275
    -2
285
     1
 65
     0
276
    -2
286
     1
 66
     0
277
    -2
287
     1
 67
     0
278
    -2
288
     1
 68
     0
279
    -2
289
     1
 69
     0
  7
Standard
140
0.18
170
     5
 62
     0
 63
     7
283
     0
 90
      512
 91
        0
  1

274
    -2
284
     1
 64
     0
275
    -2
285
     1
 65
     0
276
    -2
286
     1
 66
     0
277
    -2
287
     1
 67
     0
278
    -2
288
     1
 68
     0
279
    -2
289
     1
 69
     0
  0
VISUALSTYLE
  5
1CD
102
{ACAD_REACTORS
330
1CE
102
}
330
1CE
100
AcDbVisualStyle
  2
2dWireframe
 70
     4
 71
     0
 72
     2
 73
     0
 90
        0
 40
-0.6
 41
-30.0
 62
     5
 63
     7
 74
     1
 91
        4
 64
     7
 65
   257
 75
     1
175
     1
 42
1.0
 92
        0
 66
   257
 43
1.0
 76
     1
 77
     6
 78
     2
 67
     7
 79
     5
170
     0
171
     0
290
     0
174
     0
 93
        1
 44
0.0
173
     0
291
     0
 45
0.0
1001
ACAD
1000
AcDbSavedByObjectVersion
1070
     0
1000
AcDbSavedByObjectVersion
1070
     0
1000
AcDbSavedByObjectVersion
1070
     0
1000
AcDbSavedByObjectVersion
1070
     0
1000
AcDbSavedByObjectVersion
1070
     0
1000
AcDbSavedByObjectVersion
1070
     0
1000
AcDbSavedByObjectVersion
1070
     0
1000
AcDbSavedByObjectVersion
1070
     0
1000
AcDbSavedByObjectVersion
1070
     0
1000
AcDbSavedByObjectVersion
1070
     0
1000
AcDbSavedByObjectVersion
1070
     0
1000
AcDbSavedByObjectVersion
1070
     0
1000
AcDbSavedByObjectVersion
1070
     0
1000
AcDbSavedByObjectVersion
1070
     0
1000
AcDbSavedByObjectVersion
1070
     0
1000
AcDbSavedByObjectVersion
1070
     0
1000
AcDbSavedByObjectVersion
1070
     0
1000
AcDbSavedByObjectVersion
1070
     0
1000
AcDbSavedByObjectVersion
1070
     0
1000
AcDbSavedByObjectVersion
1070
     0
1000
AcDbSavedByObjectVersion
1070
     0
1000
AcDbSavedByObjectVersion
1070
     0
1000
AcDbSavedByObjectVersion
1070
     0
1000
AcDbSavedByObjectVersion
1070
     0
1000
AcDbSavedByObjectVersion
1070
     0
1000
AcDbSavedByObjectVersion
1070
     0
1000
AcDbSavedByObjectVersion
1070
     0
1000
AcDbSavedByObjectVersion
1070
     0
1000
AcDbSavedByObjectVersion
1070
     0
1000
AcDbSavedByObjectVersion
1070
     0
1000
AcDbSavedByObjectVersion
1070
     0
1000
AcDbSavedByObjectVersion
1070
     0
  0
VISUALSTYLE
  5
243
102
{ACAD_REACTORS
330
1CE
102
}
330
1CE
100
AcDbVisualStyle
  2
3D Hidden
 70
     6
 71
     1
 72
     2
 73
     2
 90
        0
 40
-0.6
 41
-30.0
 62
     5
 63
     7
 74
     2
 91
        2
 64
     7
 65
   257
 75
     2
175
     1
 42
40.0
 92
        0
 66
   257
 43
1.0
 76
     1
 77
     6
 78
     2
 67
     7
 79
     3
170
     0
171
     0
290
     0
174
     0
 93
        1
 44
0.0
173
     0
291
     0
 45
0.0
1001
ACAD
1000
AcDbSavedByObjectVersion
1070
     0
1000
AcDbSavedByObjectVersion
1070
     0
1000
AcDbSavedByObjectVersion
1070
     0
  0
VISUALSTYLE
  5
1EE
102
{ACAD_REACTORS
330
1CE
102
}
330
1CE
100
AcDbVisualStyle
  2
3dWireframe
 70
     5
 71
     0
 72
     2
 73
     0
 90
        0
 40
-0.6
 41
-30.0
 62
     5
 63
     7
 74
     1
 91
        4
 64
     7
 65
   257
 75
     1
175
     1
 42
1.0
 92
        0
 66
   257
 43
1.0
 76
     1
 77
     6
 78
     2
 67
     7
 79
     5
170
     0
171
     0
290
     0
174
     0
 93
        1
 44
0.0
173
     0
291
     0
 45
0.0
1001
ACAD
1000
AcDbSavedByObjectVersion
1070
     0
1000
AcDbSavedByObjectVersion
1070
     0
1000
AcDbSavedByObjectVersion
1070
     0
1000
AcDbSavedByObjectVersion
1070
     0
1000
AcDbSavedByObjectVersion
1070
     0
1000
AcDbSavedByObjectVersion
1070
     0
1000
AcDbSavedByObjectVersion
1070
     0
1000
AcDbSavedByObjectVersion
1070
     0
1000
AcDbSavedByObjectVersion
1070
     0
1000
AcDbSavedByObjectVersion
1070
     0
1000
AcDbSavedByObjectVersion
1070
     0
1000
AcDbSavedByObjectVersion
1070
     0
1000
AcDbSavedByObjectVersion
1070
     0
1000
AcDbSavedByObjectVersion
1070
     0
1000
AcDbSavedByObjectVersion
1070
     0
1000
AcDbSavedByObjectVersion
1070
     0
1000
AcDbSavedByObjectVersion
1070
     0
1000
AcDbSavedByObjectVersion
1070
     0
1000
AcDbSavedByObjectVersion
1070
     0
1000
AcDbSavedByObjectVersion
1070
     0
1000
AcDbSavedByObjectVersion
1070
     0
1000
AcDbSavedByObjectVersion
1070
     0
1000
AcDbSavedByObjectVersion
1070
     0
1000
AcDbSavedByObjectVersion
1070
     0
1000
AcDbSavedByObjectVersion
1070
     0
1000
AcDbSavedByObjectVersion
1070
     0
1000
AcDbSavedByObjectVersion
1070
     0
1000
AcDbSavedByObjectVersion
1070
     0
1000
AcDbSavedByObjectVersion
1070
     0
1000
AcDbSavedByObjectVersion
1070
     0
1000
AcDbSavedByObjectVersion
1070
     0
1000
AcDbSavedByObjectVersion
1070
     0
  0
VISUALSTYLE
  5
242
102
{ACAD_REACTORS
330
1CE
102
}
330
1CE
100
AcDbVisualStyle
  2
Basic
 70
     7
 71
     1
 72
     0
 73
     1
 90
        0
 40
-0.6
 41
-30.0
 62
     5
 63
     7
 74
     0
 91
        4
 64
     7
 65
   257
 75
     1
175
     1
 42
1.0
 92
        8
 66
     7
 43
1.0
 76
     1
 77
     6
 78
     2
 67
     7
 79
     5
170
     0
171
     0
290
     0
174
     0
 93
        1
 44
0.0
173
     0
291
     1
 45
0.0
1001
ACAD
1000
AcDbSavedByObjectVersion
1070
     0
1000
AcDbSavedByObjectVersion
1070
     0
1000
AcDbSavedByObjectVersion
1070
     0
  0
VISUALSTYLE
  5
246
102
{ACAD_REACTORS
330
1CE
102
}
330
1CE
100
AcDbVisualStyle
  2
Brighten
 70
    12
 71
     2
 72
     2
 73
     0
 90
        0
 40
-0.6
 41
-30.0
 62
     5
 63
     7
 74
     1
 91
        4
 64
     7
 65
   257
 75
     1
175
     1
 42
1.0
 92
        8
 66
     7
 43
1.0
 76
     1
 77
     6
 78
     2
 67
     7
 79
     5
170
     0
171
     0
290
     0
174
     0
 93
        1
 44
50.0
173
     0
291
     1
 45
0.0
1001
ACAD
1000
AcDbSavedByObjectVersion
1070
     0
1000
AcDbSavedByObjectVersion
1070
     0
1000
AcDbSavedByObjectVersion
1070
     0
  0
VISUALSTYLE
  5
24A
102
{ACAD_REACTORS
330
1CE
102
}
330
1CE
100
AcDbVisualStyle
  2
ColorChange
 70
    16
 71
     2
 72
     2
 73
     3
 90
        0
 40
-0.6
 41
-30.0
 62
     5
 63
     8
 74
     1
 91
        4
 64
     7
 65
   257
 75
     1
175
     1
 42
1.0
 92
        8
 66
     8
 43
1.0
 76
     1
 77
     6
 78
     2
 67
     7
 79
     5
170
     0
171
     0
290
     0
174
     0
 93
        1
 44
0.0
173
     0
291
     1
 45
0.0
1001
ACAD
1000
AcDbSavedByObjectVersion
1070
     0
1000
AcDbSavedByObjectVersion
1070
     0
1000
AcDbSavedByObjectVersion
1070
     0
  0
VISUALSTYLE
  5
244
102
{ACAD_REACTORS
330
1CE
102
}
330
1CE
100
AcDbVisualStyle
  2
Conceptual
 70
     9
 71
     3
 72
     2
 73
     0
 90
        0
 40
-0.6
 41
-30.0
 62
     5
 63
     7
 74
     2
 91
        2
 64
     7
 65
   257
 75
     1
175
     1
 42
40.0
 92
        8
 66
     7
 43
1.0
 76
     1
 77
     6
 78
     2
 67
     7
 79
     3
170
     0
171
     0
290
     0
174
     0
 93
        1
 44
0.0
173
     0
291
     0
 45
0.0
1001
ACAD
1000
AcDbSavedByObjectVersion
1070
     0
1000
AcDbSavedByObjectVersion
1070
     0
1000
AcDbSavedByObjectVersion
1070
     0
  0
VISUALSTYLE
  5
245
102
{ACAD_REACTORS
330
1CE
102
}
330
1CE
100
AcDbVisualStyle
  2
Dim
 70
    11
 71
     2
 72
     2
 73
     0
 90
        0
 40
-0.6
 41
-30.0
 62
     5
 63
     7
 74
     1
 91
        4
 64
     7
 65
   257
 75
     1
175
     1
 42
1.0
 92
        8
 66
     7
 43
1.0
 76
     1
 77
     6
 78
     2
 67
     7
 79
     5
170
     0
171
     0
290
     0
174
     0
 93
        1
 44
-50.0
173
     0
291
     1
 45
0.0
1001
ACAD
1000
AcDbSavedByObjectVersion
1070
     0
1000
AcDbSavedByObjectVersion
1070
     0
1000
AcDbSavedByObjectVersion
1070
     0
  0
VISUALSTYLE
  5
249
102
{ACAD_REACTORS
330
1CE
102
}
330
1CE
100
AcDbVisualStyle
  2
Facepattern
 70
    15
 71
     2
 72
     2
 73
     0
 90
        0
 40
-0.6
 41
-30.0
 62
     5
 63
     7
 74
     1
 91
        4
 64
     7
 65
   257
 75
     1
175
     1
 42
1.0
 92
        8
 66
     7
 43
1.0
 76
     1
 77
     6
 78
     2
 67
     7
 79
     5
170
     0
171
     0
290
     0
174
     0
 93
        1
 44
0.0
173
     0
291
     1
 45
0.0
1001
ACAD
1000
AcDbSavedByObjectVersion
1070
     0
1000
AcDbSavedByObjectVersion
1070
     0
1000
AcDbSavedByObjectVersion
1070
     0
  0
VISUALSTYLE
  5
23E
102
{ACAD_REACTORS
330
1CE
102
}
330
1CE
100
AcDbVisualStyle
  2
Flat
 70
     0
 71
     2
 72
     1
 73
     1
 90
        2
 40
-0.6
 41
30.0
 62
     5
 63
     7
 74
     0
 91
        4
 64
     7
 65
   257
 75
     1
175
     1
 42
1.0
 92
        8
 66
     7
 43
1.0
 76
     1
 77
     6
 78
     2
 67
     7
 79
     5
170
     0
171
     0
290
     0
174
     0
 93
       13
 44
0.0
173
     0
291
     1
 45
0.0
1001
ACAD
1000
AcDbSavedByObjectVersion
1070
     0
1000
AcDbSavedByObjectVersion
1070
     0
1000
AcDbSavedByObjectVersion
1070
     0
  0
VISUALSTYLE
  5
23F
102
{ACAD_REACTORS
330
1CE
102
}
330
1CE
100
AcDbVisualStyle
  2
FlatWithEdges
 70
     1
 71
     2
 72
     1
 73
     1
 90
        2
 40
-0.6
 41
30.0
 62
     5
 63
     7
 74
     1
 91
        4
 64
     7
 65
   257
 75
     1
175
     1
 42
1.0
 92
        0
 66
   257
 43
1.0
 76
     1
 77
     6
 78
     2
 67
     7
 79
     5
170
     0
171
     0
290
     0
174
     0
 93
       13
 44
0.0
173
     0
291
     1
 45
0.0
1001
ACAD
1000
AcDbSavedByObjectVersion
1070
     0
1000
AcDbSavedByObjectVersion
1070
     0
1000
AcDbSavedByObjectVersion
1070
     0
  0
VISUALSTYLE
  5
240
102
{ACAD_REACTORS
330
1CE
102
}
330
1CE
100
AcDbVisualStyle
  2
Gouraud
 70
     2
 71
     2
 72
     2
 73
     1
 90
        2
 40
-0.6
 41
30.0
 62
     5
 63
     7
 74
     0
 91
        4
 64
     7
 65
   257
 75
     1
175
     1
 42
1.0
 92
        0
 66
     7
 43
1.0
 76
     1
 77
     6
 78
     2
 67
     7
 79
     5
170
     0
171
     0
290
     0
174
     0
 93
       13
 44
0.0
173
     0
291
     1
 45
0.0
1001
ACAD
1000
AcDbSavedByObjectVersion
1070
     0
1000
AcDbSavedByObjectVersion
1070
     0
1000
AcDbSavedByObjectVersion
1070
     0
  0
VISUALSTYLE
  5
241
102
{ACAD_REACTORS
330
1CE
102
}
330
1CE
100
AcDbVisualStyle
  2
GouraudWithEdges
 70
     3
 71
     2
 72
     2
 73
     1
 90
        2
 40
-0.6
 41
30.0
 62
     5
 63
     7
 74
     1
 91
        4
 64
     7
 65
   257
 75
     1
175
     1
 42
1.0
 92
        0
 66
   257
 43
1.0
 76
     1
 77
     6
 78
     2
 67
     7
 79
     5
170
     0
171
     0
290
     0
174
     0
 93
       13
 44
0.0
173
     0
291
     1
 45
0.0
1001
ACAD
1000
AcDbSavedByObjectVersion
1070
     0
1000
AcDbSavedByObjectVersion
1070
     0
1000
AcDbSavedByObjectVersion
1070
     0
  0
VISUALSTYLE
  5
248
102
{ACAD_REACTORS
330
1CE
102
}
330
1CE
100
AcDbVisualStyle
  2
Linepattern
 70
    14
 71
     2
 72
     2
 73
     0
 90
        0
 40
-0.6
 41
-30.0
 62
     5
 63
     7
 74
     1
 91
        4
 64
     7
 65
   257
 75
     7
175
     7
 42
1.0
 92
        8
 66
     7
 43
1.0
 76
     1
 77
     6
 78
     2
 67
     7
 79
     5
170
     0
171
     0
290
     0
174
     0
 93
        1
 44
0.0
173
     0
291
     1
 45
0.0
1001
ACAD
1000
AcDbSavedByObjectVersion
1070
     0
1000
AcDbSavedByObjectVersion
1070
     0
1000
AcDbSavedByObjectVersion
1070
     0
  0
VISUALSTYLE
  5
1ED
102
{ACAD_REACTORS
330
1CE
102
}
330
1CE
100
AcDbVisualStyle
  2
Realistic
 70
     8
 71
     2
 72
     2
 73
     0
 90
        0
 40
-0.6
 41
-30.0
 62
     5
 63
     7
 74
     1
 91
        0
 64
     7
 65
   257
 75
     1
175
     1
 42
1.0
 92
        8
 66
     8
 43
1.0
 76
     1
 77
     6
 78
     2
 67
     7
 79
     5
170
     0
171
     0
290
     0
174
     0
 93
       13
 44
0.0
173
     0
291
     0
 45
0.0
1001
ACAD
1000
AcDbSavedByObjectVersion
1070
     0
1000
AcDbSavedByObjectVersion
1070
     0
1000
AcDbSavedByObjectVersion
1070
     0
1000
AcDbSavedByObjectVersion
1070
     0
1000
AcDbSavedByObjectVersion
1070
     0
1000
AcDbSavedByObjectVersion
1070
     0
1000
AcDbSavedByObjectVersion
1070
     0
1000
AcDbSavedByObjectVersion
1070
     0
1000
AcDbSavedByObjectVersion
1070
     0
1000
AcDbSavedByObjectVersion
1070
     0
1000
AcDbSavedByObjectVersion
1070
     0
1000
AcDbSavedByObjectVersion
1070
     0
1000
AcDbSavedByObjectVersion
1070
     0
1000
AcDbSavedByObjectVersion
1070
     0
1000
AcDbSavedByObjectVersion
1070
     0
1000
AcDbSavedByObjectVersion
1070
     0
1000
AcDbSavedByObjectVersion
1070
     0
1000
AcDbSavedByObjectVersion
1070
     0
1000
AcDbSavedByObjectVersion
1070
     0
1000
AcDbSavedByObjectVersion
1070
     0
1000
AcDbSavedByObjectVersion
1070
     0
1000
AcDbSavedByObjectVersion
1070
     0
1000
AcDbSavedByObjectVersion
1070
     0
1000
AcDbSavedByObjectVersion
1070
     0
1000
AcDbSavedByObjectVersion
1070
     0
1000
AcDbSavedByObjectVersion
1070
     0
1000
AcDbSavedByObjectVersion
1070
     0
1000
AcDbSavedByObjectVersion
1070
     0
1000
AcDbSavedByObjectVersion
1070
     0
1000
AcDbSavedByObjectVersion
1070
     0
1000
AcDbSavedByObjectVersion
1070
     0
1000
AcDbSavedByObjectVersion
1070
     0
  0
VISUALSTYLE
  5
247
102
{ACAD_REACTORS
330
1CE
102
}
330
1CE
100
AcDbVisualStyle
  2
Thicken
 70
    13
 71
     2
 72
     2
 73
     0
 90
        0
 40
-0.6
 41
-30.0
 62
     5
 63
     7
 74
     1
 91
        4
 64
     7
 65
   257
 75
     1
175
     1
 42
1.0
 92
       12
 66
     7
 43
1.0
 76
     1
 77
     6
 78
     2
 67
     7
 79
     5
170
     0
171
     0
290
     0
174
     0
 93
        1
 44
0.0
173
     0
291
     1
 45
0.0
1001
ACAD
1000
AcDbSavedByObjectVersion
1070
     0
1000
AcDbSavedByObjectVersion
1070
     0
1000
AcDbSavedByObjectVersion
1070
     0
  0
DICTIONARYVAR
  5
214
102
{ACAD_REACTORS
330
211
102
}
330
211
100
DictionaryVariables
280
     0
  1
1:1
  0
DICTIONARYVAR
  5
213
102
{ACAD_REACTORS
330
211
102
}
330
211
100
DictionaryVariables
280
     0
  1
STANDARD
  0
DICTIONARYVAR
  5
212
102
{ACAD_REACTORS
330
211
102
}
330
211
100
DictionaryVariables
280
     0
  1
STANDARD
  0
DICTIONARYVAR
  5
6CD
102
{ACAD_REACTORS
330
211
102
}
330
211
100
DictionaryVariables
280
     0
  1
1
  0
DICTIONARYVAR
  5
6CC
102
{ACAD_REACTORS
330
211
102
}
330
211
100
DictionaryVariables
280
     0
  1
1
  0
DICTIONARYVAR
  5
6CB
102
{ACAD_REACTORS
330
211
102
}
330
211
100
DictionaryVariables
280
     0
  1
0
  0
DICTIONARYVAR
  5
215
102
{ACAD_REACTORS
330
211
102
}
330
211
100
DictionaryVariables
280
     0
  1
0
  0
DICTIONARYVAR
  5
6C9
102
{ACAD_REACTORS
330
211
102
}
330
211
100
DictionaryVariables
280
     0
  1
1
  0
DICTIONARYVAR
  5
6CA
102
{ACAD_REACTORS
330
211
102
}
330
211
100
DictionaryVariables
280
     0
  1
127
  0
DICTIONARY
  5
1E0
330
1DF
100
AcDbDictionary
280
     1
281
     1
  3
ACAD_XREC_ROUNDTRIP
360
6F4
  3
BUMPTILE
360
1E1
  3
DIFFUSETILE
360
1E2
  3
OPACITYTILE
360
1E3
  3
REFLECTIONTILE
360
1E4
  3
REFRACTIONTILE
360
1E5
  3
SPECULARTILE
360
1E6
  0
DICTIONARY
  5
1D8
330
1D7
100
AcDbDictionary
280
     1
281
     1
  3
ACAD_XREC_ROUNDTRIP
360
6F3
  3
BUMPTILE
360
1D9
  3
DIFFUSETILE
360
1DA
  3
OPACITYTILE
360
1DB
  3
REFLECTIONTILE
360
1DC
  3
REFRACTIONTILE
360
1DD
  3
SPECULARTILE
360
1DE
  0
DICTIONARY
  5
E
330
C
100
AcDbDictionary
280
     1
281
     1
  3
ACAD_XREC_ROUNDTRIP
360
6EC
  3
BUMPTILE
360
F
  3
DIFFUSETILE
360
10
  3
OPACITYTILE
360
11
  3
REFLECTIONTILE
360
12
  3
REFRACTIONTILE
360
13
  3
SPECULARTILE
360
14
  0
DICTIONARY
  5
1EC
330
1EB
100
AcDbDictionary
280
     1
281
     1
  3
ACAD_ROUNDTRIP_2008_TABLESTYLE_CELLSTYLEMAP
360
D89
  0
XRECORD
  5
6F4
102
{ACAD_REACTORS
330
1E0
102
}
330
1E0
100
AcDbXrecord
280
     1
102
MATERIAL
148
0.0
149
0.0
149
0.0
 93
        0
 94
      127
282
     0
 72
     0
 77
     0
171
     0
175
     0
179
     0
273
     0
  0
XRECORD
  5
1E1
102
{ACAD_REACTORS
330
1E0
102
}
330
1E0
100
AcDbXrecord
280
     1
270
     1
271
     1
  0
XRECORD
  5
1E2
102
{ACAD_REACTORS
330
1E0
102
}
330
1E0
100
AcDbXrecord
280
     1
270
     1
271
     1
  0
XRECORD
  5
1E3
102
{ACAD_REACTORS
330
1E0
102
}
330
1E0
100
AcDbXrecord
280
     1
270
     1
271
     1
  0
XRECORD
  5
1E4
102
{ACAD_REACTORS
330
1E0
102
}
330
1E0
100
AcDbXrecord
280
     1
270
     1
271
     1
  0
XRECORD
  5
1E5
102
{ACAD_REACTORS
330
1E0
102
}
330
1E0
100
AcDbXrecord
280
     1
270
     1
271
     1
  0
XRECORD
  5
1E6
102
{ACAD_REACTORS
330
1E0
102
}
330
1E0
100
AcDbXrecord
280
     1
270
     1
271
     1
  0
XRECORD
  5
6F3
102
{ACAD_REACTORS
330
1D8
102
}
330
1D8
100
AcDbXrecord
280
     1
102
MATERIAL
148
0.0
149
0.0
149
0.0
 93
        0
 94
      127
282
     0
 72
     0
 77
     0
171
     0
175
     0
179
     0
273
     0
  0
XRECORD
  5
1D9
102
{ACAD_REACTORS
330
1D8
102
}
330
1D8
100
AcDbXrecord
280
     1
270
     1
271
     1
  0
XRECORD
  5
1DA
102
{ACAD_REACTORS
330
1D8
102
}
330
1D8
100
AcDbXrecord
280
     1
270
     1
271
     1
  0
XRECORD
  5
1DB
102
{ACAD_REACTORS
330
1D8
102
}
330
1D8
100
AcDbXrecord
280
     1
270
     1
271
     1
  0
XRECORD
  5
1DC
102
{ACAD_REACTORS
330
1D8
102
}
330
1D8
100
AcDbXrecord
280
     1
270
     1
271
     1
  0
XRECORD
  5
1DD
102
{ACAD_REACTORS
330
1D8
102
}
330
1D8
100
AcDbXrecord
280
     1
270
     1
271
     1
  0
XRECORD
  5
1DE
102
{ACAD_REACTORS
330
1D8
102
}
330
1D8
100
AcDbXrecord
280
     1
270
     1
271
     1
  0
XRECORD
  5
6EC
102
{ACAD_REACTORS
330
E
102
}
330
E
100
AcDbXrecord
280
     1
102
MATERIAL
148
0.0
149
0.0
149
0.0
 93
        0
 94
      127
282
     0
 72
     0
 77
     0
171
     0
175
     0
179
     0
273
     0
  0
XRECORD
  5
F
102
{ACAD_REACTORS
330
E
102
}
330
E
100
AcDbXrecord
280
     1
270
     1
271
     1
  0
XRECORD
  5
10
102
{ACAD_REACTORS
330
E
102
}
330
E
100
AcDbXrecord
280
     1
270
     1
271
     1
  0
XRECORD
  5
11
102
{ACAD_REACTORS
330
E
102
}
330
E
100
AcDbXrecord
280
     1
270
     1
271
     1
  0
XRECORD
  5
12
102
{ACAD_REACTORS
330
E
102
}
330
E
100
AcDbXrecord
280
     1
270
     1
271
     1
  0
XRECORD
  5
13
102
{ACAD_REACTORS
330
E
102
}
330
E
100
AcDbXrecord
280
     1
270
     1
271
     1
  0
XRECORD
  5
14
102
{ACAD_REACTORS
330
E
102
}
330
E
100
AcDbXrecord
280
     1
270
     1
271
     1
  0
CELLSTYLEMAP
  5
D89
102
{ACAD_REACTORS
330
1EC
102
}
330
1EC
100
AcDbCellStyleMap
 90
        3
300
CELLSTYLE
  1
TABLEFORMAT_BEGIN
 90
        5
170
     1
 91
        0
 92
    32768
 62
   257
 93
        1
300
CONTENTFORMAT
  1
CONTENTFORMAT_BEGIN
 90
        0
 91
        0
 92
      512
 93
        0
300

 40
0.0
140
1.0
 94
        5
 62
     0
340
42
144
0.25
309
CONTENTFORMAT_END
171
     1
301
MARGIN
  1
CELLMARGIN_BEGIN
 40
0.06
 40
0.06
 40
0.06
 40
0.06
 40
0.18
 40
0.18
309
CELLMARGIN_END
 94
        6
 95
        1
302
GRIDFORMAT
  1
GRIDFORMAT_BEGIN
 90
        0
 91
        1
 62
     0
 92
       -2
340
0
 93
        0
 40
0.045
309
GRIDFORMAT_END
 95
        2
302
GRIDFORMAT
  1
GRIDFORMAT_BEGIN
 90
        0
 91
        1
 62
     0
 92
       -2
340
0
 93
        0
 40
0.045
309
GRIDFORMAT_END
 95
        4
302
GRIDFORMAT
  1
GRIDFORMAT_BEGIN
 90
        0
 91
        1
 62
     0
 92
       -2
340
0
 93
        0
 40
0.045
309
GRIDFORMAT_END
 95
        8
302
GRIDFORMAT
  1
GRIDFORMAT_BEGIN
 90
        0
 91
        1
 62
     0
 92
       -2
340
0
 93
        0
 40
0.045
309
GRIDFORMAT_END
 95
       16
302
GRIDFORMAT
  1
GRIDFORMAT_BEGIN
 90
        0
 91
        1
 62
     0
 92
       -2
340
0
 93
        0
 40
0.045
309
GRIDFORMAT_END
 95
       32
302
GRIDFORMAT
  1
GRIDFORMAT_BEGIN
 90
        0
 91
        1
 62
     0
 92
       -2
340
0
 93
        0
 40
0.045
309
GRIDFORMAT_END
309
TABLEFORMAT_END
  1
CELLSTYLE_BEGIN
 90
        1
 91
        1
300
_TITLE
309
CELLSTYLE_END
300
CELLSTYLE
  1
TABLEFORMAT_BEGIN
 90
        5
170
     1
 91
        0
 92
        0
 62
   257
 93
        1
300
CONTENTFORMAT
  1
CONTENTFORMAT_BEGIN
 90
        0
 91
        0
 92
      512
 93
        0
300

 40
0.0
140
1.0
 94
        5
 62
     0
340
42
144
0.18
309
CONTENTFORMAT_END
171
     1
301
MARGIN
  1
CELLMARGIN_BEGIN
 40
0.06
 40
0.06
 40
0.06
 40
0.06
 40
0.18
 40
0.18
309
CELLMARGIN_END
 94
        6
 95
        1
302
GRIDFORMAT
  1
GRIDFORMAT_BEGIN
 90
        0
 91
        1
 62
     0
 92
       -2
340
0
 93
        0
 40
0.045
309
GRIDFORMAT_END
 95
        2
302
GRIDFORMAT
  1
GRIDFORMAT_BEGIN
 90
        0
 91
        1
 62
     0
 92
       -2
340
0
 93
        0
 40
0.045
309
GRIDFORMAT_END
 95
        4
302
GRIDFORMAT
  1
GRIDFORMAT_BEGIN
 90
        0
 91
        1
 62
     0
 92
       -2
340
0
 93
        0
 40
0.045
309
GRIDFORMAT_END
 95
        8
302
GRIDFORMAT
  1
GRIDFORMAT_BEGIN
 90
        0
 91
        1
 62
     0
 92
       -2
340
0
 93
        0
 40
0.045
309
GRIDFORMAT_END
 95
       16
302
GRIDFORMAT
  1
GRIDFORMAT_BEGIN
 90
        0
 91
        1
 62
     0
 92
       -2
340
0
 93
        0
 40
0.045
309
GRIDFORMAT_END
 95
       32
302
GRIDFORMAT
  1
GRIDFORMAT_BEGIN
 90
        0
 91
        1
 62
     0
 92
       -2
340
0
 93
        0
 40
0.045
309
GRIDFORMAT_END
309
TABLEFORMAT_END
  1
CELLSTYLE_BEGIN
 90
        2
 91
        1
300
_HEADER
309
CELLSTYLE_END
300
CELLSTYLE
  1
TABLEFORMAT_BEGIN
 90
        5
170
     1
 91
        0
 92
        0
 62
   257
 93
        1
300
CONTENTFORMAT
  1
CONTENTFORMAT_BEGIN
 90
        0
 91
        0
 92
      512
 93
        0
300

 40
0.0
140
1.0
 94
        2
 62
     0
340
42
144
0.18
309
CONTENTFORMAT_END
171
     1
301
MARGIN
  1
CELLMARGIN_BEGIN
 40
0.06
 40
0.06
 40
0.06
 40
0.06
 40
0.18
 40
0.18
309
CELLMARGIN_END
 94
        6
 95
        1
302
GRIDFORMAT
  1
GRIDFORMAT_BEGIN
 90
        0
 91
        1
 62
     0
 92
       -2
340
0
 93
        0
 40
0.045
309
GRIDFORMAT_END
 95
        2
302
GRIDFORMAT
  1
GRIDFORMAT_BEGIN
 90
        0
 91
        1
 62
     0
 92
       -2
340
0
 93
        0
 40
0.045
309
GRIDFORMAT_END
 95
        4
302
GRIDFORMAT
  1
GRIDFORMAT_BEGIN
 90
        0
 91
        1
 62
     0
 92
       -2
340
0
 93
        0
 40
0.045
309
GRIDFORMAT_END
 95
        8
302
GRIDFORMAT
  1
GRIDFORMAT_BEGIN
 90
        0
 91
        1
 62
     0
 92
       -2
340
0
 93
        0
 40
0.045
309
GRIDFORMAT_END
 95
       16
302
GRIDFORMAT
  1
GRIDFORMAT_BEGIN
 90
        0
 91
        1
 62
     0
 92
       -2
340
0
 93
        0
 40
0.045
309
GRIDFORMAT_END
 95
       32
302
GRIDFORMAT
  1
GRIDFORMAT_BEGIN
 90
        0
 91
        1
 62
     0
 92
       -2
340
0
 93
        0
 40
0.045
309
GRIDFORMAT_END
309
TABLEFORMAT_END
  1
CELLSTYLE_BEGIN
 90
        3
 91
        2
300
_DATA
309
CELLSTYLE_END
  0
ENDSEC
  0
EOF
