  0
SECTION
  2
HEADER
  9
$ACADVER
  1
AC1021
  9
$ACADMAINTVER
 70
    25
  9
$DWGCODEPAGE
  3
ANSI_936
  9
$LASTSAVEDBY
  1
zb.ye
  9
$INSBASE
 10
0.0
 20
0.0
 30
0.0
  9
$EXTMIN
 10
771.9361129354552
 20
180.8431272088319
 30
-0.0000000349181948
  9
$EXTMAX
 10
846.2784939269868
 20
233.4217663134157
 30
0.0000000814935746
  9
$LIMMIN
 10
0.0
 20
0.0
  9
$LIMMAX
 10
12.0
 20
9.0
  9
$ORTHOMODE
 70
     0
  9
$REGENMODE
 70
     1
  9
$FILLMODE
 70
     1
  9
$QTEXTMODE
 70
     0
  9
$MIRRTEXT
 70
     1
  9
$LTSCALE
 40
1.0
  9
$ATTMODE
 70
     1
  9
$TEXTSIZE
 40
0.2
  9
$TRACEWID
 40
0.05
  9
$TEXTSTYLE
  7
Standard
  9
$CLAYER
  8
0
  9
$CELTYPE
  6
ByLayer
  9
$CECOLOR
 62
   256
  9
$CELTSCALE
 40
1.0
  9
$DISPSILH
 70
     0
  9
$DIMSCALE
 40
1.0
  9
$DIMASZ
 40
1.5
  9
$DIMEXO
 40
0.2
  9
$DIMDLI
 40
0.2
  9
$DIMRND
 40
0.0
  9
$DIMDLE
 40
0.0
  9
$DIMEXE
 40
0.5
  9
$DIMTP
 40
0.0
  9
$DIMTM
 40
0.0
  9
$DIMTXT
 40
2.0
  9
$DIMCEN
 40
0.0
  9
$DIMTSZ
 40
0.0
  9
$DIMTOL
 70
     0
  9
$DIMLIM
 70
     0
  9
$DIMTIH
 70
     0
  9
$DIMTOH
 70
     0
  9
$DIMSE1
 70
     0
  9
$DIMSE2
 70
     0
  9
$DIMTAD
 70
     1
  9
$DIMZIN
 70
     8
  9
$DIMBLK
  1

  9
$DIMASO
 70
     1
  9
$DIMSHO
 70
     1
  9
$DIMPOST
  1

  9
$DIMAPOST
  1

  9
$DIMALT
 70
     0
  9
$DIMALTD
 70
     2
  9
$DIMALTF
 40
25.4
  9
$DIMLFAC
 40
1.0
  9
$DIMTOFL
 70
     0
  9
$DIMTVP
 40
0.0
  9
$DIMTIX
 70
     0
  9
$DIMSOXD
 70
     0
  9
$DIMSAH
 70
     0
  9
$DIMBLK1
  1

  9
$DIMBLK2
  1

  9
$DIMSTYLE
  2
01
  9
$DIMCLRD
 70
     1
  9
$DIMCLRE
 70
     6
  9
$DIMCLRT
 70
     4
  9
$DIMTFAC
 40
1.0
  9
$DIMGAP
 40
0.5
  9
$DIMJUST
 70
     0
  9
$DIMSD1
 70
     0
  9
$DIMSD2
 70
     0
  9
$DIMTOLJ
 70
     1
  9
$DIMTZIN
 70
     0
  9
$DIMALTZ
 70
     0
  9
$DIMALTTZ
 70
     0
  9
$DIMUPT
 70
     0
  9
$DIMDEC
 70
     1
  9
$DIMTDEC
 70
     1
  9
$DIMALTU
 70
     2
  9
$DIMALTTD
 70
     2
  9
$DIMTXSTY
  7
Romans字体
  9
$DIMAUNIT
 70
     0
  9
$DIMADEC
 70
     2
  9
$DIMALTRND
 40
0.0
  9
$DIMAZIN
 70
     2
  9
$DIMDSEP
 70
    46
  9
$DIMATFIT
 70
     3
  9
$DIMFRAC
 70
     0
  9
$DIMLDRBLK
  1

  9
$DIMLUNIT
 70
     2
  9
$DIMLWD
 70
    -2
  9
$DIMLWE
 70
    -2
  9
$DIMTMOVE
 70
     0
  9
$DIMFXL
 40
1.0
  9
$DIMFXLON
 70
     0
  9
$DIMJOGANG
 40
0.7853981633974483
  9
$DIMTFILL
 70
     0
  9
$DIMTFILLCLR
 70
     0
  9
$DIMARCSYM
 70
     0
  9
$DIMLTYPE
  6

  9
$DIMLTEX1
  6

  9
$DIMLTEX2
  6

  9
$LUNITS
 70
     2
  9
$LUPREC
 70
     4
  9
$SKETCHINC
 40
0.1
  9
$FILLETRAD
 40
0.5
  9
$AUNITS
 70
     0
  9
$AUPREC
 70
     0
  9
$MENU
  1
.
  9
$ELEVATION
 40
0.0
  9
$PELEVATION
 40
0.0
  9
$THICKNESS
 40
0.0
  9
$LIMCHECK
 70
     0
  9
$CHAMFERA
 40
0.5
  9
$CHAMFERB
 40
0.5
  9
$CHAMFERC
 40
1.0
  9
$CHAMFERD
 40
0.0
  9
$SKPOLY
 70
     0
  9
$TDCREATE
 40
2456524.383632987
  9
$TDUCREATE
 40
2456524.050299653
  9
$TDUPDATE
 40
2460287.652434630
  9
$TDUUPDATE
 40
2460287.319101297
  9
$TDINDWG
 40
1.1340521991
  9
$TDUSRTIMER
 40
1.1340331019
  9
$USRTIMER
 70
     1
  9
$ANGBASE
 50
0.0
  9
$ANGDIR
 70
     0
  9
$PDMODE
 70
     0
  9
$PDSIZE
 40
0.0
  9
$PLINEWID
 40
0.0
  9
$SPLFRAME
 70
     0
  9
$SPLINETYPE
 70
     6
  9
$SPLINESEGS
 70
     8
  9
$HANDSEED
  5
582
  9
$SURFTAB1
 70
     6
  9
$SURFTAB2
 70
     6
  9
$SURFTYPE
 70
     6
  9
$SURFU
 70
     6
  9
$SURFV
 70
     6
  9
$UCSBASE
  2

  9
$UCSNAME
  2

  9
$UCSORG
 10
0.0
 20
0.0
 30
0.0
  9
$UCSXDIR
 10
1.0
 20
0.0
 30
0.0
  9
$UCSYDIR
 10
0.0
 20
1.0
 30
0.0
  9
$UCSORTHOREF
  2

  9
$UCSORTHOVIEW
 70
     0
  9
$UCSORGTOP
 10
0.0
 20
0.0
 30
0.0
  9
$UCSORGBOTTOM
 10
0.0
 20
0.0
 30
0.0
  9
$UCSORGLEFT
 10
0.0
 20
0.0
 30
0.0
  9
$UCSORGRIGHT
 10
0.0
 20
0.0
 30
0.0
  9
$UCSORGFRONT
 10
0.0
 20
0.0
 30
0.0
  9
$UCSORGBACK
 10
0.0
 20
0.0
 30
0.0
  9
$PUCSBASE
  2

  9
$PUCSNAME
  2

  9
$PUCSORG
 10
0.0
 20
0.0
 30
0.0
  9
$PUCSXDIR
 10
1.0
 20
0.0
 30
0.0
  9
$PUCSYDIR
 10
0.0
 20
1.0
 30
0.0
  9
$PUCSORTHOREF
  2

  9
$PUCSORTHOVIEW
 70
     0
  9
$PUCSORGTOP
 10
0.0
 20
0.0
 30
0.0
  9
$PUCSORGBOTTOM
 10
0.0
 20
0.0
 30
0.0
  9
$PUCSORGLEFT
 10
0.0
 20
0.0
 30
0.0
  9
$PUCSORGRIGHT
 10
0.0
 20
0.0
 30
0.0
  9
$PUCSORGFRONT
 10
0.0
 20
0.0
 30
0.0
  9
$PUCSORGBACK
 10
0.0
 20
0.0
 30
0.0
  9
$USERI1
 70
     0
  9
$USERI2
 70
     0
  9
$USERI3
 70
     0
  9
$USERI4
 70
     0
  9
$USERI5
 70
     0
  9
$USERR1
 40
0.0
  9
$USERR2
 40
0.0
  9
$USERR3
 40
0.0
  9
$USERR4
 40
0.0
  9
$USERR5
 40
0.0
  9
$WORLDVIEW
 70
     1
  9
$SHADEDGE
 70
     3
  9
$SHADEDIF
 70
    70
  9
$TILEMODE
 70
     1
  9
$MAXACTVP
 70
    64
  9
$PINSBASE
 10
0.0
 20
0.0
 30
0.0
  9
$PLIMCHECK
 70
     0
  9
$PEXTMIN
 10
1.000000000000000E+20
 20
1.000000000000000E+20
 30
1.000000000000000E+20
  9
$PEXTMAX
 10
-1.000000000000000E+20
 20
-1.000000000000000E+20
 30
-1.000000000000000E+20
  9
$PLIMMIN
 10
0.0
 20
0.0
  9
$PLIMMAX
 10
12.0
 20
9.0
  9
$UNITMODE
 70
     0
  9
$VISRETAIN
 70
     1
  9
$PLINEGEN
 70
     0
  9
$PSLTSCALE
 70
     1
  9
$TREEDEPTH
 70
  3020
  9
$CMLSTYLE
  2
Standard
  9
$CMLJUST
 70
     0
  9
$CMLSCALE
 40
1.0
  9
$PROXYGRAPHICS
 70
     1
  9
$MEASUREMENT
 70
     0
  9
$CELWEIGHT
370
    -1
  9
$ENDCAPS
280
     0
  9
$JOINSTYLE
280
     0
  9
$LWDISPLAY
290
     0
  9
$INSUNITS
 70
     4
  9
$HYPERLINKBASE
  1

  9
$STYLESHEET
  1
MONOCHROME.CTB
  9
$XEDIT
290
     1
  9
$CEPSNTYPE
380
     0
  9
$PSTYLEMODE
290
     1
  9
$FINGERPRINTGUID
  2
{C121BEF2-9DE5-4702-94A6-0A37E3864B2E}
  9
$VERSIONGUID
  2
{FB590E65-531C-4776-B722-9915FD3E5CC2}
  9
$EXTNAMES
290
     1
  9
$PSVPSCALE
 40
0.0
  9
$OLESTARTUP
290
     0
  9
$SORTENTS
280
   127
  9
$INDEXCTL
280
     0
  9
$HIDETEXT
280
     1
  9
$XCLIPFRAME
290
     0
  9
$HALOGAP
280
     0
  9
$OBSCOLOR
 70
   257
  9
$OBSLTYPE
280
     0
  9
$INTERSECTIONDISPLAY
280
     0
  9
$INTERSECTIONCOLOR
 70
   257
  9
$DIMASSOC
280
     1
  9
$PROJECTNAME
  1

  9
$CAMERADISPLAY
290
     0
  9
$LENSLENGTH
 40
50.0
  9
$CAMERAHEIGHT
 40
0.0
  9
$STEPSPERSEC
 40
2.0
  9
$STEPSIZE
 40
6.0
  9
$3DDWFPREC
 40
2.0
  9
$PSOLWIDTH
 40
0.25
  9
$PSOLHEIGHT
 40
4.0
  9
$LOFTANG1
 40
1.570795999999999
  9
$LOFTANG2
 40
1.570795999999999
  9
$LOFTMAG1
 40
0.0
  9
$LOFTMAG2
 40
0.0
  9
$LOFTPARAM
 70
     7
  9
$LOFTNORMALS
280
     1
  9
$LATITUDE
 40
37.795
  9
$LONGITUDE
 40
-122.394
  9
$NORTHDIRECTION
 40
0.0
  9
$TIMEZONE
 70
 -8000
  9
$LIGHTGLYPHDISPLAY
280
     1
  9
$TILEMODELIGHTSYNCH
280
     1
  9
$CMATERIAL
347
1E4
  9
$SOLIDHIST
280
     1
  9
$SHOWHIST
280
     1
  9
$DWFFRAME
280
     2
  9
$DGNFRAME
280
     0
  9
$REALWORLDSCALE
290
     1
  9
$INTERFERECOLOR
 62
     1
  9
$INTERFEREOBJVS
345
1FA
  9
$INTERFEREVPVS
346
1FB
  9
$CSHADOW
280
     0
  9
$SHADOWPLANELOCATION
 40
0.0
  0
ENDSEC
  0
SECTION
  2
CLASSES
  0
CLASS
  1
ACDBDICTIONARYWDFLT
  2
AcDbDictionaryWithDefault
  3
ObjectDBX Classes
 90
        0
 91
        1
280
     0
281
     0
  0
CLASS
  1
VISUALSTYLE
  2
AcDbVisualStyle
  3
ObjectDBX Classes
 90
     4095
 91
       16
280
     0
281
     0
  0
CLASS
  1
MATERIAL
  2
AcDbMaterial
  3
ObjectDBX Classes
 90
     1153
 91
        3
280
     0
281
     0
  0
CLASS
  1
TABLESTYLE
  2
AcDbTableStyle
  3
ObjectDBX Classes
 90
     4095
 91
        1
280
     0
281
     0
  0
CLASS
  1
SCALE
  2
AcDbScale
  3
ObjectDBX Classes
 90
     1153
 91
       33
280
     0
281
     0
  0
CLASS
  1
MLEADERSTYLE
  2
AcDbMLeaderStyle
  3
ACDB_MLEADERSTYLE_CLASS
 90
     4095
 91
        1
280
     0
281
     0
  0
CLASS
  1
CELLSTYLEMAP
  2
AcDbCellStyleMap
  3
ObjectDBX Classes
 90
     1152
 91
        2
280
     0
281
     0
  0
CLASS
  1
DICTIONARYVAR
  2
AcDbDictionaryVar
  3
ObjectDBX Classes
 90
        0
 91
       11
280
     0
281
     0
  0
CLASS
  1
SORTENTSTABLE
  2
AcDbSortentsTable
  3
ObjectDBX Classes
 90
        0
 91
        1
280
     0
281
     0
  0
CLASS
  1
ACAD_EVALUATION_GRAPH
  2
AcDbEvalGraph
  3
ObjectDBX Classes
 90
     1153
 91
        1
280
     0
281
     0
  0
CLASS
  1
ACAECUSTOBJ
  2
AcAeEditorObj
  3
AcAeEditorObj
 90
     1024
 91
        1
280
     1
281
     0
  0
CLASS
  1
ACDB_DYNAMICBLOCKPURGEPREVENTER_VERSION
  2
AcDbDynamicBlockPurgePreventer
  3
ObjectDBX Classes
 90
     1153
 91
        1
280
     0
281
     0
  0
CLASS
  1
MENTALRAYRENDERSETTINGS
  2
AcDbMentalRayRenderSettings
  3
SCENEOE
 90
     1024
 91
        0
280
     0
281
     0
  0
CLASS
  1
ACDB_BLOCKREPRESENTATION_DATA
  2
AcDbBlockRepresentationData
  3
ObjectDBX Classes
 90
     1153
 91
        0
280
     0
281
     0
  0
CLASS
  1
DIMASSOC
  2
AcDbDimAssoc
  3
"AcDbDimAssoc|Product Desc:     AcDim ARX App For Dimension|Company:          Autodesk, Inc.|WEB Address:      www.autodesk.com"
 90
        0
 91
        0
280
     0
281
     0
  0
ENDSEC
  0
SECTION
  2
TABLES
  0
TABLE
  2
VPORT
  5
1D8
102
{ACAD_XDICTIONARY
360
1DC
102
}
330
0
100
AcDbSymbolTable
 70
     1
  0
VPORT
  5
1D9
330
1D8
100
AcDbSymbolTableRecord
100
AcDbViewportTableRecord
  2
*Active
 70
     0
 10
0.0
 20
0.0
 11
1.0
 21
1.0
 12
704.1418065593123
 22
58.63021599252596
 13
0.0
 23
0.0
 14
0.5
 24
0.5
 15
0.5
 25
0.5
 16
0.0
 26
0.0
 36
1.0
 17
104.9654968719086
 27
148.5022307685978
 37
0.0
 40
53.11153071713022
 41
2.426395939086294
 42
50.0
 43
0.0
 44
0.0
 50
0.0
 51
0.0
 71
     0
 72
   100
 73
     1
 74
     3
 75
     0
 76
     0
 77
     0
 78
     0
281
     0
 65
     1
110
0.0
120
0.0
130
0.0
111
1.0
121
0.0
131
0.0
112
0.0
122
1.0
132
0.0
 79
     0
146
0.0
348
1DA
 60
     3
 61
     5
292
     1
282
     1
141
0.0
142
0.0
 63
   250
421
  3355443
  0
ENDTAB
  0
TABLE
  2
LTYPE
  5
1D3
330
0
100
AcDbSymbolTable
 70
     2
  0
LTYPE
  5
1D4
330
1D3
100
AcDbSymbolTableRecord
100
AcDbLinetypeTableRecord
  2
ByBlock
 70
     0
  3

 72
    65
 73
     0
 40
0.0
  0
LTYPE
  5
1D5
330
1D3
100
AcDbSymbolTableRecord
100
AcDbLinetypeTableRecord
  2
ByLayer
 70
     0
  3

 72
    65
 73
     0
 40
0.0
  0
LTYPE
  5
15
330
1D3
100
AcDbSymbolTableRecord
100
AcDbLinetypeTableRecord
  2
Continuous
 70
     0
  3
Solid line
 72
    65
 73
     0
 40
0.0
  0
LTYPE
  5
100
330
1D3
100
AcDbSymbolTableRecord
100
AcDbLinetypeTableRecord
  2
CENTER
 70
     0
  3
Center ____ _ ____ _ ____ _ ____ _ ____ _ ____
 72
    65
 73
     4
 40
2.0
 49
1.25
 74
     0
 49
-0.25
 74
     0
 49
0.25
 74
     0
 49
-0.25
 74
     0
  0
ENDTAB
  0
TABLE
  2
LAYER
  5
1CC
102
{ACAD_XDICTIONARY
360
1CD
102
}
330
0
100
AcDbSymbolTable
 70
     8
  0
LAYER
  5
6
102
{ACAD_XDICTIONARY
360
7
102
}
330
1CC
100
AcDbSymbolTableRecord
100
AcDbLayerTableRecord
  2
0
 70
     0
 62
     7
  6
Continuous
370
    30
390
9
347
C
  0
LAYER
  5
17
102
{ACAD_XDICTIONARY
360
18
102
}
330
1CC
100
AcDbSymbolTableRecord
100
AcDbLayerTableRecord
  2
图层 1
 70
     0
 62
     7
  6
Continuous
370
    -3
390
9
347
C
  0
LAYER
  5
25
102
{ACAD_XDICTIONARY
360
26
102
}
330
1CC
100
AcDbSymbolTableRecord
100
AcDbLayerTableRecord
  2
图框
 70
     0
 62
     7
  6
Continuous
370
    20
390
9
347
C
  0
LAYER
  5
12A
330
1CC
100
AcDbSymbolTableRecord
100
AcDbLayerTableRecord
  2
Defpoints
 70
     0
 62
     7
  6
Continuous
290
     0
370
    -3
390
9
347
C
  0
LAYER
  5
E7
330
1CC
100
AcDbSymbolTableRecord
100
AcDbLayerTableRecord
  2
打标文字
 70
     0
 62
     3
  6
Continuous
370
    20
390
9
347
C
  0
LAYER
  5
FF
330
1CC
100
AcDbSymbolTableRecord
100
AcDbLayerTableRecord
  2
CEN
 70
     0
 62
     1
  6
CENTER
370
    15
390
9
347
C
1001
AcAecLayerStandard
1000

1000

  0
LAYER
  5
168
330
1CC
100
AcDbSymbolTableRecord
100
AcDbLayerTableRecord
  2
02___PRT_ALL_AXES
 70
     0
 62
     7
  6
Continuous
370
    -3
390
9
347
C
  0
LAYER
  5
2FD
330
1CC
100
AcDbSymbolTableRecord
100
AcDbLayerTableRecord
  2
DIM
 70
     0
 62
     3
  6
Continuous
370
    15
390
9
347
C
1001
AcAecLayerStandard
1000

1000

  0
ENDTAB
  0
TABLE
  2
STYLE
  5
1D1
330
0
100
AcDbSymbolTable
 70
     4
  0
STYLE
  5
48
330
1D1
100
AcDbSymbolTableRecord
100
AcDbTextStyleTableRecord
  2
Standard
 70
     0
 40
0.0
 41
0.75
 50
0.0
 71
     0
 42
0.2
  3
SIMFANG.TTF
  4

1001
ACAD
1000
FangSong_GB2312
1071
    34353
  0
STYLE
  5
28
330
1D1
100
AcDbSymbolTableRecord
100
AcDbTextStyleTableRecord
  2
Romans字体
 70
     0
 40
0.0
 41
0.75
 50
0.0
 71
     0
 42
0.2
  3
romans.shx
  4

  0
STYLE
  5
4A
330
1D1
100
AcDbSymbolTableRecord
100
AcDbTextStyleTableRecord
  2
工程字
 70
     0
 40
0.0
 41
1.0
 50
0.0
 71
     0
 42
3.5
  3
gbenor.shx
  4
gbcbig.shx
  0
STYLE
  5
4C
330
1D1
100
AcDbSymbolTableRecord
100
AcDbTextStyleTableRecord
  2
Chinese
 70
     0
 40
0.0
 41
1.0
 50
0.0
 71
     0
 42
2.5
  3
PMingLiU.ttf
  4

1001
ACAD
1000
PMingLiU
1071
    34834
  0
ENDTAB
  0
TABLE
  2
VIEW
  5
1D6
330
0
100
AcDbSymbolTable
 70
     0
  0
ENDTAB
  0
TABLE
  2
UCS
  5
1D7
330
0
100
AcDbSymbolTable
 70
     0
  0
ENDTAB
  0
TABLE
  2
APPID
  5
1DD
330
0
100
AcDbSymbolTable
 70
    10
  0
APPID
  5
29
330
1DD
100
AcDbSymbolTableRecord
100
AcDbRegAppTableRecord
  2
ACAD
 70
     0
  0
APPID
  5
37
330
1DD
100
AcDbSymbolTableRecord
100
AcDbRegAppTableRecord
  2
AcDbBlockRepETag
 70
     0
  0
APPID
  5
1C3
330
1DD
100
AcDbSymbolTableRecord
100
AcDbRegAppTableRecord
  2
ACAD_PSEXT
 70
     0
  0
APPID
  5
101
330
1DD
100
AcDbSymbolTableRecord
100
AcDbRegAppTableRecord
  2
AcAecLayerStandard
 70
     0
  0
APPID
  5
12F
330
1DD
100
AcDbSymbolTableRecord
100
AcDbRegAppTableRecord
  2
ACAD_DSTYLE_DIMJAG
 70
     0
  0
APPID
  5
130
330
1DD
100
AcDbSymbolTableRecord
100
AcDbRegAppTableRecord
  2
ACAD_DSTYLE_DIMTALN
 70
     0
  0
APPID
  5
257
330
1DD
100
AcDbSymbolTableRecord
100
AcDbRegAppTableRecord
  2
ACAD_MLEADERVER
 70
     0
  0
APPID
  5
2FE
330
1DD
100
AcDbSymbolTableRecord
100
AcDbRegAppTableRecord
  2
AcDbDynamicBlockGUID
 70
     0
  0
APPID
  5
562
330
1DD
100
AcDbSymbolTableRecord
100
AcDbRegAppTableRecord
  2
ACAUTHENVIRON
 70
     0
  0
APPID
  5
565
330
1DD
100
AcDbSymbolTableRecord
100
AcDbRegAppTableRecord
  2
AcDbDynamicBlockTrueName
 70
     0
  0
ENDTAB
  0
TABLE
  2
DIMSTYLE
  5
1DE
330
0
100
AcDbSymbolTable
 70
     2
100
AcDbDimStyleTable
 71
     2
340
12E
340
1DF
  0
DIMSTYLE
105
1DF
330
1DE
100
AcDbSymbolTableRecord
100
AcDbDimStyleTableRecord
  2
Standard
 70
     0
340
48
  0
DIMSTYLE
105
12E
102
{ACAD_REACTORS
330
11F
330
131
330
13E
330
14C
330
159
102
}
330
1DE
100
AcDbSymbolTableRecord
100
AcDbDimStyleTableRecord
  2
01
 70
     0
 41
1.5
 42
0.2
 43
0.2
 44
0.5
 73
     0
 74
     0
 77
     1
 78
     8
 79
     2
140
2.0
141
0.0
147
0.5
176
     1
177
     6
178
     4
179
     2
271
     1
272
     1
340
28
1001
ACAD_DSTYLE_DIMJAG
1070
   388
1040
1.5
1001
ACAD_DSTYLE_DIMTALN
1070
   392
1070
     0
  0
ENDTAB
  0
TABLE
  2
BLOCK_RECORD
  5
1
330
0
100
AcDbSymbolTable
 70
     8
  0
BLOCK_RECORD
  5
2
102
{ACAD_XDICTIONARY
360
3
102
}
330
1
100
AcDbSymbolTableRecord
100
AcDbBlockTableRecord
  2
*Model_Space
340
1C1
 70
     0
280
     1
281
     0
  0
BLOCK_RECORD
  5
1C4
330
1
100
AcDbSymbolTableRecord
100
AcDbBlockTableRecord
  2
*Paper_Space
340
1C7
 70
     0
280
     1
281
     0
  0
BLOCK_RECORD
  5
1C8
330
1
100
AcDbSymbolTableRecord
100
AcDbBlockTableRecord
  2
*Paper_Space0
340
1CB
 70
     0
280
     1
281
     0
  0
BLOCK_RECORD
  5
264
102
{ACAD_XDICTIONARY
360
561
102
}
330
1
100
AcDbSymbolTableRecord
100
AcDbBlockTableRecord
  2
A4图框-NEW
340
0
310
2800000020000000200000000100080000000000000400000000000000000000000000000000000000000000000080000080000000808000800000008000800080800000C0C0C000C0DCC000F0CAA6000020400000206000002080000020A0000020C0000020E00000400000004020000040400000406000004080000040A0
310
000040C0000040E00000600000006020000060400000606000006080000060A0000060C0000060E00000800000008020000080400000806000008080000080A0000080C0000080E00000A0000000A0200000A0400000A0600000A0800000A0A00000A0C00000A0E00000C0000000C0200000C0400000C0600000C0800000C0
310
A00000C0C00000C0E00000E0000000E0200000E0400000E0600000E0800000E0A00000E0C00000E0E00040000000400020004000400040006000400080004000A0004000C0004000E00040200000402020004020400040206000402080004020A0004020C0004020E000404000004040200040404000404060004040800040
310
40A0004040C0004040E00040600000406020004060400040606000406080004060A0004060C0004060E00040800000408020004080400040806000408080004080A0004080C0004080E00040A0000040A0200040A0400040A0600040A0800040A0A00040A0C00040A0E00040C0000040C0200040C0400040C0600040C08000
310
40C0A00040C0C00040C0E00040E0000040E0200040E0400040E0600040E0800040E0A00040E0C00040E0E00080000000800020008000400080006000800080008000A0008000C0008000E00080200000802020008020400080206000802080008020A0008020C0008020E00080400000804020008040400080406000804080
310
008040A0008040C0008040E00080600000806020008060400080606000806080008060A0008060C0008060E00080800000808020008080400080806000808080008080A0008080C0008080E00080A0000080A0200080A0400080A0600080A0800080A0A00080A0C00080A0E00080C0000080C0200080C0400080C0600080C0
310
800080C0A00080C0C00080C0E00080E0000080E0200080E0400080E0600080E0800080E0A00080E0C00080E0E000C0000000C0002000C0004000C0006000C0008000C000A000C000C000C000E000C0200000C0202000C0204000C0206000C0208000C020A000C020C000C020E000C0400000C0402000C0404000C0406000C0
310
408000C040A000C040C000C040E000C0600000C0602000C0604000C0606000C0608000C060A000C060C000C060E000C0800000C0802000C0804000C0806000C0808000C080A000C080C000C080E000C0A00000C0A02000C0A04000C0A06000C0A08000C0A0A000C0A0C000C0A0E000C0C00000C0C02000C0C04000C0C06000
310
C0C08000C0C0A000F0FBFF00A4A0A000808080000000FF0000FF000000FFFF00FF000000FF00FF00FFFF0000FFFFFF0000000000000000000000000000000000000000000000000000000000000000000000000000000000000000000000000000000000000000000000000000000000000000000000000000000000000000
310
000000000000000000000000000000000000000000000000000000000000000000000000000000000000000000000000000000000000000000000000000000000000000000000000000000000000000000000000000000000000000000000000000000000000000000000000000000000000F9F9F9F9F9F9F9F9F9F9F9F9F9
310
F9F9F9F9F9F9F9F9F9F9F9F9F9F9FF00000000F9FF000000000000000000FFFFFFFFFFFFFFFFFFFFFFFFF9FAFAFAFF00000000F9FF000000000000000000FFFFFFFFFFFFFFFFFFFFFFFFFFFFFFFFFF00000000F9FD000000000000000000FFFFFFFFFFFFFFFFFFFFFFFFFFFFFFFFFF00000000F9FF000000000000000000FF
310
FFFFFFFFFFFFFFFFFFFFFFFFFFFFFFFF00000000F9FD000000000000000000FFFFFFFFFFFFFFFFFFFFFFFFFFFFFFFFFF00000000F9FF00000000000000000000000000000000000000000000000000FF00000000F9FD00000000000000000000000000000000000000000000000000FF00000000F9FF000000000000000000
310
00000000000000000000000000000000FF00000000F9FD00000000000000000000000000000000000000000000000000FF00000000F9FF00000000000000000000000000000000000000000000000000FF00000000F9FD00000000000000000000000000000000000000000000000000FF00000000F9FD0000000000000000
310
0000000000000000000000000000000000FF00000000F9FF00000000000000000000000000000000000000000000000000FF00000000F9FD00000000000000000000000000000000000000000000000000FF00000000F9FF00000000000000000000000000000000000000000000000000FF00000000F9FD00000000000000
310
000000000000000000000000000000000000FF00000000F9FF00000000000000000000000000000000000000000000000000FF00000000F9FFFFFFFFFFFFFFFFFFFFFFFFFFFFFFFFFFFFFFFFFFFFFFFFFFFFFF00000000F9FFFFFFF9F9F9F9F9F9F9F9F9F9F9F9F9F9F9F9F9F9F9F9F9F9F9F9000000000000000000000000
310
00000000000000000000000000000000000000000000000000000000000000000000000000000000000000000000000000000000000000000000000000000000000000000000000000000000000000000000000000000000000000000000000000000000000000000000000000000000000000000000000000000000000000
310
0000000000000000000000000000000000000000000000000000000000000000000000000000000000000000000000000000000000000000
102
{BLKREFS
331
30A
102
}
 70
     4
280
     1
281
     0
1001
AcDbDynamicBlockGUID
1000
{B4231738-FC76-45A7-965D-9F3608883DC6}
1001
AcDbBlockRepETag
1070
     1
1071
      149
  0
BLOCK_RECORD
  5
30E
330
1
100
AcDbSymbolTableRecord
100
AcDbBlockTableRecord
  2
*D2
340
0
 70
     0
280
     1
281
     0
  0
BLOCK_RECORD
  5
31B
330
1
100
AcDbSymbolTableRecord
100
AcDbBlockTableRecord
  2
*D3
340
0
 70
     0
280
     1
281
     0
  0
BLOCK_RECORD
  5
327
330
1
100
AcDbSymbolTableRecord
100
AcDbBlockTableRecord
  2
*D4
340
0
 70
     0
280
     1
281
     0
  0
BLOCK_RECORD
  5
334
330
1
100
AcDbSymbolTableRecord
100
AcDbBlockTableRecord
  2
*D5
340
0
 70
     0
280
     1
281
     0
  0
BLOCK_RECORD
  5
340
330
1
100
AcDbSymbolTableRecord
100
AcDbBlockTableRecord
  2
*D6
340
0
 70
     0
280
     1
281
     0
  0
ENDTAB
  0
ENDSEC
  0
SECTION
  2
BLOCKS
  0
BLOCK
  5
5
330
2
100
AcDbEntity
  8
0
100
AcDbBlockBegin
  2
*Model_Space
 70
     0
 10
0.0
 20
0.0
 30
0.0
  3
*Model_Space
  1

  0
ENDBLK
  5
1C0
330
2
100
AcDbEntity
  8
0
100
AcDbBlockEnd
  0
BLOCK
  5
1C5
330
1C4
100
AcDbEntity
 67
     1
  8
0
100
AcDbBlockBegin
  2
*Paper_Space
 70
     0
 10
0.0
 20
0.0
 30
0.0
  3
*Paper_Space
  1

  0
ENDBLK
  5
1C6
330
1C4
100
AcDbEntity
 67
     1
  8
0
100
AcDbBlockEnd
  0
BLOCK
  5
1C9
330
1C8
100
AcDbEntity
 67
     1
  8
0
100
AcDbBlockBegin
  2
*Paper_Space0
 70
     0
 10
0.0
 20
0.0
 30
0.0
  3
*Paper_Space0
  1

  0
ENDBLK
  5
1CA
330
1C8
100
AcDbEntity
 67
     1
  8
0
100
AcDbBlockEnd
  0
BLOCK
  5
266
330
264
100
AcDbEntity
  8
0
100
AcDbBlockBegin
  2
A4图框-NEW
 70
     0
 10
0.0
 20
0.0
 30
0.0
  3
A4图框-NEW
  1

  0
MTEXT
  5
4CC
102
{ACAD_XDICTIONARY
360
56A
102
}
330
264
100
AcDbEntity
  8
图框
 62
     3
100
AcDbMText
 10
967.6594956750133
 20
499.7664151964293
 30
0.0
 40
2.985513575034151
 41
15.50176341157864
 46
6.292658374511018
 71
     5
 72
     5
  1
BQ LUO
  7
Romans字体
 73
     1
 44
1.0
1001
AcDbBlockRepETag
1070
     1
1071
        0
1005
4CC
1001
ACAD
1000
ACAD_MTEXT_DEFINED_HEIGHT_BEGIN
1070
    46
1040
6.292658374511018
1000
ACAD_MTEXT_DEFINED_HEIGHT_END
  0
MTEXT
  5
4CD
330
264
100
AcDbEntity
  8
图框
 62
     3
100
AcDbMText
 10
983.041569333247
 20
499.7664151964293
 30
0.0
 40
2.487927979195124
 41
15.26238390489062
 46
6.292658374511042
 71
     5
 72
     5
  1
{\W0.7;18.10.2010}
  7
Romans字体
 73
     1
 44
1.0
1001
AcDbBlockRepETag
1070
     1
1071
        1
1005
4CD
1001
ACAD
1000
ACAD_MTEXT_DEFINED_HEIGHT_BEGIN
1070
    46
1040
6.292658374511042
1000
ACAD_MTEXT_DEFINED_HEIGHT_END
  0
MTEXT
  5
4CE
330
264
100
AcDbEntity
  8
图框
 62
     3
100
AcDbMText
 10
1012.477254728976
 20
487.1810984474071
 30
0.0
 40
2.985513575034151
 41
17.64876416884615
 46
6.292658374511455
 71
     5
 72
     5
  1
YY LIN
  7
Romans字体
 73
     1
 44
1.0
1001
AcDbBlockRepETag
1070
     1
1071
        2
1005
4CE
1001
ACAD
1000
ACAD_MTEXT_DEFINED_HEIGHT_BEGIN
1070
    46
1040
6.292658374511455
1000
ACAD_MTEXT_DEFINED_HEIGHT_END
  0
MTEXT
  5
4CF
330
264
100
AcDbEntity
  8
图框
 62
     3
100
AcDbMText
 10
1028.977802139886
 20
487.1810984474071
 30
0.0
 40
2.487927979195124
 41
15.35233065297276
 46
6.292658374511495
 71
     5
 72
     5
  1
{\W0.7;18.10.2010}
  7
Romans字体
 73
     1
 44
1.0
1001
AcDbBlockRepETag
1070
     1
1071
        3
1005
4CF
1001
ACAD
1000
ACAD_MTEXT_DEFINED_HEIGHT_BEGIN
1070
    46
1040
6.292658374511495
1000
ACAD_MTEXT_DEFINED_HEIGHT_END
  0
MTEXT
  5
4D0
330
264
100
AcDbEntity
  8
图框
 62
     3
100
AcDbMText
 10
1063.722665487208
 20
525.4145966538831
 30
0.0
 40
2.985513575034151
 41
32.4973914334545
 46
11.82914190181707
 71
     5
 72
     5
  1
-
  7
Romans字体
 73
     1
 44
1.0
1001
AcDbBlockRepETag
1070
     1
1071
        4
1005
4D0
1001
ACAD
1000
ACAD_MTEXT_DEFINED_HEIGHT_BEGIN
1070
    46
1040
11.82914190181707
1000
ACAD_MTEXT_DEFINED_HEIGHT_END
  0
MTEXT
  5
4D1
330
264
100
AcDbEntity
  8
图框
 62
     3
100
AcDbMText
 10
1063.727338552349
 20
513.5854547520641
 30
0.0
 40
2.985513575034151
 41
32.48804530317308
 46
11.82914190182139
 71
     5
 72
     5
  1
-
  7
Romans字体
 73
     1
 44
1.0
1001
AcDbBlockRepETag
1070
     1
1071
        5
1005
4D1
1001
ACAD
1000
ACAD_MTEXT_DEFINED_HEIGHT_BEGIN
1070
    46
1040
11.82914190182139
1000
ACAD_MTEXT_DEFINED_HEIGHT_END
  0
MTEXT
  5
4D2
330
264
100
AcDbEntity
  8
图框
 62
     3
100
AcDbMText
 10
1110.122306614152
 20
526.8006839312707
 30
0.0
 40
2.985513575034151
 41
33.61239199242139
 46
9.05696734704178
 71
     5
 72
     5
  1
-
  7
Romans字体
 73
     1
 44
1.0
1001
AcDbBlockRepETag
1070
     1
1071
        6
1005
4D2
1001
ACAD
1000
ACAD_MTEXT_DEFINED_HEIGHT_BEGIN
1070
    46
1040
9.05696734704178
1000
ACAD_MTEXT_DEFINED_HEIGHT_END
  0
MTEXT
  5
4D3
330
264
100
AcDbEntity
  8
图框
 62
     3
100
AcDbMText
 10
1110.122306614152
 20
500.2775205517162
 30
0.0
 40
2.985513575034151
 41
33.61239199242139
 46
8.871557304763419
 71
     5
 72
     5
  1
-
  7
Romans字体
 73
     1
 44
1.0
1001
AcDbBlockRepETag
1070
     1
1071
        7
1005
4D3
1001
ACAD
1000
ACAD_MTEXT_DEFINED_HEIGHT_BEGIN
1070
    46
1040
8.871557304763419
1000
ACAD_MTEXT_DEFINED_HEIGHT_END
  0
MTEXT
  5
4D4
330
264
100
AcDbEntity
  8
图框
 62
     3
100
AcDbMText
 10
967.6594956750133
 20
493.4737568219182
 30
0.0
 40
2.985513575034151
 41
15.50176341157864
 46
6.292658374510335
 71
     5
 72
     5
  1
P RAO
  7
Romans字体
 73
     1
 44
1.0
1001
AcDbBlockRepETag
1070
     1
1071
        8
1005
4D4
1001
ACAD
1000
ACAD_MTEXT_DEFINED_HEIGHT_BEGIN
1070
    46
1040
6.292658374510335
1000
ACAD_MTEXT_DEFINED_HEIGHT_END
  0
MTEXT
  5
4D5
330
264
100
AcDbEntity
  8
图框
 62
     3
100
AcDbMText
 10
983.041569333247
 20
493.2441970450405
 30
0.0
 40
2.487927979195124
 41
15.26238390489051
 46
6.751777928266487
 71
     5
 72
     5
  1
{\W0.7;18.10.2010}
  7
Romans字体
 73
     1
 44
1.0
1001
AcDbBlockRepETag
1070
     1
1071
        9
1005
4D5
1001
ACAD
1000
ACAD_MTEXT_DEFINED_HEIGHT_BEGIN
1070
    46
1040
6.751777928266487
1000
ACAD_MTEXT_DEFINED_HEIGHT_END
  0
MTEXT
  5
4D6
330
264
100
AcDbEntity
  8
图框
 62
     3
100
AcDbMText
 10
1012.477254728976
 20
499.7664151964291
 30
0.0
 40
2.985513575034151
 41
17.64876416884615
 46
6.292658374511397
 71
     5
 72
     5
  1
-
  7
Romans字体
 73
     1
 44
1.0
1001
AcDbBlockRepETag
1070
     1
1071
       10
1005
4D6
1001
ACAD
1000
ACAD_MTEXT_DEFINED_HEIGHT_BEGIN
1070
    46
1040
6.292658374511397
1000
ACAD_MTEXT_DEFINED_HEIGHT_END
  0
MTEXT
  5
4D7
330
264
100
AcDbEntity
  8
图框
 62
     3
100
AcDbMText
 10
1028.977802139886
 20
499.7664151964289
 30
0.0
 40
2.487927979195124
 41
15.35233065297265
 46
6.292658374511382
 71
     5
 72
     5
  1
-
  7
Romans字体
 73
     1
 44
1.0
1001
AcDbBlockRepETag
1070
     1
1071
       11
1005
4D7
1001
ACAD
1000
ACAD_MTEXT_DEFINED_HEIGHT_BEGIN
1070
    46
1040
6.292658374511382
1000
ACAD_MTEXT_DEFINED_HEIGHT_END
  0
MTEXT
  5
4D8
330
264
100
AcDbEntity
  8
图框
 62
     3
100
AcDbMText
 10
967.6594956750133
 20
487.1810984474071
 30
0.0
 40
2.985513575034151
 41
15.50176341157863
 46
6.292658374511478
 71
     5
 72
     5
  1
-
  7
Romans字体
 73
     1
 44
1.0
1001
AcDbBlockRepETag
1070
     1
1071
       12
1005
4D8
1001
ACAD
1000
ACAD_MTEXT_DEFINED_HEIGHT_BEGIN
1070
    46
1040
6.292658374511478
1000
ACAD_MTEXT_DEFINED_HEIGHT_END
  0
MTEXT
  5
4D9
330
264
100
AcDbEntity
  8
图框
 62
     3
100
AcDbMText
 10
983.041569333247
 20
487.1810984474071
 30
0.0
 40
2.487927979195124
 41
15.26238390489062
 46
6.292658374511495
 71
     5
 72
     5
  1
-
  7
Romans字体
 73
     1
 44
1.0
1001
AcDbBlockRepETag
1070
     1
1071
       13
1005
4D9
1001
ACAD
1000
ACAD_MTEXT_DEFINED_HEIGHT_BEGIN
1070
    46
1040
6.292658374511495
1000
ACAD_MTEXT_DEFINED_HEIGHT_END
  0
MTEXT
  5
4DA
330
264
100
AcDbEntity
  8
图框
 62
     3
100
AcDbMText
 10
1074.556686986741
 20
495.8417418993361
 30
0.0
 40
2.985513575034151
 41
10.82934843438978
 46
7.886094601210427
 71
     5
 72
     5
  1
-
  7
Romans字体
 73
     1
 44
1.0
1001
AcDbBlockRepETag
1070
     1
1071
       14
1005
4DA
1001
ACAD
1000
ACAD_MTEXT_DEFINED_HEIGHT_BEGIN
1070
    46
1040
7.886094601210427
1000
ACAD_MTEXT_DEFINED_HEIGHT_END
  0
LINE
  5
4DB
330
264
100
AcDbEntity
  8
图框
370
    -3
100
AcDbLine
 10
1036.653967466372
 20
499.7847891999413
 30
0.0
 11
1079.971361203936
 21
499.7847891999413
 31
0.0
1001
AcDbBlockRepETag
1070
     1
1071
       15
1005
4DB
  0
MTEXT
  5
4DC
330
264
100
AcDbEntity
  8
图框
 62
     1
370
    20
100
AcDbMText
 10
1108.26336443907
 20
491.5162596080882
 30
0.0
 40
2.699054613030988
 41
82.30831305643079
 46
0.0
 71
     5
 72
     5
  1
{\fSimHei|b0|i0|c134|p2;厦门唯恩电气有限公司}
 73
     1
 44
1.0
1001
AcDbBlockRepETag
1070
     1
1071
       16
1005
4DC
  0
MTEXT
  5
4DD
330
264
100
AcDbEntity
  8
图框
 62
     3
370
    20
100
AcDbMText
 10
1108.435451459908
 20
487.298967726064
 30
0.0
 40
1.652482416141417
 41
68.08558693693567
 46
0.0
 71
     5
 72
     5
  1
{\fArial Narrow|b0|i0|c0|p34;XIAMEN WAIN ELECTRICAL CO.LTD}
  7
工程字
 73
     1
 44
1.0
1001
AcDbBlockRepETag
1070
     1
1071
       17
1005
4DD
  0
MTEXT
  5
4DE
330
264
100
AcDbEntity
  8
图框
 62
     1
370
    20
100
AcDbMText
 10
1085.711816899387
 20
491.0944802995856
 30
0.0
 40
2.005930044038334
 41
5.047240019334847
 46
0.0
 71
     1
 72
     5
  1
{\fArial|b0|i0|c0|p34;A}
  7
Chinese
 73
     1
 44
1.0
1001
AcDbBlockRepETag
1070
     1
1071
       18
1005
4DE
  0
MTEXT
  5
4DF
330
264
100
AcDbEntity
  8
图框
 62
     1
370
    20
100
AcDbMText
 10
1088.213485935716
 20
491.0944802995856
 30
0.0
 40
2.005930044038334
 41
5.047240019334847
 46
0.0
 71
     1
 72
     5
  1
{\fArial|b0|i0|c0|p34;I}
  7
Chinese
 73
     1
 44
1.0
1001
AcDbBlockRepETag
1070
     1
1071
       19
1005
4DF
  0
MTEXT
  5
4E0
330
264
100
AcDbEntity
  8
图框
 62
     1
370
    20
100
AcDbMText
 10
1089.142375222864
 20
491.0822866326808
 30
0.0
 40
2.005930044038334
 41
5.047240019334847
 46
0.0
 71
     1
 72
     5
  1
{\fArial|b0|i0|c0|p34;N}
  7
Chinese
 73
     1
 44
1.0
1001
AcDbBlockRepETag
1070
     1
1071
       20
1005
4E0
  0
MTEXT
  5
4E1
330
264
100
AcDbEntity
  8
图框
100
AcDbMText
 10
1069.142012769545
 20
487.9667319294409
 30
0.0
 40
2.252848170144607
 41
21.65869686878327
 46
7.863925338579296
 71
     5
 72
     5
  1
{\W0.5;\C1;All Dimensions in mm\POriginal Size DIN A 4}
  7
Romans字体
 73
     1
 44
1.0
1001
AcDbBlockRepETag
1070
     1
1071
       21
1005
4E1
1001
ACAD
1000
ACAD_MTEXT_DEFINED_HEIGHT_BEGIN
1070
    46
1040
7.863925338579296
1000
ACAD_MTEXT_DEFINED_HEIGHT_END
  0
MTEXT
  5
4E2
330
264
100
AcDbEntity
  8
图框
  6
ByBlock
 62
     6
370
    18
100
AcDbMText
 10
1127.40434942308
 20
508.7896535755975
 30
0.0
 40
2.651776162684904
 41
2.557913877927211
 46
0.0
 71
     1
 72
     5
  1
A
  7
Romans字体
 11
0.0000000000000001
 21
1.0
 31
0.0
 73
     1
 44
1.0
1001
AcDbBlockRepETag
1070
     1
1071
       22
1005
4E2
  0
MTEXT
  5
4E3
330
264
100
AcDbEntity
  8
图框
 62
     6
100
AcDbMText
 10
1127.40434942308
 20
556.3746573232886
 30
0.0
 40
2.651776162684904
 41
2.557913877927211
 46
0.0
 71
     1
 72
     5
  1
B
  7
Romans字体
 11
0.0000000000000001
 21
1.0
 31
0.0
 73
     1
 44
1.0
1001
AcDbBlockRepETag
1070
     1
1071
       23
1005
4E3
  0
MTEXT
  5
4E4
330
264
100
AcDbEntity
  8
图框
 62
     6
100
AcDbMText
 10
1127.40434942308
 20
607.5539372630998
 30
0.0
 40
2.651776162684904
 41
2.557913877927211
 46
0.0
 71
     1
 72
     5
  1
C
  7
Romans字体
 11
0.0000000000000001
 21
1.0
 31
0.0
 73
     1
 44
1.0
1001
AcDbBlockRepETag
1070
     1
1071
       24
1005
4E4
  0
MTEXT
  5
4E5
330
264
100
AcDbEntity
  8
图框
 62
     6
100
AcDbMText
 10
1127.40434942308
 20
658.7332172029115
 30
0.0
 40
2.651776162684904
 41
2.557913877927211
 46
0.0
 71
     1
 72
     5
  1
D
  7
Romans字体
 11
0.0000000000000001
 21
1.0
 31
0.0
 73
     1
 44
1.0
1001
AcDbBlockRepETag
1070
     1
1071
       25
1005
4E5
  0
LINE
  5
4E6
330
264
100
AcDbEntity
  8
图框
 62
     6
100
AcDbLine
 10
1130.411601781241
 20
634.0726090796082
 30
0.0
 11
1126.928502610363
 21
634.0726090796082
 31
0.0
1001
AcDbBlockRepETag
1070
     1
1071
       26
1005
4E6
  0
LINE
  5
4E7
330
264
100
AcDbEntity
  8
图框
 62
     6
100
AcDbLine
 10
1130.411601781241
 20
582.89332913979
 30
0.0
 11
1126.928502610363
 21
582.89332913979
 31
0.0
1001
AcDbBlockRepETag
1070
     1
1071
       27
1005
4E7
  0
MTEXT
  5
4E8
330
264
100
AcDbEntity
  8
图框
 62
     6
100
AcDbMText
 10
1105.329704038389
 20
483.6164543011163
 30
0.0
 40
2.651776162684904
 41
2.557913877927211
 46
0.0
 71
     1
 72
     5
  1
6
  7
Romans字体
 73
     1
 44
1.0
1001
AcDbBlockRepETag
1070
     1
1071
       28
1005
4E8
  0
LINE
  5
4E9
330
264
100
AcDbEntity
  8
图框
 62
     6
100
AcDbLine
 10
1081.088565155284
 20
484.0347692601515
 30
0.0
 11
1081.088565155284
 21
480.5347692601475
 31
0.0
1001
AcDbBlockRepETag
1070
     1
1071
       29
1005
4E9
  0
MTEXT
  5
4EA
330
264
100
AcDbEntity
  8
图框
 62
     6
100
AcDbMText
 10
1055.900596365941
 20
483.520053108993
 30
0.0
 40
2.651776162684904
 41
2.557913877927211
 46
0.0
 71
     1
 72
     5
  1
5
  7
Romans字体
 73
     1
 44
1.0
1001
AcDbBlockRepETag
1070
     1
1071
       30
1005
4EA
  0
LINE
  5
4EB
330
264
100
AcDbEntity
  8
图框
 62
     6
100
AcDbLine
 10
1031.553386436349
 20
484.0347692601515
 30
0.0
 11
1031.553386436349
 21
480.5347692601475
 31
0.0
1001
AcDbBlockRepETag
1070
     1
1071
       31
1005
4EB
  0
MTEXT
  5
4EC
330
264
100
AcDbEntity
  8
图框
 62
     6
100
AcDbMText
 10
1006.383180575197
 20
483.5687958215896
 30
0.0
 40
2.651776162684904
 41
2.557913877927211
 46
0.0
 71
     1
 72
     5
  1
4
  7
Romans字体
 73
     1
 44
1.0
1001
AcDbBlockRepETag
1070
     1
1071
       32
1005
4EC
  0
LINE
  5
4ED
330
264
100
AcDbEntity
  8
图框
 62
     6
100
AcDbLine
 10
982.0182077173887
 20
484.0347692601515
 30
0.0
 11
982.0182077173887
 21
480.5347692601475
 31
0.0
1001
AcDbBlockRepETag
1070
     1
1071
       33
1005
4ED
  0
MTEXT
  5
4EE
330
264
100
AcDbEntity
  8
图框
 62
     6
100
AcDbMText
 10
956.8302389280352
 20
483.5989680297948
 30
0.0
 40
2.651776162684904
 41
2.557913877927211
 46
0.0
 71
     1
 72
     5
  1
3
  7
Romans字体
 73
     1
 44
1.0
1001
AcDbBlockRepETag
1070
     1
1071
       34
1005
4EE
  0
LINE
  5
4EF
330
264
100
AcDbEntity
  8
图框
 62
     6
100
AcDbLine
 10
932.4830289984245
 20
484.0347692601515
 30
0.0
 11
932.4830289984245
 21
480.5347692601475
 31
0.0
1001
AcDbBlockRepETag
1070
     1
1071
       35
1005
4EF
  0
MTEXT
  5
4F0
330
264
100
AcDbEntity
  8
图框
 62
     6
100
AcDbMText
 10
906.0252349826365
 20
483.6475250013156
 30
0.0
 40
2.651776162684904
 41
2.557913877927211
 46
0.0
 71
     1
 72
     5
  1
2
  7
Romans字体
 73
     1
 44
1.0
1001
AcDbBlockRepETag
1070
     1
1071
       36
1005
4F0
  0
LINE
  5
4F1
330
264
100
AcDbEntity
  8
图框
 62
     6
100
AcDbLine
 10
882.9478502794648
 20
484.0347692601515
 30
0.0
 11
882.9478502794648
 21
480.5347692601475
 31
0.0
1001
AcDbBlockRepETag
1070
     1
1071
       37
1005
4F1
  0
MTEXT
  5
4F2
330
264
100
AcDbEntity
  8
图框
 62
     6
100
AcDbMText
 10
857.7598814901191
 20
483.651829494754
 30
0.0
 40
2.651776162684904
 41
2.557913877927211
 46
0.0
 71
     1
 72
     5
  1
1
  7
Romans字体
 73
     1
 44
1.0
1001
AcDbBlockRepETag
1070
     1
1071
       38
1005
4F2
  0
LINE
  5
4F3
330
264
100
AcDbEntity
  8
图框
370
    50
100
AcDbLine
 10
836.8548209370597
 20
484.0347692601515
 30
0.0
 11
1126.928502610363
 21
484.0347692601515
 31
0.0
1001
AcDbBlockRepETag
1070
     1
1071
       39
1005
4F3
  0
LINE
  5
4F4
330
264
100
AcDbEntity
  8
图框
370
    50
100
AcDbLine
 10
836.9128518455362
 20
484.0178684310246
 30
0.0
 11
836.9128518455394
 21
675.0207195125422
 31
0.0
1001
AcDbBlockRepETag
1070
     1
1071
       40
1005
4F4
  0
MTEXT
  5
4F5
330
264
100
AcDbEntity
  8
图框
 62
     6
100
AcDbMText
 10
833.8475685789031
 20
658.7332172029115
 30
0.0
 40
2.651776162684904
 41
2.557913877927211
 46
0.0
 71
     1
 72
     5
  1
D
  7
Romans字体
 11
0.0000000000000001
 21
1.0
 31
0.0
 73
     1
 44
1.0
1001
AcDbBlockRepETag
1070
     1
1071
       41
1005
4F5
  0
LINE
  5
4F6
330
264
100
AcDbEntity
  8
图框
 62
     6
100
AcDbLine
 10
836.9128518455386
 20
634.0726090796082
 30
0.0
 11
833.4128518455365
 21
634.0726090796082
 31
0.0
1001
AcDbBlockRepETag
1070
     1
1071
       42
1005
4F6
  0
MTEXT
  5
4F7
330
264
100
AcDbEntity
  8
图框
 62
     6
100
AcDbMText
 10
833.9039177480142
 20
607.5539372630998
 30
0.0
 40
2.651776162684904
 41
2.557913877927211
 46
0.0
 71
     1
 72
     5
  1
C
  7
Romans字体
 11
0.0000000000000001
 21
1.0
 31
0.0
 73
     1
 44
1.0
1001
AcDbBlockRepETag
1070
     1
1071
       43
1005
4F7
  0
LINE
  5
4F8
330
264
100
AcDbEntity
  8
图框
 62
     6
100
AcDbLine
 10
836.9128518455378
 20
582.89332913979
 30
0.0
 11
833.4128518455365
 21
582.89332913979
 31
0.0
1001
AcDbBlockRepETag
1070
     1
1071
       44
1005
4F8
  0
MTEXT
  5
4F9
330
264
100
AcDbEntity
  8
图框
 62
     6
100
AcDbMText
 10
833.9039177480142
 20
556.3746573232886
 30
0.0
 40
2.651776162684904
 41
2.557913877927211
 46
0.0
 71
     1
 72
     5
  1
B
  7
Romans字体
 11
0.0000000000000001
 21
1.0
 31
0.0
 73
     1
 44
1.0
1001
AcDbBlockRepETag
1070
     1
1071
       45
1005
4F9
  0
LINE
  5
4FA
330
264
100
AcDbEntity
  8
图框
 62
     6
100
AcDbLine
 10
836.9128518455367
 20
531.714049199969
 30
0.0
 11
833.4128518455365
 21
531.714049199969
 31
0.0
1001
AcDbBlockRepETag
1070
     1
1071
       46
1005
4FA
  0
MTEXT
  5
4FB
330
264
100
AcDbEntity
  8
图框
 62
     6
100
AcDbMText
 10
833.9039177480142
 20
508.7896535755975
 30
0.0
 40
2.651776162684904
 41
2.557913877927211
 46
0.0
 71
     1
 72
     5
  1
A
  7
Romans字体
 11
0.0000000000000001
 21
1.0
 31
0.0
 73
     1
 44
1.0
1001
AcDbBlockRepETag
1070
     1
1071
       47
1005
4FB
  0
LINE
  5
4FC
330
264
100
AcDbEntity
  8
图框
370
    -3
100
AcDbLine
 10
836.9128518455394
 20
675.0207195125422
 30
0.0
 11
836.9128518455394
 21
684.5021384922564
 31
0.0
1001
AcDbBlockRepETag
1070
     1
1071
       48
1005
4FC
  0
LINE
  5
4FD
330
264
100
AcDbEntity
  8
图框
370
    -3
100
AcDbLine
 10
842.6237321475781
 20
675.5347692601515
 30
0.0
 11
842.6237321475781
 21
685.0161882398658
 31
0.0
1001
AcDbBlockRepETag
1070
     1
1071
       49
1005
4FD
  0
LINE
  5
4FE
330
264
100
AcDbEntity
  8
图框
370
    -3
100
AcDbLine
 10
848.3346124496179
 20
675.5347692601515
 30
0.0
 11
848.3346124496179
 21
685.0161882398658
 31
0.0
1001
AcDbBlockRepETag
1070
     1
1071
       50
1005
4FE
  0
LINE
  5
4FF
330
264
100
AcDbEntity
  8
图框
370
    -3
100
AcDbLine
 10
854.0454927516588
 20
675.5347692601515
 30
0.0
 11
854.0454927516588
 21
685.0161882398658
 31
0.0
1001
AcDbBlockRepETag
1070
     1
1071
       51
1005
4FF
  0
LINE
  5
500
330
264
100
AcDbEntity
  8
图框
370
    -3
100
AcDbLine
 10
861.5351874539182
 20
675.5347692601515
 30
0.0
 11
861.5351874539182
 21
686.7901958362482
 31
0.0
1001
AcDbBlockRepETag
1070
     1
1071
       52
1005
500
  0
MTEXT
  5
501
330
264
100
AcDbEntity
  8
图框
 62
     6
100
AcDbMText
 10
1105.329704038389
 20
678.859919059449
 30
0.0
 40
2.651776162684904
 41
2.557913877927211
 46
0.0
 71
     1
 72
     5
  1
6
  7
Romans字体
 73
     1
 44
1.0
1001
AcDbBlockRepETag
1070
     1
1071
       53
1005
501
  0
LINE
  5
502
330
264
100
AcDbEntity
  8
图框
 62
     6
100
AcDbLine
 10
1081.088565155284
 20
679.0347692601516
 30
0.0
 11
1081.088565155284
 21
675.5347692601515
 31
0.0
1001
AcDbBlockRepETag
1070
     1
1071
       54
1005
502
  0
MTEXT
  5
503
330
264
100
AcDbEntity
  8
图框
 62
     6
100
AcDbMText
 10
1055.900596365941
 20
678.859919059449
 30
0.0
 40
2.651776162684904
 41
2.557913877927211
 46
0.0
 71
     1
 72
     5
  1
5
  7
Romans字体
 73
     1
 44
1.0
1001
AcDbBlockRepETag
1070
     1
1071
       55
1005
503
  0
LINE
  5
504
330
264
100
AcDbEntity
  8
图框
 62
     6
100
AcDbLine
 10
1031.553386436349
 20
679.0347692601516
 30
0.0
 11
1031.553386436349
 21
675.5347692601515
 31
0.0
1001
AcDbBlockRepETag
1070
     1
1071
       56
1005
504
  0
MTEXT
  5
505
330
264
100
AcDbEntity
  8
图框
 62
     6
100
AcDbMText
 10
1006.36541764698
 20
678.7312083656147
 30
0.0
 40
2.651776162684904
 41
2.557913877927211
 46
0.0
 71
     1
 72
     5
  1
4
  7
Romans字体
 73
     1
 44
1.0
1001
AcDbBlockRepETag
1070
     1
1071
       57
1005
505
  0
LINE
  5
506
330
264
100
AcDbEntity
  8
图框
 62
     6
100
AcDbLine
 10
982.0182077173887
 20
679.0347692601516
 30
0.0
 11
982.0182077173887
 21
675.5347692601515
 31
0.0
1001
AcDbBlockRepETag
1070
     1
1071
       58
1005
506
  0
MTEXT
  5
507
330
264
100
AcDbEntity
  8
图框
 62
     6
100
AcDbMText
 10
956.8302389280352
 20
678.859919059449
 30
0.0
 40
2.651776162684904
 41
2.557913877927211
 46
0.0
 71
     1
 72
     5
  1
3
  7
Romans字体
 73
     1
 44
1.0
1001
AcDbBlockRepETag
1070
     1
1071
       59
1005
507
  0
LINE
  5
508
330
264
100
AcDbEntity
  8
图框
 62
     6
100
AcDbLine
 10
932.4830289984245
 20
679.0347692601516
 30
0.0
 11
932.4830289984245
 21
675.5347692601515
 31
0.0
1001
AcDbBlockRepETag
1070
     1
1071
       60
1005
508
  0
MTEXT
  5
509
330
264
100
AcDbEntity
  8
图框
 62
     6
100
AcDbMText
 10
907.295060209082
 20
678.859919059449
 30
0.0
 40
2.651776162684904
 41
2.557913877927211
 46
0.0
 71
     1
 72
     5
  1
2
  7
Romans字体
 73
     1
 44
1.0
1001
AcDbBlockRepETag
1070
     1
1071
       61
1005
509
  0
LINE
  5
50A
330
264
100
AcDbEntity
  8
图框
 62
     6
100
AcDbLine
 10
882.9478502794648
 20
678.7962435131815
 30
0.0
 11
882.9478502794648
 21
675.5347692601515
 31
0.0
1001
AcDbBlockRepETag
1070
     1
1071
       62
1005
50A
  0
MTEXT
  5
50B
330
264
100
AcDbEntity
  8
图框
 62
     6
100
AcDbMText
 10
862.6286629643733
 20
678.859919059449
 30
0.0
 40
2.651776162684904
 41
2.557913877927211
 46
0.0
 71
     1
 72
     5
  1
1
  7
Romans字体
 73
     1
 44
1.0
1001
AcDbBlockRepETag
1070
     1
1071
       63
1005
50B
  0
LINE
  5
50C
330
264
100
AcDbEntity
  8
图框
370
    -3
100
AcDbLine
 10
836.9128518455394
 20
675.0207195125422
 30
0.0
 11
836.9128518455394
 21
686.7901958362482
 31
0.0
1001
AcDbBlockRepETag
1070
     1
1071
       64
1005
50C
  0
LINE
  5
50D
330
264
100
AcDbEntity
  8
图框
370
    50
100
AcDbLine
 10
836.9128518455394
 20
675.5347692601515
 30
0.0
 11
1126.928502610363
 21
675.5347692601515
 31
0.0
1001
AcDbBlockRepETag
1070
     1
1071
       65
1005
50D
  0
LINE
  5
50E
330
264
100
AcDbEntity
  8
图框
370
    -3
100
AcDbLine
 10
842.6237321475781
 20
675.5347692601515
 30
0.0
 11
842.6237321475781
 21
686.7901958362482
 31
0.0
1001
AcDbBlockRepETag
1070
     1
1071
       66
1005
50E
  0
LINE
  5
50F
330
264
100
AcDbEntity
  8
图框
370
    -3
100
AcDbLine
 10
848.3346124496179
 20
675.5347692601515
 30
0.0
 11
848.3346124496179
 21
686.7901958362482
 31
0.0
1001
AcDbBlockRepETag
1070
     1
1071
       67
1005
50F
  0
MTEXT
  5
510
102
{ACAD_XDICTIONARY
360
56C
102
}
330
264
100
AcDbEntity
  8
图框
100
AcDbMText
 10
857.7903401027889
 20
686.7901958362482
 30
0.0
 40
1.958998408821398
 41
11.25542657609672
 46
7.489694702258906
 71
     4
 72
     5
  1
\pi2.6646;{\fSimSun|b0|i0|c134|p2;档案员\fFangSong_GB2312|b0|i0|c134|p49;\H0.7x;\P\pi1.4159;\Fromans|c134;Filing Clerk\fFangSong_GB2312|b0|i0|c134|p49; }
 11
-0.0000000000000002
 21
-1.0
 31
0.0
 73
     1
 44
1.0
1001
AcDbBlockRepETag
1070
     1
1071
       68
1005
510
1001
ACAD
1000
ACAD_MTEXT_DEFINED_HEIGHT_BEGIN
1070
    46
1040
7.489694702258906
1000
ACAD_MTEXT_DEFINED_HEIGHT_END
  0
MTEXT
  5
511
102
{ACAD_XDICTIONARY
360
56E
102
}
330
264
100
AcDbEntity
  8
图框
100
AcDbMText
 10
845.479172298598
 20
686.7901958362482
 30
0.0
 40
1.958998408821398
 41
11.25542657609672
 46
5.710880302039671
 71
     4
 72
     5
  1
\pi0.63465;{\fSimSun|b0|i0|c134|p2;日期\Fromans|c134;/Date}
 11
-0.0000000000000002
 21
-1.0
 31
0.0
 73
     1
 44
1.0
1001
AcDbBlockRepETag
1070
     1
1071
       69
1005
511
1001
ACAD
1000
ACAD_MTEXT_DEFINED_HEIGHT_BEGIN
1070
    46
1040
5.710880302039671
1000
ACAD_MTEXT_DEFINED_HEIGHT_END
  0
LINE
  5
512
330
264
100
AcDbEntity
  8
图框
370
    -3
100
AcDbLine
 10
854.0454927516588
 20
675.5347692601515
 30
0.0
 11
854.0454927516588
 21
686.7901958362482
 31
0.0
1001
AcDbBlockRepETag
1070
     1
1071
       70
1005
512
  0
LINE
  5
513
330
264
100
AcDbEntity
  8
图框
370
    -3
100
AcDbLine
 10
1036.653967466372
 20
531.3291676047914
 30
0.0
 11
1036.653967466372
 21
484.0126019753161
 31
0.0
1001
AcDbBlockRepETag
1070
     1
1071
       71
1005
513
  0
LINE
  5
514
330
264
100
AcDbEntity
  8
图框
370
    -3
100
AcDbLine
 10
1047.483315900763
 20
507.6708838011533
 30
0.0
 11
1047.483315900763
 21
491.8986945987308
 31
0.0
1001
AcDbBlockRepETag
1070
     1
1071
       72
1005
514
  0
LINE
  5
515
330
264
100
AcDbEntity
  8
图框
370
    -3
100
AcDbLine
 10
1058.312664335153
 20
507.6708838011533
 30
0.0
 11
1058.312664335153
 21
484.0347692601515
 31
0.0
1001
AcDbBlockRepETag
1070
     1
1071
       73
1005
515
  0
LINE
  5
516
330
264
100
AcDbEntity
  8
图框
370
    25
100
AcDbLine
 10
1048.474135214456
 20
488.1095628329926
 30
0.0
 11
1054.946420288459
 21
488.1095628329926
 31
0.0
1001
AcDbBlockRepETag
1070
     1
1071
       74
1005
516
  0
LINE
  5
517
330
264
100
AcDbEntity
  8
图框
370
    25
100
AcDbLine
 10
1054.232527365989
 20
487.0761716842634
 30
0.0
 11
1049.156490914508
 21
486.4576273751
 31
0.0
1001
AcDbBlockRepETag
1070
     1
1071
       75
1005
517
  0
LINE
  5
518
330
264
100
AcDbEntity
  8
图框
370
    25
100
AcDbLine
 10
1054.232527365989
 20
489.1429539817209
 30
0.0
 11
1049.156490914508
 21
489.7614982908846
 31
0.0
1001
AcDbBlockRepETag
1070
     1
1071
       76
1005
518
  0
LINE
  5
519
330
264
100
AcDbEntity
  8
图框
370
    25
100
AcDbLine
 10
1049.156490914508
 20
489.7614982908846
 30
0.0
 11
1049.156490914508
 21
486.4576273751
 31
0.0
1001
AcDbBlockRepETag
1070
     1
1071
       77
1005
519
  0
LINE
  5
51A
330
264
100
AcDbEntity
  8
图框
370
    25
100
AcDbLine
 10
1054.232527365989
 20
489.1429539817209
 30
0.0
 11
1054.232527365989
 21
487.0761716842634
 31
0.0
1001
AcDbBlockRepETag
1070
     1
1071
       78
1005
51A
  0
CIRCLE
  5
51B
330
264
100
AcDbEntity
  8
图框
370
    25
100
AcDbCircle
 10
1042.502700458579
 20
488.1095628329926
 30
0.0
 40
1.651935457891863
1001
AcDbBlockRepETag
1070
     1
1071
       79
1005
51B
  0
CIRCLE
  5
51C
330
264
100
AcDbEntity
  8
图框
370
    25
100
AcDbCircle
 10
1042.502700458579
 20
488.1095628329926
 30
0.0
 40
1.033391148728775
1001
AcDbBlockRepETag
1070
     1
1071
       80
1005
51C
  0
LINE
  5
51D
330
264
100
AcDbEntity
  8
图框
370
    25
100
AcDbLine
 10
1040.136872078216
 20
488.1095628329926
 30
0.0
 11
1044.868528838943
 21
488.1095628329926
 31
0.0
1001
AcDbBlockRepETag
1070
     1
1071
       81
1005
51D
  0
LINE
  5
51E
330
264
100
AcDbEntity
  8
图框
370
    25
100
AcDbLine
 10
1042.502700458579
 20
490.475391213355
 30
0.0
 11
1042.502700458579
 21
485.743734452629
 31
0.0
1001
AcDbBlockRepETag
1070
     1
1071
       82
1005
51E
  0
LINE
  5
51F
330
264
100
AcDbEntity
  8
图框
370
    -3
100
AcDbLine
 10
1069.142012769546
 20
507.6708838011533
 30
0.0
 11
1069.142012769546
 21
491.8986945987308
 31
0.0
1001
AcDbBlockRepETag
1070
     1
1071
       83
1005
51F
  0
MTEXT
  5
520
330
264
100
AcDbEntity
  8
图框
100
AcDbMText
 10
1086.643735910939
 20
526.8006839312707
 30
0.0
 40
2.154898249703542
 41
13.34474941400573
 46
9.056967347041775
 71
     5
 72
     5
  1
图号{\Ftxt|c134;\P\Fromans|c134;\W0.65;Drawing No.}
 73
     1
 44
1.0
1001
AcDbBlockRepETag
1070
     1
1071
       84
1005
520
1001
ACAD
1000
ACAD_MTEXT_DEFINED_HEIGHT_BEGIN
1070
    46
1040
9.056967347041775
1000
ACAD_MTEXT_DEFINED_HEIGHT_END
  0
LINE
  5
521
330
264
100
AcDbEntity
  8
图框
370
    -3
100
AcDbLine
 10
1093.316110617942
 20
531.3291676047914
 30
0.0
 11
1093.316110617942
 21
495.8417418993347
 31
0.0
1001
AcDbBlockRepETag
1070
     1
1071
       85
1005
521
  0
LINE
  5
522
330
264
100
AcDbEntity
  8
图框
370
    -3
100
AcDbLine
 10
1047.473969770481
 20
531.3291676047914
 30
0.0
 11
1047.473969770481
 21
507.6708838011533
 31
0.0
1001
AcDbBlockRepETag
1070
     1
1071
       86
1005
522
  0
MTEXT
  5
523
330
264
100
AcDbEntity
  8
图框
100
AcDbMText
 10
1063.72733855235
 20
503.7278365005473
 30
0.0
 40
2.252848170144607
 41
10.82934843439208
 46
7.886094601212128
 71
     5
 72
     5
  1
重量\P{\Fromans|c134;Weight}
 73
     1
 44
1.0
1001
AcDbBlockRepETag
1070
     1
1071
       87
1005
523
1001
ACAD
1000
ACAD_MTEXT_DEFINED_HEIGHT_BEGIN
1070
    46
1040
7.886094601212128
1000
ACAD_MTEXT_DEFINED_HEIGHT_END
  0
LINE
  5
524
330
264
100
AcDbEntity
  8
图框
370
    -3
100
AcDbLine
 10
1036.653967466372
 20
519.5000257029746
 30
0.0
 11
1079.971361203936
 21
519.5000257029746
 31
0.0
1001
AcDbBlockRepETag
1070
     1
1071
       88
1005
524
  0
MTEXT
  5
525
330
264
100
AcDbEntity
  8
图框
100
AcDbMText
 10
1074.556686986741
 20
503.7278365005473
 30
0.0
 40
2.252848170144607
 41
10.82934843438984
 46
7.886094601212141
 71
     5
 72
     5
  1
数量\P{\Fromans|c134;Qty.}
 73
     1
 44
1.0
1001
AcDbBlockRepETag
1070
     1
1071
       89
1005
525
1001
ACAD
1000
ACAD_MTEXT_DEFINED_HEIGHT_BEGIN
1070
    46
1040
7.886094601212141
1000
ACAD_MTEXT_DEFINED_HEIGHT_END
  0
LINE
  5
526
330
264
100
AcDbEntity
  8
图框
370
    -3
100
AcDbLine
 10
1079.971361203936
 20
495.8417418993347
 30
0.0
 11
1126.928502610363
 21
495.8417418993342
 31
0.0
1001
AcDbBlockRepETag
1070
     1
1071
       90
1005
526
  0
LINE
  5
527
330
264
100
AcDbEntity
  8
图框
370
    -3
100
AcDbLine
 10
1079.971361203936
 20
504.7132992040975
 30
0.0
 11
1126.928502610363
 21
504.7132992040975
 31
0.0
1001
AcDbBlockRepETag
1070
     1
1071
       91
1005
527
  0
MTEXT
  5
528
330
264
100
AcDbEntity
  8
图框
100
AcDbMText
 10
1052.893317052817
 20
503.7278365005473
 30
0.0
 40
2.252848170144607
 41
10.83869456467139
 46
7.886094601212101
 71
     5
 72
     5
  1
版本\P{\Fromans|c134;REV.}
 73
     1
 44
1.0
1001
AcDbBlockRepETag
1070
     1
1071
       92
1005
528
1001
ACAD
1000
ACAD_MTEXT_DEFINED_HEIGHT_BEGIN
1070
    46
1040
7.886094601212101
1000
ACAD_MTEXT_DEFINED_HEIGHT_END
  0
MTEXT
  5
529
330
264
100
AcDbEntity
  8
图框
100
AcDbMText
 10
1042.068641683568
 20
503.7278365005473
 30
0.0
 40
2.252848170144607
 41
10.8293484343908
 46
7.886094601212136
 71
     5
 72
     5
  1
比例\P{\Fromans|c134;Scale}
 73
     1
 44
1.0
1001
AcDbBlockRepETag
1070
     1
1071
       93
1005
529
1001
ACAD
1000
ACAD_MTEXT_DEFINED_HEIGHT_BEGIN
1070
    46
1040
7.886094601212136
1000
ACAD_MTEXT_DEFINED_HEIGHT_END
  0
LINE
  5
52A
330
264
100
AcDbEntity
  8
图框
370
    -3
100
AcDbLine
 10
1036.653967466372
 20
507.6708838011533
 30
0.0
 11
1079.971361203936
 21
507.6708838011533
 31
0.0
1001
AcDbBlockRepETag
1070
     1
1071
       94
1005
52A
  0
LINE
  5
52B
330
264
100
AcDbEntity
  8
图框
370
    -3
100
AcDbLine
 10
1036.653967466372
 20
491.8986945987308
 30
0.0
 11
1079.971361203936
 21
491.8986945987308
 31
0.0
1001
AcDbBlockRepETag
1070
     1
1071
       95
1005
52B
  0
LINE
  5
52C
330
264
100
AcDbEntity
  8
图框
370
    -3
100
AcDbLine
 10
1079.971361203936
 20
531.3291676047914
 30
0.0
 11
1079.971361203936
 21
484.0125999975168
 31
0.0
1001
AcDbBlockRepETag
1070
     1
1071
       96
1005
52C
  0
MTEXT
  5
52D
330
264
100
AcDbEntity
  8
图框
100
AcDbMText
 10
1042.063968618426
 20
525.4145966538832
 30
0.0
 40
2.252848170144607
 41
10.82000230410933
 46
11.82914190181708
 71
     5
 72
     5
  1
表面处理\P{\Fromans|c134;Finish}
 73
     1
 44
1.0
1001
AcDbBlockRepETag
1070
     1
1071
       97
1005
52D
1001
ACAD
1000
ACAD_MTEXT_DEFINED_HEIGHT_BEGIN
1070
    46
1040
11.82914190181708
1000
ACAD_MTEXT_DEFINED_HEIGHT_END
  0
MTEXT
  5
52E
330
264
100
AcDbEntity
  8
图框
100
AcDbMText
 10
1042.063968618426
 20
513.5854547520639
 30
0.0
 40
2.252848170144607
 41
10.82000230410933
 46
11.8291419018212
 71
     5
 72
     5
  1
材料\P{\Fromans|c134;Material}
 73
     1
 44
1.0
1001
AcDbBlockRepETag
1070
     1
1071
       98
1005
52E
1001
ACAD
1000
ACAD_MTEXT_DEFINED_HEIGHT_BEGIN
1070
    46
1040
11.8291419018212
1000
ACAD_MTEXT_DEFINED_HEIGHT_END
  0
LINE
  5
52F
330
264
100
AcDbEntity
  8
图框
370
    -3
100
AcDbLine
 10
1079.971361203936
 20
522.27220025775
 30
0.0
 11
1126.928502610363
 21
522.27220025775
 31
0.0
1001
AcDbBlockRepETag
1070
     1
1071
       99
1005
52F
  0
LINE
  5
530
330
264
100
AcDbEntity
  8
图框
370
    -3
100
AcDbLine
 10
1079.971361203936
 20
513.5854547520641
 30
0.0
 11
1126.928502610363
 21
513.5854547520639
 31
0.0
1001
AcDbBlockRepETag
1070
     1
1071
      100
1005
530
  0
MTEXT
  5
531
330
264
100
AcDbEntity
  8
图框
100
AcDbMText
 10
1086.643735910939
 20
517.9288275049072
 30
0.0
 40
1.958998408821398
 41
13.34474941400573
 46
8.686745505685811
 71
     5
 72
     5
  1
产品代号\P{\Fromans|c134;Part Code}
 73
     1
 44
1.0
1001
AcDbBlockRepETag
1070
     1
1071
      101
1005
531
1001
ACAD
1000
ACAD_MTEXT_DEFINED_HEIGHT_BEGIN
1070
    46
1040
8.686745505685811
1000
ACAD_MTEXT_DEFINED_HEIGHT_END
  0
LINE
  5
532
330
264
100
AcDbEntity
  8
图框
370
    -3
100
AcDbLine
 10
946.9285026103634
 20
525.7982263931411
 30
0.0
 11
1036.653967466372
 21
525.7982263931411
 31
0.0
1001
AcDbBlockRepETag
1070
     1
1071
      102
1005
532
  0
LINE
  5
533
330
264
100
AcDbEntity
  8
图框
370
    -3
100
AcDbLine
 10
946.9285026103634
 20
520.2672851814959
 30
0.0
 11
1036.653967466372
 21
520.2672851814959
 31
0.0
1001
AcDbBlockRepETag
1070
     1
1071
      103
1005
533
  0
LINE
  5
534
330
264
100
AcDbEntity
  8
图框
370
    35
100
AcDbLine
 10
946.9285026103634
 20
531.3291676047914
 30
0.0
 11
1126.928502610363
 21
531.3291676047914
 31
0.0
1001
AcDbBlockRepETag
1070
     1
1071
      104
1005
534
  0
LINE
  5
535
330
264
100
AcDbEntity
  8
图框
370
    -3
100
AcDbLine
 10
990.6727612856927
 20
509.2054027581959
 30
0.0
 11
990.6727612856927
 21
484.0347692601515
 31
0.0
1001
AcDbBlockRepETag
1070
     1
1071
      105
1005
535
  0
MTEXT
  5
536
102
{ACAD_XDICTIONARY
360
570
102
}
330
264
100
AcDbEntity
  8
图框
100
AcDbMText
 10
997.1628169651232
 20
499.816589978722
 30
0.0
 40
2.252848170144607
 41
12.98011135886052
 46
6.19230880992475
 71
     5
 72
     5
  1
{\fSimSun|b0|i0|c134|p2;标准化}\PStand.
  7
Romans字体
 73
     1
 44
1.0
1001
AcDbBlockRepETag
1070
     1
1071
      106
1005
536
1001
ACAD
1000
ACAD_MTEXT_DEFINED_HEIGHT_BEGIN
1070
    46
1040
6.19230880992475
1000
ACAD_MTEXT_DEFINED_HEIGHT_END
  0
LINE
  5
537
330
264
100
AcDbEntity
  8
图框
370
    -3
100
AcDbLine
 10
975.4103773808022
 20
509.2054027581959
 30
0.0
 11
975.4103773808022
 21
484.0347692601515
 31
0.0
1001
AcDbBlockRepETag
1070
     1
1071
      107
1005
537
  0
MTEXT
  5
538
330
264
100
AcDbEntity
  8
图框
100
AcDbMText
 10
984.5089229802068
 20
511.9708733640202
 30
0.0
 40
2.448748011026752
 41
38.287899328693
 46
5.530941211648832
 71
     5
 72
     5
  1
  变更描述{\Fromans|c134;/Description}
 73
     1
 44
1.0
1001
AcDbBlockRepETag
1070
     1
1071
      108
1005
538
1001
ACAD
1000
ACAD_MTEXT_DEFINED_HEIGHT_BEGIN
1070
    46
1040
5.530941211648832
1000
ACAD_MTEXT_DEFINED_HEIGHT_END
  0
MTEXT
  5
539
102
{ACAD_XDICTIONARY
360
572
102
}
330
264
100
AcDbEntity
  8
图框
100
AcDbMText
 10
1012.466086049227
 20
511.9708733640202
 30
0.0
 40
1.958998408821398
 41
17.6264268093469
 46
5.530941211648825
 71
     5
 72
     5
  1
{\fSimSun|b0|i0|c134|p2;签名\P\Fromans|c134;Signature} 
 73
     1
 44
1.0
1001
AcDbBlockRepETag
1070
     1
1071
      109
1005
539
1001
ACAD
1000
ACAD_MTEXT_DEFINED_HEIGHT_BEGIN
1070
    46
1040
5.530941211648825
1000
ACAD_MTEXT_DEFINED_HEIGHT_END
  0
MTEXT
  5
53A
102
{ACAD_XDICTIONARY
360
574
102
}
330
264
100
AcDbEntity
  8
图框
100
AcDbMText
 10
960.7558556394856
 20
511.9708733640202
 30
0.0
 40
1.958998408821398
 41
9.218235352749283
 46
5.530941211648841
 71
     5
 72
     5
  1
{\fSimSun|b0|i0|c134|p2;处数\P\Fromans|c134;Number }
 73
     1
 44
1.0
1001
AcDbBlockRepETag
1070
     1
1071
      110
1005
53A
1001
ACAD
1000
ACAD_MTEXT_DEFINED_HEIGHT_BEGIN
1070
    46
1040
5.530941211648841
1000
ACAD_MTEXT_DEFINED_HEIGHT_END
  0
LINE
  5
53B
330
264
100
AcDbEntity
  8
图框
370
    -3
100
AcDbLine
 10
946.9285026103634
 20
514.7363439698449
 30
0.0
 11
1036.653967466372
 21
514.7363439698449
 31
0.0
1001
AcDbBlockRepETag
1070
     1
1071
      111
1005
53B
  0
LINE
  5
53C
330
264
100
AcDbEntity
  8
图框
370
    -3
100
AcDbLine
 10
946.9285026103634
 20
509.2054027581959
 30
0.0
 11
1036.653967466372
 21
509.2054027581959
 31
0.0
1001
AcDbBlockRepETag
1070
     1
1071
      112
1005
53C
  0
LINE
  5
53D
330
264
100
AcDbEntity
  8
图框
370
    -3
100
AcDbLine
 10
946.9285026103634
 20
502.9127443836848
 30
0.0
 11
1036.653967466372
 21
502.9127443836848
 31
0.0
1001
AcDbBlockRepETag
1070
     1
1071
      113
1005
53D
  0
LINE
  5
53E
330
264
100
AcDbEntity
  8
图框
370
    -3
100
AcDbLine
 10
946.9285026103634
 20
496.620086009173
 30
0.0
 11
1036.653967466372
 21
496.620086009173
 31
0.0
1001
AcDbBlockRepETag
1070
     1
1071
      114
1005
53E
  0
LINE
  5
53F
330
264
100
AcDbEntity
  8
图框
370
    35
380
     1
100
AcDbLine
 10
946.9285026103634
 20
531.3291676047914
 30
0.0
 11
946.9285026103634
 21
484.0347692601515
 31
0.0
1001
AcDbBlockRepETag
1070
     1
1071
      115
1005
53F
  0
LINE
  5
540
330
264
100
AcDbEntity
  8
图框
370
    -3
100
AcDbLine
 10
1021.301636813399
 20
531.3291676047914
 30
0.0
 11
1021.301636813399
 21
484.0347692601515
 31
0.0
1001
AcDbBlockRepETag
1070
     1
1071
      116
1005
540
  0
LINE
  5
541
330
264
100
AcDbEntity
  8
图框
370
    -3
100
AcDbLine
 10
1003.652872644553
 20
531.3291676047914
 30
0.0
 11
1003.652872644553
 21
484.0347692601515
 31
0.0
1001
AcDbBlockRepETag
1070
     1
1071
      117
1005
541
  0
LINE
  5
542
330
264
100
AcDbEntity
  8
图框
370
    -3
100
AcDbLine
 10
965.3649733158603
 20
531.3291676047914
 30
0.0
 11
965.3649733158603
 21
509.2054027581959
 31
0.0
1001
AcDbBlockRepETag
1070
     1
1071
      118
1005
542
  0
LINE
  5
543
330
264
100
AcDbEntity
  8
图框
370
    -3
100
AcDbLine
 10
956.1467379631109
 20
531.3291676047914
 30
0.0
 11
956.1467379631109
 21
509.2054027581959
 31
0.0
1001
AcDbBlockRepETag
1070
     1
1071
      119
1005
543
  0
MTEXT
  5
544
102
{ACAD_XDICTIONARY
360
576
102
}
330
264
100
AcDbEntity
  8
图框
100
AcDbMText
 10
951.537620286737
 20
511.9708733640202
 30
0.0
 40
1.958998408821398
 41
9.218235352747692
 46
5.530941211648832
 71
     5
 72
     5
  1
{\fSimSun|b0|i0|c134|p2;标记\P\Fromans|c134;Mark}
 73
     1
 44
1.0
1001
AcDbBlockRepETag
1070
     1
1071
      120
1005
544
1001
ACAD
1000
ACAD_MTEXT_DEFINED_HEIGHT_BEGIN
1070
    46
1040
5.530941211648832
1000
ACAD_MTEXT_DEFINED_HEIGHT_END
  0
MTEXT
  5
545
102
{ACAD_XDICTIONARY
360
578
102
}
330
264
100
AcDbEntity
  8
图框
100
AcDbMText
 10
953.4185582897936
 20
493.4737568219182
 30
0.0
 40
2.252848170144607
 41
12.98011135886041
 46
6.292658374510382
 71
     5
 72
     5
  1
{\fSimSun|b0|i0|c134|p2;审核\P\Fromans|c134;Checked}
 73
     1
 44
1.0
1001
AcDbBlockRepETag
1070
     1
1071
      121
1005
545
1001
ACAD
1000
ACAD_MTEXT_DEFINED_HEIGHT_BEGIN
1070
    46
1040
6.292658374510382
1000
ACAD_MTEXT_DEFINED_HEIGHT_END
  0
MTEXT
  5
546
102
{ACAD_XDICTIONARY
360
57A
102
}
330
264
100
AcDbEntity
  8
图框
100
AcDbMText
 10
953.4185582897936
 20
499.8775635376777
 30
0.0
 40
2.252848170144607
 41
12.98011135886041
 46
6.070361692014189
 71
     5
 72
     5
  1
{\fSimSun|b0|i0|c134|p2;绘图\P\Fromans|c134;Drawn\Ftxt|c134; }
 73
     1
 44
1.0
1001
AcDbBlockRepETag
1070
     1
1071
      122
1005
546
1001
ACAD
1000
ACAD_MTEXT_DEFINED_HEIGHT_BEGIN
1070
    46
1040
6.070361692014189
1000
ACAD_MTEXT_DEFINED_HEIGHT_END
  0
ARC
  5
547
330
264
100
AcDbEntity
  8
图框
 62
     4
370
    35
100
AcDbCircle
 10
1086.900627017421
 20
490.0179944151195
 30
0.0
 40
4.063310408393665
100
AcDbArc
 50
18.95237904564806
 51
161.0476209543519
1001
AcDbBlockRepETag
1070
     1
1071
      123
1005
547
  0
ARC
  5
548
330
264
100
AcDbEntity
  8
图框
 62
     4
370
    35
100
AcDbCircle
 10
1086.900627017421
 20
490.0179944151195
 30
0.0
 40
4.063310408393665
100
AcDbArc
 50
198.952379045648
 51
341.0476209543519
1001
AcDbBlockRepETag
1070
     1
1071
      124
1005
548
  0
LINE
  5
549
330
264
100
AcDbEntity
  8
图框
 62
     4
370
    35
100
AcDbLine
 10
1083.057593369548
 20
488.6983035966752
 30
0.0
 11
1090.74366066529
 21
488.6983035966752
 31
0.0
1001
AcDbBlockRepETag
1070
     1
1071
      125
1005
549
  0
LINE
  5
54A
330
264
100
AcDbEntity
  8
图框
 62
     4
370
    35
100
AcDbLine
 10
1083.057593369548
 20
491.3376852335652
 30
0.0
 11
1090.74366066529
 21
491.3376852335652
 31
0.0
1001
AcDbBlockRepETag
1070
     1
1071
      126
1005
54A
  0
MTEXT
  5
54B
330
264
100
AcDbEntity
  8
图框
 62
     1
370
    20
100
AcDbMText
 10
1083.034582879669
 20
491.0506288081688
 30
0.0
 40
2.005930044038334
 41
5.047240019334847
 46
0.0
 71
     1
 72
     5
  1
{\fArial|b0|i0|c0|p34;W}
  7
Chinese
 73
     1
 44
1.0
1001
AcDbBlockRepETag
1070
     1
1071
      127
1005
54B
  0
LINE
  5
54C
330
264
100
AcDbEntity
  8
图框
370
    -3
100
AcDbLine
 10
946.9285026103634
 20
490.327427634663
 30
0.0
 11
1036.653967466372
 21
490.327427634663
 31
0.0
1001
AcDbBlockRepETag
1070
     1
1071
      128
1005
54C
  0
LINE
  5
54D
330
264
100
AcDbEntity
  8
图框
370
    -3
100
AcDbLine
 10
959.9086139692238
 20
509.2054027581959
 30
0.0
 11
959.9086139692238
 21
484.0347692601515
 31
0.0
1001
AcDbBlockRepETag
1070
     1
1071
      129
1005
54D
  0
MTEXT
  5
54E
330
264
100
AcDbEntity
  8
图框
100
AcDbMText
 10
967.6594956750129
 20
506.0590735709403
 30
0.0
 40
2.252848170144607
 41
15.50176341157869
 46
6.292658374511246
 71
     5
 72
     5
  1
姓名{\Fromans|c134;/Name\Ftxt|c134; }
 73
     1
 44
1.0
1001
AcDbBlockRepETag
1070
     1
1071
      130
1005
54E
1001
ACAD
1000
ACAD_MTEXT_DEFINED_HEIGHT_BEGIN
1070
    46
1040
6.292658374511246
1000
ACAD_MTEXT_DEFINED_HEIGHT_END
  0
MTEXT
  5
54F
330
264
100
AcDbEntity
  8
图框
100
AcDbMText
 10
983.0415693332477
 20
506.0590735709403
 30
0.0
 40
2.252848170144607
 41
15.26238390489042
 46
6.2926583745112
 71
     5
 72
     5
  1
日期{\Fromans|c134;/Date}
 73
     1
 44
1.0
1001
AcDbBlockRepETag
1070
     1
1071
      131
1005
54F
1001
ACAD
1000
ACAD_MTEXT_DEFINED_HEIGHT_BEGIN
1070
    46
1040
6.2926583745112
1000
ACAD_MTEXT_DEFINED_HEIGHT_END
  0
LINE
  5
550
330
264
100
AcDbEntity
  8
图框
370
    -3
100
AcDbLine
 10
946.9285026103634
 20
509.2054027581959
 30
0.0
 11
959.9086139692238
 21
502.9127443836848
 31
0.0
1001
AcDbBlockRepETag
1070
     1
1071
      132
1005
550
  0
MTEXT
  5
551
330
264
100
AcDbEntity
  8
图框
100
AcDbMText
 10
1012.931405110086
 20
506.0185715840725
 30
0.0
 40
2.252848170144607
 41
16.93492221063566
 46
0.0
 71
     5
 72
     5
  1
姓名{\Fromans|c134;/Name}
 73
     1
 44
1.0
1001
AcDbBlockRepETag
1070
     1
1071
      133
1005
551
  0
MTEXT
  5
552
330
264
100
AcDbEntity
  8
图框
100
AcDbMText
 10
1028.977802139886
 20
506.0590735709403
 30
0.0
 40
2.252848170144607
 41
15.35233065297283
 46
6.292658374511256
 71
     5
 72
     5
  1
日期{\Fromans|c134;/Date}
 73
     1
 44
1.0
1001
AcDbBlockRepETag
1070
     1
1071
      134
1005
552
1001
ACAD
1000
ACAD_MTEXT_DEFINED_HEIGHT_BEGIN
1070
    46
1040
6.292658374511256
1000
ACAD_MTEXT_DEFINED_HEIGHT_END
  0
LINE
  5
553
330
264
100
AcDbEntity
  8
图框
370
    -3
100
AcDbLine
 10
1003.652872644553
 20
502.9127443836848
 30
0.0
 11
990.6727612856927
 21
509.2054027581959
 31
0.0
1001
AcDbBlockRepETag
1070
     1
1071
      135
1005
553
  0
MTEXT
  5
554
102
{ACAD_XDICTIONARY
360
57C
102
}
330
264
100
AcDbEntity
  8
图框
100
AcDbMText
 10
997.1628169651232
 20
487.1810984474071
 30
0.0
 40
2.252848170144607
 41
12.98011135886052
 46
6.292658374511517
 71
     5
 72
     5
  1
{\fSimSun|b0|i0|c134|p2;批准\P\Fromans|c134;Approved}
 73
     1
 44
1.0
1001
AcDbBlockRepETag
1070
     1
1071
      136
1005
554
1001
ACAD
1000
ACAD_MTEXT_DEFINED_HEIGHT_BEGIN
1070
    46
1040
6.292658374511517
1000
ACAD_MTEXT_DEFINED_HEIGHT_END
  0
MTEXT
  5
555
102
{ACAD_XDICTIONARY
360
57E
102
}
330
264
100
AcDbEntity
  8
图框
100
AcDbMText
 10
953.4185582897936
 20
487.1810984474071
 30
0.0
 40
2.252848170144607
 41
12.98011135886041
 46
6.292658374511495
 71
     5
 72
     5
  1
{\fSimSun|b0|i0|c134|p2;工艺\P\Fromans|c134;Process}
 73
     1
 44
1.0
1001
AcDbBlockRepETag
1070
     1
1071
      137
1005
555
1001
ACAD
1000
ACAD_MTEXT_DEFINED_HEIGHT_BEGIN
1070
    46
1040
6.292658374511495
1000
ACAD_MTEXT_DEFINED_HEIGHT_END
  0
MTEXT
  5
556
102
{ACAD_XDICTIONARY
360
580
102
}
330
264
100
AcDbEntity
  8
图框
100
AcDbMText
 10
1028.977802139886
 20
511.8287965307664
 30
0.0
 40
1.958998408821398
 41
15.3523306529728
 46
5.246787545140668
 71
     5
 72
     5
  1
{\fSimSun|b0|i0|c134|p2;日期\P\Fromans|c134;Date}
 73
     1
 44
1.0
1001
AcDbBlockRepETag
1070
     1
1071
      138
1005
556
1001
ACAD
1000
ACAD_MTEXT_DEFINED_HEIGHT_BEGIN
1070
    46
1040
5.246787545140668
1000
ACAD_MTEXT_DEFINED_HEIGHT_END
  0
MTEXT
  5
557
330
264
100
AcDbEntity
  8
图框
100
AcDbMText
 10
1086.643735910939
 20
509.1493769780809
 30
0.0
 40
2.154898249703542
 41
13.34474941400573
 46
8.87215554796615
 71
     5
 72
     5
  1
产品料号\P{\Fromans|c134;Part No.}
 73
     1
 44
1.0
1001
AcDbBlockRepETag
1070
     1
1071
      139
1005
557
1001
ACAD
1000
ACAD_MTEXT_DEFINED_HEIGHT_BEGIN
1070
    46
1040
8.87215554796615
1000
ACAD_MTEXT_DEFINED_HEIGHT_END
  0
MTEXT
  5
558
330
264
100
AcDbEntity
  8
图框
100
AcDbMText
 10
1086.643735910939
 20
500.2775205517163
 30
0.0
 40
1.958998408821398
 41
13.34474941400573
 46
8.871557304763321
 71
     5
 72
     5
  1
产品名称\P{\Fromans|c134;Part Name}
 73
     1
 44
1.0
1001
AcDbBlockRepETag
1070
     1
1071
      140
1005
558
1001
ACAD
1000
ACAD_MTEXT_DEFINED_HEIGHT_BEGIN
1070
    46
1040
8.871557304763321
1000
ACAD_MTEXT_DEFINED_HEIGHT_END
  0
LINE
  5
559
330
264
100
AcDbEntity
  8
图框
 62
     1
370
    18
100
AcDbLine
 10
833.4128518455365
 20
690.5347692601515
 30
0.0
 11
833.4128518455365
 21
480.5347692601515
 31
0.0
1001
AcDbBlockRepETag
1070
     1
1071
      141
1005
559
  0
LINE
  5
55A
330
264
100
AcDbEntity
  8
图框
 62
     1
370
    18
100
AcDbLine
 10
833.4128518455365
 20
480.5347692601515
 30
0.0
 11
1130.411601781236
 21
480.5347692601515
 31
0.0
1001
AcDbBlockRepETag
1070
     1
1071
      142
1005
55A
  0
LINE
  5
55B
330
264
100
AcDbEntity
  8
图框
 62
     1
370
    18
100
AcDbLine
 10
833.4128518455365
 20
690.5347692601515
 30
0.0
 11
1130.411601781236
 21
690.5347692601515
 31
0.0
1001
AcDbBlockRepETag
1070
     1
1071
      143
1005
55B
  0
LINE
  5
55C
330
264
100
AcDbEntity
  8
图框
 62
     1
370
    18
100
AcDbLine
 10
1130.411601781236
 20
480.5347692601515
 30
0.0
 11
1130.411601781236
 21
690.5347692601515
 31
0.0
1001
AcDbBlockRepETag
1070
     1
1071
      144
1005
55C
  0
LINE
  5
55D
330
264
100
AcDbEntity
  8
图框
370
    18
100
AcDbLine
 10
836.9128518455394
 20
686.7901958362482
 30
0.0
 11
861.5351874539182
 21
686.7901958362482
 31
0.0
1001
AcDbBlockRepETag
1070
     1
1071
      145
1005
55D
  0
LINE
  5
55E
330
264
100
AcDbEntity
  8
图框
370
    50
100
AcDbLine
 10
1126.928502610363
 20
484.3410054693078
 30
0.0
 11
1126.928502610363
 21
675.5347692601515
 31
0.0
1001
AcDbBlockRepETag
1070
     1
1071
      146
1005
55E
  0
MTEXT
  5
55F
330
264
100
AcDbEntity
  8
图框
 62
     3
100
AcDbMText
 10
1052.897990117958
 20
495.8417418993364
 30
0.0
 40
2.985513575034151
 41
10.82934843439114
 46
7.886094601211307
 71
     5
 72
     5
  1
V1.1
  7
Romans字体
 73
     1
 44
1.0
1001
AcDbBlockRepETag
1070
     1
1071
      147
1005
55F
1001
ACAD
1000
ACAD_MTEXT_DEFINED_HEIGHT_BEGIN
1070
    46
1040
7.886094601211307
1000
ACAD_MTEXT_DEFINED_HEIGHT_END
  0
LINE
  5
560
330
264
100
AcDbEntity
  8
图框
 62
     6
100
AcDbLine
 10
1126.911601781236
 20
531.714049199969
 30
0.0
 11
1130.411601781236
 21
531.714049199969
 31
0.0
1001
AcDbBlockRepETag
1070
     1
1071
      148
1005
560
  0
ENDBLK
  5
2FC
330
264
100
AcDbEntity
  8
0
100
AcDbBlockEnd
  0
BLOCK
  5
30F
330
30E
100
AcDbEntity
  8
0
100
AcDbBlockBegin
  2
*D2
 70
     1
 10
0.0
 20
0.0
 30
0.0
  3
*D2
  1

  0
LINE
  5
3B6
330
30E
100
AcDbEntity
  8
DIM
 62
     6
370
    -2
100
AcDbLine
 10
805.4891125203351
 20
204.5996502126644
 30
0.0
 11
806.4065372039959
 21
204.5996502126644
 31
0.0
  0
LINE
  5
3B7
330
30E
100
AcDbEntity
  8
DIM
 62
     6
370
    -2
100
AcDbLine
 10
805.4891125203351
 20
206.7296502126645
 30
0.0
 11
806.4065372039959
 21
206.7296502126645
 31
0.0
  0
LINE
  5
3B8
330
30E
100
AcDbEntity
  8
DIM
 62
     1
370
    -2
100
AcDbLine
 10
806.206537203996
 20
205.3996502126644
 30
0.0
 11
806.206537203996
 21
205.9296502126645
 31
0.0
  0
LINE
  5
3B9
330
30E
100
AcDbEntity
  8
DIM
 62
     1
370
    -2
100
AcDbLine
 10
806.206537203996
 20
206.7296502126645
 30
0.0
 11
806.206537203996
 21
210.6225073555216
 31
0.0
  0
SOLID
  5
3BA
330
30E
100
AcDbEntity
  8
DIM
 62
     1
100
AcDbTrace
 10
806.0732038706627
 20
205.3996502126644
 30
0.0
 11
806.3398705373293
 21
205.3996502126644
 31
0.0
 12
806.206537203996
 22
204.5996502126644
 32
0.0
 13
806.206537203996
 23
204.5996502126644
 33
0.0
  0
SOLID
  5
3BB
330
30E
100
AcDbEntity
  8
DIM
 62
     1
100
AcDbTrace
 10
806.0732038706627
 20
205.9296502126645
 30
0.0
 11
806.3398705373293
 21
205.9296502126645
 31
0.0
 12
806.206537203996
 22
206.7296502126645
 32
0.0
 13
806.206537203996
 23
206.7296502126645
 33
0.0
  0
MTEXT
  5
3BC
330
30E
100
AcDbEntity
  8
DIM
 62
     4
100
AcDbMText
 10
805.5065372039958
 20
209.7439359269503
 30
0.0
 40
1.0
 41
0.0
 46
0.0
 71
     5
 72
     1
  1
\A1;2.1
  7
Romans字体
 11
0.0000000000000001
 21
1.0
 31
0.0
 73
     1
 44
1.0
  0
POINT
  5
3BD
330
30E
100
AcDbEntity
  8
Defpoints
 62
     0
100
AcDbPoint
 10
805.2891125203352
 20
204.5996502126644
 30
0.0
  0
POINT
  5
3BE
330
30E
100
AcDbEntity
  8
Defpoints
 62
     0
100
AcDbPoint
 10
805.2891125203352
 20
206.7296502126645
 30
0.0
  0
POINT
  5
3BF
330
30E
100
AcDbEntity
  8
Defpoints
 62
     0
100
AcDbPoint
 10
806.206537203996
 20
206.7296502126645
 30
0.0
  0
ENDBLK
  5
310
330
30E
100
AcDbEntity
  8
0
100
AcDbBlockEnd
  0
BLOCK
  5
31C
330
31B
100
AcDbEntity
  8
0
100
AcDbBlockBegin
  2
*D3
 70
     1
 10
0.0
 20
0.0
 30
0.0
  3
*D3
  1

  0
LINE
  5
3C9
330
31B
100
AcDbEntity
  8
DIM
 62
     6
370
    -2
100
AcDbLine
 10
797.5391125203352
 20
204.714650212664
 30
0.0
 11
797.5391125203352
 21
200.796172924
 31
0.0
  0
LINE
  5
3CA
330
31B
100
AcDbEntity
  8
DIM
 62
     6
370
    -2
100
AcDbLine
 10
811.9391125203343
 20
204.5896500339301
 30
0.0
 11
811.9391125203343
 21
200.796172924
 31
0.0
  0
LINE
  5
3CB
330
31B
100
AcDbEntity
  8
DIM
 62
     1
370
    -2
100
AcDbLine
 10
798.3391125203352
 20
200.996172924
 30
0.0
 11
811.1391125203342
 21
200.996172924
 31
0.0
  0
SOLID
  5
3CC
330
31B
100
AcDbEntity
  8
DIM
 62
     1
100
AcDbTrace
 10
798.3391125203352
 20
201.1295062573333
 30
0.0
 11
798.3391125203352
 21
200.8628395906667
 31
0.0
 12
797.5391125203352
 22
200.996172924
 32
0.0
 13
797.5391125203352
 23
200.996172924
 33
0.0
  0
SOLID
  5
3CD
330
31B
100
AcDbEntity
  8
DIM
 62
     1
100
AcDbTrace
 10
811.1391125203342
 20
201.1295062573333
 30
0.0
 11
811.1391125203342
 21
200.8628395906667
 31
0.0
 12
811.9391125203343
 22
200.996172924
 32
0.0
 13
811.9391125203343
 23
200.996172924
 33
0.0
  0
MTEXT
  5
3CE
330
31B
100
AcDbEntity
  8
DIM
 62
     4
100
AcDbMText
 10
804.7391125203347
 20
201.696172924
 30
0.0
 40
1.0
 41
0.0
 46
0.0
 71
     5
 72
     1
  1
\A1;14.4
  7
Romans字体
 73
     1
 44
1.0
  0
POINT
  5
3CF
330
31B
100
AcDbEntity
  8
Defpoints
 62
     0
100
AcDbPoint
 10
797.5391125203352
 20
204.914650212664
 30
0.0
  0
POINT
  5
3D0
330
31B
100
AcDbEntity
  8
Defpoints
 62
     0
100
AcDbPoint
 10
811.9391125203343
 20
204.7896500339301
 30
0.0
  0
POINT
  5
3D1
330
31B
100
AcDbEntity
  8
Defpoints
 62
     0
100
AcDbPoint
 10
811.9391125203343
 20
200.996172924
 30
0.0
  0
ENDBLK
  5
31D
330
31B
100
AcDbEntity
  8
0
100
AcDbBlockEnd
  0
BLOCK
  5
328
330
327
100
AcDbEntity
  8
0
100
AcDbBlockBegin
  2
*D4
 70
     1
 10
0.0
 20
0.0
 30
0.0
  3
*D4
  1

  0
LINE
  5
3AC
330
327
100
AcDbEntity
  8
DIM
 62
     6
370
    -2
100
AcDbLine
 10
812.1391125203341
 20
204.7896500339297
 30
0.0
 11
816.6000657784135
 21
204.7896500339297
 31
0.0
  0
LINE
  5
3AD
330
327
100
AcDbEntity
  8
DIM
 62
     6
370
    -2
100
AcDbLine
 10
812.1391125203333
 20
206.5396500339296
 30
0.0
 11
816.6000657784135
 21
206.5396500339296
 31
0.0
  0
LINE
  5
3AE
330
327
100
AcDbEntity
  8
DIM
 62
     1
370
    -2
100
AcDbLine
 10
816.4000657784134
 20
203.9896500339296
 30
0.0
 11
816.4000657784134
 21
203.1896500339297
 31
0.0
  0
LINE
  5
3AF
330
327
100
AcDbEntity
  8
DIM
 62
     1
370
    -2
100
AcDbLine
 10
816.4000657784134
 20
207.3396500339297
 30
0.0
 11
816.4000657784134
 21
209.7539357482154
 31
0.0
  0
SOLID
  5
3B0
330
327
100
AcDbEntity
  8
DIM
 62
     1
100
AcDbTrace
 10
816.2667324450801
 20
203.9896500339296
 30
0.0
 11
816.5333991117467
 21
203.9896500339296
 31
0.0
 12
816.4000657784134
 22
204.7896500339297
 32
0.0
 13
816.4000657784134
 23
204.7896500339297
 33
0.0
  0
SOLID
  5
3B1
330
327
100
AcDbEntity
  8
DIM
 62
     1
100
AcDbTrace
 10
816.2667324450801
 20
207.3396500339297
 30
0.0
 11
816.5333991117467
 21
207.3396500339297
 31
0.0
 12
816.4000657784134
 22
206.5396500339296
 32
0.0
 13
816.4000657784134
 23
206.5396500339296
 33
0.0
  0
MTEXT
  5
3B2
330
327
100
AcDbEntity
  8
DIM
 62
     4
100
AcDbMText
 10
815.7000657784132
 20
208.9467928910726
 30
0.0
 40
1.0
 41
0.0
 46
0.0
 71
     5
 72
     1
  1
\A1;%%CD
  7
Romans字体
 11
0.0000000000000001
 21
1.0
 31
0.0
 73
     1
 44
1.0
  0
POINT
  5
3B3
330
327
100
AcDbEntity
  8
Defpoints
 62
     0
100
AcDbPoint
 10
811.9391125203343
 20
204.7896500339297
 30
0.0
  0
POINT
  5
3B4
330
327
100
AcDbEntity
  8
Defpoints
 62
     0
100
AcDbPoint
 10
811.9391125203332
 20
206.5396500339296
 30
0.0
  0
POINT
  5
3B5
330
327
100
AcDbEntity
  8
Defpoints
 62
     0
100
AcDbPoint
 10
816.4000657784134
 20
206.5396500339296
 30
0.0
  0
ENDBLK
  5
329
330
327
100
AcDbEntity
  8
0
100
AcDbBlockEnd
  0
BLOCK
  5
335
330
334
100
AcDbEntity
  8
0
100
AcDbBlockBegin
  2
*D5
 70
     1
 10
0.0
 20
0.0
 30
0.0
  3
*D5
  1

  0
LINE
  5
3C0
330
334
100
AcDbEntity
  8
DIM
 62
     6
370
    -2
100
AcDbLine
 10
807.9391125200476
 20
204.7896502126648
 30
0.0
 11
807.9391125200476
 21
202.6022407641115
 31
0.0
  0
LINE
  5
3C1
330
334
100
AcDbEntity
  8
DIM
 62
     6
370
    -2
100
AcDbLine
 10
811.9391125203343
 20
204.5896500339301
 30
0.0
 11
811.9391125203343
 21
202.6022407641115
 31
0.0
  0
LINE
  5
3C2
330
334
100
AcDbEntity
  8
DIM
 62
     1
370
    -2
100
AcDbLine
 10
808.7391125200474
 20
202.8022407641115
 30
0.0
 11
811.1391125203342
 21
202.8022407641115
 31
0.0
  0
SOLID
  5
3C3
330
334
100
AcDbEntity
  8
DIM
 62
     1
100
AcDbTrace
 10
808.7391125200474
 20
202.9355740974449
 30
0.0
 11
808.7391125200474
 21
202.6689074307782
 31
0.0
 12
807.9391125200476
 22
202.8022407641115
 32
0.0
 13
807.9391125200476
 23
202.8022407641115
 33
0.0
  0
SOLID
  5
3C4
330
334
100
AcDbEntity
  8
DIM
 62
     1
100
AcDbTrace
 10
811.1391125203342
 20
202.9355740974449
 30
0.0
 11
811.1391125203342
 21
202.6689074307782
 31
0.0
 12
811.9391125203343
 22
202.8022407641115
 32
0.0
 13
811.9391125203343
 23
202.8022407641115
 33
0.0
  0
MTEXT
  5
3C5
330
334
100
AcDbEntity
  8
DIM
 62
     4
100
AcDbMText
 10
809.9391125201908
 20
203.5022407641115
 30
0.0
 40
1.0
 41
0.0
 46
0.0
 71
     5
 72
     1
  1
\A1;4
  7
Romans字体
 73
     1
 44
1.0
  0
POINT
  5
3C6
330
334
100
AcDbEntity
  8
Defpoints
 62
     0
100
AcDbPoint
 10
807.9391125200476
 20
204.9896502126648
 30
0.0
  0
POINT
  5
3C7
330
334
100
AcDbEntity
  8
Defpoints
 62
     0
100
AcDbPoint
 10
811.9391125203343
 20
204.7896500339301
 30
0.0
  0
POINT
  5
3C8
330
334
100
AcDbEntity
  8
Defpoints
 62
     0
100
AcDbPoint
 10
811.9391125203343
 20
202.8022407641115
 30
0.0
  0
ENDBLK
  5
336
330
334
100
AcDbEntity
  8
0
100
AcDbBlockEnd
  0
BLOCK
  5
341
330
340
100
AcDbEntity
  8
0
100
AcDbBlockBegin
  2
*D6
 70
     1
 10
0.0
 20
0.0
 30
0.0
  3
*D6
  1

  0
LINE
  5
3A2
330
340
100
AcDbEntity
  8
DIM
 62
     6
370
    -2
100
AcDbLine
 10
812.0308695203343
 20
204.9896502802052
 30
0.0
 11
814.3219839970951
 21
204.9896502802052
 31
0.0
  0
LINE
  5
3A3
330
340
100
AcDbEntity
  8
DIM
 62
     6
370
    -2
100
AcDbLine
 10
812.0849910203343
 20
206.3856452126633
 30
0.0
 11
814.3219839970951
 21
206.3856452126633
 31
0.0
  0
LINE
  5
3A4
330
340
100
AcDbEntity
  8
DIM
 62
     1
370
    -2
100
AcDbLine
 10
814.1219839970952
 20
204.1896502802052
 30
0.0
 11
814.1219839970952
 21
203.3896502802052
 31
0.0
  0
LINE
  5
3A5
330
340
100
AcDbEntity
  8
DIM
 62
     1
370
    -2
100
AcDbLine
 10
814.1219839970952
 20
207.1856452126633
 30
0.0
 11
814.1219839970952
 21
209.4927880698062
 31
0.0
  0
SOLID
  5
3A6
330
340
100
AcDbEntity
  8
DIM
 62
     1
100
AcDbTrace
 10
813.9886506637619
 20
204.1896502802052
 30
0.0
 11
814.2553173304285
 21
204.1896502802052
 31
0.0
 12
814.1219839970952
 22
204.9896502802052
 32
0.0
 13
814.1219839970952
 23
204.9896502802052
 33
0.0
  0
SOLID
  5
3A7
330
340
100
AcDbEntity
  8
DIM
 62
     1
100
AcDbTrace
 10
813.9886506637619
 20
207.1856452126633
 30
0.0
 11
814.2553173304285
 21
207.1856452126633
 31
0.0
 12
814.1219839970952
 22
206.3856452126633
 32
0.0
 13
814.1219839970952
 23
206.3856452126633
 33
0.0
  0
MTEXT
  5
3A8
330
340
100
AcDbEntity
  8
DIM
 62
     4
100
AcDbMText
 10
813.4219839970951
 20
208.7392166412349
 30
0.0
 40
1.0
 41
0.0
 46
0.0
 71
     5
 72
     1
  1
\A1;%%Cd
  7
Romans字体
 11
0.0000000000000001
 21
1.0
 31
0.0
 73
     1
 44
1.0
  0
POINT
  5
3A9
330
340
100
AcDbEntity
  8
Defpoints
 62
     0
100
AcDbPoint
 10
811.8308695203342
 20
204.9896502802052
 30
0.0
  0
POINT
  5
3AA
330
340
100
AcDbEntity
  8
Defpoints
 62
     0
100
AcDbPoint
 10
811.8849910203342
 20
206.3856452126633
 30
0.0
  0
POINT
  5
3AB
330
340
100
AcDbEntity
  8
Defpoints
 62
     0
100
AcDbPoint
 10
814.1219839970952
 20
206.3856452126633
 30
0.0
  0
ENDBLK
  5
342
330
340
100
AcDbEntity
  8
0
100
AcDbBlockEnd
  0
ENDSEC
  0
SECTION
  2
ENTITIES
  0
HATCH
  5
16
330
2
100
AcDbEntity
  8
图层 1
 62
     7
100
AcDbHatch
 10
0.0
 20
0.0
 30
0.0
210
0.0
220
0.0
230
1.0
  2
SOLID
 70
     1
 71
     0
 91
        1
 92
        1
 93
        2
 72
     4
 94
        3
 73
     0
 74
     0
 95
       17
 96
       13
 40
0.0
 40
0.0
 40
0.0
 40
0.0
 40
0.3527780104152769
 40
0.3527780104152769
 40
0.3527780104152769
 40
0.7055560208305538
 40
0.7055560208305538
 40
0.7055560208305538
 40
1.058334031245828
 40
1.058334031245828
 40
1.058334031245828
 40
1.411112041661104
 40
1.411112041661104
 40
1.411112041661104
 40
1.411112041661104
 10
11.07013262565829
 20
29.50312817963231
 10
11.07013262565829
 20
29.50312817963231
 10
10.9431807732774
 20
29.50312817963231
 10
10.9431807732774
 20
29.50312817963231
 10
10.9431807732774
 20
29.50312817963231
 10
10.85843136843155
 20
29.22786486877117
 10
10.85843136843155
 20
29.22786486877117
 10
10.85843136843155
 20
29.22786486877117
 10
10.90080607085448
 20
29.2068497724476
 10
10.90080607085448
 20
29.2068497724476
 10
10.94455881238059
 20
29.31571486159919
 10
11.00346998404173
 20
29.40907701083995
 10
11.07013262565829
 20
29.50312817963231
 72
     1
 10
11.07013262565829
 20
29.50312817963231
 11
11.07013262565829
 21
29.50312817963231
 97
        0
 75
     0
 76
     1
 98
        0
450
        0
451
        0
460
0.0
461
0.0
452
        0
462
0.0
453
        0
470

  0
HATCH
  5
1A
330
2
100
AcDbEntity
  8
图层 1
 62
     7
100
AcDbHatch
 10
0.0
 20
0.0
 30
0.0
210
0.0
220
0.0
230
1.0
  2
SOLID
 70
     1
 71
     0
 91
        1
 92
        1
 93
        2
 72
     4
 94
        3
 73
     0
 74
     0
 95
       47
 96
       43
 40
0.0
 40
0.0
 40
0.0
 40
0.0
 40
0.3527780104152769
 40
0.3527780104152769
 40
0.3527780104152769
 40
0.7055560208305538
 40
0.7055560208305538
 40
0.7055560208305538
 40
1.058334031245828
 40
1.058334031245828
 40
1.058334031245828
 40
1.411112041661104
 40
1.411112041661104
 40
1.411112041661104
 40
1.763890052076384
 40
1.763890052076384
 40
1.763890052076384
 40
2.116668062491659
 40
2.116668062491659
 40
2.116668062491659
 40
2.469446072906936
 40
2.469446072906936
 40
2.469446072906936
 40
2.822224083322215
 40
2.822224083322215
 40
2.822224083322215
 40
3.175002093737492
 40
3.175002093737492
 40
3.175002093737492
 40
3.527780104152768
 40
3.527780104152768
 40
3.527780104152768
 40
3.880558114568044
 40
3.880558114568044
 40
3.880558114568044
 40
4.233336124983321
 40
4.233336124983321
 40
4.233336124983321
 40
4.586114135398599
 40
4.586114135398599
 40
4.586114135398599
 40
4.938892145813873
 40
4.938892145813873
 40
4.938892145813873
 40
4.938892145813873
 10
162.8986914070121
 20
257.4895347631509
 10
162.8986914070121
 20
257.4895347631509
 10
162.9200510131114
 20
257.4471600607279
 10
162.9200510131114
 20
257.4471600607279
 10
162.9200510131114
 20
257.4471600607279
 10
162.9200510131114
 20
257.404785358305
 10
162.9200510131114
 20
257.404785358305
 10
162.9200510131114
 20
257.404785358305
 10
162.8986914070121
 20
257.36258291077
 10
162.8986914070121
 20
257.36258291077
 10
162.8986914070121
 20
257.36258291077
 10
162.8986914070121
 20
257.320208208347
 10
162.8986914070121
 20
257.320208208347
 10
162.8986914070121
 20
257.320208208347
 10
162.8563167045891
 20
257.2990208571356
 10
162.8563167045891
 20
257.2990208571356
 10
162.8563167045891
 20
257.2990208571356
 10
162.8139420021662
 20
257.2563016449369
 10
162.8139420021662
 20
257.2563016449369
 10
162.8139420021662
 20
257.2563016449369
 10
162.7295371070961
 20
257.2563016449369
 10
162.7295371070961
 20
257.2563016449369
 10
162.7295371070961
 20
257.2563016449369
 10
162.6658027985738
 20
257.2778335059241
 10
162.6658027985738
 20
257.2778335059241
 10
162.6658027985738
 20
257.2778335059241
 10
162.6237726059267
 20
257.2990208571356
 10
162.6237726059267
 20
257.2990208571356
 10
162.6237726059267
 20
257.2990208571356
 10
162.5813979035038
 20
257.3413955595585
 10
162.5813979035038
 20
257.3413955595585
 10
162.5813979035038
 20
257.3413955595585
 10
162.5813979035038
 20
257.4895347631509
 10
162.5813979035038
 20
257.4895347631509
 10
162.5813979035038
 20
257.4895347631509
 10
162.6447877022503
 20
257.5525800521216
 10
162.6447877022503
 20
257.5525800521216
 10
162.6447877022503
 20
257.5525800521216
 10
162.7081775009967
 20
257.5525800521216
 10
162.7081775009967
 20
257.5525800521216
 10
162.8749202324821
 20
257.5424170137356
 10
162.7918933765152
 20
257.5939212252171
 10
162.8986914070121
 20
257.4895347631509
 72
     1
 10
162.8986914070121
 20
257.4895347631509
 11
162.8986914070121
 21
257.4895347631509
 97
        0
 75
     0
 76
     1
 98
        0
450
        0
451
        0
460
0.0
461
0.0
452
        0
462
0.0
453
        0
470

  0
HATCH
  5
1B
330
2
100
AcDbEntity
  8
图层 1
 62
     7
100
AcDbHatch
 10
0.0
 20
0.0
 30
0.0
210
0.0
220
0.0
230
1.0
  2
SOLID
 70
     1
 71
     0
 91
        1
 92
        1
 93
        2
 72
     4
 94
        3
 73
     0
 74
     0
 95
       56
 96
       52
 40
0.0
 40
0.0
 40
0.0
 40
0.0
 40
0.3527780104152769
 40
0.3527780104152769
 40
0.3527780104152769
 40
0.7055560208305538
 40
0.7055560208305538
 40
0.7055560208305538
 40
1.058334031245828
 40
1.058334031245828
 40
1.058334031245828
 40
1.411112041661104
 40
1.411112041661104
 40
1.411112041661104
 40
1.763890052076384
 40
1.763890052076384
 40
1.763890052076384
 40
2.116668062491659
 40
2.116668062491659
 40
2.116668062491659
 40
2.469446072906936
 40
2.469446072906936
 40
2.469446072906936
 40
2.822224083322215
 40
2.822224083322215
 40
2.822224083322215
 40
3.175002093737492
 40
3.175002093737492
 40
3.175002093737492
 40
3.527780104152768
 40
3.527780104152768
 40
3.527780104152768
 40
3.880558114568044
 40
3.880558114568044
 40
3.880558114568044
 40
4.233336124983321
 40
4.233336124983321
 40
4.233336124983321
 40
4.586114135398599
 40
4.586114135398599
 40
4.586114135398599
 40
4.938892145813873
 40
4.938892145813873
 40
4.938892145813873
 40
5.291670156229153
 40
5.291670156229153
 40
5.291670156229153
 40
5.64444816664443
 40
5.64444816664443
 40
5.64444816664443
 40
5.997226177059705
 40
5.997226177059705
 40
5.997226177059705
 40
5.997226177059705
 10
185.4837187788815
 20
241.4451977396596
 10
185.4837187788815
 20
241.4451977396596
 10
185.4837187788815
 20
241.4028230372367
 10
185.4837187788815
 20
241.4028230372367
 10
185.4837187788815
 20
241.4028230372367
 10
185.5047338752051
 20
241.3604483348137
 10
185.5047338752051
 20
241.3604483348137
 10
185.4520238795082
 20
241.2782827532863
 10
185.4671823096433
 20
241.1897437409066
 10
185.335579575289
 20
241.2119646214456
 10
185.335579575289
 20
241.2119646214456
 10
185.2932048728662
 20
241.2119646214456
 10
185.2932048728662
 20
241.2119646214456
 10
185.2932048728662
 20
241.2119646214456
 10
185.2294705643439
 20
241.2334964824328
 10
185.2294705643439
 20
241.2334964824328
 10
185.2294705643439
 20
241.2334964824328
 10
185.1660807655974
 20
241.2543393238685
 10
185.1660807655974
 20
241.2543393238685
 10
185.1660807655974
 20
241.2543393238685
 10
185.1450656692739
 20
241.2758711848558
 10
185.1450656692739
 20
241.2758711848558
 10
185.1450656692739
 20
241.2758711848558
 10
185.1450656692739
 20
241.2967140262914
 10
185.1450656692739
 20
241.2967140262914
 10
185.1450656692739
 20
241.2967140262914
 10
185.1237060631745
 20
241.3604483348137
 10
185.1237060631745
 20
241.3604483348137
 10
185.1237060631745
 20
241.3604483348137
 10
185.1237060631745
 20
241.4028230372367
 10
185.1237060631745
 20
241.4028230372367
 10
185.1237060631745
 20
241.4028230372367
 10
185.1660807655974
 20
241.4875724420825
 10
185.1660807655974
 20
241.4875724420825
 10
185.1660807655974
 20
241.4875724420825
 10
185.2084554680203
 20
241.5085875384061
 10
185.2084554680203
 20
241.5085875384061
 10
185.2084554680203
 20
241.5085875384061
 10
185.2718452667668
 20
241.5297748896175
 10
185.2718452667668
 20
241.5297748896175
 10
185.2718452667668
 20
241.5297748896175
 10
185.3565946716127
 20
241.5297748896175
 10
185.3565946716127
 20
241.5297748896175
 10
185.3565946716127
 20
241.5297748896175
 10
185.4199844703592
 20
241.5085875384061
 10
185.4199844703592
 20
241.5085875384061
 10
185.4199844703592
 20
241.5085875384061
 10
185.4623591727821
 20
241.4875724420825
 10
185.4623591727821
 20
241.4875724420825
 10
185.4623591727821
 20
241.4875724420825
 10
185.4837187788815
 20
241.4451977396596
 10
185.4837187788815
 20
241.4451977396596
 72
     1
 10
185.4837187788815
 20
241.4451977396596
 11
185.4837187788815
 21
241.4451977396596
 97
        0
 75
     0
 76
     1
 98
        0
450
        0
451
        0
460
0.0
461
0.0
452
        0
462
0.0
453
        0
470

  0
HATCH
  5
1C
330
2
100
AcDbEntity
  8
图层 1
 62
     7
100
AcDbHatch
 10
0.0
 20
0.0
 30
0.0
210
0.0
220
0.0
230
1.0
  2
SOLID
 70
     1
 71
     0
 91
        1
 92
        1
 93
        2
 72
     4
 94
        3
 73
     0
 74
     0
 95
       38
 96
       34
 40
0.0
 40
0.0
 40
0.0
 40
0.0
 40
0.3527780104152769
 40
0.3527780104152769
 40
0.3527780104152769
 40
0.7055560208305538
 40
0.7055560208305538
 40
0.7055560208305538
 40
1.058334031245828
 40
1.058334031245828
 40
1.058334031245828
 40
1.411112041661104
 40
1.411112041661104
 40
1.411112041661104
 40
1.763890052076384
 40
1.763890052076384
 40
1.763890052076384
 40
2.116668062491659
 40
2.116668062491659
 40
2.116668062491659
 40
2.469446072906936
 40
2.469446072906936
 40
2.469446072906936
 40
2.822224083322215
 40
2.822224083322215
 40
2.822224083322215
 40
3.175002093737492
 40
3.175002093737492
 40
3.175002093737492
 40
3.527780104152768
 40
3.527780104152768
 40
3.527780104152768
 40
3.880558114568044
 40
3.880558114568044
 40
3.880558114568044
 40
3.880558114568044
 10
185.907121293335
 20
220.1937677098971
 10
185.9005756075949
 20
220.0449394867532
 10
185.9329595265197
 20
220.1136691870245
 10
185.864746590912
 20
219.9817219428946
 10
185.864746590912
 20
219.9817219428946
 10
185.822371888489
 20
219.9605345916831
 10
185.822371888489
 20
219.9605345916831
 10
185.822371888489
 20
219.9605345916831
 10
185.6528730787974
 20
219.9605345916831
 10
185.6528730787974
 20
219.9605345916831
 10
185.6528730787974
 20
219.9605345916831
 10
185.5894832800509
 20
220.002909294106
 10
185.5894832800509
 20
220.002909294106
 10
185.5894832800509
 20
220.002909294106
 10
185.5681236739515
 20
220.0240966453175
 10
185.5681236739515
 20
220.0240966453175
 10
185.5681236739515
 20
220.0240966453175
 10
185.5681236739515
 20
220.045283996529
 10
185.5681236739515
 20
220.045283996529
 10
185.5681236739515
 20
220.045283996529
 10
185.547108577628
 20
220.0876586989519
 10
185.547108577628
 20
220.0876586989519
 10
185.547108577628
 20
220.0876586989519
 10
185.547108577628
 20
220.1513930074742
 10
185.547108577628
 20
220.1513930074742
 10
185.547108577628
 20
220.1513930074742
 10
185.5894832800509
 20
220.23614241232
 10
185.5894832800509
 20
220.23614241232
 10
185.5894832800509
 20
220.23614241232
 10
185.6318579824738
 20
220.2573297635315
 10
185.6318579824738
 20
220.2573297635315
 10
185.7055830744942
 20
220.2566407439799
 10
185.8416644359337
 20
220.3310548555519
 10
185.907121293335
 20
220.1937677098971
 72
     1
 10
185.907121293335
 20
220.1937677098971
 11
185.907121293335
 21
220.1937677098971
 97
        0
 75
     0
 76
     1
 98
        0
450
        0
451
        0
460
0.0
461
0.0
452
        0
462
0.0
453
        0
470

  0
HATCH
  5
1D
330
2
100
AcDbEntity
  8
图层 1
 62
     7
100
AcDbHatch
 10
0.0
 20
0.0
 30
0.0
210
0.0
220
0.0
230
1.0
  2
SOLID
 70
     1
 71
     0
 91
        1
 92
        1
 93
        2
 72
     4
 94
        3
 73
     0
 74
     0
 95
       50
 96
       46
 40
0.0
 40
0.0
 40
0.0
 40
0.0
 40
0.3527780104152769
 40
0.3527780104152769
 40
0.3527780104152769
 40
0.7055560208305538
 40
0.7055560208305538
 40
0.7055560208305538
 40
1.058334031245828
 40
1.058334031245828
 40
1.058334031245828
 40
1.411112041661104
 40
1.411112041661104
 40
1.411112041661104
 40
1.763890052076384
 40
1.763890052076384
 40
1.763890052076384
 40
2.116668062491659
 40
2.116668062491659
 40
2.116668062491659
 40
2.469446072906936
 40
2.469446072906936
 40
2.469446072906936
 40
2.822224083322215
 40
2.822224083322215
 40
2.822224083322215
 40
3.175002093737492
 40
3.175002093737492
 40
3.175002093737492
 40
3.527780104152768
 40
3.527780104152768
 40
3.527780104152768
 40
3.880558114568044
 40
3.880558114568044
 40
3.880558114568044
 40
4.233336124983321
 40
4.233336124983321
 40
4.233336124983321
 40
4.586114135398599
 40
4.586114135398599
 40
4.586114135398599
 40
4.938892145813873
 40
4.938892145813873
 40
4.938892145813873
 40
5.291670156229153
 40
5.291670156229153
 40
5.291670156229153
 40
5.291670156229153
 10
180.9117295442905
 20
208.9327766684477
 10
180.9117295442905
 20
208.9327766684477
 10
180.9117295442905
 20
208.7637946234197
 10
180.9117295442905
 20
208.7637946234197
 10
181.2273004989198
 20
208.6749111012643
 10
181.3833634273555
 20
208.6776671794706
 10
181.6948002646751
 20
208.5097186637701
 10
181.9542161258496
 20
208.4294478860095
 10
182.1388733656765
 20
208.2134402565853
 10
182.3297317814676
 20
208.02292635057
 10
182.3297317814676
 20
208.02292635057
 10
182.435496282637
 20
208.065301052993
 10
182.435496282637
 20
208.065301052993
 10
182.288390608372
 20
208.2733849575739
 10
182.3752070718726
 20
208.2134402565853
 10
182.1605774815516
 20
208.3824223016133
 10
182.1605774815516
 20
208.3824223016133
 10
182.1182027791287
 20
208.4247970040363
 10
182.1182027791287
 20
208.4247970040363
 10
182.1182027791287
 20
208.4247970040363
 10
182.0968431730294
 20
208.467516216235
 10
182.0968431730294
 20
208.467516216235
 10
182.0968431730294
 20
208.467516216235
 10
182.0544684706064
 20
208.4883590576707
 10
182.0544684706064
 20
208.4883590576707
 10
182.0544684706064
 20
208.4883590576707
 10
181.9910786718599
 20
208.5305615052057
 10
181.9910786718599
 20
208.5305615052057
 10
181.9910786718599
 20
208.5305615052057
 10
181.948703969437
 20
208.552093366193
 10
181.948703969437
 20
208.552093366193
 10
181.948703969437
 20
208.552093366193
 10
181.9063292670141
 20
208.5729362076286
 10
181.9063292670141
 20
208.5729362076286
 10
181.9063292670141
 20
208.5729362076286
 10
181.8639545645911
 20
208.6156554198274
 10
181.8639545645911
 20
208.6156554198274
 10
181.8639545645911
 20
208.6156554198274
 10
181.821924371944
 20
208.6368427710388
 10
181.821924371944
 20
208.6368427710388
 10
181.6637943848536
 20
208.6742220817127
 10
181.5452830219797
 20
208.8092699138248
 10
181.3771622513911
 20
208.8061693258427
 10
181.2803550043924
 20
208.8573290275484
 10
181.0126709085988
 20
208.8971199066528
 10
180.9117295442905
 20
208.9327766684477
 72
     1
 10
180.9117295442905
 20
208.9327766684477
 11
180.9117295442905
 21
208.9327766684477
 97
        0
 75
     0
 76
     1
 98
        0
450
        0
451
        0
460
0.0
461
0.0
452
        0
462
0.0
453
        0
470

  0
HATCH
  5
1E
330
2
100
AcDbEntity
  8
图层 1
 62
     7
100
AcDbHatch
 10
0.0
 20
0.0
 30
0.0
210
0.0
220
0.0
230
1.0
  2
SOLID
 70
     1
 71
     0
 91
        1
 92
        1
 93
        2
 72
     4
 94
        3
 73
     0
 74
     0
 95
       38
 96
       34
 40
0.0
 40
0.0
 40
0.0
 40
0.0
 40
0.3527780104152769
 40
0.3527780104152769
 40
0.3527780104152769
 40
0.7055560208305538
 40
0.7055560208305538
 40
0.7055560208305538
 40
1.058334031245828
 40
1.058334031245828
 40
1.058334031245828
 40
1.411112041661104
 40
1.411112041661104
 40
1.411112041661104
 40
1.763890052076384
 40
1.763890052076384
 40
1.763890052076384
 40
2.116668062491659
 40
2.116668062491659
 40
2.116668062491659
 40
2.469446072906936
 40
2.469446072906936
 40
2.469446072906936
 40
2.822224083322215
 40
2.822224083322215
 40
2.822224083322215
 40
3.175002093737492
 40
3.175002093737492
 40
3.175002093737492
 40
3.527780104152768
 40
3.527780104152768
 40
3.527780104152768
 40
3.880558114568044
 40
3.880558114568044
 40
3.880558114568044
 40
3.880558114568044
 10
189.145513185819
 20
166.8326485368285
 10
189.207869455238
 20
166.740492171803
 10
189.1317327947871
 20
166.6833035490209
 10
189.103138483396
 20
166.6209472796017
 10
189.103138483396
 20
166.6209472796017
 10
189.0607637809731
 20
166.5997599283903
 10
189.0607637809731
 20
166.5997599283903
 10
189.0607637809731
 20
166.5997599283903
 10
188.9973739822266
 20
166.5785725771788
 10
188.9973739822266
 20
166.5785725771788
 10
188.9973739822266
 20
166.5785725771788
 10
188.9549992798037
 20
166.5997599283903
 10
188.9549992798037
 20
166.5997599283903
 10
188.9549992798037
 20
166.5997599283903
 10
188.8916094810572
 20
166.5997599283903
 10
188.8916094810572
 20
166.5997599283903
 10
188.8916094810572
 20
166.5997599283903
 10
188.8492347786343
 20
166.6209472796017
 10
188.8492347786343
 20
166.6209472796017
 10
188.8492347786343
 20
166.6209472796017
 10
188.8278751725349
 20
166.6633219820247
 10
188.8278751725349
 20
166.6633219820247
 10
188.8278751725349
 20
166.6633219820247
 10
188.8068600762114
 20
166.6845093332361
 10
188.8068600762114
 20
166.6845093332361
 10
188.8068600762114
 20
166.6845093332361
 10
188.8068600762114
 20
166.8326485368285
 10
188.8068600762114
 20
166.8326485368285
 10
188.8068600762114
 20
166.8326485368285
 10
188.8702498749578
 20
166.896038335575
 10
188.8702498749578
 20
166.896038335575
 10
189.0228677056355
 20
166.8819134347673
 10
189.0686875058164
 20
166.9411691162043
 10
189.145513185819
 20
166.8326485368285
 72
     1
 10
189.145513185819
 20
166.8326485368285
 11
189.145513185819
 21
166.8326485368285
 97
        0
 75
     0
 76
     1
 98
        0
450
        0
451
        0
460
0.0
461
0.0
452
        0
462
0.0
453
        0
470

  0
HATCH
  5
1F
330
2
100
AcDbEntity
  8
图层 1
 62
     7
100
AcDbHatch
 10
0.0
 20
0.0
 30
0.0
210
0.0
220
0.0
230
1.0
  2
SOLID
 70
     1
 71
     0
 91
        1
 92
        1
 93
        2
 72
     4
 94
        3
 73
     0
 74
     0
 95
       68
 96
       64
 40
0.0
 40
0.0
 40
0.0
 40
0.0
 40
0.3527780104152769
 40
0.3527780104152769
 40
0.3527780104152769
 40
0.7055560208305538
 40
0.7055560208305538
 40
0.7055560208305538
 40
1.058334031245828
 40
1.058334031245828
 40
1.058334031245828
 40
1.411112041661104
 40
1.411112041661104
 40
1.411112041661104
 40
1.763890052076384
 40
1.763890052076384
 40
1.763890052076384
 40
2.116668062491659
 40
2.116668062491659
 40
2.116668062491659
 40
2.469446072906936
 40
2.469446072906936
 40
2.469446072906936
 40
2.822224083322215
 40
2.822224083322215
 40
2.822224083322215
 40
3.175002093737492
 40
3.175002093737492
 40
3.175002093737492
 40
3.527780104152768
 40
3.527780104152768
 40
3.527780104152768
 40
3.880558114568044
 40
3.880558114568044
 40
3.880558114568044
 40
4.233336124983321
 40
4.233336124983321
 40
4.233336124983321
 40
4.586114135398599
 40
4.586114135398599
 40
4.586114135398599
 40
4.938892145813873
 40
4.938892145813873
 40
4.938892145813873
 40
5.291670156229153
 40
5.291670156229153
 40
5.291670156229153
 40
5.64444816664443
 40
5.64444816664443
 40
5.64444816664443
 40
5.997226177059705
 40
5.997226177059705
 40
5.997226177059705
 40
6.350004187474984
 40
6.350004187474984
 40
6.350004187474984
 40
6.702782197890257
 40
6.702782197890257
 40
6.702782197890257
 40
7.055560208305537
 40
7.055560208305537
 40
7.055560208305537
 40
7.408338218720808
 40
7.408338218720808
 40
7.408338218720808
 40
7.408338218720808
 10
174.7732543591544
 20
135.4846705078077
 10
174.7732543591544
 20
135.4846705078077
 10
174.7732543591544
 20
135.3789060066383
 10
174.7732543591544
 20
135.3789060066383
 10
174.7732543591544
 20
135.3789060066383
 10
174.8156290615773
 20
135.3789060066383
 10
174.8156290615773
 20
135.3789060066383
 10
174.8156290615773
 20
135.3789060066383
 10
174.8580037640002
 20
135.3578909103147
 10
174.8580037640002
 20
135.3578909103147
 10
174.8580037640002
 20
135.3578909103147
 10
174.9213935627468
 20
135.3578909103147
 10
174.9213935627468
 20
135.3578909103147
 10
174.9213935627468
 20
135.3578909103147
 10
174.9637682651697
 20
135.3365313042154
 10
174.9637682651697
 20
135.3365313042154
 10
174.9637682651697
 20
135.3365313042154
 10
174.9847833614933
 20
135.3365313042154
 10
174.9847833614933
 20
135.3365313042154
 10
174.9847833614933
 20
135.3365313042154
 10
175.0271580639162
 20
135.3155162078918
 10
175.0271580639162
 20
135.3155162078918
 10
175.0271580639162
 20
135.3155162078918
 10
175.0485176700155
 20
135.2941566017924
 10
175.0485176700155
 20
135.2941566017924
 10
175.0485176700155
 20
135.2941566017924
 10
175.0695327663391
 20
135.2941566017924
 10
175.0695327663391
 20
135.2941566017924
 10
175.0695327663391
 20
135.2941566017924
 10
175.0908923724385
 20
135.2731415054689
 10
175.0908923724385
 20
135.2731415054689
 10
175.0908923724385
 20
135.2731415054689
 10
175.1332670748614
 20
135.2731415054689
 10
175.1332670748614
 20
135.2731415054689
 10
175.1332670748614
 20
135.2731415054689
 10
175.154282171185
 20
135.2517818993695
 10
175.154282171185
 20
135.2517818993695
 10
175.154282171185
 20
135.2517818993695
 10
175.154282171185
 20
135.3578909103147
 10
175.154282171185
 20
135.3578909103147
 10
175.154282171185
 20
135.3578909103147
 10
175.1332670748614
 20
135.3789060066383
 10
175.1332670748614
 20
135.3789060066383
 10
175.1332670748614
 20
135.3789060066383
 10
175.0908923724385
 20
135.3789060066383
 10
175.0908923724385
 20
135.3789060066383
 10
175.0908923724385
 20
135.3789060066383
 10
175.0908923724385
 20
135.3999211029619
 10
175.0908923724385
 20
135.3999211029619
 10
175.0908923724385
 20
135.3999211029619
 10
175.0695327663391
 20
135.3999211029619
 10
175.0695327663391
 20
135.3999211029619
 10
175.0695327663391
 20
135.3999211029619
 10
175.0271580639162
 20
135.4212807090612
 10
175.0271580639162
 20
135.4212807090612
 10
175.0271580639162
 20
135.4212807090612
 10
175.0061429675926
 20
135.4212807090612
 10
175.0061429675926
 20
135.4212807090612
 10
175.0061429675926
 20
135.4212807090612
 10
174.9637682651697
 20
135.4422958053848
 10
174.9637682651697
 20
135.4422958053848
 10
174.8996894468716
 20
135.4498750204523
 10
174.8394002361073
 20
135.4860485469109
 10
174.7732543591544
 20
135.4846705078077
 72
     1
 10
174.7732543591544
 20
135.4846705078077
 11
174.7732543591544
 21
135.4846705078077
 97
        0
 75
     0
 76
     1
 98
        0
450
        0
451
        0
460
0.0
461
0.0
452
        0
462
0.0
453
        0
470

  0
HATCH
  5
20
330
2
100
AcDbEntity
  8
图层 1
 62
     7
100
AcDbHatch
 10
0.0
 20
0.0
 30
0.0
210
0.0
220
0.0
230
1.0
  2
SOLID
 70
     1
 71
     0
 91
        1
 92
        1
 93
        2
 72
     4
 94
        3
 73
     0
 74
     0
 95
       29
 96
       25
 40
0.0
 40
0.0
 40
0.0
 40
0.0
 40
0.3527780104152769
 40
0.3527780104152769
 40
0.3527780104152769
 40
0.7055560208305538
 40
0.7055560208305538
 40
0.7055560208305538
 40
1.058334031245828
 40
1.058334031245828
 40
1.058334031245828
 40
1.411112041661104
 40
1.411112041661104
 40
1.411112041661104
 40
1.763890052076384
 40
1.763890052076384
 40
1.763890052076384
 40
2.116668062491659
 40
2.116668062491659
 40
2.116668062491659
 40
2.469446072906936
 40
2.469446072906936
 40
2.469446072906936
 40
2.822224083322215
 40
2.822224083322215
 40
2.822224083322215
 40
2.822224083322215
 10
175.4929352807925
 20
164.0174869039101
 10
175.4929352807925
 20
164.0174869039101
 10
175.5139503771161
 20
163.9751122014871
 10
175.5139503771161
 20
163.9751122014871
 10
175.5139503771161
 20
163.9751122014871
 10
175.5139503771161
 20
163.9327374990642
 10
175.5139503771161
 20
163.9327374990642
 10
175.5139503771161
 20
163.9327374990642
 10
175.4929352807925
 20
163.8903627966413
 10
175.4929352807925
 20
163.8903627966413
 10
175.4929352807925
 20
163.8903627966413
 10
175.471920184469
 20
163.8691754454298
 10
175.471920184469
 20
163.8691754454298
 10
175.471920184469
 20
163.8691754454298
 10
175.4505605783696
 20
163.8269729978948
 10
175.4505605783696
 20
163.8269729978948
 10
175.3571984291289
 20
163.7715069239916
 10
175.272449024283
 20
163.8195660377152
 10
175.1966568736079
 20
163.8691754454298
 10
175.208370205985
 20
163.9930267098286
 10
175.1563492298397
 20
164.0216210212197
 10
175.2600466723544
 20
164.0596893514451
 10
175.3330827448232
 20
164.1094710140476
 10
175.4357466580104
 20
164.0753645462439
 10
175.4929352807925
 20
164.0174869039101
 72
     1
 10
175.4929352807925
 20
164.0174869039101
 11
175.4929352807925
 21
164.0174869039101
 97
        0
 75
     0
 76
     1
 98
        0
450
        0
451
        0
460
0.0
461
0.0
452
        0
462
0.0
453
        0
470

  0
HATCH
  5
21
330
2
100
AcDbEntity
  8
图层 1
 62
     7
100
AcDbHatch
 10
0.0
 20
0.0
 30
0.0
210
0.0
220
0.0
230
1.0
  2
SOLID
 70
     1
 71
     0
 91
        1
 92
        1
 93
        2
 72
     4
 94
        3
 73
     0
 74
     0
 95
       11
 96
        7
 40
0.0
 40
0.0
 40
0.0
 40
0.0
 40
0.3527780104152769
 40
0.3527780104152769
 40
0.3527780104152769
 40
0.7055560208305538
 40
0.7055560208305538
 40
0.7055560208305538
 40
0.7055560208305538
 10
174.9213935627468
 20
174.5369206529582
 10
174.9213935627468
 20
174.5369206529582
 10
174.9213935627468
 20
174.3043765542958
 10
174.9213935627468
 20
174.3043765542958
 10
174.9213935627468
 20
174.3043765542958
 10
174.9213935627468
 20
174.5369206529582
 10
174.9213935627468
 20
174.5369206529582
 72
     1
 10
174.9213935627468
 20
174.5369206529582
 11
174.9213935627468
 21
174.5369206529582
 97
        0
 75
     0
 76
     1
 98
        0
450
        0
451
        0
460
0.0
461
0.0
452
        0
462
0.0
453
        0
470

  0
HATCH
  5
22
330
2
100
AcDbEntity
  8
图层 1
 62
     7
100
AcDbHatch
 10
0.0
 20
0.0
 30
0.0
210
0.0
220
0.0
230
1.0
  2
SOLID
 70
     1
 71
     0
 91
        1
 92
        1
 93
        2
 72
     4
 94
        3
 73
     0
 74
     0
 95
      131
 96
      127
 40
0.0
 40
0.0
 40
0.0
 40
0.0
 40
0.3527780104152769
 40
0.3527780104152769
 40
0.3527780104152769
 40
0.7055560208305538
 40
0.7055560208305538
 40
0.7055560208305538
 40
1.058334031245828
 40
1.058334031245828
 40
1.058334031245828
 40
1.411112041661104
 40
1.411112041661104
 40
1.411112041661104
 40
1.763890052076384
 40
1.763890052076384
 40
1.763890052076384
 40
2.116668062491659
 40
2.116668062491659
 40
2.116668062491659
 40
2.469446072906936
 40
2.469446072906936
 40
2.469446072906936
 40
2.822224083322215
 40
2.822224083322215
 40
2.822224083322215
 40
3.175002093737492
 40
3.175002093737492
 40
3.175002093737492
 40
3.527780104152768
 40
3.527780104152768
 40
3.527780104152768
 40
3.880558114568044
 40
3.880558114568044
 40
3.880558114568044
 40
4.233336124983321
 40
4.233336124983321
 40
4.233336124983321
 40
4.586114135398599
 40
4.586114135398599
 40
4.586114135398599
 40
4.938892145813873
 40
4.938892145813873
 40
4.938892145813873
 40
5.291670156229153
 40
5.291670156229153
 40
5.291670156229153
 40
5.64444816664443
 40
5.64444816664443
 40
5.64444816664443
 40
5.997226177059705
 40
5.997226177059705
 40
5.997226177059705
 40
6.350004187474984
 40
6.350004187474984
 40
6.350004187474984
 40
6.702782197890257
 40
6.702782197890257
 40
6.702782197890257
 40
7.055560208305537
 40
7.055560208305537
 40
7.055560208305537
 40
7.408338218720808
 40
7.408338218720808
 40
7.408338218720808
 40
7.76111622913609
 40
7.76111622913609
 40
7.76111622913609
 40
8.113894239551369
 40
8.113894239551369
 40
8.113894239551369
 40
8.466672249966642
 40
8.466672249966642
 40
8.466672249966642
 40
8.819450260381922
 40
8.819450260381922
 40
8.819450260381922
 40
9.172228270797198
 40
9.172228270797198
 40
9.172228270797198
 40
9.525006281212476
 40
9.525006281212476
 40
9.525006281212476
 40
9.877784291627751
 40
9.877784291627751
 40
9.877784291627751
 40
10.23056230204303
 40
10.23056230204303
 40
10.23056230204303
 40
10.58334031245831
 40
10.58334031245831
 40
10.58334031245831
 40
10.93611832287358
 40
10.93611832287358
 40
10.93611832287358
 40
11.28889633328886
 40
11.28889633328886
 40
11.28889633328886
 40
11.64167434370414
 40
11.64167434370414
 40
11.64167434370414
 40
11.99445235411941
 40
11.99445235411941
 40
11.99445235411941
 40
12.34723036453469
 40
12.34723036453469
 40
12.34723036453469
 40
12.70000837494997
 40
12.70000837494997
 40
12.70000837494997
 40
13.05278638536524
 40
13.05278638536524
 40
13.05278638536524
 40
13.40556439578052
 40
13.40556439578052
 40
13.40556439578052
 40
13.7583424061958
 40
13.7583424061958
 40
13.7583424061958
 40
14.11112041661107
 40
14.11112041661107
 40
14.11112041661107
 40
14.46389842702635
 40
14.46389842702635
 40
14.46389842702635
 40
14.81667643744163
 40
14.81667643744163
 40
14.81667643744163
 40
14.81667643744163
 10
173.3972823146245
 20
126.8274843518258
 10
173.3972823146245
 20
126.8274843518258
 10
173.3972823146245
 20
126.7217198506564
 10
173.3972823146245
 20
126.7217198506564
 10
173.3972823146245
 20
126.7217198506564
 10
173.4186419207238
 20
126.7217198506564
 10
173.4186419207238
 20
126.7217198506564
 10
173.4186419207238
 20
126.7217198506564
 10
173.4820317194703
 20
126.7007047543328
 10
173.4820317194703
 20
126.7007047543328
 10
173.4820317194703
 20
126.7007047543328
 10
173.5244064218933
 20
126.6793451482334
 10
173.5244064218933
 20
126.6793451482334
 10
173.5244064218933
 20
126.6793451482334
 10
173.5877962206398
 20
126.6793451482334
 10
173.5877962206398
 20
126.6793451482334
 10
173.5877962206398
 20
126.6793451482334
 10
173.6301709230627
 20
126.6583300519099
 10
173.6301709230627
 20
126.6583300519099
 10
173.7955356154449
 20
126.5911506456296
 10
173.759706598762
 20
126.6380039751379
 10
173.9478089363468
 20
126.5525655507404
 10
173.9478089363468
 20
126.5525655507404
 10
173.9688240326703
 20
126.4464565397952
 10
173.9688240326703
 20
126.4464565397952
 10
173.9688240326703
 20
126.4464565397952
 10
174.0325583411926
 20
126.5101908483175
 10
174.0325583411926
 20
126.5101908483175
 10
174.0325583411926
 20
126.5101908483175
 10
174.0749330436156
 20
126.5101908483175
 10
174.0749330436156
 20
126.5101908483175
 10
174.0749330436156
 20
126.5101908483175
 10
174.1593379386856
 20
126.4678161458946
 10
174.1593379386856
 20
126.4678161458946
 10
174.1593379386856
 20
126.4678161458946
 10
174.180697544785
 20
126.4464565397952
 10
174.180697544785
 20
126.4464565397952
 10
174.2464989119621
 20
126.3982251711837
 10
174.3298702777047
 20
126.3716979184474
 10
174.3922265471239
 20
126.3196769423022
 10
174.608234176548
 20
126.2059887162895
 10
174.7749769080334
 20
126.0278771622029
 10
174.9637682651697
 20
125.8749148217494
 10
174.9637682651697
 20
125.8749148217494
 10
175.0061429675926
 20
125.9172895241723
 10
175.0061429675926
 20
125.9172895241723
 10
174.961356696739
 20
125.9631093243532
 10
174.782211613325
 20
126.1246844092016
 10
174.7308796567315
 20
126.1501781326105
 10
174.7308796567315
 20
126.1501781326105
 10
174.6885049543085
 20
126.1925528350335
 10
174.6885049543085
 20
126.1925528350335
 10
174.6885049543085
 20
126.1925528350335
 10
174.667489857985
 20
126.2349275374564
 10
174.667489857985
 20
126.2349275374564
 10
174.667489857985
 20
126.2349275374564
 10
174.625115155562
 20
126.2559426337799
 10
174.625115155562
 20
126.2559426337799
 10
174.625115155562
 20
126.2559426337799
 10
174.5827404531391
 20
126.2983173362029
 10
174.5827404531391
 20
126.2983173362029
 10
174.5827404531391
 20
126.2983173362029
 10
174.5403657507162
 20
126.3196769423022
 10
174.5403657507162
 20
126.3196769423022
 10
174.5403657507162
 20
126.3196769423022
 10
174.4979910482932
 20
126.3620516447252
 10
174.4979910482932
 20
126.3620516447252
 10
174.4735308542117
 20
126.3875453681341
 10
174.3247026310678
 20
126.4695386947736
 10
174.2864620459544
 20
126.4888312422181
 10
174.2864620459544
 20
126.4888312422181
 10
174.2654469496308
 20
126.5101908483175
 10
174.2654469496308
 20
126.5101908483175
 10
174.2654469496308
 20
126.5101908483175
 10
174.2230722472079
 20
126.5312059446411
 10
174.2230722472079
 20
126.5312059446411
 10
174.2230722472079
 20
126.5312059446411
 10
174.2017126411085
 20
126.5525655507404
 10
174.2017126411085
 20
126.5525655507404
 10
174.2017126411085
 20
126.5525655507404
 10
174.1383228423621
 20
126.573580647064
 10
174.1383228423621
 20
126.573580647064
 10
174.1383228423621
 20
126.573580647064
 10
174.1169632362627
 20
126.5945957433876
 10
174.1169632362627
 20
126.5945957433876
 10
174.1169632362627
 20
126.5945957433876
 10
174.0959481399391
 20
126.7007047543328
 10
174.0959481399391
 20
126.7007047543328
 10
174.0959481399391
 20
126.7007047543328
 10
174.0325583411926
 20
126.6369704458105
 10
174.0325583411926
 20
126.6369704458105
 10
174.0325583411926
 20
126.6369704458105
 10
173.9901836387697
 20
126.6369704458105
 10
173.9901836387697
 20
126.6369704458105
 10
173.9901836387697
 20
126.6369704458105
 10
173.9054342339239
 20
126.6793451482334
 10
173.9054342339239
 20
126.6793451482334
 10
173.9054342339239
 20
126.6793451482334
 10
173.8420444351773
 20
126.7007047543328
 10
173.8420444351773
 20
126.7007047543328
 10
173.8420444351773
 20
126.7007047543328
 10
173.7996697327544
 20
126.7217198506564
 10
173.7996697327544
 20
126.7217198506564
 10
173.7996697327544
 20
126.7217198506564
 10
173.7572950303315
 20
126.7217198506564
 10
173.7572950303315
 20
126.7217198506564
 10
173.7572950303315
 20
126.7217198506564
 10
173.6725456254856
 20
126.7640945530793
 10
173.6725456254856
 20
126.7640945530793
 10
173.6725456254856
 20
126.7640945530793
 10
173.6515305291621
 20
126.7640945530793
 10
173.6515305291621
 20
126.7640945530793
 10
173.6515305291621
 20
126.7640945530793
 10
173.5667811243162
 20
126.7851096494029
 10
173.5667811243162
 20
126.7851096494029
 10
173.5667811243162
 20
126.7851096494029
 10
173.5033913255697
 20
126.8064692555022
 10
173.5033913255697
 20
126.8064692555022
 10
173.5033913255697
 20
126.8064692555022
 10
173.4396570170474
 20
126.8064692555022
 10
173.4396570170474
 20
126.8064692555022
 10
173.4396570170474
 20
126.8064692555022
 10
173.4186419207238
 20
126.8274843518258
 10
173.4186419207238
 20
126.8274843518258
 10
173.4186419207238
 20
126.8274843518258
 10
173.3972823146245
 20
126.8274843518258
 10
173.3972823146245
 20
126.8274843518258
 72
     1
 10
173.3972823146245
 20
126.8274843518258
 11
173.3972823146245
 21
126.8274843518258
 97
        0
 75
     0
 76
     1
 98
        0
450
        0
451
        0
460
0.0
461
0.0
452
        0
462
0.0
453
        0
470

  0
HATCH
  5
23
330
2
100
AcDbEntity
  8
图层 1
 62
     7
100
AcDbHatch
 10
0.0
 20
0.0
 30
0.0
210
0.0
220
0.0
230
1.0
  2
SOLID
 70
     1
 71
     0
 91
        1
 92
        1
 93
        2
 72
     4
 94
        3
 73
     0
 74
     0
 95
       47
 96
       43
 40
0.0
 40
0.0
 40
0.0
 40
0.0
 40
0.3527780104152769
 40
0.3527780104152769
 40
0.3527780104152769
 40
0.7055560208305538
 40
0.7055560208305538
 40
0.7055560208305538
 40
1.058334031245828
 40
1.058334031245828
 40
1.058334031245828
 40
1.411112041661104
 40
1.411112041661104
 40
1.411112041661104
 40
1.763890052076384
 40
1.763890052076384
 40
1.763890052076384
 40
2.116668062491659
 40
2.116668062491659
 40
2.116668062491659
 40
2.469446072906936
 40
2.469446072906936
 40
2.469446072906936
 40
2.822224083322215
 40
2.822224083322215
 40
2.822224083322215
 40
3.175002093737492
 40
3.175002093737492
 40
3.175002093737492
 40
3.527780104152768
 40
3.527780104152768
 40
3.527780104152768
 40
3.880558114568044
 40
3.880558114568044
 40
3.880558114568044
 40
4.233336124983321
 40
4.233336124983321
 40
4.233336124983321
 40
4.586114135398599
 40
4.586114135398599
 40
4.586114135398599
 40
4.938892145813873
 40
4.938892145813873
 40
4.938892145813873
 40
4.938892145813873
 10
180.1920486226523
 20
255.6479577566324
 10
180.1920486226523
 20
255.6479577566324
 10
180.2130637189759
 20
255.6055830542095
 10
180.2130637189759
 20
255.6055830542095
 10
180.2130637189759
 20
255.6055830542095
 10
180.2130637189759
 20
255.5210059042515
 10
180.2130637189759
 20
255.5210059042515
 10
180.2130637189759
 20
255.5210059042515
 10
180.1920486226523
 20
255.4786312018286
 10
180.1920486226523
 20
255.4786312018286
 10
180.1920486226523
 20
255.4786312018286
 10
180.1496739202294
 20
255.4359119896299
 10
180.1496739202294
 20
255.4359119896299
 10
180.1496739202294
 20
255.4359119896299
 10
180.1283143141301
 20
255.4147246384184
 10
180.1283143141301
 20
255.4147246384184
 10
180.1283143141301
 20
255.4147246384184
 10
180.0225498129606
 20
255.4147246384184
 10
180.0225498129606
 20
255.4147246384184
 10
180.0225498129606
 20
255.4147246384184
 10
179.9591600142141
 20
255.4359119896299
 10
179.9591600142141
 20
255.4359119896299
 10
179.9591600142141
 20
255.4359119896299
 10
179.9167853117912
 20
255.4570993408414
 10
179.9167853117912
 20
255.4570993408414
 10
179.9167853117912
 20
255.4570993408414
 10
179.8957702154676
 20
255.4786312018286
 10
179.8957702154676
 20
255.4786312018286
 10
179.8957702154676
 20
255.4786312018286
 10
179.8744106093683
 20
255.4994740432643
 10
179.8744106093683
 20
255.4994740432643
 10
179.8744106093683
 20
255.4994740432643
 10
179.8744106093683
 20
255.6479577566324
 10
179.8744106093683
 20
255.6479577566324
 10
179.9608825630931
 20
255.7323626517025
 10
180.045631967939
 20
255.7085914771726
 10
180.1496739202294
 20
255.7115198102668
 10
180.1496739202294
 20
255.7115198102668
 10
180.170689016553
 20
255.6688005980681
 10
180.170689016553
 20
255.6688005980681
 10
180.170689016553
 20
255.6688005980681
 10
180.1920486226523
 20
255.6479577566324
 10
180.1920486226523
 20
255.6479577566324
 72
     1
 10
180.1920486226523
 20
255.6479577566324
 11
180.1920486226523
 21
255.6479577566324
 97
        0
 75
     0
 76
     1
 98
        0
450
        0
451
        0
460
0.0
461
0.0
452
        0
462
0.0
453
        0
470

  0
MTEXT
  5
24
330
2
100
AcDbEntity
  8
图框
100
AcDbMText
 10
775.1508663436935
 20
224.763367572407
 30
0.0
 40
0.6000023545570477
 41
4.555173628468742
 46
1.3551569177361
 71
     5
 72
     5
  1
{\C4;CSGF-0.33}
  7
Romans字体
 73
     1
 44
1.0
1001
ACAD
1000
ACAD_MTEXT_DEFINED_HEIGHT_BEGIN
1070
    46
1040
1.3551569177361
1000
ACAD_MTEXT_DEFINED_HEIGHT_END
  0
MTEXT
  5
2A
330
2
100
AcDbEntity
  8
图框
100
AcDbMText
 10
775.1508663436936
 20
226.1185244901446
 30
0.0
 40
0.59999791584616
 41
4.555173628468827
 46
1.355156917739058
 71
     5
 72
     5
  1
{\C4;CSGF-0.25}
  7
Romans字体
 73
     1
 44
1.0
1001
ACAD
1000
ACAD_MTEXT_DEFINED_HEIGHT_BEGIN
1070
    46
1040
1.355156917739058
1000
ACAD_MTEXT_DEFINED_HEIGHT_END
  0
MTEXT
  5
2B
330
2
100
AcDbEntity
  8
图框
100
AcDbMText
 10
775.1508663438906
 20
223.4096830218804
 30
0.0
 40
0.59999791584616
 41
4.555173628074261
 46
1.35221218331696
 71
     5
 72
     5
  1
{\C4;CSGF-0.52}
  7
Romans字体
 73
     1
 44
1.0
1001
ACAD
1000
ACAD_MTEXT_DEFINED_HEIGHT_BEGIN
1070
    46
1040
1.35221218331696
1000
ACAD_MTEXT_DEFINED_HEIGHT_END
  0
MTEXT
  5
2C
330
2
100
AcDbEntity
  8
图框
100
AcDbMText
 10
775.1508663438906
 20
222.0560435197024
 30
0.0
 40
0.59999791584616
 41
4.555173628074261
 46
1.355066821038727
 71
     5
 72
     5
  1
{\C4;CSGF-0.82}
  7
Romans字体
 73
     1
 44
1.0
1001
ACAD
1000
ACAD_MTEXT_DEFINED_HEIGHT_BEGIN
1070
    46
1040
1.355066821038727
1000
ACAD_MTEXT_DEFINED_HEIGHT_END
  0
MTEXT
  5
2D
330
2
100
AcDbEntity
  8
图框
100
AcDbMText
 10
780.4618701570197
 20
226.1199918556057
 30
0.0
 40
0.6000023545570477
 41
6.066833998183262
 46
1.352222186816343
 71
     5
 72
     5
  1
{\C4;1010142200101}
  7
Romans字体
 73
     1
 44
1.0
1001
ACAD
1000
ACAD_MTEXT_DEFINED_HEIGHT_BEGIN
1070
    46
1040
1.352222186816343
1000
ACAD_MTEXT_DEFINED_HEIGHT_END
  0
MTEXT
  5
2E
330
2
100
AcDbEntity
  8
图框
100
AcDbMText
 10
780.4618701570197
 20
224.7648349378669
 30
0.0
 40
0.6000023545570477
 41
6.066833998183262
 46
1.352222186816343
 71
     5
 72
     5
  1
{\C4;1010142200201}
  7
Romans字体
 73
     1
 44
1.0
1001
ACAD
1000
ACAD_MTEXT_DEFINED_HEIGHT_BEGIN
1070
    46
1040
1.352222186816343
1000
ACAD_MTEXT_DEFINED_HEIGHT_END
  0
MTEXT
  5
2F
330
2
100
AcDbEntity
  8
图框
100
AcDbMText
 10
780.4618701570197
 20
223.4126127510518
 30
0.0
 40
0.6000023545570477
 41
6.066833998183262
 46
1.352222186816343
 71
     5
 72
     5
  1
{\C4;1010142200501}
  7
Romans字体
 73
     1
 44
1.0
1001
ACAD
1000
ACAD_MTEXT_DEFINED_HEIGHT_BEGIN
1070
    46
1040
1.352222186816343
1000
ACAD_MTEXT_DEFINED_HEIGHT_END
  0
MTEXT
  5
30
330
2
100
AcDbEntity
  8
图框
100
AcDbMText
 10
780.4618701570197
 20
222.0574658368137
 30
0.0
 40
0.6000023545570477
 41
6.066833998183262
 46
1.352222186816343
 71
     5
 72
     5
  1
{\C4;1010142200701}
  7
Romans字体
 73
     1
 44
1.0
1001
ACAD
1000
ACAD_MTEXT_DEFINED_HEIGHT_BEGIN
1070
    46
1040
1.352222186816343
1000
ACAD_MTEXT_DEFINED_HEIGHT_END
  0
LINE
  5
CC
330
2
100
AcDbEntity
  8
图框
370
    -3
100
AcDbLine
 10
783.4952871561114
 20
228.1483251358288
 30
0.0
 11
790.3548530804689
 21
228.1483251358288
 31
0.0
  0
LINE
  5
CD
330
2
100
AcDbEntity
  8
图框
370
    -3
100
AcDbLine
 10
772.8732795298538
 20
226.7961029490134
 30
0.0
 11
783.4952871554442
 21
226.7961029490137
 31
0.0
  0
MTEXT
  5
CE
330
2
100
AcDbEntity
  8
图框
100
AcDbMText
 10
786.9251291903517
 20
228.8244362292712
 30
0.0
 40
0.6000023545570477
 41
6.859684067146692
 46
1.352222186885061
 71
     5
 72
     5
  1
{\f仿宋_GB2312|b0|i0|c134|p49;\C4;线径\Fromans|c134;/Wire Gauge}
  7
Romans字体
 73
     1
 44
1.0
1001
ACAD
1000
ACAD_MTEXT_DEFINED_HEIGHT_BEGIN
1070
    46
1040
1.352222186885061
1000
ACAD_MTEXT_DEFINED_HEIGHT_END
  0
MTEXT
  5
CF
330
2
100
AcDbEntity
  8
图框
100
AcDbMText
 10
788.8799007414702
 20
227.472179008462
 30
0.0
 40
0.6000023545570477
 41
2.949904677997924
 46
1.352152118895874
 71
     5
 72
     5
  1
{\C4;AWG}
  7
Romans字体
 73
     1
 44
1.0
1001
ACAD
1000
ACAD_MTEXT_DEFINED_HEIGHT_BEGIN
1070
    46
1040
1.352152118895874
1000
ACAD_MTEXT_DEFINED_HEIGHT_END
  0
MTEXT
  5
D0
330
2
100
AcDbEntity
  8
图框
100
AcDbMText
 10
785.4501177792914
 20
227.4722140424213
 30
0.0
 40
0.6000023545570477
 41
3.909661246359366
 46
1.352222186814757
 71
     5
 72
     5
  1
\A1;{\C4;mm\H0.7x;\S2^  ;}
  7
Romans字体
 73
     1
 44
1.0
1001
ACAD
1000
ACAD_MTEXT_DEFINED_HEIGHT_BEGIN
1070
    46
1040
1.352222186814757
1000
ACAD_MTEXT_DEFINED_HEIGHT_END
  0
MTEXT
  5
D1
330
2
100
AcDbEntity
  8
图框
100
AcDbMText
 10
780.4618701563526
 20
228.14828510012
 30
0.0
 40
0.6000023545570477
 41
6.066833998183262
 46
2.704364302212839
 71
     5
 72
     5
  1
{\f仿宋_GB2312|b0|i0|c134|p49;\C4;产品料号\Fromans|c134;\PPart NO.}
  7
Romans字体
 73
     1
 44
1.0
1001
ACAD
1000
ACAD_MTEXT_DEFINED_HEIGHT_BEGIN
1070
    46
1040
2.704364302212839
1000
ACAD_MTEXT_DEFINED_HEIGHT_END
  0
MTEXT
  5
D2
330
2
100
AcDbEntity
  8
图框
100
AcDbMText
 10
791.5713049433336
 20
228.1482851001202
 30
0.0
 40
0.6000023545570477
 41
2.432903725729715
 46
2.704364302212435
 71
     5
 72
     5
  1
{\C4;d}
  7
Romans字体
 73
     1
 44
1.0
1001
ACAD
1000
ACAD_MTEXT_DEFINED_HEIGHT_BEGIN
1070
    46
1040
2.704364302212435
1000
ACAD_MTEXT_DEFINED_HEIGHT_END
  0
LINE
  5
D3
330
2
100
AcDbEntity
  8
图框
370
    35
100
AcDbLine
 10
772.8732795298532
 20
225.440946031275
 30
0.0
 11
783.4952871554442
 21
225.4409460312754
 31
0.0
  0
MTEXT
  5
D4
330
2
100
AcDbEntity
  8
图框
100
AcDbMText
 10
794.0042086687298
 20
228.1482851001202
 30
0.0
 40
0.6000023545570477
 41
2.432903725062574
 46
2.704364302212435
 71
     5
 72
     5
  1
{\C4;D}
  7
Romans字体
 73
     1
 44
1.0
1001
ACAD
1000
ACAD_MTEXT_DEFINED_HEIGHT_BEGIN
1070
    46
1040
2.704364302212435
1000
ACAD_MTEXT_DEFINED_HEIGHT_END
  0
MTEXT
  5
D5
330
2
100
AcDbEntity
  8
图框
100
AcDbMText
 10
794.0042086687297
 20
224.7633675724074
 30
0.0
 40
0.6000023545570477
 41
2.432903725062538
 46
1.355156917736592
 71
     5
 72
     5
  1
{\C4;1.66}
  7
Romans字体
 73
     1
 44
1.0
1001
ACAD
1000
ACAD_MTEXT_DEFINED_HEIGHT_BEGIN
1070
    46
1040
1.355156917736592
1000
ACAD_MTEXT_DEFINED_HEIGHT_END
  0
LINE
  5
D6
330
2
100
AcDbEntity
  8
图框
370
    -3
100
AcDbLine
 10
772.8732795298532
 20
224.0857891135391
 30
0.0
 11
783.4952871554442
 21
224.085789113539
 31
0.0
  0
LINE
  5
D8
330
2
100
AcDbEntity
  8
图框
370
    -3
100
AcDbLine
 10
790.3548530811352
 20
229.5005473227138
 30
0.0
 11
790.3548530811357
 21
226.5961021641618
 31
0.0
  0
LINE
  5
D9
330
2
100
AcDbEntity
  8
图框
370
    -3
100
AcDbLine
 10
787.4049484031378
 20
228.1483351393971
 30
0.0
 11
787.4049484031378
 21
226.5961021641618
 31
0.0
  0
LINE
  5
DA
330
2
100
AcDbEntity
  8
图框
370
    -3
100
AcDbLine
 10
777.4284531579277
 20
221.3785101091831
 30
0.0
 11
777.4284531579277
 21
226.7961029490143
 31
0.0
  0
LINE
  5
DB
330
2
100
AcDbEntity
  8
图框
370
    -3
100
AcDbLine
 10
783.4952871561113
 20
221.3785101091833
 30
0.0
 11
783.4952871561113
 21
226.7961029490143
 31
0.0
  0
MTEXT
  5
DC
330
2
100
AcDbEntity
  8
图框
100
AcDbMText
 10
794.0042086687297
 20
226.118524490145
 30
0.0
 40
0.59999791584616
 41
2.432903725062594
 46
1.35515691773857
 71
     5
 72
     5
  1
{\C4;1.66}
  7
Romans字体
 73
     1
 44
1.0
1001
ACAD
1000
ACAD_MTEXT_DEFINED_HEIGHT_BEGIN
1070
    46
1040
1.35515691773857
1000
ACAD_MTEXT_DEFINED_HEIGHT_END
  0
LINE
  5
DE
330
2
100
AcDbEntity
  8
图框
370
    -3
100
AcDbLine
 10
787.4049484024707
 20
228.1482550679098
 30
0.0
 11
787.4049484024707
 21
226.5961021641618
 31
0.0
  0
LINE
  5
DF
330
2
100
AcDbEntity
  8
图框
370
    -3
100
AcDbLine
 10
777.428453157261
 20
221.3784300376958
 30
0.0
 11
777.428453157261
 21
226.7961029490143
 31
0.0
  0
LINE
  5
E0
330
2
100
AcDbEntity
  8
图框
370
    -3
100
AcDbLine
 10
783.4952871554442
 20
221.3784300376961
 30
0.0
 11
783.4952871554442
 21
226.7961029490143
 31
0.0
  0
LINE
  5
E1
330
2
100
AcDbEntity
  8
图框
370
    35
100
AcDbLine
 10
772.8732795298532
 20
222.7335769302217
 30
0.0
 11
783.4952871554442
 21
222.7335769302219
 31
0.0
  0
LINE
  5
E2
330
2
100
AcDbEntity
  8
图框
370
    35
380
     1
100
AcDbLine
 10
801.0493632772149
 20
229.5004672512266
 30
0.0
 11
801.0493632772149
 21
226.5961021641619
 31
0.0
  0
MTEXT
  5
E3
330
2
100
AcDbEntity
  8
图框
100
AcDbMText
 10
794.0042086687297
 20
223.4096830218808
 30
0.0
 40
0.59999791584616
 41
2.43290372506259
 46
1.352212183316497
 71
     5
 72
     5
  1
{\C4;1.66}
  7
Romans字体
 73
     1
 44
1.0
1001
ACAD
1000
ACAD_MTEXT_DEFINED_HEIGHT_BEGIN
1070
    46
1040
1.352212183316497
1000
ACAD_MTEXT_DEFINED_HEIGHT_END
  0
MTEXT
  5
E4
330
2
100
AcDbEntity
  8
图框
100
AcDbMText
 10
794.0042086687297
 20
222.0560435197032
 30
0.0
 40
0.59999791584616
 41
2.43290372506259
 46
1.355066821038754
 71
     5
 72
     5
  1
{\C4;1.75}
  7
Romans字体
 73
     1
 44
1.0
1001
ACAD
1000
ACAD_MTEXT_DEFINED_HEIGHT_BEGIN
1070
    46
1040
1.355066821038754
1000
ACAD_MTEXT_DEFINED_HEIGHT_END
  0
LINE
  5
E5
330
2
100
AcDbEntity
  8
图框
370
    -3
100
AcDbLine
 10
772.8732795298532
 20
226.7961029490145
 30
0.0
 11
783.4952871554442
 21
226.7961029490144
 31
0.0
  0
MTEXT
  5
E6
102
{ACAD_XDICTIONARY
360
567
102
}
330
2
100
AcDbEntity
  8
打标文字
 62
     3
100
AcDbMText
 10
823.8092625029079
 20
214.4168669133062
 30
0.0
 40
0.75
 41
21.56370451087032
 46
26.95590277395973
 71
     1
 72
     5
  3
\A1;{\f仿宋_GB2312|b0|i0|c134|p49;技术参数}:\P- {\f仿宋_GB2312|b0|i0|c134|p49;材料}: {\f仿宋_GB2312|b0|i0|c134|p49;铜合金}\P- {\f仿宋_GB2312|b0|i0|c134|p49;表面处理}: {\f仿宋_GB2312|b0|i0|c134|p49;镀金}\P- {\f仿宋_GB2312|b0|i0|c134|p49;额定电流}: 5A\P- {\f仿宋_GB2312|b0|i0|c134|p49;
  3
接触电阻}: ≤3mΩ\P- {\f仿宋_GB2312|b0|i0|c134|p49;线径范围}: 0.33-0.52mm{\H0.7x;\S2^ ;}(22-20 AWG)\P- {\f仿宋_GB2312|b0|i0|c134|p49;可插拔次数}: {\f仿宋_GB2312|b0|i0|c134|p49;≥}500\P\PTechnical specification:\P- Material: copper alloy\P- Surface: hard-gold plated\P- Rate
  1
d current: 5A\P- Contact resistance: ≤3mΩ\P- Wire gauge: 0.33-0.52mm{\H0.7x;\S2^ ;}(22-20 AWG)\P- Mating cycles: {\f仿宋_GB2312|b0|i0|c134|p49;≥}500
  7
Romans字体
 73
     1
 44
1.0
1001
ACAD
1000
ACAD_MTEXT_DEFINED_HEIGHT_BEGIN
1070
    46
1040
26.95590277395973
1000
ACAD_MTEXT_DEFINED_HEIGHT_END
  0
LINE
  5
E8
330
2
100
AcDbEntity
  8
图框
370
    35
100
AcDbLine
 10
772.8732795298532
 20
221.3785101091829
 30
0.0
 11
783.4952871554442
 21
221.3785101091831
 31
0.0
  0
MTEXT
  5
E9
330
2
100
AcDbEntity
  8
图框
100
AcDbMText
 10
775.1508663435576
 20
228.1483301376125
 30
0.0
 40
0.6000023545570477
 41
4.555173627407302
 46
2.704274227227899
 71
     5
 72
     5
  1
{\f仿宋_GB2312|b0|i0|c134|p49;\C4;产品代号\fFangSong_GB2312|b0|i0|c134|p49;\P\Fromans|c134;Part Code}
  7
Romans字体
 73
     1
 44
1.0
1001
ACAD
1000
ACAD_MTEXT_DEFINED_HEIGHT_BEGIN
1070
    46
1040
2.704274227227899
1000
ACAD_MTEXT_DEFINED_HEIGHT_END
  0
MTEXT
  5
EA
330
2
100
AcDbEntity
  8
图框
100
AcDbMText
 10
803.0041939003943
 20
228.8243961935279
 30
0.0
 40
0.6000023545570477
 41
3.909661246359441
 46
1.352142115397727
 71
     5
 72
     5
  1
{\f仿宋_GB2312|b0|i0|c134|p49;\C4;重量\Fromans|c134;/Weight}
  7
Romans字体
 73
     1
 44
1.0
1001
ACAD
1000
ACAD_MTEXT_DEFINED_HEIGHT_BEGIN
1070
    46
1040
1.352142115397727
1000
ACAD_MTEXT_DEFINED_HEIGHT_END
  0
MTEXT
  5
EB
330
2
100
AcDbEntity
  8
图框
100
AcDbMText
 10
803.0041939003943
 20
227.4722140424217
 30
0.0
 40
0.6000023545570477
 41
3.909661246359381
 46
1.352222186814969
 71
     5
 72
     5
  1
{\C4;g}
  7
Romans字体
 73
     1
 44
1.0
1001
ACAD
1000
ACAD_MTEXT_DEFINED_HEIGHT_BEGIN
1070
    46
1040
1.352222186814969
1000
ACAD_MTEXT_DEFINED_HEIGHT_END
  0
MTEXT
  5
EF
330
2
100
AcDbEntity
  8
图框
100
AcDbMText
 10
798.1350119042377
 20
228.1482851001202
 30
0.0
 40
0.6000023545570477
 41
5.828702745953783
 46
2.704364302212259
 71
     5
 72
     5
  1
{\f仿宋_GB2312|b0|i0|c134|p49;\C4;剥线长度\Fromans|c134;\PStripping Length}
  7
Romans字体
 73
     1
 44
1.0
1001
ACAD
1000
ACAD_MTEXT_DEFINED_HEIGHT_BEGIN
1070
    46
1040
2.704364302212259
1000
ACAD_MTEXT_DEFINED_HEIGHT_END
  0
LINE
  5
F1
330
2
100
AcDbEntity
  8
0
100
AcDbLine
 10
805.1391125203357
 20
206.579650212664
 30
0.0
 11
802.3891125203357
 21
206.579650212664
 31
0.0
  0
LINE
  5
F2
330
2
100
AcDbEntity
  8
0
100
AcDbLine
 10
802.3891125203357
 20
206.579650212664
 30
0.0
 11
797.5391125203352
 21
206.414650212664
 31
0.0
  0
LINE
  5
F3
330
2
100
AcDbEntity
  8
0
100
AcDbLine
 10
807.0391125203354
 20
206.7296502126645
 30
0.0
 11
805.2891125203352
 21
206.7296502126645
 31
0.0
  0
LINE
  5
F4
330
2
100
AcDbEntity
  8
0
100
AcDbLine
 10
805.2891125203352
 20
206.7296502126645
 30
0.0
 11
805.1391125203357
 21
206.579650212664
 31
0.0
  0
LINE
  5
F5
330
2
100
AcDbEntity
  8
0
100
AcDbLine
 10
802.3891125203357
 20
204.7496502126641
 30
0.0
 11
805.1391125203357
 21
204.7496502126641
 31
0.0
  0
LINE
  5
F6
330
2
100
AcDbEntity
  8
0
100
AcDbLine
 10
802.4391125203356
 20
205.8646502126648
 30
0.0
 11
797.5420289828536
 21
205.6897278672567
 31
0.0
  0
LINE
  5
F7
330
2
100
AcDbEntity
  8
0
100
AcDbLine
 10
805.2891125203352
 20
204.5996502126644
 30
0.0
 11
807.0391125203354
 21
204.5996502126644
 31
0.0
  0
LINE
  5
F8
330
2
100
AcDbEntity
  8
0
100
AcDbLine
 10
807.0391125203354
 20
204.5996502126644
 30
0.0
 11
807.0391125203354
 21
206.7296502126645
 31
0.0
  0
LINE
  5
F9
330
2
100
AcDbEntity
  8
0
100
AcDbLine
 10
807.1891125203347
 20
204.9396502126641
 30
0.0
 11
807.1891125203347
 21
206.3896502126649
 31
0.0
  0
LINE
  5
FA
330
2
100
AcDbEntity
  8
0
100
AcDbLine
 10
805.1391125203357
 20
204.7496502126641
 30
0.0
 11
805.2891125203352
 21
204.5996502126644
 31
0.0
  0
LINE
  5
FB
330
2
100
AcDbEntity
  8
0
100
AcDbLine
 10
802.4391125203356
 20
205.8646502126648
 30
0.0
 11
802.4391125203356
 21
205.4646502126642
 31
0.0
  0
LINE
  5
FC
330
2
100
AcDbEntity
  8
0
100
AcDbLine
 10
797.5391125203352
 20
204.9146502126631
 30
0.0
 11
797.5391125203352
 21
205.5097102126646
 31
0.0
  0
LINE
  5
FD
330
2
100
AcDbEntity
  8
0
100
AcDbLine
 10
806.6375445203359
 20
205.6646502126641
 30
0.0
 11
807.2391125203351
 21
205.6646502126641
 31
0.0
  0
LINE
  5
FE
102
{ACAD_REACTORS
330
1AF
102
}
330
2
100
AcDbEntity
  8
CEN
 48
0.8
370
    13
100
AcDbLine
 10
812.8274468861357
 20
205.6646502126641
 30
0.0
 11
796.6651472510014
 21
205.6646502126641
 31
0.0
  0
LINE
  5
102
330
2
100
AcDbEntity
  8
0
100
AcDbLine
 10
807.1891125203341
 20
206.3896502126644
 30
0.0
 11
807.0391125203354
 21
206.389650212664
 31
0.0
  0
LINE
  5
103
330
2
100
AcDbEntity
  8
0
100
AcDbLine
 10
807.1891125203347
 20
204.9396502126641
 30
0.0
 11
807.0391125203354
 21
204.9396502126641
 31
0.0
  0
LINE
  5
104
330
2
100
AcDbEntity
  8
0
100
AcDbLine
 10
797.5391125203352
 20
204.9146502126631
 30
0.0
 11
797.5391125203352
 21
206.414650212664
 31
0.0
  0
LINE
  5
105
330
2
100
AcDbEntity
  8
0
100
AcDbLine
 10
802.3891125203357
 20
204.7496502126641
 30
0.0
 11
797.5391125203352
 21
204.914650212664
 31
0.0
  0
LINE
  5
106
330
2
100
AcDbEntity
  8
0
100
AcDbLine
 10
802.4391125203356
 20
205.4646502126633
 30
0.0
 11
797.5420289828536
 21
205.6395725580714
 31
0.0
  0
LINE
  5
107
330
2
100
AcDbEntity
  8
0
100
AcDbLine
 10
805.1391125203357
 20
206.579650212664
 30
0.0
 11
805.1391125203366
 21
204.7496502126641
 31
0.0
  0
LINE
  5
108
330
2
100
AcDbEntity
  8
0
100
AcDbLine
 10
805.2891125203352
 20
206.7296502126645
 30
0.0
 11
805.2891125203352
 21
204.5996502126644
 31
0.0
  0
LINE
  5
109
102
{ACAD_REACTORS
330
1AF
102
}
330
2
100
AcDbEntity
  8
0
100
AcDbLine
 10
807.1891125203347
 20
206.389650212664
 30
0.0
 11
807.729112520335
 21
206.5396501797972
 31
0.0
  0
LINE
  5
10A
102
{ACAD_REACTORS
330
1AF
102
}
330
2
100
AcDbEntity
  8
0
100
AcDbLine
 10
807.1891125203347
 20
204.9396502126641
 30
0.0
 11
807.729112520335
 21
204.7896501797972
 31
0.0
  0
LINE
  5
10B
102
{ACAD_REACTORS
330
1AF
102
}
330
2
100
AcDbEntity
  8
0
100
AcDbLine
 10
811.9391125203332
 20
206.5396500339296
 30
0.0
 11
807.7291125579579
 21
206.5396500339296
 31
0.0
  0
LINE
  5
10C
102
{ACAD_REACTORS
330
1AF
102
}
330
2
100
AcDbEntity
  8
0
100
AcDbLine
 10
808.8491125197737
 20
204.789650212665
 30
0.0
 11
811.9391125203332
 21
204.7896500339301
 31
0.0
  0
LINE
  5
10D
102
{ACAD_REACTORS
330
1AF
102
}
330
2
100
AcDbEntity
  8
0
100
AcDbLine
 10
811.9391125203343
 20
204.7896500339297
 30
0.0
 11
811.9391125203343
 21
206.5396500339296
 31
0.0
  0
LINE
  5
10E
102
{ACAD_REACTORS
330
1AF
102
}
330
2
100
AcDbEntity
  8
0
100
AcDbLine
 10
811.8308695203342
 20
206.3396502802037
 30
0.0
 11
807.9391125200476
 21
206.339650275252
 31
0.0
  0
LINE
  5
10F
102
{ACAD_REACTORS
330
1AF
102
}
330
2
100
AcDbEntity
  8
0
100
AcDbLine
 10
811.9391125203343
 20
204.8996502126641
 30
0.0
 11
811.8308695203342
 21
204.9896502126648
 31
0.0
  0
LINE
  5
110
330
2
100
AcDbEntity
  8
0
100
AcDbLine
 10
811.8308695203342
 20
204.9896502126648
 30
0.0
 11
811.8308695203342
 21
206.3396502126633
 31
0.0
  0
LINE
  5
111
102
{ACAD_REACTORS
330
1AF
102
}
330
2
100
AcDbEntity
  8
0
100
AcDbLine
 10
811.8308694391037
 20
204.9896502802052
 30
0.0
 11
808.8491125197728
 21
204.9896502126648
 31
0.0
  0
LINE
  5
112
102
{ACAD_REACTORS
330
1AF
102
}
330
2
100
AcDbEntity
  8
0
100
AcDbLine
 10
808.249112520048
 20
204.9896502126648
 30
0.0
 11
808.249112520048
 21
204.789650212664
 31
0.0
  0
LINE
  5
113
102
{ACAD_REACTORS
330
1AF
102
}
330
2
100
AcDbEntity
  8
0
100
AcDbLine
 10
808.8491125197728
 20
204.9896502126648
 30
0.0
 11
808.8491125197737
 21
204.789650212664
 31
0.0
  0
SPLINE
  5
114
330
2
100
AcDbEntity
  8
0
100
AcDbSpline
210
0.0
220
0.0
230
1.0
 70
     8
 71
     3
 72
    13
 73
     9
 74
     7
 42
0.0000000001
 43
0.0000000001
 44
0.0000000001
 12
-0.9404533959817255
 22
0.339922652946872
 32
0.0
 13
-1.0
 23
0.0
 33
0.0
 40
0.0
 40
0.0
 40
0.0
 40
0.0
 40
0.0107778036038041
 40
0.0422784028014738
 40
0.092125402381864
 40
0.1564210611461597
 40
0.2302107536036883
 40
0.3066939994613067
 40
0.3066939994613067
 40
0.3066939994613067
 40
0.3066939994613067
 10
808.8491125197737
 20
204.789650212664
 30
0.0
 10
808.8457338457736
 20
204.7908714191953
 30
0.0
 10
808.832457720675
 20
204.7955996671483
 30
0.0
 10
808.8033360784608
 20
204.8053567616569
 30
0.0
 10
808.7567220003645
 20
204.8189913832874
 30
0.0
 10
808.695600947578
 20
204.8329634315904
 30
0.0
 10
808.624732402596
 20
204.8432721890314
 30
0.0
 10
808.5746069356206
 20
204.8457639155248
 30
0.0
 10
808.5491125203347
 20
204.8457639155248
 30
0.0
 11
808.8491125197737
 21
204.789650212664
 31
0.0
 11
808.8389592770212
 21
204.7932658332374
 31
0.0
 11
808.8090873792673
 21
204.8032637067307
 31
0.0
 11
808.7612337911206
 21
204.8172192600577
 31
0.0
 11
808.6985373531401
 21
204.8314701688177
 31
0.0
 11
808.6255032311541
 21
204.8420027724241
 31
0.0
 11
808.5491125203347
 21
204.8457639155248
 31
0.0
  0
SPLINE
  5
115
330
2
100
AcDbEntity
  8
0
100
AcDbSpline
210
0.0
220
0.0
230
1.0
 70
     8
 71
     3
 72
    14
 73
    10
 74
     8
 42
0.0000000001
 43
0.0000000001
 44
0.0000000001
 12
-1.0
 22
0.0
 32
0.0
 13
-0.9404533783266655
 23
-0.3399227017925718
 33
0.0
 40
0.0
 40
0.0
 40
0.0
 40
0.0
 40
0.065545643650523
 40
0.1298912171767421
 40
0.1886184298636986
 40
0.2381309191327856
 40
0.2755711768452423
 40
0.2988236878899467
 40
0.3067137591240364
 40
0.3067137591240364
 40
0.3067137591240364
 40
0.3067137591240364
 10
808.5491125203347
 20
204.8457639155248
 30
0.0
 10
808.5272639724513
 20
204.8457639155248
 30
0.0
 10
808.4839449228182
 20
204.8439214719021
 30
0.0
 10
808.4214996192521
 20
204.8360771393938
 30
0.0
 10
808.3650565875759
 20
204.8247284774092
 30
0.0
 10
808.3180799328568
 20
204.8123449853957
 30
0.0
 10
808.2829927545533
 20
204.801439159796
 30
0.0
 10
808.2613607846079
 20
204.7940393573819
 30
0.0
 10
808.2515859347637
 20
204.790544217441
 30
0.0
 10
808.249112520048
 20
204.789650212664
 30
0.0
 11
808.5491125203347
 21
204.8457639155248
 31
0.0
 11
808.4836252590477
 21
204.8429980502577
 31
0.0
 11
808.4197748897542
 21
204.8350304173908
 31
0.0
 11
808.3621888843602
 21
204.8235092415506
 31
0.0
 11
808.3143022194866
 21
204.8109253661177
 31
0.0
 11
808.2785441714545
 21
204.7998287495838
 31
0.0
 11
808.2565419904142
 21
204.7923065624445
 31
0.0
 11
808.249112520048
 21
204.789650212664
 31
0.0
  0
SPLINE
  5
116
330
2
100
AcDbEntity
  8
0
100
AcDbSpline
210
0.0
220
0.0
230
1.0
 70
     8
 71
     3
 72
    14
 73
    10
 74
     8
 42
0.0000000001
 43
0.0000000001
 44
0.0000000001
 12
0.8320548247125397
 22
0.5546934006030585
 32
0.0
 13
1.0
 23
0.0
 33
0.0
 40
0.0
 40
0.0
 40
0.0
 40
0.0
 40
0.0085178986185499
 40
0.0343729823612549
 40
0.0764838654417419
 40
0.1322841982084649
 40
0.1961663074290436
 40
0.2633715298889968
 40
0.3256710527346973
 40
0.3256710527346973
 40
0.3256710527346973
 40
0.3256710527346973
 10
808.2491125200471
 20
204.9896502126648
 30
0.0
 10
808.2514749729277
 20
204.9912251533817
 30
0.0
 10
808.2610275465333
 20
204.9975518911893
 30
0.0
 10
808.2824623952795
 20
205.0113579713655
 30
0.0
 10
808.3177839158334
 20
205.0326942445753
 30
0.0
 10
808.3653665999412
 20
205.0581641045274
 30
0.0
 10
808.4227290461841
 20
205.0827701975819
 30
0.0
 10
808.4850879174549
 20
205.10013730274
 30
0.0
 10
808.5283460127183
 20
205.1042400165051
 30
0.0
 10
808.5491125203335
 20
205.1042400165051
 30
0.0
 11
808.2491125200471
 21
204.9896502126648
 31
0.0
 11
808.2562143278723
 21
204.994353288519
 31
0.0
 11
808.2779571672929
 21
205.0083437956317
 31
0.0
 11
808.3140347905068
 21
205.0300631781519
 31
0.0
 11
808.3633238325605
 21
205.0562216848047
 31
0.0
 11
808.4221922602468
 21
205.0810295887913
 31
0.0
 11
808.4870733192058
 21
205.0985507221521
 31
0.0
 11
808.5491125203335
 21
205.1042400165051
 31
0.0
  0
SPLINE
  5
117
330
2
100
AcDbEntity
  8
0
100
AcDbSpline
210
0.0
220
0.0
230
1.0
 70
     8
 71
     3
 72
    16
 73
    12
 74
    10
 42
0.0000000001
 43
0.0000000001
 44
0.0000000001
 12
1.0
 22
0.0
 32
0.0
 13
0.8320543988095531
 23
-0.5546940394683118
 33
0.0
 40
0.0
 40
0.0
 40
0.0
 40
0.0
 40
0.0499203061713283
 40
0.0987799806435158
 40
0.1451277661264713
 40
0.1878635397631203
 40
0.227055653545032
 40
0.2630407036198182
 40
0.2945973084428811
 40
0.3173660497109732
 40
0.3257618858056356
 40
0.3257618858056356
 40
0.3257618858056356
 40
0.3257618858056356
 10
808.5491125203335
 20
205.1042400165051
 30
0.0
 10
808.5657526223906
 20
205.1042400165051
 30
0.0
 10
808.5987277477933
 20
205.1017524441725
 30
0.0
 10
808.6461140047719
 20
205.0914225474604
 30
0.0
 10
808.6897278803483
 20
205.0766259465802
 30
0.0
 10
808.7289578756962
 20
205.0595287575617
 30
0.0
 10
808.7639765373065
 20
205.0416426387334
 30
0.0
 10
808.7949047221449
 20
205.0240395646248
 30
0.0
 10
808.8205597241751
 20
205.0082825988814
 30
0.0
 10
808.8381232417091
 20
204.9969391525585
 30
0.0
 10
808.8467839223213
 20
204.9912025860775
 30
0.0
 10
808.8491125197728
 20
204.9896502126648
 30
0.0
 11
808.5491125203335
 21
205.1042400165051
 31
0.0
 11
808.5988973966326
 21
205.1005653654846
 31
0.0
 11
808.6466748669066
 21
205.0903388742117
 31
0.0
 11
808.6906203983527
 21
205.0756110948449
 31
0.0
 11
808.7298445947329
 21
205.0586461672982
 31
0.0
 11
808.7647815166459
 21
205.0408857261454
 31
0.0
 11
808.7960787912802
 21
205.0231260969448
 31
0.0
 11
808.8229818947006
 21
205.006632391045
 31
0.0
 11
808.8421126887137
 21
204.9942862054249
 31
0.0
 11
808.8491125197728
 21
204.9896502126648
 31
0.0
  0
LINE
  5
118
102
{ACAD_REACTORS
330
1AF
102
}
330
2
100
AcDbEntity
  8
0
100
AcDbLine
 10
811.9391125203343
 20
206.4316402126632
 30
0.0
 11
811.8308695203342
 21
206.3396502126633
 31
0.0
  0
LINE
  5
119
102
{ACAD_REACTORS
330
1AF
102
}
330
2
100
AcDbEntity
  8
0
100
AcDbLine
 10
808.2491125200471
 20
204.9896502126648
 30
0.0
 11
807.9391125200476
 21
204.9896502126648
 31
0.0
  0
LINE
  5
11A
330
2
100
AcDbEntity
  8
0
100
AcDbLine
 10
807.9391125200476
 20
204.9896502126648
 30
0.0
 11
807.9391125200476
 21
206.3396502802037
 31
0.0
  0
LINE
  5
11B
102
{ACAD_REACTORS
330
1AF
102
}
330
2
100
AcDbEntity
  8
0
100
AcDbLine
 10
807.6391125200473
 20
205.6646502802045
 30
0.0
 11
807.9391125200476
 21
206.3396502802037
 31
0.0
  0
LINE
  5
11C
102
{ACAD_REACTORS
330
1AF
102
}
330
2
100
AcDbEntity
  8
0
100
AcDbLine
 10
807.6391125200473
 20
205.6646502464345
 30
0.0
 11
807.9391125200476
 21
204.9896502126648
 31
0.0
  0
LINE
  5
11D
330
2
100
AcDbEntity
  8
CEN
 48
0.8
370
    13
100
AcDbLine
 10
808.54911251991
 20
204.5667403246716
 30
0.0
 11
808.54911251991
 21
205.3666942943492
 31
0.0
  0
LINE
  5
11E
102
{ACAD_REACTORS
330
1AF
102
}
330
2
100
AcDbEntity
  8
0
100
AcDbLine
 10
808.249112520048
 20
204.789650212664
 30
0.0
 11
807.729112520335
 21
204.7896501797972
 31
0.0
  0
DIMENSION
  5
11F
330
2
100
AcDbEntity
  8
DIM
100
AcDbDimension
  2
*D2
 10
806.206537203996
 20
206.7296502126645
 30
0.0
 11
806.206537203996
 21
209.7439359269503
 31
0.0
 70
   160
 71
     5
 42
2.13000000000008
 73
     0
 74
     0
 75
     0
  3
01
100
AcDbAlignedDimension
 13
805.2891125203352
 23
204.5996502126644
 33
0.0
 14
805.2891125203352
 24
206.7296502126645
 34
0.0
 50
90.0
100
AcDbRotatedDimension
1001
ACAD
1000
DSTYLE
1002
{
1070
    44
1040
0.2
1070
    41
1040
0.8
1070
   147
1040
0.2
1070
   140
1040
1.0
1002
}
  0
DIMENSION
  5
131
330
2
100
AcDbEntity
  8
DIM
100
AcDbDimension
  2
*D3
 10
811.9391125203343
 20
200.996172924
 30
0.0
 11
804.7391125203347
 21
201.696172924
 31
0.0
 70
    32
  1
<>
 71
     5
 42
14.39999999999895
 73
     0
 74
     0
 75
     0
  3
01
100
AcDbAlignedDimension
 13
797.5391125203352
 23
204.914650212664
 33
0.0
 14
811.9391125203343
 24
204.7896500339301
 34
0.0
100
AcDbRotatedDimension
1001
ACAD
1000
DSTYLE
1002
{
1070
    44
1040
0.2
1070
    41
1040
0.8
1070
   147
1040
0.2
1070
   140
1040
1.0
1002
}
  0
DIMENSION
  5
13E
330
2
100
AcDbEntity
  8
DIM
100
AcDbDimension
  2
*D4
 10
816.4000657784134
 20
206.5396500339296
 30
0.0
 11
816.4000657784134
 21
208.9467928910726
 31
0.0
 70
   160
  1
%%CD
 71
     5
 42
1.75
 73
     0
 74
     0
 75
     0
  3
01
100
AcDbAlignedDimension
 13
811.9391125203343
 23
204.7896500339297
 33
0.0
 14
811.9391125203332
 24
206.5396500339296
 34
0.0
 50
90.0
100
AcDbRotatedDimension
1001
ACAD
1000
DSTYLE
1002
{
1070
    44
1040
0.2
1070
    41
1040
0.8
1070
   147
1040
0.2
1070
   140
1040
1.0
1002
}
  0
DIMENSION
  5
14C
330
2
100
AcDbEntity
  8
DIM
100
AcDbDimension
  2
*D5
 10
811.9391125203343
 20
202.8022407641115
 30
0.0
 11
809.9391125201908
 21
203.5022407641115
 31
0.0
 70
    32
 71
     5
 42
4.000000000286603
 73
     0
 74
     0
 75
     0
  3
01
100
AcDbAlignedDimension
 13
807.9391125200476
 23
204.9896502126648
 33
0.0
 14
811.9391125203343
 24
204.7896500339301
 34
0.0
100
AcDbRotatedDimension
1001
ACAD
1000
DSTYLE
1002
{
1070
    44
1040
0.2
1070
    41
1040
0.8
1070
   147
1040
0.2
1070
   140
1040
1.0
1002
}
  0
DIMENSION
  5
159
330
2
100
AcDbEntity
  8
DIM
100
AcDbDimension
  2
*D6
 10
814.1219839970952
 20
206.3856452126633
 30
0.0
 11
813.4219839970951
 21
208.7392166412349
 31
0.0
 70
    32
  1
%%Cd
 71
     5
 42
1.395994932458136
 73
     0
 74
     0
 75
     0
  3
01
100
AcDbAlignedDimension
 13
811.8308695203342
 23
204.9896502802052
 33
0.0
 14
811.8849910203342
 24
206.3856452126633
 34
0.0
 50
90.0
100
AcDbRotatedDimension
1001
ACAD
1000
DSTYLE
1002
{
1070
    44
1040
0.2
1070
    41
1040
0.8
1070
   147
1040
0.2
1070
   140
1040
1.0
1002
}
  0
LINE
  5
167
330
2
100
AcDbEntity
  8
02___PRT_ALL_AXES
  6
Continuous
 62
     7
100
AcDbLine
 10
781.9733749700215
 20
192.1825534602078
 30
0.0
 11
781.2728751568213
 21
190.969224744608
 31
0.0
  0
LINE
  5
169
330
2
100
AcDbEntity
  8
02___PRT_ALL_AXES
  6
Continuous
 62
     7
100
AcDbLine
 10
785.5241823376212
 20
198.0572761378082
 30
0.0
 11
782.2495759064212
 21
192.3853631118079
 31
0.0
  0
LINE
  5
16A
330
2
100
AcDbEntity
  8
02___PRT_ALL_AXES
  6
Continuous
 62
     7
100
AcDbLine
 10
781.1678841284215
 20
190.3023232346079
 30
0.0
 11
779.2327586620212
 21
186.9505117818082
 31
0.0
  0
LINE
  5
16B
330
2
100
AcDbEntity
  8
0
  6
Continuous
 62
     7
100
AcDbLine
 10
785.8409835304213
 20
198.2554442662078
 30
0.0
 11
783.5908376392215
 21
194.3579890882081
 31
0.0
  0
LINE
  5
16C
330
2
100
AcDbEntity
  8
02___PRT_ALL_AXES
  6
Continuous
 62
     7
100
AcDbLine
 10
781.5831458556215
 20
190.7900939254079
 30
0.0
 11
781.5312852488215
 21
190.7002666874079
 31
0.0
  0
LINE
  5
16D
330
2
100
AcDbEntity
  8
0
  6
Continuous
 62
     7
100
AcDbLine
 10
786.1560120220212
 20
198.2554442662078
 30
0.0
 11
783.9058661308212
 21
194.3579890882081
 31
0.0
  0
LINE
  5
16E
330
2
100
AcDbEntity
  8
02___PRT_ALL_AXES
  6
Continuous
 62
     7
100
AcDbLine
 10
782.6157542544215
 20
192.4222827058081
 30
0.0
 11
782.5032455548213
 21
192.4222818946079
 31
0.0
  0
LINE
  5
16F
330
2
100
AcDbEntity
  8
02___PRT_ALL_AXES
  6
Continuous
 62
     7
100
AcDbLine
 10
783.8646169432214
 20
191.7012595014082
 30
0.0
 11
783.9208734716212
 21
191.603823122208
 31
0.0
  0
LINE
  5
170
330
2
100
AcDbEntity
  8
0
  6
Continuous
 62
     7
100
AcDbLine
 10
781.5531213788215
 20
190.7234573238081
 30
0.0
 11
781.2107921516216
 21
190.359893240208
 31
0.0
  0
LINE
  5
171
330
2
100
AcDbEntity
  8
0
  6
Continuous
 62
     7
100
AcDbLine
 10
782.9247349212213
 20
189.9315737902081
 30
0.0
 11
782.7810531728212
 21
189.4533231266079
 31
0.0
  0
LINE
  5
172
330
2
100
AcDbEntity
  8
0
  6
Continuous
 62
     7
100
AcDbLine
 10
782.7526513888216
 20
189.3873781290078
 30
0.0
 11
782.7810531728212
 21
189.4533231266079
 31
0.0
  0
LINE
  5
173
330
2
100
AcDbEntity
  8
02___PRT_ALL_AXES
  6
Continuous
 62
     7
100
AcDbLine
 10
782.9674305108214
 20
189.9908948874078
 30
0.0
 11
782.9155699040212
 21
189.9010676494078
 31
0.0
  0
LINE
  5
174
330
2
100
AcDbEntity
  8
02___PRT_ALL_AXES
  6
Continuous
 62
     7
100
AcDbLine
 10
782.7526513888216
 20
189.3873781290078
 30
0.0
 11
780.8175259228215
 21
186.0355666762081
 31
0.0
  0
LINE
  5
175
330
2
100
AcDbEntity
  8
02___PRT_ALL_AXES
  6
Continuous
 62
     7
100
AcDbLine
 10
787.2903386228212
 20
197.0376083990079
 30
0.0
 11
784.0131199816212
 21
191.361170789408
 31
0.0
  0
LINE
  5
176
330
2
100
AcDbEntity
  8
02___PRT_ALL_AXES
  6
Continuous
 62
     7
100
AcDbLine
 10
783.9782010228215
 20
191.0250927842077
 30
0.0
 11
783.2777012096212
 21
189.8117640686079
 31
0.0
  0
ARC
  5
177
330
2
100
AcDbEntity
  8
0
  6
Continuous
 62
     7
100
AcDbCircle
 10
849.1769505120212
 20
202.6015425182079
 30
0.0
 40
63.4849059504
100
AcDbArc
 50
183.9254685664984
 51
184.3640515158986
  0
SPLINE
  5
178
330
2
100
AcDbEntity
  8
02___PRT_ALL_AXES
  6
Continuous
 62
     7
100
AcDbSpline
210
0.0
220
0.0
230
1.0
 70
     8
 71
     3
 72
    14
 73
    10
 74
     0
 42
0.0000000001
 43
0.0000000001
 40
0.0
 40
0.0
 40
0.0
 40
0.0
 40
0.2846874406
 40
0.4166750159000002
 40
0.5422350285000001
 40
0.6621569283
 40
0.7775036476000004
 40
0.8895947205
 40
1.0
 40
1.0
 40
1.0
 40
1.0
 10
781.2955914208211
 20
190.4556551770081
 30
0.0
 10
781.2734429524214
 20
190.5013224610081
 30
0.0
 10
781.2461022020212
 20
190.5710015954079
 30
0.0
 10
781.2250718384213
 20
190.6655117142079
 30
0.0
 10
781.2178532924214
 20
190.7325818274076
 30
0.0
 10
781.2189157712213
 20
190.7970785670079
 30
0.0
 10
781.2282464816214
 20
190.8585072274079
 30
0.0
 10
781.2458567776213
 20
190.9163276138081
 30
0.0
 10
781.2630817980215
 20
190.952261625008
 30
0.0
 10
781.2729256652212
 20
190.9693066470078
 30
0.0
  0
SPLINE
  5
179
330
2
100
AcDbEntity
  8
02___PRT_ALL_AXES
  6
Continuous
 62
     7
100
AcDbSpline
210
0.0
220
0.0
230
1.0
 70
     8
 71
     3
 72
    14
 73
    10
 74
     0
 42
0.0000000001
 43
0.0000000001
 40
0.0
 40
0.0
 40
0.0
 40
0.0
 40
0.2847216895
 40
0.4167699187000001
 40
0.5423748616000001
 40
0.6623066032000004
 40
0.7776163623000001
 40
0.8896595911
 40
1.0
 40
1.0
 40
1.0
 40
1.0
 10
782.8194231360214
 20
189.5744825978079
 30
0.0
 10
782.8702476656212
 20
189.5780275466079
 30
0.0
 10
782.9445718428212
 20
189.5890958234078
 30
0.0
 10
783.0373676044212
 20
189.6180364958079
 30
0.0
 10
783.0993562036215
 20
189.6453178170079
 30
0.0
 10
783.1549633976215
 20
189.6784858098078
 30
0.0
 10
783.2037071576213
 20
189.7173650430079
 30
0.0
 10
783.2451721272215
 20
189.7616101498081
 30
0.0
 10
783.2677763672212
 20
189.7945843886079
 30
0.0
 10
783.2776507016212
 20
189.811682166208
 30
0.0
  0
SPLINE
  5
17A
330
2
100
AcDbEntity
  8
0
  6
Continuous
 62
     7
100
AcDbSpline
210
0.0
220
0.0
230
1.0
 70
     8
 71
     3
 72
     9
 73
     5
 74
     0
 42
0.0000000001
 43
0.0000000001
 40
0.0
 40
0.0
 40
0.0
 40
0.0
 40
0.2521853345
 40
1.0
 40
1.0
 40
1.0
 40
1.0
 10
781.2107958276213
 20
190.359890713808
 30
0.0
 10
781.2066526832214
 20
190.355491133808
 30
0.0
 10
781.1907152628212
 20
190.3375895378078
 30
0.0
 10
781.1768444352216
 20
190.3178428590078
 30
0.0
 10
781.1678860380212
 20
190.3023221318078
 30
0.0
  0
SPLINE
  5
17B
330
2
100
AcDbEntity
  8
02___PRT_ALL_AXES
  6
Continuous
 62
     7
100
AcDbSpline
210
0.0
220
0.0
230
1.0
 70
     8
 71
     3
 72
    15
 73
    11
 74
     0
 42
0.0000000001
 43
0.0000000001
 40
0.0
 40
0.0
 40
0.0
 40
0.0
 40
0.1484786026
 40
0.2894696073
 40
0.422747665
 40
0.5486548862000003
 40
0.6679926083
 40
0.7819302467
 40
0.8919862795
 40
1.0
 40
1.0
 40
1.0
 40
1.0
 10
779.2780747264211
 20
186.4930392290082
 30
0.0
 10
779.2661695556212
 20
186.5136597130078
 30
0.0
 10
779.2446180452214
 20
186.5548544034079
 30
0.0
 10
779.2188845304214
 20
186.6176882170082
 30
0.0
 10
779.2008823052213
 20
186.6794232338081
 30
0.0
 10
779.1908151124212
 20
186.7394417458078
 30
0.0
 10
779.1888099512215
 20
186.7971905398078
 30
0.0
 10
779.1949445988215
 20
186.852122206608
 30
0.0
 10
779.2091782504215
 20
186.9036619330079
 30
0.0
 10
779.2241024944212
 20
186.9355083766079
 30
0.0
 10
779.2327631480215
 20
186.9505091590078
 30
0.0
  0
SPLINE
  5
17C
330
2
100
AcDbEntity
  8
02___PRT_ALL_AXES
  6
Continuous
 62
     7
100
AcDbSpline
210
0.0
220
0.0
230
1.0
 70
     8
 71
     3
 72
    24
 73
    20
 74
     0
 42
0.0000000001
 43
0.0000000001
 40
0.0
 40
0.0
 40
0.0
 40
0.0
 40
0.0623666591
 40
0.1287396454
 40
0.1983291454
 40
0.2703095349
 40
0.3436936685
 40
0.4174308075999999
 40
0.4904602885
 40
0.5617522771
 40
0.6303557659000001
 40
0.6954474852
 40
0.7564004091
 40
0.8128431748999997
 40
0.8647468841
 40
0.9125261865999998
 40
0.9571046708999999
 40
0.9786664639999999
 40
1.0
 40
1.0
 40
1.0
 40
1.0
 10
779.2780747264211
 20
186.4930392290082
 30
0.0
 10
779.2970473716215
 20
186.4601774474078
 30
0.0
 10
779.3407023856212
 20
186.3948768554079
 30
0.0
 10
779.4185133300215
 20
186.3023845650079
 30
0.0
 10
779.5092899064215
 20
186.213977780608
 30
0.0
 10
779.6110498092212
 20
186.1315538862079
 30
0.0
 10
779.7216413832215
 20
186.0568306382081
 30
0.0
 10
779.8387109524212
 20
185.9914168210082
 30
0.0
 10
779.9597620008212
 20
185.9367151202079
 30
0.0
 10
780.0822089768214
 20
185.8938741862082
 30
0.0
 10
780.2034556900212
 20
185.8638143746081
 30
0.0
 10
780.3209450968214
 20
185.8471908926078
 30
0.0
 10
780.4322193776213
 20
185.844356099408
 30
0.0
 10
780.5349832892215
 20
185.8554351490081
 30
0.0
 10
780.6271278988215
 20
185.880351759408
 30
0.0
 10
780.7066905320212
 20
185.918763599808
 30
0.0
 10
780.7615792432215
 20
185.9622312950079
 30
0.0
 10
780.7965182932213
 20
186.0025342030078
 30
0.0
 10
780.8110315332214
 20
186.0243283886081
 30
0.0
 10
780.8175214368215
 20
186.0355692986079
 30
0.0
  0
SPLINE
  5
17D
330
2
100
AcDbEntity
  8
0
  6
Continuous
 62
     7
100
AcDbSpline
210
0.0
220
0.0
230
1.0
 70
     8
 71
     3
 72
    15
 73
    11
 74
     0
 42
0.0000000001
 43
0.0000000001
 40
0.0
 40
0.0
 40
0.0
 40
0.0
 40
0.1141531009
 40
0.2373237956
 40
0.3669744866
 40
0.4999987342
 40
0.6330266939
 40
0.7626616726000001
 40
0.8858639832999999
 40
1.0
 40
1.0
 40
1.0
 40
1.0
 10
779.7911233864212
 20
186.8983675110077
 30
0.0
 10
779.8231635864214
 20
186.8983677426078
 30
0.0
 10
779.8898372756215
 20
186.8925007086079
 30
0.0
 10
779.9904234336212
 20
186.869108535008
 30
0.0
 10
780.0923095192212
 20
186.831631320608
 30
0.0
 10
780.1916659560213
 20
186.7814711986081
 30
0.0
 10
780.2847770284213
 20
186.7205047362078
 30
0.0
 10
780.3681892624212
 20
186.6510139594081
 30
0.0
 10
780.4387352204214
 20
186.5755953114078
 30
0.0
 10
780.4771624428215
 20
186.5207896374079
 30
0.0
 10
780.4931805008215
 20
186.4930463682078
 30
0.0
  0
SPLINE
  5
17E
330
2
100
AcDbEntity
  8
0
  6
Continuous
 62
     7
100
AcDbSpline
210
0.0
220
0.0
230
1.0
 70
     8
 71
     3
 72
    11
 73
     7
 74
     0
 42
0.0000000001
 43
0.0000000001
 40
0.0
 40
0.0
 40
0.0
 40
0.0
 40
0.2342456646
 40
0.4753085597
 40
0.7291145699000002
 40
1.0
 40
1.0
 40
1.0
 40
1.0
 10
779.8096508248215
 20
186.8253123962078
 30
0.0
 10
779.8138334592212
 20
186.8325582094077
 30
0.0
 10
779.8239467688213
 20
186.8463803686079
 30
0.0
 10
779.8434604956212
 20
186.8638764770078
 30
0.0
 10
779.8670569436215
 20
186.8779916966079
 30
0.0
 10
779.8846076436212
 20
186.8848112018078
 30
0.0
 10
779.8938509996214
 20
186.887668857808
 30
0.0
  0
SPLINE
  5
17F
330
2
100
AcDbEntity
  8
0
  6
Continuous
 62
     7
100
AcDbSpline
210
0.0
220
0.0
230
1.0
 70
     8
 71
     3
 72
    13
 73
     9
 74
     0
 42
0.0000000001
 43
0.0000000001
 40
0.0
 40
0.0
 40
0.0
 40
0.0
 40
0.1137674933
 40
0.2287756306
 40
0.3461893947
 40
0.4670741204000004
 40
0.7224336251000001
 40
1.0
 40
1.0
 40
1.0
 40
1.0
 10
785.5241822844215
 20
198.0572761686078
 30
0.0
 10
785.5314896012213
 20
198.0699324942081
 30
0.0
 10
785.5478572112213
 20
198.0944565486081
 30
0.0
 10
785.5771283996213
 20
198.128083359408
 30
0.0
 10
785.6110091592212
 20
198.1584522270079
 30
0.0
 10
785.6629795216215
 20
198.1950125590081
 30
0.0
 10
785.7393651276213
 20
198.2314343642081
 30
0.0
 10
785.8059205564215
 20
198.248970202608
 30
0.0
 10
785.8409835304213
 20
198.2554442662078
 30
0.0
  0
SPLINE
  5
180
330
2
100
AcDbEntity
  8
0
  6
Continuous
 62
     7
100
AcDbSpline
210
0.0
220
0.0
230
1.0
 70
     8
 71
     3
 72
     9
 73
     5
 74
     0
 42
0.0000000001
 43
0.0000000001
 40
0.0
 40
0.0
 40
0.0
 40
0.0
 40
0.5237013836
 40
1.0
 40
1.0
 40
1.0
 40
1.0
 10
783.9058661308212
 20
194.3579890882081
 30
0.0
 10
783.8513126844214
 20
194.3662917366079
 30
0.0
 10
783.7459249540213
 20
194.3753048678079
 30
0.0
 10
783.6401902896214
 20
194.3671016126079
 30
0.0
 10
783.5908376392215
 20
194.3579890882081
 30
0.0
  0
SPLINE
  5
181
330
2
100
AcDbEntity
  8
0
  6
Continuous
 62
     7
100
AcDbSpline
210
0.0
220
0.0
230
1.0
 70
     8
 71
     3
 72
    15
 73
    11
 74
     0
 42
0.0000000001
 43
0.0000000001
 40
0.0
 40
0.0
 40
0.0
 40
0.0
 40
0.1209941853
 40
0.2480141593
 40
0.3787168801
 40
0.5105961535
 40
0.6410391002
 40
0.7675212958
 40
0.8878000793
 40
1.0
 40
1.0
 40
1.0
 40
1.0
 10
786.1560120220212
 20
198.2554442662078
 30
0.0
 10
786.2091429732214
 20
198.2473581118081
 30
0.0
 10
786.3170572148215
 20
198.2237378562079
 30
0.0
 10
786.4766652388214
 20
198.1696867274079
 30
0.0
 10
786.6342695788212
 20
198.0974977658081
 30
0.0
 10
786.7852556932214
 20
198.0093056846078
 30
0.0
 10
786.9252295804215
 20
197.9076555994081
 30
0.0
 10
787.0501463936215
 20
197.795504183008
 30
0.0
 10
787.1563382772214
 20
197.6761138998078
 30
0.0
 10
787.2149176156215
 20
197.590602053008
 30
0.0
 10
787.2398357800215
 20
197.547442268608
 30
0.0
  0
SPLINE
  5
182
330
2
100
AcDbEntity
  8
02___PRT_ALL_AXES
  6
Continuous
 62
     7
100
AcDbSpline
210
0.0
220
0.0
230
1.0
 70
     8
 71
     3
 72
    14
 73
    10
 74
     0
 42
0.0000000001
 43
0.0000000001
 40
0.0
 40
0.0
 40
0.0
 40
0.0
 40
0.108045971
 40
0.2181314141
 40
0.3321040025
 40
0.4515029426
 40
0.5774599710000004
 40
0.7107294780000001
 40
1.0
 40
1.0
 40
1.0
 40
1.0
 10
781.9733773860214
 20
192.1825520654081
 30
0.0
 10
781.984331493621
 20
192.201530428608
 30
0.0
 10
782.0097938116215
 20
192.2380158742078
 30
0.0
 10
782.0572410172212
 20
192.2862234726078
 30
0.0
 10
782.1135498796214
 20
192.3276928858079
 30
0.0
 10
782.1780977668214
 20
192.362015363408
 30
0.0
 10
782.2502226700212
 20
192.3889591822078
 30
0.0
 10
782.3584657884213
 20
192.415422708608
 30
0.0
 10
782.4445810012213
 20
192.422277335808
 30
0.0
 10
782.5032479432215
 20
192.4222777582078
 30
0.0
  0
SPLINE
  5
183
330
2
100
AcDbEntity
  8
0
  6
Continuous
 62
     7
100
AcDbSpline
210
0.0
220
0.0
230
1.0
 70
     8
 71
     3
 72
    11
 73
     7
 74
     0
 42
0.0000000001
 43
0.0000000001
 40
0.0
 40
0.0
 40
0.0
 40
0.0
 40
0.2716938518
 40
0.5256155838000001
 40
0.7663506778000003
 40
1.0
 40
1.0
 40
1.0
 40
1.0
 10
780.4319080160212
 20
186.5793811298078
 30
0.0
 10
780.4342511036215
 20
186.5697046966081
 30
0.0
 10
780.4374493796212
 20
186.5506158074078
 30
0.0
 10
780.4373076436212
 20
186.5223787334082
 30
0.0
 10
780.4319648492212
 20
186.4960486250081
 30
0.0
 10
780.4249258416214
 20
186.4799776722081
 30
0.0
 10
780.4206454312212
 20
186.4725624758082
 30
0.0
  0
SPLINE
  5
184
330
2
100
AcDbEntity
  8
02___PRT_ALL_AXES
  6
Continuous
 62
     7
100
AcDbSpline
210
0.0
220
0.0
230
1.0
 70
     8
 71
     3
 72
    14
 73
    10
 74
     0
 42
0.0000000001
 43
0.0000000001
 40
0.0
 40
0.0
 40
0.0
 40
0.0
 40
0.1080620613
 40
0.2181630614999999
 40
0.3321578723
 40
0.451555535
 40
0.7103822477000003
 40
0.8514287015999999
 40
1.0
 40
1.0
 40
1.0
 40
1.0
 10
783.9781986068214
 20
191.0250941790079
 30
0.0
 10
783.9891526132213
 20
191.0440723678082
 30
0.0
 10
784.0080226792215
 20
191.0843627922079
 30
0.0
 10
784.0260506156212
 20
191.1495570034078
 30
0.0
 10
784.0337925388212
 20
191.2190588442079
 30
0.0
 10
784.0303279200212
 20
191.3190988198082
 30
0.0
 10
784.0053921064215
 20
191.4226199134079
 30
0.0
 10
783.9632111908214
 20
191.5255985482078
 30
0.0
 10
783.9359368912213
 20
191.5777323578079
 30
0.0
 10
783.9208734716212
 20
191.603823122208
 30
0.0
  0
SPLINE
  5
185
330
2
100
AcDbEntity
  8
0
  6
Continuous
 62
     7
100
AcDbSpline
210
0.0
220
0.0
230
1.0
 70
     8
 71
     3
 72
    15
 73
    11
 74
     0
 42
0.0000000001
 43
0.0000000001
 40
0.0
 40
0.0
 40
0.0
 40
0.0
 40
0.1080136319
 40
0.2180624939
 40
0.3320070687
 40
0.4513577163000001
 40
0.5772611784000004
 40
0.7105019581000001
 40
0.8514763345999998
 40
1.0
 40
1.0
 40
1.0
 40
1.0
 10
787.2903386760214
 20
197.0376083682079
 30
0.0
 10
787.2999908596214
 20
197.0543260202082
 30
0.0
 10
787.316606214421
 20
197.089823209408
 30
0.0
 10
787.3324967988212
 20
197.1472542274079
 30
0.0
 10
787.3393111028215
 20
197.2084795714079
 30
0.0
 10
787.3370849492212
 20
197.2728404078082
 30
0.0
 10
787.3258601868212
 20
197.3397232538079
 30
0.0
 10
787.3058093792215
 20
197.4085167246078
 30
0.0
 10
787.2771322640212
 20
197.478542277008
 30
0.0
 10
787.2531076624214
 20
197.5244545566081
 30
0.0
 10
787.2398357800215
 20
197.547442268608
 30
0.0
  0
SPLINE
  5
186
330
2
100
AcDbEntity
  8
02___PRT_ALL_AXES
  6
Continuous
 62
     7
100
AcDbSpline
210
0.0
220
0.0
230
1.0
 70
     8
 71
     3
 72
    24
 73
    20
 74
     0
 42
0.0000000001
 43
0.0000000001
 40
0.0
 40
0.0
 40
0.0
 40
0.0
 40
0.021333536
 40
0.0428953291
 40
0.0874738134
 40
0.1352531159
 40
0.1871568251
 40
0.2435995909
 40
0.3045525148
 40
0.3696442341
 40
0.4382477229
 40
0.5095397115
 40
0.5825691924000001
 40
0.6563063314999999
 40
0.7296904651000001
 40
0.8016708546
 40
0.8712603546
 40
0.9376333408999999
 40
1.0
 40
1.0
 40
1.0
 40
1.0
 10
779.2327631480215
 20
186.9505091590078
 30
0.0
 10
779.2392530516215
 20
186.9617500694077
 30
0.0
 10
779.2537662916214
 20
186.9835442550081
 30
0.0
 10
779.2887053416214
 20
187.0238471630079
 30
0.0
 10
779.3435940528212
 20
187.0673148582079
 30
0.0
 10
779.4231566860214
 20
187.1057266986078
 30
0.0
 10
779.5153012956212
 20
187.1306433090078
 30
0.0
 10
779.6180652072211
 20
187.1417223582081
 30
0.0
 10
779.7293394880211
 20
187.1388875654081
 30
0.0
 10
779.8468288948213
 20
187.1222640834078
 30
0.0
 10
779.9680756080214
 20
187.0922042718082
 30
0.0
 10
780.0905225840213
 20
187.049363337808
 30
0.0
 10
780.2115736324216
 20
186.9946616370081
 30
0.0
 10
780.3286432016215
 20
186.9292478198078
 30
0.0
 10
780.4392347756214
 20
186.8545245714078
 30
0.0
 10
780.5409946784215
 20
186.7721006774079
 30
0.0
 10
780.6317712548215
 20
186.683693893008
 30
0.0
 10
780.7095821992214
 20
186.5912016026079
 30
0.0
 10
780.7532372132214
 20
186.5259010106079
 30
0.0
 10
780.7722098584213
 20
186.4930392290082
 30
0.0
  0
SPLINE
  5
187
330
2
100
AcDbEntity
  8
0
  6
Continuous
 62
     7
100
AcDbSpline
210
0.0
220
0.0
230
1.0
 70
     8
 71
     3
 72
    11
 73
     7
 74
     0
 42
0.0000000001
 43
0.0000000001
 40
0.0
 40
0.0
 40
0.0
 40
0.0
 40
0.219250012
 40
0.4559754781
 40
0.7156842951000001
 40
1.0
 40
1.0
 40
1.0
 40
1.0
 10
782.9247337988214
 20
189.9315743258076
 30
0.0
 10
782.9322377180215
 20
189.9565665838078
 30
0.0
 10
782.9405341336212
 20
190.0109268094081
 30
0.0
 10
782.9327687716212
 20
190.0964033174079
 30
0.0
 10
782.9059465280214
 20
190.1859007034079
 30
0.0
 10
782.8772619496215
 20
190.2442657926078
 30
0.0
 10
782.8603428248213
 20
190.2735707514082
 30
0.0
  0
SPLINE
  5
188
330
2
100
AcDbEntity
  8
02___PRT_ALL_AXES
  6
Continuous
 62
     7
100
AcDbSpline
210
0.0
220
0.0
230
1.0
 70
     8
 71
     3
 72
    23
 73
    19
 74
     0
 42
0.0000000001
 43
0.0000000001
 40
0.0
 40
0.0
 40
0.0
 40
0.0
 40
0.0428143207
 40
0.0873945491
 40
0.135172583
 40
0.1870798698
 40
0.2435227577
 40
0.3044774629
 40
0.3695755061
 40
0.4381822541
 40
0.5094820659
 40
0.5825184188
 40
0.6562646199000001
 40
0.7296584537000001
 40
0.8016431234999997
 40
0.8712444668999999
 40
0.937634465
 40
1.0
 40
1.0
 40
1.0
 40
1.0
 10
781.5830974556212
 20
190.7900039406079
 30
0.0
 10
781.5944698928212
 20
190.809711439808
 30
0.0
 10
781.6230366488213
 20
190.8470818170078
 30
0.0
 10
781.6798716008212
 20
190.8920371818078
 30
0.0
 10
781.7493656124214
 20
190.925657106208
 30
0.0
 10
781.8298507084213
 20
190.9474112594082
 30
0.0
 10
781.9196129264212
 20
190.9571101554081
 30
0.0
 10
782.0168138924216
 20
190.9546542102082
 30
0.0
 10
782.1194430732214
 20
190.9401272990078
 30
0.0
 10
782.2253624620215
 20
190.9138888522081
 30
0.0
 10
782.3323280052216
 20
190.8764693038081
 30
0.0
 10
782.4380738716212
 20
190.8286832866081
 30
0.0
 10
782.5403508616215
 20
190.7715529814079
 30
0.0
 10
782.6369571196214
 20
190.706272757008
 30
0.0
 10
782.7258576644212
 20
190.6342760218078
 30
0.0
 10
782.8051647640213
 20
190.5570454070081
 30
0.0
 10
782.8731343488215
 20
190.476239888608
 30
0.0
 10
782.9112753808215
 20
190.4191978130081
 30
0.0
 10
782.9278472016214
 20
190.3904944066082
 30
0.0
  0
SPLINE
  5
189
330
2
100
AcDbEntity
  8
0
  6
Continuous
 62
     7
100
AcDbSpline
210
0.0
220
0.0
230
1.0
 70
     8
 71
     3
 72
    21
 73
    17
 74
     0
 42
0.0000000001
 43
0.0000000001
 40
0.0
 40
0.0
 40
0.0
 40
0.0
 40
0.0428270794
 40
0.0874196103
 40
0.1352174291
 40
0.1871397738
 40
0.2436023646
 40
0.3045773462
 40
0.369692255
 40
0.4383212968
 40
0.5825521970000001
 40
0.7295950368000002
 40
0.8015903634
 40
0.8712152712000001
 40
0.9376310970999998
 40
1.0
 40
1.0
 40
1.0
 40
1.0
 10
780.4206454312212
 20
186.4725624758082
 30
0.0
 10
780.4156248688215
 20
186.463865072608
 30
0.0
 10
780.4030009480213
 20
186.4473838958081
 30
0.0
 10
780.3779193900212
 20
186.4275382550078
 30
0.0
 10
780.3472361280212
 20
186.412718560208
 30
0.0
 10
780.3117127588214
 20
186.4031169850079
 30
0.0
 10
780.2720925256211
 20
186.3988419506079
 30
0.0
 10
780.2291927036215
 20
186.3999379302078
 30
0.0
 10
780.1838929316212
 20
186.4063428698079
 30
0.0
 10
780.1205389596214
 20
186.4220633854081
 30
0.0
 10
780.0418616836215
 20
186.4538690094079
 30
0.0
 10
779.9689286996214
 20
186.4986977458081
 30
0.0
 10
779.9162676124216
 20
186.541345419808
 30
0.0
 10
779.8812626280212
 20
186.5754326566081
 30
0.0
 10
779.8512697900211
 20
186.611099431808
 30
0.0
 10
779.8344344380215
 20
186.6362719826081
 30
0.0
 10
779.8271220784213
 20
186.6489374362079
 30
0.0
  0
SPLINE
  5
18A
330
2
100
AcDbEntity
  8
02___PRT_ALL_AXES
  6
Continuous
 62
     7
100
AcDbSpline
210
0.0
220
0.0
230
1.0
 70
     8
 71
     3
 72
    25
 73
    21
 74
     0
 42
0.0000000001
 43
0.0000000001
 40
0.0
 40
0.0
 40
0.0
 40
0.0
 40
0.0213315667
 40
0.042892559
 40
0.06489834
 40
0.0875437156
 40
0.1353212935
 40
0.1872253472
 40
0.2436645736
 40
0.3046138012
 40
0.3697035067
 40
0.4383009794000003
 40
0.5095869516000004
 40
0.5826109714
 40
0.6563404498
 40
0.7297168073
 40
0.8016920990999999
 40
0.8712743057999999
 40
0.9376331489
 40
1.0
 40
1.0
 40
1.0
 40
1.0
 10
781.2729256652212
 20
190.9693066470078
 30
0.0
 10
781.2811371736212
 20
190.9835251798078
 30
0.0
 10
781.2995040812213
 20
191.0110879766082
 30
0.0
 10
781.3323279440212
 20
191.048906633008
 30
0.0
 10
781.3702734540213
 20
191.0831175658079
 30
0.0
 10
781.4284146908212
 20
191.1243588702079
 30
0.0
 10
781.5138432048213
 20
191.1656450158081
 30
0.0
 10
781.6303944900212
 20
191.1971034994078
 30
0.0
 10
781.7604032384215
 20
191.211123053408
 30
0.0
 10
781.9011680836212
 20
191.207531803008
 30
0.0
 10
782.0497928600214
 20
191.1864798426079
 30
0.0
 10
782.2031702820212
 20
191.148450393008
 30
0.0
 10
782.3580667812215
 20
191.094258132208
 30
0.0
 10
782.5111886384213
 20
191.0250453290079
 30
0.0
 10
782.6592779492215
 20
190.9422958374081
 30
0.0
 10
782.7991775536212
 20
190.8477756410081
 30
0.0
 10
782.9278939620214
 20
190.7434999790082
 30
0.0
 10
783.0427200900214
 20
190.6316702634078
 30
0.0
 10
783.1411538688212
 20
190.5146745330078
 30
0.0
 10
783.1963712136212
 20
190.432068108608
 30
0.0
 10
783.2203736584212
 20
190.3904944066082
 30
0.0
  0
SPLINE
  5
18B
330
2
100
AcDbEntity
  8
0
  6
Continuous
 62
     7
100
AcDbSpline
210
0.0
220
0.0
230
1.0
 70
     8
 71
     3
 72
    12
 73
     8
 74
     0
 42
0.0000000001
 43
0.0000000001
 40
0.0
 40
0.0
 40
0.0
 40
0.0
 40
0.2894810851
 40
0.5486693133000001
 40
0.7816238601000001
 40
0.8918291851000001
 40
1.0
 40
1.0
 40
1.0
 40
1.0
 10
779.8271220784213
 20
186.6489374362079
 30
0.0
 10
779.8181857848214
 20
186.6644156394079
 30
0.0
 10
779.8035423892212
 20
186.6952149830078
 30
0.0
 10
779.7920921020212
 20
186.742508675408
 30
0.0
 10
779.7931003192211
 20
186.780283922608
 30
0.0
 10
779.8005695668214
 20
186.8072439590079
 30
0.0
 10
779.8063120144212
 20
186.8195283870079
 30
0.0
 10
779.8096508248215
 20
186.8253123962078
 30
0.0
  0
SPLINE
  5
18C
330
2
100
AcDbEntity
  8
0
  6
Continuous
 62
     7
100
AcDbSpline
210
0.0
220
0.0
230
1.0
 70
     8
 71
     3
 72
    12
 73
     8
 74
     0
 42
0.0000000001
 43
0.0000000001
 40
0.0
 40
0.0
 40
0.0
 40
0.0
 40
0.108095868
 40
0.2196072145
 40
0.4562307566000002
 40
0.7157844714000002
 40
1.0
 40
1.0
 40
1.0
 40
1.0
 10
782.7810529136215
 20
189.4533232502078
 30
0.0
 10
782.7852936292211
 20
189.4674350302082
 30
0.0
 10
782.7919303416215
 20
189.4967354962079
 30
0.0
 10
782.7977688412213
 20
189.5587928510078
 30
0.0
 10
782.7902619796214
 20
189.642060813008
 30
0.0
 10
782.7595458212213
 20
189.7444702538079
 30
0.0
 10
782.7267067996213
 20
189.8112981022079
 30
0.0
 10
782.7073353244212
 20
189.8448506818078
 30
0.0
  0
SPLINE
  5
18D
330
2
100
AcDbEntity
  8
0
  6
Continuous
 62
     7
100
AcDbSpline
210
0.0
220
0.0
230
1.0
 70
     8
 71
     3
 72
    19
 73
    15
 74
     0
 42
0.0000000001
 43
0.0000000001
 40
0.0
 40
0.0
 40
0.0
 40
0.0
 40
0.144683358
 40
0.2741794461
 40
0.3338969656
 40
0.390908704
 40
0.4459842810000004
 40
0.5000377881000003
 40
0.5540910456
 40
0.6091610392
 40
0.7256020584
 40
0.7886169163
 40
0.8552866489000001
 40
1.0
 40
1.0
 40
1.0
 40
1.0
 10
779.5570999620212
 20
186.4930392290082
 30
0.0
 10
779.5425761292215
 20
186.5181954022079
 30
0.0
 10
779.5187655764215
 20
186.5682009526078
 30
0.0
 10
779.5028989752214
 20
186.6340380774079
 30
0.0
 10
779.5011710784215
 20
186.6835945582081
 30
0.0
 10
779.5050217360214
 20
186.718007266608
 30
0.0
 10
779.5139428860212
 20
186.7503024446079
 30
0.0
 10
779.5279030516212
 20
186.780116894208
 30
0.0
 10
779.5467500236212
 20
186.807110894608
 30
0.0
 10
779.5786271300212
 20
186.8395348514079
 30
0.0
 10
779.6194433160215
 20
186.864571457808
 30
0.0
 10
779.6658090896212
 20
186.8818572806078
 30
0.0
 10
779.7194276008215
 20
186.894981301408
 30
0.0
 10
779.7620695632214
 20
186.8983673010081
 30
0.0
 10
779.7911233864212
 20
186.8983675110077
 30
0.0
  0
SPLINE
  5
18E
330
2
100
AcDbEntity
  8
02___PRT_ALL_AXES
  6
Continuous
 62
     7
100
AcDbSpline
210
0.0
220
0.0
230
1.0
 70
     8
 71
     3
 72
    15
 73
    11
 74
     0
 42
0.0000000001
 43
0.0000000001
 40
0.0
 40
0.0
 40
0.0
 40
0.0
 40
0.1128941243
 40
0.2342347168
 40
0.3619189301
 40
0.4933595759000001
 40
0.6257062128000001
 40
0.7560515773000001
 40
0.8816028331
 40
1.0
 40
1.0
 40
1.0
 40
1.0
 10
782.5032479432215
 20
192.4222777582078
 30
0.0
 10
782.5631073212213
 20
192.4222781890082
 30
0.0
 10
782.6874120968214
 20
192.4121429774079
 30
0.0
 10
782.8753845472214
 20
192.3713607930078
 30
0.0
 10
783.0666005396214
 20
192.3057286130081
 30
0.0
 10
783.2548470004212
 20
192.2173666278078
 30
0.0
 10
783.4340597788216
 20
192.109137528608
 30
0.0
 10
783.5984274420215
 20
191.9845277326078
 30
0.0
 10
783.7426538712214
 20
191.847606877008
 30
0.0
 10
783.8251899344212
 20
191.747433565408
 30
0.0
 10
783.8614827400214
 20
191.696210394208
 30
0.0
  0
SPLINE
  5
18F
330
2
100
AcDbEntity
  8
02___PRT_ALL_AXES
  6
Continuous
 62
     7
100
AcDbSpline
210
0.0
220
0.0
230
1.0
 70
     8
 71
     3
 72
     9
 73
     5
 74
     0
 42
0.0000000001
 43
0.0000000001
 40
0.0
 40
0.0
 40
0.0
 40
0.0
 40
0.2551732281
 40
1.0
 40
1.0
 40
1.0
 40
1.0
 10
783.8614827400214
 20
191.696210394208
 30
0.0
 10
783.8668837572212
 20
191.6885874714077
 30
0.0
 10
783.8877228040213
 20
191.6584843878078
 30
0.0
 10
783.9072302544215
 20
191.6274531862079
 30
0.0
 10
783.9208653060214
 20
191.6038372654081
 30
0.0
  0
SPLINE
  5
190
330
2
100
AcDbEntity
  8
02___PRT_ALL_AXES
  6
Continuous
 62
     7
100
AcDbSpline
210
0.0
220
0.0
230
1.0
 70
     8
 71
     3
 72
    16
 73
    12
 74
     0
 42
0.0000000001
 43
0.0000000001
 40
0.0
 40
0.0
 40
0.0
 40
0.0
 40
0.1141453497
 40
0.2373067178
 40
0.3669454031
 40
0.4999566938
 40
0.6329716615
 40
0.7626023794
 40
0.8857794778
 40
0.9441783969000001
 40
1.0
 40
1.0
 40
1.0
 40
1.0
 10
782.6157542544215
 20
192.4222827058081
 30
0.0
 10
782.6727500348213
 20
192.4222831186081
 30
0.0
 10
782.7913542688214
 20
192.4118437666081
 30
0.0
 10
782.9702818692211
 20
192.3702273334081
 30
0.0
 10
783.1515210984213
 20
192.3035583122079
 30
0.0
 10
783.3282582368212
 20
192.214335872208
 30
0.0
 10
783.4939027368215
 20
192.1058832198079
 30
0.0
 10
783.6422435148213
 20
191.982291561808
 30
0.0
 10
783.7487626040212
 20
191.8684429270081
 30
0.0
 10
783.8199882468215
 20
191.7735764242081
 30
0.0
 10
783.8506728492212
 20
191.7254106834081
 30
0.0
 10
783.8646097496214
 20
191.7012719610081
 30
0.0
  0
SPLINE
  5
191
330
2
100
AcDbEntity
  8
0
  6
Continuous
 62
     7
100
AcDbSpline
210
0.0
220
0.0
230
1.0
 70
     8
 71
     3
 72
    22
 73
    18
 74
     0
 42
0.0000000001
 43
0.0000000001
 40
0.0
 40
0.0
 40
0.0
 40
0.0
 40
0.0610797759
 40
0.1259069545
 40
0.1937911543
 40
0.2640296018
 40
0.4080333372000001
 40
0.4800797655000001
 40
0.5508976587
 40
0.6196184978
 40
0.6854674686
 40
0.7477962767000001
 40
0.8061350215999999
 40
0.8602570641999999
 40
0.9102328068
 40
0.9565189992
 40
1.0
 40
1.0
 40
1.0
 40
1.0
 10
782.8603428248213
 20
190.2735707514082
 30
0.0
 10
782.8447525904214
 20
190.3005739906081
 30
0.0
 10
782.8091449232212
 20
190.354278233008
 30
0.0
 10
782.7460768708214
 20
190.4306882158081
 30
0.0
 10
782.6727598516214
 20
190.504105455808
 30
0.0
 10
782.5623911592211
 20
190.5968381134082
 30
0.0
 10
782.4391165480215
 20
190.6767549370081
 30
0.0
 10
782.3075623268213
 20
190.7413473734079
 30
0.0
 10
782.2069272640215
 20
190.7809470198078
 30
0.0
 10
782.1063078004214
 20
190.8108975926081
 30
0.0
 10
782.0075964920212
 20
190.8306579082078
 30
0.0
 10
781.9126415944212
 20
190.839832284608
 30
0.0
 10
781.8232059064212
 20
190.8382238818078
 30
0.0
 10
781.7409342204213
 20
190.8258368850081
 30
0.0
 10
781.6673354456212
 20
190.8027537762079
 30
0.0
 10
781.6038465656212
 20
190.7692956954081
 30
0.0
 10
781.5683404720215
 20
190.7396151266082
 30
0.0
 10
781.5531220864214
 20
190.723456837408
 30
0.0
  0
SPLINE
  5
192
330
2
100
AcDbEntity
  8
02___PRT_ALL_AXES
  6
Continuous
 62
     7
100
AcDbSpline
210
0.0
220
0.0
230
1.0
 70
     8
 71
     3
 72
    14
 73
    10
 74
     0
 42
0.0000000001
 43
0.0000000001
 40
0.0
 40
0.0
 40
0.0
 40
0.0
 40
0.1080634217
 40
0.2181636641
 40
0.3321566653
 40
0.4515524177000004
 40
0.7103775877000002
 40
0.8514255517
 40
1.0
 40
1.0
 40
1.0
 40
1.0
 10
783.2776507016212
 20
189.811682166208
 30
0.0
 10
783.2886112996214
 20
189.830660849808
 30
0.0
 10
783.3074938484213
 20
189.870953407408
 30
0.0
 10
783.3255373496214
 20
189.9361542554081
 30
0.0
 10
783.3332909792215
 20
190.0056650998078
 30
0.0
 10
783.3298371864215
 20
190.1057203006078
 30
0.0
 10
783.3049035516212
 20
190.2092593490081
 30
0.0
 10
783.2627184348215
 20
190.3122558894081
 30
0.0
 10
783.2354397680212
 20
190.364398983008
 30
0.0
 10
783.2203736584212
 20
190.3904944066082
 30
0.0
  0
SPLINE
  5
193
330
2
100
AcDbEntity
  8
0
  6
Continuous
 62
     7
100
AcDbSpline
210
0.0
220
0.0
230
1.0
 70
     8
 71
     3
 72
    23
 73
    19
 74
     0
 42
0.0000000001
 43
0.0000000001
 40
0.0
 40
0.0
 40
0.0
 40
0.0
 40
0.0610792887
 40
0.1258917249
 40
0.1937658675
 40
0.2639995215
 40
0.3357470279999999
 40
0.4081024174000003
 40
0.4801413035000003
 40
0.5509498245000001
 40
0.6196640545000001
 40
0.6855044041000001
 40
0.7478253891
 40
0.8061593839
 40
0.8602727720999999
 40
0.9102435456
 40
0.9565251972999998
 40
1.0
 40
1.0
 40
1.0
 40
1.0
 10
782.7073353244212
 20
189.8448506818078
 30
0.0
 10
782.6894852344212
 20
189.8757681290078
 30
0.0
 10
782.6487245784215
 20
189.9372522018081
 30
0.0
 10
782.5765164472214
 20
190.0247245770081
 30
0.0
 10
782.4925898728212
 20
190.108766368208
 30
0.0
 10
782.3985751912212
 20
190.1877725626079
 30
0.0
 10
782.2962398520211
 20
190.2602745830079
 30
0.0
 10
782.1875239788214
 20
190.3248874638081
 30
0.0
 10
782.0744898920212
 20
190.3803778066078
 30
0.0
 10
781.9592872328212
 20
190.4257039254082
 30
0.0
 10
781.8440963672212
 20
190.4600045066079
 30
0.0
 10
781.7310870596214
 20
190.4826166810078
 30
0.0
 10
781.6223804368214
 20
190.4931199814079
 30
0.0
 10
781.5199913092214
 20
190.4912901566078
 30
0.0
 10
781.4258065320215
 20
190.4770926206081
 30
0.0
 10
781.3415469020212
 20
190.4506763774081
 30
0.0
 10
781.2688596644215
 20
190.4123753394079
 30
0.0
 10
781.2282166676213
 20
190.3783897986079
 30
0.0
 10
781.2107958276213
 20
190.359890713808
 30
0.0
  0
SPLINE
  5
194
330
2
100
AcDbEntity
  8
02___PRT_ALL_AXES
  6
Continuous
 62
     7
100
AcDbSpline
210
0.0
220
0.0
230
1.0
 70
     8
 71
     3
 72
    15
 73
    11
 74
     0
 42
0.0000000001
 43
0.0000000001
 40
0.0
 40
0.0
 40
0.0
 40
0.0
 40
0.1080133705
 40
0.2180724907
 40
0.3320023241999999
 40
0.4513393896000001
 40
0.5772565838000002
 40
0.7105656375000004
 40
0.8515596786999999
 40
1.0
 40
1.0
 40
1.0
 40
1.0
 10
782.9674789108212
 20
189.9909848722079
 30
0.0
 10
782.9750392592215
 20
190.0040863346077
 30
0.0
 10
782.9880539292212
 20
190.0319067602079
 30
0.0
 10
783.0004699916212
 20
190.076916862208
 30
0.0
 10
783.0058274140212
 20
190.1248872682078
 30
0.0
 10
783.0040586260212
 20
190.1753177498078
 30
0.0
 10
782.9952666144212
 20
190.2277360718078
 30
0.0
 10
782.9795305468215
 20
190.2816503714081
 30
0.0
 10
782.9570580340213
 20
190.3365206850078
 30
0.0
 10
782.9382410712213
 20
190.3724915890079
 30
0.0
 10
782.9278472016214
 20
190.3904944066082
 30
0.0
  0
SPLINE
  5
195
330
2
100
AcDbEntity
  8
0
  6
Continuous
 62
     7
100
AcDbSpline
210
0.0
220
0.0
230
1.0
 70
     8
 71
     3
 72
    27
 73
    23
 74
     0
 42
0.0000000001
 43
0.0000000001
 40
0.0
 40
0.0
 40
0.0
 40
0.0
 40
0.0603345127
 40
0.1143357369
 40
0.1392385603
 40
0.1630130453
 40
0.185980137
 40
0.2085210273
 40
0.2310618319
 40
0.2540266483
 40
0.302583948
 40
0.3288619244
 40
0.3566640386
 40
0.4170113313
 40
0.4835616119
 40
0.5553690218999999
 40
0.6309541306000001
 40
0.7085058828000001
 40
0.7860596672
 40
0.8616352296999998
 40
0.9334604699999999
 40
1.0
 40
1.0
 40
1.0
 40
1.0
 10
780.4931846228212
 20
186.4930392290082
 30
0.0
 10
780.5077085284215
 20
186.4678829298079
 30
0.0
 10
780.5315191764215
 20
186.4178771318081
 30
0.0
 10
780.5473857396214
 20
186.3520396682081
 30
0.0
 10
780.5491134816214
 20
186.3024829694079
 30
0.0
 10
780.5452626560212
 20
186.268070132208
 30
0.0
 10
780.5363412832214
 20
186.235774858608
 30
0.0
 10
780.5223808512213
 20
186.2059603534078
 30
0.0
 10
780.5035335340215
 20
186.1789663410079
 30
0.0
 10
780.4716560804214
 20
186.146542415008
 30
0.0
 10
780.4308383584213
 20
186.1215059806079
 30
0.0
 10
780.3844745620211
 20
186.1042203498079
 30
0.0
 10
780.3308437860213
 20
186.0910968342079
 30
0.0
 10
780.2561099108212
 20
186.085153230608
 30
0.0
 10
780.1604692000212
 20
186.093578038208
 30
0.0
 10
780.0598477892215
 20
186.1169717022078
 30
0.0
 10
779.9579711492212
 20
186.154449735008
 30
0.0
 10
779.8586116144215
 20
186.2046109462078
 30
0.0
 10
779.7655013048213
 20
186.2655784238079
 30
0.0
 10
779.6820892344213
 20
186.3350701554079
 30
0.0
 10
779.6115440700215
 20
186.410489611808
 30
0.0
 10
779.5731175608215
 20
186.4652957678078
 30
0.0
 10
779.5570999620212
 20
186.4930392290082
 30
0.0
  0
SPLINE
  5
196
330
2
100
AcDbEntity
  8
02___PRT_ALL_AXES
  6
Continuous
 62
     7
100
AcDbSpline
210
0.0
220
0.0
230
1.0
 70
     8
 71
     3
 72
    15
 73
    11
 74
     0
 42
0.0000000001
 43
0.0000000001
 40
0.0
 40
0.0
 40
0.0
 40
0.0
 40
0.1080137205
 40
0.2180697533
 40
0.3320073917
 40
0.4513451138000001
 40
0.577252335
 40
0.7105303927
 40
0.8515213973999998
 40
1.0
 40
1.0
 40
1.0
 40
1.0
 10
780.8175214368215
 20
186.0355692986079
 30
0.0
 10
780.8261820904214
 20
186.050570081408
 30
0.0
 10
780.8411063344215
 20
186.082416525008
 30
0.0
 10
780.8553399860215
 20
186.1339562514078
 30
0.0
 10
780.8614746332214
 20
186.1888879182081
 30
0.0
 10
780.8594694724214
 20
186.2466367122081
 30
0.0
 10
780.8494022796215
 20
186.3066552242078
 30
0.0
 10
780.8314000544212
 20
186.3683902410082
 30
0.0
 10
780.8056665396215
 20
186.431224054608
 30
0.0
 10
780.7841150292212
 20
186.472418745008
 30
0.0
 10
780.7722098584213
 20
186.4930392290082
 30
0.0
  0
SPLINE
  5
197
330
2
100
AcDbEntity
  8
0
100
AcDbSpline
210
0.0
220
0.0
230
1.0
 70
     8
 71
     3
 72
    17
 73
    13
 74
    11
 42
0.0000000001
 43
0.0000000001
 44
0.0000000001
 12
-0.3692342150088144
 22
-0.9293363731538891
 32
0.0
 13
-0.3725356157620286
 23
0.9280178958343455
 33
0.0
 40
0.0
 40
0.0
 40
0.0
 40
0.0
 40
0.0746399051617382
 40
0.1560729208077021
 40
0.2435977157154866
 40
0.3350919391272313
 40
0.4265647448836492
 40
0.5136863380216854
 40
0.5922423273712705
 40
0.6604857431553635
 40
0.7193668661445154
 40
0.7585276931435674
 40
0.7585276931435674
 40
0.7585276931435674
 40
0.7585276931435674
 10
781.8674044046802
 20
189.555141183853
 30
0.0
 10
781.8582178690832
 20
189.5320193242678
 30
0.0
 10
781.8304308883339
 20
189.4867675223403
 30
0.0
 10
781.7682970440817
 20
189.4329816117783
 30
0.0
 10
781.6904320779475
 20
189.3931509509137
 30
0.0
 10
781.6036260679355
 20
189.3673459318232
 30
0.0
 10
781.5141789807865
 20
189.3547636566443
 30
0.0
 10
781.4281779521752
 20
189.3546362077133
 30
0.0
 10
781.3507147834168
 20
189.3664505865185
 30
0.0
 10
781.2857704653761
 20
189.3902059649863
 30
0.0
 10
781.2405964702875
 20
189.4247064440844
 30
0.0
 10
781.2237301804726
 20
189.4534422608528
 30
0.0
 10
781.2188672462061
 20
189.4655562436098
 30
0.0
 11
781.8674044046802
 21
189.555141183853
 31
0.0
 11
781.8288907279019
 21
189.491205183481
 31
0.0
 11
781.7681281083322
 21
189.4369904244183
 31
0.0
 11
781.690679141372
 21
189.3962197579969
 31
0.0
 11
781.6031498821891
 21
189.3695772786711
 31
0.0
 11
781.5125851403807
 21
189.3567203064728
 31
0.0
 11
781.4254639007385
 21
189.3569684881261
 31
0.0
 11
781.3479470382799
 21
189.3697034595536
 31
0.0
 11
781.2844294340266
 21
189.3946569712864
 31
0.0
 11
781.2387624362082
 21
189.4318256671838
 31
0.0
 11
781.2188672462061
 21
189.4655562436098
 31
0.0
  0
SPLINE
  5
198
330
2
100
AcDbEntity
  8
0
100
AcDbSpline
210
0.0
220
0.0
230
1.0
 70
     8
 71
     3
 72
    10
 73
     6
 74
     4
 42
0.0000000001
 43
0.0000000001
 44
0.0000000001
 12
0.368578847305846
 22
-0.9295964895150444
 32
0.0
 13
-0.3692342161324777
 23
-0.9293363727074469
 33
0.0
 40
0.0
 40
0.0
 40
0.0
 40
0.0
 40
0.0222803859693099
 40
0.0978907585320706
 40
0.17042074457092
 40
0.17042074457092
 40
0.17042074457092
 40
0.17042074457092
 10
781.8659728404827
 20
189.7221610861341
 30
0.0
 10
781.8687102001421
 20
189.7152571632734
 30
0.0
 10
781.8793737078597
 20
189.6843946394251
 30
0.0
 10
781.8868962691131
 20
189.6269502647988
 30
0.0
 10
781.8763312555272
 20
189.5776094352323
 30
0.0
 10
781.8674044046802
 20
189.555141183853
 30
0.0
 11
781.8659728404827
 21
189.7221610861341
 31
0.0
 11
781.873235760795
 21
189.7010977153811
 31
0.0
 11
781.8825765397704
 21
189.6260665332818
 31
0.0
 11
781.8674044046802
 21
189.555141183853
 31
0.0
  0
LINE
  5
199
330
2
100
AcDbEntity
  8
0
100
AcDbLine
 10
781.869466366893
 20
189.5616354729757
 30
0.0
 11
781.85601909099
 21
189.5699425605332
 31
0.0
  0
SPLINE
  5
19A
330
2
100
AcDbEntity
  8
0
100
AcDbSpline
210
0.0
220
0.0
230
1.0
 70
     8
 71
     3
 72
    16
 73
    12
 74
    10
 42
0.0000000001
 43
0.0000000001
 44
0.0000000001
 12
-0.8656907733097195
 22
0.5005791495921697
 32
0.0
 13
-0.4966360613929031
 23
-0.8679588829686258
 33
0.0
 40
0.0
 40
0.0
 40
0.0
 40
0.0
 40
0.077451179742993
 40
0.1513088573714578
 40
0.224316594719895
 40
0.2935373416124793
 40
0.3577143950854664
 40
0.4189129694953566
 40
0.479716719530498
 40
0.5408036626710027
 40
0.5609600994707779
 40
0.5609600994707779
 40
0.5609600994707779
 40
0.5609600994707779
 10
781.85601909099
 20
189.5699425605332
 30
0.0
 10
781.8336695004282
 20
189.58286604243
 30
0.0
 10
781.7859879620137
 20
189.601978564404
 30
0.0
 10
781.7102790573934
 20
189.6072512220053
 30
0.0
 10
781.6391375836724
 20
189.5912089941732
 30
0.0
 10
781.577093506099
 20
189.5603450570325
 30
0.0
 10
781.5249435917754
 20
189.5213407432643
 30
0.0
 10
781.4806931207402
 20
189.4776142385671
 30
0.0
 10
781.44219116009
 20
189.4301343027563
 30
0.0
 10
781.4158673076178
 20
189.3906980275668
 30
0.0
 10
781.4020946134904
 20
189.3673783633929
 30
0.0
 10
781.3987578090291
 20
189.3615467106031
 30
0.0
 11
781.85601909099
 21
189.5699425605332
 31
0.0
 11
781.7839682127959
 21
189.5983565745939
 31
0.0
 11
781.7102998023238
 21
189.60364068693
 31
0.0
 11
781.638963895375
 21
189.5881062705414
 31
0.0
 11
781.5767484701738
 21
189.5577623639472
 31
0.0
 11
781.5251412164452
 21
189.5196128481564
 31
0.0
 11
781.4814399810475
 21
189.4767704913758
 31
0.0
 11
781.4430081723704
 21
189.4296526380701
 31
0.0
 11
781.4090075906532
 21
189.3789025142757
 31
0.0
 11
781.3987578090291
 21
189.3615467106031
 31
0.0
  0
SPLINE
  5
19B
330
2
100
AcDbEntity
  8
0
100
AcDbSpline
210
0.0
220
0.0
230
1.0
 70
     8
 71
     3
 72
    17
 73
    13
 74
    11
 42
0.0000000001
 43
0.0000000001
 44
0.0000000001
 12
0.3692342158443649
 22
0.9293363728219169
 32
0.0
 13
0.3685788479889295
 23
-0.9295964892442063
 33
0.0
 40
0.0
 40
0.0
 40
0.0
 40
0.0
 40
0.0784527261564656
 40
0.1671418780589462
 40
0.2599470909570276
 40
0.3523493249612942
 40
0.4414751866321775
 40
0.5266868494364818
 40
0.6083202430330298
 40
0.6883435604498568
 40
0.7675837373652587
 40
0.823287277792123
 40
0.823287277792123
 40
0.823287277792123
 40
0.823287277792123
 10
781.2281241227338
 20
189.6054090152563
 30
0.0
 10
781.2377799330082
 20
189.629712005911
 30
0.0
 10
781.2642535499114
 20
189.6791999131299
 30
0.0
 10
781.3179450127425
 20
189.7476890591514
 30
0.0
 10
781.3860294195517
 20
189.8092564527758
 30
0.0
 10
781.4647220212219
 20
189.8570671350522
 30
0.0
 10
781.5497913942579
 20
189.8857265211808
 30
0.0
 10
781.6360023203242
 20
189.8915065535735
 30
0.0
 10
781.7174759656027
 20
189.873250514426
 30
0.0
 10
781.7882004239038
 20
189.8327306463127
 30
0.0
 10
781.8378003036006
 20
189.7794724647111
 30
0.0
 10
781.8591291248963
 20
189.7394216913405
 30
0.0
 10
781.8659728404827
 20
189.7221610861341
 30
0.0
 11
781.2281241227338
 21
189.6054090152563
 31
0.0
 11
781.2644055552008
 21
189.674968255473
 31
0.0
 11
781.3189163572224
 21
189.7449278018419
 31
0.0
 11
781.3879094355842
 21
189.8069984283831
 31
0.0
 11
781.467170374777
 21
189.8544944952439
 31
0.0
 11
781.5518542571052
 21
189.8822804501926
 31
0.0
 11
781.6369128090172
 21
189.8873863511428
 31
0.0
 11
781.7165051381907
 21
189.8692460069671
 31
0.0
 11
781.7859030210237
 21
189.8294004904226
 31
0.0
 11
781.8398493472767
 21
189.7713591299855
 31
0.0
 11
781.8659728404827
 21
189.7221610861341
 31
0.0
  0
SPLINE
  5
19C
330
2
100
AcDbEntity
  8
0
100
AcDbSpline
210
0.0
220
0.0
230
1.0
 70
     8
 71
     3
 72
    10
 73
     6
 74
     4
 42
0.0000000001
 43
0.0000000001
 44
0.0000000001
 12
-0.3725356142275711
 22
0.9280178964503251
 32
0.0
 13
0.369234215515414
 23
0.9293363729526122
 33
0.0
 40
0.0
 40
0.0
 40
0.0
 40
0.0
 40
0.0160109682493316
 40
0.0753968043369699
 40
0.1430172246338889
 40
0.1430172246338889
 40
0.1430172246338889
 40
0.1430172246338889
 10
781.2188672462061
 20
189.4655562436098
 30
0.0
 10
781.2168790275757
 20
189.4705090653014
 30
0.0
 10
781.2089397348388
 20
189.4944376919375
 30
0.0
 10
781.2078504950858
 20
189.5434190410344
 30
0.0
 10
781.2198015317867
 20
189.5844616432109
 30
0.0
 10
781.2281241227338
 20
189.6054090152563
 30
0.0
 11
781.2188672462061
 21
189.4655562436098
 31
0.0
 11
781.2138392418173
 21
189.4807572395031
 31
0.0
 11
781.2107375838568
 21
189.5400620221578
 31
0.0
 11
781.2281241227338
 21
189.6054090152563
 31
0.0
  0
SPLINE
  5
19D
330
2
100
AcDbEntity
  8
0
100
AcDbSpline
210
0.0
220
0.0
230
1.0
 70
     8
 71
     3
 72
    10
 73
     6
 74
     4
 42
0.0000000001
 43
0.0000000001
 44
0.0000000001
 12
-0.7724374706984866
 22
0.6350908233165749
 32
0.0
 13
-0.504298485289076
 23
0.8635294075682333
 33
0.0
 40
0.0
 40
0.0
 40
0.0
 40
0.0
 40
0.0201362300418672
 40
0.136771183884176
 40
0.1875210632993914
 40
0.1875210632993914
 40
0.1875210632993914
 40
0.1875210632993914
 10
781.6546649884692
 20
189.3844041121253
 30
0.0
 10
781.6494803289349
 20
189.3886668904305
 30
0.0
 10
781.6146873695531
 20
189.4181088385017
 30
0.0
 10
781.5708507537061
 20
189.4634602090342
 30
0.0
 10
781.5395247532285
 20
189.5097903289931
 30
0.0
 10
781.5309937241226
 20
189.5243983334283
 30
0.0
 11
781.6546649884692
 21
189.3844041121253
 31
0.0
 11
781.6392966216352
 21
189.397414917679
 31
0.0
 11
781.5592377233998
 21
189.482234050374
 31
0.0
 11
781.5309937241226
 21
189.5243983334283
 31
0.0
  0
MTEXT
  5
19E
330
2
100
AcDbEntity
  8
图框
100
AcDbMText
 10
785.4501177796246
 20
226.119991855606
 30
0.0
 40
0.6000023545570477
 41
3.909661247026225
 46
1.3522221868165
 71
     5
 72
     5
  1
{\C4;0.09-0.25}
  7
Romans字体
 73
     1
 44
1.0
1001
ACAD
1000
ACAD_MTEXT_DEFINED_HEIGHT_BEGIN
1070
    46
1040
1.3522221868165
1000
ACAD_MTEXT_DEFINED_HEIGHT_END
  0
MTEXT
  5
19F
330
2
100
AcDbEntity
  8
图框
100
AcDbMText
 10
785.4501177796246
 20
224.7677696687902
 30
0.0
 40
0.6000023545570477
 41
3.909661247026225
 46
1.352222186815229
 71
     5
 72
     5
  1
{\C4;0.13-0.33}
  7
Romans字体
 73
     1
 44
1.0
1001
ACAD
1000
ACAD_MTEXT_DEFINED_HEIGHT_BEGIN
1070
    46
1040
1.352222186815229
1000
ACAD_MTEXT_DEFINED_HEIGHT_END
  0
MTEXT
  5
1A0
330
2
100
AcDbEntity
  8
图框
100
AcDbMText
 10
785.4501177799582
 20
223.415547481975
 30
0.0
 40
0.59999791584616
 41
3.909661246359378
 46
1.352222186815279
 71
     5
 72
     5
  1
{\C4;0.33-0.52}
  7
Romans字体
 73
     1
 44
1.0
1001
ACAD
1000
ACAD_MTEXT_DEFINED_HEIGHT_BEGIN
1070
    46
1040
1.352222186815279
1000
ACAD_MTEXT_DEFINED_HEIGHT_END
  0
MTEXT
  5
1A1
330
2
100
AcDbEntity
  8
图框
100
AcDbMText
 10
785.4501177799582
 20
222.0611492720351
 30
0.0
 40
0.59999791584616
 41
3.909661246359378
 46
1.347870140565607
 71
     5
 72
     5
  1
{\C4;0.52-0.82}
  7
Romans字体
 73
     1
 44
1.0
1001
ACAD
1000
ACAD_MTEXT_DEFINED_HEIGHT_BEGIN
1070
    46
1040
1.347870140565607
1000
ACAD_MTEXT_DEFINED_HEIGHT_END
  0
MTEXT
  5
1A2
330
2
100
AcDbEntity
  8
图框
100
AcDbMText
 10
788.8799007411371
 20
226.119991855606
 30
0.0
 40
0.6000023545570477
 41
2.949904678664852
 46
1.352222186816635
 71
     5
 72
     5
  1
{\C4;28-24}
  7
Romans字体
 73
     1
 44
1.0
1001
ACAD
1000
ACAD_MTEXT_DEFINED_HEIGHT_BEGIN
1070
    46
1040
1.352222186816635
1000
ACAD_MTEXT_DEFINED_HEIGHT_END
  0
MTEXT
  5
1A3
330
2
100
AcDbEntity
  8
图框
100
AcDbMText
 10
788.8799007414704
 20
224.7677696687901
 30
0.0
 40
0.6000023545570477
 41
2.949904677998123
 46
1.352222186815164
 71
     5
 72
     5
  1
{\C4;26-22}
  7
Romans字体
 73
     1
 44
1.0
1001
ACAD
1000
ACAD_MTEXT_DEFINED_HEIGHT_BEGIN
1070
    46
1040
1.352222186815164
1000
ACAD_MTEXT_DEFINED_HEIGHT_END
  0
MTEXT
  5
1A4
330
2
100
AcDbEntity
  8
图框
100
AcDbMText
 10
788.8799007414704
 20
223.415547481975
 30
0.0
 40
0.59999791584616
 41
2.949904677998274
 46
1.35222218681521
 71
     5
 72
     5
  1
{\C4;22-20}
  7
Romans字体
 73
     1
 44
1.0
1001
ACAD
1000
ACAD_MTEXT_DEFINED_HEIGHT_BEGIN
1070
    46
1040
1.35222218681521
1000
ACAD_MTEXT_DEFINED_HEIGHT_END
  0
MTEXT
  5
1A5
330
2
100
AcDbEntity
  8
图框
100
AcDbMText
 10
788.8799007411372
 20
222.0611092362912
 30
0.0
 40
0.59999791584616
 41
2.94990467733168
 46
1.347790069078369
 71
     5
 72
     5
  1
{\C4;22-18}
  7
Romans字体
 73
     1
 44
1.0
1001
ACAD
1000
ACAD_MTEXT_DEFINED_HEIGHT_BEGIN
1070
    46
1040
1.347790069078369
1000
ACAD_MTEXT_DEFINED_HEIGHT_END
  0
MTEXT
  5
1A6
330
2
100
AcDbEntity
  8
图框
100
AcDbMText
 10
791.5713049433336
 20
226.119991855606
 30
0.0
 40
0.6000023545570477
 41
2.43290372572948
 46
1.352222186816667
 71
     5
 72
     5
  1
{\C4;0.64}
  7
Romans字体
 73
     1
 44
1.0
1001
ACAD
1000
ACAD_MTEXT_DEFINED_HEIGHT_BEGIN
1070
    46
1040
1.352222186816667
1000
ACAD_MTEXT_DEFINED_HEIGHT_END
  0
MTEXT
  5
1A7
330
2
100
AcDbEntity
  8
图框
100
AcDbMText
 10
791.5713049433336
 20
224.76776966879
 30
0.0
 40
0.6000023545570477
 41
2.43290372572947
 46
1.352222186815196
 71
     5
 72
     5
  1
{\C4;0.9}
  7
Romans字体
 73
     1
 44
1.0
1001
ACAD
1000
ACAD_MTEXT_DEFINED_HEIGHT_BEGIN
1070
    46
1040
1.352222186815196
1000
ACAD_MTEXT_DEFINED_HEIGHT_END
  0
MTEXT
  5
1A8
330
2
100
AcDbEntity
  8
图框
100
AcDbMText
 10
791.571304943667
 20
223.4155474819748
 30
0.0
 40
0.59999791584616
 41
2.432903725062625
 46
1.352222186815245
 71
     5
 72
     5
  1
{\C4;1.12}
  7
Romans字体
 73
     1
 44
1.0
1001
ACAD
1000
ACAD_MTEXT_DEFINED_HEIGHT_BEGIN
1070
    46
1040
1.352222186815245
1000
ACAD_MTEXT_DEFINED_HEIGHT_END
  0
MTEXT
  5
1A9
330
2
100
AcDbEntity
  8
图框
100
AcDbMText
 10
791.5713049433342
 20
222.0633252951595
 30
0.0
 40
0.59999791584616
 41
2.43290372572923
 46
1.352222186815245
 71
     5
 72
     5
  1
{\C4;1.35}
  7
Romans字体
 73
     1
 44
1.0
1001
ACAD
1000
ACAD_MTEXT_DEFINED_HEIGHT_BEGIN
1070
    46
1040
1.352222186815245
1000
ACAD_MTEXT_DEFINED_HEIGHT_END
  0
MTEXT
  5
1AA
330
2
100
AcDbEntity
  8
图框
100
AcDbMText
 10
798.1350119042376
 20
226.1170571246843
 30
0.0
 40
0.6000023545570477
 41
5.828702745953752
 46
1.35222218681682
 71
     5
 72
     5
  1
{\C4;5}
  7
Romans字体
 73
     1
 44
1.0
1001
ACAD
1000
ACAD_MTEXT_DEFINED_HEIGHT_BEGIN
1070
    46
1040
1.35222218681682
1000
ACAD_MTEXT_DEFINED_HEIGHT_END
  0
MTEXT
  5
1AB
330
2
100
AcDbEntity
  8
图框
100
AcDbMText
 10
798.1350119042376
 20
224.7619002069475
 30
0.0
 40
0.6000023545570477
 41
5.828702745953752
 46
1.35222218681682
 71
     5
 72
     5
  1
{\C4;5}
  7
Romans字体
 73
     1
 44
1.0
1001
ACAD
1000
ACAD_MTEXT_DEFINED_HEIGHT_BEGIN
1070
    46
1040
1.35222218681682
1000
ACAD_MTEXT_DEFINED_HEIGHT_END
  0
MTEXT
  5
1AC
330
2
100
AcDbEntity
  8
图框
100
AcDbMText
 10
798.1350119042376
 20
223.4096880236309
 30
0.0
 40
0.6000023545570477
 41
5.828702745953752
 46
1.35222218681682
 71
     5
 72
     5
  1
{\C4;5}
  7
Romans字体
 73
     1
 44
1.0
1001
ACAD
1000
ACAD_MTEXT_DEFINED_HEIGHT_BEGIN
1070
    46
1040
1.35222218681682
1000
ACAD_MTEXT_DEFINED_HEIGHT_END
  0
MTEXT
  5
1AD
330
2
100
AcDbEntity
  8
图框
100
AcDbMText
 10
798.1350119042376
 20
222.0545411311049
 30
0.0
 40
0.6000023545570477
 41
5.828702745953752
 46
1.35222218681682
 71
     5
 72
     5
  1
{\C4;5}
  7
Romans字体
 73
     1
 44
1.0
1001
ACAD
1000
ACAD_MTEXT_DEFINED_HEIGHT_BEGIN
1070
    46
1040
1.35222218681682
1000
ACAD_MTEXT_DEFINED_HEIGHT_END
  0
SPLINE
  5
1AE
102
{ACAD_REACTORS
330
1AF
102
}
330
2
100
AcDbEntity
  8
0
100
AcDbSpline
210
0.0
220
0.0
230
1.0
 70
     8
 71
     3
 72
    10
 73
     6
 74
     4
 42
0.0000000001
 43
0.0000000001
 44
0.0000000001
 40
0.0
 40
0.0
 40
0.0
 40
0.0
 40
0.8658863022060481
 40
1.778485205590525
 40
2.359420154541693
 40
2.359420154541693
 40
2.359420154541693
 40
2.359420154541693
 10
807.5431889952806
 20
206.8552016325593
 30
0.0
 10
807.4300456084785
 20
206.5770028150302
 30
0.0
 10
807.1976550058957
 20
206.0055969850411
 30
0.0
 10
807.5764647282799
 20
205.226580435776
 30
0.0
 10
807.4363471828075
 20
204.7376398476906
 30
0.0
 10
807.3818461221193
 20
204.5474582357134
 30
0.0
 11
807.5431889952806
 21
206.8552016325593
 31
0.0
 11
807.3265288530562
 21
206.0168595358474
 31
0.0
 11
807.4878711672882
 21
205.1186360580331
 31
0.0
 11
807.3818461221193
 21
204.5474582357134
 31
0.0
  0
HATCH
  5
1AF
330
2
100
AcDbEntity
  8
0
 62
     6
100
AcDbHatch
 10
0.0
 20
0.0
 30
0.0
210
0.0
220
0.0
230
1.0
  2
ANSI31
 70
     0
 71
     1
 91
        3
 92
        5
 93
        8
 72
     1
 10
807.9391125178469
 20
206.339650275252
 11
811.8308695998079
 21
206.3396502802037
 72
     1
 10
811.8308695998079
 20
206.3396502802037
 11
811.9391125203343
 21
206.4316402126633
 72
     1
 10
811.9391125203343
 20
206.4316402126633
 11
811.9391125203343
 21
206.5396500339296
 72
     1
 10
811.9391125203343
 20
206.5396500339296
 11
807.7291119952118
 21
206.5396500339296
 72
     1
 10
807.7291119952118
 20
206.5396500339296
 11
807.3913146088935
 21
206.445817447179
 72
     4
 94
        3
 73
     0
 74
     0
 95
        9
 96
        5
 40
0.4242752416926061
 40
0.4242752416926061
 40
0.4242752416926061
 40
0.4242752416926061
 40
0.8658863022060776
 40
1.224825502102204
 40
1.224825502102204
 40
1.224825502102204
 40
1.224825502102204
 10
807.3913146088935
 20
206.4458174471789
 10
807.3486432779407
 20
206.303474496038
 10
807.2996541148489
 20
206.0445705194471
 10
807.3556065774086
 20
205.7824648329488
 10
807.3848623266417
 20
205.6646502126624
 72
     1
 10
807.3848623266417
 20
205.6646502126641
 11
807.6391124900293
 21
205.6646502126641
 72
     1
 10
807.6391124900293
 20
205.6646502126641
 11
807.9391125178469
 21
206.339650275252
 97
        8
330
10E
330
118
330
10D
330
10B
330
109
330
1AE
330
FE
330
11B
 92
        5
 93
        7
 72
     1
 10
807.6391125350562
 20
205.6646502126641
 11
807.3848623266417
 21
205.6646502126641
 72
     4
 94
        3
 73
     0
 74
     0
 95
        9
 96
        5
 40
1.224825502102204
 40
1.224825502102204
 40
1.224825502102204
 40
1.224825502102204
 40
1.778485205590575
 40
2.037564039505113
 40
2.037564039505113
 40
2.037564039505113
 40
2.037564039505113
 10
807.3848623266417
 20
205.6646502126624
 10
807.4299889928031
 20
205.4829224778449
 10
807.51079149647
 20
205.2151254095988
 10
807.4790948141961
 20
204.9485672550901
 10
807.4626572485886
 20
204.8636655492777
 72
     1
 10
807.4626572485886
 20
204.8636655492778
 11
807.729112520335
 21
204.7896501797972
 72
     1
 10
807.729112520335
 20
204.7896501797972
 11
808.249112520048
 21
204.789650212664
 72
     1
 10
808.249112520048
 20
204.789650212664
 11
808.249112520048
 21
204.9896502126648
 72
     1
 10
808.249112520048
 20
204.9896502126648
 11
807.9391125200476
 21
204.9896502126648
 72
     1
 10
807.9391125200476
 20
204.9896502126648
 11
807.6391125350562
 21
205.6646502126641
 97
        7
330
FE
330
1AE
330
10A
330
11E
330
112
330
119
330
11C
 92
        7
 72
     0
 73
     1
 93
        5
 10
811.8308694391034
 20
204.9896502802053
 10
808.8491125197728
 20
204.9896502126648
 10
808.8491125197737
 20
204.789650212665
 10
811.9391125203343
 20
204.7896500339301
 10
811.9391125203343
 20
204.8996502126641
 97
        5
330
111
330
113
330
10C
330
10D
330
10F
 75
     0
 76
     1
 52
0.0
 41
2.0
 77
     0
 78
     1
 53
45.0
 43
85.95674611758056
 44
-3.227979236901973
 45
-0.1767766952966369
 46
0.1767766952966369
 79
     0
 47
0.007370038027616
 98
        3
 10
807.6887338680117
 20
206.2579308356426
 10
807.6592315936663
 20
205.167164532631
 10
810.0563230934612
 20
204.9313238472364
1001
ACAD
1010
0.0
1020
0.0
1030
0.0
  0
MTEXT
  5
1B0
330
2
100
AcDbEntity
  8
图框
100
AcDbMText
 10
803.0041938997273
 20
226.119911784119
 30
0.0
 40
0.6000023545570477
 41
3.909661246359451
 46
1.352222186816528
 71
     5
 72
     5
  1
{\C4;0.21}
  7
Romans字体
 73
     1
 44
1.0
1001
ACAD
1000
ACAD_MTEXT_DEFINED_HEIGHT_BEGIN
1070
    46
1040
1.352222186816528
1000
ACAD_MTEXT_DEFINED_HEIGHT_END
  0
MTEXT
  5
1B1
330
2
100
AcDbEntity
  8
图框
100
AcDbMText
 10
803.0041938997273
 20
224.7676895973024
 30
0.0
 40
0.6000023545570477
 41
3.909661246359451
 46
1.352222186816528
 71
     5
 72
     5
  1
{\C4;0.21}
  7
Romans字体
 73
     1
 44
1.0
1001
ACAD
1000
ACAD_MTEXT_DEFINED_HEIGHT_BEGIN
1070
    46
1040
1.352222186816528
1000
ACAD_MTEXT_DEFINED_HEIGHT_END
  0
MTEXT
  5
1B2
330
2
100
AcDbEntity
  8
图框
100
AcDbMText
 10
803.0041938997273
 20
223.4154674104873
 30
0.0
 40
0.6000023545570477
 41
3.909661246359451
 46
1.352222186816528
 71
     5
 72
     5
  1
{\C4;0.21}
  7
Romans字体
 73
     1
 44
1.0
1001
ACAD
1000
ACAD_MTEXT_DEFINED_HEIGHT_BEGIN
1070
    46
1040
1.352222186816528
1000
ACAD_MTEXT_DEFINED_HEIGHT_END
  0
MTEXT
  5
1B3
330
2
100
AcDbEntity
  8
图框
100
AcDbMText
 10
803.0041938997273
 20
222.063245223672
 30
0.0
 40
0.6000023545570477
 41
3.909661246359451
 46
1.352222186816528
 71
     5
 72
     5
  1
{\C4;0.20}
  7
Romans字体
 73
     1
 44
1.0
1001
ACAD
1000
ACAD_MTEXT_DEFINED_HEIGHT_BEGIN
1070
    46
1040
1.352222186816528
1000
ACAD_MTEXT_DEFINED_HEIGHT_END
  0
LINE
  5
1B4
330
2
100
AcDbEntity
  8
图框
370
    35
100
AcDbLine
 10
795.2206605312611
 20
229.6289796881287
 30
0.0
 11
795.2206605312611
 21
221.3784300376964
 31
0.0
  0
LINE
  5
1B5
330
2
100
AcDbEntity
  8
图框
370
    -3
100
AcDbLine
 10
783.4952871561113
 20
229.6289796881287
 30
0.0
 11
783.4952871561113
 21
221.3784300376961
 31
0.0
  0
LINE
  5
1B6
330
2
100
AcDbEntity
  8
图框
370
    35
100
AcDbLine
 10
801.0493632772149
 20
226.7961029490142
 30
0.0
 11
801.0493632772149
 21
221.3784300376965
 31
0.0
  0
LINE
  5
1B8
330
2
100
AcDbEntity
  8
图框
370
    -3
100
AcDbLine
 10
777.4284531572612
 20
226.5961021641612
 30
0.0
 11
777.4284531572612
 21
229.5004672512265
 31
0.0
  0
LINE
  5
1B9
330
2
100
AcDbEntity
  8
图框
370
    -3
100
AcDbLine
 10
787.4049484024707
 20
226.7961029490143
 30
0.0
 11
787.4049484024707
 21
221.3784300376961
 31
0.0
  0
LINE
  5
1BA
330
2
100
AcDbEntity
  8
图框
370
    -3
100
AcDbLine
 10
790.3548530804694
 20
226.7961029490143
 30
0.0
 11
790.3548530804698
 21
221.3784300376962
 31
0.0
  0
LINE
  5
1BB
330
2
100
AcDbEntity
  8
图框
370
    -3
100
AcDbLine
 10
783.4952871561113
 20
226.5961021641612
 30
0.0
 11
783.4952871561113
 21
229.5005473227135
 31
0.0
  0
LINE
  5
1BC
330
2
100
AcDbEntity
  8
图框
370
    -3
100
AcDbLine
 10
777.428453157928
 20
226.5961021641612
 30
0.0
 11
777.428453157928
 21
228.1483351393964
 31
0.0
  0
LINE
  5
1BD
330
2
100
AcDbEntity
  8
图框
370
    -3
100
AcDbLine
 10
787.4049484031378
 20
226.7961029490143
 30
0.0
 11
787.4049484031375
 21
221.3785101091835
 31
0.0
  0
LINE
  5
1BE
330
2
100
AcDbEntity
  8
图框
370
    -3
100
AcDbLine
 10
790.354853081136
 20
226.7961029490143
 30
0.0
 11
790.3548530811366
 21
221.3785101091835
 31
0.0
  0
LINE
  5
1BF
330
2
100
AcDbEntity
  8
图框
370
    35
100
AcDbLine
 10
792.7877568061981
 20
229.6289796881287
 30
0.0
 11
792.7877568061981
 21
221.3785101091836
 31
0.0
  0
MTEXT
  5
309
330
2
100
AcDbEntity
  8
图框
 62
     3
100
AcDbMText
 10
841.1756435479386
 20
188.032631767097
 30
0.0
 40
0.746378394635083
 41
8.403098007973925
 46
2.218038889596384
 71
     5
 72
     5
  1
{\C4;1010142200501}
  7
Romans字体
 73
     1
 44
1.0
1001
ACAD
1000
ACAD_MTEXT_DEFINED_HEIGHT_BEGIN
1070
    46
1040
2.218038889596384
1000
ACAD_MTEXT_DEFINED_HEIGHT_END
  0
INSERT
  5
30A
330
2
100
AcDbEntity
  8
DIM
100
AcDbBlockReference
  2
A4图框-NEW
 10
563.6450665684691
 20
60.74528737309087
 30
0.0
 41
0.25
 42
0.25
 43
0.25
  0
MTEXT
  5
30B
330
2
100
AcDbEntity
  8
图框
 62
     3
100
AcDbMText
 10
829.5719018322635
 20
184.6557772141505
 30
0.0
 40
0.746378394635083
 41
2.707336787601192
 46
1.971523801091308
 71
     5
 72
     5
  1
0.21g
  7
Romans字体
 73
     1
 44
1.0
1001
ACAD
1000
ACAD_MTEXT_DEFINED_HEIGHT_BEGIN
1070
    46
1040
1.971523801091308
1000
ACAD_MTEXT_DEFINED_HEIGHT_END
  0
MTEXT
  5
30C
330
2
100
AcDbEntity
  8
图框
 62
     3
100
AcDbMText
 10
824.1622269893607
 20
184.7057228479247
 30
0.0
 40
0.7463783937585367
 41
2.707337108597616
 46
1.971523650302624
 71
     5
 72
     5
  1
4:1
  7
Romans字体
 73
     1
 44
1.0
1001
ACAD
1000
ACAD_MTEXT_DEFINED_HEIGHT_BEGIN
1070
    46
1040
1.971523650302624
1000
ACAD_MTEXT_DEFINED_HEIGHT_END
  0
MTEXT
  5
30D
330
2
100
AcDbEntity
  8
图框
 62
     3
100
AcDbMText
 10
841.1756432220071
 20
190.2274942493177
 30
0.0
 40
0.7463783937585367
 41
8.403097998105339
 46
2.171686376421464
 71
     5
 72
     5
  1
CSGF-0.52
  7
Romans字体
 73
     1
 44
1.0
1001
ACAD
1000
ACAD_MTEXT_DEFINED_HEIGHT_BEGIN
1070
    46
1040
2.171686376421464
1000
ACAD_MTEXT_DEFINED_HEIGHT_END
  0
LINE
  5
39B
330
2
100
AcDbEntity
  8
图框
370
    -3
100
AcDbLine
 10
804.9590245235739
 20
229.6289796881287
 30
0.0
 11
804.9590245235739
 21
221.3784300376966
 31
0.0
  0
LINE
  5
39C
330
2
100
AcDbEntity
  8
图框
370
    35
100
AcDbLine
 10
783.4952871561113
 20
221.3785101091832
 30
0.0
 11
804.9590245235739
 21
221.3785101091838
 31
0.0
  0
LINE
  5
39D
330
2
100
AcDbEntity
  8
图框
370
    -3
100
AcDbLine
 10
783.4952871561113
 20
226.7961029490143
 30
0.0
 11
804.9590245235739
 21
226.7961029490141
 31
0.0
  0
LINE
  5
39E
330
2
100
AcDbEntity
  8
图框
370
    35
100
AcDbLine
 10
783.4952871561113
 20
222.7335769302221
 30
0.0
 11
804.9590245235739
 21
222.7335769302227
 31
0.0
  0
LINE
  5
39F
330
2
100
AcDbEntity
  8
图框
370
    -3
100
AcDbLine
 10
783.4952871561113
 20
224.085789113539
 30
0.0
 11
804.9590245235739
 21
224.085789113539
 31
0.0
  0
LINE
  5
3A0
330
2
100
AcDbEntity
  8
图框
370
    35
100
AcDbLine
 10
783.4952871561113
 20
225.4409460312754
 30
0.0
 11
804.9590245235739
 21
225.4409460312759
 31
0.0
  0
LINE
  5
3A1
330
2
100
AcDbEntity
  8
图框
370
    -3
100
AcDbLine
 10
783.4952871561113
 20
226.7961029490138
 30
0.0
 11
804.9590245235741
 21
226.7961029490143
 31
0.0
  0
ENDSEC
  0
SECTION
  2
OBJECTS
  0
DICTIONARY
  5
B
330
0
100
AcDbDictionary
281
     1
  3
ACAD_COLOR
350
1F4
  3
ACAD_GROUP
350
1E1
  3
ACAD_LAYOUT
350
1C2
  3
ACAD_MATERIAL
350
D
  3
ACAD_MLEADERSTYLE
350
255
  3
ACAD_MLINESTYLE
350
1E2
  3
ACAD_PLOTSETTINGS
350
1E3
  3
ACAD_PLOTSTYLENAME
350
A
  3
ACAD_SCALELIST
350
1F5
  3
ACAD_TABLESTYLE
350
1F6
  3
ACAD_VISUALSTYLE
350
1DB
  3
ACDB_RECOMPOSE_DATA
350
245
  3
AcDbVariableDictionary
350
21E
  0
DICTIONARY
  5
1DC
330
1D8
100
AcDbDictionary
280
     1
281
     1
  0
DICTIONARY
  5
1CD
330
1CC
100
AcDbDictionary
280
     1
281
     1
  3
ACAD_LAYERFILTERS
360
3D5
  3
ACAD_LAYERSTATES
360
1CF
  3
ACLYDICTIONARY
360
3D4
  0
DICTIONARY
  5
7
330
6
100
AcDbDictionary
280
     1
281
     1
  3
ADSK_XREC_LAYER_RECONCILED
360
8
  0
DICTIONARY
  5
18
330
17
100
AcDbDictionary
280
     1
281
     1
  3
ADSK_XREC_LAYER_RECONCILED
360
19
  0
DICTIONARY
  5
26
330
25
100
AcDbDictionary
280
     1
281
     1
  3
ADSK_XREC_LAYER_RECONCILED
360
27
  0
DICTIONARY
  5
3
330
2
100
AcDbDictionary
280
     1
281
     1
  3
ACAD_SORTENTS
360
21D
  0
DICTIONARY
  5
561
330
264
100
AcDbDictionary
280
     1
281
     1
  0
DICTIONARY
  5
56A
330
4CC
100
AcDbDictionary
280
     1
281
     1
  3
ACAD_MTEXT_2008_RT
360
56B
  0
DICTIONARY
  5
56C
330
510
100
AcDbDictionary
280
     1
281
     1
  3
ACAD_MTEXT_2008_RT
360
56D
  0
DICTIONARY
  5
56E
330
511
100
AcDbDictionary
280
     1
281
     1
  3
ACAD_MTEXT_2008_RT
360
56F
  0
DICTIONARY
  5
570
330
536
100
AcDbDictionary
280
     1
281
     1
  3
ACAD_MTEXT_2008_RT
360
571
  0
DICTIONARY
  5
572
330
539
100
AcDbDictionary
280
     1
281
     1
  3
ACAD_MTEXT_2008_RT
360
573
  0
DICTIONARY
  5
574
330
53A
100
AcDbDictionary
280
     1
281
     1
  3
ACAD_MTEXT_2008_RT
360
575
  0
DICTIONARY
  5
576
330
544
100
AcDbDictionary
280
     1
281
     1
  3
ACAD_MTEXT_2008_RT
360
577
  0
DICTIONARY
  5
578
330
545
100
AcDbDictionary
280
     1
281
     1
  3
ACAD_MTEXT_2008_RT
360
579
  0
DICTIONARY
  5
57A
330
546
100
AcDbDictionary
280
     1
281
     1
  3
ACAD_MTEXT_2008_RT
360
57B
  0
DICTIONARY
  5
57C
330
554
100
AcDbDictionary
280
     1
281
     1
  3
ACAD_MTEXT_2008_RT
360
57D
  0
DICTIONARY
  5
57E
330
555
100
AcDbDictionary
280
     1
281
     1
  3
ACAD_MTEXT_2008_RT
360
57F
  0
DICTIONARY
  5
580
330
556
100
AcDbDictionary
280
     1
281
     1
  3
ACAD_MTEXT_2008_RT
360
581
  0
DICTIONARY
  5
567
330
E6
100
AcDbDictionary
280
     1
281
     1
  3
ACAD_MTEXT_2008_RT
360
568
  0
DICTIONARY
  5
1F4
102
{ACAD_REACTORS
330
B
102
}
330
B
100
AcDbDictionary
281
     1
  0
DICTIONARY
  5
1E1
102
{ACAD_REACTORS
330
B
102
}
330
B
100
AcDbDictionary
281
     1
  0
DICTIONARY
  5
1C2
102
{ACAD_REACTORS
330
B
102
}
330
B
100
AcDbDictionary
281
     1
  3
Layout1
350
1C7
  3
Layout2
350
1CB
  3
Model
350
1C1
  0
DICTIONARY
  5
D
102
{ACAD_REACTORS
330
B
102
}
330
B
100
AcDbDictionary
281
     1
  3
ByBlock
350
1EC
  3
ByLayer
350
1E4
  3
Global
350
C
  0
DICTIONARY
  5
255
102
{ACAD_REACTORS
330
B
102
}
330
B
100
AcDbDictionary
281
     1
  3
Standard
350
256
  0
DICTIONARY
  5
1E2
102
{ACAD_REACTORS
330
B
102
}
330
B
100
AcDbDictionary
281
     1
  3
Standard
350
1F7
  0
DICTIONARY
  5
1E3
102
{ACAD_REACTORS
330
B
102
}
330
B
100
AcDbDictionary
281
     1
  0
ACDBDICTIONARYWDFLT
  5
A
102
{ACAD_REACTORS
330
B
102
}
330
B
100
AcDbDictionary
281
     1
  3
Normal
350
9
100
AcDbDictionaryWithDefault
340
9
  0
DICTIONARY
  5
1F5
102
{ACAD_REACTORS
330
B
102
}
330
B
100
AcDbDictionary
281
     1
  3
A0
350
1FC
  3
A1
350
1FD
  3
A2
350
1FE
  3
A3
350
1FF
  3
A4
350
200
  3
A5
350
201
  3
A6
350
202
  3
A7
350
203
  3
A8
350
204
  3
A9
350
205
  3
B0
350
206
  3
B1
350
207
  3
B2
350
208
  3
B3
350
209
  3
B4
350
20A
  3
B5
350
20B
  3
B6
350
20C
  3
B7
350
20D
  3
B8
350
20E
  3
B9
350
20F
  3
C0
350
210
  3
C1
350
211
  3
C2
350
212
  3
C3
350
213
  3
C4
350
214
  3
C5
350
215
  3
C6
350
216
  3
C7
350
217
  3
C8
350
218
  3
C9
350
219
  3
D0
350
21A
  3
D1
350
21B
  3
D2
350
21C
  0
DICTIONARY
  5
1F6
102
{ACAD_REACTORS
330
B
102
}
330
B
100
AcDbDictionary
281
     1
  3
Standard
350
1F8
  0
DICTIONARY
  5
1DB
102
{ACAD_REACTORS
330
B
102
}
330
B
100
AcDbDictionary
281
     1
  3
2dWireframe
350
1DA
  3
3D Hidden
350
24D
  3
3dWireframe
350
1FB
  3
Basic
350
24C
  3
Brighten
350
250
  3
ColorChange
350
254
  3
Conceptual
350
24E
  3
Dim
350
24F
  3
Facepattern
350
253
  3
Flat
350
248
  3
FlatWithEdges
350
249
  3
Gouraud
350
24A
  3
GouraudWithEdges
350
24B
  3
Linepattern
350
252
  3
Realistic
350
1FA
  3
Thicken
350
251
  0
XRECORD
  5
245
102
{ACAD_REACTORS
330
B
102
}
330
B
100
AcDbXrecord
280
     1
 90
        1
330
E6
330
1F8
330
4CC
330
510
330
511
330
536
330
539
330
53A
330
544
330
545
330
546
330
554
330
555
330
556
  0
DICTIONARY
  5
21E
102
{ACAD_REACTORS
330
B
102
}
330
B
100
AcDbDictionary
281
     1
  3
CANNOSCALE
350
221
  3
CMLEADERSTYLE
350
220
  3
CTABLESTYLE
350
21F
  3
DIMASSOC
350
357
  3
HIDETEXT
350
356
  3
INDEXCTL
350
355
  3
LIGHTINGUNITS
350
222
  3
MSLTSCALE
350
353
  3
SORTENTS
350
354
  0
DICTIONARY
  5
3D5
102
{ACAD_REACTORS
330
1CD
102
}
330
1CD
100
AcDbDictionary
281
     1
  0
DICTIONARY
  5
1CF
102
{ACAD_REACTORS
330
1CD
102
}
330
1CD
100
AcDbDictionary
281
     1
  0
DICTIONARY
  5
3D4
102
{ACAD_REACTORS
330
1CD
102
}
330
1CD
100
AcDbDictionary
281
     1
1001
ACAD
1000
<All
  0
XRECORD
  5
8
102
{ACAD_REACTORS
330
7
102
}
330
7
100
AcDbXrecord
280
     1
290
     1
  0
XRECORD
  5
19
102
{ACAD_REACTORS
330
18
102
}
330
18
100
AcDbXrecord
280
     1
290
     1
  0
XRECORD
  5
27
102
{ACAD_REACTORS
330
26
102
}
330
26
100
AcDbXrecord
280
     1
290
     1
  0
SORTENTSTABLE
  5
21D
102
{ACAD_REACTORS
330
3
102
}
330
3
100
AcDbSortentsTable
330
2
331
16C
  5
17F
331
D0
  5
D1
331
11A
  5
171
331
167
  5
17B
331
1A6
  5
1B9
331
1B6
  5
F1
331
1E
  5
1E
331
D8
  5
DC
331
177
  5
18A
331
17F
  5
192
331
1BE
  5
DD
331
E8
  5
F7
331
187
  5
19A
331
39E
  5
EF
331
2E
  5
2E
331
1A8
  5
1BB
331
E5
  5
F4
331
18F
  5
1A2
331
108
  5
11B
331
FD
  5
112
331
30A
  5
39D
331
197
  5
1AA
331
106
  5
119
331
110
  5
159
331
19F
  5
1B2
331
16D
  5
180
331
170
  5
183
331
1A7
  5
1BA
331
11B
  5
172
331
D1
  5
D2
331
178
  5
18B
331
1F
  5
1F
331
D9
  5
DE
331
E9
  5
FB
331
180
  5
193
331
1BF
  5
DB
331
39F
  5
D9
331
F1
  5
106
331
2F
  5
2F
331
16
  5
16
331
188
  5
19B
331
3A0
  5
D5
331
190
  5
1A3
331
1A9
  5
1BC
331
E6
  5
F6
331
198
  5
1AB
331
FE
  5
114
331
30B
  5
39E
331
109
  5
11C
331
107
  5
11A
331
111
  5
167
331
16E
  5
181
331
1A0
  5
1B3
331
D2
  5
D3
331
11C
  5
173
331
171
  5
184
331
1B0
  5
30B
331
1B8
  5
EB
331
20
  5
20
331
DA
  5
E0
331
179
  5
18C
331
181
  5
194
331
14C
  5
179
331
EA
  5
FC
331
189
  5
19C
331
3A1
  5
CE
331
30
  5
30
331
F2
  5
107
331
1AA
  5
1BD
331
191
  5
1A4
331
10A
  5
11D
331
30C
  5
39F
331
199
  5
1AC
331
112
  5
169
331
16F
  5
182
331
1A1
  5
1B4
331
172
  5
185
331
1B1
  5
30C
331
11D
  5
174
331
D3
  5
D4
331
DB
  5
E2
331
17A
  5
18D
331
1B9
  5
E9
331
21
  5
21
331
EB
  5
FD
331
182
  5
195
331
F3
  5
108
331
E0
  5
EC
331
18A
  5
19D
331
192
  5
1A5
331
1AB
  5
1BE
331
F8
  5
10D
331
19A
  5
1AD
331
30D
  5
3A0
331
10B
  5
11E
331
113
  5
16A
331
CC
  5
CC
331
131
  5
177
331
1A2
  5
1B5
331
1B2
  5
30D
331
D4
  5
D6
331
1A
  5
1A
331
11E
  5
175
331
173
  5
186
331
1BA
  5
E6
331
DC
  5
E4
331
22
  5
22
331
13E
  5
178
331
17B
  5
18E
331
183
  5
196
331
2A
  5
2A
331
F4
  5
109
331
E1
  5
EE
331
18B
  5
19E
331
1AC
  5
1BF
331
F9
  5
10E
331
193
  5
1A6
331
102
  5
115
331
10C
  5
11F
331
19B
  5
1AE
331
114
  5
16B
331
169
  5
17C
331
1A3
  5
1B6
331
CD
  5
CD
331
174
  5
187
331
1B3
  5
39B
331
11F
  5
176
331
1B
  5
1B
331
D5
  5
D7
331
17C
  5
18F
331
1BB
  5
E3
331
23
  5
23
331
39B
  5
3A1
331
184
  5
197
331
2B
  5
2B
331
F5
  5
10A
331
E2
  5
F0
331
18C
  5
19F
331
194
  5
1A7
331
FA
  5
10F
331
1AD
  5
309
331
10D
  5
131
331
19C
  5
1AF
331
103
  5
116
331
115
  5
16C
331
16A
  5
17D
331
CE
  5
CF
331
118
  5
16F
331
1A4
  5
1B7
331
1B4
  5
105
331
1C
  5
1C
331
D6
  5
D8
331
175
  5
188
331
1BC
  5
E1
331
24
  5
24
331
DE
  5
E8
331
17D
  5
190
331
185
  5
198
331
39C
  5
FA
331
2C
  5
2C
331
F6
  5
10B
331
E3
  5
F2
331
18D
  5
1A0
331
1AE
  5
30A
331
FB
  5
110
331
195
  5
1A8
331
104
  5
117
331
10E
  5
13E
331
19D
  5
1B0
331
116
  5
16D
331
16B
  5
17E
331
1A5
  5
1B8
331
CF
  5
D0
331
119
  5
170
331
176
  5
189
331
1B5
  5
102
331
1D
  5
1D
331
DF
  5
EA
331
17E
  5
191
331
1BD
  5
DF
331
39D
  5
F5
331
EF
  5
103
331
186
  5
199
331
2D
  5
2D
331
159
  5
17A
331
F7
  5
10C
331
E4
  5
F3
331
18E
  5
1A1
331
196
  5
1A9
331
FC
  5
111
331
309
  5
39C
331
1AF
  5
113
331
10F
  5
14C
331
19E
  5
1B1
331
105
  5
118
331
117
  5
16E
  0
XRECORD
  5
56B
102
{ACAD_REACTORS
330
56A
102
}
330
56A
100
AcDbXrecord
280
     1
 40
1527.0
  1
\pxqc;BQ LUO
  0
XRECORD
  5
56D
102
{ACAD_REACTORS
330
56C
102
}
330
56C
100
AcDbXrecord
280
     1
 40
3624820.0
  1
\pxqc;档案员{\H0.7x;\P\Fromans|c134;Filing Clerk\fFangSong_GB2312|b0|i0|c134|p49; }
  0
XRECORD
  5
56F
102
{ACAD_REACTORS
330
56E
102
}
330
56E
100
AcDbXrecord
280
     1
 40
2054623.0
  1
\pxqc;日期{\Fromans|c134;/Date}
  0
XRECORD
  5
571
102
{ACAD_REACTORS
330
570
102
}
330
570
100
AcDbXrecord
280
     1
 40
1836818.0
  1
\pxsm0.7;{\fFangSong_GB2312|b0|i0|c134|p49;标准化}\PStand.
  0
XRECORD
  5
573
102
{ACAD_REACTORS
330
572
102
}
330
572
100
AcDbXrecord
280
     1
 40
1476476.0
  1
\pxsm0.7;签名\P{\Fromans|c134;Signature} 
  0
XRECORD
  5
575
102
{ACAD_REACTORS
330
574
102
}
330
574
100
AcDbXrecord
280
     1
 40
1354713.0
  1
\pxsm0.7,qc;处数\P{\Fromans|c134;Number }
  0
XRECORD
  5
577
102
{ACAD_REACTORS
330
576
102
}
330
576
100
AcDbXrecord
280
     1
 40
1692934.0
  1
\pxsm0.7;标记\P{\Fromans|c134;Mark}
  0
XRECORD
  5
579
102
{ACAD_REACTORS
330
578
102
}
330
578
100
AcDbXrecord
280
     1
 40
1391581.0
  1
\pxsm0.7;审核\P{\Fromans|c134;Checked}
  0
XRECORD
  5
57B
102
{ACAD_REACTORS
330
57A
102
}
330
57A
100
AcDbXrecord
280
     1
 40
1546703.0
  1
\pxsm0.7;绘图\P{\Fromans|c134;Drawn\Ftxt|c134; }
  0
XRECORD
  5
57D
102
{ACAD_REACTORS
330
57C
102
}
330
57C
100
AcDbXrecord
280
     1
 40
1293614.0
  1
\pxsm0.7;批准\P{\Fromans|c134;Approved}
  0
XRECORD
  5
57F
102
{ACAD_REACTORS
330
57E
102
}
330
57E
100
AcDbXrecord
280
     1
 40
1583427.0
  1
\pxsm0.7;工艺\P{\Fromans|c134;Process}
  0
XRECORD
  5
581
102
{ACAD_REACTORS
330
580
102
}
330
580
100
AcDbXrecord
280
     1
 40
1435325.0
  1
\pxsm0.7;日期\P{\Fromans|c134;Date}
  0
XRECORD
  5
568
102
{ACAD_REACTORS
330
567
102
}
330
567
100
AcDbXrecord
280
     1
 40
324920092.0
  1
\A1;\pxql;{\f仿宋_GB2312|b0|i0|c134|p49;技术参数}:\P\pq*;- {\f仿宋_GB2312|b0|i0|c134|p49;材料}: {\f仿宋_GB2312|b0|i0|c134|p49;铜合金}\P- {\f仿宋_GB2312|b0|i0|c134|p49;表面处理}: {\f仿宋_GB2312|b0|i0|c134|p49;镀金}\P\pql;- {\f仿宋_GB2312|b0|i0|c134|p49;额定电流}: 5A\P- {\f仿宋_GB2312
  1
|b0|i0|c134|p49;接触电阻}: ≤3mΩ\P- {\f仿宋_GB2312|b0|i0|c134|p49;线径范围}: 0.33-0.52mm{\H0.7x;\S2^ ;}(22-20 AWG)\P\pq*;- {\f仿宋_GB2312|b0|i0|c134|p49;可插拔次数}: {\f仿宋_GB2312|b0|i0|c134|p49;≥}500\P\P\pql;Technical specification:\P- Material: copper alloy\P- Surface
  1
: hard-gold plated\P- Rated current: 5A\P- Contact resistance: ≤3mΩ\P- Wire gauge: 0.33-0.52mm{\H0.7x;\S2^ ;}(22-20 AWG)\P- Mating cycles: {\f仿宋_GB2312|b0|i0|c134|p49;≥}500
  0
LAYOUT
  5
1C7
102
{ACAD_REACTORS
330
1C2
102
}
330
1C2
100
AcDbPlotSettings
  1

  2
none_device
  4

  6

 40
0.0
 41
0.0
 42
0.0
 43
0.0
 44
0.0
 45
0.0
 46
0.0
 47
0.0
 48
0.0
 49
0.0
140
0.0
141
0.0
142
1.0
143
1.0
 70
   688
 72
     0
 73
     0
 74
     5
  7

 75
    16
147
1.0
 76
     0
 77
     2
 78
   300
148
0.0
149
0.0
100
AcDbLayout
  1
Layout1
 70
     1
 71
     1
 10
0.0
 20
0.0
 11
12.0
 21
9.0
 12
0.0
 22
0.0
 32
0.0
 14
1.000000000000000E+20
 24
1.000000000000000E+20
 34
1.000000000000000E+20
 15
-1.000000000000000E+20
 25
-1.000000000000000E+20
 35
-1.000000000000000E+20
146
0.0
 13
0.0
 23
0.0
 33
0.0
 16
1.0
 26
0.0
 36
0.0
 17
0.0
 27
1.0
 37
0.0
 76
     0
330
1C4
  0
LAYOUT
  5
1CB
102
{ACAD_REACTORS
330
1C2
102
}
330
1C2
100
AcDbPlotSettings
  1

  2
none_device
  4

  6

 40
0.0
 41
0.0
 42
0.0
 43
0.0
 44
0.0
 45
0.0
 46
0.0
 47
0.0
 48
0.0
 49
0.0
140
0.0
141
0.0
142
1.0
143
1.0
 70
   688
 72
     0
 73
     0
 74
     5
  7

 75
    16
147
1.0
 76
     0
 77
     2
 78
   300
148
0.0
149
0.0
100
AcDbLayout
  1
Layout2
 70
     1
 71
     2
 10
0.0
 20
0.0
 11
0.0
 21
0.0
 12
0.0
 22
0.0
 32
0.0
 14
0.0
 24
0.0
 34
0.0
 15
0.0
 25
0.0
 35
0.0
146
0.0
 13
0.0
 23
0.0
 33
0.0
 16
1.0
 26
0.0
 36
0.0
 17
0.0
 27
1.0
 37
0.0
 76
     0
330
1C8
  0
LAYOUT
  5
1C1
102
{ACAD_REACTORS
330
1C2
102
}
330
1C2
100
AcDbPlotSettings
  1

  2
Adobe PDF Converter.pc3
  4
A4
  6

 40
3.174999952316281
 41
3.174999952316281
 42
3.17498779296875
 43
3.175003051757812
 44
297.0318298339844
 45
209.9733276367186
 46
0.0000000000000076
 47
1.630241740247063
 48
246.9897427644609
 49
39.36804549891383
140
544.952097801264
141
244.7492402188181
142
1.0
143
1.025046328645055
 70
  3764
 72
     1
 73
     0
 74
     4
  7
monochrome.ctb
 75
     0
147
0.9755656618192436
 76
     1
 77
     2
 78
   300
148
-246.9897427644609
149
-39.36804549891383
100
AcDbLayout
  1
Model
 70
     1
 71
     0
 10
0.0
 20
0.0
 11
12.0
 21
9.0
 12
0.0
 22
0.0
 32
0.0
 14
1.000000000000000E+20
 24
1.000000000000000E+20
 34
1.000000000000000E+20
 15
-1.000000000000000E+20
 25
-1.000000000000000E+20
 35
-1.000000000000000E+20
146
0.0
 13
0.0
 23
0.0
 33
0.0
 16
1.0
 26
0.0
 36
0.0
 17
0.0
 27
1.0
 37
0.0
 76
     0
330
2
331
1D9
1001
ACAD_PSEXT
1000
Adobe PDF Converter.pc3
1000
Adobe PDF Converter
1000
桌面\*.pdf
1000

1070
     0
  0
MATERIAL
  5
1EC
102
{ACAD_XDICTIONARY
360
1ED
102
}
102
{ACAD_REACTORS
330
D
102
}
330
D
100
AcDbMaterial
  1
ByBlock
 72
     0
 43
0.0208333333333333
 43
0.0
 43
0.0
 43
0.0
 43
0.0
 43
0.0208333333333333
 43
0.0
 43
0.0
 43
0.0
 43
0.0
 43
1.0
 43
0.0
 43
0.0
 43
0.0
 43
0.0
 43
1.0
 77
     0
 47
0.0208333333333333
 47
0.0
 47
0.0
 47
0.0
 47
0.0
 47
0.0208333333333333
 47
0.0
 47
0.0
 47
0.0
 47
0.0
 47
1.0
 47
0.0
 47
0.0
 47
0.0
 47
0.0
 47
1.0
171
     0
 49
0.0208333333333333
 49
0.0
 49
0.0
 49
0.0
 49
0.0
 49
0.0208333333333333
 49
0.0
 49
0.0
 49
0.0
 49
0.0
 49
1.0
 49
0.0
 49
0.0
 49
0.0
 49
0.0
 49
1.0
175
     0
142
0.0208333333333333
142
0.0
142
0.0
142
0.0
142
0.0
142
0.0208333333333333
142
0.0
142
0.0
142
0.0
142
0.0
142
1.0
142
0.0
142
0.0
142
0.0
142
0.0
142
1.0
179
     0
144
0.0208333333333333
144
0.0
144
0.0
144
0.0
144
0.0
144
0.0208333333333333
144
0.0
144
0.0
144
0.0
144
0.0
144
1.0
144
0.0
144
0.0
144
0.0
144
0.0
144
1.0
147
0.0208333333333333
147
0.0
147
0.0
147
0.0
147
0.0
147
0.0208333333333333
147
0.0
147
0.0
147
0.0
147
0.0
147
1.0
147
0.0
147
0.0
147
0.0
147
0.0
147
1.0
  0
MATERIAL
  5
1E4
102
{ACAD_XDICTIONARY
360
1E5
102
}
102
{ACAD_REACTORS
330
D
102
}
330
D
100
AcDbMaterial
  1
ByLayer
 72
     0
 43
0.0208333333333333
 43
0.0
 43
0.0
 43
0.0
 43
0.0
 43
0.0208333333333333
 43
0.0
 43
0.0
 43
0.0
 43
0.0
 43
1.0
 43
0.0
 43
0.0
 43
0.0
 43
0.0
 43
1.0
 77
     0
 47
0.0208333333333333
 47
0.0
 47
0.0
 47
0.0
 47
0.0
 47
0.0208333333333333
 47
0.0
 47
0.0
 47
0.0
 47
0.0
 47
1.0
 47
0.0
 47
0.0
 47
0.0
 47
0.0
 47
1.0
171
     0
 49
0.0208333333333333
 49
0.0
 49
0.0
 49
0.0
 49
0.0
 49
0.0208333333333333
 49
0.0
 49
0.0
 49
0.0
 49
0.0
 49
1.0
 49
0.0
 49
0.0
 49
0.0
 49
0.0
 49
1.0
175
     0
142
0.0208333333333333
142
0.0
142
0.0
142
0.0
142
0.0
142
0.0208333333333333
142
0.0
142
0.0
142
0.0
142
0.0
142
1.0
142
0.0
142
0.0
142
0.0
142
0.0
142
1.0
179
     0
144
0.0208333333333333
144
0.0
144
0.0
144
0.0
144
0.0
144
0.0208333333333333
144
0.0
144
0.0
144
0.0
144
0.0
144
1.0
144
0.0
144
0.0
144
0.0
144
0.0
144
1.0
147
0.0208333333333333
147
0.0
147
0.0
147
0.0
147
0.0
147
0.0208333333333333
147
0.0
147
0.0
147
0.0
147
0.0
147
1.0
147
0.0
147
0.0
147
0.0
147
0.0
147
1.0
  0
MATERIAL
  5
C
102
{ACAD_XDICTIONARY
360
E
102
}
102
{ACAD_REACTORS
330
D
102
}
330
D
100
AcDbMaterial
  1
Global
 72
     0
 43
0.0208333333333333
 43
0.0
 43
0.0
 43
0.0
 43
0.0
 43
0.0208333333333333
 43
0.0
 43
0.0
 43
0.0
 43
0.0
 43
1.0
 43
0.0
 43
0.0
 43
0.0
 43
0.0
 43
1.0
 77
     0
 47
0.0208333333333333
 47
0.0
 47
0.0
 47
0.0
 47
0.0
 47
0.0208333333333333
 47
0.0
 47
0.0
 47
0.0
 47
0.0
 47
1.0
 47
0.0
 47
0.0
 47
0.0
 47
0.0
 47
1.0
171
     0
 49
0.0208333333333333
 49
0.0
 49
0.0
 49
0.0
 49
0.0
 49
0.0208333333333333
 49
0.0
 49
0.0
 49
0.0
 49
0.0
 49
1.0
 49
0.0
 49
0.0
 49
0.0
 49
0.0
 49
1.0
175
     0
142
0.0208333333333333
142
0.0
142
0.0
142
0.0
142
0.0
142
0.0208333333333333
142
0.0
142
0.0
142
0.0
142
0.0
142
1.0
142
0.0
142
0.0
142
0.0
142
0.0
142
1.0
179
     0
144
0.0208333333333333
144
0.0
144
0.0
144
0.0
144
0.0
144
0.0208333333333333
144
0.0
144
0.0
144
0.0
144
0.0
144
1.0
144
0.0
144
0.0
144
0.0
144
0.0
144
1.0
147
0.0208333333333333
147
0.0
147
0.0
147
0.0
147
0.0
147
0.0208333333333333
147
0.0
147
0.0
147
0.0
147
0.0
147
1.0
147
0.0
147
0.0
147
0.0
147
0.0
147
1.0
  0
MLEADERSTYLE
  5
256
102
{ACAD_REACTORS
330
255
102
}
330
255
100
AcDbMLeaderStyle
170
     2
171
     1
172
     0
 90
        2
 40
0.0
 41
0.0
173
     1
 91
-1056964608
340
1D4
 92
       -2
290
     1
 42
0.09
291
     1
 43
0.36
  3
Standard
 44
0.18
300

342
48
174
     1
178
     6
175
     1
176
     0
 93
-1056964608
 45
0.18
292
     0
297
     0
 46
0.18
 94
-1056964608
 47
1.0
 49
1.0
140
1.0
293
     1
141
0.0
294
     1
177
     0
142
1.0
295
     0
296
     0
143
0.125
1001
ACAD_MLEADERVER
1070
     2
  0
MLINESTYLE
  5
1F7
102
{ACAD_REACTORS
330
1E2
102
}
330
1E2
100
AcDbMlineStyle
  2
STANDARD
 70
     0
  3

 62
   256
 51
90.0
 52
90.0
 71
     2
 49
0.5
 62
   256
  6
BYLAYER
 49
-0.5
 62
   256
  6
BYLAYER
  0
ACDBPLACEHOLDER
  5
9
102
{ACAD_REACTORS
330
A
102
}
330
A
  0
SCALE
  5
1FC
102
{ACAD_REACTORS
330
1F5
102
}
330
1F5
100
AcDbScale
 70
     0
300
1:1
140
1.0
141
1.0
290
     1
  0
SCALE
  5
1FD
102
{ACAD_REACTORS
330
1F5
102
}
330
1F5
100
AcDbScale
 70
     0
300
1:2
140
1.0
141
2.0
290
     0
  0
SCALE
  5
1FE
102
{ACAD_REACTORS
330
1F5
102
}
330
1F5
100
AcDbScale
 70
     0
300
1:4
140
1.0
141
4.0
290
     0
  0
SCALE
  5
1FF
102
{ACAD_REACTORS
330
1F5
102
}
330
1F5
100
AcDbScale
 70
     0
300
1:5
140
1.0
141
5.0
290
     0
  0
SCALE
  5
200
102
{ACAD_REACTORS
330
1F5
102
}
330
1F5
100
AcDbScale
 70
     0
300
1:8
140
1.0
141
8.0
290
     0
  0
SCALE
  5
201
102
{ACAD_REACTORS
330
1F5
102
}
330
1F5
100
AcDbScale
 70
     0
300
1:10
140
1.0
141
10.0
290
     0
  0
SCALE
  5
202
102
{ACAD_REACTORS
330
1F5
102
}
330
1F5
100
AcDbScale
 70
     0
300
1:16
140
1.0
141
16.0
290
     0
  0
SCALE
  5
203
102
{ACAD_REACTORS
330
1F5
102
}
330
1F5
100
AcDbScale
 70
     0
300
1:20
140
1.0
141
20.0
290
     0
  0
SCALE
  5
204
102
{ACAD_REACTORS
330
1F5
102
}
330
1F5
100
AcDbScale
 70
     0
300
1:30
140
1.0
141
30.0
290
     0
  0
SCALE
  5
205
102
{ACAD_REACTORS
330
1F5
102
}
330
1F5
100
AcDbScale
 70
     0
300
1:40
140
1.0
141
40.0
290
     0
  0
SCALE
  5
206
102
{ACAD_REACTORS
330
1F5
102
}
330
1F5
100
AcDbScale
 70
     0
300
1:50
140
1.0
141
50.0
290
     0
  0
SCALE
  5
207
102
{ACAD_REACTORS
330
1F5
102
}
330
1F5
100
AcDbScale
 70
     0
300
1:100
140
1.0
141
100.0
290
     0
  0
SCALE
  5
208
102
{ACAD_REACTORS
330
1F5
102
}
330
1F5
100
AcDbScale
 70
     0
300
2:1
140
2.0
141
1.0
290
     0
  0
SCALE
  5
209
102
{ACAD_REACTORS
330
1F5
102
}
330
1F5
100
AcDbScale
 70
     0
300
4:1
140
4.0
141
1.0
290
     0
  0
SCALE
  5
20A
102
{ACAD_REACTORS
330
1F5
102
}
330
1F5
100
AcDbScale
 70
     0
300
8:1
140
8.0
141
1.0
290
     0
  0
SCALE
  5
20B
102
{ACAD_REACTORS
330
1F5
102
}
330
1F5
100
AcDbScale
 70
     0
300
10:1
140
10.0
141
1.0
290
     0
  0
SCALE
  5
20C
102
{ACAD_REACTORS
330
1F5
102
}
330
1F5
100
AcDbScale
 70
     0
300
100:1
140
100.0
141
1.0
290
     0
  0
SCALE
  5
20D
102
{ACAD_REACTORS
330
1F5
102
}
330
1F5
100
AcDbScale
 70
     0
300
1/128" = 1'-0"
140
0.0078125
141
12.0
290
     0
  0
SCALE
  5
20E
102
{ACAD_REACTORS
330
1F5
102
}
330
1F5
100
AcDbScale
 70
     0
300
1/64" = 1'-0"
140
0.015625
141
12.0
290
     0
  0
SCALE
  5
20F
102
{ACAD_REACTORS
330
1F5
102
}
330
1F5
100
AcDbScale
 70
     0
300
1/32" = 1'-0"
140
0.03125
141
12.0
290
     0
  0
SCALE
  5
210
102
{ACAD_REACTORS
330
1F5
102
}
330
1F5
100
AcDbScale
 70
     0
300
1/16" = 1'-0"
140
0.0625
141
12.0
290
     0
  0
SCALE
  5
211
102
{ACAD_REACTORS
330
1F5
102
}
330
1F5
100
AcDbScale
 70
     0
300
3/32" = 1'-0"
140
0.09375
141
12.0
290
     0
  0
SCALE
  5
212
102
{ACAD_REACTORS
330
1F5
102
}
330
1F5
100
AcDbScale
 70
     0
300
1/8" = 1'-0"
140
0.125
141
12.0
290
     0
  0
SCALE
  5
213
102
{ACAD_REACTORS
330
1F5
102
}
330
1F5
100
AcDbScale
 70
     0
300
3/16" = 1'-0"
140
0.1875
141
12.0
290
     0
  0
SCALE
  5
214
102
{ACAD_REACTORS
330
1F5
102
}
330
1F5
100
AcDbScale
 70
     0
300
1/4" = 1'-0"
140
0.25
141
12.0
290
     0
  0
SCALE
  5
215
102
{ACAD_REACTORS
330
1F5
102
}
330
1F5
100
AcDbScale
 70
     0
300
3/8" = 1'-0"
140
0.375
141
12.0
290
     0
  0
SCALE
  5
216
102
{ACAD_REACTORS
330
1F5
102
}
330
1F5
100
AcDbScale
 70
     0
300
1/2" = 1'-0"
140
0.5
141
12.0
290
     0
  0
SCALE
  5
217
102
{ACAD_REACTORS
330
1F5
102
}
330
1F5
100
AcDbScale
 70
     0
300
3/4" = 1'-0"
140
0.75
141
12.0
290
     0
  0
SCALE
  5
218
102
{ACAD_REACTORS
330
1F5
102
}
330
1F5
100
AcDbScale
 70
     0
300
1" = 1'-0"
140
1.0
141
12.0
290
     0
  0
SCALE
  5
219
102
{ACAD_REACTORS
330
1F5
102
}
330
1F5
100
AcDbScale
 70
     0
300
1-1/2" = 1'-0"
140
1.5
141
12.0
290
     0
  0
SCALE
  5
21A
102
{ACAD_REACTORS
330
1F5
102
}
330
1F5
100
AcDbScale
 70
     0
300
3" = 1'-0"
140
3.0
141
12.0
290
     0
  0
SCALE
  5
21B
102
{ACAD_REACTORS
330
1F5
102
}
330
1F5
100
AcDbScale
 70
     0
300
6" = 1'-0"
140
6.0
141
12.0
290
     0
  0
SCALE
  5
21C
102
{ACAD_REACTORS
330
1F5
102
}
330
1F5
100
AcDbScale
 70
     0
300
1'-0" = 1'-0"
140
12.0
141
12.0
290
     0
  0
TABLESTYLE
  5
1F8
102
{ACAD_XDICTIONARY
360
1F9
102
}
102
{ACAD_REACTORS
330
1F6
102
}
330
1F6
100
AcDbTableStyle
  3
Standard
 70
     0
 71
     0
 40
0.06
 41
0.06
280
     0
281
     0
  7
Standard
140
0.18
170
     2
 62
     0
 63
     7
283
     0
 90
      512
 91
        0
  1

274
    -2
284
     1
 64
     0
275
    -2
285
     1
 65
     0
276
    -2
286
     1
 66
     0
277
    -2
287
     1
 67
     0
278
    -2
288
     1
 68
     0
279
    -2
289
     1
 69
     0
  7
Standard
140
0.25
170
     5
 62
     0
 63
     7
283
     0
 90
      512
 91
        0
  1

274
    -2
284
     1
 64
     0
275
    -2
285
     1
 65
     0
276
    -2
286
     1
 66
     0
277
    -2
287
     1
 67
     0
278
    -2
288
     1
 68
     0
279
    -2
289
     1
 69
     0
  7
Standard
140
0.18
170
     5
 62
     0
 63
     7
283
     0
 90
      512
 91
        0
  1

274
    -2
284
     1
 64
     0
275
    -2
285
     1
 65
     0
276
    -2
286
     1
 66
     0
277
    -2
287
     1
 67
     0
278
    -2
288
     1
 68
     0
279
    -2
289
     1
 69
     0
  0
VISUALSTYLE
  5
1DA
102
{ACAD_REACTORS
330
1DB
102
}
330
1DB
100
AcDbVisualStyle
  2
2dWireframe
 70
     4
 71
     0
 72
     2
 73
     0
 90
        0
 40
-0.6
 41
-30.0
 62
     5
 63
     7
 74
     1
 91
        4
 64
     7
 65
   257
 75
     1
175
     1
 42
1.0
 92
        0
 66
   257
 43
1.0
 76
     1
 77
     6
 78
     2
 67
     7
 79
     5
170
     0
171
     0
290
     0
174
     0
 93
        1
 44
0.0
173
     0
291
     0
 45
0.0
1001
ACAD
1000
AcDbSavedByObjectVersion
1070
     0
1000
AcDbSavedByObjectVersion
1070
     0
1000
AcDbSavedByObjectVersion
1070
     0
1000
AcDbSavedByObjectVersion
1070
     0
1000
AcDbSavedByObjectVersion
1070
     0
1000
AcDbSavedByObjectVersion
1070
     0
1000
AcDbSavedByObjectVersion
1070
     0
1000
AcDbSavedByObjectVersion
1070
     0
1000
AcDbSavedByObjectVersion
1070
     0
1000
AcDbSavedByObjectVersion
1070
     0
1000
AcDbSavedByObjectVersion
1070
     0
1000
AcDbSavedByObjectVersion
1070
     0
1000
AcDbSavedByObjectVersion
1070
     0
1000
AcDbSavedByObjectVersion
1070
     0
1000
AcDbSavedByObjectVersion
1070
     0
1000
AcDbSavedByObjectVersion
1070
     0
1000
AcDbSavedByObjectVersion
1070
     0
1000
AcDbSavedByObjectVersion
1070
     0
1000
AcDbSavedByObjectVersion
1070
     0
1000
AcDbSavedByObjectVersion
1070
     0
1000
AcDbSavedByObjectVersion
1070
     0
1000
AcDbSavedByObjectVersion
1070
     0
1000
AcDbSavedByObjectVersion
1070
     0
1000
AcDbSavedByObjectVersion
1070
     0
1000
AcDbSavedByObjectVersion
1070
     0
1000
AcDbSavedByObjectVersion
1070
     0
1000
AcDbSavedByObjectVersion
1070
     0
1000
AcDbSavedByObjectVersion
1070
     0
1000
AcDbSavedByObjectVersion
1070
     0
1000
AcDbSavedByObjectVersion
1070
     0
1000
AcDbSavedByObjectVersion
1070
     0
1000
AcDbSavedByObjectVersion
1070
     0
1000
AcDbSavedByObjectVersion
1070
     0
1000
AcDbSavedByObjectVersion
1070
     0
1000
AcDbSavedByObjectVersion
1070
     0
  0
VISUALSTYLE
  5
24D
102
{ACAD_REACTORS
330
1DB
102
}
330
1DB
100
AcDbVisualStyle
  2
3D Hidden
 70
     6
 71
     1
 72
     2
 73
     2
 90
        0
 40
-0.6
 41
-30.0
 62
     5
 63
     7
 74
     2
 91
        2
 64
     7
 65
   257
 75
     2
175
     1
 42
40.0
 92
        0
 66
   257
 43
1.0
 76
     1
 77
     6
 78
     2
 67
     7
 79
     3
170
     0
171
     0
290
     0
174
     0
 93
        1
 44
0.0
173
     0
291
     0
 45
0.0
1001
ACAD
1000
AcDbSavedByObjectVersion
1070
     0
1000
AcDbSavedByObjectVersion
1070
     0
  0
VISUALSTYLE
  5
1FB
102
{ACAD_REACTORS
330
1DB
102
}
330
1DB
100
AcDbVisualStyle
  2
3dWireframe
 70
     5
 71
     0
 72
     2
 73
     0
 90
        0
 40
-0.6
 41
-30.0
 62
     5
 63
     7
 74
     1
 91
        4
 64
     7
 65
   257
 75
     1
175
     1
 42
1.0
 92
        0
 66
   257
 43
1.0
 76
     1
 77
     6
 78
     2
 67
     7
 79
     5
170
     0
171
     0
290
     0
174
     0
 93
        1
 44
0.0
173
     0
291
     0
 45
0.0
1001
ACAD
1000
AcDbSavedByObjectVersion
1070
     0
1000
AcDbSavedByObjectVersion
1070
     0
1000
AcDbSavedByObjectVersion
1070
     0
1000
AcDbSavedByObjectVersion
1070
     0
1000
AcDbSavedByObjectVersion
1070
     0
1000
AcDbSavedByObjectVersion
1070
     0
1000
AcDbSavedByObjectVersion
1070
     0
1000
AcDbSavedByObjectVersion
1070
     0
1000
AcDbSavedByObjectVersion
1070
     0
1000
AcDbSavedByObjectVersion
1070
     0
1000
AcDbSavedByObjectVersion
1070
     0
1000
AcDbSavedByObjectVersion
1070
     0
1000
AcDbSavedByObjectVersion
1070
     0
1000
AcDbSavedByObjectVersion
1070
     0
1000
AcDbSavedByObjectVersion
1070
     0
1000
AcDbSavedByObjectVersion
1070
     0
1000
AcDbSavedByObjectVersion
1070
     0
1000
AcDbSavedByObjectVersion
1070
     0
1000
AcDbSavedByObjectVersion
1070
     0
1000
AcDbSavedByObjectVersion
1070
     0
1000
AcDbSavedByObjectVersion
1070
     0
1000
AcDbSavedByObjectVersion
1070
     0
1000
AcDbSavedByObjectVersion
1070
     0
1000
AcDbSavedByObjectVersion
1070
     0
1000
AcDbSavedByObjectVersion
1070
     0
1000
AcDbSavedByObjectVersion
1070
     0
1000
AcDbSavedByObjectVersion
1070
     0
1000
AcDbSavedByObjectVersion
1070
     0
1000
AcDbSavedByObjectVersion
1070
     0
1000
AcDbSavedByObjectVersion
1070
     0
1000
AcDbSavedByObjectVersion
1070
     0
1000
AcDbSavedByObjectVersion
1070
     0
1000
AcDbSavedByObjectVersion
1070
     0
1000
AcDbSavedByObjectVersion
1070
     0
1000
AcDbSavedByObjectVersion
1070
     0
  0
VISUALSTYLE
  5
24C
102
{ACAD_REACTORS
330
1DB
102
}
330
1DB
100
AcDbVisualStyle
  2
Basic
 70
     7
 71
     1
 72
     0
 73
     1
 90
        0
 40
-0.6
 41
-30.0
 62
     5
 63
     7
 74
     0
 91
        4
 64
     7
 65
   257
 75
     1
175
     1
 42
1.0
 92
        8
 66
     7
 43
1.0
 76
     1
 77
     6
 78
     2
 67
     7
 79
     5
170
     0
171
     0
290
     0
174
     0
 93
        1
 44
0.0
173
     0
291
     1
 45
0.0
1001
ACAD
1000
AcDbSavedByObjectVersion
1070
     0
1000
AcDbSavedByObjectVersion
1070
     0
  0
VISUALSTYLE
  5
250
102
{ACAD_REACTORS
330
1DB
102
}
330
1DB
100
AcDbVisualStyle
  2
Brighten
 70
    12
 71
     2
 72
     2
 73
     0
 90
        0
 40
-0.6
 41
-30.0
 62
     5
 63
     7
 74
     1
 91
        4
 64
     7
 65
   257
 75
     1
175
     1
 42
1.0
 92
        8
 66
     7
 43
1.0
 76
     1
 77
     6
 78
     2
 67
     7
 79
     5
170
     0
171
     0
290
     0
174
     0
 93
        1
 44
50.0
173
     0
291
     1
 45
0.0
1001
ACAD
1000
AcDbSavedByObjectVersion
1070
     0
1000
AcDbSavedByObjectVersion
1070
     0
  0
VISUALSTYLE
  5
254
102
{ACAD_REACTORS
330
1DB
102
}
330
1DB
100
AcDbVisualStyle
  2
ColorChange
 70
    16
 71
     2
 72
     2
 73
     3
 90
        0
 40
-0.6
 41
-30.0
 62
     5
 63
     8
 74
     1
 91
        4
 64
     7
 65
   257
 75
     1
175
     1
 42
1.0
 92
        8
 66
     8
 43
1.0
 76
     1
 77
     6
 78
     2
 67
     7
 79
     5
170
     0
171
     0
290
     0
174
     0
 93
        1
 44
0.0
173
     0
291
     1
 45
0.0
1001
ACAD
1000
AcDbSavedByObjectVersion
1070
     0
1000
AcDbSavedByObjectVersion
1070
     0
  0
VISUALSTYLE
  5
24E
102
{ACAD_REACTORS
330
1DB
102
}
330
1DB
100
AcDbVisualStyle
  2
Conceptual
 70
     9
 71
     3
 72
     2
 73
     0
 90
        0
 40
-0.6
 41
-30.0
 62
     5
 63
     7
 74
     2
 91
        2
 64
     7
 65
   257
 75
     1
175
     1
 42
40.0
 92
        8
 66
     7
 43
1.0
 76
     1
 77
     6
 78
     2
 67
     7
 79
     3
170
     0
171
     0
290
     0
174
     0
 93
        1
 44
0.0
173
     0
291
     0
 45
0.0
1001
ACAD
1000
AcDbSavedByObjectVersion
1070
     0
1000
AcDbSavedByObjectVersion
1070
     0
  0
VISUALSTYLE
  5
24F
102
{ACAD_REACTORS
330
1DB
102
}
330
1DB
100
AcDbVisualStyle
  2
Dim
 70
    11
 71
     2
 72
     2
 73
     0
 90
        0
 40
-0.6
 41
-30.0
 62
     5
 63
     7
 74
     1
 91
        4
 64
     7
 65
   257
 75
     1
175
     1
 42
1.0
 92
        8
 66
     7
 43
1.0
 76
     1
 77
     6
 78
     2
 67
     7
 79
     5
170
     0
171
     0
290
     0
174
     0
 93
        1
 44
-50.0
173
     0
291
     1
 45
0.0
1001
ACAD
1000
AcDbSavedByObjectVersion
1070
     0
1000
AcDbSavedByObjectVersion
1070
     0
  0
VISUALSTYLE
  5
253
102
{ACAD_REACTORS
330
1DB
102
}
330
1DB
100
AcDbVisualStyle
  2
Facepattern
 70
    15
 71
     2
 72
     2
 73
     0
 90
        0
 40
-0.6
 41
-30.0
 62
     5
 63
     7
 74
     1
 91
        4
 64
     7
 65
   257
 75
     1
175
     1
 42
1.0
 92
        8
 66
     7
 43
1.0
 76
     1
 77
     6
 78
     2
 67
     7
 79
     5
170
     0
171
     0
290
     0
174
     0
 93
        1
 44
0.0
173
     0
291
     1
 45
0.0
1001
ACAD
1000
AcDbSavedByObjectVersion
1070
     0
1000
AcDbSavedByObjectVersion
1070
     0
  0
VISUALSTYLE
  5
248
102
{ACAD_REACTORS
330
1DB
102
}
330
1DB
100
AcDbVisualStyle
  2
Flat
 70
     0
 71
     2
 72
     1
 73
     1
 90
        2
 40
-0.6
 41
30.0
 62
     5
 63
     7
 74
     0
 91
        4
 64
     7
 65
   257
 75
     1
175
     1
 42
1.0
 92
        8
 66
     7
 43
1.0
 76
     1
 77
     6
 78
     2
 67
     7
 79
     5
170
     0
171
     0
290
     0
174
     0
 93
       13
 44
0.0
173
     0
291
     1
 45
0.0
1001
ACAD
1000
AcDbSavedByObjectVersion
1070
     0
1000
AcDbSavedByObjectVersion
1070
     0
  0
VISUALSTYLE
  5
249
102
{ACAD_REACTORS
330
1DB
102
}
330
1DB
100
AcDbVisualStyle
  2
FlatWithEdges
 70
     1
 71
     2
 72
     1
 73
     1
 90
        2
 40
-0.6
 41
30.0
 62
     5
 63
     7
 74
     1
 91
        4
 64
     7
 65
   257
 75
     1
175
     1
 42
1.0
 92
        0
 66
   257
 43
1.0
 76
     1
 77
     6
 78
     2
 67
     7
 79
     5
170
     0
171
     0
290
     0
174
     0
 93
       13
 44
0.0
173
     0
291
     1
 45
0.0
1001
ACAD
1000
AcDbSavedByObjectVersion
1070
     0
1000
AcDbSavedByObjectVersion
1070
     0
  0
VISUALSTYLE
  5
24A
102
{ACAD_REACTORS
330
1DB
102
}
330
1DB
100
AcDbVisualStyle
  2
Gouraud
 70
     2
 71
     2
 72
     2
 73
     1
 90
        2
 40
-0.6
 41
30.0
 62
     5
 63
     7
 74
     0
 91
        4
 64
     7
 65
   257
 75
     1
175
     1
 42
1.0
 92
        0
 66
     7
 43
1.0
 76
     1
 77
     6
 78
     2
 67
     7
 79
     5
170
     0
171
     0
290
     0
174
     0
 93
       13
 44
0.0
173
     0
291
     1
 45
0.0
1001
ACAD
1000
AcDbSavedByObjectVersion
1070
     0
1000
AcDbSavedByObjectVersion
1070
     0
  0
VISUALSTYLE
  5
24B
102
{ACAD_REACTORS
330
1DB
102
}
330
1DB
100
AcDbVisualStyle
  2
GouraudWithEdges
 70
     3
 71
     2
 72
     2
 73
     1
 90
        2
 40
-0.6
 41
30.0
 62
     5
 63
     7
 74
     1
 91
        4
 64
     7
 65
   257
 75
     1
175
     1
 42
1.0
 92
        0
 66
   257
 43
1.0
 76
     1
 77
     6
 78
     2
 67
     7
 79
     5
170
     0
171
     0
290
     0
174
     0
 93
       13
 44
0.0
173
     0
291
     1
 45
0.0
1001
ACAD
1000
AcDbSavedByObjectVersion
1070
     0
1000
AcDbSavedByObjectVersion
1070
     0
  0
VISUALSTYLE
  5
252
102
{ACAD_REACTORS
330
1DB
102
}
330
1DB
100
AcDbVisualStyle
  2
Linepattern
 70
    14
 71
     2
 72
     2
 73
     0
 90
        0
 40
-0.6
 41
-30.0
 62
     5
 63
     7
 74
     1
 91
        4
 64
     7
 65
   257
 75
     7
175
     7
 42
1.0
 92
        8
 66
     7
 43
1.0
 76
     1
 77
     6
 78
     2
 67
     7
 79
     5
170
     0
171
     0
290
     0
174
     0
 93
        1
 44
0.0
173
     0
291
     1
 45
0.0
1001
ACAD
1000
AcDbSavedByObjectVersion
1070
     0
1000
AcDbSavedByObjectVersion
1070
     0
  0
VISUALSTYLE
  5
1FA
102
{ACAD_REACTORS
330
1DB
102
}
330
1DB
100
AcDbVisualStyle
  2
Realistic
 70
     8
 71
     2
 72
     2
 73
     0
 90
        0
 40
-0.6
 41
-30.0
 62
     5
 63
     7
 74
     1
 91
        0
 64
     7
 65
   257
 75
     1
175
     1
 42
1.0
 92
        8
 66
     8
 43
1.0
 76
     1
 77
     6
 78
     2
 67
     7
 79
     5
170
     0
171
     0
290
     0
174
     0
 93
       13
 44
0.0
173
     0
291
     0
 45
0.0
1001
ACAD
1000
AcDbSavedByObjectVersion
1070
     0
1000
AcDbSavedByObjectVersion
1070
     0
1000
AcDbSavedByObjectVersion
1070
     0
1000
AcDbSavedByObjectVersion
1070
     0
1000
AcDbSavedByObjectVersion
1070
     0
1000
AcDbSavedByObjectVersion
1070
     0
1000
AcDbSavedByObjectVersion
1070
     0
1000
AcDbSavedByObjectVersion
1070
     0
1000
AcDbSavedByObjectVersion
1070
     0
1000
AcDbSavedByObjectVersion
1070
     0
1000
AcDbSavedByObjectVersion
1070
     0
1000
AcDbSavedByObjectVersion
1070
     0
1000
AcDbSavedByObjectVersion
1070
     0
1000
AcDbSavedByObjectVersion
1070
     0
1000
AcDbSavedByObjectVersion
1070
     0
1000
AcDbSavedByObjectVersion
1070
     0
1000
AcDbSavedByObjectVersion
1070
     0
1000
AcDbSavedByObjectVersion
1070
     0
1000
AcDbSavedByObjectVersion
1070
     0
1000
AcDbSavedByObjectVersion
1070
     0
1000
AcDbSavedByObjectVersion
1070
     0
1000
AcDbSavedByObjectVersion
1070
     0
1000
AcDbSavedByObjectVersion
1070
     0
1000
AcDbSavedByObjectVersion
1070
     0
1000
AcDbSavedByObjectVersion
1070
     0
1000
AcDbSavedByObjectVersion
1070
     0
1000
AcDbSavedByObjectVersion
1070
     0
1000
AcDbSavedByObjectVersion
1070
     0
1000
AcDbSavedByObjectVersion
1070
     0
1000
AcDbSavedByObjectVersion
1070
     0
1000
AcDbSavedByObjectVersion
1070
     0
1000
AcDbSavedByObjectVersion
1070
     0
1000
AcDbSavedByObjectVersion
1070
     0
1000
AcDbSavedByObjectVersion
1070
     0
1000
AcDbSavedByObjectVersion
1070
     0
  0
VISUALSTYLE
  5
251
102
{ACAD_REACTORS
330
1DB
102
}
330
1DB
100
AcDbVisualStyle
  2
Thicken
 70
    13
 71
     2
 72
     2
 73
     0
 90
        0
 40
-0.6
 41
-30.0
 62
     5
 63
     7
 74
     1
 91
        4
 64
     7
 65
   257
 75
     1
175
     1
 42
1.0
 92
       12
 66
     7
 43
1.0
 76
     1
 77
     6
 78
     2
 67
     7
 79
     5
170
     0
171
     0
290
     0
174
     0
 93
        1
 44
0.0
173
     0
291
     1
 45
0.0
1001
ACAD
1000
AcDbSavedByObjectVersion
1070
     0
1000
AcDbSavedByObjectVersion
1070
     0
  0
DICTIONARYVAR
  5
221
102
{ACAD_REACTORS
330
21E
102
}
330
21E
100
DictionaryVariables
280
     0
  1
1:1
  0
DICTIONARYVAR
  5
220
102
{ACAD_REACTORS
330
21E
102
}
330
21E
100
DictionaryVariables
280
     0
  1
STANDARD
  0
DICTIONARYVAR
  5
21F
102
{ACAD_REACTORS
330
21E
102
}
330
21E
100
DictionaryVariables
280
     0
  1
STANDARD
  0
DICTIONARYVAR
  5
357
102
{ACAD_REACTORS
330
21E
102
}
330
21E
100
DictionaryVariables
280
     0
  1
1
  0
DICTIONARYVAR
  5
356
102
{ACAD_REACTORS
330
21E
102
}
330
21E
100
DictionaryVariables
280
     0
  1
1
  0
DICTIONARYVAR
  5
355
102
{ACAD_REACTORS
330
21E
102
}
330
21E
100
DictionaryVariables
280
     0
  1
0
  0
DICTIONARYVAR
  5
222
102
{ACAD_REACTORS
330
21E
102
}
330
21E
100
DictionaryVariables
280
     0
  1
0
  0
DICTIONARYVAR
  5
353
102
{ACAD_REACTORS
330
21E
102
}
330
21E
100
DictionaryVariables
280
     0
  1
1
  0
DICTIONARYVAR
  5
354
102
{ACAD_REACTORS
330
21E
102
}
330
21E
100
DictionaryVariables
280
     0
  1
127
  0
DICTIONARY
  5
1ED
330
1EC
100
AcDbDictionary
280
     1
281
     1
  3
ACAD_XREC_ROUNDTRIP
360
37F
  3
BUMPTILE
360
1EE
  3
DIFFUSETILE
360
1EF
  3
OPACITYTILE
360
1F0
  3
REFLECTIONTILE
360
1F1
  3
REFRACTIONTILE
360
1F2
  3
SPECULARTILE
360
1F3
  0
DICTIONARY
  5
1E5
330
1E4
100
AcDbDictionary
280
     1
281
     1
  3
ACAD_XREC_ROUNDTRIP
360
37E
  3
BUMPTILE
360
1E6
  3
DIFFUSETILE
360
1E7
  3
OPACITYTILE
360
1E8
  3
REFLECTIONTILE
360
1E9
  3
REFRACTIONTILE
360
1EA
  3
SPECULARTILE
360
1EB
  0
DICTIONARY
  5
E
330
C
100
AcDbDictionary
280
     1
281
     1
  3
ACAD_XREC_ROUNDTRIP
360
376
  3
BUMPTILE
360
F
  3
DIFFUSETILE
360
10
  3
OPACITYTILE
360
11
  3
REFLECTIONTILE
360
12
  3
REFRACTIONTILE
360
13
  3
SPECULARTILE
360
14
  0
DICTIONARY
  5
1F9
330
1F8
100
AcDbDictionary
280
     1
281
     1
  3
ACAD_ROUNDTRIP_2008_TABLESTYLE_CELLSTYLEMAP
360
569
  0
XRECORD
  5
37F
102
{ACAD_REACTORS
330
1ED
102
}
330
1ED
100
AcDbXrecord
280
     1
102
MATERIAL
148
0.0
149
0.0
149
0.0
 93
        0
 94
      127
282
     0
 72
     0
 77
     0
171
     0
175
     0
179
     0
273
     0
  0
XRECORD
  5
1EE
102
{ACAD_REACTORS
330
1ED
102
}
330
1ED
100
AcDbXrecord
280
     1
270
     1
271
     1
  0
XRECORD
  5
1EF
102
{ACAD_REACTORS
330
1ED
102
}
330
1ED
100
AcDbXrecord
280
     1
270
     1
271
     1
  0
XRECORD
  5
1F0
102
{ACAD_REACTORS
330
1ED
102
}
330
1ED
100
AcDbXrecord
280
     1
270
     1
271
     1
  0
XRECORD
  5
1F1
102
{ACAD_REACTORS
330
1ED
102
}
330
1ED
100
AcDbXrecord
280
     1
270
     1
271
     1
  0
XRECORD
  5
1F2
102
{ACAD_REACTORS
330
1ED
102
}
330
1ED
100
AcDbXrecord
280
     1
270
     1
271
     1
  0
XRECORD
  5
1F3
102
{ACAD_REACTORS
330
1ED
102
}
330
1ED
100
AcDbXrecord
280
     1
270
     1
271
     1
  0
XRECORD
  5
37E
102
{ACAD_REACTORS
330
1E5
102
}
330
1E5
100
AcDbXrecord
280
     1
102
MATERIAL
148
0.0
149
0.0
149
0.0
 93
        0
 94
      127
282
     0
 72
     0
 77
     0
171
     0
175
     0
179
     0
273
     0
  0
XRECORD
  5
1E6
102
{ACAD_REACTORS
330
1E5
102
}
330
1E5
100
AcDbXrecord
280
     1
270
     1
271
     1
  0
XRECORD
  5
1E7
102
{ACAD_REACTORS
330
1E5
102
}
330
1E5
100
AcDbXrecord
280
     1
270
     1
271
     1
  0
XRECORD
  5
1E8
102
{ACAD_REACTORS
330
1E5
102
}
330
1E5
100
AcDbXrecord
280
     1
270
     1
271
     1
  0
XRECORD
  5
1E9
102
{ACAD_REACTORS
330
1E5
102
}
330
1E5
100
AcDbXrecord
280
     1
270
     1
271
     1
  0
XRECORD
  5
1EA
102
{ACAD_REACTORS
330
1E5
102
}
330
1E5
100
AcDbXrecord
280
     1
270
     1
271
     1
  0
XRECORD
  5
1EB
102
{ACAD_REACTORS
330
1E5
102
}
330
1E5
100
AcDbXrecord
280
     1
270
     1
271
     1
  0
XRECORD
  5
376
102
{ACAD_REACTORS
330
E
102
}
330
E
100
AcDbXrecord
280
     1
102
MATERIAL
148
0.0
149
0.0
149
0.0
 93
        0
 94
      127
282
     0
 72
     0
 77
     0
171
     0
175
     0
179
     0
273
     0
  0
XRECORD
  5
F
102
{ACAD_REACTORS
330
E
102
}
330
E
100
AcDbXrecord
280
     1
270
     1
271
     1
  0
XRECORD
  5
10
102
{ACAD_REACTORS
330
E
102
}
330
E
100
AcDbXrecord
280
     1
270
     1
271
     1
  0
XRECORD
  5
11
102
{ACAD_REACTORS
330
E
102
}
330
E
100
AcDbXrecord
280
     1
270
     1
271
     1
  0
XRECORD
  5
12
102
{ACAD_REACTORS
330
E
102
}
330
E
100
AcDbXrecord
280
     1
270
     1
271
     1
  0
XRECORD
  5
13
102
{ACAD_REACTORS
330
E
102
}
330
E
100
AcDbXrecord
280
     1
270
     1
271
     1
  0
XRECORD
  5
14
102
{ACAD_REACTORS
330
E
102
}
330
E
100
AcDbXrecord
280
     1
270
     1
271
     1
  0
CELLSTYLEMAP
  5
569
102
{ACAD_REACTORS
330
1F9
102
}
330
1F9
100
AcDbCellStyleMap
 90
        3
300
CELLSTYLE
  1
TABLEFORMAT_BEGIN
 90
        5
170
     1
 91
        0
 92
    32768
 62
   257
 93
        1
300
CONTENTFORMAT
  1
CONTENTFORMAT_BEGIN
 90
        0
 91
        0
 92
      512
 93
        0
300

 40
0.0
140
1.0
 94
        5
 62
     0
340
48
144
0.25
309
CONTENTFORMAT_END
171
     1
301
MARGIN
  1
CELLMARGIN_BEGIN
 40
0.06
 40
0.06
 40
0.06
 40
0.06
 40
0.18
 40
0.18
309
CELLMARGIN_END
 94
        6
 95
        1
302
GRIDFORMAT
  1
GRIDFORMAT_BEGIN
 90
        0
 91
        1
 62
     0
 92
       -2
340
0
 93
        0
 40
0.045
309
GRIDFORMAT_END
 95
        2
302
GRIDFORMAT
  1
GRIDFORMAT_BEGIN
 90
        0
 91
        1
 62
     0
 92
       -2
340
0
 93
        0
 40
0.045
309
GRIDFORMAT_END
 95
        4
302
GRIDFORMAT
  1
GRIDFORMAT_BEGIN
 90
        0
 91
        1
 62
     0
 92
       -2
340
0
 93
        0
 40
0.045
309
GRIDFORMAT_END
 95
        8
302
GRIDFORMAT
  1
GRIDFORMAT_BEGIN
 90
        0
 91
        1
 62
     0
 92
       -2
340
0
 93
        0
 40
0.045
309
GRIDFORMAT_END
 95
       16
302
GRIDFORMAT
  1
GRIDFORMAT_BEGIN
 90
        0
 91
        1
 62
     0
 92
       -2
340
0
 93
        0
 40
0.045
309
GRIDFORMAT_END
 95
       32
302
GRIDFORMAT
  1
GRIDFORMAT_BEGIN
 90
        0
 91
        1
 62
     0
 92
       -2
340
0
 93
        0
 40
0.045
309
GRIDFORMAT_END
309
TABLEFORMAT_END
  1
CELLSTYLE_BEGIN
 90
        1
 91
        1
300
_TITLE
309
CELLSTYLE_END
300
CELLSTYLE
  1
TABLEFORMAT_BEGIN
 90
        5
170
     1
 91
        0
 92
        0
 62
   257
 93
        1
300
CONTENTFORMAT
  1
CONTENTFORMAT_BEGIN
 90
        0
 91
        0
 92
      512
 93
        0
300

 40
0.0
140
1.0
 94
        5
 62
     0
340
48
144
0.18
309
CONTENTFORMAT_END
171
     1
301
MARGIN
  1
CELLMARGIN_BEGIN
 40
0.06
 40
0.06
 40
0.06
 40
0.06
 40
0.18
 40
0.18
309
CELLMARGIN_END
 94
        6
 95
        1
302
GRIDFORMAT
  1
GRIDFORMAT_BEGIN
 90
        0
 91
        1
 62
     0
 92
       -2
340
0
 93
        0
 40
0.045
309
GRIDFORMAT_END
 95
        2
302
GRIDFORMAT
  1
GRIDFORMAT_BEGIN
 90
        0
 91
        1
 62
     0
 92
       -2
340
0
 93
        0
 40
0.045
309
GRIDFORMAT_END
 95
        4
302
GRIDFORMAT
  1
GRIDFORMAT_BEGIN
 90
        0
 91
        1
 62
     0
 92
       -2
340
0
 93
        0
 40
0.045
309
GRIDFORMAT_END
 95
        8
302
GRIDFORMAT
  1
GRIDFORMAT_BEGIN
 90
        0
 91
        1
 62
     0
 92
       -2
340
0
 93
        0
 40
0.045
309
GRIDFORMAT_END
 95
       16
302
GRIDFORMAT
  1
GRIDFORMAT_BEGIN
 90
        0
 91
        1
 62
     0
 92
       -2
340
0
 93
        0
 40
0.045
309
GRIDFORMAT_END
 95
       32
302
GRIDFORMAT
  1
GRIDFORMAT_BEGIN
 90
        0
 91
        1
 62
     0
 92
       -2
340
0
 93
        0
 40
0.045
309
GRIDFORMAT_END
309
TABLEFORMAT_END
  1
CELLSTYLE_BEGIN
 90
        2
 91
        1
300
_HEADER
309
CELLSTYLE_END
300
CELLSTYLE
  1
TABLEFORMAT_BEGIN
 90
        5
170
     1
 91
        0
 92
        0
 62
   257
 93
        1
300
CONTENTFORMAT
  1
CONTENTFORMAT_BEGIN
 90
        0
 91
        0
 92
      512
 93
        0
300

 40
0.0
140
1.0
 94
        2
 62
     0
340
48
144
0.18
309
CONTENTFORMAT_END
171
     1
301
MARGIN
  1
CELLMARGIN_BEGIN
 40
0.06
 40
0.06
 40
0.06
 40
0.06
 40
0.18
 40
0.18
309
CELLMARGIN_END
 94
        6
 95
        1
302
GRIDFORMAT
  1
GRIDFORMAT_BEGIN
 90
        0
 91
        1
 62
     0
 92
       -2
340
0
 93
        0
 40
0.045
309
GRIDFORMAT_END
 95
        2
302
GRIDFORMAT
  1
GRIDFORMAT_BEGIN
 90
        0
 91
        1
 62
     0
 92
       -2
340
0
 93
        0
 40
0.045
309
GRIDFORMAT_END
 95
        4
302
GRIDFORMAT
  1
GRIDFORMAT_BEGIN
 90
        0
 91
        1
 62
     0
 92
       -2
340
0
 93
        0
 40
0.045
309
GRIDFORMAT_END
 95
        8
302
GRIDFORMAT
  1
GRIDFORMAT_BEGIN
 90
        0
 91
        1
 62
     0
 92
       -2
340
0
 93
        0
 40
0.045
309
GRIDFORMAT_END
 95
       16
302
GRIDFORMAT
  1
GRIDFORMAT_BEGIN
 90
        0
 91
        1
 62
     0
 92
       -2
340
0
 93
        0
 40
0.045
309
GRIDFORMAT_END
 95
       32
302
GRIDFORMAT
  1
GRIDFORMAT_BEGIN
 90
        0
 91
        1
 62
     0
 92
       -2
340
0
 93
        0
 40
0.045
309
GRIDFORMAT_END
309
TABLEFORMAT_END
  1
CELLSTYLE_BEGIN
 90
        3
 91
        2
300
_DATA
309
CELLSTYLE_END
  0
ENDSEC
  0
EOF
