  0
SECTION
  2
HEADER
  9
$ACADVER
  1
AC1021
  9
$ACADMAINTVER
 70
    25
  9
$DWGCODEPAGE
  3
ANSI_936
  9
$LASTSAVEDBY
  1
zb.ye
  9
$INSBASE
 10
0.0
 20
0.0
 30
0.0
  9
$EXTMIN
 10
765.8245809997506
 20
184.7434397053555
 30
-0.0000000349181948
  9
$EXTMAX
 10
840.1681071571729
 20
237.2698769848566
 30
0.0000000814935746
  9
$LIMMIN
 10
0.0
 20
0.0
  9
$LIMMAX
 10
12.0
 20
9.0
  9
$ORTHOMODE
 70
     0
  9
$REGENMODE
 70
     1
  9
$FILLMODE
 70
     1
  9
$QTEXTMODE
 70
     0
  9
$MIRRTEXT
 70
     1
  9
$LTSCALE
 40
1.0
  9
$ATTMODE
 70
     1
  9
$TEXTSIZE
 40
0.2
  9
$TRACEWID
 40
0.05
  9
$TEXTSTYLE
  7
Standard
  9
$CLAYER
  8
0
  9
$CELTYPE
  6
ByLayer
  9
$CECOLOR
 62
   256
  9
$CELTSCALE
 40
1.0
  9
$DISPSILH
 70
     0
  9
$DIMSCALE
 40
1.0
  9
$DIMASZ
 40
1.5
  9
$DIMEXO
 40
0.2
  9
$DIMDLI
 40
0.2
  9
$DIMRND
 40
0.0
  9
$DIMDLE
 40
0.0
  9
$DIMEXE
 40
0.5
  9
$DIMTP
 40
0.0
  9
$DIMTM
 40
0.0
  9
$DIMTXT
 40
2.0
  9
$DIMCEN
 40
0.0
  9
$DIMTSZ
 40
0.0
  9
$DIMTOL
 70
     0
  9
$DIMLIM
 70
     0
  9
$DIMTIH
 70
     0
  9
$DIMTOH
 70
     0
  9
$DIMSE1
 70
     0
  9
$DIMSE2
 70
     0
  9
$DIMTAD
 70
     1
  9
$DIMZIN
 70
     8
  9
$DIMBLK
  1

  9
$DIMASO
 70
     1
  9
$DIMSHO
 70
     1
  9
$DIMPOST
  1

  9
$DIMAPOST
  1

  9
$DIMALT
 70
     0
  9
$DIMALTD
 70
     2
  9
$DIMALTF
 40
25.4
  9
$DIMLFAC
 40
1.0
  9
$DIMTOFL
 70
     0
  9
$DIMTVP
 40
0.0
  9
$DIMTIX
 70
     0
  9
$DIMSOXD
 70
     0
  9
$DIMSAH
 70
     0
  9
$DIMBLK1
  1

  9
$DIMBLK2
  1

  9
$DIMSTYLE
  2
01
  9
$DIMCLRD
 70
     1
  9
$DIMCLRE
 70
     6
  9
$DIMCLRT
 70
     4
  9
$DIMTFAC
 40
1.0
  9
$DIMGAP
 40
0.5
  9
$DIMJUST
 70
     0
  9
$DIMSD1
 70
     0
  9
$DIMSD2
 70
     0
  9
$DIMTOLJ
 70
     1
  9
$DIMTZIN
 70
     0
  9
$DIMALTZ
 70
     0
  9
$DIMALTTZ
 70
     0
  9
$DIMUPT
 70
     0
  9
$DIMDEC
 70
     1
  9
$DIMTDEC
 70
     1
  9
$DIMALTU
 70
     2
  9
$DIMALTTD
 70
     2
  9
$DIMTXSTY
  7
Romans字体
  9
$DIMAUNIT
 70
     0
  9
$DIMADEC
 70
     2
  9
$DIMALTRND
 40
0.0
  9
$DIMAZIN
 70
     2
  9
$DIMDSEP
 70
    46
  9
$DIMATFIT
 70
     3
  9
$DIMFRAC
 70
     0
  9
$DIMLDRBLK
  1

  9
$DIMLUNIT
 70
     2
  9
$DIMLWD
 70
    -2
  9
$DIMLWE
 70
    -2
  9
$DIMTMOVE
 70
     0
  9
$DIMFXL
 40
1.0
  9
$DIMFXLON
 70
     0
  9
$DIMJOGANG
 40
0.7853981633974483
  9
$DIMTFILL
 70
     0
  9
$DIMTFILLCLR
 70
     0
  9
$DIMARCSYM
 70
     0
  9
$DIMLTYPE
  6

  9
$DIMLTEX1
  6

  9
$DIMLTEX2
  6

  9
$LUNITS
 70
     2
  9
$LUPREC
 70
     4
  9
$SKETCHINC
 40
0.1
  9
$FILLETRAD
 40
0.5
  9
$AUNITS
 70
     0
  9
$AUPREC
 70
     0
  9
$MENU
  1
.
  9
$ELEVATION
 40
0.0
  9
$PELEVATION
 40
0.0
  9
$THICKNESS
 40
0.0
  9
$LIMCHECK
 70
     0
  9
$CHAMFERA
 40
0.5
  9
$CHAMFERB
 40
0.5
  9
$CHAMFERC
 40
1.0
  9
$CHAMFERD
 40
0.0
  9
$SKPOLY
 70
     0
  9
$TDCREATE
 40
2456524.383632987
  9
$TDUCREATE
 40
2456524.050299653
  9
$TDUPDATE
 40
2460286.770509179
  9
$TDUUPDATE
 40
2460286.437175845
  9
$TDINDWG
 40
1.1622399306
  9
$TDUSRTIMER
 40
1.1622206134
  9
$USRTIMER
 70
     1
  9
$ANGBASE
 50
0.0
  9
$ANGDIR
 70
     0
  9
$PDMODE
 70
     0
  9
$PDSIZE
 40
0.0
  9
$PLINEWID
 40
0.0
  9
$SPLFRAME
 70
     0
  9
$SPLINETYPE
 70
     6
  9
$SPLINESEGS
 70
     8
  9
$HANDSEED
  5
585
  9
$SURFTAB1
 70
     6
  9
$SURFTAB2
 70
     6
  9
$SURFTYPE
 70
     6
  9
$SURFU
 70
     6
  9
$SURFV
 70
     6
  9
$UCSBASE
  2

  9
$UCSNAME
  2

  9
$UCSORG
 10
0.0
 20
0.0
 30
0.0
  9
$UCSXDIR
 10
1.0
 20
0.0
 30
0.0
  9
$UCSYDIR
 10
0.0
 20
1.0
 30
0.0
  9
$UCSORTHOREF
  2

  9
$UCSORTHOVIEW
 70
     0
  9
$UCSORGTOP
 10
0.0
 20
0.0
 30
0.0
  9
$UCSORGBOTTOM
 10
0.0
 20
0.0
 30
0.0
  9
$UCSORGLEFT
 10
0.0
 20
0.0
 30
0.0
  9
$UCSORGRIGHT
 10
0.0
 20
0.0
 30
0.0
  9
$UCSORGFRONT
 10
0.0
 20
0.0
 30
0.0
  9
$UCSORGBACK
 10
0.0
 20
0.0
 30
0.0
  9
$PUCSBASE
  2

  9
$PUCSNAME
  2

  9
$PUCSORG
 10
0.0
 20
0.0
 30
0.0
  9
$PUCSXDIR
 10
1.0
 20
0.0
 30
0.0
  9
$PUCSYDIR
 10
0.0
 20
1.0
 30
0.0
  9
$PUCSORTHOREF
  2

  9
$PUCSORTHOVIEW
 70
     0
  9
$PUCSORGTOP
 10
0.0
 20
0.0
 30
0.0
  9
$PUCSORGBOTTOM
 10
0.0
 20
0.0
 30
0.0
  9
$PUCSORGLEFT
 10
0.0
 20
0.0
 30
0.0
  9
$PUCSORGRIGHT
 10
0.0
 20
0.0
 30
0.0
  9
$PUCSORGFRONT
 10
0.0
 20
0.0
 30
0.0
  9
$PUCSORGBACK
 10
0.0
 20
0.0
 30
0.0
  9
$USERI1
 70
     0
  9
$USERI2
 70
     0
  9
$USERI3
 70
     0
  9
$USERI4
 70
     0
  9
$USERI5
 70
     0
  9
$USERR1
 40
0.0
  9
$USERR2
 40
0.0
  9
$USERR3
 40
0.0
  9
$USERR4
 40
0.0
  9
$USERR5
 40
0.0
  9
$WORLDVIEW
 70
     1
  9
$SHADEDGE
 70
     3
  9
$SHADEDIF
 70
    70
  9
$TILEMODE
 70
     1
  9
$MAXACTVP
 70
    64
  9
$PINSBASE
 10
0.0
 20
0.0
 30
0.0
  9
$PLIMCHECK
 70
     0
  9
$PEXTMIN
 10
1.000000000000000E+20
 20
1.000000000000000E+20
 30
1.000000000000000E+20
  9
$PEXTMAX
 10
-1.000000000000000E+20
 20
-1.000000000000000E+20
 30
-1.000000000000000E+20
  9
$PLIMMIN
 10
0.0
 20
0.0
  9
$PLIMMAX
 10
12.0
 20
9.0
  9
$UNITMODE
 70
     0
  9
$VISRETAIN
 70
     1
  9
$PLINEGEN
 70
     0
  9
$PSLTSCALE
 70
     1
  9
$TREEDEPTH
 70
  3020
  9
$CMLSTYLE
  2
Standard
  9
$CMLJUST
 70
     0
  9
$CMLSCALE
 40
1.0
  9
$PROXYGRAPHICS
 70
     1
  9
$MEASUREMENT
 70
     0
  9
$CELWEIGHT
370
    -1
  9
$ENDCAPS
280
     0
  9
$JOINSTYLE
280
     0
  9
$LWDISPLAY
290
     0
  9
$INSUNITS
 70
     4
  9
$HYPERLINKBASE
  1

  9
$STYLESHEET
  1
MONOCHROME.CTB
  9
$XEDIT
290
     1
  9
$CEPSNTYPE
380
     0
  9
$PSTYLEMODE
290
     1
  9
$FINGERPRINTGUID
  2
{5D9E845C-D37E-47E9-BF77-A93D5B478D20}
  9
$VERSIONGUID
  2
{7C2839D1-7900-4C38-9962-4B9402E0D3E3}
  9
$EXTNAMES
290
     1
  9
$PSVPSCALE
 40
0.0
  9
$OLESTARTUP
290
     0
  9
$SORTENTS
280
   127
  9
$INDEXCTL
280
     0
  9
$HIDETEXT
280
     1
  9
$XCLIPFRAME
290
     0
  9
$HALOGAP
280
     0
  9
$OBSCOLOR
 70
   257
  9
$OBSLTYPE
280
     0
  9
$INTERSECTIONDISPLAY
280
     0
  9
$INTERSECTIONCOLOR
 70
   257
  9
$DIMASSOC
280
     1
  9
$PROJECTNAME
  1

  9
$CAMERADISPLAY
290
     0
  9
$LENSLENGTH
 40
50.0
  9
$CAMERAHEIGHT
 40
0.0
  9
$STEPSPERSEC
 40
2.0
  9
$STEPSIZE
 40
6.0
  9
$3DDWFPREC
 40
2.0
  9
$PSOLWIDTH
 40
0.25
  9
$PSOLHEIGHT
 40
4.0
  9
$LOFTANG1
 40
1.570795999999999
  9
$LOFTANG2
 40
1.570795999999999
  9
$LOFTMAG1
 40
0.0
  9
$LOFTMAG2
 40
0.0
  9
$LOFTPARAM
 70
     7
  9
$LOFTNORMALS
280
     1
  9
$LATITUDE
 40
37.795
  9
$LONGITUDE
 40
-122.394
  9
$NORTHDIRECTION
 40
0.0
  9
$TIMEZONE
 70
 -8000
  9
$LIGHTGLYPHDISPLAY
280
     1
  9
$TILEMODELIGHTSYNCH
280
     1
  9
$CMATERIAL
347
21B
  9
$SOLIDHIST
280
     1
  9
$SHOWHIST
280
     1
  9
$DWFFRAME
280
     2
  9
$DGNFRAME
280
     0
  9
$REALWORLDSCALE
290
     1
  9
$INTERFERECOLOR
 62
     1
  9
$INTERFEREOBJVS
345
231
  9
$INTERFEREVPVS
346
232
  9
$CSHADOW
280
     0
  9
$SHADOWPLANELOCATION
 40
0.0
  0
ENDSEC
  0
SECTION
  2
CLASSES
  0
CLASS
  1
ACDBDICTIONARYWDFLT
  2
AcDbDictionaryWithDefault
  3
ObjectDBX Classes
 90
        0
 91
        1
280
     0
281
     0
  0
CLASS
  1
VISUALSTYLE
  2
AcDbVisualStyle
  3
ObjectDBX Classes
 90
     4095
 91
       16
280
     0
281
     0
  0
CLASS
  1
MATERIAL
  2
AcDbMaterial
  3
ObjectDBX Classes
 90
     1153
 91
        3
280
     0
281
     0
  0
CLASS
  1
TABLESTYLE
  2
AcDbTableStyle
  3
ObjectDBX Classes
 90
     4095
 91
        1
280
     0
281
     0
  0
CLASS
  1
SCALE
  2
AcDbScale
  3
ObjectDBX Classes
 90
     1153
 91
       33
280
     0
281
     0
  0
CLASS
  1
MLEADERSTYLE
  2
AcDbMLeaderStyle
  3
ACDB_MLEADERSTYLE_CLASS
 90
     4095
 91
        1
280
     0
281
     0
  0
CLASS
  1
CELLSTYLEMAP
  2
AcDbCellStyleMap
  3
ObjectDBX Classes
 90
     1152
 91
        2
280
     0
281
     0
  0
CLASS
  1
DICTIONARYVAR
  2
AcDbDictionaryVar
  3
ObjectDBX Classes
 90
        0
 91
       11
280
     0
281
     0
  0
CLASS
  1
SORTENTSTABLE
  2
AcDbSortentsTable
  3
ObjectDBX Classes
 90
        0
 91
        1
280
     0
281
     0
  0
CLASS
  1
ACAD_EVALUATION_GRAPH
  2
AcDbEvalGraph
  3
ObjectDBX Classes
 90
     1153
 91
        1
280
     0
281
     0
  0
CLASS
  1
ACAECUSTOBJ
  2
AcAeEditorObj
  3
AcAeEditorObj
 90
     1024
 91
        1
280
     1
281
     0
  0
CLASS
  1
ACDB_DYNAMICBLOCKPURGEPREVENTER_VERSION
  2
AcDbDynamicBlockPurgePreventer
  3
ObjectDBX Classes
 90
     1153
 91
        1
280
     0
281
     0
  0
CLASS
  1
MENTALRAYRENDERSETTINGS
  2
AcDbMentalRayRenderSettings
  3
SCENEOE
 90
     1024
 91
        0
280
     0
281
     0
  0
CLASS
  1
ACDB_BLOCKREPRESENTATION_DATA
  2
AcDbBlockRepresentationData
  3
ObjectDBX Classes
 90
     1153
 91
        0
280
     0
281
     0
  0
CLASS
  1
DIMASSOC
  2
AcDbDimAssoc
  3
"AcDbDimAssoc|Product Desc:     AcDim ARX App For Dimension|Company:          Autodesk, Inc.|WEB Address:      www.autodesk.com"
 90
        0
 91
        6
280
     0
281
     0
  0
ENDSEC
  0
SECTION
  2
TABLES
  0
TABLE
  2
VPORT
  5
20F
102
{ACAD_XDICTIONARY
360
213
102
}
330
0
100
AcDbSymbolTable
 70
     1
  0
VPORT
  5
210
330
20F
100
AcDbSymbolTableRecord
100
AcDbViewportTableRecord
  2
*Active
 70
     0
 10
0.0
 20
0.0
 11
1.0
 21
1.0
 12
698.0308472065531
 22
62.50442757650825
 13
0.0
 23
0.0
 14
0.5
 24
0.5
 15
0.5
 25
0.5
 16
0.0
 26
0.0
 36
1.0
 17
104.9654968719086
 27
148.5022307685978
 37
0.0
 40
53.05879981949607
 41
2.426395939086293
 42
50.0
 43
0.0
 44
0.0
 50
0.0
 51
0.0
 71
     0
 72
   100
 73
     1
 74
     3
 75
     0
 76
     0
 77
     0
 78
     0
281
     0
 65
     1
110
0.0
120
0.0
130
0.0
111
1.0
121
0.0
131
0.0
112
0.0
122
1.0
132
0.0
 79
     0
146
0.0
348
211
 60
     3
 61
     5
292
     1
282
     1
141
0.0
142
0.0
 63
   250
421
  3355443
  0
ENDTAB
  0
TABLE
  2
LTYPE
  5
20A
330
0
100
AcDbSymbolTable
 70
     2
  0
LTYPE
  5
20B
330
20A
100
AcDbSymbolTableRecord
100
AcDbLinetypeTableRecord
  2
ByBlock
 70
     0
  3

 72
    65
 73
     0
 40
0.0
  0
LTYPE
  5
20C
330
20A
100
AcDbSymbolTableRecord
100
AcDbLinetypeTableRecord
  2
ByLayer
 70
     0
  3

 72
    65
 73
     0
 40
0.0
  0
LTYPE
  5
15
330
20A
100
AcDbSymbolTableRecord
100
AcDbLinetypeTableRecord
  2
Continuous
 70
     0
  3
Solid line
 72
    65
 73
     0
 40
0.0
  0
LTYPE
  5
129
330
20A
100
AcDbSymbolTableRecord
100
AcDbLinetypeTableRecord
  2
CENTER
 70
     0
  3
Center ____ _ ____ _ ____ _ ____ _ ____ _ ____
 72
    65
 73
     4
 40
2.0
 49
1.25
 74
     0
 49
-0.25
 74
     0
 49
0.25
 74
     0
 49
-0.25
 74
     0
  0
ENDTAB
  0
TABLE
  2
LAYER
  5
203
102
{ACAD_XDICTIONARY
360
204
102
}
330
0
100
AcDbSymbolTable
 70
     8
  0
LAYER
  5
6
102
{ACAD_XDICTIONARY
360
7
102
}
330
203
100
AcDbSymbolTableRecord
100
AcDbLayerTableRecord
  2
0
 70
     0
 62
     7
  6
Continuous
370
    25
390
9
347
C
  0
LAYER
  5
17
102
{ACAD_XDICTIONARY
360
18
102
}
330
203
100
AcDbSymbolTableRecord
100
AcDbLayerTableRecord
  2
图层 1
 70
     0
 62
     7
  6
Continuous
370
    -3
390
9
347
C
  0
LAYER
  5
25
102
{ACAD_XDICTIONARY
360
26
102
}
330
203
100
AcDbSymbolTableRecord
100
AcDbLayerTableRecord
  2
图框
 70
     0
 62
     7
  6
Continuous
370
    20
390
9
347
C
  0
LAYER
  5
184
330
203
100
AcDbSymbolTableRecord
100
AcDbLayerTableRecord
  2
Defpoints
 70
     0
 62
     7
  6
Continuous
290
     0
370
    -3
390
9
347
C
  0
LAYER
  5
179
330
203
100
AcDbSymbolTableRecord
100
AcDbLayerTableRecord
  2
DIM
 70
     0
 62
     3
  6
Continuous
370
    15
390
9
347
C
1001
AcAecLayerStandard
1000

1000

  0
LAYER
  5
D6
330
203
100
AcDbSymbolTableRecord
100
AcDbLayerTableRecord
  2
打标文字
 70
     0
 62
     3
  6
Continuous
370
    20
390
9
347
C
  0
LAYER
  5
128
330
203
100
AcDbSymbolTableRecord
100
AcDbLayerTableRecord
  2
CEN
 70
     0
 62
     1
  6
CENTER
370
    15
390
9
347
C
1001
AcAecLayerStandard
1000

1000

  0
LAYER
  5
12C
330
203
100
AcDbSymbolTableRecord
100
AcDbLayerTableRecord
  2
hat
 70
     0
 62
     6
  6
Continuous
370
    15
390
9
347
C
1001
AcAecLayerStandard
1000

1000

  0
ENDTAB
  0
TABLE
  2
STYLE
  5
208
330
0
100
AcDbSymbolTable
 70
     4
  0
STYLE
  5
42
330
208
100
AcDbSymbolTableRecord
100
AcDbTextStyleTableRecord
  2
Standard
 70
     0
 40
0.0
 41
0.75
 50
0.0
 71
     0
 42
0.2
  3
SIMFANG.TTF
  4

1001
ACAD
1000
FangSong_GB2312
1071
    34353
  0
STYLE
  5
28
330
208
100
AcDbSymbolTableRecord
100
AcDbTextStyleTableRecord
  2
Romans字体
 70
     0
 40
0.0
 41
0.75
 50
0.0
 71
     0
 42
0.2
  3
romans.shx
  4

  0
STYLE
  5
44
330
208
100
AcDbSymbolTableRecord
100
AcDbTextStyleTableRecord
  2
工程字
 70
     0
 40
0.0
 41
1.0
 50
0.0
 71
     0
 42
3.5
  3
gbenor.shx
  4
gbcbig.shx
  0
STYLE
  5
46
330
208
100
AcDbSymbolTableRecord
100
AcDbTextStyleTableRecord
  2
Chinese
 70
     0
 40
0.0
 41
1.0
 50
0.0
 71
     0
 42
2.5
  3
PMingLiU.ttf
  4

1001
ACAD
1000
PMingLiU
1071
    34834
  0
ENDTAB
  0
TABLE
  2
VIEW
  5
20D
330
0
100
AcDbSymbolTable
 70
     0
  0
ENDTAB
  0
TABLE
  2
UCS
  5
20E
330
0
100
AcDbSymbolTable
 70
     0
  0
ENDTAB
  0
TABLE
  2
APPID
  5
214
330
0
100
AcDbSymbolTable
 70
    10
  0
APPID
  5
29
330
214
100
AcDbSymbolTableRecord
100
AcDbRegAppTableRecord
  2
ACAD
 70
     0
  0
APPID
  5
31
330
214
100
AcDbSymbolTableRecord
100
AcDbRegAppTableRecord
  2
AcDbBlockRepETag
 70
     0
  0
APPID
  5
1FA
330
214
100
AcDbSymbolTableRecord
100
AcDbRegAppTableRecord
  2
ACAD_PSEXT
 70
     0
  0
APPID
  5
12A
330
214
100
AcDbSymbolTableRecord
100
AcDbRegAppTableRecord
  2
AcAecLayerStandard
 70
     0
  0
APPID
  5
189
330
214
100
AcDbSymbolTableRecord
100
AcDbRegAppTableRecord
  2
ACAD_DSTYLE_DIMJAG
 70
     0
  0
APPID
  5
18A
330
214
100
AcDbSymbolTableRecord
100
AcDbRegAppTableRecord
  2
ACAD_DSTYLE_DIMTALN
 70
     0
  0
APPID
  5
28F
330
214
100
AcDbSymbolTableRecord
100
AcDbRegAppTableRecord
  2
ACAD_MLEADERVER
 70
     0
  0
APPID
  5
336
330
214
100
AcDbSymbolTableRecord
100
AcDbRegAppTableRecord
  2
AcDbDynamicBlockGUID
 70
     0
  0
APPID
  5
565
330
214
100
AcDbSymbolTableRecord
100
AcDbRegAppTableRecord
  2
ACAUTHENVIRON
 70
     0
  0
APPID
  5
568
330
214
100
AcDbSymbolTableRecord
100
AcDbRegAppTableRecord
  2
AcDbDynamicBlockTrueName
 70
     0
  0
ENDTAB
  0
TABLE
  2
DIMSTYLE
  5
215
330
0
100
AcDbSymbolTable
 70
     2
100
AcDbDimStyleTable
 71
     2
340
188
340
216
  0
DIMSTYLE
105
216
330
215
100
AcDbSymbolTableRecord
100
AcDbDimStyleTableRecord
  2
Standard
 70
     0
340
42
  0
DIMSTYLE
105
188
102
{ACAD_REACTORS
330
176
330
18B
330
1A8
330
1B7
330
1C6
330
1D6
102
}
330
215
100
AcDbSymbolTableRecord
100
AcDbDimStyleTableRecord
  2
01
 70
     0
 41
1.5
 42
0.2
 43
0.2
 44
0.5
 73
     0
 74
     0
 77
     1
 78
     8
 79
     2
140
2.0
141
0.0
147
0.5
176
     1
177
     6
178
     4
179
     2
271
     1
272
     1
340
28
1001
ACAD_DSTYLE_DIMJAG
1070
   388
1040
1.5
1001
ACAD_DSTYLE_DIMTALN
1070
   392
1070
     0
  0
ENDTAB
  0
TABLE
  2
BLOCK_RECORD
  5
1
330
0
100
AcDbSymbolTable
 70
    15
  0
BLOCK_RECORD
  5
2
102
{ACAD_XDICTIONARY
360
3
102
}
330
1
100
AcDbSymbolTableRecord
100
AcDbBlockTableRecord
  2
*Model_Space
340
1F8
 70
     0
280
     1
281
     0
  0
BLOCK_RECORD
  5
1FB
330
1
100
AcDbSymbolTableRecord
100
AcDbBlockTableRecord
  2
*Paper_Space
340
1FE
 70
     0
280
     1
281
     0
  0
BLOCK_RECORD
  5
1FF
330
1
100
AcDbSymbolTableRecord
100
AcDbBlockTableRecord
  2
*Paper_Space0
340
202
 70
     0
280
     1
281
     0
  0
BLOCK_RECORD
  5
17A
330
1
100
AcDbSymbolTableRecord
100
AcDbBlockTableRecord
  2
*D1
340
0
 70
     0
280
     1
281
     0
  0
BLOCK_RECORD
  5
18E
330
1
100
AcDbSymbolTableRecord
100
AcDbBlockTableRecord
  2
*D2
340
0
 70
     0
280
     1
281
     0
  0
BLOCK_RECORD
  5
1AB
330
1
100
AcDbSymbolTableRecord
100
AcDbBlockTableRecord
  2
*D3
340
0
 70
     0
280
     1
281
     0
  0
BLOCK_RECORD
  5
1BA
330
1
100
AcDbSymbolTableRecord
100
AcDbBlockTableRecord
  2
*D4
340
0
 70
     0
280
     1
281
     0
  0
BLOCK_RECORD
  5
1C9
330
1
100
AcDbSymbolTableRecord
100
AcDbBlockTableRecord
  2
*D5
340
0
 70
     0
280
     1
281
     0
  0
BLOCK_RECORD
  5
1D9
330
1
100
AcDbSymbolTableRecord
100
AcDbBlockTableRecord
  2
*D6
340
0
 70
     0
280
     1
281
     0
  0
BLOCK_RECORD
  5
29D
102
{ACAD_XDICTIONARY
360
564
102
}
330
1
100
AcDbSymbolTableRecord
100
AcDbBlockTableRecord
  2
A4图框-NEW
340
0
310
2800000020000000200000000100080000000000000400000000000000000000000000000000000000000000000080000080000000808000800000008000800080800000C0C0C000C0DCC000F0CAA6000020400000206000002080000020A0000020C0000020E00000400000004020000040400000406000004080000040A0
310
000040C0000040E00000600000006020000060400000606000006080000060A0000060C0000060E00000800000008020000080400000806000008080000080A0000080C0000080E00000A0000000A0200000A0400000A0600000A0800000A0A00000A0C00000A0E00000C0000000C0200000C0400000C0600000C0800000C0
310
A00000C0C00000C0E00000E0000000E0200000E0400000E0600000E0800000E0A00000E0C00000E0E00040000000400020004000400040006000400080004000A0004000C0004000E00040200000402020004020400040206000402080004020A0004020C0004020E000404000004040200040404000404060004040800040
310
40A0004040C0004040E00040600000406020004060400040606000406080004060A0004060C0004060E00040800000408020004080400040806000408080004080A0004080C0004080E00040A0000040A0200040A0400040A0600040A0800040A0A00040A0C00040A0E00040C0000040C0200040C0400040C0600040C08000
310
40C0A00040C0C00040C0E00040E0000040E0200040E0400040E0600040E0800040E0A00040E0C00040E0E00080000000800020008000400080006000800080008000A0008000C0008000E00080200000802020008020400080206000802080008020A0008020C0008020E00080400000804020008040400080406000804080
310
008040A0008040C0008040E00080600000806020008060400080606000806080008060A0008060C0008060E00080800000808020008080400080806000808080008080A0008080C0008080E00080A0000080A0200080A0400080A0600080A0800080A0A00080A0C00080A0E00080C0000080C0200080C0400080C0600080C0
310
800080C0A00080C0C00080C0E00080E0000080E0200080E0400080E0600080E0800080E0A00080E0C00080E0E000C0000000C0002000C0004000C0006000C0008000C000A000C000C000C000E000C0200000C0202000C0204000C0206000C0208000C020A000C020C000C020E000C0400000C0402000C0404000C0406000C0
310
408000C040A000C040C000C040E000C0600000C0602000C0604000C0606000C0608000C060A000C060C000C060E000C0800000C0802000C0804000C0806000C0808000C080A000C080C000C080E000C0A00000C0A02000C0A04000C0A06000C0A08000C0A0A000C0A0C000C0A0E000C0C00000C0C02000C0C04000C0C06000
310
C0C08000C0C0A000F0FBFF00A4A0A000808080000000FF0000FF000000FFFF00FF000000FF00FF00FFFF0000FFFFFF0000000000000000000000000000000000000000000000000000000000000000000000000000000000000000000000000000000000000000000000000000000000000000000000000000000000000000
310
000000000000000000000000000000000000000000000000000000000000000000000000000000000000000000000000000000000000000000000000000000000000000000000000000000000000000000000000000000000000000000000000000000000000000000000000000000000000F9F9F9F9F9F9F9F9F9F9F9F9F9
310
F9F9F9F9F9F9F9F9F9F9F9F9F9F9FF00000000F9FF000000000000000000FFFFFFFFFFFFFFFFFFFFFFFFF9FAFAFAFF00000000F9FF000000000000000000FFFFFFFFFFFFFFFFFFFFFFFFFFFFFFFFFF00000000F9FD000000000000000000FFFFFFFFFFFFFFFFFFFFFFFFFFFFFFFFFF00000000F9FF000000000000000000FF
310
FFFFFFFFFFFFFFFFFFFFFFFFFFFFFFFF00000000F9FD000000000000000000FFFFFFFFFFFFFFFFFFFFFFFFFFFFFFFFFF00000000F9FF00000000000000000000000000000000000000000000000000FF00000000F9FD00000000000000000000000000000000000000000000000000FF00000000F9FF000000000000000000
310
00000000000000000000000000000000FF00000000F9FD00000000000000000000000000000000000000000000000000FF00000000F9FF00000000000000000000000000000000000000000000000000FF00000000F9FD00000000000000000000000000000000000000000000000000FF00000000F9FD0000000000000000
310
0000000000000000000000000000000000FF00000000F9FF00000000000000000000000000000000000000000000000000FF00000000F9FD00000000000000000000000000000000000000000000000000FF00000000F9FF00000000000000000000000000000000000000000000000000FF00000000F9FD00000000000000
310
000000000000000000000000000000000000FF00000000F9FF00000000000000000000000000000000000000000000000000FF00000000F9FFFFFFFFFFFFFFFFFFFFFFFFFFFFFFFFFFFFFFFFFFFFFFFFFFFFFF00000000F9FFFFFFF9F9F9F9F9F9F9F9F9F9F9F9F9F9F9F9F9F9F9F9F9F9F9F9000000000000000000000000
310
00000000000000000000000000000000000000000000000000000000000000000000000000000000000000000000000000000000000000000000000000000000000000000000000000000000000000000000000000000000000000000000000000000000000000000000000000000000000000000000000000000000000000
310
0000000000000000000000000000000000000000000000000000000000000000000000000000000000000000000000000000000000000000
102
{BLKREFS
331
344
102
}
 70
     4
280
     1
281
     0
1001
AcDbDynamicBlockGUID
1000
{1D34F703-B084-4203-95B6-1E12721CDA64}
1001
AcDbBlockRepETag
1070
     1
1071
      149
  0
BLOCK_RECORD
  5
347
330
1
100
AcDbSymbolTableRecord
100
AcDbBlockTableRecord
  2
*D8
340
0
 70
     0
280
     1
281
     0
  0
BLOCK_RECORD
  5
354
330
1
100
AcDbSymbolTableRecord
100
AcDbBlockTableRecord
  2
*D9
340
0
 70
     0
280
     1
281
     0
  0
BLOCK_RECORD
  5
361
330
1
100
AcDbSymbolTableRecord
100
AcDbBlockTableRecord
  2
*D10
340
0
 70
     0
280
     1
281
     0
  0
BLOCK_RECORD
  5
36D
330
1
100
AcDbSymbolTableRecord
100
AcDbBlockTableRecord
  2
*D11
340
0
 70
     0
280
     1
281
     0
  0
BLOCK_RECORD
  5
379
330
1
100
AcDbSymbolTableRecord
100
AcDbBlockTableRecord
  2
*D12
340
0
 70
     0
280
     1
281
     0
  0
BLOCK_RECORD
  5
386
330
1
100
AcDbSymbolTableRecord
100
AcDbBlockTableRecord
  2
*D13
340
0
 70
     0
280
     1
281
     0
  0
ENDTAB
  0
ENDSEC
  0
SECTION
  2
BLOCKS
  0
BLOCK
  5
5
330
2
100
AcDbEntity
  8
0
100
AcDbBlockBegin
  2
*Model_Space
 70
     0
 10
0.0
 20
0.0
 30
0.0
  3
*Model_Space
  1

  0
ENDBLK
  5
1F7
330
2
100
AcDbEntity
  8
0
100
AcDbBlockEnd
  0
BLOCK
  5
1FC
330
1FB
100
AcDbEntity
 67
     1
  8
0
100
AcDbBlockBegin
  2
*Paper_Space
 70
     0
 10
0.0
 20
0.0
 30
0.0
  3
*Paper_Space
  1

  0
ENDBLK
  5
1FD
330
1FB
100
AcDbEntity
 67
     1
  8
0
100
AcDbBlockEnd
  0
BLOCK
  5
200
330
1FF
100
AcDbEntity
 67
     1
  8
0
100
AcDbBlockBegin
  2
*Paper_Space0
 70
     0
 10
0.0
 20
0.0
 30
0.0
  3
*Paper_Space0
  1

  0
ENDBLK
  5
201
330
1FF
100
AcDbEntity
 67
     1
  8
0
100
AcDbBlockEnd
  0
BLOCK
  5
17B
330
17A
100
AcDbEntity
  8
0
100
AcDbBlockBegin
  2
*D1
 70
     1
 10
0.0
 20
0.0
 30
0.0
  3
*D1
  1

  0
LINE
  5
17C
330
17A
100
AcDbEntity
  8
DIM
 62
     6
370
    -2
100
AcDbLine
 10
709.1960041931703
 20
210.267025893577
 30
0.0
 11
707.3482211898221
 21
210.267025893577
 31
0.0
  0
LINE
  5
17D
330
17A
100
AcDbEntity
  8
DIM
 62
     6
370
    -2
100
AcDbLine
 10
709.1960041931703
 20
209.2670258935765
 30
0.0
 11
707.3482211898221
 21
209.2670258935765
 31
0.0
  0
LINE
  5
17E
330
17A
100
AcDbEntity
  8
DIM
 62
     1
370
    -2
100
AcDbLine
 10
707.5482211898222
 20
211.067025893577
 30
0.0
 11
707.5482211898222
 21
211.867025893577
 31
0.0
  0
LINE
  5
17F
330
17A
100
AcDbEntity
  8
DIM
 62
     1
370
    -2
100
AcDbLine
 10
707.5482211898222
 20
208.4670258935765
 30
0.0
 11
707.5482211898222
 21
206.3027401792908
 31
0.0
  0
SOLID
  5
180
330
17A
100
AcDbEntity
  8
DIM
 62
     1
100
AcDbTrace
 10
707.4148878564888
 20
211.067025893577
 30
0.0
 11
707.6815545231553
 21
211.067025893577
 31
0.0
 12
707.5482211898222
 22
210.267025893577
 32
0.0
 13
707.5482211898222
 23
210.267025893577
 33
0.0
  0
SOLID
  5
181
330
17A
100
AcDbEntity
  8
DIM
 62
     1
100
AcDbTrace
 10
707.4148878564888
 20
208.4670258935765
 30
0.0
 11
707.6815545231553
 21
208.4670258935765
 31
0.0
 12
707.5482211898222
 22
209.2670258935765
 32
0.0
 13
707.5482211898222
 23
209.2670258935765
 33
0.0
  0
MTEXT
  5
182
330
17A
100
AcDbEntity
  8
DIM
 62
     4
100
AcDbMText
 10
706.8482211898222
 20
206.9848830364338
 30
0.0
 40
1.0
 41
0.0
 46
0.0
 71
     5
 72
     1
  1
\A1;%%C1
  7
Romans字体
 11
0.0000000000000001
 21
1.0
 31
0.0
 73
     1
 44
1.0
  0
POINT
  5
183
330
17A
100
AcDbEntity
  8
Defpoints
 62
     0
100
AcDbPoint
 10
709.3960041931703
 20
210.267025893577
 30
0.0
  0
POINT
  5
185
330
17A
100
AcDbEntity
  8
Defpoints
 62
     0
100
AcDbPoint
 10
709.3960041931703
 20
209.2670258935765
 30
0.0
  0
POINT
  5
186
330
17A
100
AcDbEntity
  8
Defpoints
 62
     0
100
AcDbPoint
 10
707.5482211898222
 20
209.2670258935765
 30
0.0
  0
ENDBLK
  5
187
330
17A
100
AcDbEntity
  8
0
100
AcDbBlockEnd
  0
BLOCK
  5
18F
330
18E
100
AcDbEntity
  8
0
100
AcDbBlockBegin
  2
*D2
 70
     1
 10
0.0
 20
0.0
 30
0.0
  3
*D2
  1

  0
LINE
  5
190
330
18E
100
AcDbEntity
  8
DIM
 62
     6
370
    -2
100
AcDbLine
 10
723.6278423750039
 20
210.6420257850102
 30
0.0
 11
726.8669103975691
 21
210.6420257850102
 31
0.0
  0
LINE
  5
191
330
18E
100
AcDbEntity
  8
DIM
 62
     6
370
    -2
100
AcDbLine
 10
723.6278423750039
 20
208.8920257850107
 30
0.0
 11
726.8669103975691
 21
208.8920257850107
 31
0.0
  0
LINE
  5
192
330
18E
100
AcDbEntity
  8
DIM
 62
     1
370
    -2
100
AcDbLine
 10
726.6669103975687
 20
211.4420257850102
 30
0.0
 11
726.6669103975687
 21
212.2420257850102
 31
0.0
  0
LINE
  5
193
330
18E
100
AcDbEntity
  8
DIM
 62
     1
370
    -2
100
AcDbLine
 10
726.6669103975687
 20
208.0920257850106
 30
0.0
 11
726.6669103975687
 21
203.9277400707249
 31
0.0
  0
SOLID
  5
194
330
18E
100
AcDbEntity
  8
DIM
 62
     1
100
AcDbTrace
 10
726.5335770642357
 20
211.4420257850102
 30
0.0
 11
726.8002437309022
 21
211.4420257850102
 31
0.0
 12
726.6669103975687
 22
210.6420257850102
 32
0.0
 13
726.6669103975687
 23
210.6420257850102
 33
0.0
  0
SOLID
  5
195
330
18E
100
AcDbEntity
  8
DIM
 62
     1
100
AcDbTrace
 10
726.5335770642357
 20
208.0920257850106
 30
0.0
 11
726.8002437309022
 21
208.0920257850106
 31
0.0
 12
726.6669103975687
 22
208.8920257850107
 32
0.0
 13
726.6669103975687
 23
208.8920257850107
 33
0.0
  0
MTEXT
  5
196
330
18E
100
AcDbEntity
  8
DIM
 62
     4
100
AcDbMText
 10
725.9669103975688
 20
205.6098829278679
 30
0.0
 40
1.0
 41
0.0
 46
0.0
 71
     5
 72
     1
  1
\A1;%%C1.75
  7
Romans字体
 11
0.0000000000000001
 21
1.0
 31
0.0
 73
     1
 44
1.0
  0
POINT
  5
197
330
18E
100
AcDbEntity
  8
Defpoints
 62
     0
100
AcDbPoint
 10
723.4278423750038
 20
210.6420257850102
 30
0.0
  0
POINT
  5
198
330
18E
100
AcDbEntity
  8
Defpoints
 62
     0
100
AcDbPoint
 10
723.4278423750038
 20
208.8920257850107
 30
0.0
  0
POINT
  5
199
330
18E
100
AcDbEntity
  8
Defpoints
 62
     0
100
AcDbPoint
 10
726.6669103975687
 20
208.8920257850107
 30
0.0
  0
ENDBLK
  5
19A
330
18E
100
AcDbEntity
  8
0
100
AcDbBlockEnd
  0
BLOCK
  5
1AC
330
1AB
100
AcDbEntity
  8
0
100
AcDbBlockBegin
  2
*D3
 70
     1
 10
0.0
 20
0.0
 30
0.0
  3
*D3
  1

  0
LINE
  5
1AD
330
1AB
100
AcDbEntity
  8
DIM
 62
     6
370
    -2
100
AcDbLine
 10
708.6278423925373
 20
209.9670258935766
 30
0.0
 11
708.6278423925373
 21
214.6097718250639
 31
0.0
  0
LINE
  5
1AE
330
1AB
100
AcDbEntity
  8
DIM
 62
     6
370
    -2
100
AcDbLine
 10
723.4278423750038
 20
210.8420257850102
 30
0.0
 11
723.4278423750038
 21
214.6097718250639
 31
0.0
  0
LINE
  5
1AF
330
1AB
100
AcDbEntity
  8
DIM
 62
     1
370
    -2
100
AcDbLine
 10
709.4278423925377
 20
214.4097718250639
 30
0.0
 11
722.6278423750038
 21
214.4097718250639
 31
0.0
  0
SOLID
  5
1B0
330
1AB
100
AcDbEntity
  8
DIM
 62
     1
100
AcDbTrace
 10
709.4278423925377
 20
214.5431051583972
 30
0.0
 11
709.4278423925377
 21
214.2764384917306
 31
0.0
 12
708.6278423925373
 22
214.4097718250639
 32
0.0
 13
708.6278423925373
 23
214.4097718250639
 33
0.0
  0
SOLID
  5
1B1
330
1AB
100
AcDbEntity
  8
DIM
 62
     1
100
AcDbTrace
 10
722.6278423750038
 20
214.5431051583972
 30
0.0
 11
722.6278423750038
 21
214.2764384917306
 31
0.0
 12
723.4278423750038
 22
214.4097718250639
 32
0.0
 13
723.4278423750038
 23
214.4097718250639
 33
0.0
  0
MTEXT
  5
1B2
330
1AB
100
AcDbEntity
  8
DIM
 62
     4
100
AcDbMText
 10
716.0278423837707
 20
215.1097718250639
 30
0.0
 40
1.0
 41
0.0
 46
0.0
 71
     5
 72
     1
  1
\A1;14.8
  7
Romans字体
 73
     1
 44
1.0
  0
POINT
  5
1B3
330
1AB
100
AcDbEntity
  8
Defpoints
 62
     0
100
AcDbPoint
 10
708.6278423925373
 20
209.7670258935766
 30
0.0
  0
POINT
  5
1B4
330
1AB
100
AcDbEntity
  8
Defpoints
 62
     0
100
AcDbPoint
 10
723.4278423750038
 20
210.6420257850103
 30
0.0
  0
POINT
  5
1B5
330
1AB
100
AcDbEntity
  8
Defpoints
 62
     0
100
AcDbPoint
 10
723.4278423750038
 20
214.4097718250639
 30
0.0
  0
ENDBLK
  5
1B6
330
1AB
100
AcDbEntity
  8
0
100
AcDbBlockEnd
  0
BLOCK
  5
1BB
330
1BA
100
AcDbEntity
  8
0
100
AcDbBlockBegin
  2
*D4
 70
     1
 10
0.0
 20
0.0
 30
0.0
  3
*D4
  1

  0
LINE
  5
1BC
330
1BA
100
AcDbEntity
  8
DIM
 62
     6
370
    -2
100
AcDbLine
 10
719.4278423750038
 20
210.6420258935768
 30
0.0
 11
719.4278423750038
 21
212.5921822995715
 31
0.0
  0
LINE
  5
1BD
330
1BA
100
AcDbEntity
  8
DIM
 62
     6
370
    -2
100
AcDbLine
 10
723.4278423750038
 20
211.2199015666388
 30
0.0
 11
723.4278423750038
 21
212.5921822995715
 31
0.0
  0
LINE
  5
1BE
330
1BA
100
AcDbEntity
  8
DIM
 62
     1
370
    -2
100
AcDbLine
 10
720.2278423750035
 20
212.3921822995715
 30
0.0
 11
722.6278423750038
 21
212.3921822995715
 31
0.0
  0
SOLID
  5
1BF
330
1BA
100
AcDbEntity
  8
DIM
 62
     1
100
AcDbTrace
 10
720.2278423750035
 20
212.5255156329048
 30
0.0
 11
720.2278423750035
 21
212.2588489662382
 31
0.0
 12
719.4278423750038
 22
212.3921822995715
 32
0.0
 13
719.4278423750038
 23
212.3921822995715
 33
0.0
  0
SOLID
  5
1C0
330
1BA
100
AcDbEntity
  8
DIM
 62
     1
100
AcDbTrace
 10
722.6278423750038
 20
212.5255156329048
 30
0.0
 11
722.6278423750038
 21
212.2588489662382
 31
0.0
 12
723.4278423750038
 22
212.3921822995715
 32
0.0
 13
723.4278423750038
 23
212.3921822995715
 33
0.0
  0
MTEXT
  5
1C1
330
1BA
100
AcDbEntity
  8
DIM
 62
     4
100
AcDbMText
 10
721.4278423750037
 20
213.0921822995715
 30
0.0
 40
1.0
 41
0.0
 46
0.0
 71
     5
 72
     1
  1
\A1;4
  7
Romans字体
 73
     1
 44
1.0
  0
POINT
  5
1C2
330
1BA
100
AcDbEntity
  8
Defpoints
 62
     0
100
AcDbPoint
 10
719.4278423750038
 20
210.4420258935768
 30
0.0
  0
POINT
  5
1C3
330
1BA
100
AcDbEntity
  8
Defpoints
 62
     0
100
AcDbPoint
 10
723.4278423750038
 20
211.0199015666388
 30
0.0
  0
POINT
  5
1C4
330
1BA
100
AcDbEntity
  8
Defpoints
 62
     0
100
AcDbPoint
 10
723.4278423750038
 20
212.3921822995715
 30
0.0
  0
ENDBLK
  5
1C5
330
1BA
100
AcDbEntity
  8
0
100
AcDbBlockEnd
  0
BLOCK
  5
1CA
330
1C9
100
AcDbEntity
  8
0
100
AcDbBlockBegin
  2
*D5
 70
     1
 10
0.0
 20
0.0
 30
0.0
  3
*D5
  1

  0
LINE
  5
1CB
330
1C9
100
AcDbEntity
  8
DIM
 62
     6
370
    -2
100
AcDbLine
 10
723.4778423750059
 20
210.4420258935763
 30
0.0
 11
725.1991129756308
 21
210.4420258935763
 31
0.0
  0
LINE
  5
1CC
330
1C9
100
AcDbEntity
  8
DIM
 62
     6
370
    -2
100
AcDbLine
 10
723.4778423750059
 20
209.0920258935764
 30
0.0
 11
725.1991129756308
 21
209.0920258935764
 31
0.0
  0
LINE
  5
1CD
330
1C9
100
AcDbEntity
  8
DIM
 62
     1
370
    -2
100
AcDbLine
 10
724.9991129756308
 20
211.2420258935763
 30
0.0
 11
724.9991129756308
 21
212.0420258935763
 31
0.0
  0
LINE
  5
1CE
330
1C9
100
AcDbEntity
  8
DIM
 62
     1
370
    -2
100
AcDbLine
 10
724.9991129756308
 20
208.2920258935764
 30
0.0
 11
724.9991129756308
 21
204.1277401792907
 31
0.0
  0
SOLID
  5
1CF
330
1C9
100
AcDbEntity
  8
DIM
 62
     1
100
AcDbTrace
 10
724.8657796422974
 20
211.2420258935763
 30
0.0
 11
725.1324463089639
 21
211.2420258935763
 31
0.0
 12
724.9991129756308
 22
210.4420258935763
 32
0.0
 13
724.9991129756308
 23
210.4420258935763
 33
0.0
  0
SOLID
  5
1D0
330
1C9
100
AcDbEntity
  8
DIM
 62
     1
100
AcDbTrace
 10
724.8657796422974
 20
208.2920258935764
 30
0.0
 11
725.1324463089639
 21
208.2920258935764
 31
0.0
 12
724.9991129756308
 22
209.0920258935764
 32
0.0
 13
724.9991129756308
 23
209.0920258935764
 33
0.0
  0
MTEXT
  5
1D1
330
1C9
100
AcDbEntity
  8
DIM
 62
     4
100
AcDbMText
 10
724.2991129756306
 20
205.8098830364337
 30
0.0
 40
1.0
 41
0.0
 46
0.0
 71
     5
 72
     1
  1
\A1;%%C1.35
  7
Romans字体
 11
0.0000000000000001
 21
1.0
 31
0.0
 73
     1
 44
1.0
  0
POINT
  5
1D2
330
1C9
100
AcDbEntity
  8
Defpoints
 62
     0
100
AcDbPoint
 10
723.2778423750056
 20
210.4420258935763
 30
0.0
  0
POINT
  5
1D3
330
1C9
100
AcDbEntity
  8
Defpoints
 62
     0
100
AcDbPoint
 10
723.2778423750056
 20
209.0920258935764
 30
0.0
  0
POINT
  5
1D4
330
1C9
100
AcDbEntity
  8
Defpoints
 62
     0
100
AcDbPoint
 10
724.9991129756308
 20
209.0920258935764
 30
0.0
  0
ENDBLK
  5
1D5
330
1C9
100
AcDbEntity
  8
0
100
AcDbBlockEnd
  0
BLOCK
  5
1DA
330
1D9
100
AcDbEntity
  8
0
100
AcDbBlockBegin
  2
*D6
 70
     1
 10
0.0
 20
0.0
 30
0.0
  3
*D6
  1

  0
LINE
  5
1DB
330
1D9
100
AcDbEntity
  8
DIM
 62
     6
370
    -2
100
AcDbLine
 10
708.6278423925373
 20
211.5177961964782
 30
0.0
 11
708.6278423925373
 21
212.5921822995715
 31
0.0
  0
LINE
  5
1DC
330
1D9
100
AcDbEntity
  8
DIM
 62
     6
370
    -2
100
AcDbLine
 10
716.8278423925364
 20
210.7170258935757
 30
0.0
 11
716.8278423925364
 21
212.5921822995715
 31
0.0
  0
LINE
  5
1DD
330
1D9
100
AcDbEntity
  8
DIM
 62
     1
370
    -2
100
AcDbLine
 10
709.4278423925377
 20
212.3921822995715
 30
0.0
 11
716.0278423925366
 21
212.3921822995715
 31
0.0
  0
SOLID
  5
1DE
330
1D9
100
AcDbEntity
  8
DIM
 62
     1
100
AcDbTrace
 10
709.4278423925377
 20
212.5255156329048
 30
0.0
 11
709.4278423925377
 21
212.2588489662382
 31
0.0
 12
708.6278423925373
 22
212.3921822995715
 32
0.0
 13
708.6278423925373
 23
212.3921822995715
 33
0.0
  0
SOLID
  5
1DF
330
1D9
100
AcDbEntity
  8
DIM
 62
     1
100
AcDbTrace
 10
716.0278423925366
 20
212.5255156329048
 30
0.0
 11
716.0278423925366
 21
212.2588489662382
 31
0.0
 12
716.8278423925364
 22
212.3921822995715
 32
0.0
 13
716.8278423925364
 23
212.3921822995715
 33
0.0
  0
MTEXT
  5
1E0
330
1D9
100
AcDbEntity
  8
DIM
 62
     4
100
AcDbMText
 10
712.7278423925371
 20
213.0921822995715
 30
0.0
 40
1.0
 41
0.0
 46
0.0
 71
     5
 72
     1
  1
\A1;8.23
  7
Romans字体
 73
     1
 44
1.0
  0
POINT
  5
1E1
330
1D9
100
AcDbEntity
  8
Defpoints
 62
     0
100
AcDbPoint
 10
708.6278423925373
 20
211.3177961964782
 30
0.0
  0
POINT
  5
1E2
330
1D9
100
AcDbEntity
  8
Defpoints
 62
     0
100
AcDbPoint
 10
716.8278423925364
 20
210.5170258935757
 30
0.0
  0
POINT
  5
1E3
330
1D9
100
AcDbEntity
  8
Defpoints
 62
     0
100
AcDbPoint
 10
716.8278423925364
 20
212.3921822995715
 30
0.0
  0
ENDBLK
  5
1E4
330
1D9
100
AcDbEntity
  8
0
100
AcDbBlockEnd
  0
BLOCK
  5
29F
330
29D
100
AcDbEntity
  8
0
100
AcDbBlockBegin
  2
A4图框-NEW
 70
     0
 10
0.0
 20
0.0
 30
0.0
  3
A4图框-NEW
  1

  0
MTEXT
  5
4CF
102
{ACAD_XDICTIONARY
360
56D
102
}
330
29D
100
AcDbEntity
  8
图框
 62
     3
100
AcDbMText
 10
967.6594956750133
 20
499.7664151964293
 30
0.0
 40
2.985513575034151
 41
15.50176341157864
 46
6.292658374511018
 71
     5
 72
     5
  1
BQ LUO
  7
Romans字体
 73
     1
 44
1.0
1001
AcDbBlockRepETag
1070
     1
1071
        0
1005
4CF
1001
ACAD
1000
ACAD_MTEXT_DEFINED_HEIGHT_BEGIN
1070
    46
1040
6.292658374511018
1000
ACAD_MTEXT_DEFINED_HEIGHT_END
  0
MTEXT
  5
4D0
330
29D
100
AcDbEntity
  8
图框
 62
     3
100
AcDbMText
 10
983.041569333247
 20
499.7664151964293
 30
0.0
 40
2.487927979195124
 41
15.26238390489062
 46
6.292658374511042
 71
     5
 72
     5
  1
{\W0.7;18.10.2010}
  7
Romans字体
 73
     1
 44
1.0
1001
AcDbBlockRepETag
1070
     1
1071
        1
1005
4D0
1001
ACAD
1000
ACAD_MTEXT_DEFINED_HEIGHT_BEGIN
1070
    46
1040
6.292658374511042
1000
ACAD_MTEXT_DEFINED_HEIGHT_END
  0
MTEXT
  5
4D1
330
29D
100
AcDbEntity
  8
图框
 62
     3
100
AcDbMText
 10
1012.477254728976
 20
487.1810984474071
 30
0.0
 40
2.985513575034151
 41
17.64876416884615
 46
6.292658374511455
 71
     5
 72
     5
  1
YY LIN
  7
Romans字体
 73
     1
 44
1.0
1001
AcDbBlockRepETag
1070
     1
1071
        2
1005
4D1
1001
ACAD
1000
ACAD_MTEXT_DEFINED_HEIGHT_BEGIN
1070
    46
1040
6.292658374511455
1000
ACAD_MTEXT_DEFINED_HEIGHT_END
  0
MTEXT
  5
4D2
330
29D
100
AcDbEntity
  8
图框
 62
     3
100
AcDbMText
 10
1028.977802139886
 20
487.1810984474071
 30
0.0
 40
2.487927979195124
 41
15.35233065297276
 46
6.292658374511495
 71
     5
 72
     5
  1
{\W0.7;18.10.2010}
  7
Romans字体
 73
     1
 44
1.0
1001
AcDbBlockRepETag
1070
     1
1071
        3
1005
4D2
1001
ACAD
1000
ACAD_MTEXT_DEFINED_HEIGHT_BEGIN
1070
    46
1040
6.292658374511495
1000
ACAD_MTEXT_DEFINED_HEIGHT_END
  0
MTEXT
  5
4D3
330
29D
100
AcDbEntity
  8
图框
 62
     3
100
AcDbMText
 10
1063.722665487208
 20
525.4145966538831
 30
0.0
 40
2.985513575034151
 41
32.4973914334545
 46
11.82914190181707
 71
     5
 72
     5
  1
-
  7
Romans字体
 73
     1
 44
1.0
1001
AcDbBlockRepETag
1070
     1
1071
        4
1005
4D3
1001
ACAD
1000
ACAD_MTEXT_DEFINED_HEIGHT_BEGIN
1070
    46
1040
11.82914190181707
1000
ACAD_MTEXT_DEFINED_HEIGHT_END
  0
MTEXT
  5
4D4
330
29D
100
AcDbEntity
  8
图框
 62
     3
100
AcDbMText
 10
1063.727338552349
 20
513.5854547520641
 30
0.0
 40
2.985513575034151
 41
32.48804530317308
 46
11.82914190182139
 71
     5
 72
     5
  1
-
  7
Romans字体
 73
     1
 44
1.0
1001
AcDbBlockRepETag
1070
     1
1071
        5
1005
4D4
1001
ACAD
1000
ACAD_MTEXT_DEFINED_HEIGHT_BEGIN
1070
    46
1040
11.82914190182139
1000
ACAD_MTEXT_DEFINED_HEIGHT_END
  0
MTEXT
  5
4D5
330
29D
100
AcDbEntity
  8
图框
 62
     3
100
AcDbMText
 10
1110.122306614152
 20
526.8006839312707
 30
0.0
 40
2.985513575034151
 41
33.61239199242139
 46
9.05696734704178
 71
     5
 72
     5
  1
-
  7
Romans字体
 73
     1
 44
1.0
1001
AcDbBlockRepETag
1070
     1
1071
        6
1005
4D5
1001
ACAD
1000
ACAD_MTEXT_DEFINED_HEIGHT_BEGIN
1070
    46
1040
9.05696734704178
1000
ACAD_MTEXT_DEFINED_HEIGHT_END
  0
MTEXT
  5
4D6
330
29D
100
AcDbEntity
  8
图框
 62
     3
100
AcDbMText
 10
1110.122306614152
 20
500.2775205517162
 30
0.0
 40
2.985513575034151
 41
33.61239199242139
 46
8.871557304763419
 71
     5
 72
     5
  1
-
  7
Romans字体
 73
     1
 44
1.0
1001
AcDbBlockRepETag
1070
     1
1071
        7
1005
4D6
1001
ACAD
1000
ACAD_MTEXT_DEFINED_HEIGHT_BEGIN
1070
    46
1040
8.871557304763419
1000
ACAD_MTEXT_DEFINED_HEIGHT_END
  0
MTEXT
  5
4D7
330
29D
100
AcDbEntity
  8
图框
 62
     3
100
AcDbMText
 10
967.6594956750133
 20
493.4737568219182
 30
0.0
 40
2.985513575034151
 41
15.50176341157864
 46
6.292658374510335
 71
     5
 72
     5
  1
P RAO
  7
Romans字体
 73
     1
 44
1.0
1001
AcDbBlockRepETag
1070
     1
1071
        8
1005
4D7
1001
ACAD
1000
ACAD_MTEXT_DEFINED_HEIGHT_BEGIN
1070
    46
1040
6.292658374510335
1000
ACAD_MTEXT_DEFINED_HEIGHT_END
  0
MTEXT
  5
4D8
330
29D
100
AcDbEntity
  8
图框
 62
     3
100
AcDbMText
 10
983.041569333247
 20
493.2441970450405
 30
0.0
 40
2.487927979195124
 41
15.26238390489051
 46
6.751777928266487
 71
     5
 72
     5
  1
{\W0.7;18.10.2010}
  7
Romans字体
 73
     1
 44
1.0
1001
AcDbBlockRepETag
1070
     1
1071
        9
1005
4D8
1001
ACAD
1000
ACAD_MTEXT_DEFINED_HEIGHT_BEGIN
1070
    46
1040
6.751777928266487
1000
ACAD_MTEXT_DEFINED_HEIGHT_END
  0
MTEXT
  5
4D9
330
29D
100
AcDbEntity
  8
图框
 62
     3
100
AcDbMText
 10
1012.477254728976
 20
499.7664151964291
 30
0.0
 40
2.985513575034151
 41
17.64876416884615
 46
6.292658374511397
 71
     5
 72
     5
  1
-
  7
Romans字体
 73
     1
 44
1.0
1001
AcDbBlockRepETag
1070
     1
1071
       10
1005
4D9
1001
ACAD
1000
ACAD_MTEXT_DEFINED_HEIGHT_BEGIN
1070
    46
1040
6.292658374511397
1000
ACAD_MTEXT_DEFINED_HEIGHT_END
  0
MTEXT
  5
4DA
330
29D
100
AcDbEntity
  8
图框
 62
     3
100
AcDbMText
 10
1028.977802139886
 20
499.7664151964289
 30
0.0
 40
2.487927979195124
 41
15.35233065297265
 46
6.292658374511382
 71
     5
 72
     5
  1
-
  7
Romans字体
 73
     1
 44
1.0
1001
AcDbBlockRepETag
1070
     1
1071
       11
1005
4DA
1001
ACAD
1000
ACAD_MTEXT_DEFINED_HEIGHT_BEGIN
1070
    46
1040
6.292658374511382
1000
ACAD_MTEXT_DEFINED_HEIGHT_END
  0
MTEXT
  5
4DB
330
29D
100
AcDbEntity
  8
图框
 62
     3
100
AcDbMText
 10
967.6594956750133
 20
487.1810984474071
 30
0.0
 40
2.985513575034151
 41
15.50176341157863
 46
6.292658374511478
 71
     5
 72
     5
  1
-
  7
Romans字体
 73
     1
 44
1.0
1001
AcDbBlockRepETag
1070
     1
1071
       12
1005
4DB
1001
ACAD
1000
ACAD_MTEXT_DEFINED_HEIGHT_BEGIN
1070
    46
1040
6.292658374511478
1000
ACAD_MTEXT_DEFINED_HEIGHT_END
  0
MTEXT
  5
4DC
330
29D
100
AcDbEntity
  8
图框
 62
     3
100
AcDbMText
 10
983.041569333247
 20
487.1810984474071
 30
0.0
 40
2.487927979195124
 41
15.26238390489062
 46
6.292658374511495
 71
     5
 72
     5
  1
-
  7
Romans字体
 73
     1
 44
1.0
1001
AcDbBlockRepETag
1070
     1
1071
       13
1005
4DC
1001
ACAD
1000
ACAD_MTEXT_DEFINED_HEIGHT_BEGIN
1070
    46
1040
6.292658374511495
1000
ACAD_MTEXT_DEFINED_HEIGHT_END
  0
MTEXT
  5
4DD
330
29D
100
AcDbEntity
  8
图框
 62
     3
100
AcDbMText
 10
1074.556686986741
 20
495.8417418993361
 30
0.0
 40
2.985513575034151
 41
10.82934843438978
 46
7.886094601210427
 71
     5
 72
     5
  1
-
  7
Romans字体
 73
     1
 44
1.0
1001
AcDbBlockRepETag
1070
     1
1071
       14
1005
4DD
1001
ACAD
1000
ACAD_MTEXT_DEFINED_HEIGHT_BEGIN
1070
    46
1040
7.886094601210427
1000
ACAD_MTEXT_DEFINED_HEIGHT_END
  0
LINE
  5
4DE
330
29D
100
AcDbEntity
  8
图框
370
    -3
100
AcDbLine
 10
1036.653967466372
 20
499.7847891999413
 30
0.0
 11
1079.971361203936
 21
499.7847891999413
 31
0.0
1001
AcDbBlockRepETag
1070
     1
1071
       15
1005
4DE
  0
MTEXT
  5
4DF
330
29D
100
AcDbEntity
  8
图框
 62
     1
370
    20
100
AcDbMText
 10
1108.26336443907
 20
491.5162596080882
 30
0.0
 40
2.699054613030988
 41
82.30831305643079
 46
0.0
 71
     5
 72
     5
  1
{\fSimHei|b0|i0|c134|p2;厦门唯恩电气有限公司}
 73
     1
 44
1.0
1001
AcDbBlockRepETag
1070
     1
1071
       16
1005
4DF
  0
MTEXT
  5
4E0
330
29D
100
AcDbEntity
  8
图框
 62
     3
370
    20
100
AcDbMText
 10
1108.435451459908
 20
487.298967726064
 30
0.0
 40
1.652482416141417
 41
68.08558693693567
 46
0.0
 71
     5
 72
     5
  1
{\fArial Narrow|b0|i0|c0|p34;XIAMEN WAIN ELECTRICAL CO.LTD}
  7
工程字
 73
     1
 44
1.0
1001
AcDbBlockRepETag
1070
     1
1071
       17
1005
4E0
  0
MTEXT
  5
4E1
330
29D
100
AcDbEntity
  8
图框
 62
     1
370
    20
100
AcDbMText
 10
1085.711816899387
 20
491.0944802995856
 30
0.0
 40
2.005930044038334
 41
5.047240019334847
 46
0.0
 71
     1
 72
     5
  1
{\fArial|b0|i0|c0|p34;A}
  7
Chinese
 73
     1
 44
1.0
1001
AcDbBlockRepETag
1070
     1
1071
       18
1005
4E1
  0
MTEXT
  5
4E2
330
29D
100
AcDbEntity
  8
图框
 62
     1
370
    20
100
AcDbMText
 10
1088.213485935716
 20
491.0944802995856
 30
0.0
 40
2.005930044038334
 41
5.047240019334847
 46
0.0
 71
     1
 72
     5
  1
{\fArial|b0|i0|c0|p34;I}
  7
Chinese
 73
     1
 44
1.0
1001
AcDbBlockRepETag
1070
     1
1071
       19
1005
4E2
  0
MTEXT
  5
4E3
330
29D
100
AcDbEntity
  8
图框
 62
     1
370
    20
100
AcDbMText
 10
1089.142375222864
 20
491.0822866326808
 30
0.0
 40
2.005930044038334
 41
5.047240019334847
 46
0.0
 71
     1
 72
     5
  1
{\fArial|b0|i0|c0|p34;N}
  7
Chinese
 73
     1
 44
1.0
1001
AcDbBlockRepETag
1070
     1
1071
       20
1005
4E3
  0
MTEXT
  5
4E4
330
29D
100
AcDbEntity
  8
图框
100
AcDbMText
 10
1069.142012769545
 20
487.9667319294409
 30
0.0
 40
2.252848170144607
 41
21.65869686878327
 46
7.863925338579296
 71
     5
 72
     5
  1
{\W0.5;\C1;All Dimensions in mm\POriginal Size DIN A 4}
  7
Romans字体
 73
     1
 44
1.0
1001
AcDbBlockRepETag
1070
     1
1071
       21
1005
4E4
1001
ACAD
1000
ACAD_MTEXT_DEFINED_HEIGHT_BEGIN
1070
    46
1040
7.863925338579296
1000
ACAD_MTEXT_DEFINED_HEIGHT_END
  0
MTEXT
  5
4E5
330
29D
100
AcDbEntity
  8
图框
  6
ByBlock
 62
     6
370
    18
100
AcDbMText
 10
1127.40434942308
 20
508.7896535755975
 30
0.0
 40
2.651776162684904
 41
2.557913877927211
 46
0.0
 71
     1
 72
     5
  1
A
  7
Romans字体
 11
0.0000000000000001
 21
1.0
 31
0.0
 73
     1
 44
1.0
1001
AcDbBlockRepETag
1070
     1
1071
       22
1005
4E5
  0
MTEXT
  5
4E6
330
29D
100
AcDbEntity
  8
图框
 62
     6
100
AcDbMText
 10
1127.40434942308
 20
556.3746573232886
 30
0.0
 40
2.651776162684904
 41
2.557913877927211
 46
0.0
 71
     1
 72
     5
  1
B
  7
Romans字体
 11
0.0000000000000001
 21
1.0
 31
0.0
 73
     1
 44
1.0
1001
AcDbBlockRepETag
1070
     1
1071
       23
1005
4E6
  0
MTEXT
  5
4E7
330
29D
100
AcDbEntity
  8
图框
 62
     6
100
AcDbMText
 10
1127.40434942308
 20
607.5539372630998
 30
0.0
 40
2.651776162684904
 41
2.557913877927211
 46
0.0
 71
     1
 72
     5
  1
C
  7
Romans字体
 11
0.0000000000000001
 21
1.0
 31
0.0
 73
     1
 44
1.0
1001
AcDbBlockRepETag
1070
     1
1071
       24
1005
4E7
  0
MTEXT
  5
4E8
330
29D
100
AcDbEntity
  8
图框
 62
     6
100
AcDbMText
 10
1127.40434942308
 20
658.7332172029115
 30
0.0
 40
2.651776162684904
 41
2.557913877927211
 46
0.0
 71
     1
 72
     5
  1
D
  7
Romans字体
 11
0.0000000000000001
 21
1.0
 31
0.0
 73
     1
 44
1.0
1001
AcDbBlockRepETag
1070
     1
1071
       25
1005
4E8
  0
LINE
  5
4E9
330
29D
100
AcDbEntity
  8
图框
 62
     6
100
AcDbLine
 10
1130.411601781241
 20
634.0726090796082
 30
0.0
 11
1126.928502610363
 21
634.0726090796082
 31
0.0
1001
AcDbBlockRepETag
1070
     1
1071
       26
1005
4E9
  0
LINE
  5
4EA
330
29D
100
AcDbEntity
  8
图框
 62
     6
100
AcDbLine
 10
1130.411601781241
 20
582.89332913979
 30
0.0
 11
1126.928502610363
 21
582.89332913979
 31
0.0
1001
AcDbBlockRepETag
1070
     1
1071
       27
1005
4EA
  0
MTEXT
  5
4EB
330
29D
100
AcDbEntity
  8
图框
 62
     6
100
AcDbMText
 10
1105.329704038389
 20
483.6164543011163
 30
0.0
 40
2.651776162684904
 41
2.557913877927211
 46
0.0
 71
     1
 72
     5
  1
6
  7
Romans字体
 73
     1
 44
1.0
1001
AcDbBlockRepETag
1070
     1
1071
       28
1005
4EB
  0
LINE
  5
4EC
330
29D
100
AcDbEntity
  8
图框
 62
     6
100
AcDbLine
 10
1081.088565155284
 20
484.0347692601515
 30
0.0
 11
1081.088565155284
 21
480.5347692601475
 31
0.0
1001
AcDbBlockRepETag
1070
     1
1071
       29
1005
4EC
  0
MTEXT
  5
4ED
330
29D
100
AcDbEntity
  8
图框
 62
     6
100
AcDbMText
 10
1055.900596365941
 20
483.520053108993
 30
0.0
 40
2.651776162684904
 41
2.557913877927211
 46
0.0
 71
     1
 72
     5
  1
5
  7
Romans字体
 73
     1
 44
1.0
1001
AcDbBlockRepETag
1070
     1
1071
       30
1005
4ED
  0
LINE
  5
4EE
330
29D
100
AcDbEntity
  8
图框
 62
     6
100
AcDbLine
 10
1031.553386436349
 20
484.0347692601515
 30
0.0
 11
1031.553386436349
 21
480.5347692601475
 31
0.0
1001
AcDbBlockRepETag
1070
     1
1071
       31
1005
4EE
  0
MTEXT
  5
4EF
330
29D
100
AcDbEntity
  8
图框
 62
     6
100
AcDbMText
 10
1006.383180575197
 20
483.5687958215896
 30
0.0
 40
2.651776162684904
 41
2.557913877927211
 46
0.0
 71
     1
 72
     5
  1
4
  7
Romans字体
 73
     1
 44
1.0
1001
AcDbBlockRepETag
1070
     1
1071
       32
1005
4EF
  0
LINE
  5
4F0
330
29D
100
AcDbEntity
  8
图框
 62
     6
100
AcDbLine
 10
982.0182077173887
 20
484.0347692601515
 30
0.0
 11
982.0182077173887
 21
480.5347692601475
 31
0.0
1001
AcDbBlockRepETag
1070
     1
1071
       33
1005
4F0
  0
MTEXT
  5
4F1
330
29D
100
AcDbEntity
  8
图框
 62
     6
100
AcDbMText
 10
956.8302389280352
 20
483.5989680297948
 30
0.0
 40
2.651776162684904
 41
2.557913877927211
 46
0.0
 71
     1
 72
     5
  1
3
  7
Romans字体
 73
     1
 44
1.0
1001
AcDbBlockRepETag
1070
     1
1071
       34
1005
4F1
  0
LINE
  5
4F2
330
29D
100
AcDbEntity
  8
图框
 62
     6
100
AcDbLine
 10
932.4830289984245
 20
484.0347692601515
 30
0.0
 11
932.4830289984245
 21
480.5347692601475
 31
0.0
1001
AcDbBlockRepETag
1070
     1
1071
       35
1005
4F2
  0
MTEXT
  5
4F3
330
29D
100
AcDbEntity
  8
图框
 62
     6
100
AcDbMText
 10
906.0252349826365
 20
483.6475250013156
 30
0.0
 40
2.651776162684904
 41
2.557913877927211
 46
0.0
 71
     1
 72
     5
  1
2
  7
Romans字体
 73
     1
 44
1.0
1001
AcDbBlockRepETag
1070
     1
1071
       36
1005
4F3
  0
LINE
  5
4F4
330
29D
100
AcDbEntity
  8
图框
 62
     6
100
AcDbLine
 10
882.9478502794648
 20
484.0347692601515
 30
0.0
 11
882.9478502794648
 21
480.5347692601475
 31
0.0
1001
AcDbBlockRepETag
1070
     1
1071
       37
1005
4F4
  0
MTEXT
  5
4F5
330
29D
100
AcDbEntity
  8
图框
 62
     6
100
AcDbMText
 10
857.7598814901191
 20
483.651829494754
 30
0.0
 40
2.651776162684904
 41
2.557913877927211
 46
0.0
 71
     1
 72
     5
  1
1
  7
Romans字体
 73
     1
 44
1.0
1001
AcDbBlockRepETag
1070
     1
1071
       38
1005
4F5
  0
LINE
  5
4F6
330
29D
100
AcDbEntity
  8
图框
370
    50
100
AcDbLine
 10
836.8548209370597
 20
484.0347692601515
 30
0.0
 11
1126.928502610363
 21
484.0347692601515
 31
0.0
1001
AcDbBlockRepETag
1070
     1
1071
       39
1005
4F6
  0
LINE
  5
4F7
330
29D
100
AcDbEntity
  8
图框
370
    50
100
AcDbLine
 10
836.9128518455362
 20
484.0178684310246
 30
0.0
 11
836.9128518455394
 21
675.0207195125422
 31
0.0
1001
AcDbBlockRepETag
1070
     1
1071
       40
1005
4F7
  0
MTEXT
  5
4F8
330
29D
100
AcDbEntity
  8
图框
 62
     6
100
AcDbMText
 10
833.8475685789031
 20
658.7332172029115
 30
0.0
 40
2.651776162684904
 41
2.557913877927211
 46
0.0
 71
     1
 72
     5
  1
D
  7
Romans字体
 11
0.0000000000000001
 21
1.0
 31
0.0
 73
     1
 44
1.0
1001
AcDbBlockRepETag
1070
     1
1071
       41
1005
4F8
  0
LINE
  5
4F9
330
29D
100
AcDbEntity
  8
图框
 62
     6
100
AcDbLine
 10
836.9128518455386
 20
634.0726090796082
 30
0.0
 11
833.4128518455365
 21
634.0726090796082
 31
0.0
1001
AcDbBlockRepETag
1070
     1
1071
       42
1005
4F9
  0
MTEXT
  5
4FA
330
29D
100
AcDbEntity
  8
图框
 62
     6
100
AcDbMText
 10
833.9039177480142
 20
607.5539372630998
 30
0.0
 40
2.651776162684904
 41
2.557913877927211
 46
0.0
 71
     1
 72
     5
  1
C
  7
Romans字体
 11
0.0000000000000001
 21
1.0
 31
0.0
 73
     1
 44
1.0
1001
AcDbBlockRepETag
1070
     1
1071
       43
1005
4FA
  0
LINE
  5
4FB
330
29D
100
AcDbEntity
  8
图框
 62
     6
100
AcDbLine
 10
836.9128518455378
 20
582.89332913979
 30
0.0
 11
833.4128518455365
 21
582.89332913979
 31
0.0
1001
AcDbBlockRepETag
1070
     1
1071
       44
1005
4FB
  0
MTEXT
  5
4FC
330
29D
100
AcDbEntity
  8
图框
 62
     6
100
AcDbMText
 10
833.9039177480142
 20
556.3746573232886
 30
0.0
 40
2.651776162684904
 41
2.557913877927211
 46
0.0
 71
     1
 72
     5
  1
B
  7
Romans字体
 11
0.0000000000000001
 21
1.0
 31
0.0
 73
     1
 44
1.0
1001
AcDbBlockRepETag
1070
     1
1071
       45
1005
4FC
  0
LINE
  5
4FD
330
29D
100
AcDbEntity
  8
图框
 62
     6
100
AcDbLine
 10
836.9128518455367
 20
531.714049199969
 30
0.0
 11
833.4128518455365
 21
531.714049199969
 31
0.0
1001
AcDbBlockRepETag
1070
     1
1071
       46
1005
4FD
  0
MTEXT
  5
4FE
330
29D
100
AcDbEntity
  8
图框
 62
     6
100
AcDbMText
 10
833.9039177480142
 20
508.7896535755975
 30
0.0
 40
2.651776162684904
 41
2.557913877927211
 46
0.0
 71
     1
 72
     5
  1
A
  7
Romans字体
 11
0.0000000000000001
 21
1.0
 31
0.0
 73
     1
 44
1.0
1001
AcDbBlockRepETag
1070
     1
1071
       47
1005
4FE
  0
LINE
  5
4FF
330
29D
100
AcDbEntity
  8
图框
370
    -3
100
AcDbLine
 10
836.9128518455394
 20
675.0207195125422
 30
0.0
 11
836.9128518455394
 21
684.5021384922564
 31
0.0
1001
AcDbBlockRepETag
1070
     1
1071
       48
1005
4FF
  0
LINE
  5
500
330
29D
100
AcDbEntity
  8
图框
370
    -3
100
AcDbLine
 10
842.6237321475781
 20
675.5347692601515
 30
0.0
 11
842.6237321475781
 21
685.0161882398658
 31
0.0
1001
AcDbBlockRepETag
1070
     1
1071
       49
1005
500
  0
LINE
  5
501
330
29D
100
AcDbEntity
  8
图框
370
    -3
100
AcDbLine
 10
848.3346124496179
 20
675.5347692601515
 30
0.0
 11
848.3346124496179
 21
685.0161882398658
 31
0.0
1001
AcDbBlockRepETag
1070
     1
1071
       50
1005
501
  0
LINE
  5
502
330
29D
100
AcDbEntity
  8
图框
370
    -3
100
AcDbLine
 10
854.0454927516588
 20
675.5347692601515
 30
0.0
 11
854.0454927516588
 21
685.0161882398658
 31
0.0
1001
AcDbBlockRepETag
1070
     1
1071
       51
1005
502
  0
LINE
  5
503
330
29D
100
AcDbEntity
  8
图框
370
    -3
100
AcDbLine
 10
861.5351874539182
 20
675.5347692601515
 30
0.0
 11
861.5351874539182
 21
686.7901958362482
 31
0.0
1001
AcDbBlockRepETag
1070
     1
1071
       52
1005
503
  0
MTEXT
  5
504
330
29D
100
AcDbEntity
  8
图框
 62
     6
100
AcDbMText
 10
1105.329704038389
 20
678.859919059449
 30
0.0
 40
2.651776162684904
 41
2.557913877927211
 46
0.0
 71
     1
 72
     5
  1
6
  7
Romans字体
 73
     1
 44
1.0
1001
AcDbBlockRepETag
1070
     1
1071
       53
1005
504
  0
LINE
  5
505
330
29D
100
AcDbEntity
  8
图框
 62
     6
100
AcDbLine
 10
1081.088565155284
 20
679.0347692601516
 30
0.0
 11
1081.088565155284
 21
675.5347692601515
 31
0.0
1001
AcDbBlockRepETag
1070
     1
1071
       54
1005
505
  0
MTEXT
  5
506
330
29D
100
AcDbEntity
  8
图框
 62
     6
100
AcDbMText
 10
1055.900596365941
 20
678.859919059449
 30
0.0
 40
2.651776162684904
 41
2.557913877927211
 46
0.0
 71
     1
 72
     5
  1
5
  7
Romans字体
 73
     1
 44
1.0
1001
AcDbBlockRepETag
1070
     1
1071
       55
1005
506
  0
LINE
  5
507
330
29D
100
AcDbEntity
  8
图框
 62
     6
100
AcDbLine
 10
1031.553386436349
 20
679.0347692601516
 30
0.0
 11
1031.553386436349
 21
675.5347692601515
 31
0.0
1001
AcDbBlockRepETag
1070
     1
1071
       56
1005
507
  0
MTEXT
  5
508
330
29D
100
AcDbEntity
  8
图框
 62
     6
100
AcDbMText
 10
1006.36541764698
 20
678.7312083656147
 30
0.0
 40
2.651776162684904
 41
2.557913877927211
 46
0.0
 71
     1
 72
     5
  1
4
  7
Romans字体
 73
     1
 44
1.0
1001
AcDbBlockRepETag
1070
     1
1071
       57
1005
508
  0
LINE
  5
509
330
29D
100
AcDbEntity
  8
图框
 62
     6
100
AcDbLine
 10
982.0182077173887
 20
679.0347692601516
 30
0.0
 11
982.0182077173887
 21
675.5347692601515
 31
0.0
1001
AcDbBlockRepETag
1070
     1
1071
       58
1005
509
  0
MTEXT
  5
50A
330
29D
100
AcDbEntity
  8
图框
 62
     6
100
AcDbMText
 10
956.8302389280352
 20
678.859919059449
 30
0.0
 40
2.651776162684904
 41
2.557913877927211
 46
0.0
 71
     1
 72
     5
  1
3
  7
Romans字体
 73
     1
 44
1.0
1001
AcDbBlockRepETag
1070
     1
1071
       59
1005
50A
  0
LINE
  5
50B
330
29D
100
AcDbEntity
  8
图框
 62
     6
100
AcDbLine
 10
932.4830289984245
 20
679.0347692601516
 30
0.0
 11
932.4830289984245
 21
675.5347692601515
 31
0.0
1001
AcDbBlockRepETag
1070
     1
1071
       60
1005
50B
  0
MTEXT
  5
50C
330
29D
100
AcDbEntity
  8
图框
 62
     6
100
AcDbMText
 10
907.295060209082
 20
678.859919059449
 30
0.0
 40
2.651776162684904
 41
2.557913877927211
 46
0.0
 71
     1
 72
     5
  1
2
  7
Romans字体
 73
     1
 44
1.0
1001
AcDbBlockRepETag
1070
     1
1071
       61
1005
50C
  0
LINE
  5
50D
330
29D
100
AcDbEntity
  8
图框
 62
     6
100
AcDbLine
 10
882.9478502794648
 20
678.7962435131815
 30
0.0
 11
882.9478502794648
 21
675.5347692601515
 31
0.0
1001
AcDbBlockRepETag
1070
     1
1071
       62
1005
50D
  0
MTEXT
  5
50E
330
29D
100
AcDbEntity
  8
图框
 62
     6
100
AcDbMText
 10
862.6286629643733
 20
678.859919059449
 30
0.0
 40
2.651776162684904
 41
2.557913877927211
 46
0.0
 71
     1
 72
     5
  1
1
  7
Romans字体
 73
     1
 44
1.0
1001
AcDbBlockRepETag
1070
     1
1071
       63
1005
50E
  0
LINE
  5
50F
330
29D
100
AcDbEntity
  8
图框
370
    -3
100
AcDbLine
 10
836.9128518455394
 20
675.0207195125422
 30
0.0
 11
836.9128518455394
 21
686.7901958362482
 31
0.0
1001
AcDbBlockRepETag
1070
     1
1071
       64
1005
50F
  0
LINE
  5
510
330
29D
100
AcDbEntity
  8
图框
370
    50
100
AcDbLine
 10
836.9128518455394
 20
675.5347692601515
 30
0.0
 11
1126.928502610363
 21
675.5347692601515
 31
0.0
1001
AcDbBlockRepETag
1070
     1
1071
       65
1005
510
  0
LINE
  5
511
330
29D
100
AcDbEntity
  8
图框
370
    -3
100
AcDbLine
 10
842.6237321475781
 20
675.5347692601515
 30
0.0
 11
842.6237321475781
 21
686.7901958362482
 31
0.0
1001
AcDbBlockRepETag
1070
     1
1071
       66
1005
511
  0
LINE
  5
512
330
29D
100
AcDbEntity
  8
图框
370
    -3
100
AcDbLine
 10
848.3346124496179
 20
675.5347692601515
 30
0.0
 11
848.3346124496179
 21
686.7901958362482
 31
0.0
1001
AcDbBlockRepETag
1070
     1
1071
       67
1005
512
  0
MTEXT
  5
513
102
{ACAD_XDICTIONARY
360
56F
102
}
330
29D
100
AcDbEntity
  8
图框
100
AcDbMText
 10
857.7903401027889
 20
686.7901958362482
 30
0.0
 40
1.958998408821398
 41
11.25542657609672
 46
7.489694702258906
 71
     4
 72
     5
  1
\pi2.6646;{\fSimSun|b0|i0|c134|p2;档案员\fFangSong_GB2312|b0|i0|c134|p49;\H0.7x;\P\pi1.4159;\Fromans|c134;Filing Clerk\fFangSong_GB2312|b0|i0|c134|p49; }
 11
-0.0000000000000002
 21
-1.0
 31
0.0
 73
     1
 44
1.0
1001
AcDbBlockRepETag
1070
     1
1071
       68
1005
513
1001
ACAD
1000
ACAD_MTEXT_DEFINED_HEIGHT_BEGIN
1070
    46
1040
7.489694702258906
1000
ACAD_MTEXT_DEFINED_HEIGHT_END
  0
MTEXT
  5
514
102
{ACAD_XDICTIONARY
360
571
102
}
330
29D
100
AcDbEntity
  8
图框
100
AcDbMText
 10
845.479172298598
 20
686.7901958362482
 30
0.0
 40
1.958998408821398
 41
11.25542657609672
 46
5.710880302039671
 71
     4
 72
     5
  1
\pi0.63465;{\fSimSun|b0|i0|c134|p2;日期\Fromans|c134;/Date}
 11
-0.0000000000000002
 21
-1.0
 31
0.0
 73
     1
 44
1.0
1001
AcDbBlockRepETag
1070
     1
1071
       69
1005
514
1001
ACAD
1000
ACAD_MTEXT_DEFINED_HEIGHT_BEGIN
1070
    46
1040
5.710880302039671
1000
ACAD_MTEXT_DEFINED_HEIGHT_END
  0
LINE
  5
515
330
29D
100
AcDbEntity
  8
图框
370
    -3
100
AcDbLine
 10
854.0454927516588
 20
675.5347692601515
 30
0.0
 11
854.0454927516588
 21
686.7901958362482
 31
0.0
1001
AcDbBlockRepETag
1070
     1
1071
       70
1005
515
  0
LINE
  5
516
330
29D
100
AcDbEntity
  8
图框
370
    -3
100
AcDbLine
 10
1036.653967466372
 20
531.3291676047914
 30
0.0
 11
1036.653967466372
 21
484.0126019753161
 31
0.0
1001
AcDbBlockRepETag
1070
     1
1071
       71
1005
516
  0
LINE
  5
517
330
29D
100
AcDbEntity
  8
图框
370
    -3
100
AcDbLine
 10
1047.483315900763
 20
507.6708838011533
 30
0.0
 11
1047.483315900763
 21
491.8986945987308
 31
0.0
1001
AcDbBlockRepETag
1070
     1
1071
       72
1005
517
  0
LINE
  5
518
330
29D
100
AcDbEntity
  8
图框
370
    -3
100
AcDbLine
 10
1058.312664335153
 20
507.6708838011533
 30
0.0
 11
1058.312664335153
 21
484.0347692601515
 31
0.0
1001
AcDbBlockRepETag
1070
     1
1071
       73
1005
518
  0
LINE
  5
519
330
29D
100
AcDbEntity
  8
图框
370
    25
100
AcDbLine
 10
1048.474135214456
 20
488.1095628329926
 30
0.0
 11
1054.946420288459
 21
488.1095628329926
 31
0.0
1001
AcDbBlockRepETag
1070
     1
1071
       74
1005
519
  0
LINE
  5
51A
330
29D
100
AcDbEntity
  8
图框
370
    25
100
AcDbLine
 10
1054.232527365989
 20
487.0761716842634
 30
0.0
 11
1049.156490914508
 21
486.4576273751
 31
0.0
1001
AcDbBlockRepETag
1070
     1
1071
       75
1005
51A
  0
LINE
  5
51B
330
29D
100
AcDbEntity
  8
图框
370
    25
100
AcDbLine
 10
1054.232527365989
 20
489.1429539817209
 30
0.0
 11
1049.156490914508
 21
489.7614982908846
 31
0.0
1001
AcDbBlockRepETag
1070
     1
1071
       76
1005
51B
  0
LINE
  5
51C
330
29D
100
AcDbEntity
  8
图框
370
    25
100
AcDbLine
 10
1049.156490914508
 20
489.7614982908846
 30
0.0
 11
1049.156490914508
 21
486.4576273751
 31
0.0
1001
AcDbBlockRepETag
1070
     1
1071
       77
1005
51C
  0
LINE
  5
51D
330
29D
100
AcDbEntity
  8
图框
370
    25
100
AcDbLine
 10
1054.232527365989
 20
489.1429539817209
 30
0.0
 11
1054.232527365989
 21
487.0761716842634
 31
0.0
1001
AcDbBlockRepETag
1070
     1
1071
       78
1005
51D
  0
CIRCLE
  5
51E
330
29D
100
AcDbEntity
  8
图框
370
    25
100
AcDbCircle
 10
1042.502700458579
 20
488.1095628329926
 30
0.0
 40
1.651935457891863
1001
AcDbBlockRepETag
1070
     1
1071
       79
1005
51E
  0
CIRCLE
  5
51F
330
29D
100
AcDbEntity
  8
图框
370
    25
100
AcDbCircle
 10
1042.502700458579
 20
488.1095628329926
 30
0.0
 40
1.033391148728775
1001
AcDbBlockRepETag
1070
     1
1071
       80
1005
51F
  0
LINE
  5
520
330
29D
100
AcDbEntity
  8
图框
370
    25
100
AcDbLine
 10
1040.136872078216
 20
488.1095628329926
 30
0.0
 11
1044.868528838943
 21
488.1095628329926
 31
0.0
1001
AcDbBlockRepETag
1070
     1
1071
       81
1005
520
  0
LINE
  5
521
330
29D
100
AcDbEntity
  8
图框
370
    25
100
AcDbLine
 10
1042.502700458579
 20
490.475391213355
 30
0.0
 11
1042.502700458579
 21
485.743734452629
 31
0.0
1001
AcDbBlockRepETag
1070
     1
1071
       82
1005
521
  0
LINE
  5
522
330
29D
100
AcDbEntity
  8
图框
370
    -3
100
AcDbLine
 10
1069.142012769546
 20
507.6708838011533
 30
0.0
 11
1069.142012769546
 21
491.8986945987308
 31
0.0
1001
AcDbBlockRepETag
1070
     1
1071
       83
1005
522
  0
MTEXT
  5
523
330
29D
100
AcDbEntity
  8
图框
100
AcDbMText
 10
1086.643735910939
 20
526.8006839312707
 30
0.0
 40
2.154898249703542
 41
13.34474941400573
 46
9.056967347041775
 71
     5
 72
     5
  1
图号{\Ftxt|c134;\P\Fromans|c134;\W0.65;Drawing No.}
 73
     1
 44
1.0
1001
AcDbBlockRepETag
1070
     1
1071
       84
1005
523
1001
ACAD
1000
ACAD_MTEXT_DEFINED_HEIGHT_BEGIN
1070
    46
1040
9.056967347041775
1000
ACAD_MTEXT_DEFINED_HEIGHT_END
  0
LINE
  5
524
330
29D
100
AcDbEntity
  8
图框
370
    -3
100
AcDbLine
 10
1093.316110617942
 20
531.3291676047914
 30
0.0
 11
1093.316110617942
 21
495.8417418993347
 31
0.0
1001
AcDbBlockRepETag
1070
     1
1071
       85
1005
524
  0
LINE
  5
525
330
29D
100
AcDbEntity
  8
图框
370
    -3
100
AcDbLine
 10
1047.473969770481
 20
531.3291676047914
 30
0.0
 11
1047.473969770481
 21
507.6708838011533
 31
0.0
1001
AcDbBlockRepETag
1070
     1
1071
       86
1005
525
  0
MTEXT
  5
526
330
29D
100
AcDbEntity
  8
图框
100
AcDbMText
 10
1063.72733855235
 20
503.7278365005473
 30
0.0
 40
2.252848170144607
 41
10.82934843439208
 46
7.886094601212128
 71
     5
 72
     5
  1
重量\P{\Fromans|c134;Weight}
 73
     1
 44
1.0
1001
AcDbBlockRepETag
1070
     1
1071
       87
1005
526
1001
ACAD
1000
ACAD_MTEXT_DEFINED_HEIGHT_BEGIN
1070
    46
1040
7.886094601212128
1000
ACAD_MTEXT_DEFINED_HEIGHT_END
  0
LINE
  5
527
330
29D
100
AcDbEntity
  8
图框
370
    -3
100
AcDbLine
 10
1036.653967466372
 20
519.5000257029746
 30
0.0
 11
1079.971361203936
 21
519.5000257029746
 31
0.0
1001
AcDbBlockRepETag
1070
     1
1071
       88
1005
527
  0
MTEXT
  5
528
330
29D
100
AcDbEntity
  8
图框
100
AcDbMText
 10
1074.556686986741
 20
503.7278365005473
 30
0.0
 40
2.252848170144607
 41
10.82934843438984
 46
7.886094601212141
 71
     5
 72
     5
  1
数量\P{\Fromans|c134;Qty.}
 73
     1
 44
1.0
1001
AcDbBlockRepETag
1070
     1
1071
       89
1005
528
1001
ACAD
1000
ACAD_MTEXT_DEFINED_HEIGHT_BEGIN
1070
    46
1040
7.886094601212141
1000
ACAD_MTEXT_DEFINED_HEIGHT_END
  0
LINE
  5
529
330
29D
100
AcDbEntity
  8
图框
370
    -3
100
AcDbLine
 10
1079.971361203936
 20
495.8417418993347
 30
0.0
 11
1126.928502610363
 21
495.8417418993342
 31
0.0
1001
AcDbBlockRepETag
1070
     1
1071
       90
1005
529
  0
LINE
  5
52A
330
29D
100
AcDbEntity
  8
图框
370
    -3
100
AcDbLine
 10
1079.971361203936
 20
504.7132992040975
 30
0.0
 11
1126.928502610363
 21
504.7132992040975
 31
0.0
1001
AcDbBlockRepETag
1070
     1
1071
       91
1005
52A
  0
MTEXT
  5
52B
330
29D
100
AcDbEntity
  8
图框
100
AcDbMText
 10
1052.893317052817
 20
503.7278365005473
 30
0.0
 40
2.252848170144607
 41
10.83869456467139
 46
7.886094601212101
 71
     5
 72
     5
  1
版本\P{\Fromans|c134;REV.}
 73
     1
 44
1.0
1001
AcDbBlockRepETag
1070
     1
1071
       92
1005
52B
1001
ACAD
1000
ACAD_MTEXT_DEFINED_HEIGHT_BEGIN
1070
    46
1040
7.886094601212101
1000
ACAD_MTEXT_DEFINED_HEIGHT_END
  0
MTEXT
  5
52C
330
29D
100
AcDbEntity
  8
图框
100
AcDbMText
 10
1042.068641683568
 20
503.7278365005473
 30
0.0
 40
2.252848170144607
 41
10.8293484343908
 46
7.886094601212136
 71
     5
 72
     5
  1
比例\P{\Fromans|c134;Scale}
 73
     1
 44
1.0
1001
AcDbBlockRepETag
1070
     1
1071
       93
1005
52C
1001
ACAD
1000
ACAD_MTEXT_DEFINED_HEIGHT_BEGIN
1070
    46
1040
7.886094601212136
1000
ACAD_MTEXT_DEFINED_HEIGHT_END
  0
LINE
  5
52D
330
29D
100
AcDbEntity
  8
图框
370
    -3
100
AcDbLine
 10
1036.653967466372
 20
507.6708838011533
 30
0.0
 11
1079.971361203936
 21
507.6708838011533
 31
0.0
1001
AcDbBlockRepETag
1070
     1
1071
       94
1005
52D
  0
LINE
  5
52E
330
29D
100
AcDbEntity
  8
图框
370
    -3
100
AcDbLine
 10
1036.653967466372
 20
491.8986945987308
 30
0.0
 11
1079.971361203936
 21
491.8986945987308
 31
0.0
1001
AcDbBlockRepETag
1070
     1
1071
       95
1005
52E
  0
LINE
  5
52F
330
29D
100
AcDbEntity
  8
图框
370
    -3
100
AcDbLine
 10
1079.971361203936
 20
531.3291676047914
 30
0.0
 11
1079.971361203936
 21
484.0125999975168
 31
0.0
1001
AcDbBlockRepETag
1070
     1
1071
       96
1005
52F
  0
MTEXT
  5
530
330
29D
100
AcDbEntity
  8
图框
100
AcDbMText
 10
1042.063968618426
 20
525.4145966538832
 30
0.0
 40
2.252848170144607
 41
10.82000230410933
 46
11.82914190181708
 71
     5
 72
     5
  1
表面处理\P{\Fromans|c134;Finish}
 73
     1
 44
1.0
1001
AcDbBlockRepETag
1070
     1
1071
       97
1005
530
1001
ACAD
1000
ACAD_MTEXT_DEFINED_HEIGHT_BEGIN
1070
    46
1040
11.82914190181708
1000
ACAD_MTEXT_DEFINED_HEIGHT_END
  0
MTEXT
  5
531
330
29D
100
AcDbEntity
  8
图框
100
AcDbMText
 10
1042.063968618426
 20
513.5854547520639
 30
0.0
 40
2.252848170144607
 41
10.82000230410933
 46
11.8291419018212
 71
     5
 72
     5
  1
材料\P{\Fromans|c134;Material}
 73
     1
 44
1.0
1001
AcDbBlockRepETag
1070
     1
1071
       98
1005
531
1001
ACAD
1000
ACAD_MTEXT_DEFINED_HEIGHT_BEGIN
1070
    46
1040
11.8291419018212
1000
ACAD_MTEXT_DEFINED_HEIGHT_END
  0
LINE
  5
532
330
29D
100
AcDbEntity
  8
图框
370
    -3
100
AcDbLine
 10
1079.971361203936
 20
522.27220025775
 30
0.0
 11
1126.928502610363
 21
522.27220025775
 31
0.0
1001
AcDbBlockRepETag
1070
     1
1071
       99
1005
532
  0
LINE
  5
533
330
29D
100
AcDbEntity
  8
图框
370
    -3
100
AcDbLine
 10
1079.971361203936
 20
513.5854547520641
 30
0.0
 11
1126.928502610363
 21
513.5854547520639
 31
0.0
1001
AcDbBlockRepETag
1070
     1
1071
      100
1005
533
  0
MTEXT
  5
534
330
29D
100
AcDbEntity
  8
图框
100
AcDbMText
 10
1086.643735910939
 20
517.9288275049072
 30
0.0
 40
1.958998408821398
 41
13.34474941400573
 46
8.686745505685811
 71
     5
 72
     5
  1
产品代号\P{\Fromans|c134;Part Code}
 73
     1
 44
1.0
1001
AcDbBlockRepETag
1070
     1
1071
      101
1005
534
1001
ACAD
1000
ACAD_MTEXT_DEFINED_HEIGHT_BEGIN
1070
    46
1040
8.686745505685811
1000
ACAD_MTEXT_DEFINED_HEIGHT_END
  0
LINE
  5
535
330
29D
100
AcDbEntity
  8
图框
370
    -3
100
AcDbLine
 10
946.9285026103634
 20
525.7982263931411
 30
0.0
 11
1036.653967466372
 21
525.7982263931411
 31
0.0
1001
AcDbBlockRepETag
1070
     1
1071
      102
1005
535
  0
LINE
  5
536
330
29D
100
AcDbEntity
  8
图框
370
    -3
100
AcDbLine
 10
946.9285026103634
 20
520.2672851814959
 30
0.0
 11
1036.653967466372
 21
520.2672851814959
 31
0.0
1001
AcDbBlockRepETag
1070
     1
1071
      103
1005
536
  0
LINE
  5
537
330
29D
100
AcDbEntity
  8
图框
370
    35
100
AcDbLine
 10
946.9285026103634
 20
531.3291676047914
 30
0.0
 11
1126.928502610363
 21
531.3291676047914
 31
0.0
1001
AcDbBlockRepETag
1070
     1
1071
      104
1005
537
  0
LINE
  5
538
330
29D
100
AcDbEntity
  8
图框
370
    -3
100
AcDbLine
 10
990.6727612856927
 20
509.2054027581959
 30
0.0
 11
990.6727612856927
 21
484.0347692601515
 31
0.0
1001
AcDbBlockRepETag
1070
     1
1071
      105
1005
538
  0
MTEXT
  5
539
102
{ACAD_XDICTIONARY
360
573
102
}
330
29D
100
AcDbEntity
  8
图框
100
AcDbMText
 10
997.1628169651232
 20
499.816589978722
 30
0.0
 40
2.252848170144607
 41
12.98011135886052
 46
6.19230880992475
 71
     5
 72
     5
  1
{\fSimSun|b0|i0|c134|p2;标准化}\PStand.
  7
Romans字体
 73
     1
 44
1.0
1001
AcDbBlockRepETag
1070
     1
1071
      106
1005
539
1001
ACAD
1000
ACAD_MTEXT_DEFINED_HEIGHT_BEGIN
1070
    46
1040
6.19230880992475
1000
ACAD_MTEXT_DEFINED_HEIGHT_END
  0
LINE
  5
53A
330
29D
100
AcDbEntity
  8
图框
370
    -3
100
AcDbLine
 10
975.4103773808022
 20
509.2054027581959
 30
0.0
 11
975.4103773808022
 21
484.0347692601515
 31
0.0
1001
AcDbBlockRepETag
1070
     1
1071
      107
1005
53A
  0
MTEXT
  5
53B
330
29D
100
AcDbEntity
  8
图框
100
AcDbMText
 10
984.5089229802068
 20
511.9708733640202
 30
0.0
 40
2.448748011026752
 41
38.287899328693
 46
5.530941211648832
 71
     5
 72
     5
  1
  变更描述{\Fromans|c134;/Description}
 73
     1
 44
1.0
1001
AcDbBlockRepETag
1070
     1
1071
      108
1005
53B
1001
ACAD
1000
ACAD_MTEXT_DEFINED_HEIGHT_BEGIN
1070
    46
1040
5.530941211648832
1000
ACAD_MTEXT_DEFINED_HEIGHT_END
  0
MTEXT
  5
53C
102
{ACAD_XDICTIONARY
360
575
102
}
330
29D
100
AcDbEntity
  8
图框
100
AcDbMText
 10
1012.466086049227
 20
511.9708733640202
 30
0.0
 40
1.958998408821398
 41
17.6264268093469
 46
5.530941211648825
 71
     5
 72
     5
  1
{\fSimSun|b0|i0|c134|p2;签名\P\Fromans|c134;Signature} 
 73
     1
 44
1.0
1001
AcDbBlockRepETag
1070
     1
1071
      109
1005
53C
1001
ACAD
1000
ACAD_MTEXT_DEFINED_HEIGHT_BEGIN
1070
    46
1040
5.530941211648825
1000
ACAD_MTEXT_DEFINED_HEIGHT_END
  0
MTEXT
  5
53D
102
{ACAD_XDICTIONARY
360
577
102
}
330
29D
100
AcDbEntity
  8
图框
100
AcDbMText
 10
960.7558556394856
 20
511.9708733640202
 30
0.0
 40
1.958998408821398
 41
9.218235352749283
 46
5.530941211648841
 71
     5
 72
     5
  1
{\fSimSun|b0|i0|c134|p2;处数\P\Fromans|c134;Number }
 73
     1
 44
1.0
1001
AcDbBlockRepETag
1070
     1
1071
      110
1005
53D
1001
ACAD
1000
ACAD_MTEXT_DEFINED_HEIGHT_BEGIN
1070
    46
1040
5.530941211648841
1000
ACAD_MTEXT_DEFINED_HEIGHT_END
  0
LINE
  5
53E
330
29D
100
AcDbEntity
  8
图框
370
    -3
100
AcDbLine
 10
946.9285026103634
 20
514.7363439698449
 30
0.0
 11
1036.653967466372
 21
514.7363439698449
 31
0.0
1001
AcDbBlockRepETag
1070
     1
1071
      111
1005
53E
  0
LINE
  5
53F
330
29D
100
AcDbEntity
  8
图框
370
    -3
100
AcDbLine
 10
946.9285026103634
 20
509.2054027581959
 30
0.0
 11
1036.653967466372
 21
509.2054027581959
 31
0.0
1001
AcDbBlockRepETag
1070
     1
1071
      112
1005
53F
  0
LINE
  5
540
330
29D
100
AcDbEntity
  8
图框
370
    -3
100
AcDbLine
 10
946.9285026103634
 20
502.9127443836848
 30
0.0
 11
1036.653967466372
 21
502.9127443836848
 31
0.0
1001
AcDbBlockRepETag
1070
     1
1071
      113
1005
540
  0
LINE
  5
541
330
29D
100
AcDbEntity
  8
图框
370
    -3
100
AcDbLine
 10
946.9285026103634
 20
496.620086009173
 30
0.0
 11
1036.653967466372
 21
496.620086009173
 31
0.0
1001
AcDbBlockRepETag
1070
     1
1071
      114
1005
541
  0
LINE
  5
542
330
29D
100
AcDbEntity
  8
图框
370
    35
380
     1
100
AcDbLine
 10
946.9285026103634
 20
531.3291676047914
 30
0.0
 11
946.9285026103634
 21
484.0347692601515
 31
0.0
1001
AcDbBlockRepETag
1070
     1
1071
      115
1005
542
  0
LINE
  5
543
330
29D
100
AcDbEntity
  8
图框
370
    -3
100
AcDbLine
 10
1021.301636813399
 20
531.3291676047914
 30
0.0
 11
1021.301636813399
 21
484.0347692601515
 31
0.0
1001
AcDbBlockRepETag
1070
     1
1071
      116
1005
543
  0
LINE
  5
544
330
29D
100
AcDbEntity
  8
图框
370
    -3
100
AcDbLine
 10
1003.652872644553
 20
531.3291676047914
 30
0.0
 11
1003.652872644553
 21
484.0347692601515
 31
0.0
1001
AcDbBlockRepETag
1070
     1
1071
      117
1005
544
  0
LINE
  5
545
330
29D
100
AcDbEntity
  8
图框
370
    -3
100
AcDbLine
 10
965.3649733158603
 20
531.3291676047914
 30
0.0
 11
965.3649733158603
 21
509.2054027581959
 31
0.0
1001
AcDbBlockRepETag
1070
     1
1071
      118
1005
545
  0
LINE
  5
546
330
29D
100
AcDbEntity
  8
图框
370
    -3
100
AcDbLine
 10
956.1467379631109
 20
531.3291676047914
 30
0.0
 11
956.1467379631109
 21
509.2054027581959
 31
0.0
1001
AcDbBlockRepETag
1070
     1
1071
      119
1005
546
  0
MTEXT
  5
547
102
{ACAD_XDICTIONARY
360
579
102
}
330
29D
100
AcDbEntity
  8
图框
100
AcDbMText
 10
951.537620286737
 20
511.9708733640202
 30
0.0
 40
1.958998408821398
 41
9.218235352747692
 46
5.530941211648832
 71
     5
 72
     5
  1
{\fSimSun|b0|i0|c134|p2;标记\P\Fromans|c134;Mark}
 73
     1
 44
1.0
1001
AcDbBlockRepETag
1070
     1
1071
      120
1005
547
1001
ACAD
1000
ACAD_MTEXT_DEFINED_HEIGHT_BEGIN
1070
    46
1040
5.530941211648832
1000
ACAD_MTEXT_DEFINED_HEIGHT_END
  0
MTEXT
  5
548
102
{ACAD_XDICTIONARY
360
57B
102
}
330
29D
100
AcDbEntity
  8
图框
100
AcDbMText
 10
953.4185582897936
 20
493.4737568219182
 30
0.0
 40
2.252848170144607
 41
12.98011135886041
 46
6.292658374510382
 71
     5
 72
     5
  1
{\fSimSun|b0|i0|c134|p2;审核\P\Fromans|c134;Checked}
 73
     1
 44
1.0
1001
AcDbBlockRepETag
1070
     1
1071
      121
1005
548
1001
ACAD
1000
ACAD_MTEXT_DEFINED_HEIGHT_BEGIN
1070
    46
1040
6.292658374510382
1000
ACAD_MTEXT_DEFINED_HEIGHT_END
  0
MTEXT
  5
549
102
{ACAD_XDICTIONARY
360
57D
102
}
330
29D
100
AcDbEntity
  8
图框
100
AcDbMText
 10
953.4185582897936
 20
499.8775635376777
 30
0.0
 40
2.252848170144607
 41
12.98011135886041
 46
6.070361692014189
 71
     5
 72
     5
  1
{\fSimSun|b0|i0|c134|p2;绘图\P\Fromans|c134;Drawn\Ftxt|c134; }
 73
     1
 44
1.0
1001
AcDbBlockRepETag
1070
     1
1071
      122
1005
549
1001
ACAD
1000
ACAD_MTEXT_DEFINED_HEIGHT_BEGIN
1070
    46
1040
6.070361692014189
1000
ACAD_MTEXT_DEFINED_HEIGHT_END
  0
ARC
  5
54A
330
29D
100
AcDbEntity
  8
图框
 62
     4
370
    35
100
AcDbCircle
 10
1086.900627017421
 20
490.0179944151195
 30
0.0
 40
4.063310408393665
100
AcDbArc
 50
18.95237904564806
 51
161.0476209543519
1001
AcDbBlockRepETag
1070
     1
1071
      123
1005
54A
  0
ARC
  5
54B
330
29D
100
AcDbEntity
  8
图框
 62
     4
370
    35
100
AcDbCircle
 10
1086.900627017421
 20
490.0179944151195
 30
0.0
 40
4.063310408393665
100
AcDbArc
 50
198.952379045648
 51
341.0476209543519
1001
AcDbBlockRepETag
1070
     1
1071
      124
1005
54B
  0
LINE
  5
54C
330
29D
100
AcDbEntity
  8
图框
 62
     4
370
    35
100
AcDbLine
 10
1083.057593369548
 20
488.6983035966752
 30
0.0
 11
1090.74366066529
 21
488.6983035966752
 31
0.0
1001
AcDbBlockRepETag
1070
     1
1071
      125
1005
54C
  0
LINE
  5
54D
330
29D
100
AcDbEntity
  8
图框
 62
     4
370
    35
100
AcDbLine
 10
1083.057593369548
 20
491.3376852335652
 30
0.0
 11
1090.74366066529
 21
491.3376852335652
 31
0.0
1001
AcDbBlockRepETag
1070
     1
1071
      126
1005
54D
  0
MTEXT
  5
54E
330
29D
100
AcDbEntity
  8
图框
 62
     1
370
    20
100
AcDbMText
 10
1083.034582879669
 20
491.0506288081688
 30
0.0
 40
2.005930044038334
 41
5.047240019334847
 46
0.0
 71
     1
 72
     5
  1
{\fArial|b0|i0|c0|p34;W}
  7
Chinese
 73
     1
 44
1.0
1001
AcDbBlockRepETag
1070
     1
1071
      127
1005
54E
  0
LINE
  5
54F
330
29D
100
AcDbEntity
  8
图框
370
    -3
100
AcDbLine
 10
946.9285026103634
 20
490.327427634663
 30
0.0
 11
1036.653967466372
 21
490.327427634663
 31
0.0
1001
AcDbBlockRepETag
1070
     1
1071
      128
1005
54F
  0
LINE
  5
550
330
29D
100
AcDbEntity
  8
图框
370
    -3
100
AcDbLine
 10
959.9086139692238
 20
509.2054027581959
 30
0.0
 11
959.9086139692238
 21
484.0347692601515
 31
0.0
1001
AcDbBlockRepETag
1070
     1
1071
      129
1005
550
  0
MTEXT
  5
551
330
29D
100
AcDbEntity
  8
图框
100
AcDbMText
 10
967.6594956750129
 20
506.0590735709403
 30
0.0
 40
2.252848170144607
 41
15.50176341157869
 46
6.292658374511246
 71
     5
 72
     5
  1
姓名{\Fromans|c134;/Name\Ftxt|c134; }
 73
     1
 44
1.0
1001
AcDbBlockRepETag
1070
     1
1071
      130
1005
551
1001
ACAD
1000
ACAD_MTEXT_DEFINED_HEIGHT_BEGIN
1070
    46
1040
6.292658374511246
1000
ACAD_MTEXT_DEFINED_HEIGHT_END
  0
MTEXT
  5
552
330
29D
100
AcDbEntity
  8
图框
100
AcDbMText
 10
983.0415693332477
 20
506.0590735709403
 30
0.0
 40
2.252848170144607
 41
15.26238390489042
 46
6.2926583745112
 71
     5
 72
     5
  1
日期{\Fromans|c134;/Date}
 73
     1
 44
1.0
1001
AcDbBlockRepETag
1070
     1
1071
      131
1005
552
1001
ACAD
1000
ACAD_MTEXT_DEFINED_HEIGHT_BEGIN
1070
    46
1040
6.2926583745112
1000
ACAD_MTEXT_DEFINED_HEIGHT_END
  0
LINE
  5
553
330
29D
100
AcDbEntity
  8
图框
370
    -3
100
AcDbLine
 10
946.9285026103634
 20
509.2054027581959
 30
0.0
 11
959.9086139692238
 21
502.9127443836848
 31
0.0
1001
AcDbBlockRepETag
1070
     1
1071
      132
1005
553
  0
MTEXT
  5
554
330
29D
100
AcDbEntity
  8
图框
100
AcDbMText
 10
1012.931405110086
 20
506.0185715840725
 30
0.0
 40
2.252848170144607
 41
16.93492221063566
 46
0.0
 71
     5
 72
     5
  1
姓名{\Fromans|c134;/Name}
 73
     1
 44
1.0
1001
AcDbBlockRepETag
1070
     1
1071
      133
1005
554
  0
MTEXT
  5
555
330
29D
100
AcDbEntity
  8
图框
100
AcDbMText
 10
1028.977802139886
 20
506.0590735709403
 30
0.0
 40
2.252848170144607
 41
15.35233065297283
 46
6.292658374511256
 71
     5
 72
     5
  1
日期{\Fromans|c134;/Date}
 73
     1
 44
1.0
1001
AcDbBlockRepETag
1070
     1
1071
      134
1005
555
1001
ACAD
1000
ACAD_MTEXT_DEFINED_HEIGHT_BEGIN
1070
    46
1040
6.292658374511256
1000
ACAD_MTEXT_DEFINED_HEIGHT_END
  0
LINE
  5
556
330
29D
100
AcDbEntity
  8
图框
370
    -3
100
AcDbLine
 10
1003.652872644553
 20
502.9127443836848
 30
0.0
 11
990.6727612856927
 21
509.2054027581959
 31
0.0
1001
AcDbBlockRepETag
1070
     1
1071
      135
1005
556
  0
MTEXT
  5
557
102
{ACAD_XDICTIONARY
360
57F
102
}
330
29D
100
AcDbEntity
  8
图框
100
AcDbMText
 10
997.1628169651232
 20
487.1810984474071
 30
0.0
 40
2.252848170144607
 41
12.98011135886052
 46
6.292658374511517
 71
     5
 72
     5
  1
{\fSimSun|b0|i0|c134|p2;批准\P\Fromans|c134;Approved}
 73
     1
 44
1.0
1001
AcDbBlockRepETag
1070
     1
1071
      136
1005
557
1001
ACAD
1000
ACAD_MTEXT_DEFINED_HEIGHT_BEGIN
1070
    46
1040
6.292658374511517
1000
ACAD_MTEXT_DEFINED_HEIGHT_END
  0
MTEXT
  5
558
102
{ACAD_XDICTIONARY
360
581
102
}
330
29D
100
AcDbEntity
  8
图框
100
AcDbMText
 10
953.4185582897936
 20
487.1810984474071
 30
0.0
 40
2.252848170144607
 41
12.98011135886041
 46
6.292658374511495
 71
     5
 72
     5
  1
{\fSimSun|b0|i0|c134|p2;工艺\P\Fromans|c134;Process}
 73
     1
 44
1.0
1001
AcDbBlockRepETag
1070
     1
1071
      137
1005
558
1001
ACAD
1000
ACAD_MTEXT_DEFINED_HEIGHT_BEGIN
1070
    46
1040
6.292658374511495
1000
ACAD_MTEXT_DEFINED_HEIGHT_END
  0
MTEXT
  5
559
102
{ACAD_XDICTIONARY
360
583
102
}
330
29D
100
AcDbEntity
  8
图框
100
AcDbMText
 10
1028.977802139886
 20
511.8287965307664
 30
0.0
 40
1.958998408821398
 41
15.3523306529728
 46
5.246787545140668
 71
     5
 72
     5
  1
{\fSimSun|b0|i0|c134|p2;日期\P\Fromans|c134;Date}
 73
     1
 44
1.0
1001
AcDbBlockRepETag
1070
     1
1071
      138
1005
559
1001
ACAD
1000
ACAD_MTEXT_DEFINED_HEIGHT_BEGIN
1070
    46
1040
5.246787545140668
1000
ACAD_MTEXT_DEFINED_HEIGHT_END
  0
MTEXT
  5
55A
330
29D
100
AcDbEntity
  8
图框
100
AcDbMText
 10
1086.643735910939
 20
509.1493769780809
 30
0.0
 40
2.154898249703542
 41
13.34474941400573
 46
8.87215554796615
 71
     5
 72
     5
  1
产品料号\P{\Fromans|c134;Part No.}
 73
     1
 44
1.0
1001
AcDbBlockRepETag
1070
     1
1071
      139
1005
55A
1001
ACAD
1000
ACAD_MTEXT_DEFINED_HEIGHT_BEGIN
1070
    46
1040
8.87215554796615
1000
ACAD_MTEXT_DEFINED_HEIGHT_END
  0
MTEXT
  5
55B
330
29D
100
AcDbEntity
  8
图框
100
AcDbMText
 10
1086.643735910939
 20
500.2775205517163
 30
0.0
 40
1.958998408821398
 41
13.34474941400573
 46
8.871557304763321
 71
     5
 72
     5
  1
产品名称\P{\Fromans|c134;Part Name}
 73
     1
 44
1.0
1001
AcDbBlockRepETag
1070
     1
1071
      140
1005
55B
1001
ACAD
1000
ACAD_MTEXT_DEFINED_HEIGHT_BEGIN
1070
    46
1040
8.871557304763321
1000
ACAD_MTEXT_DEFINED_HEIGHT_END
  0
LINE
  5
55C
330
29D
100
AcDbEntity
  8
图框
 62
     1
370
    18
100
AcDbLine
 10
833.4128518455365
 20
690.5347692601515
 30
0.0
 11
833.4128518455365
 21
480.5347692601515
 31
0.0
1001
AcDbBlockRepETag
1070
     1
1071
      141
1005
55C
  0
LINE
  5
55D
330
29D
100
AcDbEntity
  8
图框
 62
     1
370
    18
100
AcDbLine
 10
833.4128518455365
 20
480.5347692601515
 30
0.0
 11
1130.411601781236
 21
480.5347692601515
 31
0.0
1001
AcDbBlockRepETag
1070
     1
1071
      142
1005
55D
  0
LINE
  5
55E
330
29D
100
AcDbEntity
  8
图框
 62
     1
370
    18
100
AcDbLine
 10
833.4128518455365
 20
690.5347692601515
 30
0.0
 11
1130.411601781236
 21
690.5347692601515
 31
0.0
1001
AcDbBlockRepETag
1070
     1
1071
      143
1005
55E
  0
LINE
  5
55F
330
29D
100
AcDbEntity
  8
图框
 62
     1
370
    18
100
AcDbLine
 10
1130.411601781236
 20
480.5347692601515
 30
0.0
 11
1130.411601781236
 21
690.5347692601515
 31
0.0
1001
AcDbBlockRepETag
1070
     1
1071
      144
1005
55F
  0
LINE
  5
560
330
29D
100
AcDbEntity
  8
图框
370
    18
100
AcDbLine
 10
836.9128518455394
 20
686.7901958362482
 30
0.0
 11
861.5351874539182
 21
686.7901958362482
 31
0.0
1001
AcDbBlockRepETag
1070
     1
1071
      145
1005
560
  0
LINE
  5
561
330
29D
100
AcDbEntity
  8
图框
370
    50
100
AcDbLine
 10
1126.928502610363
 20
484.3410054693078
 30
0.0
 11
1126.928502610363
 21
675.5347692601515
 31
0.0
1001
AcDbBlockRepETag
1070
     1
1071
      146
1005
561
  0
MTEXT
  5
562
330
29D
100
AcDbEntity
  8
图框
 62
     3
100
AcDbMText
 10
1052.897990117958
 20
495.8417418993364
 30
0.0
 40
2.985513575034151
 41
10.82934843439114
 46
7.886094601211307
 71
     5
 72
     5
  1
V1.1
  7
Romans字体
 73
     1
 44
1.0
1001
AcDbBlockRepETag
1070
     1
1071
      147
1005
562
1001
ACAD
1000
ACAD_MTEXT_DEFINED_HEIGHT_BEGIN
1070
    46
1040
7.886094601211307
1000
ACAD_MTEXT_DEFINED_HEIGHT_END
  0
LINE
  5
563
330
29D
100
AcDbEntity
  8
图框
 62
     6
100
AcDbLine
 10
1126.911601781236
 20
531.714049199969
 30
0.0
 11
1130.411601781236
 21
531.714049199969
 31
0.0
1001
AcDbBlockRepETag
1070
     1
1071
      148
1005
563
  0
ENDBLK
  5
335
330
29D
100
AcDbEntity
  8
0
100
AcDbBlockEnd
  0
BLOCK
  5
348
330
347
100
AcDbEntity
  8
0
100
AcDbBlockBegin
  2
*D8
 70
     1
 10
0.0
 20
0.0
 30
0.0
  3
*D8
  1

  0
LINE
  5
392
330
347
100
AcDbEntity
  8
DIM
 62
     6
370
    -2
100
AcDbLine
 10
789.0281578695196
 20
210.8235810092606
 30
0.0
 11
787.1803748661719
 21
210.8235810092606
 31
0.0
  0
LINE
  5
393
330
347
100
AcDbEntity
  8
DIM
 62
     6
370
    -2
100
AcDbLine
 10
789.0281578695196
 20
209.8235810092602
 30
0.0
 11
787.1803748661719
 21
209.8235810092602
 31
0.0
  0
LINE
  5
394
330
347
100
AcDbEntity
  8
DIM
 62
     1
370
    -2
100
AcDbLine
 10
787.3803748661717
 20
211.6235810092606
 30
0.0
 11
787.3803748661717
 21
212.4235810092606
 31
0.0
  0
LINE
  5
395
330
347
100
AcDbEntity
  8
DIM
 62
     1
370
    -2
100
AcDbLine
 10
787.3803748661717
 20
209.0235810092602
 30
0.0
 11
787.3803748661717
 21
206.8592952949745
 31
0.0
  0
SOLID
  5
396
330
347
100
AcDbEntity
  8
DIM
 62
     1
100
AcDbTrace
 10
787.2470415328382
 20
211.6235810092606
 30
0.0
 11
787.5137081995053
 21
211.6235810092606
 31
0.0
 12
787.3803748661717
 22
210.8235810092606
 32
0.0
 13
787.3803748661717
 23
210.8235810092606
 33
0.0
  0
SOLID
  5
397
330
347
100
AcDbEntity
  8
DIM
 62
     1
100
AcDbTrace
 10
787.2470415328382
 20
209.0235810092602
 30
0.0
 11
787.5137081995053
 21
209.0235810092602
 31
0.0
 12
787.3803748661717
 22
209.8235810092602
 32
0.0
 13
787.3803748661717
 23
209.8235810092602
 33
0.0
  0
MTEXT
  5
398
330
347
100
AcDbEntity
  8
DIM
 62
     4
100
AcDbMText
 10
786.6803748661717
 20
207.5414381521175
 30
0.0
 40
1.0
 41
0.0
 46
0.0
 71
     5
 72
     1
  1
\A1;%%C1
  7
Romans字体
 11
0.0000000000000001
 21
1.0
 31
0.0
 73
     1
 44
1.0
  0
POINT
  5
399
330
347
100
AcDbEntity
  8
Defpoints
 62
     0
100
AcDbPoint
 10
789.2281578695198
 20
210.8235810092606
 30
0.0
  0
POINT
  5
39A
330
347
100
AcDbEntity
  8
Defpoints
 62
     0
100
AcDbPoint
 10
789.2281578695198
 20
209.8235810092602
 30
0.0
  0
POINT
  5
39B
330
347
100
AcDbEntity
  8
Defpoints
 62
     0
100
AcDbPoint
 10
787.3803748661717
 20
209.8235810092602
 30
0.0
  0
ENDBLK
  5
349
330
347
100
AcDbEntity
  8
0
100
AcDbBlockEnd
  0
BLOCK
  5
355
330
354
100
AcDbEntity
  8
0
100
AcDbBlockBegin
  2
*D9
 70
     1
 10
0.0
 20
0.0
 30
0.0
  3
*D9
  1

  0
LINE
  5
357
330
354
100
AcDbEntity
  8
DIM
 62
     6
370
    -2
100
AcDbLine
 10
803.4599960513533
 20
211.1985809006938
 30
0.0
 11
806.6990640739186
 21
211.1985809006938
 31
0.0
  0
LINE
  5
358
330
354
100
AcDbEntity
  8
DIM
 62
     6
370
    -2
100
AcDbLine
 10
803.4599960513533
 20
209.4485809006942
 30
0.0
 11
806.6990640739186
 21
209.4485809006942
 31
0.0
  0
LINE
  5
359
330
354
100
AcDbEntity
  8
DIM
 62
     1
370
    -2
100
AcDbLine
 10
806.4990640739186
 20
211.9985809006939
 30
0.0
 11
806.4990640739186
 21
212.7985809006938
 31
0.0
  0
LINE
  5
35A
330
354
100
AcDbEntity
  8
DIM
 62
     1
370
    -2
100
AcDbLine
 10
806.4990640739186
 20
208.6485809006942
 30
0.0
 11
806.4990640739186
 21
204.4842951864085
 31
0.0
  0
SOLID
  5
35B
330
354
100
AcDbEntity
  8
DIM
 62
     1
100
AcDbTrace
 10
806.3657307405851
 20
211.9985809006939
 30
0.0
 11
806.6323974072519
 21
211.9985809006939
 31
0.0
 12
806.4990640739186
 22
211.1985809006938
 32
0.0
 13
806.4990640739186
 23
211.1985809006938
 33
0.0
  0
SOLID
  5
35C
330
354
100
AcDbEntity
  8
DIM
 62
     1
100
AcDbTrace
 10
806.3657307405851
 20
208.6485809006942
 30
0.0
 11
806.6323974072519
 21
208.6485809006942
 31
0.0
 12
806.4990640739186
 22
209.4485809006942
 32
0.0
 13
806.4990640739186
 23
209.4485809006942
 33
0.0
  0
MTEXT
  5
35D
330
354
100
AcDbEntity
  8
DIM
 62
     4
100
AcDbMText
 10
805.7990640739186
 20
206.1664380435515
 30
0.0
 40
1.0
 41
0.0
 46
0.0
 71
     5
 72
     1
  1
\A1;%%C1.75
  7
Romans字体
 11
0.0000000000000001
 21
1.0
 31
0.0
 73
     1
 44
1.0
  0
POINT
  5
35E
330
354
100
AcDbEntity
  8
Defpoints
 62
     0
100
AcDbPoint
 10
803.2599960513532
 20
211.1985809006938
 30
0.0
  0
POINT
  5
35F
330
354
100
AcDbEntity
  8
Defpoints
 62
     0
100
AcDbPoint
 10
803.2599960513532
 20
209.4485809006942
 30
0.0
  0
POINT
  5
360
330
354
100
AcDbEntity
  8
Defpoints
 62
     0
100
AcDbPoint
 10
806.4990640739186
 20
209.4485809006942
 30
0.0
  0
ENDBLK
  5
356
330
354
100
AcDbEntity
  8
0
100
AcDbBlockEnd
  0
BLOCK
  5
362
330
361
100
AcDbEntity
  8
0
100
AcDbBlockBegin
  2
*D10
 70
     1
 10
0.0
 20
0.0
 30
0.0
  3
*D10
  1

  0
LINE
  5
364
330
361
100
AcDbEntity
  8
DIM
 62
     6
370
    -2
100
AcDbLine
 10
788.4599960688872
 20
210.5235810092601
 30
0.0
 11
788.4599960688872
 21
215.1663269407475
 31
0.0
  0
LINE
  5
365
330
361
100
AcDbEntity
  8
DIM
 62
     6
370
    -2
100
AcDbLine
 10
803.2599960513532
 20
211.3985809006938
 30
0.0
 11
803.2599960513532
 21
215.1663269407475
 31
0.0
  0
LINE
  5
366
330
361
100
AcDbEntity
  8
DIM
 62
     1
370
    -2
100
AcDbLine
 10
789.2599960688868
 20
214.9663269407474
 30
0.0
 11
802.4599960513533
 21
214.9663269407474
 31
0.0
  0
SOLID
  5
367
330
361
100
AcDbEntity
  8
DIM
 62
     1
100
AcDbTrace
 10
789.2599960688868
 20
215.0996602740808
 30
0.0
 11
789.2599960688868
 21
214.8329936074141
 31
0.0
 12
788.4599960688872
 22
214.9663269407474
 32
0.0
 13
788.4599960688872
 23
214.9663269407474
 33
0.0
  0
SOLID
  5
368
330
361
100
AcDbEntity
  8
DIM
 62
     1
100
AcDbTrace
 10
802.4599960513533
 20
215.0996602740808
 30
0.0
 11
802.4599960513533
 21
214.8329936074141
 31
0.0
 12
803.2599960513532
 22
214.9663269407474
 32
0.0
 13
803.2599960513532
 23
214.9663269407474
 33
0.0
  0
MTEXT
  5
369
330
361
100
AcDbEntity
  8
DIM
 62
     4
100
AcDbMText
 10
795.8599960601202
 20
215.6663269407474
 30
0.0
 40
1.0
 41
0.0
 46
0.0
 71
     5
 72
     1
  1
\A1;14.8
  7
Romans字体
 73
     1
 44
1.0
  0
POINT
  5
36A
330
361
100
AcDbEntity
  8
Defpoints
 62
     0
100
AcDbPoint
 10
788.4599960688872
 20
210.3235810092602
 30
0.0
  0
POINT
  5
36B
330
361
100
AcDbEntity
  8
Defpoints
 62
     0
100
AcDbPoint
 10
803.2599960513532
 20
211.1985809006938
 30
0.0
  0
POINT
  5
36C
330
361
100
AcDbEntity
  8
Defpoints
 62
     0
100
AcDbPoint
 10
803.2599960513532
 20
214.9663269407474
 30
0.0
  0
ENDBLK
  5
363
330
361
100
AcDbEntity
  8
0
100
AcDbBlockEnd
  0
BLOCK
  5
36E
330
36D
100
AcDbEntity
  8
0
100
AcDbBlockBegin
  2
*D11
 70
     1
 10
0.0
 20
0.0
 30
0.0
  3
*D11
  1

  0
LINE
  5
370
330
36D
100
AcDbEntity
  8
DIM
 62
     6
370
    -2
100
AcDbLine
 10
799.2599960513532
 20
211.1985810092603
 30
0.0
 11
799.2599960513532
 21
213.148737415255
 31
0.0
  0
LINE
  5
371
330
36D
100
AcDbEntity
  8
DIM
 62
     6
370
    -2
100
AcDbLine
 10
803.2599960513532
 20
211.7764566823223
 30
0.0
 11
803.2599960513532
 21
213.148737415255
 31
0.0
  0
LINE
  5
372
330
36D
100
AcDbEntity
  8
DIM
 62
     1
370
    -2
100
AcDbLine
 10
800.0599960513532
 20
212.948737415255
 30
0.0
 11
802.4599960513533
 21
212.948737415255
 31
0.0
  0
SOLID
  5
373
330
36D
100
AcDbEntity
  8
DIM
 62
     1
100
AcDbTrace
 10
800.0599960513532
 20
213.0820707485884
 30
0.0
 11
800.0599960513532
 21
212.8154040819217
 31
0.0
 12
799.2599960513532
 22
212.948737415255
 32
0.0
 13
799.2599960513532
 23
212.948737415255
 33
0.0
  0
SOLID
  5
374
330
36D
100
AcDbEntity
  8
DIM
 62
     1
100
AcDbTrace
 10
802.4599960513533
 20
213.0820707485884
 30
0.0
 11
802.4599960513533
 21
212.8154040819217
 31
0.0
 12
803.2599960513532
 22
212.948737415255
 32
0.0
 13
803.2599960513532
 23
212.948737415255
 33
0.0
  0
MTEXT
  5
375
330
36D
100
AcDbEntity
  8
DIM
 62
     4
100
AcDbMText
 10
801.2599960513533
 20
213.648737415255
 30
0.0
 40
1.0
 41
0.0
 46
0.0
 71
     5
 72
     1
  1
\A1;4
  7
Romans字体
 73
     1
 44
1.0
  0
POINT
  5
376
330
36D
100
AcDbEntity
  8
Defpoints
 62
     0
100
AcDbPoint
 10
799.2599960513532
 20
210.9985810092604
 30
0.0
  0
POINT
  5
377
330
36D
100
AcDbEntity
  8
Defpoints
 62
     0
100
AcDbPoint
 10
803.2599960513532
 20
211.5764566823223
 30
0.0
  0
POINT
  5
378
330
36D
100
AcDbEntity
  8
Defpoints
 62
     0
100
AcDbPoint
 10
803.2599960513532
 20
212.948737415255
 30
0.0
  0
ENDBLK
  5
36F
330
36D
100
AcDbEntity
  8
0
100
AcDbBlockEnd
  0
BLOCK
  5
37A
330
379
100
AcDbEntity
  8
0
100
AcDbBlockBegin
  2
*D12
 70
     1
 10
0.0
 20
0.0
 30
0.0
  3
*D12
  1

  0
LINE
  5
37C
330
379
100
AcDbEntity
  8
DIM
 62
     6
370
    -2
100
AcDbLine
 10
803.3099960513553
 20
210.9985810092599
 30
0.0
 11
805.0312666519802
 21
210.9985810092599
 31
0.0
  0
LINE
  5
37D
330
379
100
AcDbEntity
  8
DIM
 62
     6
370
    -2
100
AcDbLine
 10
803.3099960513553
 20
209.6485810092599
 30
0.0
 11
805.0312666519802
 21
209.6485810092599
 31
0.0
  0
LINE
  5
37E
330
379
100
AcDbEntity
  8
DIM
 62
     1
370
    -2
100
AcDbLine
 10
804.8312666519802
 20
211.7985810092601
 30
0.0
 11
804.8312666519802
 21
212.5985810092599
 31
0.0
  0
LINE
  5
37F
330
379
100
AcDbEntity
  8
DIM
 62
     1
370
    -2
100
AcDbLine
 10
804.8312666519802
 20
208.8485810092599
 30
0.0
 11
804.8312666519802
 21
204.6842952949742
 31
0.0
  0
SOLID
  5
380
330
379
100
AcDbEntity
  8
DIM
 62
     1
100
AcDbTrace
 10
804.6979333186467
 20
211.7985810092601
 30
0.0
 11
804.9645999853137
 21
211.7985810092601
 31
0.0
 12
804.8312666519802
 22
210.9985810092599
 32
0.0
 13
804.8312666519802
 23
210.9985810092599
 33
0.0
  0
SOLID
  5
381
330
379
100
AcDbEntity
  8
DIM
 62
     1
100
AcDbTrace
 10
804.6979333186467
 20
208.8485810092599
 30
0.0
 11
804.9645999853137
 21
208.8485810092599
 31
0.0
 12
804.8312666519802
 22
209.6485810092599
 32
0.0
 13
804.8312666519802
 23
209.6485810092599
 33
0.0
  0
MTEXT
  5
382
330
379
100
AcDbEntity
  8
DIM
 62
     4
100
AcDbMText
 10
804.1312666519802
 20
206.3664381521172
 30
0.0
 40
1.0
 41
0.0
 46
0.0
 71
     5
 72
     1
  1
\A1;%%C1.35
  7
Romans字体
 11
0.0000000000000001
 21
1.0
 31
0.0
 73
     1
 44
1.0
  0
POINT
  5
383
330
379
100
AcDbEntity
  8
Defpoints
 62
     0
100
AcDbPoint
 10
803.1099960513554
 20
210.9985810092599
 30
0.0
  0
POINT
  5
384
330
379
100
AcDbEntity
  8
Defpoints
 62
     0
100
AcDbPoint
 10
803.1099960513554
 20
209.6485810092599
 30
0.0
  0
POINT
  5
385
330
379
100
AcDbEntity
  8
Defpoints
 62
     0
100
AcDbPoint
 10
804.8312666519802
 20
209.6485810092599
 30
0.0
  0
ENDBLK
  5
37B
330
379
100
AcDbEntity
  8
0
100
AcDbBlockEnd
  0
BLOCK
  5
387
330
386
100
AcDbEntity
  8
0
100
AcDbBlockBegin
  2
*D13
 70
     1
 10
0.0
 20
0.0
 30
0.0
  3
*D13
  1

  0
LINE
  5
389
330
386
100
AcDbEntity
  8
DIM
 62
     6
370
    -2
100
AcDbLine
 10
788.4599960688872
 20
212.0743513121619
 30
0.0
 11
788.4599960688872
 21
213.148737415255
 31
0.0
  0
LINE
  5
38A
330
386
100
AcDbEntity
  8
DIM
 62
     6
370
    -2
100
AcDbLine
 10
796.6599960688857
 20
211.2735810092592
 30
0.0
 11
796.6599960688857
 21
213.148737415255
 31
0.0
  0
LINE
  5
38B
330
386
100
AcDbEntity
  8
DIM
 62
     1
370
    -2
100
AcDbLine
 10
789.2599960688868
 20
212.948737415255
 30
0.0
 11
795.8599960688858
 21
212.948737415255
 31
0.0
  0
SOLID
  5
38C
330
386
100
AcDbEntity
  8
DIM
 62
     1
100
AcDbTrace
 10
789.2599960688868
 20
213.0820707485884
 30
0.0
 11
789.2599960688868
 21
212.8154040819217
 31
0.0
 12
788.4599960688872
 22
212.948737415255
 32
0.0
 13
788.4599960688872
 23
212.948737415255
 33
0.0
  0
SOLID
  5
38D
330
386
100
AcDbEntity
  8
DIM
 62
     1
100
AcDbTrace
 10
795.8599960688858
 20
213.0820707485884
 30
0.0
 11
795.8599960688858
 21
212.8154040819217
 31
0.0
 12
796.6599960688857
 22
212.948737415255
 32
0.0
 13
796.6599960688857
 23
212.948737415255
 33
0.0
  0
MTEXT
  5
38E
330
386
100
AcDbEntity
  8
DIM
 62
     4
100
AcDbMText
 10
792.5599960688864
 20
213.648737415255
 30
0.0
 40
1.0
 41
0.0
 46
0.0
 71
     5
 72
     1
  1
\A1;8.23
  7
Romans字体
 73
     1
 44
1.0
  0
POINT
  5
38F
330
386
100
AcDbEntity
  8
Defpoints
 62
     0
100
AcDbPoint
 10
788.4599960688872
 20
211.8743513121617
 30
0.0
  0
POINT
  5
390
330
386
100
AcDbEntity
  8
Defpoints
 62
     0
100
AcDbPoint
 10
796.6599960688857
 20
211.0735810092593
 30
0.0
  0
POINT
  5
391
330
386
100
AcDbEntity
  8
Defpoints
 62
     0
100
AcDbPoint
 10
796.6599960688857
 20
212.948737415255
 30
0.0
  0
ENDBLK
  5
388
330
386
100
AcDbEntity
  8
0
100
AcDbBlockEnd
  0
ENDSEC
  0
SECTION
  2
ENTITIES
  0
HATCH
  5
16
330
2
100
AcDbEntity
  8
图层 1
 62
     7
100
AcDbHatch
 10
0.0
 20
0.0
 30
0.0
210
0.0
220
0.0
230
1.0
  2
SOLID
 70
     1
 71
     0
 91
        1
 92
        1
 93
        2
 72
     4
 94
        3
 73
     0
 74
     0
 95
       17
 96
       13
 40
0.0
 40
0.0
 40
0.0
 40
0.0
 40
0.3527780104152769
 40
0.3527780104152769
 40
0.3527780104152769
 40
0.7055560208305538
 40
0.7055560208305538
 40
0.7055560208305538
 40
1.058334031245828
 40
1.058334031245828
 40
1.058334031245828
 40
1.411112041661104
 40
1.411112041661104
 40
1.411112041661104
 40
1.411112041661104
 10
11.07013262565829
 20
29.50312817963231
 10
11.07013262565829
 20
29.50312817963231
 10
10.9431807732774
 20
29.50312817963231
 10
10.9431807732774
 20
29.50312817963231
 10
10.9431807732774
 20
29.50312817963231
 10
10.85843136843155
 20
29.22786486877117
 10
10.85843136843155
 20
29.22786486877117
 10
10.85843136843155
 20
29.22786486877117
 10
10.90080607085448
 20
29.2068497724476
 10
10.90080607085448
 20
29.2068497724476
 10
10.94455881238059
 20
29.31571486159919
 10
11.00346998404173
 20
29.40907701083995
 10
11.07013262565829
 20
29.50312817963231
 72
     1
 10
11.07013262565829
 20
29.50312817963231
 11
11.07013262565829
 21
29.50312817963231
 97
        0
 75
     0
 76
     1
 98
        0
450
        0
451
        0
460
0.0
461
0.0
452
        0
462
0.0
453
        0
470

  0
HATCH
  5
1A
330
2
100
AcDbEntity
  8
图层 1
 62
     7
100
AcDbHatch
 10
0.0
 20
0.0
 30
0.0
210
0.0
220
0.0
230
1.0
  2
SOLID
 70
     1
 71
     0
 91
        1
 92
        1
 93
        2
 72
     4
 94
        3
 73
     0
 74
     0
 95
       47
 96
       43
 40
0.0
 40
0.0
 40
0.0
 40
0.0
 40
0.3527780104152769
 40
0.3527780104152769
 40
0.3527780104152769
 40
0.7055560208305538
 40
0.7055560208305538
 40
0.7055560208305538
 40
1.058334031245828
 40
1.058334031245828
 40
1.058334031245828
 40
1.411112041661104
 40
1.411112041661104
 40
1.411112041661104
 40
1.763890052076384
 40
1.763890052076384
 40
1.763890052076384
 40
2.116668062491659
 40
2.116668062491659
 40
2.116668062491659
 40
2.469446072906936
 40
2.469446072906936
 40
2.469446072906936
 40
2.822224083322215
 40
2.822224083322215
 40
2.822224083322215
 40
3.175002093737492
 40
3.175002093737492
 40
3.175002093737492
 40
3.527780104152768
 40
3.527780104152768
 40
3.527780104152768
 40
3.880558114568044
 40
3.880558114568044
 40
3.880558114568044
 40
4.233336124983321
 40
4.233336124983321
 40
4.233336124983321
 40
4.586114135398599
 40
4.586114135398599
 40
4.586114135398599
 40
4.938892145813873
 40
4.938892145813873
 40
4.938892145813873
 40
4.938892145813873
 10
162.8986914070121
 20
257.4895347631509
 10
162.8986914070121
 20
257.4895347631509
 10
162.9200510131114
 20
257.4471600607279
 10
162.9200510131114
 20
257.4471600607279
 10
162.9200510131114
 20
257.4471600607279
 10
162.9200510131114
 20
257.404785358305
 10
162.9200510131114
 20
257.404785358305
 10
162.9200510131114
 20
257.404785358305
 10
162.8986914070121
 20
257.36258291077
 10
162.8986914070121
 20
257.36258291077
 10
162.8986914070121
 20
257.36258291077
 10
162.8986914070121
 20
257.320208208347
 10
162.8986914070121
 20
257.320208208347
 10
162.8986914070121
 20
257.320208208347
 10
162.8563167045891
 20
257.2990208571356
 10
162.8563167045891
 20
257.2990208571356
 10
162.8563167045891
 20
257.2990208571356
 10
162.8139420021662
 20
257.2563016449369
 10
162.8139420021662
 20
257.2563016449369
 10
162.8139420021662
 20
257.2563016449369
 10
162.7295371070961
 20
257.2563016449369
 10
162.7295371070961
 20
257.2563016449369
 10
162.7295371070961
 20
257.2563016449369
 10
162.6658027985738
 20
257.2778335059241
 10
162.6658027985738
 20
257.2778335059241
 10
162.6658027985738
 20
257.2778335059241
 10
162.6237726059267
 20
257.2990208571356
 10
162.6237726059267
 20
257.2990208571356
 10
162.6237726059267
 20
257.2990208571356
 10
162.5813979035038
 20
257.3413955595585
 10
162.5813979035038
 20
257.3413955595585
 10
162.5813979035038
 20
257.3413955595585
 10
162.5813979035038
 20
257.4895347631509
 10
162.5813979035038
 20
257.4895347631509
 10
162.5813979035038
 20
257.4895347631509
 10
162.6447877022503
 20
257.5525800521216
 10
162.6447877022503
 20
257.5525800521216
 10
162.6447877022503
 20
257.5525800521216
 10
162.7081775009967
 20
257.5525800521216
 10
162.7081775009967
 20
257.5525800521216
 10
162.8749202324821
 20
257.5424170137356
 10
162.7918933765152
 20
257.5939212252171
 10
162.8986914070121
 20
257.4895347631509
 72
     1
 10
162.8986914070121
 20
257.4895347631509
 11
162.8986914070121
 21
257.4895347631509
 97
        0
 75
     0
 76
     1
 98
        0
450
        0
451
        0
460
0.0
461
0.0
452
        0
462
0.0
453
        0
470

  0
HATCH
  5
1B
330
2
100
AcDbEntity
  8
图层 1
 62
     7
100
AcDbHatch
 10
0.0
 20
0.0
 30
0.0
210
0.0
220
0.0
230
1.0
  2
SOLID
 70
     1
 71
     0
 91
        1
 92
        1
 93
        2
 72
     4
 94
        3
 73
     0
 74
     0
 95
       56
 96
       52
 40
0.0
 40
0.0
 40
0.0
 40
0.0
 40
0.3527780104152769
 40
0.3527780104152769
 40
0.3527780104152769
 40
0.7055560208305538
 40
0.7055560208305538
 40
0.7055560208305538
 40
1.058334031245828
 40
1.058334031245828
 40
1.058334031245828
 40
1.411112041661104
 40
1.411112041661104
 40
1.411112041661104
 40
1.763890052076384
 40
1.763890052076384
 40
1.763890052076384
 40
2.116668062491659
 40
2.116668062491659
 40
2.116668062491659
 40
2.469446072906936
 40
2.469446072906936
 40
2.469446072906936
 40
2.822224083322215
 40
2.822224083322215
 40
2.822224083322215
 40
3.175002093737492
 40
3.175002093737492
 40
3.175002093737492
 40
3.527780104152768
 40
3.527780104152768
 40
3.527780104152768
 40
3.880558114568044
 40
3.880558114568044
 40
3.880558114568044
 40
4.233336124983321
 40
4.233336124983321
 40
4.233336124983321
 40
4.586114135398599
 40
4.586114135398599
 40
4.586114135398599
 40
4.938892145813873
 40
4.938892145813873
 40
4.938892145813873
 40
5.291670156229153
 40
5.291670156229153
 40
5.291670156229153
 40
5.64444816664443
 40
5.64444816664443
 40
5.64444816664443
 40
5.997226177059705
 40
5.997226177059705
 40
5.997226177059705
 40
5.997226177059705
 10
185.4837187788815
 20
241.4451977396596
 10
185.4837187788815
 20
241.4451977396596
 10
185.4837187788815
 20
241.4028230372367
 10
185.4837187788815
 20
241.4028230372367
 10
185.4837187788815
 20
241.4028230372367
 10
185.5047338752051
 20
241.3604483348137
 10
185.5047338752051
 20
241.3604483348137
 10
185.4520238795082
 20
241.2782827532863
 10
185.4671823096433
 20
241.1897437409066
 10
185.335579575289
 20
241.2119646214456
 10
185.335579575289
 20
241.2119646214456
 10
185.2932048728662
 20
241.2119646214456
 10
185.2932048728662
 20
241.2119646214456
 10
185.2932048728662
 20
241.2119646214456
 10
185.2294705643439
 20
241.2334964824328
 10
185.2294705643439
 20
241.2334964824328
 10
185.2294705643439
 20
241.2334964824328
 10
185.1660807655974
 20
241.2543393238685
 10
185.1660807655974
 20
241.2543393238685
 10
185.1660807655974
 20
241.2543393238685
 10
185.1450656692739
 20
241.2758711848558
 10
185.1450656692739
 20
241.2758711848558
 10
185.1450656692739
 20
241.2758711848558
 10
185.1450656692739
 20
241.2967140262914
 10
185.1450656692739
 20
241.2967140262914
 10
185.1450656692739
 20
241.2967140262914
 10
185.1237060631745
 20
241.3604483348137
 10
185.1237060631745
 20
241.3604483348137
 10
185.1237060631745
 20
241.3604483348137
 10
185.1237060631745
 20
241.4028230372367
 10
185.1237060631745
 20
241.4028230372367
 10
185.1237060631745
 20
241.4028230372367
 10
185.1660807655974
 20
241.4875724420825
 10
185.1660807655974
 20
241.4875724420825
 10
185.1660807655974
 20
241.4875724420825
 10
185.2084554680203
 20
241.5085875384061
 10
185.2084554680203
 20
241.5085875384061
 10
185.2084554680203
 20
241.5085875384061
 10
185.2718452667668
 20
241.5297748896175
 10
185.2718452667668
 20
241.5297748896175
 10
185.2718452667668
 20
241.5297748896175
 10
185.3565946716127
 20
241.5297748896175
 10
185.3565946716127
 20
241.5297748896175
 10
185.3565946716127
 20
241.5297748896175
 10
185.4199844703592
 20
241.5085875384061
 10
185.4199844703592
 20
241.5085875384061
 10
185.4199844703592
 20
241.5085875384061
 10
185.4623591727821
 20
241.4875724420825
 10
185.4623591727821
 20
241.4875724420825
 10
185.4623591727821
 20
241.4875724420825
 10
185.4837187788815
 20
241.4451977396596
 10
185.4837187788815
 20
241.4451977396596
 72
     1
 10
185.4837187788815
 20
241.4451977396596
 11
185.4837187788815
 21
241.4451977396596
 97
        0
 75
     0
 76
     1
 98
        0
450
        0
451
        0
460
0.0
461
0.0
452
        0
462
0.0
453
        0
470

  0
HATCH
  5
1C
330
2
100
AcDbEntity
  8
图层 1
 62
     7
100
AcDbHatch
 10
0.0
 20
0.0
 30
0.0
210
0.0
220
0.0
230
1.0
  2
SOLID
 70
     1
 71
     0
 91
        1
 92
        1
 93
        2
 72
     4
 94
        3
 73
     0
 74
     0
 95
       38
 96
       34
 40
0.0
 40
0.0
 40
0.0
 40
0.0
 40
0.3527780104152769
 40
0.3527780104152769
 40
0.3527780104152769
 40
0.7055560208305538
 40
0.7055560208305538
 40
0.7055560208305538
 40
1.058334031245828
 40
1.058334031245828
 40
1.058334031245828
 40
1.411112041661104
 40
1.411112041661104
 40
1.411112041661104
 40
1.763890052076384
 40
1.763890052076384
 40
1.763890052076384
 40
2.116668062491659
 40
2.116668062491659
 40
2.116668062491659
 40
2.469446072906936
 40
2.469446072906936
 40
2.469446072906936
 40
2.822224083322215
 40
2.822224083322215
 40
2.822224083322215
 40
3.175002093737492
 40
3.175002093737492
 40
3.175002093737492
 40
3.527780104152768
 40
3.527780104152768
 40
3.527780104152768
 40
3.880558114568044
 40
3.880558114568044
 40
3.880558114568044
 40
3.880558114568044
 10
185.907121293335
 20
220.1937677098971
 10
185.9005756075949
 20
220.0449394867532
 10
185.9329595265197
 20
220.1136691870245
 10
185.864746590912
 20
219.9817219428946
 10
185.864746590912
 20
219.9817219428946
 10
185.822371888489
 20
219.9605345916831
 10
185.822371888489
 20
219.9605345916831
 10
185.822371888489
 20
219.9605345916831
 10
185.6528730787974
 20
219.9605345916831
 10
185.6528730787974
 20
219.9605345916831
 10
185.6528730787974
 20
219.9605345916831
 10
185.5894832800509
 20
220.002909294106
 10
185.5894832800509
 20
220.002909294106
 10
185.5894832800509
 20
220.002909294106
 10
185.5681236739515
 20
220.0240966453175
 10
185.5681236739515
 20
220.0240966453175
 10
185.5681236739515
 20
220.0240966453175
 10
185.5681236739515
 20
220.045283996529
 10
185.5681236739515
 20
220.045283996529
 10
185.5681236739515
 20
220.045283996529
 10
185.547108577628
 20
220.0876586989519
 10
185.547108577628
 20
220.0876586989519
 10
185.547108577628
 20
220.0876586989519
 10
185.547108577628
 20
220.1513930074742
 10
185.547108577628
 20
220.1513930074742
 10
185.547108577628
 20
220.1513930074742
 10
185.5894832800509
 20
220.23614241232
 10
185.5894832800509
 20
220.23614241232
 10
185.5894832800509
 20
220.23614241232
 10
185.6318579824738
 20
220.2573297635315
 10
185.6318579824738
 20
220.2573297635315
 10
185.7055830744942
 20
220.2566407439799
 10
185.8416644359337
 20
220.3310548555519
 10
185.907121293335
 20
220.1937677098971
 72
     1
 10
185.907121293335
 20
220.1937677098971
 11
185.907121293335
 21
220.1937677098971
 97
        0
 75
     0
 76
     1
 98
        0
450
        0
451
        0
460
0.0
461
0.0
452
        0
462
0.0
453
        0
470

  0
HATCH
  5
1D
330
2
100
AcDbEntity
  8
图层 1
 62
     7
100
AcDbHatch
 10
0.0
 20
0.0
 30
0.0
210
0.0
220
0.0
230
1.0
  2
SOLID
 70
     1
 71
     0
 91
        1
 92
        1
 93
        2
 72
     4
 94
        3
 73
     0
 74
     0
 95
       50
 96
       46
 40
0.0
 40
0.0
 40
0.0
 40
0.0
 40
0.3527780104152769
 40
0.3527780104152769
 40
0.3527780104152769
 40
0.7055560208305538
 40
0.7055560208305538
 40
0.7055560208305538
 40
1.058334031245828
 40
1.058334031245828
 40
1.058334031245828
 40
1.411112041661104
 40
1.411112041661104
 40
1.411112041661104
 40
1.763890052076384
 40
1.763890052076384
 40
1.763890052076384
 40
2.116668062491659
 40
2.116668062491659
 40
2.116668062491659
 40
2.469446072906936
 40
2.469446072906936
 40
2.469446072906936
 40
2.822224083322215
 40
2.822224083322215
 40
2.822224083322215
 40
3.175002093737492
 40
3.175002093737492
 40
3.175002093737492
 40
3.527780104152768
 40
3.527780104152768
 40
3.527780104152768
 40
3.880558114568044
 40
3.880558114568044
 40
3.880558114568044
 40
4.233336124983321
 40
4.233336124983321
 40
4.233336124983321
 40
4.586114135398599
 40
4.586114135398599
 40
4.586114135398599
 40
4.938892145813873
 40
4.938892145813873
 40
4.938892145813873
 40
5.291670156229153
 40
5.291670156229153
 40
5.291670156229153
 40
5.291670156229153
 10
180.9117295442905
 20
208.9327766684477
 10
180.9117295442905
 20
208.9327766684477
 10
180.9117295442905
 20
208.7637946234197
 10
180.9117295442905
 20
208.7637946234197
 10
181.2273004989198
 20
208.6749111012643
 10
181.3833634273555
 20
208.6776671794706
 10
181.6948002646751
 20
208.5097186637701
 10
181.9542161258496
 20
208.4294478860095
 10
182.1388733656765
 20
208.2134402565853
 10
182.3297317814676
 20
208.02292635057
 10
182.3297317814676
 20
208.02292635057
 10
182.435496282637
 20
208.065301052993
 10
182.435496282637
 20
208.065301052993
 10
182.288390608372
 20
208.2733849575739
 10
182.3752070718726
 20
208.2134402565853
 10
182.1605774815516
 20
208.3824223016133
 10
182.1605774815516
 20
208.3824223016133
 10
182.1182027791287
 20
208.4247970040363
 10
182.1182027791287
 20
208.4247970040363
 10
182.1182027791287
 20
208.4247970040363
 10
182.0968431730294
 20
208.467516216235
 10
182.0968431730294
 20
208.467516216235
 10
182.0968431730294
 20
208.467516216235
 10
182.0544684706064
 20
208.4883590576707
 10
182.0544684706064
 20
208.4883590576707
 10
182.0544684706064
 20
208.4883590576707
 10
181.9910786718599
 20
208.5305615052057
 10
181.9910786718599
 20
208.5305615052057
 10
181.9910786718599
 20
208.5305615052057
 10
181.948703969437
 20
208.552093366193
 10
181.948703969437
 20
208.552093366193
 10
181.948703969437
 20
208.552093366193
 10
181.9063292670141
 20
208.5729362076286
 10
181.9063292670141
 20
208.5729362076286
 10
181.9063292670141
 20
208.5729362076286
 10
181.8639545645911
 20
208.6156554198274
 10
181.8639545645911
 20
208.6156554198274
 10
181.8639545645911
 20
208.6156554198274
 10
181.821924371944
 20
208.6368427710388
 10
181.821924371944
 20
208.6368427710388
 10
181.6637943848536
 20
208.6742220817127
 10
181.5452830219797
 20
208.8092699138248
 10
181.3771622513911
 20
208.8061693258427
 10
181.2803550043924
 20
208.8573290275484
 10
181.0126709085988
 20
208.8971199066528
 10
180.9117295442905
 20
208.9327766684477
 72
     1
 10
180.9117295442905
 20
208.9327766684477
 11
180.9117295442905
 21
208.9327766684477
 97
        0
 75
     0
 76
     1
 98
        0
450
        0
451
        0
460
0.0
461
0.0
452
        0
462
0.0
453
        0
470

  0
HATCH
  5
1E
330
2
100
AcDbEntity
  8
图层 1
 62
     7
100
AcDbHatch
 10
0.0
 20
0.0
 30
0.0
210
0.0
220
0.0
230
1.0
  2
SOLID
 70
     1
 71
     0
 91
        1
 92
        1
 93
        2
 72
     4
 94
        3
 73
     0
 74
     0
 95
       38
 96
       34
 40
0.0
 40
0.0
 40
0.0
 40
0.0
 40
0.3527780104152769
 40
0.3527780104152769
 40
0.3527780104152769
 40
0.7055560208305538
 40
0.7055560208305538
 40
0.7055560208305538
 40
1.058334031245828
 40
1.058334031245828
 40
1.058334031245828
 40
1.411112041661104
 40
1.411112041661104
 40
1.411112041661104
 40
1.763890052076384
 40
1.763890052076384
 40
1.763890052076384
 40
2.116668062491659
 40
2.116668062491659
 40
2.116668062491659
 40
2.469446072906936
 40
2.469446072906936
 40
2.469446072906936
 40
2.822224083322215
 40
2.822224083322215
 40
2.822224083322215
 40
3.175002093737492
 40
3.175002093737492
 40
3.175002093737492
 40
3.527780104152768
 40
3.527780104152768
 40
3.527780104152768
 40
3.880558114568044
 40
3.880558114568044
 40
3.880558114568044
 40
3.880558114568044
 10
189.145513185819
 20
166.8326485368285
 10
189.207869455238
 20
166.740492171803
 10
189.1317327947871
 20
166.6833035490209
 10
189.103138483396
 20
166.6209472796017
 10
189.103138483396
 20
166.6209472796017
 10
189.0607637809731
 20
166.5997599283903
 10
189.0607637809731
 20
166.5997599283903
 10
189.0607637809731
 20
166.5997599283903
 10
188.9973739822266
 20
166.5785725771788
 10
188.9973739822266
 20
166.5785725771788
 10
188.9973739822266
 20
166.5785725771788
 10
188.9549992798037
 20
166.5997599283903
 10
188.9549992798037
 20
166.5997599283903
 10
188.9549992798037
 20
166.5997599283903
 10
188.8916094810572
 20
166.5997599283903
 10
188.8916094810572
 20
166.5997599283903
 10
188.8916094810572
 20
166.5997599283903
 10
188.8492347786343
 20
166.6209472796017
 10
188.8492347786343
 20
166.6209472796017
 10
188.8492347786343
 20
166.6209472796017
 10
188.8278751725349
 20
166.6633219820247
 10
188.8278751725349
 20
166.6633219820247
 10
188.8278751725349
 20
166.6633219820247
 10
188.8068600762114
 20
166.6845093332361
 10
188.8068600762114
 20
166.6845093332361
 10
188.8068600762114
 20
166.6845093332361
 10
188.8068600762114
 20
166.8326485368285
 10
188.8068600762114
 20
166.8326485368285
 10
188.8068600762114
 20
166.8326485368285
 10
188.8702498749578
 20
166.896038335575
 10
188.8702498749578
 20
166.896038335575
 10
189.0228677056355
 20
166.8819134347673
 10
189.0686875058164
 20
166.9411691162043
 10
189.145513185819
 20
166.8326485368285
 72
     1
 10
189.145513185819
 20
166.8326485368285
 11
189.145513185819
 21
166.8326485368285
 97
        0
 75
     0
 76
     1
 98
        0
450
        0
451
        0
460
0.0
461
0.0
452
        0
462
0.0
453
        0
470

  0
HATCH
  5
1F
330
2
100
AcDbEntity
  8
图层 1
 62
     7
100
AcDbHatch
 10
0.0
 20
0.0
 30
0.0
210
0.0
220
0.0
230
1.0
  2
SOLID
 70
     1
 71
     0
 91
        1
 92
        1
 93
        2
 72
     4
 94
        3
 73
     0
 74
     0
 95
       68
 96
       64
 40
0.0
 40
0.0
 40
0.0
 40
0.0
 40
0.3527780104152769
 40
0.3527780104152769
 40
0.3527780104152769
 40
0.7055560208305538
 40
0.7055560208305538
 40
0.7055560208305538
 40
1.058334031245828
 40
1.058334031245828
 40
1.058334031245828
 40
1.411112041661104
 40
1.411112041661104
 40
1.411112041661104
 40
1.763890052076384
 40
1.763890052076384
 40
1.763890052076384
 40
2.116668062491659
 40
2.116668062491659
 40
2.116668062491659
 40
2.469446072906936
 40
2.469446072906936
 40
2.469446072906936
 40
2.822224083322215
 40
2.822224083322215
 40
2.822224083322215
 40
3.175002093737492
 40
3.175002093737492
 40
3.175002093737492
 40
3.527780104152768
 40
3.527780104152768
 40
3.527780104152768
 40
3.880558114568044
 40
3.880558114568044
 40
3.880558114568044
 40
4.233336124983321
 40
4.233336124983321
 40
4.233336124983321
 40
4.586114135398599
 40
4.586114135398599
 40
4.586114135398599
 40
4.938892145813873
 40
4.938892145813873
 40
4.938892145813873
 40
5.291670156229153
 40
5.291670156229153
 40
5.291670156229153
 40
5.64444816664443
 40
5.64444816664443
 40
5.64444816664443
 40
5.997226177059705
 40
5.997226177059705
 40
5.997226177059705
 40
6.350004187474984
 40
6.350004187474984
 40
6.350004187474984
 40
6.702782197890257
 40
6.702782197890257
 40
6.702782197890257
 40
7.055560208305537
 40
7.055560208305537
 40
7.055560208305537
 40
7.408338218720808
 40
7.408338218720808
 40
7.408338218720808
 40
7.408338218720808
 10
174.7732543591544
 20
135.4846705078077
 10
174.7732543591544
 20
135.4846705078077
 10
174.7732543591544
 20
135.3789060066383
 10
174.7732543591544
 20
135.3789060066383
 10
174.7732543591544
 20
135.3789060066383
 10
174.8156290615773
 20
135.3789060066383
 10
174.8156290615773
 20
135.3789060066383
 10
174.8156290615773
 20
135.3789060066383
 10
174.8580037640002
 20
135.3578909103147
 10
174.8580037640002
 20
135.3578909103147
 10
174.8580037640002
 20
135.3578909103147
 10
174.9213935627468
 20
135.3578909103147
 10
174.9213935627468
 20
135.3578909103147
 10
174.9213935627468
 20
135.3578909103147
 10
174.9637682651697
 20
135.3365313042154
 10
174.9637682651697
 20
135.3365313042154
 10
174.9637682651697
 20
135.3365313042154
 10
174.9847833614933
 20
135.3365313042154
 10
174.9847833614933
 20
135.3365313042154
 10
174.9847833614933
 20
135.3365313042154
 10
175.0271580639162
 20
135.3155162078918
 10
175.0271580639162
 20
135.3155162078918
 10
175.0271580639162
 20
135.3155162078918
 10
175.0485176700155
 20
135.2941566017924
 10
175.0485176700155
 20
135.2941566017924
 10
175.0485176700155
 20
135.2941566017924
 10
175.0695327663391
 20
135.2941566017924
 10
175.0695327663391
 20
135.2941566017924
 10
175.0695327663391
 20
135.2941566017924
 10
175.0908923724385
 20
135.2731415054689
 10
175.0908923724385
 20
135.2731415054689
 10
175.0908923724385
 20
135.2731415054689
 10
175.1332670748614
 20
135.2731415054689
 10
175.1332670748614
 20
135.2731415054689
 10
175.1332670748614
 20
135.2731415054689
 10
175.154282171185
 20
135.2517818993695
 10
175.154282171185
 20
135.2517818993695
 10
175.154282171185
 20
135.2517818993695
 10
175.154282171185
 20
135.3578909103147
 10
175.154282171185
 20
135.3578909103147
 10
175.154282171185
 20
135.3578909103147
 10
175.1332670748614
 20
135.3789060066383
 10
175.1332670748614
 20
135.3789060066383
 10
175.1332670748614
 20
135.3789060066383
 10
175.0908923724385
 20
135.3789060066383
 10
175.0908923724385
 20
135.3789060066383
 10
175.0908923724385
 20
135.3789060066383
 10
175.0908923724385
 20
135.3999211029619
 10
175.0908923724385
 20
135.3999211029619
 10
175.0908923724385
 20
135.3999211029619
 10
175.0695327663391
 20
135.3999211029619
 10
175.0695327663391
 20
135.3999211029619
 10
175.0695327663391
 20
135.3999211029619
 10
175.0271580639162
 20
135.4212807090612
 10
175.0271580639162
 20
135.4212807090612
 10
175.0271580639162
 20
135.4212807090612
 10
175.0061429675926
 20
135.4212807090612
 10
175.0061429675926
 20
135.4212807090612
 10
175.0061429675926
 20
135.4212807090612
 10
174.9637682651697
 20
135.4422958053848
 10
174.9637682651697
 20
135.4422958053848
 10
174.8996894468716
 20
135.4498750204523
 10
174.8394002361073
 20
135.4860485469109
 10
174.7732543591544
 20
135.4846705078077
 72
     1
 10
174.7732543591544
 20
135.4846705078077
 11
174.7732543591544
 21
135.4846705078077
 97
        0
 75
     0
 76
     1
 98
        0
450
        0
451
        0
460
0.0
461
0.0
452
        0
462
0.0
453
        0
470

  0
HATCH
  5
20
330
2
100
AcDbEntity
  8
图层 1
 62
     7
100
AcDbHatch
 10
0.0
 20
0.0
 30
0.0
210
0.0
220
0.0
230
1.0
  2
SOLID
 70
     1
 71
     0
 91
        1
 92
        1
 93
        2
 72
     4
 94
        3
 73
     0
 74
     0
 95
       29
 96
       25
 40
0.0
 40
0.0
 40
0.0
 40
0.0
 40
0.3527780104152769
 40
0.3527780104152769
 40
0.3527780104152769
 40
0.7055560208305538
 40
0.7055560208305538
 40
0.7055560208305538
 40
1.058334031245828
 40
1.058334031245828
 40
1.058334031245828
 40
1.411112041661104
 40
1.411112041661104
 40
1.411112041661104
 40
1.763890052076384
 40
1.763890052076384
 40
1.763890052076384
 40
2.116668062491659
 40
2.116668062491659
 40
2.116668062491659
 40
2.469446072906936
 40
2.469446072906936
 40
2.469446072906936
 40
2.822224083322215
 40
2.822224083322215
 40
2.822224083322215
 40
2.822224083322215
 10
175.4929352807925
 20
164.0174869039101
 10
175.4929352807925
 20
164.0174869039101
 10
175.5139503771161
 20
163.9751122014871
 10
175.5139503771161
 20
163.9751122014871
 10
175.5139503771161
 20
163.9751122014871
 10
175.5139503771161
 20
163.9327374990642
 10
175.5139503771161
 20
163.9327374990642
 10
175.5139503771161
 20
163.9327374990642
 10
175.4929352807925
 20
163.8903627966413
 10
175.4929352807925
 20
163.8903627966413
 10
175.4929352807925
 20
163.8903627966413
 10
175.471920184469
 20
163.8691754454298
 10
175.471920184469
 20
163.8691754454298
 10
175.471920184469
 20
163.8691754454298
 10
175.4505605783696
 20
163.8269729978948
 10
175.4505605783696
 20
163.8269729978948
 10
175.3571984291289
 20
163.7715069239916
 10
175.272449024283
 20
163.8195660377152
 10
175.1966568736079
 20
163.8691754454298
 10
175.208370205985
 20
163.9930267098286
 10
175.1563492298397
 20
164.0216210212197
 10
175.2600466723544
 20
164.0596893514451
 10
175.3330827448232
 20
164.1094710140476
 10
175.4357466580104
 20
164.0753645462439
 10
175.4929352807925
 20
164.0174869039101
 72
     1
 10
175.4929352807925
 20
164.0174869039101
 11
175.4929352807925
 21
164.0174869039101
 97
        0
 75
     0
 76
     1
 98
        0
450
        0
451
        0
460
0.0
461
0.0
452
        0
462
0.0
453
        0
470

  0
HATCH
  5
21
330
2
100
AcDbEntity
  8
图层 1
 62
     7
100
AcDbHatch
 10
0.0
 20
0.0
 30
0.0
210
0.0
220
0.0
230
1.0
  2
SOLID
 70
     1
 71
     0
 91
        1
 92
        1
 93
        2
 72
     4
 94
        3
 73
     0
 74
     0
 95
       11
 96
        7
 40
0.0
 40
0.0
 40
0.0
 40
0.0
 40
0.3527780104152769
 40
0.3527780104152769
 40
0.3527780104152769
 40
0.7055560208305538
 40
0.7055560208305538
 40
0.7055560208305538
 40
0.7055560208305538
 10
174.9213935627468
 20
174.5369206529582
 10
174.9213935627468
 20
174.5369206529582
 10
174.9213935627468
 20
174.3043765542958
 10
174.9213935627468
 20
174.3043765542958
 10
174.9213935627468
 20
174.3043765542958
 10
174.9213935627468
 20
174.5369206529582
 10
174.9213935627468
 20
174.5369206529582
 72
     1
 10
174.9213935627468
 20
174.5369206529582
 11
174.9213935627468
 21
174.5369206529582
 97
        0
 75
     0
 76
     1
 98
        0
450
        0
451
        0
460
0.0
461
0.0
452
        0
462
0.0
453
        0
470

  0
HATCH
  5
22
330
2
100
AcDbEntity
  8
图层 1
 62
     7
100
AcDbHatch
 10
0.0
 20
0.0
 30
0.0
210
0.0
220
0.0
230
1.0
  2
SOLID
 70
     1
 71
     0
 91
        1
 92
        1
 93
        2
 72
     4
 94
        3
 73
     0
 74
     0
 95
      131
 96
      127
 40
0.0
 40
0.0
 40
0.0
 40
0.0
 40
0.3527780104152769
 40
0.3527780104152769
 40
0.3527780104152769
 40
0.7055560208305538
 40
0.7055560208305538
 40
0.7055560208305538
 40
1.058334031245828
 40
1.058334031245828
 40
1.058334031245828
 40
1.411112041661104
 40
1.411112041661104
 40
1.411112041661104
 40
1.763890052076384
 40
1.763890052076384
 40
1.763890052076384
 40
2.116668062491659
 40
2.116668062491659
 40
2.116668062491659
 40
2.469446072906936
 40
2.469446072906936
 40
2.469446072906936
 40
2.822224083322215
 40
2.822224083322215
 40
2.822224083322215
 40
3.175002093737492
 40
3.175002093737492
 40
3.175002093737492
 40
3.527780104152768
 40
3.527780104152768
 40
3.527780104152768
 40
3.880558114568044
 40
3.880558114568044
 40
3.880558114568044
 40
4.233336124983321
 40
4.233336124983321
 40
4.233336124983321
 40
4.586114135398599
 40
4.586114135398599
 40
4.586114135398599
 40
4.938892145813873
 40
4.938892145813873
 40
4.938892145813873
 40
5.291670156229153
 40
5.291670156229153
 40
5.291670156229153
 40
5.64444816664443
 40
5.64444816664443
 40
5.64444816664443
 40
5.997226177059705
 40
5.997226177059705
 40
5.997226177059705
 40
6.350004187474984
 40
6.350004187474984
 40
6.350004187474984
 40
6.702782197890257
 40
6.702782197890257
 40
6.702782197890257
 40
7.055560208305537
 40
7.055560208305537
 40
7.055560208305537
 40
7.408338218720808
 40
7.408338218720808
 40
7.408338218720808
 40
7.76111622913609
 40
7.76111622913609
 40
7.76111622913609
 40
8.113894239551369
 40
8.113894239551369
 40
8.113894239551369
 40
8.466672249966642
 40
8.466672249966642
 40
8.466672249966642
 40
8.819450260381922
 40
8.819450260381922
 40
8.819450260381922
 40
9.172228270797198
 40
9.172228270797198
 40
9.172228270797198
 40
9.525006281212476
 40
9.525006281212476
 40
9.525006281212476
 40
9.877784291627751
 40
9.877784291627751
 40
9.877784291627751
 40
10.23056230204303
 40
10.23056230204303
 40
10.23056230204303
 40
10.58334031245831
 40
10.58334031245831
 40
10.58334031245831
 40
10.93611832287358
 40
10.93611832287358
 40
10.93611832287358
 40
11.28889633328886
 40
11.28889633328886
 40
11.28889633328886
 40
11.64167434370414
 40
11.64167434370414
 40
11.64167434370414
 40
11.99445235411941
 40
11.99445235411941
 40
11.99445235411941
 40
12.34723036453469
 40
12.34723036453469
 40
12.34723036453469
 40
12.70000837494997
 40
12.70000837494997
 40
12.70000837494997
 40
13.05278638536524
 40
13.05278638536524
 40
13.05278638536524
 40
13.40556439578052
 40
13.40556439578052
 40
13.40556439578052
 40
13.7583424061958
 40
13.7583424061958
 40
13.7583424061958
 40
14.11112041661107
 40
14.11112041661107
 40
14.11112041661107
 40
14.46389842702635
 40
14.46389842702635
 40
14.46389842702635
 40
14.81667643744163
 40
14.81667643744163
 40
14.81667643744163
 40
14.81667643744163
 10
173.3972823146245
 20
126.8274843518258
 10
173.3972823146245
 20
126.8274843518258
 10
173.3972823146245
 20
126.7217198506564
 10
173.3972823146245
 20
126.7217198506564
 10
173.3972823146245
 20
126.7217198506564
 10
173.4186419207238
 20
126.7217198506564
 10
173.4186419207238
 20
126.7217198506564
 10
173.4186419207238
 20
126.7217198506564
 10
173.4820317194703
 20
126.7007047543328
 10
173.4820317194703
 20
126.7007047543328
 10
173.4820317194703
 20
126.7007047543328
 10
173.5244064218933
 20
126.6793451482334
 10
173.5244064218933
 20
126.6793451482334
 10
173.5244064218933
 20
126.6793451482334
 10
173.5877962206398
 20
126.6793451482334
 10
173.5877962206398
 20
126.6793451482334
 10
173.5877962206398
 20
126.6793451482334
 10
173.6301709230627
 20
126.6583300519099
 10
173.6301709230627
 20
126.6583300519099
 10
173.7955356154449
 20
126.5911506456296
 10
173.759706598762
 20
126.6380039751379
 10
173.9478089363468
 20
126.5525655507404
 10
173.9478089363468
 20
126.5525655507404
 10
173.9688240326703
 20
126.4464565397952
 10
173.9688240326703
 20
126.4464565397952
 10
173.9688240326703
 20
126.4464565397952
 10
174.0325583411926
 20
126.5101908483175
 10
174.0325583411926
 20
126.5101908483175
 10
174.0325583411926
 20
126.5101908483175
 10
174.0749330436156
 20
126.5101908483175
 10
174.0749330436156
 20
126.5101908483175
 10
174.0749330436156
 20
126.5101908483175
 10
174.1593379386856
 20
126.4678161458946
 10
174.1593379386856
 20
126.4678161458946
 10
174.1593379386856
 20
126.4678161458946
 10
174.180697544785
 20
126.4464565397952
 10
174.180697544785
 20
126.4464565397952
 10
174.2464989119621
 20
126.3982251711837
 10
174.3298702777047
 20
126.3716979184474
 10
174.3922265471239
 20
126.3196769423022
 10
174.608234176548
 20
126.2059887162895
 10
174.7749769080334
 20
126.0278771622029
 10
174.9637682651697
 20
125.8749148217494
 10
174.9637682651697
 20
125.8749148217494
 10
175.0061429675926
 20
125.9172895241723
 10
175.0061429675926
 20
125.9172895241723
 10
174.961356696739
 20
125.9631093243532
 10
174.782211613325
 20
126.1246844092016
 10
174.7308796567315
 20
126.1501781326105
 10
174.7308796567315
 20
126.1501781326105
 10
174.6885049543085
 20
126.1925528350335
 10
174.6885049543085
 20
126.1925528350335
 10
174.6885049543085
 20
126.1925528350335
 10
174.667489857985
 20
126.2349275374564
 10
174.667489857985
 20
126.2349275374564
 10
174.667489857985
 20
126.2349275374564
 10
174.625115155562
 20
126.2559426337799
 10
174.625115155562
 20
126.2559426337799
 10
174.625115155562
 20
126.2559426337799
 10
174.5827404531391
 20
126.2983173362029
 10
174.5827404531391
 20
126.2983173362029
 10
174.5827404531391
 20
126.2983173362029
 10
174.5403657507162
 20
126.3196769423022
 10
174.5403657507162
 20
126.3196769423022
 10
174.5403657507162
 20
126.3196769423022
 10
174.4979910482932
 20
126.3620516447252
 10
174.4979910482932
 20
126.3620516447252
 10
174.4735308542117
 20
126.3875453681341
 10
174.3247026310678
 20
126.4695386947736
 10
174.2864620459544
 20
126.4888312422181
 10
174.2864620459544
 20
126.4888312422181
 10
174.2654469496308
 20
126.5101908483175
 10
174.2654469496308
 20
126.5101908483175
 10
174.2654469496308
 20
126.5101908483175
 10
174.2230722472079
 20
126.5312059446411
 10
174.2230722472079
 20
126.5312059446411
 10
174.2230722472079
 20
126.5312059446411
 10
174.2017126411085
 20
126.5525655507404
 10
174.2017126411085
 20
126.5525655507404
 10
174.2017126411085
 20
126.5525655507404
 10
174.1383228423621
 20
126.573580647064
 10
174.1383228423621
 20
126.573580647064
 10
174.1383228423621
 20
126.573580647064
 10
174.1169632362627
 20
126.5945957433876
 10
174.1169632362627
 20
126.5945957433876
 10
174.1169632362627
 20
126.5945957433876
 10
174.0959481399391
 20
126.7007047543328
 10
174.0959481399391
 20
126.7007047543328
 10
174.0959481399391
 20
126.7007047543328
 10
174.0325583411926
 20
126.6369704458105
 10
174.0325583411926
 20
126.6369704458105
 10
174.0325583411926
 20
126.6369704458105
 10
173.9901836387697
 20
126.6369704458105
 10
173.9901836387697
 20
126.6369704458105
 10
173.9901836387697
 20
126.6369704458105
 10
173.9054342339239
 20
126.6793451482334
 10
173.9054342339239
 20
126.6793451482334
 10
173.9054342339239
 20
126.6793451482334
 10
173.8420444351773
 20
126.7007047543328
 10
173.8420444351773
 20
126.7007047543328
 10
173.8420444351773
 20
126.7007047543328
 10
173.7996697327544
 20
126.7217198506564
 10
173.7996697327544
 20
126.7217198506564
 10
173.7996697327544
 20
126.7217198506564
 10
173.7572950303315
 20
126.7217198506564
 10
173.7572950303315
 20
126.7217198506564
 10
173.7572950303315
 20
126.7217198506564
 10
173.6725456254856
 20
126.7640945530793
 10
173.6725456254856
 20
126.7640945530793
 10
173.6725456254856
 20
126.7640945530793
 10
173.6515305291621
 20
126.7640945530793
 10
173.6515305291621
 20
126.7640945530793
 10
173.6515305291621
 20
126.7640945530793
 10
173.5667811243162
 20
126.7851096494029
 10
173.5667811243162
 20
126.7851096494029
 10
173.5667811243162
 20
126.7851096494029
 10
173.5033913255697
 20
126.8064692555022
 10
173.5033913255697
 20
126.8064692555022
 10
173.5033913255697
 20
126.8064692555022
 10
173.4396570170474
 20
126.8064692555022
 10
173.4396570170474
 20
126.8064692555022
 10
173.4396570170474
 20
126.8064692555022
 10
173.4186419207238
 20
126.8274843518258
 10
173.4186419207238
 20
126.8274843518258
 10
173.4186419207238
 20
126.8274843518258
 10
173.3972823146245
 20
126.8274843518258
 10
173.3972823146245
 20
126.8274843518258
 72
     1
 10
173.3972823146245
 20
126.8274843518258
 11
173.3972823146245
 21
126.8274843518258
 97
        0
 75
     0
 76
     1
 98
        0
450
        0
451
        0
460
0.0
461
0.0
452
        0
462
0.0
453
        0
470

  0
HATCH
  5
23
330
2
100
AcDbEntity
  8
图层 1
 62
     7
100
AcDbHatch
 10
0.0
 20
0.0
 30
0.0
210
0.0
220
0.0
230
1.0
  2
SOLID
 70
     1
 71
     0
 91
        1
 92
        1
 93
        2
 72
     4
 94
        3
 73
     0
 74
     0
 95
       47
 96
       43
 40
0.0
 40
0.0
 40
0.0
 40
0.0
 40
0.3527780104152769
 40
0.3527780104152769
 40
0.3527780104152769
 40
0.7055560208305538
 40
0.7055560208305538
 40
0.7055560208305538
 40
1.058334031245828
 40
1.058334031245828
 40
1.058334031245828
 40
1.411112041661104
 40
1.411112041661104
 40
1.411112041661104
 40
1.763890052076384
 40
1.763890052076384
 40
1.763890052076384
 40
2.116668062491659
 40
2.116668062491659
 40
2.116668062491659
 40
2.469446072906936
 40
2.469446072906936
 40
2.469446072906936
 40
2.822224083322215
 40
2.822224083322215
 40
2.822224083322215
 40
3.175002093737492
 40
3.175002093737492
 40
3.175002093737492
 40
3.527780104152768
 40
3.527780104152768
 40
3.527780104152768
 40
3.880558114568044
 40
3.880558114568044
 40
3.880558114568044
 40
4.233336124983321
 40
4.233336124983321
 40
4.233336124983321
 40
4.586114135398599
 40
4.586114135398599
 40
4.586114135398599
 40
4.938892145813873
 40
4.938892145813873
 40
4.938892145813873
 40
4.938892145813873
 10
180.1920486226523
 20
255.6479577566324
 10
180.1920486226523
 20
255.6479577566324
 10
180.2130637189759
 20
255.6055830542095
 10
180.2130637189759
 20
255.6055830542095
 10
180.2130637189759
 20
255.6055830542095
 10
180.2130637189759
 20
255.5210059042515
 10
180.2130637189759
 20
255.5210059042515
 10
180.2130637189759
 20
255.5210059042515
 10
180.1920486226523
 20
255.4786312018286
 10
180.1920486226523
 20
255.4786312018286
 10
180.1920486226523
 20
255.4786312018286
 10
180.1496739202294
 20
255.4359119896299
 10
180.1496739202294
 20
255.4359119896299
 10
180.1496739202294
 20
255.4359119896299
 10
180.1283143141301
 20
255.4147246384184
 10
180.1283143141301
 20
255.4147246384184
 10
180.1283143141301
 20
255.4147246384184
 10
180.0225498129606
 20
255.4147246384184
 10
180.0225498129606
 20
255.4147246384184
 10
180.0225498129606
 20
255.4147246384184
 10
179.9591600142141
 20
255.4359119896299
 10
179.9591600142141
 20
255.4359119896299
 10
179.9591600142141
 20
255.4359119896299
 10
179.9167853117912
 20
255.4570993408414
 10
179.9167853117912
 20
255.4570993408414
 10
179.9167853117912
 20
255.4570993408414
 10
179.8957702154676
 20
255.4786312018286
 10
179.8957702154676
 20
255.4786312018286
 10
179.8957702154676
 20
255.4786312018286
 10
179.8744106093683
 20
255.4994740432643
 10
179.8744106093683
 20
255.4994740432643
 10
179.8744106093683
 20
255.4994740432643
 10
179.8744106093683
 20
255.6479577566324
 10
179.8744106093683
 20
255.6479577566324
 10
179.9608825630931
 20
255.7323626517025
 10
180.045631967939
 20
255.7085914771726
 10
180.1496739202294
 20
255.7115198102668
 10
180.1496739202294
 20
255.7115198102668
 10
180.170689016553
 20
255.6688005980681
 10
180.170689016553
 20
255.6688005980681
 10
180.170689016553
 20
255.6688005980681
 10
180.1920486226523
 20
255.6479577566324
 10
180.1920486226523
 20
255.6479577566324
 72
     1
 10
180.1920486226523
 20
255.6479577566324
 11
180.1920486226523
 21
255.6479577566324
 97
        0
 75
     0
 76
     1
 98
        0
450
        0
451
        0
460
0.0
461
0.0
452
        0
462
0.0
453
        0
470

  0
MTEXT
  5
24
330
2
100
AcDbEntity
  8
图框
100
AcDbMText
 10
769.0220486953783
 20
230.1292590438887
 30
0.0
 40
0.6000023545570477
 41
4.555173628074157
 46
1.352222186815192
 71
     5
 72
     5
  1
{\C4;CSGM-0.82}
  7
Romans字体
 73
     1
 44
1.0
1001
ACAD
1000
ACAD_MTEXT_DEFINED_HEIGHT_BEGIN
1070
    46
1040
1.352222186815192
1000
ACAD_MTEXT_DEFINED_HEIGHT_END
  0
MTEXT
  5
2A
330
2
100
AcDbEntity
  8
图框
100
AcDbMText
 10
774.3330525085069
 20
230.129259043888
 30
0.0
 40
0.6000023545570477
 41
6.066833998183262
 46
1.352222186816343
 71
     5
 72
     5
  1
{\C4;1010142100701}
  7
Romans字体
 73
     1
 44
1.0
1001
ACAD
1000
ACAD_MTEXT_DEFINED_HEIGHT_BEGIN
1070
    46
1040
1.352222186816343
1000
ACAD_MTEXT_DEFINED_HEIGHT_END
  0
LINE
  5
C6
330
2
100
AcDbEntity
  8
图框
370
    -3
100
AcDbLine
 10
777.3664695069316
 20
232.157592324111
 30
0.0
 11
788.1356966783153
 21
232.157592324111
 31
0.0
  0
LINE
  5
C7
330
2
100
AcDbEntity
  8
图框
370
    -3
100
AcDbLine
 10
766.7444618813409
 20
230.8053701372958
 30
0.0
 11
788.3356974631675
 21
230.8053701372962
 31
0.0
  0
LINE
  5
C8
330
2
100
AcDbEntity
  8
图框
370
    -3
100
AcDbLine
 10
766.7444618813409
 20
230.8053701372966
 30
0.0
 11
788.3356974638346
 21
230.8053701372966
 31
0.0
  0
MTEXT
  5
C9
330
2
100
AcDbEntity
  8
图框
100
AcDbMText
 10
784.7059727881981
 20
232.8337034175536
 30
0.0
 40
0.6000023545570477
 41
6.859684067146692
 46
1.352222186885061
 71
     5
 72
     5
  1
{\f仿宋_GB2312|b0|i0|c134|p49;\C4;线径\Fromans|c134;/Wire Gauge}
  7
Romans字体
 73
     1
 44
1.0
1001
ACAD
1000
ACAD_MTEXT_DEFINED_HEIGHT_BEGIN
1070
    46
1040
1.352222186885061
1000
ACAD_MTEXT_DEFINED_HEIGHT_END
  0
LINE
  5
CA
330
2
100
AcDbEntity
  8
图框
370
    -3
100
AcDbLine
 10
766.7444618813409
 20
229.4531479504815
 30
0.0
 11
788.3356974638346
 21
229.4531479504815
 31
0.0
  0
MTEXT
  5
CB
330
2
100
AcDbEntity
  8
图框
100
AcDbMText
 10
786.6607443393164
 20
231.4814461967444
 30
0.0
 40
0.6000023545570477
 41
2.949904677997924
 46
1.352152118895874
 71
     5
 72
     5
  1
{\C4;AWG}
  7
Romans字体
 73
     1
 44
1.0
1001
ACAD
1000
ACAD_MTEXT_DEFINED_HEIGHT_BEGIN
1070
    46
1040
1.352152118895874
1000
ACAD_MTEXT_DEFINED_HEIGHT_END
  0
MTEXT
  5
CC
330
2
100
AcDbEntity
  8
图框
100
AcDbMText
 10
783.2309613771378
 20
231.4814812307036
 30
0.0
 40
0.6000023545570477
 41
3.909661246359366
 46
1.352222186814757
 71
     5
 72
     5
  1
\A1;{\C4;mm\H0.7x;\S2^  ;}
  7
Romans字体
 73
     1
 44
1.0
1001
ACAD
1000
ACAD_MTEXT_DEFINED_HEIGHT_BEGIN
1070
    46
1040
1.352222186814757
1000
ACAD_MTEXT_DEFINED_HEIGHT_END
  0
MTEXT
  5
CD
330
2
100
AcDbEntity
  8
图框
100
AcDbMText
 10
783.2309613774713
 20
230.129259043889
 30
0.0
 40
0.6000023545570477
 41
3.909661247026225
 46
1.352222186815229
 71
     5
 72
     5
  1
{\C4;0.52-0.82}
  7
Romans字体
 73
     1
 44
1.0
1001
ACAD
1000
ACAD_MTEXT_DEFINED_HEIGHT_BEGIN
1070
    46
1040
1.352222186815229
1000
ACAD_MTEXT_DEFINED_HEIGHT_END
  0
MTEXT
  5
CE
330
2
100
AcDbEntity
  8
图框
100
AcDbMText
 10
786.6607443399832
 20
230.129259043889
 30
0.0
 40
0.6000023545570477
 41
2.949904677998123
 46
1.352222186815164
 71
     5
 72
     5
  1
{\C4;22-18}
  7
Romans字体
 73
     1
 44
1.0
1001
ACAD
1000
ACAD_MTEXT_DEFINED_HEIGHT_BEGIN
1070
    46
1040
1.352222186815164
1000
ACAD_MTEXT_DEFINED_HEIGHT_END
  0
MTEXT
  5
CF
330
2
100
AcDbEntity
  8
图框
100
AcDbMText
 10
774.3330525078403
 20
232.1575522884022
 30
0.0
 40
0.6000023545570477
 41
6.066833998183262
 46
2.704364302212839
 71
     5
 72
     5
  1
{\f仿宋_GB2312|b0|i0|c134|p49;\C4;产品料号\Fromans|c134;\PPart NO.}
  7
Romans字体
 73
     1
 44
1.0
1001
ACAD
1000
ACAD_MTEXT_DEFINED_HEIGHT_BEGIN
1070
    46
1040
2.704364302212839
1000
ACAD_MTEXT_DEFINED_HEIGHT_END
  0
LINE
  5
D0
330
2
100
AcDbEntity
  8
图框
370
    -3
100
AcDbLine
 10
788.1356966789817
 20
233.509814510996
 30
0.0
 11
788.135696678982
 21
230.605369352444
 31
0.0
  0
LINE
  5
D1
330
2
100
AcDbEntity
  8
图框
370
    -3
100
AcDbLine
 10
785.1857920009842
 20
232.1576023276795
 30
0.0
 11
785.1857920009842
 21
230.605369352444
 31
0.0
  0
LINE
  5
D2
330
2
100
AcDbEntity
  8
图框
370
    -3
100
AcDbLine
 10
788.1356966783153
 20
233.5097344395087
 30
0.0
 11
788.1356966783154
 21
230.605369352444
 31
0.0
  0
LINE
  5
D3
330
2
100
AcDbEntity
  8
图框
370
    -3
100
AcDbLine
 10
785.1857920003172
 20
232.1575222561921
 30
0.0
 11
785.1857920003172
 21
230.605369352444
 31
0.0
  0
LINE
  5
D4
330
2
100
AcDbEntity
  8
图框
370
    35
380
     1
100
AcDbLine
 10
793.9643994242697
 20
233.5097344395089
 30
0.0
 11
793.9643994242697
 21
230.6053693524441
 31
0.0
  0
MTEXT
  5
D5
102
{ACAD_XDICTIONARY
360
56A
102
}
330
2
100
AcDbEntity
  8
打标文字
 62
     3
100
AcDbMText
 10
817.6846700616767
 20
218.2014012658918
 30
0.0
 40
0.75
 41
21.56370451087032
 46
26.95590277395973
 71
     1
 72
     5
  3
\A1;{\f仿宋_GB2312|b0|i0|c134|p49;技术参数}:\P- {\f仿宋_GB2312|b0|i0|c134|p49;材料}: {\f仿宋_GB2312|b0|i0|c134|p49;铜合金}\P- {\f仿宋_GB2312|b0|i0|c134|p49;表面处理}: {\f仿宋_GB2312|b0|i0|c134|p49;镀金}\P- {\f仿宋_GB2312|b0|i0|c134|p49;额定电流}: 5A\P- {\f仿宋_GB2312|b0|i0|c134|p49;
  3
接触电阻}: ≤3mΩ\P- {\f仿宋_GB2312|b0|i0|c134|p49;线径范围}: 0.52-0.82mm{\H0.7x;\S2^ ;}(22-18 AWG)\P- {\f仿宋_GB2312|b0|i0|c134|p49;可插拔次数}: {\f仿宋_GB2312|b0|i0|c134|p49;≥}500\P\PTechnical specification:\P- Material: copper alloy\P- Surface: hard-gold plated\P- Rate
  1
d current: 5A\P- Contact resistance: ≤3mΩ\P- Wire gauge: 0.52-0.82mm{\H0.7x;\S2^ ;}(22-18 AWG)\P- Mating cycles: {\f仿宋_GB2312|b0|i0|c134|p49;≥}500
  7
Romans字体
 73
     1
 44
1.0
1001
ACAD
1000
ACAD_MTEXT_DEFINED_HEIGHT_BEGIN
1070
    46
1040
26.95590277395973
1000
ACAD_MTEXT_DEFINED_HEIGHT_END
  0
MTEXT
  5
D7
330
2
100
AcDbEntity
  8
图框
100
AcDbMText
 10
769.0220486950448
 20
232.1575973258948
 30
0.0
 40
0.6000023545570477
 41
4.555173627407302
 46
2.704274227227899
 71
     5
 72
     5
  1
{\f仿宋_GB2312|b0|i0|c134|p49;\C4;产品代号\fFangSong_GB2312|b0|i0|c134|p49;\P\Fromans|c134;Part Code}
  7
Romans字体
 73
     1
 44
1.0
1001
ACAD
1000
ACAD_MTEXT_DEFINED_HEIGHT_BEGIN
1070
    46
1040
2.704274227227899
1000
ACAD_MTEXT_DEFINED_HEIGHT_END
  0
MTEXT
  5
D8
330
2
100
AcDbEntity
  8
图框
100
AcDbMText
 10
779.3213001307782
 20
232.8336633818099
 30
0.0
 40
0.6000023545570477
 41
3.909661246359441
 46
1.352142115397727
 71
     5
 72
     5
  1
{\f仿宋_GB2312|b0|i0|c134|p49;\C4;重量\Fromans|c134;/Weight}
  7
Romans字体
 73
     1
 44
1.0
1001
ACAD
1000
ACAD_MTEXT_DEFINED_HEIGHT_BEGIN
1070
    46
1040
1.352142115397727
1000
ACAD_MTEXT_DEFINED_HEIGHT_END
  0
MTEXT
  5
D9
330
2
100
AcDbEntity
  8
图框
100
AcDbMText
 10
779.3213001307782
 20
231.4814812307036
 30
0.0
 40
0.6000023545570477
 41
3.909661246359381
 46
1.352222186814968
 71
     5
 72
     5
  1
{\C4;g}
  7
Romans字体
 73
     1
 44
1.0
1001
ACAD
1000
ACAD_MTEXT_DEFINED_HEIGHT_BEGIN
1070
    46
1040
1.352222186814968
1000
ACAD_MTEXT_DEFINED_HEIGHT_END
  0
LINE
  5
DA
330
2
100
AcDbEntity
  8
图框
370
    -3
100
AcDbLine
 10
781.276130753958
 20
233.5097344395087
 30
0.0
 11
781.2761307539576
 21
230.605369352444
 31
0.0
  0
MTEXT
  5
DD
330
2
100
AcDbEntity
  8
图框
100
AcDbMText
 10
791.0500480512926
 20
232.1575522884026
 30
0.0
 40
0.6000023545570477
 41
5.828702745953783
 46
2.704364302212259
 71
     5
 72
     5
  1
{\f仿宋_GB2312|b0|i0|c134|p49;\C4;剥线长度\Fromans|c134;\PStripping Length}
  7
Romans字体
 73
     1
 44
1.0
1001
ACAD
1000
ACAD_MTEXT_DEFINED_HEIGHT_BEGIN
1070
    46
1040
2.704364302212259
1000
ACAD_MTEXT_DEFINED_HEIGHT_END
  0
LINE
  5
DE
330
2
100
AcDbEntity
  8
图框
370
    35
380
     1
100
AcDbLine
 10
788.1356966783157
 20
233.5097344395089
 30
0.0
 11
788.1356966783157
 21
230.605369352444
 31
0.0
  0
MTEXT
  5
DF
330
2
100
AcDbEntity
  8
图框
100
AcDbMText
 10
779.3213001301112
 20
230.1291789724007
 30
0.0
 40
0.6000023545570477
 41
3.90966124635945
 46
1.352222186816528
 71
     5
 72
     5
  1
{\C4;0.13}
  7
Romans字体
 73
     1
 44
1.0
1001
ACAD
1000
ACAD_MTEXT_DEFINED_HEIGHT_BEGIN
1070
    46
1040
1.352222186816528
1000
ACAD_MTEXT_DEFINED_HEIGHT_END
  0
MTEXT
  5
E0
330
2
100
AcDbEntity
  8
图框
100
AcDbMText
 10
791.0500480512926
 20
230.1292590438897
 30
0.0
 40
0.6000023545570477
 41
5.828702745953751
 46
1.35222218681682
 71
     5
 72
     5
  1
{\C4;5}
  7
Romans字体
 73
     1
 44
1.0
1001
ACAD
1000
ACAD_MTEXT_DEFINED_HEIGHT_BEGIN
1070
    46
1040
1.35222218681682
1000
ACAD_MTEXT_DEFINED_HEIGHT_END
  0
LINE
  5
E1
330
2
100
AcDbEntity
  8
0
100
AcDbLine
 10
774.6426459169327
 20
194.8941660330487
 30
0.0
 11
774.077123418185
 21
193.761124569487
 31
0.0
  0
LINE
  5
E2
330
2
100
AcDbEntity
  8
0
100
AcDbLine
 10
774.0101779180064
 20
193.0355491384962
 30
0.0
 11
772.2038538089909
 21
189.4161022303237
 31
0.0
  0
LINE
  5
E3
330
2
100
AcDbEntity
  8
0
100
AcDbLine
 10
774.4262118162472
 20
193.5869082309669
 30
0.0
 11
774.3754646963012
 21
193.4852229869515
 31
0.0
  0
LINE
  5
E4
330
2
100
AcDbEntity
  8
0
100
AcDbLine
 10
774.0530243751095
 20
193.1007374557161
 30
0.0
 11
774.0101779180064
 21
193.0355491384962
 31
0.0
  0
LINE
  5
E5
330
2
100
AcDbEntity
  8
0
100
AcDbLine
 10
778.8430901124822
 20
201.832415075113
 30
0.0
 11
775.7119727227545
 21
195.5583953162215
 31
0.0
  0
LINE
  5
E6
330
2
100
AcDbEntity
  8
0
100
AcDbLine
 10
774.3977137007864
 20
193.5117532302186
 30
0.0
 11
774.0530243751095
 21
193.1007374557161
 31
0.0
  0
LINE
  5
E7
330
2
100
AcDbEntity
  8
0
100
AcDbLine
 10
775.9407601085772
 20
192.7416792388512
 30
0.0
 11
775.8195464688792
 21
192.2191355064551
 31
0.0
  0
LINE
  5
E8
330
2
100
AcDbEntity
  8
0
100
AcDbLine
 10
775.5686552655223
 20
195.5626711570081
 30
0.0
 11
775.3698545053935
 21
195.5491719410859
 31
0.0
  0
LINE
  5
E9
330
2
100
AcDbEntity
  8
0
100
AcDbLine
 10
776.8756704164328
 20
194.9103911164173
 30
0.0
 11
776.9844026325577
 21
194.7434142427437
 31
0.0
  0
LINE
  5
EA
330
2
100
AcDbEntity
  8
0
100
AcDbLine
 10
779.9172082606729
 20
201.296364800788
 30
0.0
 11
776.7879602526297
 21
195.026090840677
 31
0.0
  0
LINE
  5
EB
330
2
100
AcDbEntity
  8
0
100
AcDbLine
 10
775.9836831318555
 20
192.8096353326575
 30
0.0
 11
775.9329360110732
 21
192.7079500898109
 31
0.0
  0
LINE
  5
EC
330
2
100
AcDbEntity
  8
0
100
AcDbLine
 10
775.7932140444212
 20
192.14570568292
 30
0.0
 11
773.9868899355728
 21
188.5262587757499
 31
0.0
  0
LINE
  5
ED
330
2
100
AcDbEntity
  8
0
100
AcDbLine
 10
776.8985769791546
 20
193.7692892383342
 30
0.0
 11
776.3327715299159
 21
192.6354189941366
 31
0.0
  0
SPLINE
  5
EE
330
2
100
AcDbEntity
  8
0
100
AcDbSpline
210
0.0
220
0.0
230
1.0
 70
     8
 71
     3
 72
    17
 73
    13
 74
    11
 42
0.0000000001
 43
0.0000000001
 44
0.0000000001
 12
-0.4465411880528513
 22
-0.894763078905443
 32
0.0
 13
-0.2926830427334254
 23
0.9562095149580473
 33
0.0
 40
0.0
 40
0.0
 40
0.0
 40
0.0
 40
0.0772474567021058
 40
0.1614913392081996
 40
0.2520270683625225
 40
0.3466704499973167
 40
0.4413055606585675
 40
0.5314470847402274
 40
0.6127164420568484
 40
0.6833140317804171
 40
0.7442237542039615
 40
0.7847386573813596
 40
0.7847386573813596
 40
0.7847386573813596
 40
0.7847386573813596
 10
774.731148387879
 20
192.5273316400864
 30
0.0
 10
774.719650330849
 20
192.5042922493543
 30
0.0
 10
774.6870367229567
 20
192.4600714995206
 30
0.0
 10
774.6182709974139
 20
192.4100693382214
 30
0.0
 10
774.5345256532082
 20
192.375832983426
 30
0.0
 10
774.442791249463
 20
192.356832900093
 30
0.0
 10
774.3494842706852
 20
192.3516921772795
 30
0.0
 10
774.260816081614
 20
192.3590897443851
 30
0.0
 10
774.1819966471296
 20
192.3780510545352
 30
0.0
 10
774.1171325990219
 20
192.4082240656698
 30
0.0
 10
774.07358832308
 20
192.4477413404562
 30
0.0
 10
774.0587175665183
 20
192.4788381734737
 30
0.0
 10
774.0547648914724
 20
192.4917517521123
 30
0.0
 11
774.731148387879
 21
192.5273316400864
 31
0.0
 11
774.6858299648208
 21
192.4647743855234
 31
0.0
 11
774.6184454632587
 21
192.4142139198516
 31
0.0
 11
774.5350495983298
 21
192.3789740565396
 31
0.0
 11
774.4425003119137
 21
192.3591750850729
 31
0.0
 11
774.3480152020853
 21
192.3538489053364
 31
0.0
 11
774.2582190740614
 21
192.3617324169706
 31
0.0
 11
774.1794274394548
 21
192.3816469030214
 31
0.0
 11
774.1161392120317
 21
192.4129298048117
 31
0.0
 11
774.072321865364
 21
192.4552386031487
 31
0.0
 11
774.0547648914724
 21
192.4917517521123
 31
0.0
  0
SPLINE
  5
EF
330
2
100
AcDbEntity
  8
0
100
AcDbSpline
210
0.0
220
0.0
230
1.0
 70
     8
 71
     3
 72
     9
 73
     5
 74
     0
 42
0.0000000001
 43
0.0000000001
 40
0.0547068889208802
 40
0.0547068889208802
 40
0.0547068889208802
 40
0.0547068889208802
 40
0.0869164544657175
 40
0.1094352324667788
 40
0.1094352324667788
 40
0.1094352324667788
 40
0.1094352324667788
 10
777.0324305672543
 20
194.5860913015392
 30
0.0
 10
777.0380927999872
 20
194.6523316115107
 30
0.0
 10
777.0172649283653
 20
194.6910816513521
 30
0.0
 10
776.9942488464269
 20
194.7283199740949
 30
0.0
 10
776.9844213097932
 20
194.7434263930085
 30
0.0
  0
SPLINE
  5
F0
330
2
100
AcDbEntity
  8
0
100
AcDbSpline
210
0.0
220
0.0
230
1.0
 70
     8
 71
     3
 72
    10
 73
     6
 74
     4
 42
0.0000000001
 43
0.0000000001
 44
0.0000000001
 12
0.2886058970824028
 22
-0.9574479809207712
 32
0.0
 13
-0.4465411887354377
 23
-0.8947630785647909
 33
0.0
 40
0.0
 40
0.0
 40
0.0
 40
0.0
 40
0.0322652710239759
 40
0.1098272042220937
 40
0.1848737102784396
 40
0.1848737102784396
 40
0.1848737102784396
 40
0.1848737102784396
 10
774.7442923805968
 20
192.6996291679179
 30
0.0
 10
774.7473963630929
 20
192.689331728386
 30
0.0
 10
774.755084262618
 20
192.6533213554066
 30
0.0
 10
774.7517016254666
 20
192.5909856040133
 30
0.0
 10
774.7382133784533
 20
192.5411416541018
 30
0.0
 10
774.727042926445
 20
192.5187587065036
 30
0.0
 11
774.7442923805968
 21
192.6996291679179
 31
0.0
 11
774.7510765347356
 21
192.6680851832794
 31
0.0
 11
774.7488927319674
 21
192.5905539993151
 31
0.0
 11
774.727042926445
 21
192.5187587065036
 31
0.0
  0
LINE
  5
F1
330
2
100
AcDbEntity
  8
0
100
AcDbLine
 10
774.7338723444381
 20
192.5338221719656
 30
0.0
 11
774.7198615038852
 21
192.5441743869421
 31
0.0
  0
SPLINE
  5
F2
330
2
100
AcDbEntity
  8
0
100
AcDbSpline
210
0.0
220
0.0
230
1.0
 70
     8
 71
     3
 72
    16
 73
    12
 74
    10
 42
0.0000000001
 43
0.0000000001
 44
0.0000000001
 12
-0.8223317821705954
 22
0.5690082952226026
 32
0.0
 13
-0.56829197968231
 23
-0.8228269719866753
 33
0.0
 40
0.0
 40
0.0
 40
0.0
 40
0.0
 40
0.0802575521925268
 40
0.156744614065635
 40
0.2322359763469716
 40
0.3036882199324725
 40
0.3699100632557446
 40
0.4330337426926952
 40
0.4957495831880835
 40
0.5587594106950679
 40
0.5793189587491984
 40
0.5793189587491984
 40
0.5793189587491984
 40
0.5793189587491984
 10
774.7198615038852
 20
192.5441743869421
 30
0.0
 10
774.6978620585762
 20
192.5593967912593
 30
0.0
 10
774.6502148385046
 20
192.5831078271917
 30
0.0
 10
774.5725179147279
 20
192.5948058938686
 30
0.0
 10
774.4978705761932
 20
192.5841768477344
 30
0.0
 10
774.4314186922466
 20
192.5576249152564
 30
0.0
 10
774.3744754799195
 20
192.5219508832895
 30
0.0
 10
774.3252349978163
 20
192.4807966160703
 30
0.0
 10
774.2815623616873
 20
192.4353197412095
 30
0.0
 10
774.2511344292856
 20
192.3971305253146
 30
0.0
 10
774.23499316714
 20
192.3744248035777
 30
0.0
 10
774.231098558385
 20
192.3687858200208
 30
0.0
 11
774.7198615038852
 21
192.5441743869421
 31
0.0
 11
774.6478120164287
 21
192.5795317912754
 31
0.0
 11
774.5722026557412
 21
192.5910858040166
 31
0.0
 11
774.497388224556
 21
192.5809988488019
 31
0.0
 11
774.43083220768
 21
192.5550042391488
 31
0.0
 11
774.3745192795346
 21
192.520159057892
 31
0.0
 11
774.3259259161273
 21
192.4798690598972
 31
0.0
 11
774.2823577878749
 21
192.4347570343427
 31
0.0
 11
774.2430103828294
 21
192.3855430111517
 31
0.0
 11
774.231098558385
 21
192.3687858200208
 31
0.0
  0
SPLINE
  5
F3
330
2
100
AcDbEntity
  8
0
100
AcDbSpline
210
0.0
220
0.0
230
1.0
 70
     8
 71
     3
 72
    15
 73
    11
 74
     9
 42
0.0000000001
 43
0.0000000001
 44
0.0000000001
 12
0.997690086653332
 22
0.067930044852533
 32
0.0
 13
0.5448902220931418
 23
-0.8385073916593023
 33
0.0
 40
0.0
 40
0.0
 40
0.0
 40
0.0
 40
0.1310834436586676
 40
0.2823292950238519
 40
0.441480313561701
 40
0.6041751013866624
 40
0.7671979591859506
 40
0.9262857448013953
 40
1.075114638816739
 40
1.161597998850233
 40
1.161597998850233
 40
1.161597998850233
 40
1.161597998850233
 10
772.7348739138672
 20
189.4997209404933
 30
0.0
 10
772.7784674646214
 20
189.5026891085624
 30
0.0
 10
772.8730166206096
 20
189.5006468121546
 30
0.0
 10
773.0185363783947
 20
189.4758969969548
 30
0.0
 10
773.1696026486986
 20
189.42920074711
 30
0.0
 10
773.3174656152024
 20
189.3630141565106
 30
0.0
 10
773.4564433284206
 20
189.2797750982756
 30
0.0
 10
773.5804085406087
 20
189.1827664573446
 30
0.0
 10
773.6722291455573
 20
189.0879597554053
 30
0.0
 10
773.7189480913927
 20
189.0247382002796
 30
0.0
 10
773.734656070478
 20
189.0005658880651
 30
0.0
 11
772.7348739138672
 21
189.4997209404933
 31
0.0
 11
772.8659435875647
 21
189.4978209830633
 31
0.0
 11
773.0151715686478
 21
189.4731974736252
 31
0.0
 11
773.1673407471022
 21
189.4265757208681
 31
0.0
 11
773.3158794114296
 21
189.3601990744836
 31
0.0
 11
773.4556376275881
 21
189.2762699783297
 31
0.0
 11
773.5806087452155
 21
189.1778263737075
 31
0.0
 11
773.6835179536996
 21
189.0703101679383
 31
0.0
 11
773.734656070478
 21
189.0005658880651
 31
0.0
  0
SPLINE
  5
F4
330
2
100
AcDbEntity
  8
0
100
AcDbSpline
210
0.0
220
0.0
230
1.0
 70
     8
 71
     3
 72
    10
 73
     6
 74
     4
 42
0.0000000001
 43
0.0000000001
 44
0.0000000001
 12
0.2888463021603698
 22
-0.9573754821010826
 32
0.0
 13
-0.4470682475060787
 23
-0.8944998502357861
 33
0.0
 40
0.0
 40
0.0
 40
0.0
 40
0.0
 40
0.071511044103239
 40
0.1382981509576884
 40
0.1638930816004292
 40
0.1638930816004292
 40
0.1638930816004292
 40
0.1638930816004292
 10
773.6742203465385
 20
189.0664766525126
 30
0.0
 10
773.6811055800894
 20
189.0436556790713
 30
0.0
 10
773.6895046214961
 20
188.9976980779881
 30
0.0
 10
773.6822711741555
 20
188.9423480692431
 30
0.0
 10
773.6704335828854
 20
188.9138004861997
 30
0.0
 10
773.6666193559563
 20
188.9061689323242
 30
0.0
 11
773.6742203465385
 21
189.0664766525126
 31
0.0
 11
773.6859138779365
 21
188.9959281532218
 31
0.0
 11
773.6763972397018
 21
188.9298225465103
 31
0.0
 11
773.6666193559563
 21
188.9061689323242
 31
0.0
  0
SPLINE
  5
F5
330
2
100
AcDbEntity
  8
0
100
AcDbSpline
210
0.0
220
0.0
230
1.0
 70
     8
 71
     3
 72
    19
 73
    15
 74
    13
 42
0.0000000001
 43
0.0000000001
 44
0.0000000001
 12
-0.2888463103129685
 22
0.9573754796413915
 32
0.0
 13
-0.4465411879185203
 23
-0.8947630789724826
 33
0.0
 40
0.0
 40
0.0
 40
0.0
 40
0.0
 40
0.1304451672943742
 40
0.2622118708017218
 40
0.3830116728329456
 40
0.4923189538796332
 40
0.5964320928975525
 40
0.700159576850677
 40
0.8104960218276524
 40
0.9268356978950249
 40
1.047406260732793
 40
1.173271378304069
 40
1.295935578108755
 40
1.429534541924578
 40
1.429534541924578
 40
1.429534541924578
 40
1.429534541924578
 10
779.9547897819776
 20
201.7377626838348
 30
0.0
 10
779.9422302468872
 20
201.7793910187033
 30
0.0
 10
779.9077364512552
 20
201.8605862091884
 30
0.0
 10
779.8328785843258
 20
201.9652404043531
 30
0.0
 10
779.7431255879128
 20
202.0470653861186
 30
0.0
 10
779.6474633176967
 20
202.1053508825937
 30
0.0
 10
779.5483762152482
 20
202.1436965290099
 30
0.0
 10
779.4438298951681
 20
202.1644436763214
 30
0.0
 10
779.3330872282612
 20
202.1663676070198
 30
0.0
 10
779.2183205510004
 20
202.1464585094625
 30
0.0
 10
779.104794922342
 20
202.1025059094165
 30
0.0
 10
779.0007742098944
 20
202.0350718511733
 30
0.0
 10
778.9098462502156
 20
201.9446962274112
 30
0.0
 10
778.862975925818
 20
201.8722615485168
 30
0.0
 10
778.8430901124822
 20
201.832415075113
 30
0.0
 11
779.9547897819776
 21
201.7377626838348
 31
0.0
 11
779.9037638359156
 21
201.8578138999842
 31
0.0
 11
779.8271207571123
 21
201.9649973997625
 31
0.0
 11
779.7378525199643
 21
202.0463839711811
 31
0.0
 11
779.6445094798253
 21
202.1032624253392
 31
0.0
 11
779.5474135959183
 21
202.1408381494772
 31
0.0
 11
779.4456699875038
 21
202.1610279754805
 31
0.0
 11
779.3353501219853
 21
202.1629406600186
 31
0.0
 11
779.2207225741726
 21
202.1430548482446
 31
0.0
 11
779.1082871854694
 21
202.0995170027517
 31
0.0
 11
779.0026686089792
 21
202.0310572034428
 31
0.0
 11
778.9156805863795
 21
201.9445725814692
 31
0.0
 11
778.8430901124822
 21
201.832415075113
 31
0.0
  0
LINE
  5
F6
330
2
100
AcDbEntity
  8
0
100
AcDbLine
 10
773.6654158014729
 20
189.0918372493563
 30
0.0
 11
773.6742203465385
 21
189.0664766525126
 31
0.0
  0
SPLINE
  5
F7
330
2
100
AcDbEntity
  8
0
100
AcDbSpline
210
0.0
220
0.0
230
1.0
 70
     8
 71
     3
 72
     9
 73
     5
 74
     3
 42
0.0000000001
 43
0.0000000001
 44
0.0000000001
 12
0.4470967599044044
 22
0.8944855992596993
 32
0.0
 13
0.8315904848785354
 23
0.5553892918120428
 33
0.0
 40
0.0
 40
0.0
 40
0.0
 40
0.0
 40
0.0402585058391501
 40
0.1008782662771476
 40
0.1008782662771476
 40
0.1008782662771476
 40
0.1008782662771476
 10
772.6999219460989
 20
189.3884424678955
 30
0.0
 10
772.7059217619387
 20
189.4004460191358
 30
0.0
 10
772.724334262825
 20
189.4289425170599
 30
0.0
 10
772.7501362324499
 20
189.4514741518561
 30
0.0
 10
772.7669398377752
 20
189.4626966737959
 30
0.0
 11
772.6999219460989
 21
189.3884424678955
 31
0.0
 11
772.7217947693555
 21
189.422240794706
 31
0.0
 11
772.7669398377752
 21
189.4626966737959
 31
0.0
  0
SPLINE
  5
F8
330
2
100
AcDbEntity
  8
0
100
AcDbSpline
210
0.0
220
0.0
230
1.0
 70
     8
 71
     3
 72
    10
 73
     6
 74
     4
 42
0.0000000001
 43
0.0000000001
 44
0.0000000001
 12
0.831590489549846
 22
0.555389284817638
 32
0.0
 13
0.9606653433482145
 23
0.2777086568504066
 33
0.0
 40
0.0
 40
0.0
 40
0.0
 40
0.0
 40
0.0086277042438989
 40
0.0849722153845781
 40
0.0865517410948324
 40
0.0865517410948324
 40
0.0865517410948324
 40
0.0865517410948324
 10
772.7669398377752
 20
189.4626966737959
 30
0.0
 10
772.7693314100405
 20
189.4642939186257
 30
0.0
 10
772.7931699427224
 20
189.4795899455453
 30
0.0
 10
772.8202703042555
 20
189.4908718475444
 30
0.0
 10
772.8452043752609
 20
189.4981397567502
 30
0.0
 10
772.8457101737971
 20
189.4982859727381
 30
0.0
 11
772.7669398377752
 21
189.4626966737959
 31
0.0
 11
772.7742008581372
 21
189.4673565948063
 31
0.0
 11
772.8441937643911
 21
189.4978439275107
 31
0.0
 11
772.8457101737971
 21
189.4982859727381
 31
0.0
  0
SPLINE
  5
F9
330
2
100
AcDbEntity
  8
0
100
AcDbSpline
210
0.0
220
0.0
230
1.0
 70
     8
 71
     3
 72
    10
 73
     6
 74
     4
 42
0.0000000001
 43
0.0000000001
 44
0.0000000001
 12
-0.448255807570564
 22
-0.8939053255123059
 32
0.0
 13
0.2888463090118563
 23
-0.9573754800339454
 33
0.0
 40
0.0
 40
0.0
 40
0.0
 40
0.0
 40
0.0262240826685308
 40
0.1571832211761712
 40
0.3020467337690102
 40
0.3020467337690102
 40
0.3020467337690102
 40
0.3020467337690102
 10
772.2038490622772
 20
189.4159888095932
 30
0.0
 10
772.1999306964923
 20
189.4081748605418
 30
0.0
 10
772.1783152935858
 20
189.3603991203048
 30
0.0
 10
772.1600114698416
 20
189.2586561104035
 30
0.0
 10
772.1758950476737
 20
189.1665014345619
 30
0.0
 10
772.1898428113147
 20
189.1202718429259
 30
0.0
 11
772.2038490622772
 21
189.4159888095932
 31
0.0
 11
772.1930546981305
 21
189.3920893490454
 31
0.0
 11
772.1682026874859
 21
189.2635099046323
 31
0.0
 11
772.1898428113147
 21
189.1202718429259
 31
0.0
  0
SPLINE
  5
FA
330
2
100
AcDbEntity
  8
0
100
AcDbSpline
210
0.0
220
0.0
230
1.0
 70
     8
 71
     3
 72
    11
 73
     7
 74
     5
 42
0.0000000001
 43
0.0000000001
 44
0.0000000001
 12
-0.4482558078474181
 22
-0.8939053253734753
 32
0.0
 13
-0.9919900211228245
 23
-0.1263162617905467
 33
0.0
 40
0.0
 40
0.0
 40
0.0
 40
0.0
 40
0.1296393979281057
 40
0.3043054459310906
 40
0.5020448163636745
 40
0.5802737745097582
 40
0.5802737745097582
 40
0.5802737745097582
 40
0.5802737745097582
 10
776.3327775348454
 20
192.635562479251
 30
0.0
 10
776.313406997163
 20
192.5969340298556
 30
0.0
 10
776.2533985336824
 20
192.5128439902809
 30
0.0
 10
776.1132826942007
 20
192.415473691738
 30
0.0
 10
775.9686054139855
 20
192.3690315244931
 30
0.0
 10
775.8778231413702
 20
192.3540152240743
 30
0.0
 10
775.8519556927557
 20
192.3507213608887
 30
0.0
 11
776.3327775348454
 21
192.635562479251
 31
0.0
 11
776.2577549117743
 21
192.5298365149721
 31
0.0
 11
776.1162846063482
 21
192.4273944288569
 31
0.0
 11
775.9291160523567
 21
192.3636073532398
 31
0.0
 11
775.8519556927557
 21
192.3507213608887
 31
0.0
  0
SPLINE
  5
FB
330
2
100
AcDbEntity
  8
0
100
AcDbSpline
210
0.0
220
0.0
230
1.0
 70
     8
 71
     3
 72
     8
 73
     4
 74
     2
 42
0.0000000001
 43
0.0000000001
 44
0.0000000001
 12
-0.4968751833403542
 22
0.8678220164183953
 32
0.0
 13
-0.2888463119372964
 23
0.9573754791513213
 33
0.0
 40
0.0
 40
0.0
 40
0.0
 40
0.0
 40
0.1992994186490654
 40
0.1992994186490654
 40
0.1992994186490654
 40
0.1992994186490654
 10
774.1394942476428
 20
193.204384854925
 30
0.0
 10
774.1064852692492
 20
193.262036996046
 30
0.0
 10
774.0785876294117
 20
193.3232798493549
 30
0.0
 10
774.0593986620623
 20
193.3868813081628
 30
0.0
 11
774.1394942476428
 21
193.204384854925
 31
0.0
 11
774.0593986620623
 21
193.3868813081628
 31
0.0
  0
SPLINE
  5
FC
330
2
100
AcDbEntity
  8
0
100
AcDbSpline
210
0.0
220
0.0
230
1.0
 70
     8
 71
     3
 72
    10
 73
     6
 74
     4
 42
0.0000000001
 43
0.0000000001
 44
0.0000000001
 12
-0.4482558076352574
 22
-0.893905325479865
 32
0.0
 13
0.2888463112287507
 23
-0.9573754793650943
 33
0.0
 40
0.0
 40
0.0
 40
0.0
 40
0.0
 40
0.0331750428052341
 40
0.1988462428648221
 40
0.3821073126314137
 40
0.3821073126314137
 40
0.3821073126314137
 40
0.3821073126314137
 10
774.0771174132575
 20
193.760981084373
 30
0.0
 10
774.0721604447221
 20
193.7510959685608
 30
0.0
 10
774.0448156580587
 20
193.6906567793145
 30
0.0
 10
774.0216602192282
 20
193.5619457430519
 30
0.0
 10
774.041753900731
 20
193.445364526335
 30
0.0
 10
774.0593986620623
 20
193.3868813081628
 30
0.0
 11
774.0771174132575
 21
193.760981084373
 31
0.0
 11
774.0634618929846
 21
193.7307468284502
 31
0.0
 11
774.0320226025085
 21
193.5680860847425
 31
0.0
 11
774.0593986620623
 21
193.3868813081628
 31
0.0
  0
SPLINE
  5
FD
330
2
100
AcDbEntity
  8
0
100
AcDbSpline
210
0.0
220
0.0
230
1.0
 70
     8
 71
     3
 72
    15
 73
    11
 74
     9
 42
0.0000000001
 43
0.0000000001
 44
0.0000000001
 12
-0.5451945872077536
 22
0.838309526415731
 32
0.0
 13
-0.9977272053725572
 23
-0.0673826658679172
 33
0.0
 40
0.0
 40
0.0
 40
0.0
 40
0.0
 40
0.1469909172543097
 40
0.3560351596892015
 40
0.5781398490743709
 40
0.8062980372550818
 40
1.032873938882124
 40
1.250392778631575
 40
1.452348766323872
 40
1.518274772196001
 40
1.518274772196001
 40
1.518274772196001
 40
1.518274772196001
 10
776.8757590536876
 20
194.9102879268143
 30
0.0
 10
776.8490461695356
 20
194.9513625555579
 30
0.0
 10
776.7765255086181
 20
195.0458521983127
 30
0.0
 10
776.6376927822254
 20
195.180577974278
 30
0.0
 10
776.4595120104888
 20
195.3103394138207
 30
0.0
 10
776.2610006910995
 20
195.4188232074795
 30
0.0
 10
776.0517537540233
 20
195.5007638110218
 30
0.0
 10
775.841967217022
 20
195.5522003332987
 30
0.0
 10
775.6800172551502
 20
195.5670758995207
 30
0.0
 10
775.5907068709525
 20
195.5641783881052
 30
0.0
 10
775.5687814810857
 20
195.56269763143
 30
0.0
 11
776.8757590536876
 21
194.9102879268143
 31
0.0
 11
776.7869532857643
 21
195.027419755703
 31
0.0
 11
776.6377764749696
 21
195.1738635142464
 31
0.0
 11
776.4586240457146
 21
195.305145272838
 31
0.0
 11
776.2584794465039
 21
195.4146820166306
 31
0.0
 11
776.0473787657701
 21
195.4969811162115
 31
0.0
 11
775.8359074706701
 21
195.5479157507414
 31
0.0
 11
775.6346696176413
 21
195.5649318452733
 31
0.0
 11
775.5687814810857
 21
195.56269763143
 31
0.0
  0
SPLINE
  5
FE
330
2
100
AcDbEntity
  8
0
100
AcDbSpline
210
0.0
220
0.0
230
1.0
 70
     8
 71
     3
 72
     9
 73
     5
 74
     3
 42
0.0000000001
 43
0.0000000001
 44
0.0000000001
 12
-0.2249755181266355
 22
-0.9743644165524786
 32
0.0
 13
-0.4485388529040786
 23
-0.8937633341301786
 33
0.0
 40
0.0
 40
0.0
 40
0.0
 40
0.0
 40
0.0517974652481421
 40
0.0781249627899269
 40
0.0781249627899269
 40
0.0781249627899269
 40
0.0781249627899269
 10
775.8195049493068
 20
192.2191450927423
 30
0.0
 10
775.8156205621128
 20
192.2023218904072
 30
0.0
 10
775.8078552891429
 20
192.1773182564576
 30
0.0
 10
775.7971086832832
 20
192.1535701089254
 30
0.0
 10
775.7931723814341
 20
192.145726591598
 30
0.0
 11
775.8195049493068
 21
192.2191450927423
 31
0.0
 11
775.8040131552814
 21
192.1697185641973
 31
0.0
 11
775.7931723814341
 21
192.145726591598
 31
0.0
  0
SPLINE
  5
FF
330
2
100
AcDbEntity
  8
0
100
AcDbSpline
210
0.0
220
0.0
230
1.0
 70
     8
 71
     3
 72
     8
 73
     4
 74
     0
 42
0.0000000001
 43
0.0000000001
 40
0.0
 40
0.0
 40
0.0
 40
0.0
 40
0.0400575474859764
 40
0.0400575474859764
 40
0.0400575474859764
 40
0.0400575474859764
 10
775.3698530121376
 20
195.5491940026868
 30
0.0
 10
775.3378681177411
 20
195.5470294995912
 30
0.0
 10
775.2998806107687
 20
195.5299951762723
 30
0.0
 10
775.2351115393446
 20
195.4600718790337
 30
0.0
  0
SPLINE
  5
100
330
2
100
AcDbEntity
  8
0
100
AcDbSpline
210
0.0
220
0.0
230
1.0
 70
     8
 71
     3
 72
    19
 73
    15
 74
    13
 42
0.0000000001
 43
0.0000000001
 44
0.0000000001
 12
-0.4482558069825017
 22
-0.8939053258071945
 32
0.0
 13
-0.2888463103755651
 23
0.9573754796225058
 33
0.0
 40
0.0
 40
0.0
 40
0.0
 40
0.0
 40
0.1024768576342993
 40
0.2405462087754052
 40
0.3968544734625362
 40
0.5743599652157702
 40
0.7715640481357022
 40
0.9839647969206152
 40
1.205209501151274
 40
1.427999261234924
 40
1.644877958288446
 40
1.849003512665712
 40
2.034990919704493
 40
2.199945656188103
 40
2.199945656188103
 40
2.199945656188103
 40
2.199945656188103
 10
773.9868946822862
 20
188.5263721964804
 30
0.0
 10
773.9715827334475
 20
188.4958373268766
 30
0.0
 10
773.9241522763035
 20
188.4293668724561
 30
0.0
 10
773.8133647487127
 20
188.3523935901643
 30
0.0
 10
773.6619993089764
 20
188.3037815404744
 30
0.0
 10
773.4844911255654
 20
188.2884945742486
 30
0.0
 10
773.288771554456
 20
188.3064936819654
 30
0.0
 10
773.0838716536559
 20
188.3567180529155
 30
0.0
 10
772.8795624766572
 20
188.4367308413302
 30
0.0
 10
772.6857175730292
 20
188.5426632872695
 30
0.0
 10
772.5117323958504
 20
188.6693666864853
 30
0.0
 10
772.3659638655557
 20
188.8108324294197
 30
0.0
 10
772.2553962149955
 20
188.9602839634107
 30
0.0
 10
772.2057250003188
 20
189.0676306362736
 30
0.0
 10
772.1898428113147
 20
189.1202718429259
 30
0.0
 11
773.9868946822862
 21
188.5263721964804
 31
0.0
 11
773.9275910839583
 21
188.4427983394678
 31
0.0
 11
773.8157621767737
 21
188.3618203100869
 31
0.0
 11
773.6678098910455
 21
188.3113981447494
 31
0.0
 11
773.4911531729165
 21
188.2940602226572
 31
0.0
 11
773.2946503272954
 21
188.3106759375996
 31
0.0
 11
773.0881548282265
 21
188.360412111042
 31
0.0
 11
772.8820212218247
 21
188.4407747607116
 31
0.0
 11
772.6865859077693
 21
188.5477341699199
 31
0.0
 11
772.5116488292191
 21
188.6759269457848
 31
0.0
 11
772.3659820606529
 21
188.818924968447
 31
0.0
 11
772.2568899433063
 21
188.9695577189027
 31
0.0
 11
772.1898428113147
 21
189.1202718429259
 31
0.0
  0
SPLINE
  5
101
330
2
100
AcDbEntity
  8
0
100
AcDbSpline
210
0.0
220
0.0
230
1.0
 70
     8
 71
     3
 72
    10
 73
     6
 74
     4
 42
0.0000000001
 43
0.0000000001
 44
0.0000000001
 12
0.4465411878301481
 22
0.8947630790165856
 32
0.0
 13
-0.2888463092468242
 23
0.957375479963054
 33
0.0
 40
0.0
 40
0.0
 40
0.0
 40
0.0
 40
0.1493841919353971
 40
0.3004803075113529
 40
0.4525210017369167
 40
0.4525210017369167
 40
0.4525210017369167
 40
0.4525210017369167
 10
779.9172082606729
 20
201.296364800788
 30
0.0
 10
779.9394436588429
 20
201.3409192872988
 30
0.0
 10
779.9730952729417
 20
201.4365770677042
 30
0.0
 10
779.9863578241627
 20
201.5883031776557
 30
0.0
 10
779.9694285797717
 20
201.6892426729654
 30
0.0
 10
779.9547897819776
 20
201.7377626838348
 30
0.0
 11
779.9172082606729
 21
201.296364800788
 31
0.0
 11
779.9667628497583
 21
201.4372902402969
 31
0.0
 11
779.9799168899568
 21
201.5878126883523
 31
0.0
 11
779.9547897819776
 21
201.7377626838348
 31
0.0
  0
SPLINE
  5
102
330
2
100
AcDbEntity
  8
0
100
AcDbSpline
210
0.0
220
0.0
230
1.0
 70
     8
 71
     3
 72
    17
 73
    13
 74
    11
 42
0.0000000001
 43
0.0000000001
 44
0.0000000001
 12
0.4465411874491486
 22
0.8947630792067274
 32
0.0
 13
0.2886058957697489
 23
-0.9574479813164478
 33
0.0
 40
0.0
 40
0.0
 40
0.0
 40
0.0
 40
0.0811944476237445
 40
0.1729447172655286
 40
0.2689415009890839
 40
0.3645241436680155
 40
0.4567324869518377
 40
0.5448998827455403
 40
0.6293522253887791
 40
0.712136189046317
 40
0.7941064766472568
 40
0.8517360639005278
 40
0.8517360639005278
 40
0.8517360639005278
 40
0.8517360639005278
 10
774.0765490674582
 20
192.6351085121676
 30
0.0
 10
774.088634622477
 20
192.6593251101577
 30
0.0
 10
774.1202637806316
 20
192.7080288124546
 30
0.0
 10
774.1816125805851
 20
192.773930295551
 30
0.0
 10
774.2571799258521
 20
192.8314278580032
 30
0.0
 10
774.3424776877201
 20
192.8738200917875
 30
0.0
 10
774.4326802204641
 20
192.8959171238845
 30
0.0
 10
774.5220606961732
 20
192.8943270402805
 30
0.0
 10
774.6044497914381
 20
192.8683722204119
 30
0.0
 10
774.6738032346868
 20
192.8204123646476
 30
0.0
 10
774.7202680866014
 20
192.7611725922752
 30
0.0
 10
774.7387483010461
 20
192.7180216119111
 30
0.0
 10
774.7442923805968
 20
192.6996291679179
 30
0.0
 11
774.0765490674582
 21
192.6351085121676
 31
0.0
 11
774.1200572587517
 21
192.7036619629582
 31
0.0
 11
774.182374611616
 21
192.7710018434995
 31
0.0
 11
774.2589189835008
 21
192.8289357853473
 31
0.0
 11
774.3447714525546
 21
192.8709523908607
 31
0.0
 11
774.4345023267952
 21
192.892183235855
 31
0.0
 11
774.5226426575991
 21
192.8899987984427
 31
0.0
 11
774.6030992649157
 21
192.8643291175519
 31
0.0
 11
774.6711446719804
 21
192.8171803400889
 31
0.0
 11
774.721668894749
 21
192.7526324434306
 31
0.0
 11
774.7442923805968
 21
192.6996291679179
 31
0.0
  0
SPLINE
  5
103
330
2
100
AcDbEntity
  8
0
100
AcDbSpline
210
0.0
220
0.0
230
1.0
 70
     8
 71
     3
 72
    17
 73
    13
 74
    11
 42
0.0000000001
 43
0.0000000001
 44
0.0000000001
 12
-0.28884631010259
 22
0.9573754797048639
 32
0.0
 13
-0.5140215608411573
 23
-0.8577772642069854
 33
0.0
 40
0.0
 40
0.0
 40
0.0
 40
0.0
 40
0.1170940810169408
 40
0.251166689658283
 40
0.3987842996188509
 40
0.5541392124822089
 40
0.7102798858531277
 40
0.8601453560101358
 40
0.9975823454795339
 40
1.118514083491099
 40
1.222480380820484
 40
1.309445846627224
 40
1.309445846627224
 40
1.309445846627224
 40
1.309445846627224
 10
779.9256486207625
 20
201.4745758777981
 30
0.0
 10
779.9143745563502
 20
201.5119435451262
 30
0.0
 10
779.8768678185057
 20
201.5881522777176
 30
0.0
 10
779.7923879854018
 20
201.6917513472181
 30
0.0
 10
779.6812049043063
 20
201.7869578265191
 30
0.0
 10
779.5504669103234
 20
201.8675871115082
 30
0.0
 10
779.4086343105616
 20
201.9284873135214
 30
0.0
 10
779.2649235810949
 20
201.965677612961
 30
0.0
 10
779.128477801787
 20
201.9767513534115
 30
0.0
 10
779.0075991296357
 20
201.960673578107
 30
0.0
 10
778.9107339198872
 20
201.9178814770859
 30
0.0
 10
778.8652013495976
 20
201.8704457444942
 30
0.0
 10
778.85030064144
 20
201.8455800780475
 30
0.0
 11
779.9256486207625
 21
201.4745758777981
 31
0.0
 11
779.8759906598383
 21
201.5806188442129
 31
0.0
 11
779.7925419227208
 21
201.6855558379825
 31
0.0
 11
779.680989302276
 21
201.7822355754788
 31
0.0
 11
779.5489349240828
 21
201.8640694935739
 31
0.0
 11
779.4053780777849
 21
201.9254807446744
 31
0.0
 11
779.2601019241252
 21
201.9622842543336
 31
0.0
 11
779.123006792391
 21
201.9719719232581
 31
0.0
 11
779.0034354909005
 21
201.9538835535592
 31
0.0
 11
778.9095366043587
 21
201.909251837408
 31
0.0
 11
778.85030064144
 21
201.8455800780475
 31
0.0
  0
LINE
  5
104
330
2
100
AcDbEntity
  8
0
100
AcDbLine
 10
778.85030064144
 20
201.8455800780475
 30
0.0
 11
778.8431046971602
 21
201.8324078428086
 31
0.0
  0
SPLINE
  5
105
330
2
100
AcDbEntity
  8
0
100
AcDbSpline
210
0.0
220
0.0
230
1.0
 70
     8
 71
     3
 72
    19
 73
    15
 74
    13
 42
0.0000000001
 43
0.0000000001
 44
0.0000000001
 12
-0.2888463101438107
 22
0.9573754796924273
 32
0.0
 13
-0.640823256510945
 23
-0.7676884484702815
 33
0.0
 40
0.0
 40
0.0
 40
0.0
 40
0.0
 40
0.1649547364813755
 40
0.3509421435224792
 40
0.5550676978981415
 40
0.7719463949530799
 40
0.9947361550369159
 40
1.215980859478927
 40
1.428381608189153
 40
1.625585691030624
 40
1.803091183044502
 40
1.959399447731409
 40
2.097468799587498
 40
2.12205448475652
 40
2.12205448475652
 40
2.12205448475652
 40
2.12205448475652
 10
775.8072250420979
 20
192.4415360703172
 30
0.0
 10
775.7913428531068
 20
192.4941772769726
 30
0.0
 10
775.7416716378544
 20
192.6015239491931
 30
0.0
 10
775.6311039901667
 20
192.7509754864635
 30
0.0
 10
775.4853354478479
 20
192.8924412156384
 30
0.0
 10
775.311350319462
 20
193.0191446707037
 30
0.0
 10
775.1175052272108
 20
193.1250769008441
 30
0.0
 10
774.9131967432954
 20
193.2050904826452
 30
0.0
 10
774.708294420126
 20
193.2553120837942
 30
0.0
 10
774.512582920851
 20
193.2733204166952
 30
0.0
 10
774.3350489662032
 20
193.2580040027775
 30
0.0
 10
774.1837636471212
 20
193.2094834972867
 30
0.0
 10
774.094530123602
 20
193.1474003030729
 30
0.0
 10
774.058317127899
 20
193.1069945624692
 30
0.0
 10
774.0530654349545
 20
193.1007031803019
 30
0.0
 11
775.8072250420979
 21
192.4415360703172
 31
0.0
 11
775.7401779101074
 21
192.5922501943384
 31
0.0
 11
775.6310857927595
 21
192.7428829447961
 31
0.0
 11
775.4854190241941
 21
192.8858809674568
 31
0.0
 11
775.3104819456433
 21
193.0140737433233
 31
0.0
 11
775.1150466315877
 21
193.1210331525316
 31
0.0
 11
774.9089130253508
 21
193.2013958032059
 31
0.0
 11
774.7024175261168
 21
193.251131975644
 31
0.0
 11
774.5059146806592
 21
193.2677476915899
 31
0.0
 11
774.3292579623669
 21
193.2504097684938
 31
0.0
 11
774.181305676639
 21
193.1999876031563
 31
0.0
 11
774.0694767684514
 21
193.1190095739414
 31
0.0
 11
774.0530654349545
 21
193.1007031803019
 31
0.0
  0
SPLINE
  5
106
330
2
100
AcDbEntity
  8
0
100
AcDbSpline
210
0.0
220
0.0
230
1.0
 70
     8
 71
     3
 72
    10
 73
     6
 74
     4
 42
0.0000000001
 43
0.0000000001
 44
0.0000000001
 12
0.4295170562596557
 22
-0.9030587458089534
 32
0.0
 13
0.7159334795520845
 23
-0.6981684989001187
 33
0.0
 40
0.0
 40
0.0
 40
0.0
 40
0.0
 40
0.0524642807581826
 40
0.1731296280063737
 40
0.1939624833024794
 40
0.1939624833024794
 40
0.1939624833024794
 40
0.1939624833024794
 10
774.3816867012464
 20
192.5250521761055
 30
0.0
 10
774.389198135723
 20
192.5092594002451
 30
0.0
 10
774.4174304192462
 20
192.4587709060256
 30
0.0
 10
774.4586413158319
 20
192.4081934219301
 30
0.0
 10
774.4919305433349
 20
192.3747975946289
 30
0.0
 10
774.4969021895285
 20
192.3699493135256
 30
0.0
 11
774.3816867012464
 21
192.5250521761055
 31
0.0
 11
774.4070942144165
 21
192.4791505527139
 31
0.0
 11
774.4821980771193
 21
192.3847072584382
 31
0.0
 11
774.4969021895285
 21
192.3699493135256
 31
0.0
  0
SPLINE
  5
107
330
2
100
AcDbEntity
  8
0
100
AcDbSpline
210
0.0
220
0.0
230
1.0
 70
     8
 71
     3
 72
    10
 73
     6
 74
     4
 42
0.0000000001
 43
0.0000000001
 44
0.0000000001
 12
-0.2888463186829405
 22
0.9573754771161173
 32
0.0
 13
0.4470967591335425
 23
0.8944855996450046
 33
0.0
 40
0.0
 40
0.0
 40
0.0
 40
0.0
 40
0.0714834276751544
 40
0.1382980105408206
 40
0.1638912727500377
 40
0.1638912727500377
 40
0.1638912727500377
 40
0.1638912727500377
 10
772.6923213654067
 20
189.2281419607188
 30
0.0
 10
772.6854387904299
 20
189.2509541209443
 30
0.0
 10
772.6770096617181
 20
189.2969070867308
 30
0.0
 10
772.6842643903075
 20
189.3522578975011
 30
0.0
 10
772.6961077245691
 20
189.3808115330641
 30
0.0
 10
772.6999219460989
 20
189.3884424678955
 30
0.0
 11
772.6923213654067
 21
189.2281419607188
 31
0.0
 11
772.6806126009265
 21
189.2986599390402
 31
0.0
 11
772.6901421649393
 21
189.3647914435841
 31
0.0
 11
772.6999219460989
 21
189.3884424678955
 31
0.0
  0
SPLINE
  5
108
330
2
100
AcDbEntity
  8
0
100
AcDbSpline
210
0.0
220
0.0
230
1.0
 70
     8
 71
     3
 72
     9
 73
     5
 74
     3
 42
0.0000000001
 43
0.0000000001
 44
0.0000000001
 12
0.5448902206679506
 22
-0.8385073925854394
 32
0.0
 13
0.2888462724176056
 23
-0.9573754910746641
 33
0.0
 40
0.0
 40
0.0
 40
0.0
 40
0.0
 40
0.0469945439218807
 40
0.1622922075206592
 40
0.1622922075206592
 40
0.1622922075206592
 40
0.1622922075206592
 10
773.734656070478
 20
189.0005658880651
 30
0.0
 10
773.7431916929473
 20
188.9874307972352
 30
0.0
 10
773.7711694326628
 20
188.9411370772428
 30
0.0
 10
773.7934200367059
 20
188.8912166105936
 30
0.0
 10
773.8045211368222
 20
188.8544222248244
 30
0.0
 11
773.734656070478
 21
189.0005658880651
 31
0.0
 11
773.7589143631256
 21
188.9603163862514
 31
0.0
 11
773.8045211368222
 21
188.8544222248244
 31
0.0
  0
SPLINE
  5
109
330
2
100
AcDbEntity
  8
0
100
AcDbSpline
210
0.0
220
0.0
230
1.0
 70
     8
 71
     3
 72
    18
 73
    14
 74
    12
 42
0.0000000001
 43
0.0000000001
 44
0.0000000001
 12
-0.2888463101949987
 22
0.9573754796769836
 32
0.0
 13
-0.6419559337717025
 23
-0.7667415334356824
 33
0.0
 40
0.0
 40
0.0
 40
0.0
 40
0.0
 40
0.1558904958264218
 40
0.3329490155359797
 40
0.5276565458518019
 40
0.7337697190664509
 40
0.9435726492963862
 40
1.148909803998613
 40
1.342159856078651
 40
1.517281722172834
 40
1.671097955979593
 40
1.804987394403035
 40
1.853287515606275
 40
1.853287515606275
 40
1.853287515606275
 40
1.853287515606275
 10
775.9299974159984
 20
192.9359447926553
 30
0.0
 10
775.9149879511604
 20
192.9856933720616
 30
0.0
 10
775.8666659930762
 20
193.0871621108483
 30
0.0
 10
775.758404596761
 20
193.2269357681558
 30
0.0
 10
775.6156940318062
 20
193.3575480219138
 30
0.0
 10
775.4464098996269
 20
193.4717561435643
 30
0.0
 10
775.2599426764052
 20
193.5633055527656
 30
0.0
 10
775.0667059719448
 20
193.6270573309811
 30
0.0
 10
774.8774253911983
 20
193.6594819923926
 30
0.0
 10
774.7022480589225
 20
193.6586377313723
 30
0.0
 10
774.5503715003629
 20
193.624166460164
 30
0.0
 10
774.4507779895704
 20
193.5676384372947
 30
0.0
 10
774.4081319539284
 20
193.5240285294367
 30
0.0
 10
774.397796437459
 20
193.5116839597712
 30
0.0
 11
775.9299974159984
 21
192.9359447926553
 31
0.0
 11
775.8653558181679
 21
193.0778014474831
 31
0.0
 11
775.7585024104542
 21
193.2189824258822
 31
0.0
 11
775.615647124761
 21
193.3512828027191
 31
0.0
 11
775.4450921913693
 21
193.4670137617074
 31
0.0
 11
775.2567496434566
 21
193.5594494376059
 31
0.0
 11
775.0615652637454
 21
193.6232178076493
 31
0.0
 11
774.8708824597005
 21
193.6546128848189
 31
0.0
 11
774.6957830239846
 21
193.6518101011508
 31
0.0
 11
774.5464430978391
 21
193.6149723455003
 31
0.0
 11
774.431541774881
 21
193.5462404918675
 31
0.0
 11
774.397796437459
 21
193.5116839597712
 31
0.0
  0
SPLINE
  5
10A
330
2
100
AcDbEntity
  8
0
100
AcDbSpline
210
0.0
220
0.0
230
1.0
 70
     8
 71
     3
 72
    18
 73
    14
 74
    12
 42
0.0000000001
 43
0.0000000001
 44
0.0000000001
 12
-0.2888463100933794
 22
0.957375479707643
 32
0.0
 13
-0.4475179580533766
 23
-0.8942749449804217
 33
0.0
 40
0.0
 40
0.0
 40
0.0
 40
0.0
 40
0.1558904958265252
 40
0.332949016237589
 40
0.5276565465536414
 40
0.7337697193414212
 40
0.9435726498626456
 40
1.148909804566048
 40
1.342159856645248
 40
1.517281722742253
 40
1.671097956946415
 40
1.804987394716136
 40
1.920949344034457
 40
1.920949344034457
 40
1.920949344034457
 40
1.920949344034457
 10
775.9959216535186
 20
193.068041394608
 30
0.0
 10
775.9809121886859
 20
193.1177899740159
 30
0.0
 10
775.9325902276831
 20
193.2192587099057
 30
0.0
 10
775.8243288457253
 20
193.3590323834722
 30
0.0
 10
775.6816182237407
 20
193.4896445727443
 30
0.0
 10
775.5123343202074
 20
193.603852953863
 30
0.0
 10
775.3258662233343
 20
193.6954013701187
 30
0.0
 10
775.1326326632413
 20
193.759156724475
 30
0.0
 10
774.9433414017195
 20
193.7915692383107
 30
0.0
 10
774.768198462499
 20
193.7907640938777
 30
0.0
 10
774.6162155269811
 20
193.7561718362547
 30
0.0
 10
774.4968902063448
 20
193.6886285584986
 30
0.0
 10
774.4434929249832
 20
193.6214300392305
 30
0.0
 10
774.426194573393
 20
193.5868627506151
 30
0.0
 11
775.9959216535186
 21
193.068041394608
 31
0.0
 11
775.9312800556881
 21
193.2098980494359
 31
0.0
 11
775.8244266481389
 21
193.3510790288392
 31
0.0
 11
775.6815713624449
 21
193.4833794056757
 31
0.0
 11
775.5110164288893
 21
193.5991103636622
 31
0.0
 11
775.3226738811431
 21
193.6915460405612
 31
0.0
 11
775.1274895014305
 21
193.7553144106038
 31
0.0
 11
774.9368066973865
 21
193.7867094877738
 31
0.0
 11
774.7617072616677
 21
193.783906704107
 31
0.0
 11
774.6123673353604
 21
193.7470689474534
 31
0.0
 11
774.4974660125651
 21
193.6783370948217
 31
0.0
 11
774.426194573393
 21
193.5868627506151
 31
0.0
  0
SPLINE
  5
10B
330
2
100
AcDbEntity
  8
0
100
AcDbSpline
210
0.0
220
0.0
230
1.0
 70
     8
 71
     3
 72
    10
 73
     6
 74
     4
 42
0.0000000001
 43
0.0000000001
 44
0.0000000001
 12
0.2888463121415421
 22
-0.9573754790896989
 32
0.0
 13
-0.447517959205714
 23
-0.8942749444037627
 33
0.0
 40
0.0
 40
0.0
 40
0.0
 40
0.0
 40
0.1355801865466672
 40
0.2578352842312077
 40
0.2635724124030068
 40
0.2635724124030068
 40
0.2635724124030068
 40
0.2635724124030068
 10
775.9959216535186
 20
193.068041394608
 30
0.0
 10
776.0089755991464
 20
193.0247743459246
 30
0.0
 10
776.0231778310317
 20
192.938234062363
 30
0.0
 10
776.0032507142438
 20
192.8497372896149
 30
0.0
 10
775.9845561973382
 20
192.8113910030008
 30
0.0
 10
775.983700374708
 20
192.8096808130085
 30
0.0
 11
775.9959216535186
 21
193.068041394608
 31
0.0
 11
776.0145947073806
 21
192.933753256474
 31
0.0
 11
775.9862140062367
 21
192.814837972711
 31
0.0
 11
775.983700374708
 21
192.8096808130085
 31
0.0
  0
SPLINE
  5
10C
330
2
100
AcDbEntity
  8
0
100
AcDbSpline
210
0.0
220
0.0
230
1.0
 70
     8
 71
     3
 72
    19
 73
    15
 74
    13
 42
0.0000000001
 43
0.0000000001
 44
0.0000000001
 12
-0.2888463103438352
 22
0.9573754796320788
 32
0.0
 13
-0.4482558073311436
 23
-0.8939053256323651
 33
0.0
 40
0.0
 40
0.0
 40
0.0
 40
0.0
 40
0.2086776786285259
 40
0.4439629533296619
 40
0.7021940753236043
 40
0.9765586925350916
 40
1.258401159870797
 40
1.538289038393855
 40
1.806988781426947
 40
2.056463825752808
 40
2.281018966513619
 40
2.478758336948829
 40
2.653424384949138
 40
2.783063782877503
 40
2.783063782877503
 40
2.783063782877503
 40
2.783063782877503
 10
776.3504962860388
 20
193.0096622554608
 30
0.0
 10
776.3304043601977
 20
193.076256553016
 30
0.0
 10
776.2675672808411
 20
193.2120565607967
 30
0.0
 10
776.1276925431107
 20
193.4011217550163
 30
0.0
 10
775.9432865697695
 20
193.5800844405445
 30
0.0
 10
775.7231848412153
 20
193.7403718751637
 30
0.0
 10
775.4779593592891
 20
193.8743827978489
 30
0.0
 10
775.2194959440878
 20
193.9756037993237
 30
0.0
 10
774.9602852252629
 20
194.0391406499085
 30
0.0
 10
774.7126881775364
 20
194.0619106095396
 30
0.0
 10
774.4881296325228
 20
194.0425716728456
 30
0.0
 10
774.2966432322689
 20
193.9810745032622
 30
0.0
 10
774.1564903348128
 20
193.8836986644113
 30
0.0
 10
774.0964879509175
 20
193.7996095337796
 30
0.0
 10
774.0771174132575
 20
193.760981084373
 30
0.0
 11
776.3504962860388
 21
193.0096622554608
 31
0.0
 11
776.2656776249159
 21
193.200324701378
 31
0.0
 11
776.1276695244896
 21
193.3908842057537
 31
0.0
 11
775.9433922874135
 21
193.5717853175851
 31
0.0
 11
775.7220863447805
 21
193.7339569024355
 31
0.0
 11
775.4748488990109
 21
193.8692669974145
 31
0.0
 11
775.2140774701151
 21
193.9709305917625
 31
0.0
 11
774.9528482233832
 21
194.0338498460329
 31
0.0
 11
774.7042602866001
 21
194.0548697277491
 31
0.0
 11
774.480778895746
 21
194.0329362103846
 31
0.0
 11
774.293610341752
 21
193.9691491347664
 31
0.0
 11
774.1521400363284
 21
193.8667070486523
 31
0.0
 11
774.0771174132575
 21
193.760981084373
 31
0.0
  0
SPLINE
  5
10D
330
2
100
AcDbEntity
  8
0
100
AcDbSpline
210
0.0
220
0.0
230
1.0
 70
     8
 71
     3
 72
    14
 73
    10
 74
     8
 42
0.0000000001
 43
0.0000000001
 44
0.0000000001
 12
-0.288846301226245
 22
0.9573754823829141
 32
0.0
 13
0.9976900865969986
 23
0.0679300456799007
 33
0.0
 40
0.0
 40
0.0
 40
0.0
 40
0.0
 40
0.1029443123518724
 40
0.1994699911385546
 40
0.2942373726706818
 40
0.3941217558541221
 40
0.504424551360526
 40
0.6283361946391773
 40
0.6358636169173723
 40
0.6358636169173723
 40
0.6358636169173723
 40
0.6358636169173723
 10
772.3862226077415
 20
189.0879387812492
 30
0.0
 10
772.3763109131231
 20
189.1207909014813
 30
0.0
 10
772.3642193488769
 20
189.1871076895963
 30
0.0
 10
772.3769834180999
 20
189.2863171369381
 30
0.0
 10
772.4250709924754
 20
189.3733735390055
 30
0.0
 10
772.5046005800833
 20
189.4397950860395
 30
0.0
 10
772.6085544633926
 20
189.4830898034291
 30
0.0
 10
772.6886791088052
 20
189.496349892503
 30
0.0
 10
772.7323705690056
 20
189.4995504944469
 30
0.0
 10
772.7348739138672
 20
189.4997209404933
 30
0.0
 11
772.3862226077415
 21
189.0879387812492
 31
0.0
 11
772.3693555476959
 21
189.189491889183
 31
0.0
 11
772.3829906060217
 21
189.2850496824271
 31
0.0
 11
772.4286387053697
 21
189.3680985092001
 31
0.0
 11
772.5042737552031
 21
189.4333382918533
 31
0.0
 11
772.6053746319957
 21
189.4774440670795
 31
0.0
 11
772.7273666254167
 21
189.4991707530021
 31
0.0
 11
772.7348739138672
 21
189.4997209404933
 31
0.0
  0
SPLINE
  5
10E
330
2
100
AcDbEntity
  8
0
100
AcDbSpline
210
0.0
220
0.0
230
1.0
 70
     8
 71
     3
 72
    20
 73
    16
 74
    14
 42
0.0000000001
 43
0.0000000001
 44
0.0000000001
 12
-0.4470682485023497
 22
-0.8944998497378529
 32
0.0
 13
-0.2888463375377895
 23
0.9573754714274883
 33
0.0
 40
0.0
 40
0.0
 40
0.0
 40
0.0
 40
0.0402648781978396
 40
0.1093995268058468
 40
0.1857465382797363
 40
0.2715053937321729
 40
0.367405762671541
 40
0.4720513367652367
 40
0.5821520925563953
 40
0.6947072919819153
 40
0.8075000733217358
 40
0.9175889337494547
 40
1.020604796692263
 40
1.112934142916097
 40
1.193026356851703
 40
1.193026356851703
 40
1.193026356851703
 40
1.193026356851703
 10
773.6666193559563
 20
188.9061689323242
 30
0.0
 10
773.660618973099
 20
188.894163289825
 30
0.0
 10
773.6406311189653
 20
188.8632483646455
 30
0.0
 10
773.5920984448996
 20
188.8227890900684
 30
0.0
 10
773.5201362304869
 20
188.7928757695804
 30
0.0
 10
773.4347028135422
 20
188.7787498864098
 30
0.0
 10
773.3388571812402
 20
188.7804737612885
 30
0.0
 10
773.2364424640868
 20
188.7978992193471
 30
0.0
 10
773.1319354995778
 20
188.8302011145936
 30
0.0
 10
773.0296313128051
 20
188.8759802738089
 30
0.0
 10
772.933469893771
 20
188.9335621221371
 30
0.0
 10
772.8476485416877
 20
189.0006584865519
 30
0.0
 10
772.7765452894377
 20
189.0740566715846
 30
0.0
 10
772.7236200328554
 20
189.1495904714017
 30
0.0
 10
772.7000328129603
 20
189.2025825203607
 30
0.0
 10
772.6923213654067
 20
189.2281419607188
 30
0.0
 11
773.6666193559563
 21
188.9061689323242
 31
0.0
 11
773.6447412581277
 21
188.8723664286937
 31
0.0
 11
773.5923429911812
 21
188.8272663038695
 31
0.0
 11
773.5223486289442
 21
188.7967760527058
 31
0.0
 11
773.4379136568612
 21
188.7817654971575
 31
0.0
 11
773.3420180124599
 21
188.7827174149868
 31
0.0
 11
773.2387704364506
 21
188.7997654126877
 31
0.0
 11
773.1334989201144
 21
188.8320157502683
 31
0.0
 11
773.0307326723572
 21
188.877926220094
 31
0.0
 11
772.9340268195437
 21
188.9359795537967
 31
0.0
 11
772.8475230492006
 21
189.0040725410031
 31
0.0
 11
772.7762655603062
 21
189.0784676906724
 31
0.0
 11
772.7240052398967
 21
189.1545831758565
 31
0.0
 11
772.6923213654067
 21
189.2281419607188
 31
0.0
  0
SPLINE
  5
10F
330
2
100
AcDbEntity
  8
0
100
AcDbSpline
210
0.0
220
0.0
230
1.0
 70
     8
 71
     3
 72
    10
 73
     6
 74
     4
 42
0.0000000001
 43
0.0000000001
 44
0.0000000001
 12
-0.2926830412250633
 22
0.9562095154197368
 32
0.0
 13
0.4465411881986647
 23
0.8947630788326732
 33
0.0
 40
0.0
 40
0.0
 40
0.0
 40
0.0
 40
0.0165575010694696
 40
0.0779936850122673
 40
0.1479595887658118
 40
0.1479595887658118
 40
0.1479595887658118
 40
0.1479595887658118
 10
774.0547648914724
 20
192.4917517521123
 30
0.0
 10
774.053149524883
 20
192.497029232137
 30
0.0
 10
774.0470599171689
 20
192.5223879263762
 30
0.0
 10
774.0502220369527
 20
192.5729758086273
 30
0.0
 10
774.066134848193
 20
192.614240876349
 30
0.0
 10
774.0765490674582
 20
192.6351085121676
 30
0.0
 11
774.0547648914724
 21
192.4917517521123
 31
0.0
 11
774.0509135342806
 21
192.5078551023677
 31
0.0
 11
774.0529043575932
 21
192.5692590217865
 31
0.0
 11
774.0765490674582
 21
192.6351085121676
 31
0.0
  0
SPLINE
  5
110
330
2
100
AcDbEntity
  8
0
100
AcDbSpline
210
0.0
220
0.0
230
1.0
 70
     8
 71
     3
 72
    22
 73
    18
 74
    16
 42
0.0000000001
 43
0.0000000001
 44
0.0000000001
 12
0.2888463010311674
 22
-0.9573754824417704
 32
0.0
 13
-0.2888462701612778
 23
0.9573754917554126
 33
0.0
 40
0.0
 40
0.0
 40
0.0
 40
0.0
 40
0.1029443123513481
 40
0.1994699911179862
 40
0.2942373726465928
 40
0.3941217558318426
 40
0.5044245504857031
 40
0.6283361947233135
 40
0.7669197292385864
 40
0.9181655816188889
 40
1.077316599147352
 40
1.240011386715165
 40
1.403034244890766
 40
1.562122030503544
 40
1.710950924522061
 40
1.844304779222581
 40
1.959602442821365
 40
1.959602442821365
 40
1.959602442821365
 40
1.959602442821365
 10
773.8045211368222
 20
188.8544222248244
 30
0.0
 10
773.8144328314339
 20
188.8215701045904
 30
0.0
 10
773.8265242845409
 20
188.755253308259
 30
0.0
 10
773.8137606867422
 20
188.6560438958158
 30
0.0
 10
773.7656714022067
 20
188.5689873684898
 30
0.0
 10
773.6861487406628
 20
188.5025663285543
 30
0.0
 10
773.5821648565694
 20
188.4592694153527
 30
0.0
 10
773.458735073134
 20
188.4388303347286
 30
0.0
 10
773.3202238935914
 20
188.4412959375311
 30
0.0
 10
773.1722001221834
 20
188.4664633803948
 30
0.0
 10
773.0211431911689
 20
188.5131603589781
 30
0.0
 10
772.8732773170062
 20
188.5793471144242
 30
0.0
 10
772.7343015286276
 20
188.6625847528059
 30
0.0
 10
772.6103317476541
 20
188.7595986724495
 30
0.0
 10
772.5076139925123
 20
188.8656543913717
 30
0.0
 10
772.431364635815
 20
188.9747419134713
 30
0.0
 10
772.3973237077711
 20
189.0511443954538
 30
0.0
 10
772.3862226077415
 20
189.0879387812492
 30
0.0
 11
773.8045211368222
 21
188.8544222248244
 31
0.0
 11
773.8213881968694
 21
188.7528691168914
 31
0.0
 11
773.8077531375368
 21
188.6573113238112
 31
0.0
 11
773.762105038193
 21
188.5742624970399
 31
0.0
 11
773.6864699883575
 21
188.5090227143863
 31
0.0
 11
773.5853691125667
 21
188.4649169389961
 31
0.0
 11
773.4633771181425
 21
188.4431902532364
 31
0.0
 11
773.3248001569972
 21
188.444540023012
 31
0.0
 11
773.1755721749123
 21
188.469163532614
 31
0.0
 11
773.0234029974631
 21
188.5157852852063
 31
0.0
 11
772.8748643329692
 21
188.5821619305878
 31
0.0
 11
772.7351061169748
 21
188.666091027746
 31
0.0
 11
772.6101349993498
 21
188.7645346323669
 31
0.0
 11
772.5072257908621
 21
188.872050838137
 31
0.0
 11
772.4318293814372
 21
188.9820446198218
 31
0.0
 11
772.3862226077415
 21
189.0879387812492
 31
0.0
  0
SPLINE
  5
111
330
2
100
AcDbEntity
  8
0
100
AcDbSpline
210
0.0
220
0.0
230
1.0
 70
     8
 71
     3
 72
    19
 73
    15
 74
    13
 42
0.0000000001
 43
0.0000000001
 44
0.0000000001
 12
-0.2888463103755651
 22
0.9573754796225058
 32
0.0
 13
-0.4482558069825017
 23
-0.8939053258071945
 33
0.0
 40
0.0
 40
0.0
 40
0.0
 40
0.0
 40
0.1649547364838318
 40
0.3509421435222691
 40
0.5550676970670445
 40
0.7719463941218373
 40
0.9947361542074398
 40
1.215980858436539
 40
1.428381607220634
 40
1.62558569014165
 40
1.803091181895015
 40
1.959399446582038
 40
2.097468798438128
 40
2.199945655626821
 40
2.199945655626821
 40
2.199945655626821
 40
2.199945655626821
 10
774.0009009322463
 20
188.8220891633136
 30
0.0
 10
773.9850187432422
 20
188.8747303699659
 30
0.0
 10
773.9353475285936
 20
188.982077042859
 30
0.0
 10
773.824779878045
 20
189.1315285764663
 30
0.0
 10
773.6790113486614
 20
189.2729943199294
 30
0.0
 10
773.5050261714843
 20
189.3996977187527
 30
0.0
 10
773.3111812679183
 20
189.5056301647601
 30
0.0
 10
773.1068720909063
 20
189.5856429531503
 30
0.0
 10
772.9019721900965
 20
189.6358673241206
 30
0.0
 10
772.7062526190345
 20
189.6538664317879
 30
0.0
 10
772.5287444354691
 20
189.6385794657262
 30
0.0
 10
772.3773789959839
 20
189.5899674154387
 30
0.0
 10
772.2665914669372
 20
189.5129941345589
 30
0.0
 10
772.2191610110492
 20
189.4465236790642
 30
0.0
 10
772.2038490622772
 20
189.4159888095932
 30
0.0
 11
774.0009009322463
 21
188.8220891633136
 31
0.0
 11
773.9338538002535
 21
188.9728032873365
 31
0.0
 11
773.824761682908
 21
189.1234360377926
 31
0.0
 11
773.6790949153462
 21
189.2664340602896
 31
0.0
 11
773.5041578367936
 21
189.3946268361534
 31
0.0
 11
773.3087225227371
 21
189.5015862453637
 31
0.0
 11
773.1025889163362
 21
189.5819488950313
 31
0.0
 11
772.8960934172683
 21
189.631685068474
 31
0.0
 11
772.6995905716461
 21
189.6483007834185
 31
0.0
 11
772.5229338535172
 21
189.6309628613238
 31
0.0
 11
772.3749815677892
 21
189.5805406959863
 31
0.0
 11
772.2631526596017
 21
189.4995626667714
 31
0.0
 11
772.2038490622772
 21
189.4159888095932
 31
0.0
  0
SPLINE
  5
112
330
2
100
AcDbEntity
  8
0
100
AcDbSpline
210
0.0
220
0.0
230
1.0
 70
     8
 71
     3
 72
     9
 73
     5
 74
     3
 42
0.0000000001
 43
0.0000000001
 44
0.0000000001
 12
0.2888463087982713
 22
-0.9573754800983854
 32
0.0
 13
-0.4442592924035094
 23
-0.8958982537727893
 33
0.0
 40
0.0
 40
0.0
 40
0.0
 40
0.0
 40
0.1006990103499531
 40
0.1817323544967349
 40
0.1817323544967349
 40
0.1817323544967349
 40
0.1817323544967349
 10
779.9256486207625
 20
201.4745758777981
 30
0.0
 10
779.9353441332422
 20
201.442440290005
 30
0.0
 10
779.9448068972436
 20
201.3809830157107
 30
0.0
 10
779.9291936147064
 20
201.3205712435988
 30
0.0
 10
779.9171936759957
 20
201.2963720330926
 30
0.0
 11
779.9256486207625
 21
201.4745758777981
 31
0.0
 11
779.9381316954598
 21
201.3746535903365
 31
0.0
 11
779.9171936759957
 21
201.2963720330926
 31
0.0
  0
SPLINE
  5
113
330
2
100
AcDbEntity
  8
0
100
AcDbSpline
210
0.0
220
0.0
230
1.0
 70
     8
 71
     3
 72
    10
 73
     6
 74
     4
 42
0.0000000001
 43
0.0000000001
 44
0.0000000001
 12
0.2888463090118563
 22
-0.9573754800339454
 32
0.0
 13
-0.448255807570564
 23
-0.8939053255123059
 33
0.0
 40
0.0
 40
0.0
 40
0.0
 40
0.0
 40
0.144863512593137
 40
0.2758226511010831
 40
0.3020467335074959
 40
0.3020467335074959
 40
0.3020467335074959
 40
0.3020467335074959
 10
774.0009009322463
 20
188.8220891633136
 30
0.0
 10
774.0148486958872
 20
188.7758595716775
 30
0.0
 10
774.0307322747697
 20
188.6837048953616
 30
0.0
 10
774.0124284478124
 20
188.5819618870063
 30
0.0
 10
773.9908130480318
 20
188.5341861454536
 30
0.0
 10
773.9868946822862
 20
188.5263721964804
 30
0.0
 11
774.0009009322463
 21
188.8220891633136
 31
0.0
 11
774.0225410560753
 21
188.6788511016069
 31
0.0
 11
773.9976890454296
 21
188.5502716571937
 31
0.0
 11
773.9868946822862
 21
188.5263721964804
 31
0.0
  0
SPLINE
  5
114
330
2
100
AcDbEntity
  8
0
100
AcDbSpline
210
0.0
220
0.0
230
1.0
 70
     8
 71
     3
 72
     9
 73
     5
 74
     3
 42
0.0000000001
 43
0.0000000001
 44
0.0000000001
 12
0.2888463102239181
 22
-0.9573754796682585
 32
0.0
 13
-0.2249755140458559
 23
-0.9743644174947087
 33
0.0
 40
0.0
 40
0.0
 40
0.0
 40
0.0
 40
0.1448635125927266
 40
0.2245679525297634
 40
0.2245679525297634
 40
0.2245679525297634
 40
0.2245679525297634
 10
775.8072250420979
 20
192.4415360703172
 30
0.0
 10
775.8211728057974
 20
192.3953064786989
 30
0.0
 10
775.8340556954212
 20
192.3200163803114
 30
0.0
 10
775.8254821317556
 20
192.2450321494726
 30
0.0
 10
775.8195049493068
 20
192.2191450927423
 30
0.0
 11
775.8072250420979
 21
192.4415360703172
 31
0.0
 11
775.8288651659268
 21
192.2982980086109
 31
0.0
 11
775.8195049493068
 21
192.2191450927423
 31
0.0
  0
SPLINE
  5
115
330
2
100
AcDbEntity
  8
0
100
AcDbSpline
210
0.0
220
0.0
230
1.0
 70
     8
 71
     3
 72
     9
 73
     5
 74
     3
 42
0.0000000001
 43
0.0000000001
 44
0.0000000001
 12
-0.545314581370893
 22
0.8382314759923346
 32
0.0
 13
-0.6628816319301323
 23
0.7487242096056763
 33
0.0
 40
0.0
 40
0.0
 40
0.0
 40
0.0
 40
0.1814108906823452
 40
0.1963348691590502
 40
0.1963348691590502
 40
0.1963348691590502
 40
0.1963348691590502
 10
776.9844213097932
 20
194.7434263930085
 30
0.0
 10
776.9514459751571
 20
194.7941144992277
 30
0.0
 10
776.9114092444052
 20
194.8462701034373
 30
0.0
 10
776.8682706248625
 20
194.8954767494816
 30
0.0
 10
776.8649730144601
 20
194.899201397478
 30
0.0
 11
776.9844213097932
 21
194.7434263930085
 31
0.0
 11
776.8748108835382
 21
194.887979032951
 31
0.0
 11
776.8649730144601
 21
194.899201397478
 31
0.0
  0
SPLINE
  5
116
330
2
100
AcDbEntity
  8
0
100
AcDbSpline
210
0.0
220
0.0
230
1.0
 70
     8
 71
     3
 72
    13
 73
     9
 74
     7
 42
0.0000000001
 43
0.0000000001
 44
0.0000000001
 12
-0.6628816334992616
 22
0.7487242082164506
 32
0.0
 13
-0.9967670660970341
 23
0.0803456031423665
 33
0.0
 40
0.0
 40
0.0
 40
0.0
 40
0.0
 40
0.2433515372420214
 40
0.5177161544526038
 40
0.7995586217864025
 40
1.079446501096178
 40
1.348146243187264
 40
1.481674290162484
 40
1.481674290162484
 40
1.481674290162484
 40
1.481674290162484
 10
776.8649730144601
 20
194.899201397478
 30
0.0
 10
776.8112019262862
 20
194.9599357931579
 30
0.0
 10
776.6863901868381
 20
195.0801272224758
 30
0.0
 10
776.4703324593243
 20
195.2374608310129
 30
0.0
 10
776.225093466512
 20
195.3714799882487
 30
0.0
 10
775.966659403183
 20
195.4726951841309
 30
0.0
 10
775.7450249153029
 20
195.5270130949502
 30
0.0
 10
775.6118335448125
 20
195.5437329488286
 30
0.0
 10
775.5674680916041
 20
195.5473090793188
 30
0.0
 11
776.8649730144601
 21
194.899201397478
 31
0.0
 11
776.6905336466257
 21
195.0688801457867
 31
0.0
 11
776.4692277039944
 21
195.2310517306379
 31
0.0
 11
776.2219902582259
 21
195.3663618256148
 31
0.0
 11
775.961218828159
 21
195.4680254191251
 31
0.0
 11
775.6999895825979
 21
195.5309446742333
 31
0.0
 11
775.5674680916041
 21
195.5473090793188
 31
0.0
  0
SPLINE
  5
117
330
2
100
AcDbEntity
  8
0
100
AcDbSpline
210
0.0
220
0.0
230
1.0
 70
     8
 71
     3
 72
     9
 73
     5
 74
     3
 42
0.0000000001
 43
0.0000000001
 44
0.0000000001
 12
-0.9967670663026447
 22
0.0803456005915654
 32
0.0
 13
-0.9977180399059577
 23
-0.0675182408406353
 33
0.0
 40
0.0
 40
0.0
 40
0.0
 40
0.0
 40
0.1161597750084619
 40
0.1977554586404843
 40
0.1977554586404843
 40
0.1977554586404843
 40
0.1977554586404843
 10
775.5674680916041
 20
195.5473090793188
 30
0.0
 10
775.5288733455516
 20
195.550420054948
 30
0.0
 10
775.4629225114036
 20
195.5531719481704
 30
0.0
 10
775.3969895073169
 20
195.5510304016931
 30
0.0
 10
775.3698530121376
 20
195.5491940026868
 30
0.0
 11
775.5674680916041
 21
195.5473090793188
 31
0.0
 11
775.4514016456488
 21
195.5519645549464
 31
0.0
 11
775.3698530121376
 21
195.5491940026868
 31
0.0
  0
SPLINE
  5
118
330
2
100
AcDbEntity
  8
0
100
AcDbSpline
210
0.0
220
0.0
230
1.0
 70
     8
 71
     3
 72
     9
 73
     5
 74
     3
 42
0.0000000001
 43
0.0000000001
 44
0.0000000001
 12
0.2888463100124711
 22
-0.9573754797320535
 32
0.0
 13
-0.2255310930678846
 23
-0.9742359704196951
 33
0.0
 40
0.0
 40
0.0
 40
0.0
 40
0.0
 40
0.1355801875161811
 40
0.1960690031661683
 40
0.1960690031661683
 40
0.1960690031661683
 40
0.1960690031661683
 10
775.9299974159984
 20
192.9359447926553
 30
0.0
 10
775.9430513616234
 20
192.8926777436334
 30
0.0
 10
775.9537842450018
 20
192.8265335137576
 30
0.0
 10
775.9452259414139
 20
192.7613415746207
 30
0.0
 10
775.9406785718432
 20
192.7416981146159
 30
0.0
 11
775.9299974159984
 21
192.9359447926553
 31
0.0
 11
775.9486704696954
 21
192.8016566535195
 31
0.0
 11
775.9406785718432
 21
192.7416981146159
 31
0.0
  0
SPLINE
  5
119
330
2
100
AcDbEntity
  8
0
100
AcDbSpline
210
0.0
220
0.0
230
1.0
 70
     8
 71
     3
 72
    10
 73
     6
 74
     4
 42
0.0000000001
 43
0.0000000001
 44
0.0000000001
 12
0.2888463112287507
 22
-0.9573754793650943
 32
0.0
 13
-0.4482558076352574
 23
-0.893905325479865
 33
0.0
 40
0.0
 40
0.0
 40
0.0
 40
0.0
 40
0.183261069766515
 40
0.3489322698250264
 40
0.382107312630577
 40
0.382107312630577
 40
0.382107312630577
 40
0.382107312630577
 10
776.3504962860388
 20
193.0096622554608
 30
0.0
 10
776.3681410473702
 20
192.9511790372886
 30
0.0
 10
776.3882347288811
 20
192.8345978205705
 30
0.0
 10
776.3650792900327
 20
192.7058867843143
 30
0.0
 10
776.3377345033807
 20
192.6454475950633
 30
0.0
 10
776.3327775348454
 20
192.635562479251
 30
0.0
 11
776.3504962860388
 21
193.0096622554608
 31
0.0
 11
776.3778723455946
 21
192.8284574788815
 31
0.0
 11
776.3464330551152
 21
192.6657967351755
 31
0.0
 11
776.3327775348454
 21
192.635562479251
 31
0.0
  0
SPLINE
  5
11A
330
2
100
AcDbEntity
  8
0
100
AcDbSpline
210
0.0
220
0.0
230
1.0
 70
     8
 71
     3
 72
     9
 73
     5
 74
     3
 42
0.0000000001
 43
0.0000000001
 44
0.0000000001
 12
-0.288846311663658
 22
0.9573754792338798
 32
0.0
 13
-0.5453145828373904
 23
0.8382314750382992
 33
0.0
 40
0.0
 40
0.0
 40
0.0
 40
0.0
 40
0.208677678630711
 40
0.2627430031740062
 40
0.2627430031740062
 40
0.2627430031740062
 40
0.2627430031740062
 10
776.915966077292
 20
194.1427301698147
 30
0.0
 10
776.895874151359
 20
194.2093244673428
 30
0.0
 10
776.8586004205757
 20
194.2898310127766
 30
0.0
 10
776.8125772794676
 20
194.3642930600825
 30
0.0
 10
776.8027497428345
 20
194.379399478996
 30
0.0
 11
776.915966077292
 21
194.1427301698147
 31
0.0
 11
776.8311474161667
 21
194.3333926157331
 31
0.0
 11
776.8027497428345
 21
194.379399478996
 31
0.0
  0
SPLINE
  5
11B
330
2
100
AcDbEntity
  8
0
100
AcDbSpline
210
0.0
220
0.0
230
1.0
 70
     8
 71
     3
 72
    10
 73
     6
 74
     4
 42
0.0000000001
 43
0.0000000001
 44
0.0000000001
 12
0.2888463096886602
 22
-0.9573754798297493
 32
0.0
 13
-0.4485388505891096
 23
-0.8937633352919556
 33
0.0
 40
0.0
 40
0.0
 40
0.0
 40
0.0
 40
0.183261070078622
 40
0.3489322701373298
 40
0.3822381401974434
 40
0.3822381401974434
 40
0.3822381401974434
 40
0.3822381401974434
 10
776.915966077292
 20
194.1427301698147
 30
0.0
 10
776.9336108385593
 20
194.0842469515144
 30
0.0
 10
776.9537044836147
 20
193.9676656159945
 30
0.0
 10
776.9305412330953
 20
193.8389108768991
 30
0.0
 10
776.9031682745694
 20
193.7784358807909
 30
0.0
 10
776.8981886156779
 20
193.7685133589543
 30
0.0
 11
776.915966077292
 21
194.1427301698147
 31
0.0
 11
776.9433421378471
 21
193.9615253930707
 31
0.0
 11
776.9119028473713
 21
193.7988646493638
 31
0.0
 11
776.8981886156779
 21
193.7685133589543
 31
0.0
  0
SPLINE
  5
11C
330
2
100
AcDbEntity
  8
0
100
AcDbSpline
210
0.0
220
0.0
230
1.0
 70
     8
 71
     3
 72
    11
 73
     7
 74
     5
 42
0.0000000001
 43
0.0000000001
 44
0.0000000001
 12
-0.9977180399453677
 22
-0.0675182402582719
 32
0.0
 13
-0.4485388503165999
 23
-0.8937633354287157
 33
0.0
 40
0.0
 40
0.0
 40
0.0
 40
0.0
 40
0.1432205528317851
 40
0.3409599232645605
 40
0.5156259712648028
 40
0.6451359481088361
 40
0.6451359481088361
 40
0.6451359481088361
 40
0.6451359481088361
 10
775.1881814451778
 20
195.185167088674
 30
0.0
 10
775.1405502020941
 20
195.181943755442
 30
0.0
 10
775.0275412277354
 20
195.1672653413447
 30
0.0
 10
774.8621046935061
 20
195.1141413484614
 30
0.0
 10
774.7219975664537
 20
195.0167914081758
 30
0.0
 10
774.6620093356386
 20
194.9327497893405
 30
0.0
 10
774.6426459169327
 20
194.8941660330487
 30
0.0
 11
775.1881814451778
 21
195.185167088674
 31
0.0
 11
775.0462486879995
 21
195.1660041245713
 31
0.0
 11
774.859080134007
 21
195.1022170489563
 31
0.0
 11
774.7176098285835
 21
194.9997749628423
 31
0.0
 11
774.6426459169327
 21
194.8941660330487
 31
0.0
  0
SPLINE
  5
11D
330
2
100
AcDbEntity
  8
0
100
AcDbSpline
210
0.0
220
0.0
230
1.0
 70
     8
 71
     3
 72
     9
 73
     5
 74
     3
 42
0.0000000001
 43
0.0000000001
 44
0.0000000001
 12
-0.545314581370893
 22
0.8382314759923346
 32
0.0
 13
-0.662881631930132
 23
0.7487242096056766
 33
0.0
 40
0.0
 40
0.0
 40
0.0
 40
0.0
 40
0.1814108906825278
 40
0.1963348691591901
 40
0.1963348691591901
 40
0.1963348691591901
 40
0.1963348691591901
 10
776.8027497428345
 20
194.379399478996
 30
0.0
 10
776.7697744081982
 20
194.4300875852153
 30
0.0
 10
776.7297376774466
 20
194.482243189425
 30
0.0
 10
776.6865990579036
 20
194.5314498354691
 30
0.0
 10
776.6833014475012
 20
194.5351744834655
 30
0.0
 11
776.8027497428345
 21
194.379399478996
 31
0.0
 11
776.6931393165792
 21
194.5239521189386
 31
0.0
 11
776.6833014475012
 21
194.5351744834655
 31
0.0
  0
SPLINE
  5
11E
330
2
100
AcDbEntity
  8
0
100
AcDbSpline
210
0.0
220
0.0
230
1.0
 70
     8
 71
     3
 72
    13
 73
     9
 74
     7
 42
0.0000000001
 43
0.0000000001
 44
0.0000000001
 12
-0.6628816334992616
 22
0.7487242082164506
 32
0.0
 13
-0.9967670660970341
 23
0.0803456031423665
 33
0.0
 40
0.0
 40
0.0
 40
0.0
 40
0.0
 40
0.2433515372420633
 40
0.5177161544524714
 40
0.7995586217864381
 40
1.079446501096216
 40
1.348146243187074
 40
1.481674290162072
 40
1.481674290162072
 40
1.481674290162072
 40
1.481674290162072
 10
776.6833014475012
 20
194.5351744834655
 30
0.0
 10
776.6295303593273
 20
194.5959088791454
 30
0.0
 10
776.5047186198791
 20
194.7161003084632
 30
0.0
 10
776.2886608923655
 20
194.8734339170006
 30
0.0
 10
776.0434218995533
 20
195.0074530742366
 30
0.0
 10
775.7849878362237
 20
195.1086682701183
 30
0.0
 10
775.5633533483441
 20
195.1629861809376
 30
0.0
 10
775.430161977854
 20
195.1797060348161
 30
0.0
 10
775.3857965246456
 20
195.1832821653063
 30
0.0
 11
776.6833014475012
 21
194.5351744834655
 31
0.0
 11
776.5088620796667
 21
194.7048532317742
 31
0.0
 11
776.2875561370357
 21
194.8670248166255
 31
0.0
 11
776.0403186912671
 21
195.0023349116026
 31
0.0
 11
775.7795472612001
 21
195.1039985051126
 31
0.0
 11
775.5183180156392
 21
195.1669177602208
 31
0.0
 11
775.3857965246456
 21
195.1832821653063
 31
0.0
  0
SPLINE
  5
11F
330
2
100
AcDbEntity
  8
0
100
AcDbSpline
210
0.0
220
0.0
230
1.0
 70
     8
 71
     3
 72
     9
 73
     5
 74
     3
 42
0.0000000001
 43
0.0000000001
 44
0.0000000001
 12
-0.9967670663026447
 22
0.0803456005915654
 32
0.0
 13
-0.9977180399059577
 23
-0.0675182408406353
 33
0.0
 40
0.0
 40
0.0
 40
0.0
 40
0.0
 40
0.1161597750086891
 40
0.1977554586417447
 40
0.1977554586417447
 40
0.1977554586417447
 40
0.1977554586417447
 10
775.3857965246456
 20
195.1832821653063
 30
0.0
 10
775.3472017785931
 20
195.1863931409355
 30
0.0
 10
775.2812509444445
 20
195.1891450341581
 30
0.0
 10
775.2153179403576
 20
195.1870034876803
 30
0.0
 10
775.1881814451778
 20
195.185167088674
 30
0.0
 11
775.3857965246456
 21
195.1832821653063
 31
0.0
 11
775.2697300786901
 21
195.1879376409339
 31
0.0
 11
775.1881814451778
 21
195.185167088674
 31
0.0
  0
LINE
  5
120
330
2
100
AcDbEntity
  8
0
100
AcDbLine
 10
775.2351115393446
 20
195.4600718790337
 30
0.0
 11
775.0573745790041
 21
195.1682562658679
 31
0.0
  0
LINE
  5
121
330
2
100
AcDbEntity
  8
0
100
AcDbLine
 10
777.0324305672716
 20
194.5860913015749
 30
0.0
 11
776.88801487367
 21
194.2201783762358
 31
0.0
  0
LINE
  5
122
330
2
100
AcDbEntity
  8
0
100
AcDbLine
 10
798.3599960688867
 20
209.2585810092606
 30
0.0
 11
798.3599960688867
 21
211.3885810092607
 31
0.0
  0
LINE
  5
123
330
2
100
AcDbEntity
  8
0
100
AcDbLine
 10
798.5099960688871
 20
209.5985810092602
 30
0.0
 11
798.5099960688866
 21
211.0485810092597
 31
0.0
  0
LINE
  5
124
330
2
100
AcDbEntity
  8
0
100
AcDbLine
 10
797.6099960688887
 20
209.2585810092602
 30
0.0
 11
797.6099960688876
 21
211.3885810092603
 31
0.0
  0
LINE
  5
125
330
2
100
AcDbEntity
  8
0
100
AcDbLine
 10
796.6599960688869
 20
211.0735810092593
 30
0.0
 11
796.6599960688869
 21
209.5735810092584
 31
0.0
  0
ARC
  5
126
330
2
100
AcDbEntity
  8
0
100
AcDbCircle
 10
788.9599960688872
 20
210.3235810092602
 30
0.0
 40
0.5
100
AcDbArc
 50
90.0
 51
180.0
  0
LINE
  5
127
330
2
100
AcDbEntity
  8
CEN
 48
0.8
370
    13
100
AcDbLine
 10
803.8065227442226
 20
210.3235810092602
 30
0.0
 11
787.8913631117008
 21
210.3235810092602
 31
0.0
  0
LINE
  5
12B
330
2
100
AcDbEntity
  8
hat
100
AcDbLine
 10
798.6196133970495
 20
211.0179828951914
 30
0.0
 11
798.7027922496269
 21
211.1011617477689
 31
0.0
1001
ACAD
1010
0.0
1020
0.0
1030
0.0
  0
LINE
  5
12D
330
2
100
AcDbEntity
  8
hat
100
AcDbLine
 10
798.6244240377197
 20
210.8460168405655
 30
0.0
 11
798.9458601396878
 21
211.1674529425333
 31
0.0
1001
ACAD
1010
0.0
1020
0.0
1030
0.0
  0
LINE
  5
12E
330
2
100
AcDbEntity
  8
hat
100
AcDbLine
 10
798.6865522946234
 20
210.7313684021725
 30
0.0
 11
799.153764793146
 21
211.1985809006946
 31
0.0
1001
ACAD
1010
0.0
1020
0.0
1030
0.0
  0
LINE
  5
12F
330
2
100
AcDbEntity
  8
hat
100
AcDbLine
 10
798.7556861959108
 20
210.6237256081628
 30
0.0
 11
799.3305414884424
 21
211.1985809006946
 31
0.0
1001
ACAD
1010
0.0
1020
0.0
1030
0.0
  0
LINE
  5
130
330
2
100
AcDbEntity
  8
hat
100
AcDbLine
 10
798.7892426344139
 20
210.4805053513696
 30
0.0
 11
799.1953526680496
 21
210.8866153850049
 31
0.0
1001
ACAD
1010
0.0
1020
0.0
1030
0.0
  0
LINE
  5
131
330
2
100
AcDbEntity
  8
hat
100
AcDbLine
 10
799.3073182923051
 20
210.9985810092604
 30
0.0
 11
799.5073181837393
 21
211.1985809006946
 31
0.0
1001
ACAD
1010
0.0
1020
0.0
1030
0.0
  0
LINE
  5
132
330
2
100
AcDbEntity
  8
hat
100
AcDbLine
 10
798.6582551190256
 20
210.1727411406841
 30
0.0
 11
798.9538712114798
 21
210.4683572331384
 31
0.0
1001
ACAD
1010
0.0
1020
0.0
1030
0.0
  0
LINE
  5
133
330
2
100
AcDbEntity
  8
hat
100
AcDbLine
 10
799.4840949876013
 20
210.9985810092604
 30
0.0
 11
799.6840948790358
 21
211.1985809006942
 31
0.0
1001
ACAD
1010
0.0
1020
0.0
1030
0.0
  0
LINE
  5
134
330
2
100
AcDbEntity
  8
hat
100
AcDbLine
 10
798.6457576593034
 20
209.9834669856659
 30
0.0
 11
798.9125924211482
 21
210.2503017475107
 31
0.0
1001
ACAD
1010
0.0
1020
0.0
1030
0.0
  0
LINE
  5
135
330
2
100
AcDbEntity
  8
hat
100
AcDbLine
 10
799.6608716828982
 20
210.9985810092604
 30
0.0
 11
799.8608715743316
 21
211.1985809006946
 31
0.0
1001
ACAD
1010
0.0
1020
0.0
1030
0.0
  0
LINE
  5
136
330
2
100
AcDbEntity
  8
hat
100
AcDbLine
 10
798.7142404453223
 20
209.8751730763875
 30
0.0
 11
798.9772971824237
 21
210.1382298134895
 31
0.0
1001
ACAD
1010
0.0
1020
0.0
1030
0.0
  0
LINE
  5
137
330
2
100
AcDbEntity
  8
hat
100
AcDbLine
 10
799.8376483781944
 20
210.9985810092604
 30
0.0
 11
800.0376482696289
 21
211.1985809006942
 31
0.0
1001
ACAD
1010
0.0
1020
0.0
1030
0.0
  0
LINE
  5
138
330
2
100
AcDbEntity
  8
hat
100
AcDbLine
 10
798.7922109953601
 20
209.7763669311289
 30
0.0
 11
799.0420019436992
 21
210.0261578794681
 31
0.0
1001
ACAD
1010
0.0
1020
0.0
1030
0.0
  0
LINE
  5
139
330
2
100
AcDbEntity
  8
hat
100
AcDbLine
 10
800.0144250734907
 20
210.99858100926
 30
0.0
 11
800.214424964926
 21
211.1985809006946
 31
0.0
1001
ACAD
1010
0.0
1020
0.0
1030
0.0
  0
LINE
  5
13A
330
2
100
AcDbEntity
  8
hat
100
AcDbLine
 10
798.8516545252565
 20
209.6590337657299
 30
0.0
 11
799.1067067049741
 21
209.9140859454484
 31
0.0
1001
ACAD
1010
0.0
1020
0.0
1030
0.0
  0
LINE
  5
13B
330
2
100
AcDbEntity
  8
hat
100
AcDbLine
 10
800.191201768788
 20
210.9985810092604
 30
0.0
 11
800.3912016602223
 21
211.1985809006942
 31
0.0
1001
ACAD
1010
0.0
1020
0.0
1030
0.0
  0
LINE
  5
13C
330
2
100
AcDbEntity
  8
hat
100
AcDbLine
 10
798.8698393235896
 20
209.5004418687655
 30
0.0
 11
799.1714114662507
 21
209.8020140114263
 31
0.0
1001
ACAD
1010
0.0
1020
0.0
1030
0.0
  0
LINE
  5
13D
330
2
100
AcDbEntity
  8
hat
100
AcDbLine
 10
800.3679784640842
 20
210.99858100926
 30
0.0
 11
800.5679783555184
 21
211.1985809006942
 31
0.0
1001
ACAD
1010
0.0
1020
0.0
1030
0.0
  0
LINE
  5
13E
330
2
100
AcDbEntity
  8
hat
100
AcDbLine
 10
799.0087352769229
 20
209.4625611268021
 30
0.0
 11
799.2361162275263
 21
209.6899420774053
 31
0.0
1001
ACAD
1010
0.0
1020
0.0
1030
0.0
  0
LINE
  5
13F
330
2
100
AcDbEntity
  8
hat
100
AcDbLine
 10
800.5447551593814
 20
210.9985810092604
 30
0.0
 11
800.7447550508157
 21
211.1985809006942
 31
0.0
1001
ACAD
1010
0.0
1020
0.0
1030
0.0
  0
LINE
  5
140
330
2
100
AcDbEntity
  8
hat
100
AcDbLine
 10
799.1715317461117
 20
209.4485809006942
 30
0.0
 11
799.3715318546771
 21
209.6485810092596
 31
0.0
1001
ACAD
1010
0.0
1020
0.0
1030
0.0
  0
LINE
  5
141
330
2
100
AcDbEntity
  8
hat
100
AcDbLine
 10
800.7215318546775
 20
210.9985810092604
 30
0.0
 11
800.9215317461119
 21
211.1985809006942
 31
0.0
1001
ACAD
1010
0.0
1020
0.0
1030
0.0
  0
LINE
  5
142
330
2
100
AcDbEntity
  8
hat
100
AcDbLine
 10
799.3483084414077
 20
209.4485809006938
 30
0.0
 11
799.5483085499742
 21
209.64858100926
 31
0.0
1001
ACAD
1010
0.0
1020
0.0
1030
0.0
  0
LINE
  5
143
330
2
100
AcDbEntity
  8
hat
100
AcDbLine
 10
800.8983085499746
 20
210.9985810092604
 30
0.0
 11
801.0983084414087
 21
211.1985809006946
 31
0.0
1001
ACAD
1010
0.0
1020
0.0
1030
0.0
  0
LINE
  5
144
330
2
100
AcDbEntity
  8
hat
100
AcDbLine
 10
799.5250851367053
 20
209.4485809006942
 30
0.0
 11
799.5599960513542
 21
209.4834918153429
 31
0.0
1001
ACAD
1010
0.0
1020
0.0
1030
0.0
  0
LINE
  5
145
330
2
100
AcDbEntity
  8
hat
100
AcDbLine
 10
801.0750852452709
 20
210.9985810092604
 30
0.0
 11
801.2750851367053
 21
211.1985809006942
 31
0.0
1001
ACAD
1010
0.0
1020
0.0
1030
0.0
  0
LINE
  5
146
330
2
100
AcDbEntity
  8
hat
100
AcDbLine
 10
801.2518619405678
 20
210.9985810092604
 30
0.0
 11
801.4518618320012
 21
211.1985809006942
 31
0.0
1001
ACAD
1010
0.0
1020
0.0
1030
0.0
  0
LINE
  5
147
330
2
100
AcDbEntity
  8
hat
100
AcDbLine
 10
801.4286386358641
 20
210.99858100926
 30
0.0
 11
801.6286385272984
 21
211.1985809006942
 31
0.0
1001
ACAD
1010
0.0
1020
0.0
1030
0.0
  0
LINE
  5
148
330
2
100
AcDbEntity
  8
hat
100
AcDbLine
 10
801.6054153311612
 20
210.9985810092604
 30
0.0
 11
801.8054152225948
 21
211.1985809006938
 31
0.0
1001
ACAD
1010
0.0
1020
0.0
1030
0.0
  0
LINE
  5
149
330
2
100
AcDbEntity
  8
hat
100
AcDbLine
 10
800.2321919178919
 20
209.4485809006942
 30
0.0
 11
800.4321920264571
 21
209.64858100926
 31
0.0
1001
ACAD
1010
0.0
1020
0.0
1030
0.0
  0
LINE
  5
14A
330
2
100
AcDbEntity
  8
hat
100
AcDbLine
 10
801.7821920264575
 20
210.99858100926
 30
0.0
 11
801.9821919178919
 21
211.1985809006942
 31
0.0
1001
ACAD
1010
0.0
1020
0.0
1030
0.0
  0
LINE
  5
14B
330
2
100
AcDbEntity
  8
hat
100
AcDbLine
 10
800.408968613188
 20
209.4485809006938
 30
0.0
 11
800.6089687217542
 21
209.64858100926
 31
0.0
1001
ACAD
1010
0.0
1020
0.0
1030
0.0
  0
LINE
  5
14C
330
2
100
AcDbEntity
  8
hat
100
AcDbLine
 10
801.9589687217543
 20
210.9985810092604
 30
0.0
 11
802.158968613188
 21
211.1985809006938
 31
0.0
1001
ACAD
1010
0.0
1020
0.0
1030
0.0
  0
LINE
  5
14D
330
2
100
AcDbEntity
  8
hat
100
AcDbLine
 10
800.5857453084852
 20
209.4485809006942
 30
0.0
 11
800.7857454170503
 21
209.64858100926
 31
0.0
1001
ACAD
1010
0.0
1020
0.0
1030
0.0
  0
LINE
  5
14E
330
2
100
AcDbEntity
  8
hat
100
AcDbLine
 10
802.1357454170509
 20
210.99858100926
 30
0.0
 11
802.3357453084852
 21
211.1985809006942
 31
0.0
1001
ACAD
1010
0.0
1020
0.0
1030
0.0
  0
LINE
  5
14F
330
2
100
AcDbEntity
  8
hat
100
AcDbLine
 10
800.7625220037814
 20
209.4485809006938
 30
0.0
 11
800.9625221123474
 21
209.64858100926
 31
0.0
1001
ACAD
1010
0.0
1020
0.0
1030
0.0
  0
LINE
  5
150
330
2
100
AcDbEntity
  8
hat
100
AcDbLine
 10
802.3125221123477
 20
210.9985810092604
 30
0.0
 11
802.5125220037814
 21
211.1985809006938
 31
0.0
1001
ACAD
1010
0.0
1020
0.0
1030
0.0
  0
LINE
  5
151
330
2
100
AcDbEntity
  8
hat
100
AcDbLine
 10
800.9392986990786
 20
209.4485809006942
 30
0.0
 11
801.1392988076437
 21
209.64858100926
 31
0.0
1001
ACAD
1010
0.0
1020
0.0
1030
0.0
  0
LINE
  5
152
330
2
100
AcDbEntity
  8
hat
100
AcDbLine
 10
802.4892988076441
 20
210.99858100926
 30
0.0
 11
802.6892986990773
 21
211.1985809006938
 31
0.0
1001
ACAD
1010
0.0
1020
0.0
1030
0.0
  0
LINE
  5
153
330
2
100
AcDbEntity
  8
hat
100
AcDbLine
 10
801.1160753943745
 20
209.4485809006938
 30
0.0
 11
801.316075502941
 21
209.64858100926
 31
0.0
1001
ACAD
1010
0.0
1020
0.0
1030
0.0
  0
LINE
  5
154
330
2
100
AcDbEntity
  8
hat
100
AcDbLine
 10
802.6660755029412
 20
210.9985810092604
 30
0.0
 11
802.8660753943745
 21
211.1985809006938
 31
0.0
1001
ACAD
1010
0.0
1020
0.0
1030
0.0
  0
LINE
  5
155
330
2
100
AcDbEntity
  8
hat
100
AcDbLine
 10
801.2928520896718
 20
209.4485809006942
 30
0.0
 11
801.4928521982371
 21
209.64858100926
 31
0.0
1001
ACAD
1010
0.0
1020
0.0
1030
0.0
  0
LINE
  5
156
330
2
100
AcDbEntity
  8
hat
100
AcDbLine
 10
802.8428521982373
 20
210.99858100926
 30
0.0
 11
803.0428520896709
 21
211.1985809006938
 31
0.0
1001
ACAD
1010
0.0
1020
0.0
1030
0.0
  0
LINE
  5
157
330
2
100
AcDbEntity
  8
hat
100
AcDbLine
 10
801.469628784968
 20
209.4485809006938
 30
0.0
 11
801.6696288935342
 21
209.64858100926
 31
0.0
1001
ACAD
1010
0.0
1020
0.0
1030
0.0
  0
LINE
  5
158
330
2
100
AcDbEntity
  8
hat
100
AcDbLine
 10
803.0196288935345
 20
210.9985810092604
 30
0.0
 11
803.219628784968
 21
211.1985809006942
 31
0.0
1001
ACAD
1010
0.0
1020
0.0
1030
0.0
  0
LINE
  5
159
330
2
100
AcDbEntity
  8
hat
100
AcDbLine
 10
801.646405480265
 20
209.4485809006942
 30
0.0
 11
801.8464055888303
 21
209.64858100926
 31
0.0
1001
ACAD
1010
0.0
1020
0.0
1030
0.0
  0
LINE
  5
15A
330
2
100
AcDbEntity
  8
hat
100
AcDbLine
 10
801.8231821755612
 20
209.4485809006942
 30
0.0
 11
802.0231822841276
 21
209.64858100926
 31
0.0
1001
ACAD
1010
0.0
1020
0.0
1030
0.0
  0
LINE
  5
15B
330
2
100
AcDbEntity
  8
hat
100
AcDbLine
 10
801.9999588708575
 20
209.4485809006942
 30
0.0
 11
802.1999589794235
 21
209.64858100926
 31
0.0
1001
ACAD
1010
0.0
1020
0.0
1030
0.0
  0
LINE
  5
15C
330
2
100
AcDbEntity
  8
hat
100
AcDbLine
 10
802.1767355661548
 20
209.4485809006942
 30
0.0
 11
802.376735674721
 21
209.64858100926
 31
0.0
1001
ACAD
1010
0.0
1020
0.0
1030
0.0
  0
LINE
  5
15D
330
2
100
AcDbEntity
  8
hat
100
AcDbLine
 10
802.3535122614505
 20
209.4485809006942
 30
0.0
 11
802.5535123700171
 21
209.64858100926
 31
0.0
1001
ACAD
1010
0.0
1020
0.0
1030
0.0
  0
LINE
  5
15E
330
2
100
AcDbEntity
  8
hat
100
AcDbLine
 10
802.530288956748
 20
209.4485809006942
 30
0.0
 11
802.7302890653142
 21
209.6485810092604
 31
0.0
1001
ACAD
1010
0.0
1020
0.0
1030
0.0
  0
LINE
  5
15F
330
2
100
AcDbEntity
  8
hat
100
AcDbLine
 10
802.7070656520441
 20
209.4485809006942
 30
0.0
 11
802.9070657606105
 21
209.64858100926
 31
0.0
1001
ACAD
1010
0.0
1020
0.0
1030
0.0
  0
LINE
  5
160
330
2
100
AcDbEntity
  8
hat
100
AcDbLine
 10
802.8838423473413
 20
209.4485809006942
 30
0.0
 11
803.0838424559076
 21
209.6485810092604
 31
0.0
1001
ACAD
1010
0.0
1020
0.0
1030
0.0
  0
LINE
  5
161
330
2
100
AcDbEntity
  8
hat
100
AcDbLine
 10
803.0606190426377
 20
209.4485809006942
 30
0.0
 11
803.1853076012792
 21
209.5732694593358
 31
0.0
1001
ACAD
1010
0.0
1020
0.0
1030
0.0
  0
LINE
  5
162
102
{ACAD_REACTORS
330
1C8
102
}
330
2
100
AcDbEntity
  8
0
100
AcDbLine
 10
803.109996051354
 20
209.64858100926
 30
0.0
 11
800.1599960513527
 21
209.64858100926
 31
0.0
  0
LINE
  5
163
330
2
100
AcDbEntity
  8
0
100
AcDbLine
 10
799.5599960513542
 20
209.64858100926
 30
0.0
 11
799.2599960513532
 21
209.64858100926
 31
0.0
  0
LINE
  5
164
102
{ACAD_REACTORS
330
1B9
330
1C8
102
}
330
2
100
AcDbEntity
  8
0
100
AcDbLine
 10
803.1099960513554
 20
210.99858100926
 30
0.0
 11
799.2599960513532
 21
210.9985810092604
 31
0.0
  0
LINE
  5
165
330
2
100
AcDbEntity
  8
0
100
AcDbLine
 10
798.5099960688871
 20
209.5985810092606
 30
0.0
 11
798.3599960688867
 21
209.5985810092606
 31
0.0
  0
LINE
  5
166
330
2
100
AcDbEntity
  8
0
100
AcDbLine
 10
798.5099960688858
 20
211.0485810092602
 30
0.0
 11
798.3599960688867
 21
211.0485810092602
 31
0.0
  0
LINE
  5
167
330
2
100
AcDbEntity
  8
0
100
AcDbLine
 10
797.6099960688876
 20
209.4235810092597
 30
0.0
 11
796.8399960688863
 21
209.4235810092591
 31
0.0
  0
LINE
  5
168
330
2
100
AcDbEntity
  8
0
100
AcDbLine
 10
797.6099960688876
 20
211.2235810092598
 30
0.0
 11
796.8399960688863
 21
211.2235810092598
 31
0.0
  0
LINE
  5
169
330
2
100
AcDbEntity
  8
0
100
AcDbLine
 10
798.3599960688867
 20
209.2585810092606
 30
0.0
 11
797.6099960688887
 21
209.2585810092602
 31
0.0
  0
LINE
  5
16A
330
2
100
AcDbEntity
  8
0
100
AcDbLine
 10
798.3599960688867
 20
211.3885810092607
 30
0.0
 11
797.6099960688876
 21
211.3885810092603
 31
0.0
  0
LINE
  5
16B
102
{ACAD_REACTORS
330
178
102
}
330
2
100
AcDbEntity
  8
0
100
AcDbLine
 10
788.9599960688872
 20
209.8235810092602
 30
0.0
 11
796.6599960688869
 21
209.8235810092598
 31
0.0
  0
LINE
  5
16C
102
{ACAD_REACTORS
330
178
102
}
330
2
100
AcDbEntity
  8
0
100
AcDbLine
 10
796.6599960688869
 20
210.8235810092601
 30
0.0
 11
788.9599960688872
 21
210.8235810092607
 31
0.0
  0
LINE
  5
16D
330
2
100
AcDbEntity
  8
0
100
AcDbLine
 10
796.8399960688863
 20
211.2235810092598
 30
0.0
 11
796.8399960688863
 21
209.4235810092597
 31
0.0
  0
LINE
  5
16E
102
{ACAD_REACTORS
330
1D8
102
}
330
2
100
AcDbEntity
  8
0
100
AcDbLine
 10
796.6599960688857
 20
211.0735810092593
 30
0.0
 11
796.8399960688863
 21
211.2235810092598
 31
0.0
  0
LINE
  5
16F
330
2
100
AcDbEntity
  8
0
100
AcDbLine
 10
796.8399960688863
 20
209.4235810092597
 30
0.0
 11
796.6599960688869
 21
209.5735810092584
 31
0.0
  0
ARC
  5
170
330
2
100
AcDbEntity
  8
0
100
AcDbCircle
 10
788.9599960688872
 20
210.3235810092602
 30
0.0
 40
0.5
100
AcDbArc
 50
180.0
 51
270.0
  0
LINE
  5
171
102
{ACAD_REACTORS
330
18D
102
}
330
2
100
AcDbEntity
  8
0
100
AcDbLine
 10
803.2599960513532
 20
209.4485809006942
 30
0.0
 11
803.2599960513532
 21
211.1985809006938
 31
0.0
  0
LINE
  5
172
102
{ACAD_REACTORS
330
18D
102
}
330
2
100
AcDbEntity
  8
0
100
AcDbLine
 10
799.2599960513532
 20
209.6485810092596
 30
0.0
 11
799.2599960513532
 21
210.99858100926
 31
0.0
  0
LINE
  5
173
330
2
100
AcDbEntity
  8
0
100
AcDbLine
 10
803.2599960513532
 20
209.4485809006942
 30
0.0
 11
800.1599960513518
 21
209.4485809006938
 31
0.0
  0
LINE
  5
174
330
2
100
AcDbEntity
  8
0
100
AcDbLine
 10
799.5599960513524
 20
209.4485809006938
 30
0.0
 11
799.0599960513533
 21
209.4485809006938
 31
0.0
  0
LINE
  5
175
102
{ACAD_REACTORS
330
1AA
102
}
330
2
100
AcDbEntity
  8
0
100
AcDbLine
 10
803.2599960513532
 20
211.1985809006938
 30
0.0
 11
799.0599960513533
 21
211.1985809006942
 31
0.0
  0
DIMENSION
  5
176
102
{ACAD_XDICTIONARY
360
177
102
}
102
{ACAD_REACTORS
330
178
102
}
330
2
100
AcDbEntity
  8
DIM
100
AcDbDimension
  2
*D8
 10
787.3803748661717
 20
209.8235810092602
 30
0.0
 11
786.6803748661717
 21
207.5414381521175
 31
0.0
 70
    32
  1
%%C<>
 71
     5
 42
1.000000000000397
 73
     0
 74
     0
 75
     0
  3
01
100
AcDbAlignedDimension
 13
789.2281578695198
 23
210.8235810092606
 33
0.0
 14
789.2281578695198
 24
209.8235810092603
 34
0.0
 50
90.0
100
AcDbRotatedDimension
1001
ACAD
1000
DSTYLE
1002
{
1070
    44
1040
0.2
1070
   147
1040
0.2
1070
   140
1040
1.0
1070
    41
1040
0.8
1070
   271
1070
     2
1002
}
  0
DIMENSION
  5
18B
102
{ACAD_XDICTIONARY
360
18C
102
}
102
{ACAD_REACTORS
330
18D
102
}
330
2
100
AcDbEntity
  8
DIM
100
AcDbDimension
  2
*D9
 10
806.4990640739186
 20
209.4485809006942
 30
0.0
 11
805.7990640739186
 21
206.1664380435515
 31
0.0
 70
    32
  1
%%C<>
 71
     5
 42
1.7499999999996
 73
     0
 74
     0
 75
     0
  3
01
100
AcDbAlignedDimension
 13
803.2599960513532
 23
211.1985809006938
 33
0.0
 14
803.2599960513532
 24
209.4485809006942
 34
0.0
 50
90.0
100
AcDbRotatedDimension
1001
ACAD
1000
DSTYLE
1002
{
1070
    44
1040
0.2
1070
   147
1040
0.2
1070
   140
1040
1.0
1070
    41
1040
0.8
1070
   271
1070
     2
1002
}
  0
LINE
  5
19B
330
2
100
AcDbEntity
  8
0
100
AcDbLine
 10
803.109996051354
 20
209.6485810092596
 30
0.0
 11
803.109996051354
 21
210.9985810092608
 31
0.0
  0
LINE
  5
19C
330
2
100
AcDbEntity
  8
CEN
 48
0.3
370
    13
100
AcDbLine
 10
799.8599960513518
 20
210.1566965102576
 30
0.0
 11
799.8599960513526
 21
208.8884817059416
 31
0.0
  0
ARC
  5
19D
330
2
100
AcDbEntity
  8
0
100
AcDbCircle
 10
799.8599960513526
 20
208.8775443346217
 30
0.0
 40
0.6450447734779711
100
AcDbArc
 50
62.28434182416877
 51
117.715658175775
  0
ARC
  5
19E
330
2
100
AcDbEntity
  8
0
100
AcDbCircle
 10
799.8599960513537
 20
209.2010689244692
 30
0.0
 40
0.5387643882381786
100
AcDbArc
 50
56.16316895366797
 51
123.8368310462621
  0
LINE
  5
19F
330
2
100
AcDbEntity
  8
0
100
AcDbLine
 10
799.2599960513532
 20
210.99858100926
 30
0.0
 11
798.8702846196518
 21
210.3235810092602
 31
0.0
  0
LINE
  5
1A0
330
2
100
AcDbEntity
  8
0
100
AcDbLine
 10
799.2599960513532
 20
209.64858100926
 30
0.0
 11
798.8702846196518
 21
210.3235810092598
 31
0.0
  0
LINE
  5
1A1
330
2
100
AcDbEntity
  8
0
100
AcDbLine
 10
799.5599960513542
 20
209.64858100926
 30
0.0
 11
799.5599960513542
 21
209.4485809006942
 31
0.0
  0
LINE
  5
1A2
330
2
100
AcDbEntity
  8
0
100
AcDbLine
 10
800.1599960513537
 20
209.6485810092596
 30
0.0
 11
800.1599960513527
 21
209.4485809006934
 31
0.0
  0
LINE
  5
1A3
330
2
100
AcDbEntity
  8
0
100
AcDbLine
 10
803.259996051354
 20
209.4985810092622
 30
0.0
 11
803.109996051354
 21
209.6485810092596
 31
0.0
  0
LINE
  5
1A4
330
2
100
AcDbEntity
  8
0
100
AcDbLine
 10
803.259996051354
 20
211.1485810092581
 30
0.0
 11
803.109996051354
 21
210.9985810092608
 31
0.0
  0
LINE
  5
1A5
330
2
100
AcDbEntity
  8
0
100
AcDbLine
 10
799.0599960688864
 20
211.1985809006942
 30
0.0
 11
798.5099960688866
 21
211.0485810092597
 31
0.0
  0
LINE
  5
1A6
330
2
100
AcDbEntity
  8
0
100
AcDbLine
 10
799.0599960688864
 20
209.4485809006938
 30
0.0
 11
798.5099960688871
 21
209.5985810092606
 31
0.0
  0
SPLINE
  5
1A7
330
2
100
AcDbEntity
  8
hat
100
AcDbSpline
210
0.0
220
0.0
230
1.0
 70
     8
 71
     3
 72
    12
 73
     8
 74
     0
 42
0.0000000001
 43
0.0000000001
 40
0.2584910620922088
 40
0.2584910620922088
 40
0.2584910620922088
 40
0.2584910620922088
 40
0.5171270727895352
 40
0.8713620481964841
 40
1.39214830400103
 40
1.803962369449581
 40
1.988129783458008
 40
1.988129783458008
 40
1.988129783458008
 40
1.988129783458008
 10
798.6395078927313
 20
211.0839023901986
 30
0.0
 10
798.6088310834981
 20
211.0004896803689
 30
0.0
 10
798.5826902185311
 20
210.8073944537105
 30
0.0
 10
798.9425432122478
 20
210.4902189083428
 30
0.0
 10
798.4530194132553
 20
210.043332236267
 30
0.0
 10
798.8760541514173
 20
209.752154098816
 30
0.0
 10
798.8586990540112
 20
209.567278011422
 30
0.0
 10
798.840123747417
 20
209.5085461226778
 30
0.0
  0
DIMENSION
  5
1A8
102
{ACAD_XDICTIONARY
360
1A9
102
}
102
{ACAD_REACTORS
330
1AA
102
}
330
2
100
AcDbEntity
  8
DIM
100
AcDbDimension
  2
*D10
 10
803.2599960513532
 20
214.9663269407474
 30
0.0
 11
795.8599960601202
 21
215.6663269407474
 31
0.0
 70
    32
 71
     5
 42
14.79999998246614
 73
     0
 74
     0
 75
     0
  3
01
100
AcDbAlignedDimension
 13
788.4599960688872
 23
210.3235810092602
 33
0.0
 14
803.2599960513532
 24
211.1985809006938
 34
0.0
100
AcDbRotatedDimension
1001
ACAD
1000
DSTYLE
1002
{
1070
    44
1040
0.2
1070
   147
1040
0.2
1070
   140
1040
1.0
1070
    41
1040
0.8
1070
   271
1070
     2
1002
}
  0
DIMENSION
  5
1B7
102
{ACAD_XDICTIONARY
360
1B8
102
}
102
{ACAD_REACTORS
330
1B9
102
}
330
2
100
AcDbEntity
  8
DIM
100
AcDbDimension
  2
*D11
 10
803.2599960513532
 20
212.948737415255
 30
0.0
 11
801.2599960513533
 21
213.648737415255
 31
0.0
 70
    32
 71
     5
 42
4.0
 73
     0
 74
     0
 75
     0
  3
01
100
AcDbAlignedDimension
 13
799.2599960513532
 23
210.9985810092604
 33
0.0
 14
803.2599960513532
 24
211.5764566823223
 34
0.0
100
AcDbRotatedDimension
1001
ACAD
1000
DSTYLE
1002
{
1070
    44
1040
0.2
1070
   147
1040
0.2
1070
   140
1040
1.0
1070
    41
1040
0.8
1070
   271
1070
     2
1002
}
  0
DIMENSION
  5
1C6
102
{ACAD_XDICTIONARY
360
1C7
102
}
102
{ACAD_REACTORS
330
1C8
102
}
330
2
100
AcDbEntity
  8
DIM
100
AcDbDimension
  2
*D12
 10
804.8312666519802
 20
209.6485810092599
 30
0.0
 11
804.1312666519802
 21
206.3664381521172
 31
0.0
 70
    32
  1
%%C<>
 71
     5
 42
1.350000000000022
 73
     0
 74
     0
 75
     0
  3
01
100
AcDbAlignedDimension
 13
803.1099960513554
 23
210.99858100926
 33
0.0
 14
803.1099960513554
 24
209.64858100926
 34
0.0
 50
90.0
100
AcDbRotatedDimension
1001
ACAD
1000
DSTYLE
1002
{
1070
    44
1040
0.2
1070
   147
1040
0.2
1070
   140
1040
1.0
1070
    41
1040
0.8
1070
   271
1070
     2
1002
}
  0
DIMENSION
  5
1D6
102
{ACAD_XDICTIONARY
360
1D7
102
}
102
{ACAD_REACTORS
330
1D8
102
}
330
2
100
AcDbEntity
  8
DIM
100
AcDbDimension
  2
*D13
 10
796.6599960688857
 20
212.948737415255
 30
0.0
 11
792.5599960688864
 21
213.648737415255
 31
0.0
 70
    32
  1
<>3
 71
     5
 42
8.199999999998905
 73
     0
 74
     0
 75
     0
  3
01
100
AcDbAlignedDimension
 13
788.4599960688872
 23
211.8743513121617
 33
0.0
 14
796.6599960688857
 24
211.0735810092593
 34
0.0
100
AcDbRotatedDimension
1001
ACAD
1000
DSTYLE
1002
{
1070
    44
1040
0.2
1070
   147
1040
0.2
1070
   140
1040
1.0
1070
    41
1040
0.8
1070
   271
1070
     2
1002
}
  0
LINE
  5
1E5
330
2
100
AcDbEntity
  8
图框
370
    -3
100
AcDbLine
 10
771.2996355087486
 20
229.4531479504815
 30
0.0
 11
771.2996355087486
 21
231.0053709221486
 31
0.0
  0
LINE
  5
1E6
330
2
100
AcDbEntity
  8
图框
370
    -3
100
AcDbLine
 10
771.2996355094153
 20
229.4531479504815
 30
0.0
 11
771.2996355094153
 21
231.0053709221486
 31
0.0
  0
LINE
  5
1E7
330
2
100
AcDbEntity
  8
图框
370
    -3
100
AcDbLine
 10
777.3664695069316
 20
229.4531479504815
 30
0.0
 11
777.3664695069316
 21
231.0053709221485
 31
0.0
  0
LINE
  5
1E8
330
2
100
AcDbEntity
  8
图框
370
    -3
100
AcDbLine
 10
777.3664695075986
 20
229.4531479504815
 30
0.0
 11
777.3664695075986
 21
231.0053709221485
 31
0.0
  0
LINE
  5
1E9
330
2
100
AcDbEntity
  8
图框
370
    -3
100
AcDbLine
 10
787.9356958934634
 20
229.4531479504815
 30
0.0
 11
793.9643994242697
 21
229.4531479504813
 31
0.0
  0
LINE
  5
1EA
330
2
100
AcDbEntity
  8
图框
370
    -3
100
AcDbLine
 10
787.9356958934634
 20
230.8053701372966
 30
0.0
 11
793.9643994242697
 21
230.8053701372966
 31
0.0
  0
LINE
  5
1EB
330
2
100
AcDbEntity
  8
图框
370
    -3
100
AcDbLine
 10
787.9356958934634
 20
230.8053701372965
 30
0.0
 11
793.9643994242697
 21
230.8053701372966
 31
0.0
  0
LINE
  5
1EC
330
2
100
AcDbEntity
  8
图框
370
    -3
100
AcDbLine
 10
781.2761307539576
 20
231.0053709221489
 30
0.0
 11
781.2761307539576
 21
229.4531479504815
 31
0.0
  0
LINE
  5
1ED
330
2
100
AcDbEntity
  8
图框
370
    -3
100
AcDbLine
 10
777.3664695069316
 20
230.6053693524436
 30
0.0
 11
777.3664695069316
 21
233.5097344395087
 31
0.0
  0
LINE
  5
1EE
330
2
100
AcDbEntity
  8
图框
370
    -3
100
AcDbLine
 10
771.2996355087486
 20
230.6053693524436
 30
0.0
 11
771.2996355087486
 21
233.5097344395087
 31
0.0
  0
LINE
  5
1EF
330
2
100
AcDbEntity
  8
图框
370
    -3
100
AcDbLine
 10
785.1857920003172
 20
231.0053709221489
 30
0.0
 11
785.1857920003172
 21
229.4531479504815
 31
0.0
  0
LINE
  5
1F0
330
2
100
AcDbEntity
  8
图框
370
    -3
100
AcDbLine
 10
777.3664695075986
 20
230.6053693524436
 30
0.0
 11
777.3664695075986
 21
233.5098145109959
 31
0.0
  0
LINE
  5
1F1
330
2
100
AcDbEntity
  8
图框
370
    -3
100
AcDbLine
 10
771.2996355094153
 20
230.6053693524436
 30
0.0
 11
771.2996355094153
 21
232.1576023276787
 31
0.0
  0
LINE
  5
1F2
330
2
100
AcDbEntity
  8
图框
370
    -3
100
AcDbLine
 10
785.1857920009842
 20
231.0053709221489
 30
0.0
 11
785.1857920009842
 21
229.4531479504815
 31
0.0
  0
LINE
  5
1F3
330
2
100
AcDbEntity
  8
图框
370
    35
100
AcDbLine
 10
788.1356966783157
 20
231.0053709221489
 30
0.0
 11
788.1356966783157
 21
229.4531479504815
 31
0.0
  0
LINE
  5
1F4
330
2
100
AcDbEntity
  8
图框
370
    35
100
AcDbLine
 10
793.9643994242697
 20
231.0053709221504
 30
0.0
 11
793.9643994242697
 21
229.4531479504813
 31
0.0
  0
LINE
  5
1F5
330
2
100
AcDbEntity
  8
图框
370
    -3
100
AcDbLine
 10
788.1356966783154
 20
231.0053709221489
 30
0.0
 11
788.1356966783157
 21
229.4531479504815
 31
0.0
  0
LINE
  5
1F6
330
2
100
AcDbEntity
  8
图框
370
    -3
100
AcDbLine
 10
788.135696678982
 20
231.0053709221489
 30
0.0
 11
788.135696678982
 21
229.4531479504815
 31
0.0
  0
INSERT
  5
344
330
2
100
AcDbEntity
  8
DIM
100
AcDbBlockReference
  2
A4图框-NEW
 10
557.5162489199564
 20
64.6260421244708
 30
0.0
 41
0.25
 42
0.25
 43
0.25
  0
MTEXT
  5
346
330
2
100
AcDbEntity
  8
图框
 62
     3
100
AcDbMText
 10
818.0334093408481
 20
188.5864775993047
 30
0.0
 40
0.7463783937585367
 41
2.707337108597616
 46
1.971523650302624
 71
     5
 72
     5
  1
4:1
  7
Romans字体
 73
     1
 44
1.0
1001
ACAD
1000
ACAD_MTEXT_DEFINED_HEIGHT_BEGIN
1070
    46
1040
1.971523650302624
1000
ACAD_MTEXT_DEFINED_HEIGHT_END
  0
MTEXT
  5
39C
330
2
100
AcDbEntity
  8
图框
 62
     3
100
AcDbMText
 10
835.0468255734943
 20
194.1082490006976
 30
0.0
 40
0.7463783937585367
 41
8.403097998105339
 46
2.171686376421464
 71
     5
 72
     5
  1
CSGM-0.82
  7
Romans字体
 73
     1
 44
1.0
1001
ACAD
1000
ACAD_MTEXT_DEFINED_HEIGHT_BEGIN
1070
    46
1040
2.171686376421464
1000
ACAD_MTEXT_DEFINED_HEIGHT_END
  0
MTEXT
  5
39D
330
2
100
AcDbEntity
  8
图框
 62
     3
100
AcDbMText
 10
835.0468255734943
 20
191.9133863689911
 30
0.0
 40
0.7463783937585367
 41
8.403097998105339
 46
2.218038886991525
 71
     5
 72
     5
  1
1010142100701
  7
Romans字体
 73
     1
 44
1.0
1001
ACAD
1000
ACAD_MTEXT_DEFINED_HEIGHT_BEGIN
1070
    46
1040
2.218038886991525
1000
ACAD_MTEXT_DEFINED_HEIGHT_END
  0
MTEXT
  5
39F
330
2
100
AcDbEntity
  8
图框
 62
     3
100
AcDbMText
 10
823.4480835580438
 20
188.5864775993047
 30
0.0
 40
0.7463783937585367
 41
2.707337108598041
 46
1.971523650302597
 71
     5
 72
     5
  1
0.13g
  7
Romans字体
 73
     1
 44
1.0
1001
ACAD
1000
ACAD_MTEXT_DEFINED_HEIGHT_BEGIN
1070
    46
1040
1.971523650302597
1000
ACAD_MTEXT_DEFINED_HEIGHT_END
  0
ENDSEC
  0
SECTION
  2
OBJECTS
  0
DICTIONARY
  5
B
330
0
100
AcDbDictionary
281
     1
  3
ACAD_COLOR
350
22B
  3
ACAD_GROUP
350
218
  3
ACAD_LAYOUT
350
1F9
  3
ACAD_MATERIAL
350
D
  3
ACAD_MLEADERSTYLE
350
28D
  3
ACAD_MLINESTYLE
350
219
  3
ACAD_PLOTSETTINGS
350
21A
  3
ACAD_PLOTSTYLENAME
350
A
  3
ACAD_SCALELIST
350
22C
  3
ACAD_TABLESTYLE
350
22D
  3
ACAD_VISUALSTYLE
350
212
  3
ACDB_RECOMPOSE_DATA
350
27D
  3
AcDbVariableDictionary
350
255
  0
DICTIONARY
  5
213
330
20F
100
AcDbDictionary
280
     1
281
     1
  0
DICTIONARY
  5
204
330
203
100
AcDbDictionary
280
     1
281
     1
  3
ACAD_LAYERFILTERS
360
205
  3
ACAD_LAYERSTATES
360
206
  3
ACLYDICTIONARY
360
207
  0
DICTIONARY
  5
7
330
6
100
AcDbDictionary
280
     1
281
     1
  3
ADSK_XREC_LAYER_RECONCILED
360
8
  0
DICTIONARY
  5
18
330
17
100
AcDbDictionary
280
     1
281
     1
  3
ADSK_XREC_LAYER_RECONCILED
360
19
  0
DICTIONARY
  5
26
330
25
100
AcDbDictionary
280
     1
281
     1
  3
ADSK_XREC_LAYER_RECONCILED
360
27
  0
DICTIONARY
  5
3
330
2
100
AcDbDictionary
280
     1
281
     1
  3
ACAD_SORTENTS
360
254
  0
DICTIONARY
  5
564
330
29D
100
AcDbDictionary
280
     1
281
     1
  0
DICTIONARY
  5
56D
330
4CF
100
AcDbDictionary
280
     1
281
     1
  3
ACAD_MTEXT_2008_RT
360
56E
  0
DICTIONARY
  5
56F
330
513
100
AcDbDictionary
280
     1
281
     1
  3
ACAD_MTEXT_2008_RT
360
570
  0
DICTIONARY
  5
571
330
514
100
AcDbDictionary
280
     1
281
     1
  3
ACAD_MTEXT_2008_RT
360
572
  0
DICTIONARY
  5
573
330
539
100
AcDbDictionary
280
     1
281
     1
  3
ACAD_MTEXT_2008_RT
360
574
  0
DICTIONARY
  5
575
330
53C
100
AcDbDictionary
280
     1
281
     1
  3
ACAD_MTEXT_2008_RT
360
576
  0
DICTIONARY
  5
577
330
53D
100
AcDbDictionary
280
     1
281
     1
  3
ACAD_MTEXT_2008_RT
360
578
  0
DICTIONARY
  5
579
330
547
100
AcDbDictionary
280
     1
281
     1
  3
ACAD_MTEXT_2008_RT
360
57A
  0
DICTIONARY
  5
57B
330
548
100
AcDbDictionary
280
     1
281
     1
  3
ACAD_MTEXT_2008_RT
360
57C
  0
DICTIONARY
  5
57D
330
549
100
AcDbDictionary
280
     1
281
     1
  3
ACAD_MTEXT_2008_RT
360
57E
  0
DICTIONARY
  5
57F
330
557
100
AcDbDictionary
280
     1
281
     1
  3
ACAD_MTEXT_2008_RT
360
580
  0
DICTIONARY
  5
581
330
558
100
AcDbDictionary
280
     1
281
     1
  3
ACAD_MTEXT_2008_RT
360
582
  0
DICTIONARY
  5
583
330
559
100
AcDbDictionary
280
     1
281
     1
  3
ACAD_MTEXT_2008_RT
360
584
  0
DICTIONARY
  5
56A
330
D5
100
AcDbDictionary
280
     1
281
     1
  3
ACAD_MTEXT_2008_RT
360
56B
  0
DICTIONARY
  5
177
330
176
100
AcDbDictionary
280
     1
281
     1
  3
ACAD_DIMASSOC
360
178
  0
DICTIONARY
  5
18C
330
18B
100
AcDbDictionary
280
     1
281
     1
  3
ACAD_DIMASSOC
360
18D
  0
DICTIONARY
  5
1A9
330
1A8
100
AcDbDictionary
280
     1
281
     1
  3
ACAD_DIMASSOC
360
1AA
  0
DICTIONARY
  5
1B8
330
1B7
100
AcDbDictionary
280
     1
281
     1
  3
ACAD_DIMASSOC
360
1B9
  0
DICTIONARY
  5
1C7
330
1C6
100
AcDbDictionary
280
     1
281
     1
  3
ACAD_DIMASSOC
360
1C8
  0
DICTIONARY
  5
1D7
330
1D6
100
AcDbDictionary
280
     1
281
     1
  3
ACAD_DIMASSOC
360
1D8
  0
DICTIONARY
  5
22B
102
{ACAD_REACTORS
330
B
102
}
330
B
100
AcDbDictionary
281
     1
  0
DICTIONARY
  5
218
102
{ACAD_REACTORS
330
B
102
}
330
B
100
AcDbDictionary
281
     1
  0
DICTIONARY
  5
1F9
102
{ACAD_REACTORS
330
B
102
}
330
B
100
AcDbDictionary
281
     1
  3
Layout1
350
1FE
  3
Layout2
350
202
  3
Model
350
1F8
  0
DICTIONARY
  5
D
102
{ACAD_REACTORS
330
B
102
}
330
B
100
AcDbDictionary
281
     1
  3
ByBlock
350
223
  3
ByLayer
350
21B
  3
Global
350
C
  0
DICTIONARY
  5
28D
102
{ACAD_REACTORS
330
B
102
}
330
B
100
AcDbDictionary
281
     1
  3
Standard
350
28E
  0
DICTIONARY
  5
219
102
{ACAD_REACTORS
330
B
102
}
330
B
100
AcDbDictionary
281
     1
  3
Standard
350
22E
  0
DICTIONARY
  5
21A
102
{ACAD_REACTORS
330
B
102
}
330
B
100
AcDbDictionary
281
     1
  0
ACDBDICTIONARYWDFLT
  5
A
102
{ACAD_REACTORS
330
B
102
}
330
B
100
AcDbDictionary
281
     1
  3
Normal
350
9
100
AcDbDictionaryWithDefault
340
9
  0
DICTIONARY
  5
22C
102
{ACAD_REACTORS
330
B
102
}
330
B
100
AcDbDictionary
281
     1
  3
A0
350
233
  3
A1
350
234
  3
A2
350
235
  3
A3
350
236
  3
A4
350
237
  3
A5
350
238
  3
A6
350
239
  3
A7
350
23A
  3
A8
350
23B
  3
A9
350
23C
  3
B0
350
23D
  3
B1
350
23E
  3
B2
350
23F
  3
B3
350
240
  3
B4
350
241
  3
B5
350
242
  3
B6
350
243
  3
B7
350
244
  3
B8
350
245
  3
B9
350
246
  3
C0
350
247
  3
C1
350
248
  3
C2
350
249
  3
C3
350
24A
  3
C4
350
24B
  3
C5
350
24C
  3
C6
350
24D
  3
C7
350
24E
  3
C8
350
24F
  3
C9
350
250
  3
D0
350
251
  3
D1
350
252
  3
D2
350
253
  0
DICTIONARY
  5
22D
102
{ACAD_REACTORS
330
B
102
}
330
B
100
AcDbDictionary
281
     1
  3
Standard
350
22F
  0
DICTIONARY
  5
212
102
{ACAD_REACTORS
330
B
102
}
330
B
100
AcDbDictionary
281
     1
  3
2dWireframe
350
211
  3
3D Hidden
350
285
  3
3dWireframe
350
232
  3
Basic
350
284
  3
Brighten
350
288
  3
ColorChange
350
28C
  3
Conceptual
350
286
  3
Dim
350
287
  3
Facepattern
350
28B
  3
Flat
350
280
  3
FlatWithEdges
350
281
  3
Gouraud
350
282
  3
GouraudWithEdges
350
283
  3
Linepattern
350
28A
  3
Realistic
350
231
  3
Thicken
350
289
  0
XRECORD
  5
27D
102
{ACAD_REACTORS
330
B
102
}
330
B
100
AcDbXrecord
280
     1
 90
        1
330
D5
330
22F
330
4CF
330
513
330
514
330
539
330
53C
330
53D
330
547
330
548
330
549
330
557
330
558
330
559
  0
DICTIONARY
  5
255
102
{ACAD_REACTORS
330
B
102
}
330
B
100
AcDbDictionary
281
     1
  3
CANNOSCALE
350
258
  3
CMLEADERSTYLE
350
257
  3
CTABLESTYLE
350
256
  3
DIMASSOC
350
3A4
  3
HIDETEXT
350
3A3
  3
INDEXCTL
350
3A2
  3
LIGHTINGUNITS
350
259
  3
MSLTSCALE
350
3A0
  3
SORTENTS
350
3A1
  0
DICTIONARY
  5
205
102
{ACAD_REACTORS
330
204
102
}
330
204
100
AcDbDictionary
281
     1
  0
DICTIONARY
  5
206
102
{ACAD_REACTORS
330
204
102
}
330
204
100
AcDbDictionary
281
     1
  0
DICTIONARY
  5
207
102
{ACAD_REACTORS
330
204
102
}
330
204
100
AcDbDictionary
281
     1
1001
ACAD
1000
<All
  0
XRECORD
  5
8
102
{ACAD_REACTORS
330
7
102
}
330
7
100
AcDbXrecord
280
     1
290
     1
  0
XRECORD
  5
19
102
{ACAD_REACTORS
330
18
102
}
330
18
100
AcDbXrecord
280
     1
290
     1
  0
XRECORD
  5
27
102
{ACAD_REACTORS
330
26
102
}
330
26
100
AcDbXrecord
280
     1
290
     1
  0
SORTENTSTABLE
  5
254
102
{ACAD_REACTORS
330
3
102
}
330
3
100
AcDbSortentsTable
330
2
331
161
  5
173
331
169
  5
19E
331
1A1
  5
1EC
331
1E9
  5
CD
331
1F2
  5
D7
331
105
  5
117
331
174
  5
1B7
331
CE
  5
D1
331
10D
  5
11F
331
115
  5
127
331
DE
  5
EF
331
11D
  5
133
331
142
  5
154
331
14A
  5
15C
331
152
  5
164
331
15A
  5
16C
331
125
  5
13B
331
E6
  5
F8
331
EE
  5
100
331
135
  5
147
331
D5
  5
E6
331
F6
  5
108
331
12E
  5
140
331
13D
  5
14F
331
FE
  5
110
331
162
  5
174
331
16A
  5
19F
331
1A2
  5
1ED
331
1EA
  5
CA
331
1F3
  5
F0
331
175
  5
1C6
331
106
  5
118
331
10E
  5
120
331
CF
  5
D2
331
116
  5
12B
331
DF
  5
F1
331
11E
  5
134
331
143
  5
155
331
14B
  5
15D
331
153
  5
165
331
15B
  5
16D
331
E7
  5
F9
331
126
  5
13C
331
EF
  5
101
331
136
  5
148
331
13E
  5
150
331
12F
  5
141
331
F7
  5
109
331
FF
  5
111
331
163
  5
175
331
16B
  5
1A0
331
1A3
  5
1EE
331
1EB
  5
C8
331
1F4
  5
E5
331
107
  5
119
331
176
  5
1D6
331
C8
  5
C9
331
10F
  5
121
331
D8
  5
E8
331
117
  5
12D
331
11F
  5
135
331
144
  5
156
331
14C
  5
15E
331
154
  5
166
331
15C
  5
16E
331
1C6
  5
1F5
331
E0
  5
F2
331
127
  5
13D
331
1D6
  5
1F6
331
E8
  5
FA
331
F0
  5
102
331
137
  5
149
331
D7
  5
E7
331
F8
  5
10A
331
13F
  5
151
331
164
  5
176
331
16C
  5
1A1
331
1A4
  5
1EF
331
1EC
  5
EB
331
100
  5
112
331
1F5
  5
DD
331
C9
  5
CB
331
19B
  5
1E6
331
108
  5
11A
331
110
  5
122
331
118
  5
12E
331
1B7
  5
1F4
331
D9
  5
E9
331
145
  5
157
331
14D
  5
15F
331
155
  5
167
331
15D
  5
16F
331
E1
  5
F3
331
120
  5
136
331
E9
  5
FB
331
130
  5
142
331
D0
  5
D3
331
138
  5
14A
331
F1
  5
103
331
F9
  5
10B
331
165
  5
18B
331
16D
  5
1A2
331
1A5
  5
1F0
331
1ED
  5
E3
331
101
  5
113
331
1F6
  5
D4
331
170
  5
1A5
331
CA
  5
CC
331
19C
  5
1E7
331
109
  5
11B
331
1A8
  5
1F3
331
111
  5
123
331
DA
  5
EA
331
119
  5
12F
331
146
  5
158
331
14E
  5
160
331
156
  5
168
331
15E
  5
170
331
121
  5
137
331
E2
  5
F4
331
131
  5
143
331
D1
  5
D5
331
EA
  5
FC
331
F2
  5
104
331
139
  5
14B
331
FA
  5
10C
331
166
  5
19B
331
16E
  5
1A3
331
1A6
  5
1F1
331
1EE
  5
E1
331
171
  5
1A6
331
102
  5
114
331
CB
  5
CE
331
19D
  5
1E8
331
10A
  5
11C
331
1E5
  5
E0
331
112
  5
124
331
11A
  5
130
331
147
  5
159
331
14F
  5
161
331
157
  5
169
331
15F
  5
171
331
E3
  5
F5
331
122
  5
138
331
D2
  5
DC
331
EB
  5
FD
331
132
  5
144
331
13A
  5
14C
331
F3
  5
105
331
12B
  5
13E
331
FB
  5
10D
331
167
  5
19C
331
16F
  5
1A4
331
1A7
  5
1F2
331
1EF
  5
DF
331
18B
  5
1E5
331
1F0
  5
DB
331
103
  5
115
331
172
  5
1A7
331
CC
  5
CF
331
19E
  5
1E9
331
10B
  5
11D
331
1E6
  5
D8
331
113
  5
125
331
11B
  5
131
331
140
  5
152
331
148
  5
15A
331
150
  5
162
331
158
  5
16A
331
123
  5
139
331
E4
  5
F6
331
EC
  5
FE
331
133
  5
145
331
D3
  5
DE
331
F4
  5
106
331
13B
  5
14D
331
FC
  5
10E
331
160
  5
172
331
168
  5
19D
331
1A0
  5
1EB
331
1E8
  5
DA
331
1F1
  5
D9
331
173
  5
1A8
331
104
  5
116
331
CD
  5
D0
331
19F
  5
1EA
331
10C
  5
11E
331
1E7
  5
E2
331
114
  5
126
331
DD
  5
EE
331
11C
  5
132
331
141
  5
153
331
149
  5
15B
331
151
  5
163
331
159
  5
16B
331
E5
  5
F7
331
124
  5
13A
331
D4
  5
E4
331
ED
  5
FF
331
134
  5
146
331
13C
  5
14E
331
F5
  5
107
331
12D
  5
13F
331
FD
  5
10F
  0
XRECORD
  5
56E
102
{ACAD_REACTORS
330
56D
102
}
330
56D
100
AcDbXrecord
280
     1
 40
1527.0
  1
\pxqc;BQ LUO
  0
XRECORD
  5
570
102
{ACAD_REACTORS
330
56F
102
}
330
56F
100
AcDbXrecord
280
     1
 40
3624820.0
  1
\pxqc;档案员{\H0.7x;\P\Fromans|c134;Filing Clerk\fFangSong_GB2312|b0|i0|c134|p49; }
  0
XRECORD
  5
572
102
{ACAD_REACTORS
330
571
102
}
330
571
100
AcDbXrecord
280
     1
 40
2054623.0
  1
\pxqc;日期{\Fromans|c134;/Date}
  0
XRECORD
  5
574
102
{ACAD_REACTORS
330
573
102
}
330
573
100
AcDbXrecord
280
     1
 40
1836818.0
  1
\pxsm0.7;{\fFangSong_GB2312|b0|i0|c134|p49;标准化}\PStand.
  0
XRECORD
  5
576
102
{ACAD_REACTORS
330
575
102
}
330
575
100
AcDbXrecord
280
     1
 40
1476476.0
  1
\pxsm0.7;签名\P{\Fromans|c134;Signature} 
  0
XRECORD
  5
578
102
{ACAD_REACTORS
330
577
102
}
330
577
100
AcDbXrecord
280
     1
 40
1354713.0
  1
\pxsm0.7,qc;处数\P{\Fromans|c134;Number }
  0
XRECORD
  5
57A
102
{ACAD_REACTORS
330
579
102
}
330
579
100
AcDbXrecord
280
     1
 40
1692934.0
  1
\pxsm0.7;标记\P{\Fromans|c134;Mark}
  0
XRECORD
  5
57C
102
{ACAD_REACTORS
330
57B
102
}
330
57B
100
AcDbXrecord
280
     1
 40
1391581.0
  1
\pxsm0.7;审核\P{\Fromans|c134;Checked}
  0
XRECORD
  5
57E
102
{ACAD_REACTORS
330
57D
102
}
330
57D
100
AcDbXrecord
280
     1
 40
1546703.0
  1
\pxsm0.7;绘图\P{\Fromans|c134;Drawn\Ftxt|c134; }
  0
XRECORD
  5
580
102
{ACAD_REACTORS
330
57F
102
}
330
57F
100
AcDbXrecord
280
     1
 40
1293614.0
  1
\pxsm0.7;批准\P{\Fromans|c134;Approved}
  0
XRECORD
  5
582
102
{ACAD_REACTORS
330
581
102
}
330
581
100
AcDbXrecord
280
     1
 40
1583427.0
  1
\pxsm0.7;工艺\P{\Fromans|c134;Process}
  0
XRECORD
  5
584
102
{ACAD_REACTORS
330
583
102
}
330
583
100
AcDbXrecord
280
     1
 40
1435325.0
  1
\pxsm0.7;日期\P{\Fromans|c134;Date}
  0
XRECORD
  5
56B
102
{ACAD_REACTORS
330
56A
102
}
330
56A
100
AcDbXrecord
280
     1
 40
324930007.0
  1
\A1;\pxql;{\f仿宋_GB2312|b0|i0|c134|p49;技术参数}:\P\pq*;- {\f仿宋_GB2312|b0|i0|c134|p49;材料}: {\f仿宋_GB2312|b0|i0|c134|p49;铜合金}\P- {\f仿宋_GB2312|b0|i0|c134|p49;表面处理}: {\f仿宋_GB2312|b0|i0|c134|p49;镀金}\P\pql;- {\f仿宋_GB2312|b0|i0|c134|p49;额定电流}: 5A\P- {\f仿宋_GB2312
  1
|b0|i0|c134|p49;接触电阻}: ≤3mΩ\P- {\f仿宋_GB2312|b0|i0|c134|p49;线径范围}: 0.52-0.82mm{\H0.7x;\S2^ ;}(22-18 AWG)\P\pq*;- {\f仿宋_GB2312|b0|i0|c134|p49;可插拔次数}: {\f仿宋_GB2312|b0|i0|c134|p49;≥}500\P\P\pql;Technical specification:\P- Material: copper alloy\P- Surface
  1
: hard-gold plated\P- Rated current: 5A\P- Contact resistance: ≤3mΩ\P- Wire gauge: 0.52-0.82mm{\H0.7x;\S2^ ;}(22-18 AWG)\P- Mating cycles: {\f仿宋_GB2312|b0|i0|c134|p49;≥}500
  0
DIMASSOC
  5
178
102
{ACAD_REACTORS
330
177
102
}
330
177
100
AcDbDimAssoc
330
176
 90
        3
 70
     0
 71
     0
  1
AcDbOsnapPointRef
 72
    10
331
16C
 73
     2
 91
        0
 40
0.9651737921256227
 10
0.0
 20
0.0
 30
0.0
 75
     0
  1
AcDbOsnapPointRef
 72
     8
331
16B
 73
     2
 91
        0
 40
0.0348262078743771
 10
0.0
 20
0.0
 30
0.0
 75
     1
  1
AcDbOsnapPointRef
 72
    10
331
16C
 73
     2
 91
        0
 40
0.9651737921256227
 10
0.0
 20
0.0
 30
0.0
 75
     0
  0
DIMASSOC
  5
18D
102
{ACAD_REACTORS
330
18C
102
}
330
18C
100
AcDbDimAssoc
330
18B
 90
        1
 70
     0
 71
     0
  1
AcDbOsnapPointRef
 72
     1
331
171
 73
     2
 91
        0
 40
1.0
 10
0.0
 20
0.0
 30
2.000000000000000E+50
 75
     0
  0
DIMASSOC
  5
1AA
102
{ACAD_REACTORS
330
1A9
102
}
330
1A9
100
AcDbDimAssoc
330
1A8
 90
        2
 70
     0
 71
     0
  1
AcDbOsnapPointRef
 72
    13
331
175
 73
     2
 91
        0
 40
0.0
 10
0.0
 20
0.0
 30
2.000000000000000E+50
 75
     0
  0
DIMASSOC
  5
1B9
102
{ACAD_REACTORS
330
1B8
102
}
330
1B8
100
AcDbDimAssoc
330
1B7
 90
        1
 70
     0
 71
     0
  1
AcDbOsnapPointRef
 72
     1
331
164
 73
     2
 91
        0
 40
1.0
 10
0.0
 20
0.0
 30
2.000000000000000E+50
 75
     0
  0
DIMASSOC
  5
1C8
102
{ACAD_REACTORS
330
1C7
102
}
330
1C7
100
AcDbDimAssoc
330
1C6
 90
        3
 70
     0
 71
     0
  1
AcDbOsnapPointRef
 72
    13
331
164
 73
     2
 91
        0
 40
0.0
 10
0.0
 20
0.0
 30
2.000000000000000E+50
 75
     0
  1
AcDbOsnapPointRef
 72
     8
331
162
 73
     2
 91
        0
 40
0.0
 10
0.0
 20
0.0
 30
0.0
 75
     1
  1
AcDbOsnapPointRef
 72
    13
331
164
 73
     2
 91
        0
 40
0.0
 10
0.0
 20
0.0
 30
2.000000000000000E+50
 75
     0
  0
DIMASSOC
  5
1D8
102
{ACAD_REACTORS
330
1D7
102
}
330
1D7
100
AcDbDimAssoc
330
1D6
 90
        2
 70
     0
 71
     0
  1
AcDbOsnapPointRef
 72
    13
331
16E
 73
     2
 91
        0
 40
0.0
 10
0.0
 20
0.0
 30
2.000000000000000E+50
 75
     0
  0
LAYOUT
  5
1FE
102
{ACAD_REACTORS
330
1F9
102
}
330
1F9
100
AcDbPlotSettings
  1

  2
none_device
  4

  6

 40
0.0
 41
0.0
 42
0.0
 43
0.0
 44
0.0
 45
0.0
 46
0.0
 47
0.0
 48
0.0
 49
0.0
140
0.0
141
0.0
142
1.0
143
1.0
 70
   688
 72
     0
 73
     0
 74
     5
  7

 75
    16
147
1.0
 76
     0
 77
     2
 78
   300
148
0.0
149
0.0
100
AcDbLayout
  1
Layout1
 70
     1
 71
     1
 10
0.0
 20
0.0
 11
12.0
 21
9.0
 12
0.0
 22
0.0
 32
0.0
 14
1.000000000000000E+20
 24
1.000000000000000E+20
 34
1.000000000000000E+20
 15
-1.000000000000000E+20
 25
-1.000000000000000E+20
 35
-1.000000000000000E+20
146
0.0
 13
0.0
 23
0.0
 33
0.0
 16
1.0
 26
0.0
 36
0.0
 17
0.0
 27
1.0
 37
0.0
 76
     0
330
1FB
  0
LAYOUT
  5
202
102
{ACAD_REACTORS
330
1F9
102
}
330
1F9
100
AcDbPlotSettings
  1

  2
none_device
  4

  6

 40
0.0
 41
0.0
 42
0.0
 43
0.0
 44
0.0
 45
0.0
 46
0.0
 47
0.0
 48
0.0
 49
0.0
140
0.0
141
0.0
142
1.0
143
1.0
 70
   688
 72
     0
 73
     0
 74
     5
  7

 75
    16
147
1.0
 76
     0
 77
     2
 78
   300
148
0.0
149
0.0
100
AcDbLayout
  1
Layout2
 70
     1
 71
     2
 10
0.0
 20
0.0
 11
0.0
 21
0.0
 12
0.0
 22
0.0
 32
0.0
 14
0.0
 24
0.0
 34
0.0
 15
0.0
 25
0.0
 35
0.0
146
0.0
 13
0.0
 23
0.0
 33
0.0
 16
1.0
 26
0.0
 36
0.0
 17
0.0
 27
1.0
 37
0.0
 76
     0
330
1FF
  0
LAYOUT
  5
1F8
102
{ACAD_REACTORS
330
1F9
102
}
330
1F9
100
AcDbPlotSettings
  1

  2
Adobe PDF Converter.pc3
  4
A4
  6

 40
3.174999952316281
 41
3.174999952316281
 42
3.17498779296875
 43
3.175003051757812
 44
297.0318298339844
 45
209.9733276367186
 46
0.0000000000000076
 47
1.630241740247063
 48
246.9897427644609
 49
39.36804549891383
140
544.952097801264
141
244.7492402188181
142
1.0
143
1.025046328645055
 70
  3764
 72
     1
 73
     0
 74
     4
  7
monochrome.ctb
 75
     0
147
0.9755656618192436
 76
     1
 77
     2
 78
   300
148
-246.9897427644609
149
-39.36804549891383
100
AcDbLayout
  1
Model
 70
     1
 71
     0
 10
0.0
 20
0.0
 11
12.0
 21
9.0
 12
0.0
 22
0.0
 32
0.0
 14
1.000000000000000E+20
 24
1.000000000000000E+20
 34
1.000000000000000E+20
 15
-1.000000000000000E+20
 25
-1.000000000000000E+20
 35
-1.000000000000000E+20
146
0.0
 13
0.0
 23
0.0
 33
0.0
 16
1.0
 26
0.0
 36
0.0
 17
0.0
 27
1.0
 37
0.0
 76
     0
330
2
331
210
1001
ACAD_PSEXT
1000
Adobe PDF Converter.pc3
1000
Adobe PDF Converter
1000
桌面\*.pdf
1000

1070
     0
  0
MATERIAL
  5
223
102
{ACAD_XDICTIONARY
360
224
102
}
102
{ACAD_REACTORS
330
D
102
}
330
D
100
AcDbMaterial
  1
ByBlock
 72
     0
 43
0.0208333333333333
 43
0.0
 43
0.0
 43
0.0
 43
0.0
 43
0.0208333333333333
 43
0.0
 43
0.0
 43
0.0
 43
0.0
 43
1.0
 43
0.0
 43
0.0
 43
0.0
 43
0.0
 43
1.0
 77
     0
 47
0.0208333333333333
 47
0.0
 47
0.0
 47
0.0
 47
0.0
 47
0.0208333333333333
 47
0.0
 47
0.0
 47
0.0
 47
0.0
 47
1.0
 47
0.0
 47
0.0
 47
0.0
 47
0.0
 47
1.0
171
     0
 49
0.0208333333333333
 49
0.0
 49
0.0
 49
0.0
 49
0.0
 49
0.0208333333333333
 49
0.0
 49
0.0
 49
0.0
 49
0.0
 49
1.0
 49
0.0
 49
0.0
 49
0.0
 49
0.0
 49
1.0
175
     0
142
0.0208333333333333
142
0.0
142
0.0
142
0.0
142
0.0
142
0.0208333333333333
142
0.0
142
0.0
142
0.0
142
0.0
142
1.0
142
0.0
142
0.0
142
0.0
142
0.0
142
1.0
179
     0
144
0.0208333333333333
144
0.0
144
0.0
144
0.0
144
0.0
144
0.0208333333333333
144
0.0
144
0.0
144
0.0
144
0.0
144
1.0
144
0.0
144
0.0
144
0.0
144
0.0
144
1.0
147
0.0208333333333333
147
0.0
147
0.0
147
0.0
147
0.0
147
0.0208333333333333
147
0.0
147
0.0
147
0.0
147
0.0
147
1.0
147
0.0
147
0.0
147
0.0
147
0.0
147
1.0
  0
MATERIAL
  5
21B
102
{ACAD_XDICTIONARY
360
21C
102
}
102
{ACAD_REACTORS
330
D
102
}
330
D
100
AcDbMaterial
  1
ByLayer
 72
     0
 43
0.0208333333333333
 43
0.0
 43
0.0
 43
0.0
 43
0.0
 43
0.0208333333333333
 43
0.0
 43
0.0
 43
0.0
 43
0.0
 43
1.0
 43
0.0
 43
0.0
 43
0.0
 43
0.0
 43
1.0
 77
     0
 47
0.0208333333333333
 47
0.0
 47
0.0
 47
0.0
 47
0.0
 47
0.0208333333333333
 47
0.0
 47
0.0
 47
0.0
 47
0.0
 47
1.0
 47
0.0
 47
0.0
 47
0.0
 47
0.0
 47
1.0
171
     0
 49
0.0208333333333333
 49
0.0
 49
0.0
 49
0.0
 49
0.0
 49
0.0208333333333333
 49
0.0
 49
0.0
 49
0.0
 49
0.0
 49
1.0
 49
0.0
 49
0.0
 49
0.0
 49
0.0
 49
1.0
175
     0
142
0.0208333333333333
142
0.0
142
0.0
142
0.0
142
0.0
142
0.0208333333333333
142
0.0
142
0.0
142
0.0
142
0.0
142
1.0
142
0.0
142
0.0
142
0.0
142
0.0
142
1.0
179
     0
144
0.0208333333333333
144
0.0
144
0.0
144
0.0
144
0.0
144
0.0208333333333333
144
0.0
144
0.0
144
0.0
144
0.0
144
1.0
144
0.0
144
0.0
144
0.0
144
0.0
144
1.0
147
0.0208333333333333
147
0.0
147
0.0
147
0.0
147
0.0
147
0.0208333333333333
147
0.0
147
0.0
147
0.0
147
0.0
147
1.0
147
0.0
147
0.0
147
0.0
147
0.0
147
1.0
  0
MATERIAL
  5
C
102
{ACAD_XDICTIONARY
360
E
102
}
102
{ACAD_REACTORS
330
D
102
}
330
D
100
AcDbMaterial
  1
Global
 72
     0
 43
0.0208333333333333
 43
0.0
 43
0.0
 43
0.0
 43
0.0
 43
0.0208333333333333
 43
0.0
 43
0.0
 43
0.0
 43
0.0
 43
1.0
 43
0.0
 43
0.0
 43
0.0
 43
0.0
 43
1.0
 77
     0
 47
0.0208333333333333
 47
0.0
 47
0.0
 47
0.0
 47
0.0
 47
0.0208333333333333
 47
0.0
 47
0.0
 47
0.0
 47
0.0
 47
1.0
 47
0.0
 47
0.0
 47
0.0
 47
0.0
 47
1.0
171
     0
 49
0.0208333333333333
 49
0.0
 49
0.0
 49
0.0
 49
0.0
 49
0.0208333333333333
 49
0.0
 49
0.0
 49
0.0
 49
0.0
 49
1.0
 49
0.0
 49
0.0
 49
0.0
 49
0.0
 49
1.0
175
     0
142
0.0208333333333333
142
0.0
142
0.0
142
0.0
142
0.0
142
0.0208333333333333
142
0.0
142
0.0
142
0.0
142
0.0
142
1.0
142
0.0
142
0.0
142
0.0
142
0.0
142
1.0
179
     0
144
0.0208333333333333
144
0.0
144
0.0
144
0.0
144
0.0
144
0.0208333333333333
144
0.0
144
0.0
144
0.0
144
0.0
144
1.0
144
0.0
144
0.0
144
0.0
144
0.0
144
1.0
147
0.0208333333333333
147
0.0
147
0.0
147
0.0
147
0.0
147
0.0208333333333333
147
0.0
147
0.0
147
0.0
147
0.0
147
1.0
147
0.0
147
0.0
147
0.0
147
0.0
147
1.0
  0
MLEADERSTYLE
  5
28E
102
{ACAD_REACTORS
330
28D
102
}
330
28D
100
AcDbMLeaderStyle
170
     2
171
     1
172
     0
 90
        2
 40
0.0
 41
0.0
173
     1
 91
-1056964608
340
20B
 92
       -2
290
     1
 42
0.09
291
     1
 43
0.36
  3
Standard
 44
0.18
300

342
42
174
     1
178
     6
175
     1
176
     0
 93
-1056964608
 45
0.18
292
     0
297
     0
 46
0.18
 94
-1056964608
 47
1.0
 49
1.0
140
1.0
293
     1
141
0.0
294
     1
177
     0
142
1.0
295
     0
296
     0
143
0.125
1001
ACAD_MLEADERVER
1070
     2
  0
MLINESTYLE
  5
22E
102
{ACAD_REACTORS
330
219
102
}
330
219
100
AcDbMlineStyle
  2
STANDARD
 70
     0
  3

 62
   256
 51
90.0
 52
90.0
 71
     2
 49
0.5
 62
   256
  6
BYLAYER
 49
-0.5
 62
   256
  6
BYLAYER
  0
ACDBPLACEHOLDER
  5
9
102
{ACAD_REACTORS
330
A
102
}
330
A
  0
SCALE
  5
233
102
{ACAD_REACTORS
330
22C
102
}
330
22C
100
AcDbScale
 70
     0
300
1:1
140
1.0
141
1.0
290
     1
  0
SCALE
  5
234
102
{ACAD_REACTORS
330
22C
102
}
330
22C
100
AcDbScale
 70
     0
300
1:2
140
1.0
141
2.0
290
     0
  0
SCALE
  5
235
102
{ACAD_REACTORS
330
22C
102
}
330
22C
100
AcDbScale
 70
     0
300
1:4
140
1.0
141
4.0
290
     0
  0
SCALE
  5
236
102
{ACAD_REACTORS
330
22C
102
}
330
22C
100
AcDbScale
 70
     0
300
1:5
140
1.0
141
5.0
290
     0
  0
SCALE
  5
237
102
{ACAD_REACTORS
330
22C
102
}
330
22C
100
AcDbScale
 70
     0
300
1:8
140
1.0
141
8.0
290
     0
  0
SCALE
  5
238
102
{ACAD_REACTORS
330
22C
102
}
330
22C
100
AcDbScale
 70
     0
300
1:10
140
1.0
141
10.0
290
     0
  0
SCALE
  5
239
102
{ACAD_REACTORS
330
22C
102
}
330
22C
100
AcDbScale
 70
     0
300
1:16
140
1.0
141
16.0
290
     0
  0
SCALE
  5
23A
102
{ACAD_REACTORS
330
22C
102
}
330
22C
100
AcDbScale
 70
     0
300
1:20
140
1.0
141
20.0
290
     0
  0
SCALE
  5
23B
102
{ACAD_REACTORS
330
22C
102
}
330
22C
100
AcDbScale
 70
     0
300
1:30
140
1.0
141
30.0
290
     0
  0
SCALE
  5
23C
102
{ACAD_REACTORS
330
22C
102
}
330
22C
100
AcDbScale
 70
     0
300
1:40
140
1.0
141
40.0
290
     0
  0
SCALE
  5
23D
102
{ACAD_REACTORS
330
22C
102
}
330
22C
100
AcDbScale
 70
     0
300
1:50
140
1.0
141
50.0
290
     0
  0
SCALE
  5
23E
102
{ACAD_REACTORS
330
22C
102
}
330
22C
100
AcDbScale
 70
     0
300
1:100
140
1.0
141
100.0
290
     0
  0
SCALE
  5
23F
102
{ACAD_REACTORS
330
22C
102
}
330
22C
100
AcDbScale
 70
     0
300
2:1
140
2.0
141
1.0
290
     0
  0
SCALE
  5
240
102
{ACAD_REACTORS
330
22C
102
}
330
22C
100
AcDbScale
 70
     0
300
4:1
140
4.0
141
1.0
290
     0
  0
SCALE
  5
241
102
{ACAD_REACTORS
330
22C
102
}
330
22C
100
AcDbScale
 70
     0
300
8:1
140
8.0
141
1.0
290
     0
  0
SCALE
  5
242
102
{ACAD_REACTORS
330
22C
102
}
330
22C
100
AcDbScale
 70
     0
300
10:1
140
10.0
141
1.0
290
     0
  0
SCALE
  5
243
102
{ACAD_REACTORS
330
22C
102
}
330
22C
100
AcDbScale
 70
     0
300
100:1
140
100.0
141
1.0
290
     0
  0
SCALE
  5
244
102
{ACAD_REACTORS
330
22C
102
}
330
22C
100
AcDbScale
 70
     0
300
1/128" = 1'-0"
140
0.0078125
141
12.0
290
     0
  0
SCALE
  5
245
102
{ACAD_REACTORS
330
22C
102
}
330
22C
100
AcDbScale
 70
     0
300
1/64" = 1'-0"
140
0.015625
141
12.0
290
     0
  0
SCALE
  5
246
102
{ACAD_REACTORS
330
22C
102
}
330
22C
100
AcDbScale
 70
     0
300
1/32" = 1'-0"
140
0.03125
141
12.0
290
     0
  0
SCALE
  5
247
102
{ACAD_REACTORS
330
22C
102
}
330
22C
100
AcDbScale
 70
     0
300
1/16" = 1'-0"
140
0.0625
141
12.0
290
     0
  0
SCALE
  5
248
102
{ACAD_REACTORS
330
22C
102
}
330
22C
100
AcDbScale
 70
     0
300
3/32" = 1'-0"
140
0.09375
141
12.0
290
     0
  0
SCALE
  5
249
102
{ACAD_REACTORS
330
22C
102
}
330
22C
100
AcDbScale
 70
     0
300
1/8" = 1'-0"
140
0.125
141
12.0
290
     0
  0
SCALE
  5
24A
102
{ACAD_REACTORS
330
22C
102
}
330
22C
100
AcDbScale
 70
     0
300
3/16" = 1'-0"
140
0.1875
141
12.0
290
     0
  0
SCALE
  5
24B
102
{ACAD_REACTORS
330
22C
102
}
330
22C
100
AcDbScale
 70
     0
300
1/4" = 1'-0"
140
0.25
141
12.0
290
     0
  0
SCALE
  5
24C
102
{ACAD_REACTORS
330
22C
102
}
330
22C
100
AcDbScale
 70
     0
300
3/8" = 1'-0"
140
0.375
141
12.0
290
     0
  0
SCALE
  5
24D
102
{ACAD_REACTORS
330
22C
102
}
330
22C
100
AcDbScale
 70
     0
300
1/2" = 1'-0"
140
0.5
141
12.0
290
     0
  0
SCALE
  5
24E
102
{ACAD_REACTORS
330
22C
102
}
330
22C
100
AcDbScale
 70
     0
300
3/4" = 1'-0"
140
0.75
141
12.0
290
     0
  0
SCALE
  5
24F
102
{ACAD_REACTORS
330
22C
102
}
330
22C
100
AcDbScale
 70
     0
300
1" = 1'-0"
140
1.0
141
12.0
290
     0
  0
SCALE
  5
250
102
{ACAD_REACTORS
330
22C
102
}
330
22C
100
AcDbScale
 70
     0
300
1-1/2" = 1'-0"
140
1.5
141
12.0
290
     0
  0
SCALE
  5
251
102
{ACAD_REACTORS
330
22C
102
}
330
22C
100
AcDbScale
 70
     0
300
3" = 1'-0"
140
3.0
141
12.0
290
     0
  0
SCALE
  5
252
102
{ACAD_REACTORS
330
22C
102
}
330
22C
100
AcDbScale
 70
     0
300
6" = 1'-0"
140
6.0
141
12.0
290
     0
  0
SCALE
  5
253
102
{ACAD_REACTORS
330
22C
102
}
330
22C
100
AcDbScale
 70
     0
300
1'-0" = 1'-0"
140
12.0
141
12.0
290
     0
  0
TABLESTYLE
  5
22F
102
{ACAD_XDICTIONARY
360
230
102
}
102
{ACAD_REACTORS
330
22D
102
}
330
22D
100
AcDbTableStyle
  3
Standard
 70
     0
 71
     0
 40
0.06
 41
0.06
280
     0
281
     0
  7
Standard
140
0.18
170
     2
 62
     0
 63
     7
283
     0
 90
      512
 91
        0
  1

274
    -2
284
     1
 64
     0
275
    -2
285
     1
 65
     0
276
    -2
286
     1
 66
     0
277
    -2
287
     1
 67
     0
278
    -2
288
     1
 68
     0
279
    -2
289
     1
 69
     0
  7
Standard
140
0.25
170
     5
 62
     0
 63
     7
283
     0
 90
      512
 91
        0
  1

274
    -2
284
     1
 64
     0
275
    -2
285
     1
 65
     0
276
    -2
286
     1
 66
     0
277
    -2
287
     1
 67
     0
278
    -2
288
     1
 68
     0
279
    -2
289
     1
 69
     0
  7
Standard
140
0.18
170
     5
 62
     0
 63
     7
283
     0
 90
      512
 91
        0
  1

274
    -2
284
     1
 64
     0
275
    -2
285
     1
 65
     0
276
    -2
286
     1
 66
     0
277
    -2
287
     1
 67
     0
278
    -2
288
     1
 68
     0
279
    -2
289
     1
 69
     0
  0
VISUALSTYLE
  5
211
102
{ACAD_REACTORS
330
212
102
}
330
212
100
AcDbVisualStyle
  2
2dWireframe
 70
     4
 71
     0
 72
     2
 73
     0
 90
        0
 40
-0.6
 41
-30.0
 62
     5
 63
     7
 74
     1
 91
        4
 64
     7
 65
   257
 75
     1
175
     1
 42
1.0
 92
        0
 66
   257
 43
1.0
 76
     1
 77
     6
 78
     2
 67
     7
 79
     5
170
     0
171
     0
290
     0
174
     0
 93
        1
 44
0.0
173
     0
291
     0
 45
0.0
1001
ACAD
1000
AcDbSavedByObjectVersion
1070
     0
1000
AcDbSavedByObjectVersion
1070
     0
1000
AcDbSavedByObjectVersion
1070
     0
1000
AcDbSavedByObjectVersion
1070
     0
1000
AcDbSavedByObjectVersion
1070
     0
1000
AcDbSavedByObjectVersion
1070
     0
1000
AcDbSavedByObjectVersion
1070
     0
1000
AcDbSavedByObjectVersion
1070
     0
1000
AcDbSavedByObjectVersion
1070
     0
1000
AcDbSavedByObjectVersion
1070
     0
1000
AcDbSavedByObjectVersion
1070
     0
1000
AcDbSavedByObjectVersion
1070
     0
1000
AcDbSavedByObjectVersion
1070
     0
1000
AcDbSavedByObjectVersion
1070
     0
1000
AcDbSavedByObjectVersion
1070
     0
1000
AcDbSavedByObjectVersion
1070
     0
1000
AcDbSavedByObjectVersion
1070
     0
1000
AcDbSavedByObjectVersion
1070
     0
1000
AcDbSavedByObjectVersion
1070
     0
1000
AcDbSavedByObjectVersion
1070
     0
1000
AcDbSavedByObjectVersion
1070
     0
1000
AcDbSavedByObjectVersion
1070
     0
1000
AcDbSavedByObjectVersion
1070
     0
1000
AcDbSavedByObjectVersion
1070
     0
1000
AcDbSavedByObjectVersion
1070
     0
1000
AcDbSavedByObjectVersion
1070
     0
1000
AcDbSavedByObjectVersion
1070
     0
1000
AcDbSavedByObjectVersion
1070
     0
1000
AcDbSavedByObjectVersion
1070
     0
1000
AcDbSavedByObjectVersion
1070
     0
1000
AcDbSavedByObjectVersion
1070
     0
1000
AcDbSavedByObjectVersion
1070
     0
1000
AcDbSavedByObjectVersion
1070
     0
1000
AcDbSavedByObjectVersion
1070
     0
1000
AcDbSavedByObjectVersion
1070
     0
  0
VISUALSTYLE
  5
285
102
{ACAD_REACTORS
330
212
102
}
330
212
100
AcDbVisualStyle
  2
3D Hidden
 70
     6
 71
     1
 72
     2
 73
     2
 90
        0
 40
-0.6
 41
-30.0
 62
     5
 63
     7
 74
     2
 91
        2
 64
     7
 65
   257
 75
     2
175
     1
 42
40.0
 92
        0
 66
   257
 43
1.0
 76
     1
 77
     6
 78
     2
 67
     7
 79
     3
170
     0
171
     0
290
     0
174
     0
 93
        1
 44
0.0
173
     0
291
     0
 45
0.0
1001
ACAD
1000
AcDbSavedByObjectVersion
1070
     0
1000
AcDbSavedByObjectVersion
1070
     0
1000
AcDbSavedByObjectVersion
1070
     0
  0
VISUALSTYLE
  5
232
102
{ACAD_REACTORS
330
212
102
}
330
212
100
AcDbVisualStyle
  2
3dWireframe
 70
     5
 71
     0
 72
     2
 73
     0
 90
        0
 40
-0.6
 41
-30.0
 62
     5
 63
     7
 74
     1
 91
        4
 64
     7
 65
   257
 75
     1
175
     1
 42
1.0
 92
        0
 66
   257
 43
1.0
 76
     1
 77
     6
 78
     2
 67
     7
 79
     5
170
     0
171
     0
290
     0
174
     0
 93
        1
 44
0.0
173
     0
291
     0
 45
0.0
1001
ACAD
1000
AcDbSavedByObjectVersion
1070
     0
1000
AcDbSavedByObjectVersion
1070
     0
1000
AcDbSavedByObjectVersion
1070
     0
1000
AcDbSavedByObjectVersion
1070
     0
1000
AcDbSavedByObjectVersion
1070
     0
1000
AcDbSavedByObjectVersion
1070
     0
1000
AcDbSavedByObjectVersion
1070
     0
1000
AcDbSavedByObjectVersion
1070
     0
1000
AcDbSavedByObjectVersion
1070
     0
1000
AcDbSavedByObjectVersion
1070
     0
1000
AcDbSavedByObjectVersion
1070
     0
1000
AcDbSavedByObjectVersion
1070
     0
1000
AcDbSavedByObjectVersion
1070
     0
1000
AcDbSavedByObjectVersion
1070
     0
1000
AcDbSavedByObjectVersion
1070
     0
1000
AcDbSavedByObjectVersion
1070
     0
1000
AcDbSavedByObjectVersion
1070
     0
1000
AcDbSavedByObjectVersion
1070
     0
1000
AcDbSavedByObjectVersion
1070
     0
1000
AcDbSavedByObjectVersion
1070
     0
1000
AcDbSavedByObjectVersion
1070
     0
1000
AcDbSavedByObjectVersion
1070
     0
1000
AcDbSavedByObjectVersion
1070
     0
1000
AcDbSavedByObjectVersion
1070
     0
1000
AcDbSavedByObjectVersion
1070
     0
1000
AcDbSavedByObjectVersion
1070
     0
1000
AcDbSavedByObjectVersion
1070
     0
1000
AcDbSavedByObjectVersion
1070
     0
1000
AcDbSavedByObjectVersion
1070
     0
1000
AcDbSavedByObjectVersion
1070
     0
1000
AcDbSavedByObjectVersion
1070
     0
1000
AcDbSavedByObjectVersion
1070
     0
1000
AcDbSavedByObjectVersion
1070
     0
1000
AcDbSavedByObjectVersion
1070
     0
1000
AcDbSavedByObjectVersion
1070
     0
  0
VISUALSTYLE
  5
284
102
{ACAD_REACTORS
330
212
102
}
330
212
100
AcDbVisualStyle
  2
Basic
 70
     7
 71
     1
 72
     0
 73
     1
 90
        0
 40
-0.6
 41
-30.0
 62
     5
 63
     7
 74
     0
 91
        4
 64
     7
 65
   257
 75
     1
175
     1
 42
1.0
 92
        8
 66
     7
 43
1.0
 76
     1
 77
     6
 78
     2
 67
     7
 79
     5
170
     0
171
     0
290
     0
174
     0
 93
        1
 44
0.0
173
     0
291
     1
 45
0.0
1001
ACAD
1000
AcDbSavedByObjectVersion
1070
     0
1000
AcDbSavedByObjectVersion
1070
     0
1000
AcDbSavedByObjectVersion
1070
     0
  0
VISUALSTYLE
  5
288
102
{ACAD_REACTORS
330
212
102
}
330
212
100
AcDbVisualStyle
  2
Brighten
 70
    12
 71
     2
 72
     2
 73
     0
 90
        0
 40
-0.6
 41
-30.0
 62
     5
 63
     7
 74
     1
 91
        4
 64
     7
 65
   257
 75
     1
175
     1
 42
1.0
 92
        8
 66
     7
 43
1.0
 76
     1
 77
     6
 78
     2
 67
     7
 79
     5
170
     0
171
     0
290
     0
174
     0
 93
        1
 44
50.0
173
     0
291
     1
 45
0.0
1001
ACAD
1000
AcDbSavedByObjectVersion
1070
     0
1000
AcDbSavedByObjectVersion
1070
     0
1000
AcDbSavedByObjectVersion
1070
     0
  0
VISUALSTYLE
  5
28C
102
{ACAD_REACTORS
330
212
102
}
330
212
100
AcDbVisualStyle
  2
ColorChange
 70
    16
 71
     2
 72
     2
 73
     3
 90
        0
 40
-0.6
 41
-30.0
 62
     5
 63
     8
 74
     1
 91
        4
 64
     7
 65
   257
 75
     1
175
     1
 42
1.0
 92
        8
 66
     8
 43
1.0
 76
     1
 77
     6
 78
     2
 67
     7
 79
     5
170
     0
171
     0
290
     0
174
     0
 93
        1
 44
0.0
173
     0
291
     1
 45
0.0
1001
ACAD
1000
AcDbSavedByObjectVersion
1070
     0
1000
AcDbSavedByObjectVersion
1070
     0
1000
AcDbSavedByObjectVersion
1070
     0
  0
VISUALSTYLE
  5
286
102
{ACAD_REACTORS
330
212
102
}
330
212
100
AcDbVisualStyle
  2
Conceptual
 70
     9
 71
     3
 72
     2
 73
     0
 90
        0
 40
-0.6
 41
-30.0
 62
     5
 63
     7
 74
     2
 91
        2
 64
     7
 65
   257
 75
     1
175
     1
 42
40.0
 92
        8
 66
     7
 43
1.0
 76
     1
 77
     6
 78
     2
 67
     7
 79
     3
170
     0
171
     0
290
     0
174
     0
 93
        1
 44
0.0
173
     0
291
     0
 45
0.0
1001
ACAD
1000
AcDbSavedByObjectVersion
1070
     0
1000
AcDbSavedByObjectVersion
1070
     0
1000
AcDbSavedByObjectVersion
1070
     0
  0
VISUALSTYLE
  5
287
102
{ACAD_REACTORS
330
212
102
}
330
212
100
AcDbVisualStyle
  2
Dim
 70
    11
 71
     2
 72
     2
 73
     0
 90
        0
 40
-0.6
 41
-30.0
 62
     5
 63
     7
 74
     1
 91
        4
 64
     7
 65
   257
 75
     1
175
     1
 42
1.0
 92
        8
 66
     7
 43
1.0
 76
     1
 77
     6
 78
     2
 67
     7
 79
     5
170
     0
171
     0
290
     0
174
     0
 93
        1
 44
-50.0
173
     0
291
     1
 45
0.0
1001
ACAD
1000
AcDbSavedByObjectVersion
1070
     0
1000
AcDbSavedByObjectVersion
1070
     0
1000
AcDbSavedByObjectVersion
1070
     0
  0
VISUALSTYLE
  5
28B
102
{ACAD_REACTORS
330
212
102
}
330
212
100
AcDbVisualStyle
  2
Facepattern
 70
    15
 71
     2
 72
     2
 73
     0
 90
        0
 40
-0.6
 41
-30.0
 62
     5
 63
     7
 74
     1
 91
        4
 64
     7
 65
   257
 75
     1
175
     1
 42
1.0
 92
        8
 66
     7
 43
1.0
 76
     1
 77
     6
 78
     2
 67
     7
 79
     5
170
     0
171
     0
290
     0
174
     0
 93
        1
 44
0.0
173
     0
291
     1
 45
0.0
1001
ACAD
1000
AcDbSavedByObjectVersion
1070
     0
1000
AcDbSavedByObjectVersion
1070
     0
1000
AcDbSavedByObjectVersion
1070
     0
  0
VISUALSTYLE
  5
280
102
{ACAD_REACTORS
330
212
102
}
330
212
100
AcDbVisualStyle
  2
Flat
 70
     0
 71
     2
 72
     1
 73
     1
 90
        2
 40
-0.6
 41
30.0
 62
     5
 63
     7
 74
     0
 91
        4
 64
     7
 65
   257
 75
     1
175
     1
 42
1.0
 92
        8
 66
     7
 43
1.0
 76
     1
 77
     6
 78
     2
 67
     7
 79
     5
170
     0
171
     0
290
     0
174
     0
 93
       13
 44
0.0
173
     0
291
     1
 45
0.0
1001
ACAD
1000
AcDbSavedByObjectVersion
1070
     0
1000
AcDbSavedByObjectVersion
1070
     0
1000
AcDbSavedByObjectVersion
1070
     0
  0
VISUALSTYLE
  5
281
102
{ACAD_REACTORS
330
212
102
}
330
212
100
AcDbVisualStyle
  2
FlatWithEdges
 70
     1
 71
     2
 72
     1
 73
     1
 90
        2
 40
-0.6
 41
30.0
 62
     5
 63
     7
 74
     1
 91
        4
 64
     7
 65
   257
 75
     1
175
     1
 42
1.0
 92
        0
 66
   257
 43
1.0
 76
     1
 77
     6
 78
     2
 67
     7
 79
     5
170
     0
171
     0
290
     0
174
     0
 93
       13
 44
0.0
173
     0
291
     1
 45
0.0
1001
ACAD
1000
AcDbSavedByObjectVersion
1070
     0
1000
AcDbSavedByObjectVersion
1070
     0
1000
AcDbSavedByObjectVersion
1070
     0
  0
VISUALSTYLE
  5
282
102
{ACAD_REACTORS
330
212
102
}
330
212
100
AcDbVisualStyle
  2
Gouraud
 70
     2
 71
     2
 72
     2
 73
     1
 90
        2
 40
-0.6
 41
30.0
 62
     5
 63
     7
 74
     0
 91
        4
 64
     7
 65
   257
 75
     1
175
     1
 42
1.0
 92
        0
 66
     7
 43
1.0
 76
     1
 77
     6
 78
     2
 67
     7
 79
     5
170
     0
171
     0
290
     0
174
     0
 93
       13
 44
0.0
173
     0
291
     1
 45
0.0
1001
ACAD
1000
AcDbSavedByObjectVersion
1070
     0
1000
AcDbSavedByObjectVersion
1070
     0
1000
AcDbSavedByObjectVersion
1070
     0
  0
VISUALSTYLE
  5
283
102
{ACAD_REACTORS
330
212
102
}
330
212
100
AcDbVisualStyle
  2
GouraudWithEdges
 70
     3
 71
     2
 72
     2
 73
     1
 90
        2
 40
-0.6
 41
30.0
 62
     5
 63
     7
 74
     1
 91
        4
 64
     7
 65
   257
 75
     1
175
     1
 42
1.0
 92
        0
 66
   257
 43
1.0
 76
     1
 77
     6
 78
     2
 67
     7
 79
     5
170
     0
171
     0
290
     0
174
     0
 93
       13
 44
0.0
173
     0
291
     1
 45
0.0
1001
ACAD
1000
AcDbSavedByObjectVersion
1070
     0
1000
AcDbSavedByObjectVersion
1070
     0
1000
AcDbSavedByObjectVersion
1070
     0
  0
VISUALSTYLE
  5
28A
102
{ACAD_REACTORS
330
212
102
}
330
212
100
AcDbVisualStyle
  2
Linepattern
 70
    14
 71
     2
 72
     2
 73
     0
 90
        0
 40
-0.6
 41
-30.0
 62
     5
 63
     7
 74
     1
 91
        4
 64
     7
 65
   257
 75
     7
175
     7
 42
1.0
 92
        8
 66
     7
 43
1.0
 76
     1
 77
     6
 78
     2
 67
     7
 79
     5
170
     0
171
     0
290
     0
174
     0
 93
        1
 44
0.0
173
     0
291
     1
 45
0.0
1001
ACAD
1000
AcDbSavedByObjectVersion
1070
     0
1000
AcDbSavedByObjectVersion
1070
     0
1000
AcDbSavedByObjectVersion
1070
     0
  0
VISUALSTYLE
  5
231
102
{ACAD_REACTORS
330
212
102
}
330
212
100
AcDbVisualStyle
  2
Realistic
 70
     8
 71
     2
 72
     2
 73
     0
 90
        0
 40
-0.6
 41
-30.0
 62
     5
 63
     7
 74
     1
 91
        0
 64
     7
 65
   257
 75
     1
175
     1
 42
1.0
 92
        8
 66
     8
 43
1.0
 76
     1
 77
     6
 78
     2
 67
     7
 79
     5
170
     0
171
     0
290
     0
174
     0
 93
       13
 44
0.0
173
     0
291
     0
 45
0.0
1001
ACAD
1000
AcDbSavedByObjectVersion
1070
     0
1000
AcDbSavedByObjectVersion
1070
     0
1000
AcDbSavedByObjectVersion
1070
     0
1000
AcDbSavedByObjectVersion
1070
     0
1000
AcDbSavedByObjectVersion
1070
     0
1000
AcDbSavedByObjectVersion
1070
     0
1000
AcDbSavedByObjectVersion
1070
     0
1000
AcDbSavedByObjectVersion
1070
     0
1000
AcDbSavedByObjectVersion
1070
     0
1000
AcDbSavedByObjectVersion
1070
     0
1000
AcDbSavedByObjectVersion
1070
     0
1000
AcDbSavedByObjectVersion
1070
     0
1000
AcDbSavedByObjectVersion
1070
     0
1000
AcDbSavedByObjectVersion
1070
     0
1000
AcDbSavedByObjectVersion
1070
     0
1000
AcDbSavedByObjectVersion
1070
     0
1000
AcDbSavedByObjectVersion
1070
     0
1000
AcDbSavedByObjectVersion
1070
     0
1000
AcDbSavedByObjectVersion
1070
     0
1000
AcDbSavedByObjectVersion
1070
     0
1000
AcDbSavedByObjectVersion
1070
     0
1000
AcDbSavedByObjectVersion
1070
     0
1000
AcDbSavedByObjectVersion
1070
     0
1000
AcDbSavedByObjectVersion
1070
     0
1000
AcDbSavedByObjectVersion
1070
     0
1000
AcDbSavedByObjectVersion
1070
     0
1000
AcDbSavedByObjectVersion
1070
     0
1000
AcDbSavedByObjectVersion
1070
     0
1000
AcDbSavedByObjectVersion
1070
     0
1000
AcDbSavedByObjectVersion
1070
     0
1000
AcDbSavedByObjectVersion
1070
     0
1000
AcDbSavedByObjectVersion
1070
     0
1000
AcDbSavedByObjectVersion
1070
     0
1000
AcDbSavedByObjectVersion
1070
     0
1000
AcDbSavedByObjectVersion
1070
     0
  0
VISUALSTYLE
  5
289
102
{ACAD_REACTORS
330
212
102
}
330
212
100
AcDbVisualStyle
  2
Thicken
 70
    13
 71
     2
 72
     2
 73
     0
 90
        0
 40
-0.6
 41
-30.0
 62
     5
 63
     7
 74
     1
 91
        4
 64
     7
 65
   257
 75
     1
175
     1
 42
1.0
 92
       12
 66
     7
 43
1.0
 76
     1
 77
     6
 78
     2
 67
     7
 79
     5
170
     0
171
     0
290
     0
174
     0
 93
        1
 44
0.0
173
     0
291
     1
 45
0.0
1001
ACAD
1000
AcDbSavedByObjectVersion
1070
     0
1000
AcDbSavedByObjectVersion
1070
     0
1000
AcDbSavedByObjectVersion
1070
     0
  0
DICTIONARYVAR
  5
258
102
{ACAD_REACTORS
330
255
102
}
330
255
100
DictionaryVariables
280
     0
  1
1:1
  0
DICTIONARYVAR
  5
257
102
{ACAD_REACTORS
330
255
102
}
330
255
100
DictionaryVariables
280
     0
  1
STANDARD
  0
DICTIONARYVAR
  5
256
102
{ACAD_REACTORS
330
255
102
}
330
255
100
DictionaryVariables
280
     0
  1
STANDARD
  0
DICTIONARYVAR
  5
3A4
102
{ACAD_REACTORS
330
255
102
}
330
255
100
DictionaryVariables
280
     0
  1
1
  0
DICTIONARYVAR
  5
3A3
102
{ACAD_REACTORS
330
255
102
}
330
255
100
DictionaryVariables
280
     0
  1
1
  0
DICTIONARYVAR
  5
3A2
102
{ACAD_REACTORS
330
255
102
}
330
255
100
DictionaryVariables
280
     0
  1
0
  0
DICTIONARYVAR
  5
259
102
{ACAD_REACTORS
330
255
102
}
330
255
100
DictionaryVariables
280
     0
  1
0
  0
DICTIONARYVAR
  5
3A0
102
{ACAD_REACTORS
330
255
102
}
330
255
100
DictionaryVariables
280
     0
  1
1
  0
DICTIONARYVAR
  5
3A1
102
{ACAD_REACTORS
330
255
102
}
330
255
100
DictionaryVariables
280
     0
  1
127
  0
DICTIONARY
  5
224
330
223
100
AcDbDictionary
280
     1
281
     1
  3
ACAD_XREC_ROUNDTRIP
360
407
  3
BUMPTILE
360
225
  3
DIFFUSETILE
360
226
  3
OPACITYTILE
360
227
  3
REFLECTIONTILE
360
228
  3
REFRACTIONTILE
360
229
  3
SPECULARTILE
360
22A
  0
DICTIONARY
  5
21C
330
21B
100
AcDbDictionary
280
     1
281
     1
  3
ACAD_XREC_ROUNDTRIP
360
406
  3
BUMPTILE
360
21D
  3
DIFFUSETILE
360
21E
  3
OPACITYTILE
360
21F
  3
REFLECTIONTILE
360
220
  3
REFRACTIONTILE
360
221
  3
SPECULARTILE
360
222
  0
DICTIONARY
  5
E
330
C
100
AcDbDictionary
280
     1
281
     1
  3
ACAD_XREC_ROUNDTRIP
360
3FE
  3
BUMPTILE
360
F
  3
DIFFUSETILE
360
10
  3
OPACITYTILE
360
11
  3
REFLECTIONTILE
360
12
  3
REFRACTIONTILE
360
13
  3
SPECULARTILE
360
14
  0
DICTIONARY
  5
230
330
22F
100
AcDbDictionary
280
     1
281
     1
  3
ACAD_ROUNDTRIP_2008_TABLESTYLE_CELLSTYLEMAP
360
56C
  0
XRECORD
  5
407
102
{ACAD_REACTORS
330
224
102
}
330
224
100
AcDbXrecord
280
     1
102
MATERIAL
148
0.0
149
0.0
149
0.0
 93
        0
 94
      127
282
     0
 72
     0
 77
     0
171
     0
175
     0
179
     0
273
     0
  0
XRECORD
  5
225
102
{ACAD_REACTORS
330
224
102
}
330
224
100
AcDbXrecord
280
     1
270
     1
271
     1
  0
XRECORD
  5
226
102
{ACAD_REACTORS
330
224
102
}
330
224
100
AcDbXrecord
280
     1
270
     1
271
     1
  0
XRECORD
  5
227
102
{ACAD_REACTORS
330
224
102
}
330
224
100
AcDbXrecord
280
     1
270
     1
271
     1
  0
XRECORD
  5
228
102
{ACAD_REACTORS
330
224
102
}
330
224
100
AcDbXrecord
280
     1
270
     1
271
     1
  0
XRECORD
  5
229
102
{ACAD_REACTORS
330
224
102
}
330
224
100
AcDbXrecord
280
     1
270
     1
271
     1
  0
XRECORD
  5
22A
102
{ACAD_REACTORS
330
224
102
}
330
224
100
AcDbXrecord
280
     1
270
     1
271
     1
  0
XRECORD
  5
406
102
{ACAD_REACTORS
330
21C
102
}
330
21C
100
AcDbXrecord
280
     1
102
MATERIAL
148
0.0
149
0.0
149
0.0
 93
        0
 94
      127
282
     0
 72
     0
 77
     0
171
     0
175
     0
179
     0
273
     0
  0
XRECORD
  5
21D
102
{ACAD_REACTORS
330
21C
102
}
330
21C
100
AcDbXrecord
280
     1
270
     1
271
     1
  0
XRECORD
  5
21E
102
{ACAD_REACTORS
330
21C
102
}
330
21C
100
AcDbXrecord
280
     1
270
     1
271
     1
  0
XRECORD
  5
21F
102
{ACAD_REACTORS
330
21C
102
}
330
21C
100
AcDbXrecord
280
     1
270
     1
271
     1
  0
XRECORD
  5
220
102
{ACAD_REACTORS
330
21C
102
}
330
21C
100
AcDbXrecord
280
     1
270
     1
271
     1
  0
XRECORD
  5
221
102
{ACAD_REACTORS
330
21C
102
}
330
21C
100
AcDbXrecord
280
     1
270
     1
271
     1
  0
XRECORD
  5
222
102
{ACAD_REACTORS
330
21C
102
}
330
21C
100
AcDbXrecord
280
     1
270
     1
271
     1
  0
XRECORD
  5
3FE
102
{ACAD_REACTORS
330
E
102
}
330
E
100
AcDbXrecord
280
     1
102
MATERIAL
148
0.0
149
0.0
149
0.0
 93
        0
 94
      127
282
     0
 72
     0
 77
     0
171
     0
175
     0
179
     0
273
     0
  0
XRECORD
  5
F
102
{ACAD_REACTORS
330
E
102
}
330
E
100
AcDbXrecord
280
     1
270
     1
271
     1
  0
XRECORD
  5
10
102
{ACAD_REACTORS
330
E
102
}
330
E
100
AcDbXrecord
280
     1
270
     1
271
     1
  0
XRECORD
  5
11
102
{ACAD_REACTORS
330
E
102
}
330
E
100
AcDbXrecord
280
     1
270
     1
271
     1
  0
XRECORD
  5
12
102
{ACAD_REACTORS
330
E
102
}
330
E
100
AcDbXrecord
280
     1
270
     1
271
     1
  0
XRECORD
  5
13
102
{ACAD_REACTORS
330
E
102
}
330
E
100
AcDbXrecord
280
     1
270
     1
271
     1
  0
XRECORD
  5
14
102
{ACAD_REACTORS
330
E
102
}
330
E
100
AcDbXrecord
280
     1
270
     1
271
     1
  0
CELLSTYLEMAP
  5
56C
102
{ACAD_REACTORS
330
230
102
}
330
230
100
AcDbCellStyleMap
 90
        3
300
CELLSTYLE
  1
TABLEFORMAT_BEGIN
 90
        5
170
     1
 91
        0
 92
    32768
 62
   257
 93
        1
300
CONTENTFORMAT
  1
CONTENTFORMAT_BEGIN
 90
        0
 91
        0
 92
      512
 93
        0
300

 40
0.0
140
1.0
 94
        5
 62
     0
340
42
144
0.25
309
CONTENTFORMAT_END
171
     1
301
MARGIN
  1
CELLMARGIN_BEGIN
 40
0.06
 40
0.06
 40
0.06
 40
0.06
 40
0.18
 40
0.18
309
CELLMARGIN_END
 94
        6
 95
        1
302
GRIDFORMAT
  1
GRIDFORMAT_BEGIN
 90
        0
 91
        1
 62
     0
 92
       -2
340
0
 93
        0
 40
0.045
309
GRIDFORMAT_END
 95
        2
302
GRIDFORMAT
  1
GRIDFORMAT_BEGIN
 90
        0
 91
        1
 62
     0
 92
       -2
340
0
 93
        0
 40
0.045
309
GRIDFORMAT_END
 95
        4
302
GRIDFORMAT
  1
GRIDFORMAT_BEGIN
 90
        0
 91
        1
 62
     0
 92
       -2
340
0
 93
        0
 40
0.045
309
GRIDFORMAT_END
 95
        8
302
GRIDFORMAT
  1
GRIDFORMAT_BEGIN
 90
        0
 91
        1
 62
     0
 92
       -2
340
0
 93
        0
 40
0.045
309
GRIDFORMAT_END
 95
       16
302
GRIDFORMAT
  1
GRIDFORMAT_BEGIN
 90
        0
 91
        1
 62
     0
 92
       -2
340
0
 93
        0
 40
0.045
309
GRIDFORMAT_END
 95
       32
302
GRIDFORMAT
  1
GRIDFORMAT_BEGIN
 90
        0
 91
        1
 62
     0
 92
       -2
340
0
 93
        0
 40
0.045
309
GRIDFORMAT_END
309
TABLEFORMAT_END
  1
CELLSTYLE_BEGIN
 90
        1
 91
        1
300
_TITLE
309
CELLSTYLE_END
300
CELLSTYLE
  1
TABLEFORMAT_BEGIN
 90
        5
170
     1
 91
        0
 92
        0
 62
   257
 93
        1
300
CONTENTFORMAT
  1
CONTENTFORMAT_BEGIN
 90
        0
 91
        0
 92
      512
 93
        0
300

 40
0.0
140
1.0
 94
        5
 62
     0
340
42
144
0.18
309
CONTENTFORMAT_END
171
     1
301
MARGIN
  1
CELLMARGIN_BEGIN
 40
0.06
 40
0.06
 40
0.06
 40
0.06
 40
0.18
 40
0.18
309
CELLMARGIN_END
 94
        6
 95
        1
302
GRIDFORMAT
  1
GRIDFORMAT_BEGIN
 90
        0
 91
        1
 62
     0
 92
       -2
340
0
 93
        0
 40
0.045
309
GRIDFORMAT_END
 95
        2
302
GRIDFORMAT
  1
GRIDFORMAT_BEGIN
 90
        0
 91
        1
 62
     0
 92
       -2
340
0
 93
        0
 40
0.045
309
GRIDFORMAT_END
 95
        4
302
GRIDFORMAT
  1
GRIDFORMAT_BEGIN
 90
        0
 91
        1
 62
     0
 92
       -2
340
0
 93
        0
 40
0.045
309
GRIDFORMAT_END
 95
        8
302
GRIDFORMAT
  1
GRIDFORMAT_BEGIN
 90
        0
 91
        1
 62
     0
 92
       -2
340
0
 93
        0
 40
0.045
309
GRIDFORMAT_END
 95
       16
302
GRIDFORMAT
  1
GRIDFORMAT_BEGIN
 90
        0
 91
        1
 62
     0
 92
       -2
340
0
 93
        0
 40
0.045
309
GRIDFORMAT_END
 95
       32
302
GRIDFORMAT
  1
GRIDFORMAT_BEGIN
 90
        0
 91
        1
 62
     0
 92
       -2
340
0
 93
        0
 40
0.045
309
GRIDFORMAT_END
309
TABLEFORMAT_END
  1
CELLSTYLE_BEGIN
 90
        2
 91
        1
300
_HEADER
309
CELLSTYLE_END
300
CELLSTYLE
  1
TABLEFORMAT_BEGIN
 90
        5
170
     1
 91
        0
 92
        0
 62
   257
 93
        1
300
CONTENTFORMAT
  1
CONTENTFORMAT_BEGIN
 90
        0
 91
        0
 92
      512
 93
        0
300

 40
0.0
140
1.0
 94
        2
 62
     0
340
42
144
0.18
309
CONTENTFORMAT_END
171
     1
301
MARGIN
  1
CELLMARGIN_BEGIN
 40
0.06
 40
0.06
 40
0.06
 40
0.06
 40
0.18
 40
0.18
309
CELLMARGIN_END
 94
        6
 95
        1
302
GRIDFORMAT
  1
GRIDFORMAT_BEGIN
 90
        0
 91
        1
 62
     0
 92
       -2
340
0
 93
        0
 40
0.045
309
GRIDFORMAT_END
 95
        2
302
GRIDFORMAT
  1
GRIDFORMAT_BEGIN
 90
        0
 91
        1
 62
     0
 92
       -2
340
0
 93
        0
 40
0.045
309
GRIDFORMAT_END
 95
        4
302
GRIDFORMAT
  1
GRIDFORMAT_BEGIN
 90
        0
 91
        1
 62
     0
 92
       -2
340
0
 93
        0
 40
0.045
309
GRIDFORMAT_END
 95
        8
302
GRIDFORMAT
  1
GRIDFORMAT_BEGIN
 90
        0
 91
        1
 62
     0
 92
       -2
340
0
 93
        0
 40
0.045
309
GRIDFORMAT_END
 95
       16
302
GRIDFORMAT
  1
GRIDFORMAT_BEGIN
 90
        0
 91
        1
 62
     0
 92
       -2
340
0
 93
        0
 40
0.045
309
GRIDFORMAT_END
 95
       32
302
GRIDFORMAT
  1
GRIDFORMAT_BEGIN
 90
        0
 91
        1
 62
     0
 92
       -2
340
0
 93
        0
 40
0.045
309
GRIDFORMAT_END
309
TABLEFORMAT_END
  1
CELLSTYLE_BEGIN
 90
        3
 91
        2
300
_DATA
309
CELLSTYLE_END
  0
ENDSEC
  0
EOF
