  0
SECTION
  2
HEADER
  9
$ACADVER
  1
AC1021
  9
$ACADMAINTVER
 70
    25
  9
$DWGCODEPAGE
  3
ANSI_936
  9
$LASTSAVEDBY
  1
zb.ye
  9
$INSBASE
 10
0.0
 20
0.0
 30
0.0
  9
$EXTMIN
 10
769.7365405140276
 20
183.9990086794808
 30
-0.0000000000000053
  9
$EXTMAX
 10
844.0530870177154
 20
236.5103468556541
 30
0.0000000000000099
  9
$LIMMIN
 10
0.0
 20
0.0
  9
$LIMMAX
 10
12.0
 20
9.0
  9
$ORTHOMODE
 70
     1
  9
$REGENMODE
 70
     1
  9
$FILLMODE
 70
     1
  9
$QTEXTMODE
 70
     0
  9
$MIRRTEXT
 70
     1
  9
$LTSCALE
 40
1.0
  9
$ATTMODE
 70
     1
  9
$TEXTSIZE
 40
0.2
  9
$TRACEWID
 40
0.05
  9
$TEXTSTYLE
  7
Standard
  9
$CLAYER
  8
0
  9
$CELTYPE
  6
ByLayer
  9
$CECOLOR
 62
   256
  9
$CELTSCALE
 40
1.0
  9
$DISPSILH
 70
     0
  9
$DIMSCALE
 40
1.0
  9
$DIMASZ
 40
1.5
  9
$DIMEXO
 40
0.2
  9
$DIMDLI
 40
0.2
  9
$DIMRND
 40
0.0
  9
$DIMDLE
 40
0.0
  9
$DIMEXE
 40
0.5
  9
$DIMTP
 40
0.0
  9
$DIMTM
 40
0.0
  9
$DIMTXT
 40
2.0
  9
$DIMCEN
 40
0.0
  9
$DIMTSZ
 40
0.0
  9
$DIMTOL
 70
     0
  9
$DIMLIM
 70
     0
  9
$DIMTIH
 70
     0
  9
$DIMTOH
 70
     0
  9
$DIMSE1
 70
     0
  9
$DIMSE2
 70
     0
  9
$DIMTAD
 70
     1
  9
$DIMZIN
 70
     8
  9
$DIMBLK
  1

  9
$DIMASO
 70
     1
  9
$DIMSHO
 70
     1
  9
$DIMPOST
  1

  9
$DIMAPOST
  1

  9
$DIMALT
 70
     0
  9
$DIMALTD
 70
     2
  9
$DIMALTF
 40
25.4
  9
$DIMLFAC
 40
1.0
  9
$DIMTOFL
 70
     0
  9
$DIMTVP
 40
0.0
  9
$DIMTIX
 70
     0
  9
$DIMSOXD
 70
     0
  9
$DIMSAH
 70
     0
  9
$DIMBLK1
  1

  9
$DIMBLK2
  1

  9
$DIMSTYLE
  2
01
  9
$DIMCLRD
 70
     1
  9
$DIMCLRE
 70
     6
  9
$DIMCLRT
 70
     4
  9
$DIMTFAC
 40
1.0
  9
$DIMGAP
 40
0.5
  9
$DIMJUST
 70
     0
  9
$DIMSD1
 70
     0
  9
$DIMSD2
 70
     0
  9
$DIMTOLJ
 70
     1
  9
$DIMTZIN
 70
     0
  9
$DIMALTZ
 70
     0
  9
$DIMALTTZ
 70
     0
  9
$DIMUPT
 70
     0
  9
$DIMDEC
 70
     1
  9
$DIMTDEC
 70
     1
  9
$DIMALTU
 70
     2
  9
$DIMALTTD
 70
     2
  9
$DIMTXSTY
  7
Romans字体
  9
$DIMAUNIT
 70
     0
  9
$DIMADEC
 70
     2
  9
$DIMALTRND
 40
0.0
  9
$DIMAZIN
 70
     2
  9
$DIMDSEP
 70
    46
  9
$DIMATFIT
 70
     3
  9
$DIMFRAC
 70
     0
  9
$DIMLDRBLK
  1

  9
$DIMLUNIT
 70
     2
  9
$DIMLWD
 70
    -2
  9
$DIMLWE
 70
    -2
  9
$DIMTMOVE
 70
     0
  9
$DIMFXL
 40
1.0
  9
$DIMFXLON
 70
     0
  9
$DIMJOGANG
 40
0.7853981633974483
  9
$DIMTFILL
 70
     0
  9
$DIMTFILLCLR
 70
     0
  9
$DIMARCSYM
 70
     0
  9
$DIMLTYPE
  6

  9
$DIMLTEX1
  6

  9
$DIMLTEX2
  6

  9
$LUNITS
 70
     2
  9
$LUPREC
 70
     4
  9
$SKETCHINC
 40
0.1
  9
$FILLETRAD
 40
0.5
  9
$AUNITS
 70
     0
  9
$AUPREC
 70
     0
  9
$MENU
  1
.
  9
$ELEVATION
 40
0.0
  9
$PELEVATION
 40
0.0
  9
$THICKNESS
 40
0.0
  9
$LIMCHECK
 70
     0
  9
$CHAMFERA
 40
0.5
  9
$CHAMFERB
 40
0.5
  9
$CHAMFERC
 40
1.0
  9
$CHAMFERD
 40
0.0
  9
$SKPOLY
 70
     0
  9
$TDCREATE
 40
2456524.383632987
  9
$TDUCREATE
 40
2456524.050299653
  9
$TDUPDATE
 40
2460286.787074352
  9
$TDUUPDATE
 40
2460286.453741019
  9
$TDINDWG
 40
1.1824233102
  9
$TDUSRTIMER
 40
1.1824033218
  9
$USRTIMER
 70
     1
  9
$ANGBASE
 50
0.0
  9
$ANGDIR
 70
     0
  9
$PDMODE
 70
     0
  9
$PDSIZE
 40
0.0
  9
$PLINEWID
 40
0.0
  9
$SPLFRAME
 70
     0
  9
$SPLINETYPE
 70
     6
  9
$SPLINESEGS
 70
     8
  9
$HANDSEED
  5
B57
  9
$SURFTAB1
 70
     6
  9
$SURFTAB2
 70
     6
  9
$SURFTYPE
 70
     6
  9
$SURFU
 70
     6
  9
$SURFV
 70
     6
  9
$UCSBASE
  2

  9
$UCSNAME
  2

  9
$UCSORG
 10
0.0
 20
0.0
 30
0.0
  9
$UCSXDIR
 10
1.0
 20
0.0
 30
0.0
  9
$UCSYDIR
 10
0.0
 20
1.0
 30
0.0
  9
$UCSORTHOREF
  2

  9
$UCSORTHOVIEW
 70
     0
  9
$UCSORGTOP
 10
0.0
 20
0.0
 30
0.0
  9
$UCSORGBOTTOM
 10
0.0
 20
0.0
 30
0.0
  9
$UCSORGLEFT
 10
0.0
 20
0.0
 30
0.0
  9
$UCSORGRIGHT
 10
0.0
 20
0.0
 30
0.0
  9
$UCSORGFRONT
 10
0.0
 20
0.0
 30
0.0
  9
$UCSORGBACK
 10
0.0
 20
0.0
 30
0.0
  9
$PUCSBASE
  2

  9
$PUCSNAME
  2

  9
$PUCSORG
 10
0.0
 20
0.0
 30
0.0
  9
$PUCSXDIR
 10
1.0
 20
0.0
 30
0.0
  9
$PUCSYDIR
 10
0.0
 20
1.0
 30
0.0
  9
$PUCSORTHOREF
  2

  9
$PUCSORTHOVIEW
 70
     0
  9
$PUCSORGTOP
 10
0.0
 20
0.0
 30
0.0
  9
$PUCSORGBOTTOM
 10
0.0
 20
0.0
 30
0.0
  9
$PUCSORGLEFT
 10
0.0
 20
0.0
 30
0.0
  9
$PUCSORGRIGHT
 10
0.0
 20
0.0
 30
0.0
  9
$PUCSORGFRONT
 10
0.0
 20
0.0
 30
0.0
  9
$PUCSORGBACK
 10
0.0
 20
0.0
 30
0.0
  9
$USERI1
 70
     0
  9
$USERI2
 70
     0
  9
$USERI3
 70
     0
  9
$USERI4
 70
     0
  9
$USERI5
 70
     0
  9
$USERR1
 40
0.0
  9
$USERR2
 40
0.0
  9
$USERR3
 40
0.0
  9
$USERR4
 40
0.0
  9
$USERR5
 40
0.0
  9
$WORLDVIEW
 70
     1
  9
$SHADEDGE
 70
     3
  9
$SHADEDIF
 70
    70
  9
$TILEMODE
 70
     1
  9
$MAXACTVP
 70
    64
  9
$PINSBASE
 10
0.0
 20
0.0
 30
0.0
  9
$PLIMCHECK
 70
     0
  9
$PEXTMIN
 10
1.000000000000000E+20
 20
1.000000000000000E+20
 30
1.000000000000000E+20
  9
$PEXTMAX
 10
-1.000000000000000E+20
 20
-1.000000000000000E+20
 30
-1.000000000000000E+20
  9
$PLIMMIN
 10
0.0
 20
0.0
  9
$PLIMMAX
 10
12.0
 20
9.0
  9
$UNITMODE
 70
     0
  9
$VISRETAIN
 70
     1
  9
$PLINEGEN
 70
     0
  9
$PSLTSCALE
 70
     1
  9
$TREEDEPTH
 70
  3020
  9
$CMLSTYLE
  2
Standard
  9
$CMLJUST
 70
     0
  9
$CMLSCALE
 40
1.0
  9
$PROXYGRAPHICS
 70
     1
  9
$MEASUREMENT
 70
     0
  9
$CELWEIGHT
370
    -1
  9
$ENDCAPS
280
     0
  9
$JOINSTYLE
280
     0
  9
$LWDISPLAY
290
     0
  9
$INSUNITS
 70
     4
  9
$HYPERLINKBASE
  1

  9
$STYLESHEET
  1
MONOCHROME.CTB
  9
$XEDIT
290
     1
  9
$CEPSNTYPE
380
     0
  9
$PSTYLEMODE
290
     1
  9
$FINGERPRINTGUID
  2
{0D5DEDD1-09FA-4BB9-A6E7-AA77DCD72BF2}
  9
$VERSIONGUID
  2
{BD14D65D-63C1-446F-8193-BDB95CACF6BF}
  9
$EXTNAMES
290
     1
  9
$PSVPSCALE
 40
0.0
  9
$OLESTARTUP
290
     0
  9
$SORTENTS
280
   127
  9
$INDEXCTL
280
     0
  9
$HIDETEXT
280
     1
  9
$XCLIPFRAME
290
     0
  9
$HALOGAP
280
     0
  9
$OBSCOLOR
 70
   257
  9
$OBSLTYPE
280
     0
  9
$INTERSECTIONDISPLAY
280
     0
  9
$INTERSECTIONCOLOR
 70
   257
  9
$DIMASSOC
280
     1
  9
$PROJECTNAME
  1

  9
$CAMERADISPLAY
290
     0
  9
$LENSLENGTH
 40
50.0
  9
$CAMERAHEIGHT
 40
0.0
  9
$STEPSPERSEC
 40
2.0
  9
$STEPSIZE
 40
6.0
  9
$3DDWFPREC
 40
2.0
  9
$PSOLWIDTH
 40
0.25
  9
$PSOLHEIGHT
 40
4.0
  9
$LOFTANG1
 40
1.570795999999999
  9
$LOFTANG2
 40
1.570795999999999
  9
$LOFTMAG1
 40
0.0
  9
$LOFTMAG2
 40
0.0
  9
$LOFTPARAM
 70
     7
  9
$LOFTNORMALS
280
     1
  9
$LATITUDE
 40
37.795
  9
$LONGITUDE
 40
-122.394
  9
$NORTHDIRECTION
 40
0.0
  9
$TIMEZONE
 70
 -8000
  9
$LIGHTGLYPHDISPLAY
280
     1
  9
$TILEMODELIGHTSYNCH
280
     1
  9
$CMATERIAL
347
1DB
  9
$SOLIDHIST
280
     1
  9
$SHOWHIST
280
     1
  9
$DWFFRAME
280
     2
  9
$DGNFRAME
280
     0
  9
$REALWORLDSCALE
290
     1
  9
$INTERFERECOLOR
 62
     1
  9
$INTERFEREOBJVS
345
1F1
  9
$INTERFEREVPVS
346
1F2
  9
$CSHADOW
280
     0
  9
$SHADOWPLANELOCATION
 40
0.0
  0
ENDSEC
  0
SECTION
  2
CLASSES
  0
CLASS
  1
ACDBDICTIONARYWDFLT
  2
AcDbDictionaryWithDefault
  3
ObjectDBX Classes
 90
        0
 91
        1
280
     0
281
     0
  0
CLASS
  1
VISUALSTYLE
  2
AcDbVisualStyle
  3
ObjectDBX Classes
 90
     4095
 91
       16
280
     0
281
     0
  0
CLASS
  1
MATERIAL
  2
AcDbMaterial
  3
ObjectDBX Classes
 90
     1153
 91
        3
280
     0
281
     0
  0
CLASS
  1
TABLESTYLE
  2
AcDbTableStyle
  3
ObjectDBX Classes
 90
     4095
 91
        1
280
     0
281
     0
  0
CLASS
  1
SCALE
  2
AcDbScale
  3
ObjectDBX Classes
 90
     1153
 91
       33
280
     0
281
     0
  0
CLASS
  1
MLEADERSTYLE
  2
AcDbMLeaderStyle
  3
ACDB_MLEADERSTYLE_CLASS
 90
     4095
 91
        1
280
     0
281
     0
  0
CLASS
  1
CELLSTYLEMAP
  2
AcDbCellStyleMap
  3
ObjectDBX Classes
 90
     1152
 91
        2
280
     0
281
     0
  0
CLASS
  1
DICTIONARYVAR
  2
AcDbDictionaryVar
  3
ObjectDBX Classes
 90
        0
 91
        9
280
     0
281
     0
  0
CLASS
  1
SORTENTSTABLE
  2
AcDbSortentsTable
  3
ObjectDBX Classes
 90
        0
 91
        1
280
     0
281
     0
  0
CLASS
  1
ACAD_EVALUATION_GRAPH
  2
AcDbEvalGraph
  3
ObjectDBX Classes
 90
     1153
 91
        0
280
     0
281
     0
  0
CLASS
  1
ACAECUSTOBJ
  2
AcAeEditorObj
  3
AcAeEditorObj
 90
     1024
 91
        0
280
     1
281
     0
  0
CLASS
  1
ACDB_DYNAMICBLOCKPURGEPREVENTER_VERSION
  2
AcDbDynamicBlockPurgePreventer
  3
ObjectDBX Classes
 90
     1153
 91
        0
280
     0
281
     0
  0
CLASS
  1
MENTALRAYRENDERSETTINGS
  2
AcDbMentalRayRenderSettings
  3
SCENEOE
 90
     1024
 91
        0
280
     0
281
     0
  0
CLASS
  1
ACDB_BLOCKREPRESENTATION_DATA
  2
AcDbBlockRepresentationData
  3
ObjectDBX Classes
 90
     1153
 91
        0
280
     0
281
     0
  0
CLASS
  1
DIMASSOC
  2
AcDbDimAssoc
  3
"AcDbDimAssoc|Product Desc:     AcDim ARX App For Dimension|Company:          Autodesk, Inc.|WEB Address:      www.autodesk.com"
 90
        0
 91
        0
280
     0
281
     0
  0
ENDSEC
  0
SECTION
  2
TABLES
  0
TABLE
  2
VPORT
  5
1CF
102
{ACAD_XDICTIONARY
360
1D3
102
}
330
0
100
AcDbSymbolTable
 70
     1
  0
VPORT
  5
1D0
330
1CF
100
AcDbSymbolTableRecord
100
AcDbViewportTableRecord
  2
*Active
 70
     0
 10
0.0
 20
0.0
 11
1.0
 21
1.0
 12
701.9293168939628
 22
61.75244699896961
 13
0.0
 23
0.0
 14
0.5
 24
0.5
 15
0.5
 25
0.5
 16
0.0
 26
0.0
 36
1.0
 17
104.9654968719086
 27
148.5022307685978
 37
0.0
 40
53.04354768471554
 41
2.426395939086294
 42
50.0
 43
0.0
 44
0.0
 50
0.0
 51
0.0
 71
     0
 72
   100
 73
     1
 74
     3
 75
     0
 76
     0
 77
     0
 78
     0
281
     0
 65
     1
110
0.0
120
0.0
130
0.0
111
1.0
121
0.0
131
0.0
112
0.0
122
1.0
132
0.0
 79
     0
146
0.0
348
1D1
 60
     3
 61
     5
292
     1
282
     1
141
0.0
142
0.0
 63
   250
421
  3355443
  0
ENDTAB
  0
TABLE
  2
LTYPE
  5
1CA
330
0
100
AcDbSymbolTable
 70
     2
  0
LTYPE
  5
1CB
330
1CA
100
AcDbSymbolTableRecord
100
AcDbLinetypeTableRecord
  2
ByBlock
 70
     0
  3

 72
    65
 73
     0
 40
0.0
  0
LTYPE
  5
1CC
330
1CA
100
AcDbSymbolTableRecord
100
AcDbLinetypeTableRecord
  2
ByLayer
 70
     0
  3

 72
    65
 73
     0
 40
0.0
  0
LTYPE
  5
15
330
1CA
100
AcDbSymbolTableRecord
100
AcDbLinetypeTableRecord
  2
Continuous
 70
     0
  3
Solid line
 72
    65
 73
     0
 40
0.0
  0
LTYPE
  5
108
330
1CA
100
AcDbSymbolTableRecord
100
AcDbLinetypeTableRecord
  2
CENTER
 70
     0
  3
Center ____ _ ____ _ ____ _ ____ _ ____ _ ____
 72
    65
 73
     4
 40
2.0
 49
1.25
 74
     0
 49
-0.25
 74
     0
 49
0.25
 74
     0
 49
-0.25
 74
     0
  0
ENDTAB
  0
TABLE
  2
LAYER
  5
1C3
102
{ACAD_XDICTIONARY
360
1C4
102
}
330
0
100
AcDbSymbolTable
 70
     8
  0
LAYER
  5
6
102
{ACAD_XDICTIONARY
360
7
102
}
330
1C3
100
AcDbSymbolTableRecord
100
AcDbLayerTableRecord
  2
0
 70
     0
 62
     7
  6
Continuous
370
    30
390
9
347
C
  0
LAYER
  5
17
102
{ACAD_XDICTIONARY
360
18
102
}
330
1C3
100
AcDbSymbolTableRecord
100
AcDbLayerTableRecord
  2
图层 1
 70
     0
 62
     7
  6
Continuous
370
    -3
390
9
347
C
  0
LAYER
  5
25
102
{ACAD_XDICTIONARY
360
26
102
}
330
1C3
100
AcDbSymbolTableRecord
100
AcDbLayerTableRecord
  2
图框
 70
     0
 62
     7
  6
Continuous
370
    20
390
9
347
C
  0
LAYER
  5
168
330
1C3
100
AcDbSymbolTableRecord
100
AcDbLayerTableRecord
  2
Defpoints
 70
     0
 62
     7
  6
Continuous
290
     0
370
    -3
390
9
347
C
  0
LAYER
  5
113
330
1C3
100
AcDbSymbolTableRecord
100
AcDbLayerTableRecord
  2
DIM
 70
     0
 62
     3
  6
Continuous
370
    15
390
9
347
C
1001
AcAecLayerStandard
1000

1000

  0
LAYER
  5
E6
330
1C3
100
AcDbSymbolTableRecord
100
AcDbLayerTableRecord
  2
打标文字
 70
     0
 62
     3
  6
Continuous
370
    20
390
9
347
C
  0
LAYER
  5
107
330
1C3
100
AcDbSymbolTableRecord
100
AcDbLayerTableRecord
  2
CEN
 70
     0
 62
     1
  6
CENTER
370
    15
390
9
347
C
1001
AcAecLayerStandard
1000

1000

  0
LAYER
  5
F8
330
1C3
100
AcDbSymbolTableRecord
100
AcDbLayerTableRecord
  2
hat
 70
     0
 62
     6
  6
Continuous
370
    15
390
9
347
C
1001
AcAecLayerStandard
1000

1000

  0
ENDTAB
  0
TABLE
  2
STYLE
  5
1C8
330
0
100
AcDbSymbolTable
 70
     4
  0
STYLE
  5
46
330
1C8
100
AcDbSymbolTableRecord
100
AcDbTextStyleTableRecord
  2
Standard
 70
     0
 40
0.0
 41
0.75
 50
0.0
 71
     0
 42
0.2
  3
SIMFANG.TTF
  4

1001
ACAD
1000
FangSong_GB2312
1071
    34353
  0
STYLE
  5
28
330
1C8
100
AcDbSymbolTableRecord
100
AcDbTextStyleTableRecord
  2
Romans字体
 70
     0
 40
0.0
 41
0.75
 50
0.0
 71
     0
 42
0.2
  3
romans.shx
  4

  0
STYLE
  5
48
330
1C8
100
AcDbSymbolTableRecord
100
AcDbTextStyleTableRecord
  2
工程字
 70
     0
 40
0.0
 41
1.0
 50
0.0
 71
     0
 42
3.5
  3
gbenor.shx
  4
gbcbig.shx
  0
STYLE
  5
4A
330
1C8
100
AcDbSymbolTableRecord
100
AcDbTextStyleTableRecord
  2
Chinese
 70
     0
 40
0.0
 41
1.0
 50
0.0
 71
     0
 42
2.5
  3
PMingLiU.ttf
  4

1001
ACAD
1000
PMingLiU
1071
    34834
  0
ENDTAB
  0
TABLE
  2
VIEW
  5
1CD
330
0
100
AcDbSymbolTable
 70
     0
  0
ENDTAB
  0
TABLE
  2
UCS
  5
1CE
330
0
100
AcDbSymbolTable
 70
     0
  0
ENDTAB
  0
TABLE
  2
APPID
  5
1D4
330
0
100
AcDbSymbolTable
 70
    11
  0
APPID
  5
29
330
1D4
100
AcDbSymbolTableRecord
100
AcDbRegAppTableRecord
  2
ACAD
 70
     0
  0
APPID
  5
35
330
1D4
100
AcDbSymbolTableRecord
100
AcDbRegAppTableRecord
  2
AcDbBlockRepETag
 70
     0
  0
APPID
  5
1BA
330
1D4
100
AcDbSymbolTableRecord
100
AcDbRegAppTableRecord
  2
ACAD_PSEXT
 70
     0
  0
APPID
  5
F9
330
1D4
100
AcDbSymbolTableRecord
100
AcDbRegAppTableRecord
  2
AcAecLayerStandard
 70
     0
  0
APPID
  5
16D
330
1D4
100
AcDbSymbolTableRecord
100
AcDbRegAppTableRecord
  2
ACAD_DSTYLE_DIMJAG
 70
     0
  0
APPID
  5
16E
330
1D4
100
AcDbSymbolTableRecord
100
AcDbRegAppTableRecord
  2
ACAD_DSTYLE_DIMTALN
 70
     0
  0
APPID
  5
24E
330
1D4
100
AcDbSymbolTableRecord
100
AcDbRegAppTableRecord
  2
ACAD_MLEADERVER
 70
     0
  0
APPID
  5
33F
330
1D4
100
AcDbSymbolTableRecord
100
AcDbRegAppTableRecord
  2
AcDbDynamicBlockGUID
 70
     0
  0
APPID
  5
599
330
1D4
100
AcDbSymbolTableRecord
100
AcDbRegAppTableRecord
  2
ACAD_EXEMPT_FROM_CAD_STANDARDS
 70
     0
  0
APPID
  5
7B0
330
1D4
100
AcDbSymbolTableRecord
100
AcDbRegAppTableRecord
  2
ACAUTHENVIRON
 70
     0
  0
APPID
  5
7B3
330
1D4
100
AcDbSymbolTableRecord
100
AcDbRegAppTableRecord
  2
AcDbDynamicBlockTrueName
 70
     0
  0
ENDTAB
  0
TABLE
  2
DIMSTYLE
  5
1D5
330
0
100
AcDbSymbolTable
 70
     2
100
AcDbDimStyleTable
 71
     2
340
16C
340
1D6
  0
DIMSTYLE
105
1D6
330
1D5
100
AcDbSymbolTableRecord
100
AcDbDimStyleTableRecord
  2
Standard
 70
     0
340
46
  0
DIMSTYLE
105
16C
102
{ACAD_REACTORS
330
47D
330
47E
330
47F
330
480
330
481
330
482
102
}
330
1D5
100
AcDbSymbolTableRecord
100
AcDbDimStyleTableRecord
  2
01
 70
     0
 41
1.5
 42
0.2
 43
0.2
 44
0.5
 73
     0
 74
     0
 77
     1
 78
     8
 79
     2
140
2.0
141
0.0
147
0.5
176
     1
177
     6
178
     4
179
     2
271
     1
272
     1
340
28
1001
ACAD_DSTYLE_DIMJAG
1070
   388
1040
1.5
1001
ACAD_DSTYLE_DIMTALN
1070
   392
1070
     0
  0
ENDTAB
  0
TABLE
  2
BLOCK_RECORD
  5
1
330
0
100
AcDbSymbolTable
 70
     8
  0
BLOCK_RECORD
  5
2
102
{ACAD_XDICTIONARY
360
3
102
}
330
1
100
AcDbSymbolTableRecord
100
AcDbBlockTableRecord
  2
*Model_Space
340
1B8
 70
     0
280
     1
281
     0
  0
BLOCK_RECORD
  5
1BB
330
1
100
AcDbSymbolTableRecord
100
AcDbBlockTableRecord
  2
*Paper_Space
340
1BE
 70
     0
280
     1
281
     0
  0
BLOCK_RECORD
  5
1BF
330
1
100
AcDbSymbolTableRecord
100
AcDbBlockTableRecord
  2
*Paper_Space0
340
1C2
 70
     0
280
     1
281
     0
  0
BLOCK_RECORD
  5
25B
102
{ACAD_XDICTIONARY
360
A5A
102
}
330
1
100
AcDbSymbolTableRecord
100
AcDbBlockTableRecord
  2
A4图框-NEW
340
0
310
2800000020000000200000000100080000000000000400000000000000000000000000000000000000000000000080000080000000808000800000008000800080800000C0C0C000C0DCC000F0CAA6000020400000206000002080000020A0000020C0000020E00000400000004020000040400000406000004080000040A0
310
000040C0000040E00000600000006020000060400000606000006080000060A0000060C0000060E00000800000008020000080400000806000008080000080A0000080C0000080E00000A0000000A0200000A0400000A0600000A0800000A0A00000A0C00000A0E00000C0000000C0200000C0400000C0600000C0800000C0
310
A00000C0C00000C0E00000E0000000E0200000E0400000E0600000E0800000E0A00000E0C00000E0E00040000000400020004000400040006000400080004000A0004000C0004000E00040200000402020004020400040206000402080004020A0004020C0004020E000404000004040200040404000404060004040800040
310
40A0004040C0004040E00040600000406020004060400040606000406080004060A0004060C0004060E00040800000408020004080400040806000408080004080A0004080C0004080E00040A0000040A0200040A0400040A0600040A0800040A0A00040A0C00040A0E00040C0000040C0200040C0400040C0600040C08000
310
40C0A00040C0C00040C0E00040E0000040E0200040E0400040E0600040E0800040E0A00040E0C00040E0E00080000000800020008000400080006000800080008000A0008000C0008000E00080200000802020008020400080206000802080008020A0008020C0008020E00080400000804020008040400080406000804080
310
008040A0008040C0008040E00080600000806020008060400080606000806080008060A0008060C0008060E00080800000808020008080400080806000808080008080A0008080C0008080E00080A0000080A0200080A0400080A0600080A0800080A0A00080A0C00080A0E00080C0000080C0200080C0400080C0600080C0
310
800080C0A00080C0C00080C0E00080E0000080E0200080E0400080E0600080E0800080E0A00080E0C00080E0E000C0000000C0002000C0004000C0006000C0008000C000A000C000C000C000E000C0200000C0202000C0204000C0206000C0208000C020A000C020C000C020E000C0400000C0402000C0404000C0406000C0
310
408000C040A000C040C000C040E000C0600000C0602000C0604000C0606000C0608000C060A000C060C000C060E000C0800000C0802000C0804000C0806000C0808000C080A000C080C000C080E000C0A00000C0A02000C0A04000C0A06000C0A08000C0A0A000C0A0C000C0A0E000C0C00000C0C02000C0C04000C0C06000
310
C0C08000C0C0A000F0FBFF00A4A0A000808080000000FF0000FF000000FFFF00FF000000FF00FF00FFFF0000FFFFFF0000000000000000000000000000000000000000000000000000000000000000000000000000000000000000000000000000000000000000000000000000000000000000000000000000000000000000
310
000000000000000000000000000000000000000000000000000000000000000000000000000000000000000000000000000000000000000000000000000000000000000000000000000000000000000000000000000000000000000000000000000000000000000000000000000000000000F9F9F9F9F9F9F9F9F9F9F9F9F9
310
F9F9F9F9F9F9F9F9F9F9F9F9F9F9FF00000000F9FF000000000000000000FFFFFFFFFFFFFFFFFFFFFFFFF9FAFAFAFF00000000F9FF000000000000000000FFFFFFFFFFFFFFFFFFFFFFFFFFFFFFFFFF00000000F9FD000000000000000000FFFFFFFFFFFFFFFFFFFFFFFFFFFFFFFFFF00000000F9FF000000000000000000FF
310
FFFFFFFFFFFFFFFFFFFFFFFFFFFFFFFF00000000F9FD000000000000000000FFFFFFFFFFFFFFFFFFFFFFFFFFFFFFFFFF00000000F9FF00000000000000000000000000000000000000000000000000FF00000000F9FD00000000000000000000000000000000000000000000000000FF00000000F9FF000000000000000000
310
00000000000000000000000000000000FF00000000F9FD00000000000000000000000000000000000000000000000000FF00000000F9FF00000000000000000000000000000000000000000000000000FF00000000F9FD00000000000000000000000000000000000000000000000000FF00000000F9FD0000000000000000
310
0000000000000000000000000000000000FF00000000F9FF00000000000000000000000000000000000000000000000000FF00000000F9FD00000000000000000000000000000000000000000000000000FF00000000F9FF00000000000000000000000000000000000000000000000000FF00000000F9FD00000000000000
310
000000000000000000000000000000000000FF00000000F9FF00000000000000000000000000000000000000000000000000FF00000000F9FFFFFFFFFFFFFFFFFFFFFFFFFFFFFFFFFFFFFFFFFFFFFFFFFFFFFF00000000F9FFFFFFF9F9F9F9F9F9F9F9F9F9F9F9F9F9F9F9F9F9F9F9F9F9F9F9000000000000000000000000
310
00000000000000000000000000000000000000000000000000000000000000000000000000000000000000000000000000000000000000000000000000000000000000000000000000000000000000000000000000000000000000000000000000000000000000000000000000000000000000000000000000000000000000
310
0000000000000000000000000000000000000000000000000000000000000000000000000000000000000000000000000000000000000000
102
{BLKREFS
331
485
102
}
 70
     4
280
     1
281
     0
1001
AcDbDynamicBlockGUID
1000
{8C56DABF-501B-40E4-AFBA-C78AF515C62B}
1001
AcDbBlockRepETag
1070
     1
1071
      149
  0
BLOCK_RECORD
  5
488
330
1
100
AcDbSymbolTableRecord
100
AcDbBlockTableRecord
  2
*D2
340
0
 70
     0
280
     1
281
     0
  0
BLOCK_RECORD
  5
494
330
1
100
AcDbSymbolTableRecord
100
AcDbBlockTableRecord
  2
*D3
340
0
 70
     0
280
     1
281
     0
  0
BLOCK_RECORD
  5
4A1
330
1
100
AcDbSymbolTableRecord
100
AcDbBlockTableRecord
  2
*D4
340
0
 70
     0
280
     1
281
     0
  0
BLOCK_RECORD
  5
4AD
330
1
100
AcDbSymbolTableRecord
100
AcDbBlockTableRecord
  2
*D5
340
0
 70
     0
280
     1
281
     0
  0
BLOCK_RECORD
  5
4BA
330
1
100
AcDbSymbolTableRecord
100
AcDbBlockTableRecord
  2
*D6
340
0
 70
     0
280
     1
281
     0
  0
BLOCK_RECORD
  5
4C7
330
1
100
AcDbSymbolTableRecord
100
AcDbBlockTableRecord
  2
*D7
340
0
 70
     0
280
     1
281
     0
  0
ENDTAB
  0
ENDSEC
  0
SECTION
  2
BLOCKS
  0
BLOCK
  5
5
330
2
100
AcDbEntity
  8
0
100
AcDbBlockBegin
  2
*Model_Space
 70
     0
 10
0.0
 20
0.0
 30
0.0
  3
*Model_Space
  1

  0
ENDBLK
  5
1B7
330
2
100
AcDbEntity
  8
0
100
AcDbBlockEnd
  0
BLOCK
  5
1BC
330
1BB
100
AcDbEntity
 67
     1
  8
0
100
AcDbBlockBegin
  2
*Paper_Space
 70
     0
 10
0.0
 20
0.0
 30
0.0
  3
*Paper_Space
  1

  0
ENDBLK
  5
1BD
330
1BB
100
AcDbEntity
 67
     1
  8
0
100
AcDbBlockEnd
  0
BLOCK
  5
1C0
330
1BF
100
AcDbEntity
 67
     1
  8
0
100
AcDbBlockBegin
  2
*Paper_Space0
 70
     0
 10
0.0
 20
0.0
 30
0.0
  3
*Paper_Space0
  1

  0
ENDBLK
  5
1C1
330
1BF
100
AcDbEntity
 67
     1
  8
0
100
AcDbBlockEnd
  0
BLOCK
  5
25D
330
25B
100
AcDbEntity
  8
0
100
AcDbBlockBegin
  2
A4图框-NEW
 70
     0
 10
0.0
 20
0.0
 30
0.0
  3
A4图框-NEW
  1

  0
MTEXT
  5
9C5
102
{ACAD_XDICTIONARY
360
B3F
102
}
330
25B
100
AcDbEntity
  8
图框
 62
     3
100
AcDbMText
 10
967.6594956750133
 20
499.7664151964293
 30
0.0
 40
2.985513575034151
 41
15.50176341157864
 46
6.292658374511018
 71
     5
 72
     5
  1
YL GAO
  7
Romans字体
 73
     1
 44
1.0
1001
AcDbBlockRepETag
1070
     1
1071
        0
1005
9C5
1001
ACAD
1000
MTEXTBEGIN
1070
    73
1070
     1
1070
    44
1040
1.0
1070
    74
1070
     0
1000
MTEXTEND
1000
ACAD_MTEXT_DEFINED_HEIGHT_BEGIN
1070
    46
1040
6.292658374511018
1000
ACAD_MTEXT_DEFINED_HEIGHT_END
  0
MTEXT
  5
9C6
330
25B
100
AcDbEntity
  8
图框
 62
     3
100
AcDbMText
 10
983.041569333247
 20
499.7664151964293
 30
0.0
 40
2.487927979195124
 41
15.26238390489062
 46
6.292658374511042
 71
     5
 72
     5
  1
{\W0.7;15.09.2023}
  7
Romans字体
 73
     1
 44
1.0
1001
AcDbBlockRepETag
1070
     1
1071
        1
1005
9C6
1001
ACAD
1000
MTEXTBEGIN
1070
    73
1070
     1
1070
    44
1040
1.0
1070
    74
1070
     0
1000
MTEXTEND
1000
ACAD_MTEXT_DEFINED_HEIGHT_BEGIN
1070
    46
1040
6.292658374511042
1000
ACAD_MTEXT_DEFINED_HEIGHT_END
  0
MTEXT
  5
9C7
330
25B
100
AcDbEntity
  8
图框
 62
     3
100
AcDbMText
 10
1012.477254728976
 20
487.1810984474071
 30
0.0
 40
2.799999999999998
 41
17.64876416884615
 46
6.292658374511455
 71
     5
 72
     5
  1
HQ ZHANG
  7
Romans字体
 73
     1
 44
1.0
1001
AcDbBlockRepETag
1070
     1
1071
        2
1005
9C7
1001
ACAD
1000
MTEXTBEGIN
1070
    73
1070
     1
1070
    44
1040
1.0
1070
    74
1070
     0
1000
MTEXTEND
1000
ACAD_MTEXT_DEFINED_HEIGHT_BEGIN
1070
    46
1040
6.292658374511455
1000
ACAD_MTEXT_DEFINED_HEIGHT_END
  0
MTEXT
  5
9C8
330
25B
100
AcDbEntity
  8
图框
 62
     3
100
AcDbMText
 10
1028.977802139886
 20
487.1810984474071
 30
0.0
 40
2.487927979195124
 41
15.35233065297276
 46
6.292658374511495
 71
     5
 72
     5
  1
{\W0.7;15.09.2023}
  7
Romans字体
 73
     1
 44
1.0
1001
AcDbBlockRepETag
1070
     1
1071
        3
1005
9C8
1001
ACAD
1000
MTEXTBEGIN
1070
    73
1070
     1
1070
    44
1040
1.0
1070
    74
1070
     0
1000
MTEXTEND
1000
ACAD_MTEXT_DEFINED_HEIGHT_BEGIN
1070
    46
1040
6.292658374511495
1000
ACAD_MTEXT_DEFINED_HEIGHT_END
  0
MTEXT
  5
9C9
330
25B
100
AcDbEntity
  8
图框
 62
     3
100
AcDbMText
 10
1063.722665487208
 20
525.4145966538831
 30
0.0
 40
2.985513575034151
 41
32.4973914334545
 46
11.82914190181707
 71
     5
 72
     5
  1
-
  7
Romans字体
 73
     1
 44
1.0
1001
AcDbBlockRepETag
1070
     1
1071
        4
1005
9C9
1001
ACAD
1000
MTEXTBEGIN
1070
    73
1070
     1
1070
    44
1040
1.0
1070
    74
1070
     0
1000
MTEXTEND
1000
ACAD_MTEXT_DEFINED_HEIGHT_BEGIN
1070
    46
1040
11.82914190181707
1000
ACAD_MTEXT_DEFINED_HEIGHT_END
  0
MTEXT
  5
9CA
330
25B
100
AcDbEntity
  8
图框
 62
     3
100
AcDbMText
 10
1063.727338552349
 20
513.5854547520641
 30
0.0
 40
2.985513575034151
 41
32.48804530317308
 46
11.82914190182139
 71
     5
 72
     5
  1
-
  7
Romans字体
 73
     1
 44
1.0
1001
AcDbBlockRepETag
1070
     1
1071
        5
1005
9CA
1001
ACAD
1000
MTEXTBEGIN
1070
    73
1070
     1
1070
    44
1040
1.0
1070
    74
1070
     0
1000
MTEXTEND
1000
ACAD_MTEXT_DEFINED_HEIGHT_BEGIN
1070
    46
1040
11.82914190182139
1000
ACAD_MTEXT_DEFINED_HEIGHT_END
  0
MTEXT
  5
9CB
330
25B
100
AcDbEntity
  8
图框
 62
     3
100
AcDbMText
 10
1110.122306614152
 20
526.8006839312707
 30
0.0
 40
2.985513575034151
 41
33.61239199242139
 46
9.05696734704178
 71
     5
 72
     5
  1
-
  7
Romans字体
 73
     1
 44
1.0
1001
AcDbBlockRepETag
1070
     1
1071
        6
1005
9CB
1001
ACAD
1000
MTEXTBEGIN
1070
    73
1070
     1
1070
    44
1040
1.0
1070
    74
1070
     0
1000
MTEXTEND
1000
ACAD_MTEXT_DEFINED_HEIGHT_BEGIN
1070
    46
1040
9.05696734704178
1000
ACAD_MTEXT_DEFINED_HEIGHT_END
  0
MTEXT
  5
9CC
330
25B
100
AcDbEntity
  8
图框
 62
     3
100
AcDbMText
 10
1110.122306614152
 20
500.2775205517162
 30
0.0
 40
2.985513575034151
 41
33.61239199242139
 46
8.871557304763419
 71
     5
 72
     5
  1
-
  7
Romans字体
 73
     1
 44
1.0
1001
AcDbBlockRepETag
1070
     1
1071
        7
1005
9CC
1001
ACAD
1000
MTEXTBEGIN
1070
    73
1070
     1
1070
    44
1040
1.0
1070
    74
1070
     0
1000
MTEXTEND
1000
ACAD_MTEXT_DEFINED_HEIGHT_BEGIN
1070
    46
1040
8.871557304763419
1000
ACAD_MTEXT_DEFINED_HEIGHT_END
  0
MTEXT
  5
9CD
330
25B
100
AcDbEntity
  8
图框
 62
     3
100
AcDbMText
 10
967.6594956750133
 20
493.4737568219182
 30
0.0
 40
2.985513575034151
 41
15.50176341157864
 46
6.292658374510335
 71
     5
 72
     5
  1
Q GAO
  7
Romans字体
 73
     1
 44
1.0
1001
AcDbBlockRepETag
1070
     1
1071
        8
1005
9CD
1001
ACAD
1000
MTEXTBEGIN
1070
    73
1070
     1
1070
    44
1040
1.0
1070
    74
1070
     0
1000
MTEXTEND
1000
ACAD_MTEXT_DEFINED_HEIGHT_BEGIN
1070
    46
1040
6.292658374510335
1000
ACAD_MTEXT_DEFINED_HEIGHT_END
  0
MTEXT
  5
9CE
330
25B
100
AcDbEntity
  8
图框
 62
     3
100
AcDbMText
 10
983.041569333247
 20
493.2441970450405
 30
0.0
 40
2.487927979195124
 41
15.26238390489051
 46
6.751777928266487
 71
     5
 72
     5
  1
{\W0.7;15.09.2023}
  7
Romans字体
 73
     1
 44
1.0
1001
AcDbBlockRepETag
1070
     1
1071
        9
1005
9CE
1001
ACAD
1000
MTEXTBEGIN
1070
    73
1070
     1
1070
    44
1040
1.0
1070
    74
1070
     0
1000
MTEXTEND
1000
ACAD_MTEXT_DEFINED_HEIGHT_BEGIN
1070
    46
1040
6.751777928266487
1000
ACAD_MTEXT_DEFINED_HEIGHT_END
  0
MTEXT
  5
9CF
330
25B
100
AcDbEntity
  8
图框
 62
     3
100
AcDbMText
 10
1012.477254728976
 20
499.7664151964291
 30
0.0
 40
2.985513575034151
 41
17.64876416884615
 46
6.292658374511397
 71
     5
 72
     5
  1
-
  7
Romans字体
 73
     1
 44
1.0
1001
AcDbBlockRepETag
1070
     1
1071
       10
1005
9CF
1001
ACAD
1000
MTEXTBEGIN
1070
    73
1070
     1
1070
    44
1040
1.0
1070
    74
1070
     0
1000
MTEXTEND
1000
ACAD_MTEXT_DEFINED_HEIGHT_BEGIN
1070
    46
1040
6.292658374511397
1000
ACAD_MTEXT_DEFINED_HEIGHT_END
  0
MTEXT
  5
9D0
330
25B
100
AcDbEntity
  8
图框
 62
     3
100
AcDbMText
 10
1028.977802139886
 20
499.7664151964289
 30
0.0
 40
2.487927979195124
 41
15.35233065297265
 46
6.292658374511382
 71
     5
 72
     5
  1
-
  7
Romans字体
 73
     1
 44
1.0
1001
AcDbBlockRepETag
1070
     1
1071
       11
1005
9D0
1001
ACAD
1000
MTEXTBEGIN
1070
    73
1070
     1
1070
    44
1040
1.0
1070
    74
1070
     0
1000
MTEXTEND
1000
ACAD_MTEXT_DEFINED_HEIGHT_BEGIN
1070
    46
1040
6.292658374511382
1000
ACAD_MTEXT_DEFINED_HEIGHT_END
  0
MTEXT
  5
9D1
330
25B
100
AcDbEntity
  8
图框
 62
     3
100
AcDbMText
 10
967.6594956750133
 20
487.1810984474071
 30
0.0
 40
2.985513575034151
 41
15.50176341157863
 46
6.292658374511478
 71
     5
 72
     5
  1
-
  7
Romans字体
 73
     1
 44
1.0
1001
AcDbBlockRepETag
1070
     1
1071
       12
1005
9D1
1001
ACAD
1000
MTEXTBEGIN
1070
    73
1070
     1
1070
    44
1040
1.0
1070
    74
1070
     0
1000
MTEXTEND
1000
ACAD_MTEXT_DEFINED_HEIGHT_BEGIN
1070
    46
1040
6.292658374511478
1000
ACAD_MTEXT_DEFINED_HEIGHT_END
  0
MTEXT
  5
9D2
330
25B
100
AcDbEntity
  8
图框
 62
     3
100
AcDbMText
 10
983.041569333247
 20
487.1810984474071
 30
0.0
 40
2.487927979195124
 41
15.26238390489062
 46
6.292658374511495
 71
     5
 72
     5
  1
-
  7
Romans字体
 73
     1
 44
1.0
1001
AcDbBlockRepETag
1070
     1
1071
       13
1005
9D2
1001
ACAD
1000
MTEXTBEGIN
1070
    73
1070
     1
1070
    44
1040
1.0
1070
    74
1070
     0
1000
MTEXTEND
1000
ACAD_MTEXT_DEFINED_HEIGHT_BEGIN
1070
    46
1040
6.292658374511495
1000
ACAD_MTEXT_DEFINED_HEIGHT_END
  0
MTEXT
  5
9D3
330
25B
100
AcDbEntity
  8
图框
 62
     3
100
AcDbMText
 10
1074.556686986741
 20
495.8417418993361
 30
0.0
 40
2.985513575034151
 41
10.82934843438978
 46
7.886094601210427
 71
     5
 72
     5
  1
-
  7
Romans字体
 73
     1
 44
1.0
1001
AcDbBlockRepETag
1070
     1
1071
       14
1005
9D3
1001
ACAD
1000
MTEXTBEGIN
1070
    73
1070
     1
1070
    44
1040
1.0
1070
    74
1070
     0
1000
MTEXTEND
1000
ACAD_MTEXT_DEFINED_HEIGHT_BEGIN
1070
    46
1040
7.886094601210427
1000
ACAD_MTEXT_DEFINED_HEIGHT_END
  0
LINE
  5
9D4
330
25B
100
AcDbEntity
  8
图框
370
    -3
100
AcDbLine
 10
1036.653967466372
 20
499.7847891999413
 30
0.0
 11
1079.971361203936
 21
499.7847891999413
 31
0.0
1001
AcDbBlockRepETag
1070
     1
1071
       15
1005
9D4
  0
MTEXT
  5
9D5
330
25B
100
AcDbEntity
  8
图框
 62
     1
370
    20
100
AcDbMText
 10
1108.26336443907
 20
491.5162596080882
 30
0.0
 40
2.699054613030988
 41
82.30831305643079
 46
0.0
 71
     5
 72
     5
  1
{\fSimHei|b0|i0|c134|p2;厦门唯恩电气有限公司}
 73
     1
 44
1.0
1001
AcDbBlockRepETag
1070
     1
1071
       16
1005
9D5
1001
ACAD
1000
MTEXTBEGIN
1070
    73
1070
     1
1070
    44
1040
1.0
1070
    74
1070
     0
1000
MTEXTEND
  0
MTEXT
  5
9D6
330
25B
100
AcDbEntity
  8
图框
 62
     3
370
    20
100
AcDbMText
 10
1108.435451459908
 20
487.298967726064
 30
0.0
 40
1.652482416141417
 41
68.08558693693567
 46
0.0
 71
     5
 72
     5
  1
{\fArial Narrow|b0|i0|c0|p34;XIAMEN WAIN ELECTRICAL CO.LTD}
  7
工程字
 73
     1
 44
1.0
1001
AcDbBlockRepETag
1070
     1
1071
       17
1005
9D6
1001
ACAD
1000
MTEXTBEGIN
1070
    73
1070
     1
1070
    44
1040
1.0
1070
    74
1070
     0
1000
MTEXTEND
  0
MTEXT
  5
9D7
330
25B
100
AcDbEntity
  8
图框
 62
     1
370
    20
100
AcDbMText
 10
1085.711816899387
 20
491.0944802995856
 30
0.0
 40
2.005930044038334
 41
5.047240019334847
 46
0.0
 71
     1
 72
     5
  1
{\fArial|b0|i0|c0|p34;A}
  7
Chinese
 73
     1
 44
1.0
1001
AcDbBlockRepETag
1070
     1
1071
       18
1005
9D7
1001
ACAD
1000
MTEXTBEGIN
1070
    73
1070
     1
1070
    44
1040
1.0
1070
    74
1070
     0
1000
MTEXTEND
  0
MTEXT
  5
9D8
330
25B
100
AcDbEntity
  8
图框
 62
     1
370
    20
100
AcDbMText
 10
1088.213485935716
 20
491.0944802995856
 30
0.0
 40
2.005930044038334
 41
5.047240019334847
 46
0.0
 71
     1
 72
     5
  1
{\fArial|b0|i0|c0|p34;I}
  7
Chinese
 73
     1
 44
1.0
1001
AcDbBlockRepETag
1070
     1
1071
       19
1005
9D8
1001
ACAD
1000
MTEXTBEGIN
1070
    73
1070
     1
1070
    44
1040
1.0
1070
    74
1070
     0
1000
MTEXTEND
  0
MTEXT
  5
9D9
330
25B
100
AcDbEntity
  8
图框
 62
     1
370
    20
100
AcDbMText
 10
1089.142375222864
 20
491.0822866326808
 30
0.0
 40
2.005930044038334
 41
5.047240019334847
 46
0.0
 71
     1
 72
     5
  1
{\fArial|b0|i0|c0|p34;N}
  7
Chinese
 73
     1
 44
1.0
1001
AcDbBlockRepETag
1070
     1
1071
       20
1005
9D9
1001
ACAD
1000
MTEXTBEGIN
1070
    73
1070
     1
1070
    44
1040
1.0
1070
    74
1070
     0
1000
MTEXTEND
  0
MTEXT
  5
9DA
330
25B
100
AcDbEntity
  8
图框
100
AcDbMText
 10
1069.142012769545
 20
487.9667319294409
 30
0.0
 40
2.252848170144607
 41
21.65869686878327
 46
7.863925338579296
 71
     5
 72
     5
  1
{\W0.5;\C1;All Dimensions in mm\POriginal Size DIN A 4}
  7
Romans字体
 73
     1
 44
1.0
1001
AcDbBlockRepETag
1070
     1
1071
       21
1005
9DA
1001
ACAD
1000
MTEXTBEGIN
1070
    73
1070
     1
1070
    44
1040
1.0
1070
    74
1070
     0
1000
MTEXTEND
1000
ACAD_MTEXT_DEFINED_HEIGHT_BEGIN
1070
    46
1040
7.863925338579296
1000
ACAD_MTEXT_DEFINED_HEIGHT_END
  0
MTEXT
  5
9DB
330
25B
100
AcDbEntity
  8
图框
  6
ByBlock
 62
     6
370
    18
100
AcDbMText
 10
1127.40434942308
 20
508.7896535755975
 30
0.0
 40
2.651776162684904
 41
2.557913877927211
 46
0.0
 71
     1
 72
     5
  1
A
  7
Romans字体
 11
0.0000000000000001
 21
1.0
 31
0.0
 73
     1
 44
1.0
1001
AcDbBlockRepETag
1070
     1
1071
       22
1005
9DB
1001
ACAD
1000
MTEXTBEGIN
1070
    73
1070
     1
1070
    44
1040
1.0
1070
    74
1070
     0
1000
MTEXTEND
  0
MTEXT
  5
9DC
330
25B
100
AcDbEntity
  8
图框
 62
     6
100
AcDbMText
 10
1127.40434942308
 20
556.3746573232886
 30
0.0
 40
2.651776162684904
 41
2.557913877927211
 46
0.0
 71
     1
 72
     5
  1
B
  7
Romans字体
 11
0.0000000000000001
 21
1.0
 31
0.0
 73
     1
 44
1.0
1001
AcDbBlockRepETag
1070
     1
1071
       23
1005
9DC
1001
ACAD
1000
MTEXTBEGIN
1070
    73
1070
     1
1070
    44
1040
1.0
1070
    74
1070
     0
1000
MTEXTEND
  0
MTEXT
  5
9DD
330
25B
100
AcDbEntity
  8
图框
 62
     6
100
AcDbMText
 10
1127.40434942308
 20
607.5539372630998
 30
0.0
 40
2.651776162684904
 41
2.557913877927211
 46
0.0
 71
     1
 72
     5
  1
C
  7
Romans字体
 11
0.0000000000000001
 21
1.0
 31
0.0
 73
     1
 44
1.0
1001
AcDbBlockRepETag
1070
     1
1071
       24
1005
9DD
1001
ACAD
1000
MTEXTBEGIN
1070
    73
1070
     1
1070
    44
1040
1.0
1070
    74
1070
     0
1000
MTEXTEND
  0
MTEXT
  5
9DE
330
25B
100
AcDbEntity
  8
图框
 62
     6
100
AcDbMText
 10
1127.40434942308
 20
658.7332172029115
 30
0.0
 40
2.651776162684904
 41
2.557913877927211
 46
0.0
 71
     1
 72
     5
  1
D
  7
Romans字体
 11
0.0000000000000001
 21
1.0
 31
0.0
 73
     1
 44
1.0
1001
AcDbBlockRepETag
1070
     1
1071
       25
1005
9DE
1001
ACAD
1000
MTEXTBEGIN
1070
    73
1070
     1
1070
    44
1040
1.0
1070
    74
1070
     0
1000
MTEXTEND
  0
LINE
  5
9DF
330
25B
100
AcDbEntity
  8
图框
 62
     6
100
AcDbLine
 10
1130.411601781241
 20
634.0726090796082
 30
0.0
 11
1126.928502610363
 21
634.0726090796082
 31
0.0
1001
AcDbBlockRepETag
1070
     1
1071
       26
1005
9DF
  0
LINE
  5
9E0
330
25B
100
AcDbEntity
  8
图框
 62
     6
100
AcDbLine
 10
1130.411601781241
 20
582.89332913979
 30
0.0
 11
1126.928502610363
 21
582.89332913979
 31
0.0
1001
AcDbBlockRepETag
1070
     1
1071
       27
1005
9E0
  0
MTEXT
  5
9E1
330
25B
100
AcDbEntity
  8
图框
 62
     6
100
AcDbMText
 10
1105.329704038389
 20
483.6164543011163
 30
0.0
 40
2.651776162684904
 41
2.557913877927211
 46
0.0
 71
     1
 72
     5
  1
6
  7
Romans字体
 73
     1
 44
1.0
1001
AcDbBlockRepETag
1070
     1
1071
       28
1005
9E1
1001
ACAD
1000
MTEXTBEGIN
1070
    73
1070
     1
1070
    44
1040
1.0
1070
    74
1070
     0
1000
MTEXTEND
  0
LINE
  5
9E2
330
25B
100
AcDbEntity
  8
图框
 62
     6
100
AcDbLine
 10
1081.088565155284
 20
484.0347692601515
 30
0.0
 11
1081.088565155284
 21
480.5347692601475
 31
0.0
1001
AcDbBlockRepETag
1070
     1
1071
       29
1005
9E2
  0
MTEXT
  5
9E3
330
25B
100
AcDbEntity
  8
图框
 62
     6
100
AcDbMText
 10
1055.900596365941
 20
483.520053108993
 30
0.0
 40
2.651776162684904
 41
2.557913877927211
 46
0.0
 71
     1
 72
     5
  1
5
  7
Romans字体
 73
     1
 44
1.0
1001
AcDbBlockRepETag
1070
     1
1071
       30
1005
9E3
1001
ACAD
1000
MTEXTBEGIN
1070
    73
1070
     1
1070
    44
1040
1.0
1070
    74
1070
     0
1000
MTEXTEND
  0
LINE
  5
9E4
330
25B
100
AcDbEntity
  8
图框
 62
     6
100
AcDbLine
 10
1031.553386436349
 20
484.0347692601515
 30
0.0
 11
1031.553386436349
 21
480.5347692601475
 31
0.0
1001
AcDbBlockRepETag
1070
     1
1071
       31
1005
9E4
  0
MTEXT
  5
9E5
330
25B
100
AcDbEntity
  8
图框
 62
     6
100
AcDbMText
 10
1006.383180575197
 20
483.5687958215896
 30
0.0
 40
2.651776162684904
 41
2.557913877927211
 46
0.0
 71
     1
 72
     5
  1
4
  7
Romans字体
 73
     1
 44
1.0
1001
AcDbBlockRepETag
1070
     1
1071
       32
1005
9E5
1001
ACAD
1000
MTEXTBEGIN
1070
    73
1070
     1
1070
    44
1040
1.0
1070
    74
1070
     0
1000
MTEXTEND
  0
LINE
  5
9E6
330
25B
100
AcDbEntity
  8
图框
 62
     6
100
AcDbLine
 10
982.0182077173887
 20
484.0347692601515
 30
0.0
 11
982.0182077173887
 21
480.5347692601475
 31
0.0
1001
AcDbBlockRepETag
1070
     1
1071
       33
1005
9E6
  0
MTEXT
  5
9E7
330
25B
100
AcDbEntity
  8
图框
 62
     6
100
AcDbMText
 10
956.8302389280352
 20
483.5989680297948
 30
0.0
 40
2.651776162684904
 41
2.557913877927211
 46
0.0
 71
     1
 72
     5
  1
3
  7
Romans字体
 73
     1
 44
1.0
1001
AcDbBlockRepETag
1070
     1
1071
       34
1005
9E7
1001
ACAD
1000
MTEXTBEGIN
1070
    73
1070
     1
1070
    44
1040
1.0
1070
    74
1070
     0
1000
MTEXTEND
  0
LINE
  5
9E8
330
25B
100
AcDbEntity
  8
图框
 62
     6
100
AcDbLine
 10
932.4830289984245
 20
484.0347692601515
 30
0.0
 11
932.4830289984245
 21
480.5347692601475
 31
0.0
1001
AcDbBlockRepETag
1070
     1
1071
       35
1005
9E8
  0
MTEXT
  5
9E9
330
25B
100
AcDbEntity
  8
图框
 62
     6
100
AcDbMText
 10
906.0252349826365
 20
483.6475250013156
 30
0.0
 40
2.651776162684904
 41
2.557913877927211
 46
0.0
 71
     1
 72
     5
  1
2
  7
Romans字体
 73
     1
 44
1.0
1001
AcDbBlockRepETag
1070
     1
1071
       36
1005
9E9
1001
ACAD
1000
MTEXTBEGIN
1070
    73
1070
     1
1070
    44
1040
1.0
1070
    74
1070
     0
1000
MTEXTEND
  0
LINE
  5
9EA
330
25B
100
AcDbEntity
  8
图框
 62
     6
100
AcDbLine
 10
882.9478502794648
 20
484.0347692601515
 30
0.0
 11
882.9478502794648
 21
480.5347692601475
 31
0.0
1001
AcDbBlockRepETag
1070
     1
1071
       37
1005
9EA
  0
MTEXT
  5
9EB
330
25B
100
AcDbEntity
  8
图框
 62
     6
100
AcDbMText
 10
857.7598814901191
 20
483.651829494754
 30
0.0
 40
2.651776162684904
 41
2.557913877927211
 46
0.0
 71
     1
 72
     5
  1
1
  7
Romans字体
 73
     1
 44
1.0
1001
AcDbBlockRepETag
1070
     1
1071
       38
1005
9EB
1001
ACAD
1000
MTEXTBEGIN
1070
    73
1070
     1
1070
    44
1040
1.0
1070
    74
1070
     0
1000
MTEXTEND
  0
LINE
  5
9EC
330
25B
100
AcDbEntity
  8
图框
370
    50
100
AcDbLine
 10
836.8548209370597
 20
484.0347692601515
 30
0.0
 11
1126.928502610363
 21
484.0347692601515
 31
0.0
1001
AcDbBlockRepETag
1070
     1
1071
       39
1005
9EC
  0
LINE
  5
9ED
330
25B
100
AcDbEntity
  8
图框
370
    50
100
AcDbLine
 10
836.9128518455362
 20
484.0178684310246
 30
0.0
 11
836.9128518455394
 21
675.0207195125422
 31
0.0
1001
AcDbBlockRepETag
1070
     1
1071
       40
1005
9ED
  0
MTEXT
  5
9EE
330
25B
100
AcDbEntity
  8
图框
 62
     6
100
AcDbMText
 10
833.8475685789031
 20
658.7332172029115
 30
0.0
 40
2.651776162684904
 41
2.557913877927211
 46
0.0
 71
     1
 72
     5
  1
D
  7
Romans字体
 11
0.0000000000000001
 21
1.0
 31
0.0
 73
     1
 44
1.0
1001
AcDbBlockRepETag
1070
     1
1071
       41
1005
9EE
1001
ACAD
1000
MTEXTBEGIN
1070
    73
1070
     1
1070
    44
1040
1.0
1070
    74
1070
     0
1000
MTEXTEND
  0
LINE
  5
9EF
330
25B
100
AcDbEntity
  8
图框
 62
     6
100
AcDbLine
 10
836.9128518455386
 20
634.0726090796082
 30
0.0
 11
833.4128518455365
 21
634.0726090796082
 31
0.0
1001
AcDbBlockRepETag
1070
     1
1071
       42
1005
9EF
  0
MTEXT
  5
9F0
330
25B
100
AcDbEntity
  8
图框
 62
     6
100
AcDbMText
 10
833.9039177480142
 20
607.5539372630998
 30
0.0
 40
2.651776162684904
 41
2.557913877927211
 46
0.0
 71
     1
 72
     5
  1
C
  7
Romans字体
 11
0.0000000000000001
 21
1.0
 31
0.0
 73
     1
 44
1.0
1001
AcDbBlockRepETag
1070
     1
1071
       43
1005
9F0
1001
ACAD
1000
MTEXTBEGIN
1070
    73
1070
     1
1070
    44
1040
1.0
1070
    74
1070
     0
1000
MTEXTEND
  0
LINE
  5
9F1
330
25B
100
AcDbEntity
  8
图框
 62
     6
100
AcDbLine
 10
836.9128518455378
 20
582.89332913979
 30
0.0
 11
833.4128518455365
 21
582.89332913979
 31
0.0
1001
AcDbBlockRepETag
1070
     1
1071
       44
1005
9F1
  0
MTEXT
  5
9F2
330
25B
100
AcDbEntity
  8
图框
 62
     6
100
AcDbMText
 10
833.9039177480142
 20
556.3746573232886
 30
0.0
 40
2.651776162684904
 41
2.557913877927211
 46
0.0
 71
     1
 72
     5
  1
B
  7
Romans字体
 11
0.0000000000000001
 21
1.0
 31
0.0
 73
     1
 44
1.0
1001
AcDbBlockRepETag
1070
     1
1071
       45
1005
9F2
1001
ACAD
1000
MTEXTBEGIN
1070
    73
1070
     1
1070
    44
1040
1.0
1070
    74
1070
     0
1000
MTEXTEND
  0
LINE
  5
9F3
330
25B
100
AcDbEntity
  8
图框
 62
     6
100
AcDbLine
 10
836.9128518455367
 20
531.714049199969
 30
0.0
 11
833.4128518455365
 21
531.714049199969
 31
0.0
1001
AcDbBlockRepETag
1070
     1
1071
       46
1005
9F3
  0
MTEXT
  5
9F4
330
25B
100
AcDbEntity
  8
图框
 62
     6
100
AcDbMText
 10
833.9039177480142
 20
508.7896535755975
 30
0.0
 40
2.651776162684904
 41
2.557913877927211
 46
0.0
 71
     1
 72
     5
  1
A
  7
Romans字体
 11
0.0000000000000001
 21
1.0
 31
0.0
 73
     1
 44
1.0
1001
AcDbBlockRepETag
1070
     1
1071
       47
1005
9F4
1001
ACAD
1000
MTEXTBEGIN
1070
    73
1070
     1
1070
    44
1040
1.0
1070
    74
1070
     0
1000
MTEXTEND
  0
LINE
  5
9F5
330
25B
100
AcDbEntity
  8
图框
370
    -3
100
AcDbLine
 10
836.9128518455394
 20
675.0207195125422
 30
0.0
 11
836.9128518455394
 21
684.5021384922564
 31
0.0
1001
AcDbBlockRepETag
1070
     1
1071
       48
1005
9F5
  0
LINE
  5
9F6
330
25B
100
AcDbEntity
  8
图框
370
    -3
100
AcDbLine
 10
842.6237321475781
 20
675.5347692601515
 30
0.0
 11
842.6237321475781
 21
685.0161882398658
 31
0.0
1001
AcDbBlockRepETag
1070
     1
1071
       49
1005
9F6
  0
LINE
  5
9F7
330
25B
100
AcDbEntity
  8
图框
370
    -3
100
AcDbLine
 10
848.3346124496179
 20
675.5347692601515
 30
0.0
 11
848.3346124496179
 21
685.0161882398658
 31
0.0
1001
AcDbBlockRepETag
1070
     1
1071
       50
1005
9F7
  0
LINE
  5
9F8
330
25B
100
AcDbEntity
  8
图框
370
    -3
100
AcDbLine
 10
854.0454927516588
 20
675.5347692601515
 30
0.0
 11
854.0454927516588
 21
685.0161882398658
 31
0.0
1001
AcDbBlockRepETag
1070
     1
1071
       51
1005
9F8
  0
LINE
  5
9F9
330
25B
100
AcDbEntity
  8
图框
370
    -3
100
AcDbLine
 10
861.5351874539182
 20
675.5347692601515
 30
0.0
 11
861.5351874539182
 21
686.7901958362482
 31
0.0
1001
AcDbBlockRepETag
1070
     1
1071
       52
1005
9F9
  0
MTEXT
  5
9FA
330
25B
100
AcDbEntity
  8
图框
 62
     6
100
AcDbMText
 10
1105.329704038389
 20
678.859919059449
 30
0.0
 40
2.651776162684904
 41
2.557913877927211
 46
0.0
 71
     1
 72
     5
  1
6
  7
Romans字体
 73
     1
 44
1.0
1001
AcDbBlockRepETag
1070
     1
1071
       53
1005
9FA
1001
ACAD
1000
MTEXTBEGIN
1070
    73
1070
     1
1070
    44
1040
1.0
1070
    74
1070
     0
1000
MTEXTEND
  0
LINE
  5
9FB
330
25B
100
AcDbEntity
  8
图框
 62
     6
100
AcDbLine
 10
1081.088565155284
 20
679.0347692601516
 30
0.0
 11
1081.088565155284
 21
675.5347692601515
 31
0.0
1001
AcDbBlockRepETag
1070
     1
1071
       54
1005
9FB
  0
MTEXT
  5
9FC
330
25B
100
AcDbEntity
  8
图框
 62
     6
100
AcDbMText
 10
1055.900596365941
 20
678.859919059449
 30
0.0
 40
2.651776162684904
 41
2.557913877927211
 46
0.0
 71
     1
 72
     5
  1
5
  7
Romans字体
 73
     1
 44
1.0
1001
AcDbBlockRepETag
1070
     1
1071
       55
1005
9FC
1001
ACAD
1000
MTEXTBEGIN
1070
    73
1070
     1
1070
    44
1040
1.0
1070
    74
1070
     0
1000
MTEXTEND
  0
LINE
  5
9FD
330
25B
100
AcDbEntity
  8
图框
 62
     6
100
AcDbLine
 10
1031.553386436349
 20
679.0347692601516
 30
0.0
 11
1031.553386436349
 21
675.5347692601515
 31
0.0
1001
AcDbBlockRepETag
1070
     1
1071
       56
1005
9FD
  0
MTEXT
  5
9FE
330
25B
100
AcDbEntity
  8
图框
 62
     6
100
AcDbMText
 10
1006.36541764698
 20
678.7312083656147
 30
0.0
 40
2.651776162684904
 41
2.557913877927211
 46
0.0
 71
     1
 72
     5
  1
4
  7
Romans字体
 73
     1
 44
1.0
1001
AcDbBlockRepETag
1070
     1
1071
       57
1005
9FE
1001
ACAD
1000
MTEXTBEGIN
1070
    73
1070
     1
1070
    44
1040
1.0
1070
    74
1070
     0
1000
MTEXTEND
  0
LINE
  5
9FF
330
25B
100
AcDbEntity
  8
图框
 62
     6
100
AcDbLine
 10
982.0182077173887
 20
679.0347692601516
 30
0.0
 11
982.0182077173887
 21
675.5347692601515
 31
0.0
1001
AcDbBlockRepETag
1070
     1
1071
       58
1005
9FF
  0
MTEXT
  5
A00
330
25B
100
AcDbEntity
  8
图框
 62
     6
100
AcDbMText
 10
956.8302389280352
 20
678.859919059449
 30
0.0
 40
2.651776162684904
 41
2.557913877927211
 46
0.0
 71
     1
 72
     5
  1
3
  7
Romans字体
 73
     1
 44
1.0
1001
AcDbBlockRepETag
1070
     1
1071
       59
1005
A00
1001
ACAD
1000
MTEXTBEGIN
1070
    73
1070
     1
1070
    44
1040
1.0
1070
    74
1070
     0
1000
MTEXTEND
  0
LINE
  5
A01
330
25B
100
AcDbEntity
  8
图框
 62
     6
100
AcDbLine
 10
932.4830289984245
 20
679.0347692601516
 30
0.0
 11
932.4830289984245
 21
675.5347692601515
 31
0.0
1001
AcDbBlockRepETag
1070
     1
1071
       60
1005
A01
  0
MTEXT
  5
A02
330
25B
100
AcDbEntity
  8
图框
 62
     6
100
AcDbMText
 10
907.295060209082
 20
678.859919059449
 30
0.0
 40
2.651776162684904
 41
2.557913877927211
 46
0.0
 71
     1
 72
     5
  1
2
  7
Romans字体
 73
     1
 44
1.0
1001
AcDbBlockRepETag
1070
     1
1071
       61
1005
A02
1001
ACAD
1000
MTEXTBEGIN
1070
    73
1070
     1
1070
    44
1040
1.0
1070
    74
1070
     0
1000
MTEXTEND
  0
LINE
  5
A03
330
25B
100
AcDbEntity
  8
图框
 62
     6
100
AcDbLine
 10
882.9478502794648
 20
678.7962435131815
 30
0.0
 11
882.9478502794648
 21
675.5347692601515
 31
0.0
1001
AcDbBlockRepETag
1070
     1
1071
       62
1005
A03
  0
MTEXT
  5
A04
330
25B
100
AcDbEntity
  8
图框
 62
     6
100
AcDbMText
 10
862.6286629643733
 20
678.859919059449
 30
0.0
 40
2.651776162684904
 41
2.557913877927211
 46
0.0
 71
     1
 72
     5
  1
1
  7
Romans字体
 73
     1
 44
1.0
1001
AcDbBlockRepETag
1070
     1
1071
       63
1005
A04
1001
ACAD
1000
MTEXTBEGIN
1070
    73
1070
     1
1070
    44
1040
1.0
1070
    74
1070
     0
1000
MTEXTEND
  0
LINE
  5
A05
330
25B
100
AcDbEntity
  8
图框
370
    -3
100
AcDbLine
 10
836.9128518455394
 20
675.0207195125422
 30
0.0
 11
836.9128518455394
 21
686.7901958362482
 31
0.0
1001
AcDbBlockRepETag
1070
     1
1071
       64
1005
A05
  0
LINE
  5
A06
330
25B
100
AcDbEntity
  8
图框
370
    50
100
AcDbLine
 10
836.9128518455394
 20
675.5347692601515
 30
0.0
 11
1126.928502610363
 21
675.5347692601515
 31
0.0
1001
AcDbBlockRepETag
1070
     1
1071
       65
1005
A06
  0
LINE
  5
A07
330
25B
100
AcDbEntity
  8
图框
370
    -3
100
AcDbLine
 10
842.6237321475781
 20
675.5347692601515
 30
0.0
 11
842.6237321475781
 21
686.7901958362482
 31
0.0
1001
AcDbBlockRepETag
1070
     1
1071
       66
1005
A07
  0
LINE
  5
A08
330
25B
100
AcDbEntity
  8
图框
370
    -3
100
AcDbLine
 10
848.3346124496179
 20
675.5347692601515
 30
0.0
 11
848.3346124496179
 21
686.7901958362482
 31
0.0
1001
AcDbBlockRepETag
1070
     1
1071
       67
1005
A08
  0
MTEXT
  5
A09
102
{ACAD_XDICTIONARY
360
B41
102
}
330
25B
100
AcDbEntity
  8
图框
100
AcDbMText
 10
857.7903401027889
 20
686.7901958362482
 30
0.0
 40
1.958998408821398
 41
11.25542657609672
 46
7.489694702258906
 71
     4
 72
     5
  1
\pi2.6646;{\fSimSun|b0|i0|c134|p2;档案员\fFangSong_GB2312|b0|i0|c134|p49;\H0.7x;\P\pi1.4159;\Fromans|c134;Filing Clerk\fFangSong_GB2312|b0|i0|c134|p49; }
 11
-0.0000000000000002
 21
-1.0
 31
0.0
 73
     1
 44
1.0
1001
AcDbBlockRepETag
1070
     1
1071
       68
1005
A09
1001
ACAD
1000
MTEXTBEGIN
1070
    73
1070
     1
1070
    44
1040
1.0
1070
    74
1070
     0
1000
MTEXTEND
1000
ACAD_MTEXT_DEFINED_HEIGHT_BEGIN
1070
    46
1040
7.489694702258906
1000
ACAD_MTEXT_DEFINED_HEIGHT_END
  0
MTEXT
  5
A0A
102
{ACAD_XDICTIONARY
360
B43
102
}
330
25B
100
AcDbEntity
  8
图框
100
AcDbMText
 10
845.479172298598
 20
686.7901958362482
 30
0.0
 40
1.958998408821398
 41
11.25542657609672
 46
5.710880302039671
 71
     4
 72
     5
  1
\pi0.63465;{\fSimSun|b0|i0|c134|p2;日期\Fromans|c134;/Date}
 11
-0.0000000000000002
 21
-1.0
 31
0.0
 73
     1
 44
1.0
1001
AcDbBlockRepETag
1070
     1
1071
       69
1005
A0A
1001
ACAD
1000
MTEXTBEGIN
1070
    73
1070
     1
1070
    44
1040
1.0
1070
    74
1070
     0
1000
MTEXTEND
1000
ACAD_MTEXT_DEFINED_HEIGHT_BEGIN
1070
    46
1040
5.710880302039671
1000
ACAD_MTEXT_DEFINED_HEIGHT_END
  0
LINE
  5
A0B
330
25B
100
AcDbEntity
  8
图框
370
    -3
100
AcDbLine
 10
854.0454927516588
 20
675.5347692601515
 30
0.0
 11
854.0454927516588
 21
686.7901958362482
 31
0.0
1001
AcDbBlockRepETag
1070
     1
1071
       70
1005
A0B
  0
LINE
  5
A0C
330
25B
100
AcDbEntity
  8
图框
370
    -3
100
AcDbLine
 10
1036.653967466372
 20
531.3291676047914
 30
0.0
 11
1036.653967466372
 21
484.0126019753161
 31
0.0
1001
AcDbBlockRepETag
1070
     1
1071
       71
1005
A0C
  0
LINE
  5
A0D
330
25B
100
AcDbEntity
  8
图框
370
    -3
100
AcDbLine
 10
1047.483315900763
 20
507.6708838011533
 30
0.0
 11
1047.483315900763
 21
491.8986945987308
 31
0.0
1001
AcDbBlockRepETag
1070
     1
1071
       72
1005
A0D
  0
LINE
  5
A0E
330
25B
100
AcDbEntity
  8
图框
370
    -3
100
AcDbLine
 10
1058.312664335153
 20
507.6708838011533
 30
0.0
 11
1058.312664335153
 21
484.0347692601515
 31
0.0
1001
AcDbBlockRepETag
1070
     1
1071
       73
1005
A0E
  0
LINE
  5
A0F
330
25B
100
AcDbEntity
  8
图框
370
    25
100
AcDbLine
 10
1048.474135214456
 20
488.1095628329926
 30
0.0
 11
1054.946420288459
 21
488.1095628329926
 31
0.0
1001
AcDbBlockRepETag
1070
     1
1071
       74
1005
A0F
  0
LINE
  5
A10
330
25B
100
AcDbEntity
  8
图框
370
    25
100
AcDbLine
 10
1054.232527365989
 20
487.0761716842634
 30
0.0
 11
1049.156490914508
 21
486.4576273751
 31
0.0
1001
AcDbBlockRepETag
1070
     1
1071
       75
1005
A10
  0
LINE
  5
A11
330
25B
100
AcDbEntity
  8
图框
370
    25
100
AcDbLine
 10
1054.232527365989
 20
489.1429539817209
 30
0.0
 11
1049.156490914508
 21
489.7614982908846
 31
0.0
1001
AcDbBlockRepETag
1070
     1
1071
       76
1005
A11
  0
LINE
  5
A12
330
25B
100
AcDbEntity
  8
图框
370
    25
100
AcDbLine
 10
1049.156490914508
 20
489.7614982908846
 30
0.0
 11
1049.156490914508
 21
486.4576273751
 31
0.0
1001
AcDbBlockRepETag
1070
     1
1071
       77
1005
A12
  0
LINE
  5
A13
330
25B
100
AcDbEntity
  8
图框
370
    25
100
AcDbLine
 10
1054.232527365989
 20
489.1429539817209
 30
0.0
 11
1054.232527365989
 21
487.0761716842634
 31
0.0
1001
AcDbBlockRepETag
1070
     1
1071
       78
1005
A13
  0
CIRCLE
  5
A14
330
25B
100
AcDbEntity
  8
图框
370
    25
100
AcDbCircle
 10
1042.502700458579
 20
488.1095628329926
 30
0.0
 40
1.651935457891863
1001
AcDbBlockRepETag
1070
     1
1071
       79
1005
A14
  0
CIRCLE
  5
A15
330
25B
100
AcDbEntity
  8
图框
370
    25
100
AcDbCircle
 10
1042.502700458579
 20
488.1095628329926
 30
0.0
 40
1.033391148728775
1001
AcDbBlockRepETag
1070
     1
1071
       80
1005
A15
  0
LINE
  5
A16
330
25B
100
AcDbEntity
  8
图框
370
    25
100
AcDbLine
 10
1040.136872078216
 20
488.1095628329926
 30
0.0
 11
1044.868528838943
 21
488.1095628329926
 31
0.0
1001
AcDbBlockRepETag
1070
     1
1071
       81
1005
A16
  0
LINE
  5
A17
330
25B
100
AcDbEntity
  8
图框
370
    25
100
AcDbLine
 10
1042.502700458579
 20
490.475391213355
 30
0.0
 11
1042.502700458579
 21
485.743734452629
 31
0.0
1001
AcDbBlockRepETag
1070
     1
1071
       82
1005
A17
  0
LINE
  5
A18
330
25B
100
AcDbEntity
  8
图框
370
    -3
100
AcDbLine
 10
1069.142012769546
 20
507.6708838011533
 30
0.0
 11
1069.142012769546
 21
491.8986945987308
 31
0.0
1001
AcDbBlockRepETag
1070
     1
1071
       83
1005
A18
  0
MTEXT
  5
A19
330
25B
100
AcDbEntity
  8
图框
100
AcDbMText
 10
1086.643735910939
 20
526.8006839312707
 30
0.0
 40
2.154898249703542
 41
13.34474941400573
 46
9.056967347041775
 71
     5
 72
     5
  1
图号{\Ftxt|c134;\P\Fromans|c134;\W0.65;Drawing No.}
 73
     1
 44
1.0
1001
AcDbBlockRepETag
1070
     1
1071
       84
1005
A19
1001
ACAD
1000
MTEXTBEGIN
1070
    73
1070
     1
1070
    44
1040
1.0
1070
    74
1070
     0
1000
MTEXTEND
1000
ACAD_MTEXT_DEFINED_HEIGHT_BEGIN
1070
    46
1040
9.056967347041775
1000
ACAD_MTEXT_DEFINED_HEIGHT_END
  0
LINE
  5
A1A
330
25B
100
AcDbEntity
  8
图框
370
    -3
100
AcDbLine
 10
1093.316110617942
 20
531.3291676047914
 30
0.0
 11
1093.316110617942
 21
495.8417418993347
 31
0.0
1001
AcDbBlockRepETag
1070
     1
1071
       85
1005
A1A
  0
LINE
  5
A1B
330
25B
100
AcDbEntity
  8
图框
370
    -3
100
AcDbLine
 10
1047.473969770481
 20
531.3291676047914
 30
0.0
 11
1047.473969770481
 21
507.6708838011533
 31
0.0
1001
AcDbBlockRepETag
1070
     1
1071
       86
1005
A1B
  0
MTEXT
  5
A1C
330
25B
100
AcDbEntity
  8
图框
100
AcDbMText
 10
1063.72733855235
 20
503.7278365005473
 30
0.0
 40
2.252848170144607
 41
10.82934843439208
 46
7.886094601212128
 71
     5
 72
     5
  1
重量\P{\Fromans|c134;Weight}
 73
     1
 44
1.0
1001
AcDbBlockRepETag
1070
     1
1071
       87
1005
A1C
1001
ACAD
1000
MTEXTBEGIN
1070
    73
1070
     1
1070
    44
1040
1.0
1070
    74
1070
     0
1000
MTEXTEND
1000
ACAD_MTEXT_DEFINED_HEIGHT_BEGIN
1070
    46
1040
7.886094601212128
1000
ACAD_MTEXT_DEFINED_HEIGHT_END
  0
LINE
  5
A1D
330
25B
100
AcDbEntity
  8
图框
370
    -3
100
AcDbLine
 10
1036.653967466372
 20
519.5000257029746
 30
0.0
 11
1079.971361203936
 21
519.5000257029746
 31
0.0
1001
AcDbBlockRepETag
1070
     1
1071
       88
1005
A1D
  0
MTEXT
  5
A1E
330
25B
100
AcDbEntity
  8
图框
100
AcDbMText
 10
1074.556686986741
 20
503.7278365005473
 30
0.0
 40
2.252848170144607
 41
10.82934843438984
 46
7.886094601212141
 71
     5
 72
     5
  1
数量\P{\Fromans|c134;Qty.}
 73
     1
 44
1.0
1001
AcDbBlockRepETag
1070
     1
1071
       89
1005
A1E
1001
ACAD
1000
MTEXTBEGIN
1070
    73
1070
     1
1070
    44
1040
1.0
1070
    74
1070
     0
1000
MTEXTEND
1000
ACAD_MTEXT_DEFINED_HEIGHT_BEGIN
1070
    46
1040
7.886094601212141
1000
ACAD_MTEXT_DEFINED_HEIGHT_END
  0
LINE
  5
A1F
330
25B
100
AcDbEntity
  8
图框
370
    -3
100
AcDbLine
 10
1079.971361203936
 20
495.8417418993347
 30
0.0
 11
1126.928502610363
 21
495.8417418993342
 31
0.0
1001
AcDbBlockRepETag
1070
     1
1071
       90
1005
A1F
  0
LINE
  5
A20
330
25B
100
AcDbEntity
  8
图框
370
    -3
100
AcDbLine
 10
1079.971361203936
 20
504.7132992040975
 30
0.0
 11
1126.928502610363
 21
504.7132992040975
 31
0.0
1001
AcDbBlockRepETag
1070
     1
1071
       91
1005
A20
  0
MTEXT
  5
A21
330
25B
100
AcDbEntity
  8
图框
100
AcDbMText
 10
1052.893317052817
 20
503.7278365005473
 30
0.0
 40
2.252848170144607
 41
10.83869456467139
 46
7.886094601212101
 71
     5
 72
     5
  1
版本\P{\Fromans|c134;REV.}
 73
     1
 44
1.0
1001
AcDbBlockRepETag
1070
     1
1071
       92
1005
A21
1001
ACAD
1000
MTEXTBEGIN
1070
    73
1070
     1
1070
    44
1040
1.0
1070
    74
1070
     0
1000
MTEXTEND
1000
ACAD_MTEXT_DEFINED_HEIGHT_BEGIN
1070
    46
1040
7.886094601212101
1000
ACAD_MTEXT_DEFINED_HEIGHT_END
  0
MTEXT
  5
A22
330
25B
100
AcDbEntity
  8
图框
100
AcDbMText
 10
1042.068641683568
 20
503.7278365005473
 30
0.0
 40
2.252848170144607
 41
10.8293484343908
 46
7.886094601212136
 71
     5
 72
     5
  1
比例\P{\Fromans|c134;Scale}
 73
     1
 44
1.0
1001
AcDbBlockRepETag
1070
     1
1071
       93
1005
A22
1001
ACAD
1000
MTEXTBEGIN
1070
    73
1070
     1
1070
    44
1040
1.0
1070
    74
1070
     0
1000
MTEXTEND
1000
ACAD_MTEXT_DEFINED_HEIGHT_BEGIN
1070
    46
1040
7.886094601212136
1000
ACAD_MTEXT_DEFINED_HEIGHT_END
  0
LINE
  5
A23
330
25B
100
AcDbEntity
  8
图框
370
    -3
100
AcDbLine
 10
1036.653967466372
 20
507.6708838011533
 30
0.0
 11
1079.971361203936
 21
507.6708838011533
 31
0.0
1001
AcDbBlockRepETag
1070
     1
1071
       94
1005
A23
  0
LINE
  5
A24
330
25B
100
AcDbEntity
  8
图框
370
    -3
100
AcDbLine
 10
1036.653967466372
 20
491.8986945987308
 30
0.0
 11
1079.971361203936
 21
491.8986945987308
 31
0.0
1001
AcDbBlockRepETag
1070
     1
1071
       95
1005
A24
  0
LINE
  5
A25
330
25B
100
AcDbEntity
  8
图框
370
    -3
100
AcDbLine
 10
1079.971361203936
 20
531.3291676047914
 30
0.0
 11
1079.971361203936
 21
484.0125999975168
 31
0.0
1001
AcDbBlockRepETag
1070
     1
1071
       96
1005
A25
  0
MTEXT
  5
A26
330
25B
100
AcDbEntity
  8
图框
100
AcDbMText
 10
1042.063968618426
 20
525.4145966538832
 30
0.0
 40
2.252848170144607
 41
10.82000230410933
 46
11.82914190181708
 71
     5
 72
     5
  1
表面处理\P{\Fromans|c134;Finish}
 73
     1
 44
1.0
1001
AcDbBlockRepETag
1070
     1
1071
       97
1005
A26
1001
ACAD
1000
MTEXTBEGIN
1070
    73
1070
     1
1070
    44
1040
1.0
1070
    74
1070
     0
1000
MTEXTEND
1000
ACAD_MTEXT_DEFINED_HEIGHT_BEGIN
1070
    46
1040
11.82914190181708
1000
ACAD_MTEXT_DEFINED_HEIGHT_END
  0
MTEXT
  5
A27
330
25B
100
AcDbEntity
  8
图框
100
AcDbMText
 10
1042.063968618426
 20
513.5854547520639
 30
0.0
 40
2.252848170144607
 41
10.82000230410933
 46
11.8291419018212
 71
     5
 72
     5
  1
材料\P{\Fromans|c134;Material}
 73
     1
 44
1.0
1001
AcDbBlockRepETag
1070
     1
1071
       98
1005
A27
1001
ACAD
1000
MTEXTBEGIN
1070
    73
1070
     1
1070
    44
1040
1.0
1070
    74
1070
     0
1000
MTEXTEND
1000
ACAD_MTEXT_DEFINED_HEIGHT_BEGIN
1070
    46
1040
11.8291419018212
1000
ACAD_MTEXT_DEFINED_HEIGHT_END
  0
LINE
  5
A28
330
25B
100
AcDbEntity
  8
图框
370
    -3
100
AcDbLine
 10
1079.971361203936
 20
522.27220025775
 30
0.0
 11
1126.928502610363
 21
522.27220025775
 31
0.0
1001
AcDbBlockRepETag
1070
     1
1071
       99
1005
A28
  0
LINE
  5
A29
330
25B
100
AcDbEntity
  8
图框
370
    -3
100
AcDbLine
 10
1079.971361203936
 20
513.5854547520641
 30
0.0
 11
1126.928502610363
 21
513.5854547520639
 31
0.0
1001
AcDbBlockRepETag
1070
     1
1071
      100
1005
A29
  0
MTEXT
  5
A2A
330
25B
100
AcDbEntity
  8
图框
100
AcDbMText
 10
1086.643735910939
 20
517.9288275049072
 30
0.0
 40
1.958998408821398
 41
13.34474941400573
 46
8.686745505685811
 71
     5
 72
     5
  1
产品代号\P{\Fromans|c134;Part Code}
 73
     1
 44
1.0
1001
AcDbBlockRepETag
1070
     1
1071
      101
1005
A2A
1001
ACAD
1000
MTEXTBEGIN
1070
    73
1070
     1
1070
    44
1040
1.0
1070
    74
1070
     0
1000
MTEXTEND
1000
ACAD_MTEXT_DEFINED_HEIGHT_BEGIN
1070
    46
1040
8.686745505685811
1000
ACAD_MTEXT_DEFINED_HEIGHT_END
  0
LINE
  5
A2B
330
25B
100
AcDbEntity
  8
图框
370
    -3
100
AcDbLine
 10
946.9285026103634
 20
525.7982263931411
 30
0.0
 11
1036.653967466372
 21
525.7982263931411
 31
0.0
1001
AcDbBlockRepETag
1070
     1
1071
      102
1005
A2B
  0
LINE
  5
A2C
330
25B
100
AcDbEntity
  8
图框
370
    -3
100
AcDbLine
 10
946.9285026103634
 20
520.2672851814959
 30
0.0
 11
1036.653967466372
 21
520.2672851814959
 31
0.0
1001
AcDbBlockRepETag
1070
     1
1071
      103
1005
A2C
  0
LINE
  5
A2D
330
25B
100
AcDbEntity
  8
图框
370
    35
100
AcDbLine
 10
946.9285026103634
 20
531.3291676047914
 30
0.0
 11
1126.928502610363
 21
531.3291676047914
 31
0.0
1001
AcDbBlockRepETag
1070
     1
1071
      104
1005
A2D
  0
LINE
  5
A2E
330
25B
100
AcDbEntity
  8
图框
370
    -3
100
AcDbLine
 10
990.6727612856927
 20
509.2054027581959
 30
0.0
 11
990.6727612856927
 21
484.0347692601515
 31
0.0
1001
AcDbBlockRepETag
1070
     1
1071
      105
1005
A2E
  0
MTEXT
  5
A2F
102
{ACAD_XDICTIONARY
360
B45
102
}
330
25B
100
AcDbEntity
  8
图框
100
AcDbMText
 10
997.1628169651232
 20
499.816589978722
 30
0.0
 40
2.252848170144607
 41
12.98011135886052
 46
6.19230880992475
 71
     5
 72
     5
  1
{\fSimSun|b0|i0|c134|p2;标准化}\PStand.
  7
Romans字体
 73
     1
 44
1.0
1001
AcDbBlockRepETag
1070
     1
1071
      106
1005
A2F
1001
ACAD
1000
MTEXTBEGIN
1070
    73
1070
     1
1070
    44
1040
1.0
1070
    74
1070
     0
1000
MTEXTEND
1000
ACAD_MTEXT_DEFINED_HEIGHT_BEGIN
1070
    46
1040
6.19230880992475
1000
ACAD_MTEXT_DEFINED_HEIGHT_END
  0
LINE
  5
A30
330
25B
100
AcDbEntity
  8
图框
370
    -3
100
AcDbLine
 10
975.4103773808022
 20
509.2054027581959
 30
0.0
 11
975.4103773808022
 21
484.0347692601515
 31
0.0
1001
AcDbBlockRepETag
1070
     1
1071
      107
1005
A30
  0
MTEXT
  5
A31
330
25B
100
AcDbEntity
  8
图框
100
AcDbMText
 10
984.5089229802068
 20
511.9708733640202
 30
0.0
 40
2.448748011026752
 41
38.287899328693
 46
5.530941211648832
 71
     5
 72
     5
  1
  变更描述{\Fromans|c134;/Description}
 73
     1
 44
1.0
1001
AcDbBlockRepETag
1070
     1
1071
      108
1005
A31
1001
ACAD
1000
MTEXTBEGIN
1070
    73
1070
     1
1070
    44
1040
1.0
1070
    74
1070
     0
1000
MTEXTEND
1000
ACAD_MTEXT_DEFINED_HEIGHT_BEGIN
1070
    46
1040
5.530941211648832
1000
ACAD_MTEXT_DEFINED_HEIGHT_END
  0
MTEXT
  5
A32
102
{ACAD_XDICTIONARY
360
B47
102
}
330
25B
100
AcDbEntity
  8
图框
100
AcDbMText
 10
1012.466086049227
 20
511.9708733640202
 30
0.0
 40
1.958998408821398
 41
17.6264268093469
 46
5.530941211648825
 71
     5
 72
     5
  1
{\fSimSun|b0|i0|c134|p2;签名\P\Fromans|c134;Signature} 
 73
     1
 44
1.0
1001
AcDbBlockRepETag
1070
     1
1071
      109
1005
A32
1001
ACAD
1000
MTEXTBEGIN
1070
    73
1070
     1
1070
    44
1040
1.0
1070
    74
1070
     0
1000
MTEXTEND
1000
ACAD_MTEXT_DEFINED_HEIGHT_BEGIN
1070
    46
1040
5.530941211648825
1000
ACAD_MTEXT_DEFINED_HEIGHT_END
  0
MTEXT
  5
A33
102
{ACAD_XDICTIONARY
360
B49
102
}
330
25B
100
AcDbEntity
  8
图框
100
AcDbMText
 10
960.7558556394856
 20
511.9708733640202
 30
0.0
 40
1.958998408821398
 41
9.218235352749283
 46
5.530941211648841
 71
     5
 72
     5
  1
{\fSimSun|b0|i0|c134|p2;处数\P\Fromans|c134;Number }
 73
     1
 44
1.0
1001
AcDbBlockRepETag
1070
     1
1071
      110
1005
A33
1001
ACAD
1000
MTEXTBEGIN
1070
    73
1070
     1
1070
    44
1040
1.0
1070
    74
1070
     0
1000
MTEXTEND
1000
ACAD_MTEXT_DEFINED_HEIGHT_BEGIN
1070
    46
1040
5.530941211648841
1000
ACAD_MTEXT_DEFINED_HEIGHT_END
  0
LINE
  5
A34
330
25B
100
AcDbEntity
  8
图框
370
    -3
100
AcDbLine
 10
946.9285026103634
 20
514.7363439698449
 30
0.0
 11
1036.653967466372
 21
514.7363439698449
 31
0.0
1001
AcDbBlockRepETag
1070
     1
1071
      111
1005
A34
  0
LINE
  5
A35
330
25B
100
AcDbEntity
  8
图框
370
    -3
100
AcDbLine
 10
946.9285026103634
 20
509.2054027581959
 30
0.0
 11
1036.653967466372
 21
509.2054027581959
 31
0.0
1001
AcDbBlockRepETag
1070
     1
1071
      112
1005
A35
  0
LINE
  5
A36
330
25B
100
AcDbEntity
  8
图框
370
    -3
100
AcDbLine
 10
946.9285026103634
 20
502.9127443836848
 30
0.0
 11
1036.653967466372
 21
502.9127443836848
 31
0.0
1001
AcDbBlockRepETag
1070
     1
1071
      113
1005
A36
  0
LINE
  5
A37
330
25B
100
AcDbEntity
  8
图框
370
    -3
100
AcDbLine
 10
946.9285026103634
 20
496.620086009173
 30
0.0
 11
1036.653967466372
 21
496.620086009173
 31
0.0
1001
AcDbBlockRepETag
1070
     1
1071
      114
1005
A37
  0
LINE
  5
A38
330
25B
100
AcDbEntity
  8
图框
370
    35
380
     1
100
AcDbLine
 10
946.9285026103634
 20
531.3291676047914
 30
0.0
 11
946.9285026103634
 21
484.0347692601515
 31
0.0
1001
AcDbBlockRepETag
1070
     1
1071
      115
1005
A38
  0
LINE
  5
A39
330
25B
100
AcDbEntity
  8
图框
370
    -3
100
AcDbLine
 10
1021.301636813399
 20
531.3291676047914
 30
0.0
 11
1021.301636813399
 21
484.0347692601515
 31
0.0
1001
AcDbBlockRepETag
1070
     1
1071
      116
1005
A39
  0
LINE
  5
A3A
330
25B
100
AcDbEntity
  8
图框
370
    -3
100
AcDbLine
 10
1003.652872644553
 20
531.3291676047914
 30
0.0
 11
1003.652872644553
 21
484.0347692601515
 31
0.0
1001
AcDbBlockRepETag
1070
     1
1071
      117
1005
A3A
  0
LINE
  5
A3B
330
25B
100
AcDbEntity
  8
图框
370
    -3
100
AcDbLine
 10
965.3649733158603
 20
531.3291676047914
 30
0.0
 11
965.3649733158603
 21
509.2054027581959
 31
0.0
1001
AcDbBlockRepETag
1070
     1
1071
      118
1005
A3B
  0
LINE
  5
A3C
330
25B
100
AcDbEntity
  8
图框
370
    -3
100
AcDbLine
 10
956.1467379631109
 20
531.3291676047914
 30
0.0
 11
956.1467379631109
 21
509.2054027581959
 31
0.0
1001
AcDbBlockRepETag
1070
     1
1071
      119
1005
A3C
  0
MTEXT
  5
A3D
102
{ACAD_XDICTIONARY
360
B4B
102
}
330
25B
100
AcDbEntity
  8
图框
100
AcDbMText
 10
951.537620286737
 20
511.9708733640202
 30
0.0
 40
1.958998408821398
 41
9.218235352747692
 46
5.530941211648832
 71
     5
 72
     5
  1
{\fSimSun|b0|i0|c134|p2;标记\P\Fromans|c134;Mark}
 73
     1
 44
1.0
1001
AcDbBlockRepETag
1070
     1
1071
      120
1005
A3D
1001
ACAD
1000
MTEXTBEGIN
1070
    73
1070
     1
1070
    44
1040
1.0
1070
    74
1070
     0
1000
MTEXTEND
1000
ACAD_MTEXT_DEFINED_HEIGHT_BEGIN
1070
    46
1040
5.530941211648832
1000
ACAD_MTEXT_DEFINED_HEIGHT_END
  0
MTEXT
  5
A3E
102
{ACAD_XDICTIONARY
360
B4D
102
}
330
25B
100
AcDbEntity
  8
图框
100
AcDbMText
 10
953.4185582897936
 20
493.4737568219182
 30
0.0
 40
2.252848170144607
 41
12.98011135886041
 46
6.292658374510382
 71
     5
 72
     5
  1
{\fSimSun|b0|i0|c134|p2;审核\P\Fromans|c134;Checked}
 73
     1
 44
1.0
1001
AcDbBlockRepETag
1070
     1
1071
      121
1005
A3E
1001
ACAD
1000
MTEXTBEGIN
1070
    73
1070
     1
1070
    44
1040
1.0
1070
    74
1070
     0
1000
MTEXTEND
1000
ACAD_MTEXT_DEFINED_HEIGHT_BEGIN
1070
    46
1040
6.292658374510382
1000
ACAD_MTEXT_DEFINED_HEIGHT_END
  0
MTEXT
  5
A3F
102
{ACAD_XDICTIONARY
360
B4F
102
}
330
25B
100
AcDbEntity
  8
图框
100
AcDbMText
 10
953.4185582897936
 20
499.8775635376777
 30
0.0
 40
2.252848170144607
 41
12.98011135886041
 46
6.070361692014189
 71
     5
 72
     5
  1
{\fSimSun|b0|i0|c134|p2;绘图\P\Fromans|c134;Drawn\Ftxt|c134; }
 73
     1
 44
1.0
1001
AcDbBlockRepETag
1070
     1
1071
      122
1005
A3F
1001
ACAD
1000
MTEXTBEGIN
1070
    73
1070
     1
1070
    44
1040
1.0
1070
    74
1070
     0
1000
MTEXTEND
1000
ACAD_MTEXT_DEFINED_HEIGHT_BEGIN
1070
    46
1040
6.070361692014189
1000
ACAD_MTEXT_DEFINED_HEIGHT_END
  0
ARC
  5
A40
330
25B
100
AcDbEntity
  8
图框
 62
     4
370
    35
100
AcDbCircle
 10
1086.900627017421
 20
490.0179944151195
 30
0.0
 40
4.063310408393665
100
AcDbArc
 50
18.95237904564806
 51
161.0476209543519
1001
AcDbBlockRepETag
1070
     1
1071
      123
1005
A40
  0
ARC
  5
A41
330
25B
100
AcDbEntity
  8
图框
 62
     4
370
    35
100
AcDbCircle
 10
1086.900627017421
 20
490.0179944151195
 30
0.0
 40
4.063310408393665
100
AcDbArc
 50
198.952379045648
 51
341.0476209543519
1001
AcDbBlockRepETag
1070
     1
1071
      124
1005
A41
  0
LINE
  5
A42
330
25B
100
AcDbEntity
  8
图框
 62
     4
370
    35
100
AcDbLine
 10
1083.057593369548
 20
488.6983035966752
 30
0.0
 11
1090.74366066529
 21
488.6983035966752
 31
0.0
1001
AcDbBlockRepETag
1070
     1
1071
      125
1005
A42
  0
LINE
  5
A43
330
25B
100
AcDbEntity
  8
图框
 62
     4
370
    35
100
AcDbLine
 10
1083.057593369548
 20
491.3376852335652
 30
0.0
 11
1090.74366066529
 21
491.3376852335652
 31
0.0
1001
AcDbBlockRepETag
1070
     1
1071
      126
1005
A43
  0
MTEXT
  5
A44
330
25B
100
AcDbEntity
  8
图框
 62
     1
370
    20
100
AcDbMText
 10
1083.034582879669
 20
491.0506288081688
 30
0.0
 40
2.005930044038334
 41
5.047240019334847
 46
0.0
 71
     1
 72
     5
  1
{\fArial|b0|i0|c0|p34;W}
  7
Chinese
 73
     1
 44
1.0
1001
AcDbBlockRepETag
1070
     1
1071
      127
1005
A44
1001
ACAD
1000
MTEXTBEGIN
1070
    73
1070
     1
1070
    44
1040
1.0
1070
    74
1070
     0
1000
MTEXTEND
  0
LINE
  5
A45
330
25B
100
AcDbEntity
  8
图框
370
    -3
100
AcDbLine
 10
946.9285026103634
 20
490.327427634663
 30
0.0
 11
1036.653967466372
 21
490.327427634663
 31
0.0
1001
AcDbBlockRepETag
1070
     1
1071
      128
1005
A45
  0
LINE
  5
A46
330
25B
100
AcDbEntity
  8
图框
370
    -3
100
AcDbLine
 10
959.9086139692238
 20
509.2054027581959
 30
0.0
 11
959.9086139692238
 21
484.0347692601515
 31
0.0
1001
AcDbBlockRepETag
1070
     1
1071
      129
1005
A46
  0
MTEXT
  5
A47
330
25B
100
AcDbEntity
  8
图框
100
AcDbMText
 10
967.6594956750129
 20
506.0590735709403
 30
0.0
 40
2.252848170144607
 41
15.50176341157869
 46
6.292658374511246
 71
     5
 72
     5
  1
姓名{\Fromans|c134;/Name\Ftxt|c134; }
 73
     1
 44
1.0
1001
AcDbBlockRepETag
1070
     1
1071
      130
1005
A47
1001
ACAD
1000
MTEXTBEGIN
1070
    73
1070
     1
1070
    44
1040
1.0
1070
    74
1070
     0
1000
MTEXTEND
1000
ACAD_MTEXT_DEFINED_HEIGHT_BEGIN
1070
    46
1040
6.292658374511246
1000
ACAD_MTEXT_DEFINED_HEIGHT_END
  0
MTEXT
  5
A48
330
25B
100
AcDbEntity
  8
图框
100
AcDbMText
 10
983.0415693332477
 20
506.0590735709403
 30
0.0
 40
2.252848170144607
 41
15.26238390489042
 46
6.2926583745112
 71
     5
 72
     5
  1
日期{\Fromans|c134;/Date}
 73
     1
 44
1.0
1001
AcDbBlockRepETag
1070
     1
1071
      131
1005
A48
1001
ACAD
1000
MTEXTBEGIN
1070
    73
1070
     1
1070
    44
1040
1.0
1070
    74
1070
     0
1000
MTEXTEND
1000
ACAD_MTEXT_DEFINED_HEIGHT_BEGIN
1070
    46
1040
6.2926583745112
1000
ACAD_MTEXT_DEFINED_HEIGHT_END
  0
LINE
  5
A49
330
25B
100
AcDbEntity
  8
图框
370
    -3
100
AcDbLine
 10
946.9285026103634
 20
509.2054027581959
 30
0.0
 11
959.9086139692238
 21
502.9127443836848
 31
0.0
1001
AcDbBlockRepETag
1070
     1
1071
      132
1005
A49
  0
MTEXT
  5
A4A
330
25B
100
AcDbEntity
  8
图框
100
AcDbMText
 10
1012.931405110086
 20
506.0185715840725
 30
0.0
 40
2.252848170144607
 41
16.93492221063566
 46
0.0
 71
     5
 72
     5
  1
姓名{\Fromans|c134;/Name}
 73
     1
 44
1.0
1001
AcDbBlockRepETag
1070
     1
1071
      133
1005
A4A
1001
ACAD
1000
MTEXTBEGIN
1070
    73
1070
     1
1070
    44
1040
1.0
1070
    74
1070
     0
1000
MTEXTEND
  0
MTEXT
  5
A4B
330
25B
100
AcDbEntity
  8
图框
100
AcDbMText
 10
1028.977802139886
 20
506.0590735709403
 30
0.0
 40
2.252848170144607
 41
15.35233065297283
 46
6.292658374511256
 71
     5
 72
     5
  1
日期{\Fromans|c134;/Date}
 73
     1
 44
1.0
1001
AcDbBlockRepETag
1070
     1
1071
      134
1005
A4B
1001
ACAD
1000
MTEXTBEGIN
1070
    73
1070
     1
1070
    44
1040
1.0
1070
    74
1070
     0
1000
MTEXTEND
1000
ACAD_MTEXT_DEFINED_HEIGHT_BEGIN
1070
    46
1040
6.292658374511256
1000
ACAD_MTEXT_DEFINED_HEIGHT_END
  0
LINE
  5
A4C
330
25B
100
AcDbEntity
  8
图框
370
    -3
100
AcDbLine
 10
1003.652872644553
 20
502.9127443836848
 30
0.0
 11
990.6727612856927
 21
509.2054027581959
 31
0.0
1001
AcDbBlockRepETag
1070
     1
1071
      135
1005
A4C
  0
MTEXT
  5
A4D
102
{ACAD_XDICTIONARY
360
B51
102
}
330
25B
100
AcDbEntity
  8
图框
100
AcDbMText
 10
997.1628169651232
 20
487.1810984474071
 30
0.0
 40
2.252848170144607
 41
12.98011135886052
 46
6.292658374511517
 71
     5
 72
     5
  1
{\fSimSun|b0|i0|c134|p2;批准\P\Fromans|c134;Approved}
 73
     1
 44
1.0
1001
AcDbBlockRepETag
1070
     1
1071
      136
1005
A4D
1001
ACAD
1000
MTEXTBEGIN
1070
    73
1070
     1
1070
    44
1040
1.0
1070
    74
1070
     0
1000
MTEXTEND
1000
ACAD_MTEXT_DEFINED_HEIGHT_BEGIN
1070
    46
1040
6.292658374511517
1000
ACAD_MTEXT_DEFINED_HEIGHT_END
  0
MTEXT
  5
A4E
102
{ACAD_XDICTIONARY
360
B53
102
}
330
25B
100
AcDbEntity
  8
图框
100
AcDbMText
 10
953.4185582897936
 20
487.1810984474071
 30
0.0
 40
2.252848170144607
 41
12.98011135886041
 46
6.292658374511495
 71
     5
 72
     5
  1
{\fSimSun|b0|i0|c134|p2;工艺\P\Fromans|c134;Process}
 73
     1
 44
1.0
1001
AcDbBlockRepETag
1070
     1
1071
      137
1005
A4E
1001
ACAD
1000
MTEXTBEGIN
1070
    73
1070
     1
1070
    44
1040
1.0
1070
    74
1070
     0
1000
MTEXTEND
1000
ACAD_MTEXT_DEFINED_HEIGHT_BEGIN
1070
    46
1040
6.292658374511495
1000
ACAD_MTEXT_DEFINED_HEIGHT_END
  0
MTEXT
  5
A4F
102
{ACAD_XDICTIONARY
360
B55
102
}
330
25B
100
AcDbEntity
  8
图框
100
AcDbMText
 10
1028.977802139886
 20
511.8287965307664
 30
0.0
 40
1.958998408821398
 41
15.3523306529728
 46
5.246787545140668
 71
     5
 72
     5
  1
{\fSimSun|b0|i0|c134|p2;日期\P\Fromans|c134;Date}
 73
     1
 44
1.0
1001
AcDbBlockRepETag
1070
     1
1071
      138
1005
A4F
1001
ACAD
1000
MTEXTBEGIN
1070
    73
1070
     1
1070
    44
1040
1.0
1070
    74
1070
     0
1000
MTEXTEND
1000
ACAD_MTEXT_DEFINED_HEIGHT_BEGIN
1070
    46
1040
5.246787545140668
1000
ACAD_MTEXT_DEFINED_HEIGHT_END
  0
MTEXT
  5
A50
330
25B
100
AcDbEntity
  8
图框
100
AcDbMText
 10
1086.643735910939
 20
509.1493769780809
 30
0.0
 40
2.154898249703542
 41
13.34474941400573
 46
8.87215554796615
 71
     5
 72
     5
  1
产品料号\P{\Fromans|c134;Part No.}
 73
     1
 44
1.0
1001
AcDbBlockRepETag
1070
     1
1071
      139
1005
A50
1001
ACAD
1000
MTEXTBEGIN
1070
    73
1070
     1
1070
    44
1040
1.0
1070
    74
1070
     0
1000
MTEXTEND
1000
ACAD_MTEXT_DEFINED_HEIGHT_BEGIN
1070
    46
1040
8.87215554796615
1000
ACAD_MTEXT_DEFINED_HEIGHT_END
  0
MTEXT
  5
A51
330
25B
100
AcDbEntity
  8
图框
100
AcDbMText
 10
1086.643735910939
 20
500.2775205517163
 30
0.0
 40
1.958998408821398
 41
13.34474941400573
 46
8.871557304763321
 71
     5
 72
     5
  1
产品名称\P{\Fromans|c134;Part Name}
 73
     1
 44
1.0
1001
AcDbBlockRepETag
1070
     1
1071
      140
1005
A51
1001
ACAD
1000
MTEXTBEGIN
1070
    73
1070
     1
1070
    44
1040
1.0
1070
    74
1070
     0
1000
MTEXTEND
1000
ACAD_MTEXT_DEFINED_HEIGHT_BEGIN
1070
    46
1040
8.871557304763321
1000
ACAD_MTEXT_DEFINED_HEIGHT_END
  0
LINE
  5
A52
330
25B
100
AcDbEntity
  8
图框
 62
     1
370
    18
100
AcDbLine
 10
833.4128518455365
 20
690.5347692601515
 30
0.0
 11
833.4128518455365
 21
480.5347692601515
 31
0.0
1001
AcDbBlockRepETag
1070
     1
1071
      141
1005
A52
  0
LINE
  5
A53
330
25B
100
AcDbEntity
  8
图框
 62
     1
370
    18
100
AcDbLine
 10
833.4128518455365
 20
480.5347692601515
 30
0.0
 11
1130.411601781236
 21
480.5347692601515
 31
0.0
1001
AcDbBlockRepETag
1070
     1
1071
      142
1005
A53
  0
LINE
  5
A54
330
25B
100
AcDbEntity
  8
图框
 62
     1
370
    18
100
AcDbLine
 10
833.4128518455365
 20
690.5347692601515
 30
0.0
 11
1130.411601781236
 21
690.5347692601515
 31
0.0
1001
AcDbBlockRepETag
1070
     1
1071
      143
1005
A54
  0
LINE
  5
A55
330
25B
100
AcDbEntity
  8
图框
 62
     1
370
    18
100
AcDbLine
 10
1130.411601781236
 20
480.5347692601515
 30
0.0
 11
1130.411601781236
 21
690.5347692601515
 31
0.0
1001
AcDbBlockRepETag
1070
     1
1071
      144
1005
A55
  0
LINE
  5
A56
330
25B
100
AcDbEntity
  8
图框
370
    18
100
AcDbLine
 10
836.9128518455394
 20
686.7901958362482
 30
0.0
 11
861.5351874539182
 21
686.7901958362482
 31
0.0
1001
AcDbBlockRepETag
1070
     1
1071
      145
1005
A56
  0
LINE
  5
A57
330
25B
100
AcDbEntity
  8
图框
370
    50
100
AcDbLine
 10
1126.928502610363
 20
484.3410054693078
 30
0.0
 11
1126.928502610363
 21
675.5347692601515
 31
0.0
1001
AcDbBlockRepETag
1070
     1
1071
      146
1005
A57
  0
MTEXT
  5
A58
330
25B
100
AcDbEntity
  8
图框
 62
     3
100
AcDbMText
 10
1052.897990117958
 20
495.8417418993364
 30
0.0
 40
2.985513575034151
 41
10.82934843439114
 46
7.886094601211307
 71
     5
 72
     5
  1
V1.2
  7
Romans字体
 73
     1
 44
1.0
1001
AcDbBlockRepETag
1070
     1
1071
      147
1005
A58
1001
ACAD
1000
MTEXTBEGIN
1070
    73
1070
     1
1070
    44
1040
1.0
1070
    74
1070
     0
1000
MTEXTEND
1000
ACAD_MTEXT_DEFINED_HEIGHT_BEGIN
1070
    46
1040
7.886094601211307
1000
ACAD_MTEXT_DEFINED_HEIGHT_END
  0
LINE
  5
A59
330
25B
100
AcDbEntity
  8
图框
 62
     6
100
AcDbLine
 10
1126.911601781236
 20
531.714049199969
 30
0.0
 11
1130.411601781236
 21
531.714049199969
 31
0.0
1001
AcDbBlockRepETag
1070
     1
1071
      148
1005
A59
  0
ENDBLK
  5
2F3
330
25B
100
AcDbEntity
  8
0
100
AcDbBlockEnd
  0
BLOCK
  5
489
330
488
100
AcDbEntity
  8
0
100
AcDbBlockBegin
  2
*D2
 70
     1
 10
0.0
 20
0.0
 30
0.0
  3
*D2
  1

  0
LINE
  5
5A3
330
488
100
AcDbEntity
  8
DIM
 62
     6
370
    -2
100
AcDbLine
 10
786.8935099744113
 20
209.7277738147401
 30
0.0
 11
786.8935099744113
 21
206.0384242004427
 31
0.0
  0
LINE
  5
5A4
330
488
100
AcDbEntity
  8
DIM
 62
     6
370
    -2
100
AcDbLine
 10
801.6935099744122
 20
208.8241471089726
 30
0.0
 11
801.6935099744122
 21
206.0384242004427
 31
0.0
  0
LINE
  5
5A5
330
488
100
AcDbEntity
  8
DIM
 62
     1
370
    -2
100
AcDbLine
 10
787.6935099744112
 20
206.2384242004426
 30
0.0
 11
800.8935099744123
 21
206.2384242004426
 31
0.0
  0
SOLID
  5
5A6
330
488
100
AcDbEntity
  8
DIM
 62
     1
100
AcDbTrace
 10
787.6935099744112
 20
206.371757533776
 30
0.0
 11
787.6935099744112
 21
206.1050908671093
 31
0.0
 12
786.8935099744113
 22
206.2384242004426
 32
0.0
 13
786.8935099744113
 23
206.2384242004426
 33
0.0
  0
SOLID
  5
5A7
330
488
100
AcDbEntity
  8
DIM
 62
     1
100
AcDbTrace
 10
800.8935099744123
 20
206.371757533776
 30
0.0
 11
800.8935099744123
 21
206.1050908671093
 31
0.0
 12
801.6935099744122
 22
206.2384242004426
 32
0.0
 13
801.6935099744122
 23
206.2384242004426
 33
0.0
  0
MTEXT
  5
5A8
330
488
100
AcDbEntity
  8
DIM
 62
     4
100
AcDbMText
 10
794.2762954147021
 20
206.9384242004427
 30
0.0
 40
1.0
 41
0.0
 46
0.0
 71
     5
 72
     1
  1
\A1;14.8
  7
Romans字体
 73
     1
 44
1.0
1001
ACAD
1000
MTEXTBEGIN
1070
    73
1070
     1
1070
    44
1040
1.0
1070
    74
1070
     0
1000
MTEXTEND
  0
POINT
  5
5A9
330
488
100
AcDbEntity
  8
Defpoints
 62
     0
100
AcDbPoint
 10
786.8935099744113
 20
209.9277738147401
 30
0.0
  0
POINT
  5
5AA
330
488
100
AcDbEntity
  8
Defpoints
 62
     0
100
AcDbPoint
 10
801.6935099744122
 20
209.0241471089726
 30
0.0
  0
POINT
  5
5AB
330
488
100
AcDbEntity
  8
Defpoints
 62
     0
100
AcDbPoint
 10
801.6935099744122
 20
206.2384242004426
 30
0.0
  0
ENDBLK
  5
48A
330
488
100
AcDbEntity
  8
0
100
AcDbBlockEnd
  0
BLOCK
  5
495
330
494
100
AcDbEntity
  8
0
100
AcDbBlockBegin
  2
*D3
 70
     1
 10
0.0
 20
0.0
 30
0.0
  3
*D3
  1

  0
LINE
  5
5AC
330
494
100
AcDbEntity
  8
DIM
 62
     6
370
    -2
100
AcDbLine
 10
787.1935099744113
 20
209.42777381474
 30
0.0
 11
784.9259248821986
 21
209.42777381474
 31
0.0
  0
LINE
  5
5AD
330
494
100
AcDbEntity
  8
DIM
 62
     6
370
    -2
100
AcDbLine
 10
787.1935099744113
 20
210.4277738147401
 30
0.0
 11
784.9259248821986
 21
210.4277738147401
 31
0.0
  0
LINE
  5
5AE
330
494
100
AcDbEntity
  8
DIM
 62
     1
370
    -2
100
AcDbLine
 10
785.1259248821982
 20
208.62777381474
 30
0.0
 11
785.1259248821982
 21
207.82777381474
 31
0.0
  0
LINE
  5
5AF
330
494
100
AcDbEntity
  8
DIM
 62
     1
370
    -2
100
AcDbLine
 10
785.1259248821982
 20
211.2277738147401
 30
0.0
 11
785.1259248821982
 21
213.3920595290258
 31
0.0
  0
SOLID
  5
5B0
330
494
100
AcDbEntity
  8
DIM
 62
     1
100
AcDbTrace
 10
784.9925915488652
 20
208.62777381474
 30
0.0
 11
785.2592582155319
 21
208.62777381474
 31
0.0
 12
785.1259248821982
 22
209.42777381474
 32
0.0
 13
785.1259248821982
 23
209.42777381474
 33
0.0
  0
SOLID
  5
5B1
330
494
100
AcDbEntity
  8
DIM
 62
     1
100
AcDbTrace
 10
784.9925915488652
 20
211.2277738147401
 30
0.0
 11
785.2592582155319
 21
211.2277738147401
 31
0.0
 12
785.1259248821982
 22
210.4277738147401
 32
0.0
 13
785.1259248821982
 23
210.4277738147401
 33
0.0
  0
MTEXT
  5
5B2
330
494
100
AcDbEntity
  8
DIM
 62
     4
100
AcDbMText
 10
784.4259248821986
 20
212.7099166718831
 30
0.0
 40
1.0
 41
0.0
 46
0.0
 71
     5
 72
     1
  1
\A1;%%C1
  7
Romans字体
 11
0.0000000000000001
 21
1.0
 31
0.0
 73
     1
 44
1.0
1001
ACAD
1000
MTEXTBEGIN
1070
    73
1070
     1
1070
    44
1040
1.0
1070
    74
1070
     0
1000
MTEXTEND
  0
POINT
  5
5B3
330
494
100
AcDbEntity
  8
Defpoints
 62
     0
100
AcDbPoint
 10
787.3935099744113
 20
209.42777381474
 30
0.0
  0
POINT
  5
5B4
330
494
100
AcDbEntity
  8
Defpoints
 62
     0
100
AcDbPoint
 10
787.3935099744113
 20
210.4277738147401
 30
0.0
  0
POINT
  5
5B5
330
494
100
AcDbEntity
  8
Defpoints
 62
     0
100
AcDbPoint
 10
785.1259248821982
 20
210.4277738147401
 30
0.0
  0
ENDBLK
  5
496
330
494
100
AcDbEntity
  8
0
100
AcDbBlockEnd
  0
BLOCK
  5
4A2
330
4A1
100
AcDbEntity
  8
0
100
AcDbBlockBegin
  2
*D4
 70
     1
 10
0.0
 20
0.0
 30
0.0
  3
*D4
  1

  0
LINE
  5
5B6
330
4A1
100
AcDbEntity
  8
DIM
 62
     6
370
    -2
100
AcDbLine
 10
786.8935099744113
 20
210.1277738147401
 30
0.0
 11
786.8935099744113
 21
212.9027726867286
 31
0.0
  0
LINE
  5
5B7
330
4A1
100
AcDbEntity
  8
DIM
 62
     6
370
    -2
100
AcDbLine
 10
794.9935099744117
 20
211.0327738147398
 30
0.0
 11
794.9935099744117
 21
212.9027726867286
 31
0.0
  0
LINE
  5
5B8
330
4A1
100
AcDbEntity
  8
DIM
 62
     1
370
    -2
100
AcDbLine
 10
787.6935099744112
 20
212.7027726867285
 30
0.0
 11
794.1935099744116
 21
212.7027726867285
 31
0.0
  0
SOLID
  5
5B9
330
4A1
100
AcDbEntity
  8
DIM
 62
     1
100
AcDbTrace
 10
787.6935099744112
 20
212.8361060200619
 30
0.0
 11
787.6935099744112
 21
212.5694393533952
 31
0.0
 12
786.8935099744113
 22
212.7027726867285
 32
0.0
 13
786.8935099744113
 23
212.7027726867285
 33
0.0
  0
SOLID
  5
5BA
330
4A1
100
AcDbEntity
  8
DIM
 62
     1
100
AcDbTrace
 10
794.1935099744116
 20
212.8361060200619
 30
0.0
 11
794.1935099744116
 21
212.5694393533952
 31
0.0
 12
794.9935099744117
 22
212.7027726867285
 32
0.0
 13
794.9935099744117
 23
212.7027726867285
 33
0.0
  0
MTEXT
  5
5BB
330
4A1
100
AcDbEntity
  8
DIM
 62
     4
100
AcDbMText
 10
790.7688515611202
 20
213.4027726867286
 30
0.0
 40
1.0
 41
0.0
 46
0.0
 71
     5
 72
     1
  1
\A1;8.1
  7
Romans字体
 73
     1
 44
1.0
1001
ACAD
1000
MTEXTBEGIN
1070
    73
1070
     1
1070
    44
1040
1.0
1070
    74
1070
     0
1000
MTEXTEND
  0
POINT
  5
5BC
330
4A1
100
AcDbEntity
  8
Defpoints
 62
     0
100
AcDbPoint
 10
786.8935099744113
 20
209.9277738147401
 30
0.0
  0
POINT
  5
5BD
330
4A1
100
AcDbEntity
  8
Defpoints
 62
     0
100
AcDbPoint
 10
794.9935099744117
 20
210.8327738147397
 30
0.0
  0
POINT
  5
5BE
330
4A1
100
AcDbEntity
  8
Defpoints
 62
     0
100
AcDbPoint
 10
794.9935099744117
 20
212.7027726867285
 30
0.0
  0
ENDBLK
  5
4A3
330
4A1
100
AcDbEntity
  8
0
100
AcDbBlockEnd
  0
BLOCK
  5
4AE
330
4AD
100
AcDbEntity
  8
0
100
AcDbBlockBegin
  2
*D5
 70
     1
 10
0.0
 20
0.0
 30
0.0
  3
*D5
  1

  0
LINE
  5
5D2
330
4AD
100
AcDbEntity
  8
DIM
 62
     6
370
    -2
100
AcDbLine
 10
801.8795629426913
 20
209.0977738147401
 30
0.0
 11
806.2306776069913
 21
209.0977738147401
 31
0.0
  0
LINE
  5
5D3
330
4AD
100
AcDbEntity
  8
DIM
 62
     6
370
    -2
100
AcDbLine
 10
801.8935099744123
 20
210.75777381474
 30
0.0
 11
806.2306776069913
 21
210.75777381474
 31
0.0
  0
LINE
  5
5D4
330
4AD
100
AcDbEntity
  8
DIM
 62
     1
370
    -2
100
AcDbLine
 10
806.0306776069911
 20
208.2977738147401
 30
0.0
 11
806.0306776069911
 21
207.4977738147401
 31
0.0
  0
LINE
  5
5D5
330
4AD
100
AcDbEntity
  8
DIM
 62
     1
370
    -2
100
AcDbLine
 10
806.0306776069911
 20
211.55777381474
 30
0.0
 11
806.0306776069911
 21
215.7220595290257
 31
0.0
  0
SOLID
  5
5D6
330
4AD
100
AcDbEntity
  8
DIM
 62
     1
100
AcDbTrace
 10
805.8973442736578
 20
208.2977738147401
 30
0.0
 11
806.1640109403246
 21
208.2977738147401
 31
0.0
 12
806.0306776069911
 22
209.0977738147401
 32
0.0
 13
806.0306776069911
 23
209.0977738147401
 33
0.0
  0
SOLID
  5
5D7
330
4AD
100
AcDbEntity
  8
DIM
 62
     1
100
AcDbTrace
 10
805.8973442736578
 20
211.55777381474
 30
0.0
 11
806.1640109403246
 21
211.55777381474
 31
0.0
 12
806.0306776069911
 22
210.75777381474
 32
0.0
 13
806.0306776069911
 23
210.75777381474
 33
0.0
  0
MTEXT
  5
5D8
330
4AD
100
AcDbEntity
  8
DIM
 62
     4
100
AcDbMText
 10
805.3306776069913
 20
214.0399166718829
 30
0.0
 40
1.0
 41
0.0
 46
0.0
 71
     5
 72
     1
  1
\A1;%%C1.66
  7
Romans字体
 11
0.0000000000000001
 21
1.0
 31
0.0
 73
     1
 44
1.0
1001
ACAD
1000
MTEXTBEGIN
1070
    73
1070
     1
1070
    44
1040
1.0
1070
    74
1070
     0
1000
MTEXTEND
  0
POINT
  5
5D9
330
4AD
100
AcDbEntity
  8
Defpoints
 62
     0
100
AcDbPoint
 10
801.6795629426916
 20
209.0977738147401
 30
0.0
  0
POINT
  5
5DA
330
4AD
100
AcDbEntity
  8
Defpoints
 62
     0
100
AcDbPoint
 10
801.6935099744122
 20
210.75777381474
 30
0.0
  0
POINT
  5
5DB
330
4AD
100
AcDbEntity
  8
Defpoints
 62
     0
100
AcDbPoint
 10
806.0306776069911
 20
210.75777381474
 30
0.0
  0
ENDBLK
  5
4AF
330
4AD
100
AcDbEntity
  8
0
100
AcDbBlockEnd
  0
BLOCK
  5
4BB
330
4BA
100
AcDbEntity
  8
0
100
AcDbBlockBegin
  2
*D6
 70
     1
 10
0.0
 20
0.0
 30
0.0
  3
*D6
  1

  0
LINE
  5
5C8
330
4BA
100
AcDbEntity
  8
DIM
 62
     6
370
    -2
100
AcDbLine
 10
801.743509974411
 20
209.4777738147397
 30
0.0
 11
804.2620937907022
 21
209.4777738147397
 31
0.0
  0
LINE
  5
5C9
330
4BA
100
AcDbEntity
  8
DIM
 62
     6
370
    -2
100
AcDbLine
 10
801.743509974411
 20
210.3777738147403
 30
0.0
 11
804.2620937907022
 21
210.3777738147403
 31
0.0
  0
LINE
  5
5CA
330
4BA
100
AcDbEntity
  8
DIM
 62
     1
370
    -2
100
AcDbLine
 10
804.062093790702
 20
208.6777738147397
 30
0.0
 11
804.062093790702
 21
207.8777738147397
 31
0.0
  0
LINE
  5
5CB
330
4BA
100
AcDbEntity
  8
DIM
 62
     1
370
    -2
100
AcDbLine
 10
804.062093790702
 20
211.1777738147403
 30
0.0
 11
804.062093790702
 21
213.4849166718831
 31
0.0
  0
SOLID
  5
5CC
330
4BA
100
AcDbEntity
  8
DIM
 62
     1
100
AcDbTrace
 10
803.9287604573686
 20
208.6777738147397
 30
0.0
 11
804.1954271240355
 21
208.6777738147397
 31
0.0
 12
804.062093790702
 22
209.4777738147397
 32
0.0
 13
804.062093790702
 23
209.4777738147397
 33
0.0
  0
SOLID
  5
5CD
330
4BA
100
AcDbEntity
  8
DIM
 62
     1
100
AcDbTrace
 10
803.9287604573686
 20
211.1777738147403
 30
0.0
 11
804.1954271240355
 21
211.1777738147403
 31
0.0
 12
804.062093790702
 22
210.3777738147403
 32
0.0
 13
804.062093790702
 23
210.3777738147403
 33
0.0
  0
MTEXT
  5
5CE
330
4BA
100
AcDbEntity
  8
DIM
 62
     4
100
AcDbMText
 10
803.3620937907022
 20
212.7313452433118
 30
0.0
 40
1.0
 41
0.0
 46
0.0
 71
     5
 72
     1
  1
\A1;%%Cd
  7
Romans字体
 11
0.0000000000000001
 21
1.0
 31
0.0
 73
     1
 44
1.0
1001
ACAD
1000
MTEXTBEGIN
1070
    73
1070
     1
1070
    44
1040
1.0
1070
    74
1070
     0
1000
MTEXTEND
  0
POINT
  5
5CF
330
4BA
100
AcDbEntity
  8
Defpoints
 62
     0
100
AcDbPoint
 10
801.5435099744106
 20
209.4777738147397
 30
0.0
  0
POINT
  5
5D0
330
4BA
100
AcDbEntity
  8
Defpoints
 62
     0
100
AcDbPoint
 10
801.5435099744106
 20
210.3777738147403
 30
0.0
  0
POINT
  5
5D1
330
4BA
100
AcDbEntity
  8
Defpoints
 62
     0
100
AcDbPoint
 10
804.062093790702
 20
210.3777738147403
 30
0.0
  0
ENDBLK
  5
4BC
330
4BA
100
AcDbEntity
  8
0
100
AcDbBlockEnd
  0
BLOCK
  5
4C8
330
4C7
100
AcDbEntity
  8
0
100
AcDbBlockBegin
  2
*D7
 70
     1
 10
0.0
 20
0.0
 30
0.0
  3
*D7
  1

  0
LINE
  5
5BF
330
4C7
100
AcDbEntity
  8
DIM
 62
     6
370
    -2
100
AcDbLine
 10
797.6935099744125
 20
210.5777738147402
 30
0.0
 11
797.6935099744125
 21
212.9351906243113
 31
0.0
  0
LINE
  5
5C0
330
4C7
100
AcDbEntity
  8
DIM
 62
     6
370
    -2
100
AcDbLine
 10
801.6935099744122
 20
210.95777381474
 30
0.0
 11
801.6935099744122
 21
212.9351906243113
 31
0.0
  0
LINE
  5
5C1
330
4C7
100
AcDbEntity
  8
DIM
 62
     1
370
    -2
100
AcDbLine
 10
798.4935099744124
 20
212.7351906243113
 30
0.0
 11
800.8935099744123
 21
212.7351906243113
 31
0.0
  0
SOLID
  5
5C2
330
4C7
100
AcDbEntity
  8
DIM
 62
     1
100
AcDbTrace
 10
798.4935099744124
 20
212.8685239576447
 30
0.0
 11
798.4935099744124
 21
212.601857290978
 31
0.0
 12
797.6935099744125
 22
212.7351906243113
 32
0.0
 13
797.6935099744125
 23
212.7351906243113
 33
0.0
  0
SOLID
  5
5C3
330
4C7
100
AcDbEntity
  8
DIM
 62
     1
100
AcDbTrace
 10
800.8935099744123
 20
212.8685239576447
 30
0.0
 11
800.8935099744123
 21
212.601857290978
 31
0.0
 12
801.6935099744122
 22
212.7351906243113
 32
0.0
 13
801.6935099744122
 23
212.7351906243113
 33
0.0
  0
MTEXT
  5
5C4
330
4C7
100
AcDbEntity
  8
DIM
 62
     4
100
AcDbMText
 10
799.6935099744121
 20
213.4351906243113
 30
0.0
 40
1.0
 41
0.0
 46
0.0
 71
     5
 72
     1
  1
\A1;4
  7
Romans字体
 73
     1
 44
1.0
1001
ACAD
1000
MTEXTBEGIN
1070
    73
1070
     1
1070
    44
1040
1.0
1070
    74
1070
     0
1000
MTEXTEND
  0
POINT
  5
5C5
330
4C7
100
AcDbEntity
  8
Defpoints
 62
     0
100
AcDbPoint
 10
797.6935099744125
 20
210.3777738147403
 30
0.0
  0
POINT
  5
5C6
330
4C7
100
AcDbEntity
  8
Defpoints
 62
     0
100
AcDbPoint
 10
801.6935099744122
 20
210.75777381474
 30
0.0
  0
POINT
  5
5C7
330
4C7
100
AcDbEntity
  8
Defpoints
 62
     0
100
AcDbPoint
 10
801.6935099744122
 20
212.7351906243113
 30
0.0
  0
ENDBLK
  5
4C9
330
4C7
100
AcDbEntity
  8
0
100
AcDbBlockEnd
  0
ENDSEC
  0
SECTION
  2
ENTITIES
  0
HATCH
  5
16
330
2
100
AcDbEntity
  8
图层 1
 62
     7
100
AcDbHatch
 10
0.0
 20
0.0
 30
0.0
210
0.0
220
0.0
230
1.0
  2
SOLID
 70
     1
 71
     0
 91
        1
 92
        1
 93
        2
 72
     4
 94
        3
 73
     0
 74
     0
 95
       17
 96
       13
 40
0.0
 40
0.0
 40
0.0
 40
0.0
 40
0.3527780104152769
 40
0.3527780104152769
 40
0.3527780104152769
 40
0.7055560208305538
 40
0.7055560208305538
 40
0.7055560208305538
 40
1.058334031245828
 40
1.058334031245828
 40
1.058334031245828
 40
1.411112041661104
 40
1.411112041661104
 40
1.411112041661104
 40
1.411112041661104
 10
11.07013262565829
 20
29.50312817963231
 10
11.07013262565829
 20
29.50312817963231
 10
10.9431807732774
 20
29.50312817963231
 10
10.9431807732774
 20
29.50312817963231
 10
10.9431807732774
 20
29.50312817963231
 10
10.85843136843155
 20
29.22786486877117
 10
10.85843136843155
 20
29.22786486877117
 10
10.85843136843155
 20
29.22786486877117
 10
10.90080607085448
 20
29.2068497724476
 10
10.90080607085448
 20
29.2068497724476
 10
10.94455881238059
 20
29.31571486159919
 10
11.00346998404173
 20
29.40907701083995
 10
11.07013262565829
 20
29.50312817963231
 72
     1
 10
11.07013262565829
 20
29.50312817963231
 11
11.07013262565829
 21
29.50312817963231
 97
        0
 75
     0
 76
     1
 98
        0
450
        0
451
        0
460
0.0
461
0.0
452
        0
462
0.0
453
        0
470

  0
HATCH
  5
1A
330
2
100
AcDbEntity
  8
图层 1
 62
     7
100
AcDbHatch
 10
0.0
 20
0.0
 30
0.0
210
0.0
220
0.0
230
1.0
  2
SOLID
 70
     1
 71
     0
 91
        1
 92
        1
 93
        2
 72
     4
 94
        3
 73
     0
 74
     0
 95
       47
 96
       43
 40
0.0
 40
0.0
 40
0.0
 40
0.0
 40
0.3527780104152769
 40
0.3527780104152769
 40
0.3527780104152769
 40
0.7055560208305538
 40
0.7055560208305538
 40
0.7055560208305538
 40
1.058334031245828
 40
1.058334031245828
 40
1.058334031245828
 40
1.411112041661104
 40
1.411112041661104
 40
1.411112041661104
 40
1.763890052076384
 40
1.763890052076384
 40
1.763890052076384
 40
2.116668062491659
 40
2.116668062491659
 40
2.116668062491659
 40
2.469446072906936
 40
2.469446072906936
 40
2.469446072906936
 40
2.822224083322215
 40
2.822224083322215
 40
2.822224083322215
 40
3.175002093737492
 40
3.175002093737492
 40
3.175002093737492
 40
3.527780104152768
 40
3.527780104152768
 40
3.527780104152768
 40
3.880558114568044
 40
3.880558114568044
 40
3.880558114568044
 40
4.233336124983321
 40
4.233336124983321
 40
4.233336124983321
 40
4.586114135398599
 40
4.586114135398599
 40
4.586114135398599
 40
4.938892145813873
 40
4.938892145813873
 40
4.938892145813873
 40
4.938892145813873
 10
162.8986914070121
 20
257.4895347631509
 10
162.8986914070121
 20
257.4895347631509
 10
162.9200510131114
 20
257.4471600607279
 10
162.9200510131114
 20
257.4471600607279
 10
162.9200510131114
 20
257.4471600607279
 10
162.9200510131114
 20
257.404785358305
 10
162.9200510131114
 20
257.404785358305
 10
162.9200510131114
 20
257.404785358305
 10
162.8986914070121
 20
257.36258291077
 10
162.8986914070121
 20
257.36258291077
 10
162.8986914070121
 20
257.36258291077
 10
162.8986914070121
 20
257.320208208347
 10
162.8986914070121
 20
257.320208208347
 10
162.8986914070121
 20
257.320208208347
 10
162.8563167045891
 20
257.2990208571356
 10
162.8563167045891
 20
257.2990208571356
 10
162.8563167045891
 20
257.2990208571356
 10
162.8139420021662
 20
257.2563016449369
 10
162.8139420021662
 20
257.2563016449369
 10
162.8139420021662
 20
257.2563016449369
 10
162.7295371070961
 20
257.2563016449369
 10
162.7295371070961
 20
257.2563016449369
 10
162.7295371070961
 20
257.2563016449369
 10
162.6658027985738
 20
257.2778335059241
 10
162.6658027985738
 20
257.2778335059241
 10
162.6658027985738
 20
257.2778335059241
 10
162.6237726059267
 20
257.2990208571356
 10
162.6237726059267
 20
257.2990208571356
 10
162.6237726059267
 20
257.2990208571356
 10
162.5813979035038
 20
257.3413955595585
 10
162.5813979035038
 20
257.3413955595585
 10
162.5813979035038
 20
257.3413955595585
 10
162.5813979035038
 20
257.4895347631509
 10
162.5813979035038
 20
257.4895347631509
 10
162.5813979035038
 20
257.4895347631509
 10
162.6447877022503
 20
257.5525800521216
 10
162.6447877022503
 20
257.5525800521216
 10
162.6447877022503
 20
257.5525800521216
 10
162.7081775009967
 20
257.5525800521216
 10
162.7081775009967
 20
257.5525800521216
 10
162.8749202324821
 20
257.5424170137356
 10
162.7918933765152
 20
257.5939212252171
 10
162.8986914070121
 20
257.4895347631509
 72
     1
 10
162.8986914070121
 20
257.4895347631509
 11
162.8986914070121
 21
257.4895347631509
 97
        0
 75
     0
 76
     1
 98
        0
450
        0
451
        0
460
0.0
461
0.0
452
        0
462
0.0
453
        0
470

  0
HATCH
  5
1B
330
2
100
AcDbEntity
  8
图层 1
 62
     7
100
AcDbHatch
 10
0.0
 20
0.0
 30
0.0
210
0.0
220
0.0
230
1.0
  2
SOLID
 70
     1
 71
     0
 91
        1
 92
        1
 93
        2
 72
     4
 94
        3
 73
     0
 74
     0
 95
       56
 96
       52
 40
0.0
 40
0.0
 40
0.0
 40
0.0
 40
0.3527780104152769
 40
0.3527780104152769
 40
0.3527780104152769
 40
0.7055560208305538
 40
0.7055560208305538
 40
0.7055560208305538
 40
1.058334031245828
 40
1.058334031245828
 40
1.058334031245828
 40
1.411112041661104
 40
1.411112041661104
 40
1.411112041661104
 40
1.763890052076384
 40
1.763890052076384
 40
1.763890052076384
 40
2.116668062491659
 40
2.116668062491659
 40
2.116668062491659
 40
2.469446072906936
 40
2.469446072906936
 40
2.469446072906936
 40
2.822224083322215
 40
2.822224083322215
 40
2.822224083322215
 40
3.175002093737492
 40
3.175002093737492
 40
3.175002093737492
 40
3.527780104152768
 40
3.527780104152768
 40
3.527780104152768
 40
3.880558114568044
 40
3.880558114568044
 40
3.880558114568044
 40
4.233336124983321
 40
4.233336124983321
 40
4.233336124983321
 40
4.586114135398599
 40
4.586114135398599
 40
4.586114135398599
 40
4.938892145813873
 40
4.938892145813873
 40
4.938892145813873
 40
5.291670156229153
 40
5.291670156229153
 40
5.291670156229153
 40
5.64444816664443
 40
5.64444816664443
 40
5.64444816664443
 40
5.997226177059705
 40
5.997226177059705
 40
5.997226177059705
 40
5.997226177059705
 10
185.4837187788815
 20
241.4451977396596
 10
185.4837187788815
 20
241.4451977396596
 10
185.4837187788815
 20
241.4028230372367
 10
185.4837187788815
 20
241.4028230372367
 10
185.4837187788815
 20
241.4028230372367
 10
185.5047338752051
 20
241.3604483348137
 10
185.5047338752051
 20
241.3604483348137
 10
185.4520238795082
 20
241.2782827532863
 10
185.4671823096433
 20
241.1897437409066
 10
185.335579575289
 20
241.2119646214456
 10
185.335579575289
 20
241.2119646214456
 10
185.2932048728662
 20
241.2119646214456
 10
185.2932048728662
 20
241.2119646214456
 10
185.2932048728662
 20
241.2119646214456
 10
185.2294705643439
 20
241.2334964824328
 10
185.2294705643439
 20
241.2334964824328
 10
185.2294705643439
 20
241.2334964824328
 10
185.1660807655974
 20
241.2543393238685
 10
185.1660807655974
 20
241.2543393238685
 10
185.1660807655974
 20
241.2543393238685
 10
185.1450656692739
 20
241.2758711848558
 10
185.1450656692739
 20
241.2758711848558
 10
185.1450656692739
 20
241.2758711848558
 10
185.1450656692739
 20
241.2967140262914
 10
185.1450656692739
 20
241.2967140262914
 10
185.1450656692739
 20
241.2967140262914
 10
185.1237060631745
 20
241.3604483348137
 10
185.1237060631745
 20
241.3604483348137
 10
185.1237060631745
 20
241.3604483348137
 10
185.1237060631745
 20
241.4028230372367
 10
185.1237060631745
 20
241.4028230372367
 10
185.1237060631745
 20
241.4028230372367
 10
185.1660807655974
 20
241.4875724420825
 10
185.1660807655974
 20
241.4875724420825
 10
185.1660807655974
 20
241.4875724420825
 10
185.2084554680203
 20
241.5085875384061
 10
185.2084554680203
 20
241.5085875384061
 10
185.2084554680203
 20
241.5085875384061
 10
185.2718452667668
 20
241.5297748896175
 10
185.2718452667668
 20
241.5297748896175
 10
185.2718452667668
 20
241.5297748896175
 10
185.3565946716127
 20
241.5297748896175
 10
185.3565946716127
 20
241.5297748896175
 10
185.3565946716127
 20
241.5297748896175
 10
185.4199844703592
 20
241.5085875384061
 10
185.4199844703592
 20
241.5085875384061
 10
185.4199844703592
 20
241.5085875384061
 10
185.4623591727821
 20
241.4875724420825
 10
185.4623591727821
 20
241.4875724420825
 10
185.4623591727821
 20
241.4875724420825
 10
185.4837187788815
 20
241.4451977396596
 10
185.4837187788815
 20
241.4451977396596
 72
     1
 10
185.4837187788815
 20
241.4451977396596
 11
185.4837187788815
 21
241.4451977396596
 97
        0
 75
     0
 76
     1
 98
        0
450
        0
451
        0
460
0.0
461
0.0
452
        0
462
0.0
453
        0
470

  0
HATCH
  5
1C
330
2
100
AcDbEntity
  8
图层 1
 62
     7
100
AcDbHatch
 10
0.0
 20
0.0
 30
0.0
210
0.0
220
0.0
230
1.0
  2
SOLID
 70
     1
 71
     0
 91
        1
 92
        1
 93
        2
 72
     4
 94
        3
 73
     0
 74
     0
 95
       38
 96
       34
 40
0.0
 40
0.0
 40
0.0
 40
0.0
 40
0.3527780104152769
 40
0.3527780104152769
 40
0.3527780104152769
 40
0.7055560208305538
 40
0.7055560208305538
 40
0.7055560208305538
 40
1.058334031245828
 40
1.058334031245828
 40
1.058334031245828
 40
1.411112041661104
 40
1.411112041661104
 40
1.411112041661104
 40
1.763890052076384
 40
1.763890052076384
 40
1.763890052076384
 40
2.116668062491659
 40
2.116668062491659
 40
2.116668062491659
 40
2.469446072906936
 40
2.469446072906936
 40
2.469446072906936
 40
2.822224083322215
 40
2.822224083322215
 40
2.822224083322215
 40
3.175002093737492
 40
3.175002093737492
 40
3.175002093737492
 40
3.527780104152768
 40
3.527780104152768
 40
3.527780104152768
 40
3.880558114568044
 40
3.880558114568044
 40
3.880558114568044
 40
3.880558114568044
 10
185.907121293335
 20
220.1937677098971
 10
185.9005756075949
 20
220.0449394867532
 10
185.9329595265197
 20
220.1136691870245
 10
185.864746590912
 20
219.9817219428946
 10
185.864746590912
 20
219.9817219428946
 10
185.822371888489
 20
219.9605345916831
 10
185.822371888489
 20
219.9605345916831
 10
185.822371888489
 20
219.9605345916831
 10
185.6528730787974
 20
219.9605345916831
 10
185.6528730787974
 20
219.9605345916831
 10
185.6528730787974
 20
219.9605345916831
 10
185.5894832800509
 20
220.002909294106
 10
185.5894832800509
 20
220.002909294106
 10
185.5894832800509
 20
220.002909294106
 10
185.5681236739515
 20
220.0240966453175
 10
185.5681236739515
 20
220.0240966453175
 10
185.5681236739515
 20
220.0240966453175
 10
185.5681236739515
 20
220.045283996529
 10
185.5681236739515
 20
220.045283996529
 10
185.5681236739515
 20
220.045283996529
 10
185.547108577628
 20
220.0876586989519
 10
185.547108577628
 20
220.0876586989519
 10
185.547108577628
 20
220.0876586989519
 10
185.547108577628
 20
220.1513930074742
 10
185.547108577628
 20
220.1513930074742
 10
185.547108577628
 20
220.1513930074742
 10
185.5894832800509
 20
220.23614241232
 10
185.5894832800509
 20
220.23614241232
 10
185.5894832800509
 20
220.23614241232
 10
185.6318579824738
 20
220.2573297635315
 10
185.6318579824738
 20
220.2573297635315
 10
185.7055830744942
 20
220.2566407439799
 10
185.8416644359337
 20
220.3310548555519
 10
185.907121293335
 20
220.1937677098971
 72
     1
 10
185.907121293335
 20
220.1937677098971
 11
185.907121293335
 21
220.1937677098971
 97
        0
 75
     0
 76
     1
 98
        0
450
        0
451
        0
460
0.0
461
0.0
452
        0
462
0.0
453
        0
470

  0
HATCH
  5
1D
330
2
100
AcDbEntity
  8
图层 1
 62
     7
100
AcDbHatch
 10
0.0
 20
0.0
 30
0.0
210
0.0
220
0.0
230
1.0
  2
SOLID
 70
     1
 71
     0
 91
        1
 92
        1
 93
        2
 72
     4
 94
        3
 73
     0
 74
     0
 95
       50
 96
       46
 40
0.0
 40
0.0
 40
0.0
 40
0.0
 40
0.3527780104152769
 40
0.3527780104152769
 40
0.3527780104152769
 40
0.7055560208305538
 40
0.7055560208305538
 40
0.7055560208305538
 40
1.058334031245828
 40
1.058334031245828
 40
1.058334031245828
 40
1.411112041661104
 40
1.411112041661104
 40
1.411112041661104
 40
1.763890052076384
 40
1.763890052076384
 40
1.763890052076384
 40
2.116668062491659
 40
2.116668062491659
 40
2.116668062491659
 40
2.469446072906936
 40
2.469446072906936
 40
2.469446072906936
 40
2.822224083322215
 40
2.822224083322215
 40
2.822224083322215
 40
3.175002093737492
 40
3.175002093737492
 40
3.175002093737492
 40
3.527780104152768
 40
3.527780104152768
 40
3.527780104152768
 40
3.880558114568044
 40
3.880558114568044
 40
3.880558114568044
 40
4.233336124983321
 40
4.233336124983321
 40
4.233336124983321
 40
4.586114135398599
 40
4.586114135398599
 40
4.586114135398599
 40
4.938892145813873
 40
4.938892145813873
 40
4.938892145813873
 40
5.291670156229153
 40
5.291670156229153
 40
5.291670156229153
 40
5.291670156229153
 10
180.9117295442905
 20
208.9327766684477
 10
180.9117295442905
 20
208.9327766684477
 10
180.9117295442905
 20
208.7637946234197
 10
180.9117295442905
 20
208.7637946234197
 10
181.2273004989198
 20
208.6749111012643
 10
181.3833634273555
 20
208.6776671794706
 10
181.6948002646751
 20
208.5097186637701
 10
181.9542161258496
 20
208.4294478860095
 10
182.1388733656765
 20
208.2134402565853
 10
182.3297317814676
 20
208.02292635057
 10
182.3297317814676
 20
208.02292635057
 10
182.435496282637
 20
208.065301052993
 10
182.435496282637
 20
208.065301052993
 10
182.288390608372
 20
208.2733849575739
 10
182.3752070718726
 20
208.2134402565853
 10
182.1605774815516
 20
208.3824223016133
 10
182.1605774815516
 20
208.3824223016133
 10
182.1182027791287
 20
208.4247970040363
 10
182.1182027791287
 20
208.4247970040363
 10
182.1182027791287
 20
208.4247970040363
 10
182.0968431730294
 20
208.467516216235
 10
182.0968431730294
 20
208.467516216235
 10
182.0968431730294
 20
208.467516216235
 10
182.0544684706064
 20
208.4883590576707
 10
182.0544684706064
 20
208.4883590576707
 10
182.0544684706064
 20
208.4883590576707
 10
181.9910786718599
 20
208.5305615052057
 10
181.9910786718599
 20
208.5305615052057
 10
181.9910786718599
 20
208.5305615052057
 10
181.948703969437
 20
208.552093366193
 10
181.948703969437
 20
208.552093366193
 10
181.948703969437
 20
208.552093366193
 10
181.9063292670141
 20
208.5729362076286
 10
181.9063292670141
 20
208.5729362076286
 10
181.9063292670141
 20
208.5729362076286
 10
181.8639545645911
 20
208.6156554198274
 10
181.8639545645911
 20
208.6156554198274
 10
181.8639545645911
 20
208.6156554198274
 10
181.821924371944
 20
208.6368427710388
 10
181.821924371944
 20
208.6368427710388
 10
181.6637943848536
 20
208.6742220817127
 10
181.5452830219797
 20
208.8092699138248
 10
181.3771622513911
 20
208.8061693258427
 10
181.2803550043924
 20
208.8573290275484
 10
181.0126709085988
 20
208.8971199066528
 10
180.9117295442905
 20
208.9327766684477
 72
     1
 10
180.9117295442905
 20
208.9327766684477
 11
180.9117295442905
 21
208.9327766684477
 97
        0
 75
     0
 76
     1
 98
        0
450
        0
451
        0
460
0.0
461
0.0
452
        0
462
0.0
453
        0
470

  0
HATCH
  5
1E
330
2
100
AcDbEntity
  8
图层 1
 62
     7
100
AcDbHatch
 10
0.0
 20
0.0
 30
0.0
210
0.0
220
0.0
230
1.0
  2
SOLID
 70
     1
 71
     0
 91
        1
 92
        1
 93
        2
 72
     4
 94
        3
 73
     0
 74
     0
 95
       38
 96
       34
 40
0.0
 40
0.0
 40
0.0
 40
0.0
 40
0.3527780104152769
 40
0.3527780104152769
 40
0.3527780104152769
 40
0.7055560208305538
 40
0.7055560208305538
 40
0.7055560208305538
 40
1.058334031245828
 40
1.058334031245828
 40
1.058334031245828
 40
1.411112041661104
 40
1.411112041661104
 40
1.411112041661104
 40
1.763890052076384
 40
1.763890052076384
 40
1.763890052076384
 40
2.116668062491659
 40
2.116668062491659
 40
2.116668062491659
 40
2.469446072906936
 40
2.469446072906936
 40
2.469446072906936
 40
2.822224083322215
 40
2.822224083322215
 40
2.822224083322215
 40
3.175002093737492
 40
3.175002093737492
 40
3.175002093737492
 40
3.527780104152768
 40
3.527780104152768
 40
3.527780104152768
 40
3.880558114568044
 40
3.880558114568044
 40
3.880558114568044
 40
3.880558114568044
 10
189.145513185819
 20
166.8326485368285
 10
189.207869455238
 20
166.740492171803
 10
189.1317327947871
 20
166.6833035490209
 10
189.103138483396
 20
166.6209472796017
 10
189.103138483396
 20
166.6209472796017
 10
189.0607637809731
 20
166.5997599283903
 10
189.0607637809731
 20
166.5997599283903
 10
189.0607637809731
 20
166.5997599283903
 10
188.9973739822266
 20
166.5785725771788
 10
188.9973739822266
 20
166.5785725771788
 10
188.9973739822266
 20
166.5785725771788
 10
188.9549992798037
 20
166.5997599283903
 10
188.9549992798037
 20
166.5997599283903
 10
188.9549992798037
 20
166.5997599283903
 10
188.8916094810572
 20
166.5997599283903
 10
188.8916094810572
 20
166.5997599283903
 10
188.8916094810572
 20
166.5997599283903
 10
188.8492347786343
 20
166.6209472796017
 10
188.8492347786343
 20
166.6209472796017
 10
188.8492347786343
 20
166.6209472796017
 10
188.8278751725349
 20
166.6633219820247
 10
188.8278751725349
 20
166.6633219820247
 10
188.8278751725349
 20
166.6633219820247
 10
188.8068600762114
 20
166.6845093332361
 10
188.8068600762114
 20
166.6845093332361
 10
188.8068600762114
 20
166.6845093332361
 10
188.8068600762114
 20
166.8326485368285
 10
188.8068600762114
 20
166.8326485368285
 10
188.8068600762114
 20
166.8326485368285
 10
188.8702498749578
 20
166.896038335575
 10
188.8702498749578
 20
166.896038335575
 10
189.0228677056355
 20
166.8819134347673
 10
189.0686875058164
 20
166.9411691162043
 10
189.145513185819
 20
166.8326485368285
 72
     1
 10
189.145513185819
 20
166.8326485368285
 11
189.145513185819
 21
166.8326485368285
 97
        0
 75
     0
 76
     1
 98
        0
450
        0
451
        0
460
0.0
461
0.0
452
        0
462
0.0
453
        0
470

  0
HATCH
  5
1F
330
2
100
AcDbEntity
  8
图层 1
 62
     7
100
AcDbHatch
 10
0.0
 20
0.0
 30
0.0
210
0.0
220
0.0
230
1.0
  2
SOLID
 70
     1
 71
     0
 91
        1
 92
        1
 93
        2
 72
     4
 94
        3
 73
     0
 74
     0
 95
       68
 96
       64
 40
0.0
 40
0.0
 40
0.0
 40
0.0
 40
0.3527780104152769
 40
0.3527780104152769
 40
0.3527780104152769
 40
0.7055560208305538
 40
0.7055560208305538
 40
0.7055560208305538
 40
1.058334031245828
 40
1.058334031245828
 40
1.058334031245828
 40
1.411112041661104
 40
1.411112041661104
 40
1.411112041661104
 40
1.763890052076384
 40
1.763890052076384
 40
1.763890052076384
 40
2.116668062491659
 40
2.116668062491659
 40
2.116668062491659
 40
2.469446072906936
 40
2.469446072906936
 40
2.469446072906936
 40
2.822224083322215
 40
2.822224083322215
 40
2.822224083322215
 40
3.175002093737492
 40
3.175002093737492
 40
3.175002093737492
 40
3.527780104152768
 40
3.527780104152768
 40
3.527780104152768
 40
3.880558114568044
 40
3.880558114568044
 40
3.880558114568044
 40
4.233336124983321
 40
4.233336124983321
 40
4.233336124983321
 40
4.586114135398599
 40
4.586114135398599
 40
4.586114135398599
 40
4.938892145813873
 40
4.938892145813873
 40
4.938892145813873
 40
5.291670156229153
 40
5.291670156229153
 40
5.291670156229153
 40
5.64444816664443
 40
5.64444816664443
 40
5.64444816664443
 40
5.997226177059705
 40
5.997226177059705
 40
5.997226177059705
 40
6.350004187474984
 40
6.350004187474984
 40
6.350004187474984
 40
6.702782197890257
 40
6.702782197890257
 40
6.702782197890257
 40
7.055560208305537
 40
7.055560208305537
 40
7.055560208305537
 40
7.408338218720808
 40
7.408338218720808
 40
7.408338218720808
 40
7.408338218720808
 10
174.7732543591544
 20
135.4846705078077
 10
174.7732543591544
 20
135.4846705078077
 10
174.7732543591544
 20
135.3789060066383
 10
174.7732543591544
 20
135.3789060066383
 10
174.7732543591544
 20
135.3789060066383
 10
174.8156290615773
 20
135.3789060066383
 10
174.8156290615773
 20
135.3789060066383
 10
174.8156290615773
 20
135.3789060066383
 10
174.8580037640002
 20
135.3578909103147
 10
174.8580037640002
 20
135.3578909103147
 10
174.8580037640002
 20
135.3578909103147
 10
174.9213935627468
 20
135.3578909103147
 10
174.9213935627468
 20
135.3578909103147
 10
174.9213935627468
 20
135.3578909103147
 10
174.9637682651697
 20
135.3365313042154
 10
174.9637682651697
 20
135.3365313042154
 10
174.9637682651697
 20
135.3365313042154
 10
174.9847833614933
 20
135.3365313042154
 10
174.9847833614933
 20
135.3365313042154
 10
174.9847833614933
 20
135.3365313042154
 10
175.0271580639162
 20
135.3155162078918
 10
175.0271580639162
 20
135.3155162078918
 10
175.0271580639162
 20
135.3155162078918
 10
175.0485176700155
 20
135.2941566017924
 10
175.0485176700155
 20
135.2941566017924
 10
175.0485176700155
 20
135.2941566017924
 10
175.0695327663391
 20
135.2941566017924
 10
175.0695327663391
 20
135.2941566017924
 10
175.0695327663391
 20
135.2941566017924
 10
175.0908923724385
 20
135.2731415054689
 10
175.0908923724385
 20
135.2731415054689
 10
175.0908923724385
 20
135.2731415054689
 10
175.1332670748614
 20
135.2731415054689
 10
175.1332670748614
 20
135.2731415054689
 10
175.1332670748614
 20
135.2731415054689
 10
175.154282171185
 20
135.2517818993695
 10
175.154282171185
 20
135.2517818993695
 10
175.154282171185
 20
135.2517818993695
 10
175.154282171185
 20
135.3578909103147
 10
175.154282171185
 20
135.3578909103147
 10
175.154282171185
 20
135.3578909103147
 10
175.1332670748614
 20
135.3789060066383
 10
175.1332670748614
 20
135.3789060066383
 10
175.1332670748614
 20
135.3789060066383
 10
175.0908923724385
 20
135.3789060066383
 10
175.0908923724385
 20
135.3789060066383
 10
175.0908923724385
 20
135.3789060066383
 10
175.0908923724385
 20
135.3999211029619
 10
175.0908923724385
 20
135.3999211029619
 10
175.0908923724385
 20
135.3999211029619
 10
175.0695327663391
 20
135.3999211029619
 10
175.0695327663391
 20
135.3999211029619
 10
175.0695327663391
 20
135.3999211029619
 10
175.0271580639162
 20
135.4212807090612
 10
175.0271580639162
 20
135.4212807090612
 10
175.0271580639162
 20
135.4212807090612
 10
175.0061429675926
 20
135.4212807090612
 10
175.0061429675926
 20
135.4212807090612
 10
175.0061429675926
 20
135.4212807090612
 10
174.9637682651697
 20
135.4422958053848
 10
174.9637682651697
 20
135.4422958053848
 10
174.8996894468716
 20
135.4498750204523
 10
174.8394002361073
 20
135.4860485469109
 10
174.7732543591544
 20
135.4846705078077
 72
     1
 10
174.7732543591544
 20
135.4846705078077
 11
174.7732543591544
 21
135.4846705078077
 97
        0
 75
     0
 76
     1
 98
        0
450
        0
451
        0
460
0.0
461
0.0
452
        0
462
0.0
453
        0
470

  0
HATCH
  5
20
330
2
100
AcDbEntity
  8
图层 1
 62
     7
100
AcDbHatch
 10
0.0
 20
0.0
 30
0.0
210
0.0
220
0.0
230
1.0
  2
SOLID
 70
     1
 71
     0
 91
        1
 92
        1
 93
        2
 72
     4
 94
        3
 73
     0
 74
     0
 95
       29
 96
       25
 40
0.0
 40
0.0
 40
0.0
 40
0.0
 40
0.3527780104152769
 40
0.3527780104152769
 40
0.3527780104152769
 40
0.7055560208305538
 40
0.7055560208305538
 40
0.7055560208305538
 40
1.058334031245828
 40
1.058334031245828
 40
1.058334031245828
 40
1.411112041661104
 40
1.411112041661104
 40
1.411112041661104
 40
1.763890052076384
 40
1.763890052076384
 40
1.763890052076384
 40
2.116668062491659
 40
2.116668062491659
 40
2.116668062491659
 40
2.469446072906936
 40
2.469446072906936
 40
2.469446072906936
 40
2.822224083322215
 40
2.822224083322215
 40
2.822224083322215
 40
2.822224083322215
 10
175.4929352807925
 20
164.0174869039101
 10
175.4929352807925
 20
164.0174869039101
 10
175.5139503771161
 20
163.9751122014871
 10
175.5139503771161
 20
163.9751122014871
 10
175.5139503771161
 20
163.9751122014871
 10
175.5139503771161
 20
163.9327374990642
 10
175.5139503771161
 20
163.9327374990642
 10
175.5139503771161
 20
163.9327374990642
 10
175.4929352807925
 20
163.8903627966413
 10
175.4929352807925
 20
163.8903627966413
 10
175.4929352807925
 20
163.8903627966413
 10
175.471920184469
 20
163.8691754454298
 10
175.471920184469
 20
163.8691754454298
 10
175.471920184469
 20
163.8691754454298
 10
175.4505605783696
 20
163.8269729978948
 10
175.4505605783696
 20
163.8269729978948
 10
175.3571984291289
 20
163.7715069239916
 10
175.272449024283
 20
163.8195660377152
 10
175.1966568736079
 20
163.8691754454298
 10
175.208370205985
 20
163.9930267098286
 10
175.1563492298397
 20
164.0216210212197
 10
175.2600466723544
 20
164.0596893514451
 10
175.3330827448232
 20
164.1094710140476
 10
175.4357466580104
 20
164.0753645462439
 10
175.4929352807925
 20
164.0174869039101
 72
     1
 10
175.4929352807925
 20
164.0174869039101
 11
175.4929352807925
 21
164.0174869039101
 97
        0
 75
     0
 76
     1
 98
        0
450
        0
451
        0
460
0.0
461
0.0
452
        0
462
0.0
453
        0
470

  0
HATCH
  5
21
330
2
100
AcDbEntity
  8
图层 1
 62
     7
100
AcDbHatch
 10
0.0
 20
0.0
 30
0.0
210
0.0
220
0.0
230
1.0
  2
SOLID
 70
     1
 71
     0
 91
        1
 92
        1
 93
        2
 72
     4
 94
        3
 73
     0
 74
     0
 95
       11
 96
        7
 40
0.0
 40
0.0
 40
0.0
 40
0.0
 40
0.3527780104152769
 40
0.3527780104152769
 40
0.3527780104152769
 40
0.7055560208305538
 40
0.7055560208305538
 40
0.7055560208305538
 40
0.7055560208305538
 10
174.9213935627468
 20
174.5369206529582
 10
174.9213935627468
 20
174.5369206529582
 10
174.9213935627468
 20
174.3043765542958
 10
174.9213935627468
 20
174.3043765542958
 10
174.9213935627468
 20
174.3043765542958
 10
174.9213935627468
 20
174.5369206529582
 10
174.9213935627468
 20
174.5369206529582
 72
     1
 10
174.9213935627468
 20
174.5369206529582
 11
174.9213935627468
 21
174.5369206529582
 97
        0
 75
     0
 76
     1
 98
        0
450
        0
451
        0
460
0.0
461
0.0
452
        0
462
0.0
453
        0
470

  0
HATCH
  5
22
330
2
100
AcDbEntity
  8
图层 1
 62
     7
100
AcDbHatch
 10
0.0
 20
0.0
 30
0.0
210
0.0
220
0.0
230
1.0
  2
SOLID
 70
     1
 71
     0
 91
        1
 92
        1
 93
        2
 72
     4
 94
        3
 73
     0
 74
     0
 95
      131
 96
      127
 40
0.0
 40
0.0
 40
0.0
 40
0.0
 40
0.3527780104152769
 40
0.3527780104152769
 40
0.3527780104152769
 40
0.7055560208305538
 40
0.7055560208305538
 40
0.7055560208305538
 40
1.058334031245828
 40
1.058334031245828
 40
1.058334031245828
 40
1.411112041661104
 40
1.411112041661104
 40
1.411112041661104
 40
1.763890052076384
 40
1.763890052076384
 40
1.763890052076384
 40
2.116668062491659
 40
2.116668062491659
 40
2.116668062491659
 40
2.469446072906936
 40
2.469446072906936
 40
2.469446072906936
 40
2.822224083322215
 40
2.822224083322215
 40
2.822224083322215
 40
3.175002093737492
 40
3.175002093737492
 40
3.175002093737492
 40
3.527780104152768
 40
3.527780104152768
 40
3.527780104152768
 40
3.880558114568044
 40
3.880558114568044
 40
3.880558114568044
 40
4.233336124983321
 40
4.233336124983321
 40
4.233336124983321
 40
4.586114135398599
 40
4.586114135398599
 40
4.586114135398599
 40
4.938892145813873
 40
4.938892145813873
 40
4.938892145813873
 40
5.291670156229153
 40
5.291670156229153
 40
5.291670156229153
 40
5.64444816664443
 40
5.64444816664443
 40
5.64444816664443
 40
5.997226177059705
 40
5.997226177059705
 40
5.997226177059705
 40
6.350004187474984
 40
6.350004187474984
 40
6.350004187474984
 40
6.702782197890257
 40
6.702782197890257
 40
6.702782197890257
 40
7.055560208305537
 40
7.055560208305537
 40
7.055560208305537
 40
7.408338218720808
 40
7.408338218720808
 40
7.408338218720808
 40
7.76111622913609
 40
7.76111622913609
 40
7.76111622913609
 40
8.113894239551369
 40
8.113894239551369
 40
8.113894239551369
 40
8.466672249966642
 40
8.466672249966642
 40
8.466672249966642
 40
8.819450260381922
 40
8.819450260381922
 40
8.819450260381922
 40
9.172228270797198
 40
9.172228270797198
 40
9.172228270797198
 40
9.525006281212476
 40
9.525006281212476
 40
9.525006281212476
 40
9.877784291627751
 40
9.877784291627751
 40
9.877784291627751
 40
10.23056230204303
 40
10.23056230204303
 40
10.23056230204303
 40
10.58334031245831
 40
10.58334031245831
 40
10.58334031245831
 40
10.93611832287358
 40
10.93611832287358
 40
10.93611832287358
 40
11.28889633328886
 40
11.28889633328886
 40
11.28889633328886
 40
11.64167434370414
 40
11.64167434370414
 40
11.64167434370414
 40
11.99445235411941
 40
11.99445235411941
 40
11.99445235411941
 40
12.34723036453469
 40
12.34723036453469
 40
12.34723036453469
 40
12.70000837494997
 40
12.70000837494997
 40
12.70000837494997
 40
13.05278638536524
 40
13.05278638536524
 40
13.05278638536524
 40
13.40556439578052
 40
13.40556439578052
 40
13.40556439578052
 40
13.7583424061958
 40
13.7583424061958
 40
13.7583424061958
 40
14.11112041661107
 40
14.11112041661107
 40
14.11112041661107
 40
14.46389842702635
 40
14.46389842702635
 40
14.46389842702635
 40
14.81667643744163
 40
14.81667643744163
 40
14.81667643744163
 40
14.81667643744163
 10
173.3972823146245
 20
126.8274843518258
 10
173.3972823146245
 20
126.8274843518258
 10
173.3972823146245
 20
126.7217198506564
 10
173.3972823146245
 20
126.7217198506564
 10
173.3972823146245
 20
126.7217198506564
 10
173.4186419207238
 20
126.7217198506564
 10
173.4186419207238
 20
126.7217198506564
 10
173.4186419207238
 20
126.7217198506564
 10
173.4820317194703
 20
126.7007047543328
 10
173.4820317194703
 20
126.7007047543328
 10
173.4820317194703
 20
126.7007047543328
 10
173.5244064218933
 20
126.6793451482334
 10
173.5244064218933
 20
126.6793451482334
 10
173.5244064218933
 20
126.6793451482334
 10
173.5877962206398
 20
126.6793451482334
 10
173.5877962206398
 20
126.6793451482334
 10
173.5877962206398
 20
126.6793451482334
 10
173.6301709230627
 20
126.6583300519099
 10
173.6301709230627
 20
126.6583300519099
 10
173.7955356154449
 20
126.5911506456296
 10
173.759706598762
 20
126.6380039751379
 10
173.9478089363468
 20
126.5525655507404
 10
173.9478089363468
 20
126.5525655507404
 10
173.9688240326703
 20
126.4464565397952
 10
173.9688240326703
 20
126.4464565397952
 10
173.9688240326703
 20
126.4464565397952
 10
174.0325583411926
 20
126.5101908483175
 10
174.0325583411926
 20
126.5101908483175
 10
174.0325583411926
 20
126.5101908483175
 10
174.0749330436156
 20
126.5101908483175
 10
174.0749330436156
 20
126.5101908483175
 10
174.0749330436156
 20
126.5101908483175
 10
174.1593379386856
 20
126.4678161458946
 10
174.1593379386856
 20
126.4678161458946
 10
174.1593379386856
 20
126.4678161458946
 10
174.180697544785
 20
126.4464565397952
 10
174.180697544785
 20
126.4464565397952
 10
174.2464989119621
 20
126.3982251711837
 10
174.3298702777047
 20
126.3716979184474
 10
174.3922265471239
 20
126.3196769423022
 10
174.608234176548
 20
126.2059887162895
 10
174.7749769080334
 20
126.0278771622029
 10
174.9637682651697
 20
125.8749148217494
 10
174.9637682651697
 20
125.8749148217494
 10
175.0061429675926
 20
125.9172895241723
 10
175.0061429675926
 20
125.9172895241723
 10
174.961356696739
 20
125.9631093243532
 10
174.782211613325
 20
126.1246844092016
 10
174.7308796567315
 20
126.1501781326105
 10
174.7308796567315
 20
126.1501781326105
 10
174.6885049543085
 20
126.1925528350335
 10
174.6885049543085
 20
126.1925528350335
 10
174.6885049543085
 20
126.1925528350335
 10
174.667489857985
 20
126.2349275374564
 10
174.667489857985
 20
126.2349275374564
 10
174.667489857985
 20
126.2349275374564
 10
174.625115155562
 20
126.2559426337799
 10
174.625115155562
 20
126.2559426337799
 10
174.625115155562
 20
126.2559426337799
 10
174.5827404531391
 20
126.2983173362029
 10
174.5827404531391
 20
126.2983173362029
 10
174.5827404531391
 20
126.2983173362029
 10
174.5403657507162
 20
126.3196769423022
 10
174.5403657507162
 20
126.3196769423022
 10
174.5403657507162
 20
126.3196769423022
 10
174.4979910482932
 20
126.3620516447252
 10
174.4979910482932
 20
126.3620516447252
 10
174.4735308542117
 20
126.3875453681341
 10
174.3247026310678
 20
126.4695386947736
 10
174.2864620459544
 20
126.4888312422181
 10
174.2864620459544
 20
126.4888312422181
 10
174.2654469496308
 20
126.5101908483175
 10
174.2654469496308
 20
126.5101908483175
 10
174.2654469496308
 20
126.5101908483175
 10
174.2230722472079
 20
126.5312059446411
 10
174.2230722472079
 20
126.5312059446411
 10
174.2230722472079
 20
126.5312059446411
 10
174.2017126411085
 20
126.5525655507404
 10
174.2017126411085
 20
126.5525655507404
 10
174.2017126411085
 20
126.5525655507404
 10
174.1383228423621
 20
126.573580647064
 10
174.1383228423621
 20
126.573580647064
 10
174.1383228423621
 20
126.573580647064
 10
174.1169632362627
 20
126.5945957433876
 10
174.1169632362627
 20
126.5945957433876
 10
174.1169632362627
 20
126.5945957433876
 10
174.0959481399391
 20
126.7007047543328
 10
174.0959481399391
 20
126.7007047543328
 10
174.0959481399391
 20
126.7007047543328
 10
174.0325583411926
 20
126.6369704458105
 10
174.0325583411926
 20
126.6369704458105
 10
174.0325583411926
 20
126.6369704458105
 10
173.9901836387697
 20
126.6369704458105
 10
173.9901836387697
 20
126.6369704458105
 10
173.9901836387697
 20
126.6369704458105
 10
173.9054342339239
 20
126.6793451482334
 10
173.9054342339239
 20
126.6793451482334
 10
173.9054342339239
 20
126.6793451482334
 10
173.8420444351773
 20
126.7007047543328
 10
173.8420444351773
 20
126.7007047543328
 10
173.8420444351773
 20
126.7007047543328
 10
173.7996697327544
 20
126.7217198506564
 10
173.7996697327544
 20
126.7217198506564
 10
173.7996697327544
 20
126.7217198506564
 10
173.7572950303315
 20
126.7217198506564
 10
173.7572950303315
 20
126.7217198506564
 10
173.7572950303315
 20
126.7217198506564
 10
173.6725456254856
 20
126.7640945530793
 10
173.6725456254856
 20
126.7640945530793
 10
173.6725456254856
 20
126.7640945530793
 10
173.6515305291621
 20
126.7640945530793
 10
173.6515305291621
 20
126.7640945530793
 10
173.6515305291621
 20
126.7640945530793
 10
173.5667811243162
 20
126.7851096494029
 10
173.5667811243162
 20
126.7851096494029
 10
173.5667811243162
 20
126.7851096494029
 10
173.5033913255697
 20
126.8064692555022
 10
173.5033913255697
 20
126.8064692555022
 10
173.5033913255697
 20
126.8064692555022
 10
173.4396570170474
 20
126.8064692555022
 10
173.4396570170474
 20
126.8064692555022
 10
173.4396570170474
 20
126.8064692555022
 10
173.4186419207238
 20
126.8274843518258
 10
173.4186419207238
 20
126.8274843518258
 10
173.4186419207238
 20
126.8274843518258
 10
173.3972823146245
 20
126.8274843518258
 10
173.3972823146245
 20
126.8274843518258
 72
     1
 10
173.3972823146245
 20
126.8274843518258
 11
173.3972823146245
 21
126.8274843518258
 97
        0
 75
     0
 76
     1
 98
        0
450
        0
451
        0
460
0.0
461
0.0
452
        0
462
0.0
453
        0
470

  0
HATCH
  5
23
330
2
100
AcDbEntity
  8
图层 1
 62
     7
100
AcDbHatch
 10
0.0
 20
0.0
 30
0.0
210
0.0
220
0.0
230
1.0
  2
SOLID
 70
     1
 71
     0
 91
        1
 92
        1
 93
        2
 72
     4
 94
        3
 73
     0
 74
     0
 95
       47
 96
       43
 40
0.0
 40
0.0
 40
0.0
 40
0.0
 40
0.3527780104152769
 40
0.3527780104152769
 40
0.3527780104152769
 40
0.7055560208305538
 40
0.7055560208305538
 40
0.7055560208305538
 40
1.058334031245828
 40
1.058334031245828
 40
1.058334031245828
 40
1.411112041661104
 40
1.411112041661104
 40
1.411112041661104
 40
1.763890052076384
 40
1.763890052076384
 40
1.763890052076384
 40
2.116668062491659
 40
2.116668062491659
 40
2.116668062491659
 40
2.469446072906936
 40
2.469446072906936
 40
2.469446072906936
 40
2.822224083322215
 40
2.822224083322215
 40
2.822224083322215
 40
3.175002093737492
 40
3.175002093737492
 40
3.175002093737492
 40
3.527780104152768
 40
3.527780104152768
 40
3.527780104152768
 40
3.880558114568044
 40
3.880558114568044
 40
3.880558114568044
 40
4.233336124983321
 40
4.233336124983321
 40
4.233336124983321
 40
4.586114135398599
 40
4.586114135398599
 40
4.586114135398599
 40
4.938892145813873
 40
4.938892145813873
 40
4.938892145813873
 40
4.938892145813873
 10
180.1920486226523
 20
255.6479577566324
 10
180.1920486226523
 20
255.6479577566324
 10
180.2130637189759
 20
255.6055830542095
 10
180.2130637189759
 20
255.6055830542095
 10
180.2130637189759
 20
255.6055830542095
 10
180.2130637189759
 20
255.5210059042515
 10
180.2130637189759
 20
255.5210059042515
 10
180.2130637189759
 20
255.5210059042515
 10
180.1920486226523
 20
255.4786312018286
 10
180.1920486226523
 20
255.4786312018286
 10
180.1920486226523
 20
255.4786312018286
 10
180.1496739202294
 20
255.4359119896299
 10
180.1496739202294
 20
255.4359119896299
 10
180.1496739202294
 20
255.4359119896299
 10
180.1283143141301
 20
255.4147246384184
 10
180.1283143141301
 20
255.4147246384184
 10
180.1283143141301
 20
255.4147246384184
 10
180.0225498129606
 20
255.4147246384184
 10
180.0225498129606
 20
255.4147246384184
 10
180.0225498129606
 20
255.4147246384184
 10
179.9591600142141
 20
255.4359119896299
 10
179.9591600142141
 20
255.4359119896299
 10
179.9591600142141
 20
255.4359119896299
 10
179.9167853117912
 20
255.4570993408414
 10
179.9167853117912
 20
255.4570993408414
 10
179.9167853117912
 20
255.4570993408414
 10
179.8957702154676
 20
255.4786312018286
 10
179.8957702154676
 20
255.4786312018286
 10
179.8957702154676
 20
255.4786312018286
 10
179.8744106093683
 20
255.4994740432643
 10
179.8744106093683
 20
255.4994740432643
 10
179.8744106093683
 20
255.4994740432643
 10
179.8744106093683
 20
255.6479577566324
 10
179.8744106093683
 20
255.6479577566324
 10
179.9608825630931
 20
255.7323626517025
 10
180.045631967939
 20
255.7085914771726
 10
180.1496739202294
 20
255.7115198102668
 10
180.1496739202294
 20
255.7115198102668
 10
180.170689016553
 20
255.6688005980681
 10
180.170689016553
 20
255.6688005980681
 10
180.170689016553
 20
255.6688005980681
 10
180.1920486226523
 20
255.6479577566324
 10
180.1920486226523
 20
255.6479577566324
 72
     1
 10
180.1920486226523
 20
255.6479577566324
 11
180.1920486226523
 21
255.6479577566324
 97
        0
 75
     0
 76
     1
 98
        0
450
        0
451
        0
460
0.0
461
0.0
452
        0
462
0.0
453
        0
470

  0
MTEXT
  5
3E7
330
2
100
AcDbEntity
  8
图框
100
AcDbMText
 10
772.9403048258922
 20
229.3760513635219
 30
0.0
 40
0.6000023545570477
 41
4.555173628074112
 46
1.3522221868162
 71
     5
 72
     5
  1
{\C4;CSSM-0.25}
  7
Romans字体
 73
     1
 44
1.0
1001
ACAD
1000
MTEXTBEGIN
1070
    73
1070
     1
1070
    44
1040
1.0
1070
    74
1070
     0
1000
MTEXTEND
1000
ACAD_MTEXT_DEFINED_HEIGHT_BEGIN
1070
    46
1040
1.3522221868162
1000
ACAD_MTEXT_DEFINED_HEIGHT_END
  0
MTEXT
  5
3E8
330
2
100
AcDbEntity
  8
图框
100
AcDbMText
 10
772.9403048258922
 20
228.023829176706
 30
0.0
 40
0.6000023545570477
 41
4.555173628074157
 46
1.352222186815192
 71
     5
 72
     5
  1
{\C4;CSSM-0.33}
  7
Romans字体
 73
     1
 44
1.0
1001
ACAD
1000
MTEXTBEGIN
1070
    73
1070
     1
1070
    44
1040
1.0
1070
    74
1070
     0
1000
MTEXTEND
1000
ACAD_MTEXT_DEFINED_HEIGHT_BEGIN
1070
    46
1040
1.352222186815192
1000
ACAD_MTEXT_DEFINED_HEIGHT_END
  0
MTEXT
  5
3E9
330
2
100
AcDbEntity
  8
图框
100
AcDbMText
 10
772.9403048253612
 20
226.6716069898909
 30
0.0
 40
0.59999791584616
 41
4.555173627801964
 46
1.352222186815245
 71
     5
 72
     5
  1
{\C4;CSSM-0.52}
  7
Romans字体
 73
     1
 44
1.0
1001
ACAD
1000
MTEXTBEGIN
1070
    73
1070
     1
1070
    44
1040
1.0
1070
    74
1070
     0
1000
MTEXTEND
1000
ACAD_MTEXT_DEFINED_HEIGHT_BEGIN
1070
    46
1040
1.352222186815245
1000
ACAD_MTEXT_DEFINED_HEIGHT_END
  0
MTEXT
  5
3EA
330
2
100
AcDbEntity
  8
图框
100
AcDbMText
 10
778.251308639021
 20
229.3760513635219
 30
0.0
 40
0.6000023545570477
 41
6.066833998183262
 46
1.352222186816343
 71
     5
 72
     5
  1
{\C4;1010141100101}
  7
Romans字体
 73
     1
 44
1.0
1001
ACAD
1000
MTEXTBEGIN
1070
    73
1070
     1
1070
    44
1040
1.0
1070
    74
1070
     0
1000
MTEXTEND
1000
ACAD_MTEXT_DEFINED_HEIGHT_BEGIN
1070
    46
1040
1.352222186816343
1000
ACAD_MTEXT_DEFINED_HEIGHT_END
  0
MTEXT
  5
3EB
330
2
100
AcDbEntity
  8
图框
100
AcDbMText
 10
778.251308639021
 20
228.0238291767052
 30
0.0
 40
0.6000023545570477
 41
6.066833998183262
 46
1.352222186816343
 71
     5
 72
     5
  1
{\C4;1010141100201}
  7
Romans字体
 73
     1
 44
1.0
1001
ACAD
1000
MTEXTBEGIN
1070
    73
1070
     1
1070
    44
1040
1.0
1070
    74
1070
     0
1000
MTEXTEND
1000
ACAD_MTEXT_DEFINED_HEIGHT_BEGIN
1070
    46
1040
1.352222186816343
1000
ACAD_MTEXT_DEFINED_HEIGHT_END
  0
MTEXT
  5
3EC
330
2
100
AcDbEntity
  8
图框
100
AcDbMText
 10
778.251308639021
 20
226.6716069898901
 30
0.0
 40
0.6000023545570477
 41
6.066833998183262
 46
1.352222186816343
 71
     5
 72
     5
  1
{\C4;1010141100501}
  7
Romans字体
 73
     1
 44
1.0
1001
ACAD
1000
MTEXTBEGIN
1070
    73
1070
     1
1070
    44
1040
1.0
1070
    74
1070
     0
1000
MTEXTEND
1000
ACAD_MTEXT_DEFINED_HEIGHT_BEGIN
1070
    46
1040
1.352222186816343
1000
ACAD_MTEXT_DEFINED_HEIGHT_END
  0
LINE
  5
3ED
330
2
100
AcDbEntity
  8
图框
370
    -3
100
AcDbLine
 10
781.284725637445
 20
231.4043846437453
 30
0.0
 11
788.1442915624696
 21
231.4043846437453
 31
0.0
  0
LINE
  5
3EE
330
2
100
AcDbEntity
  8
图框
370
    -3
100
AcDbLine
 10
770.6627180118547
 20
230.0521624569298
 30
0.0
 11
800.3155592811799
 21
230.0521624569307
 31
0.0
  0
LINE
  5
3EF
330
2
100
AcDbEntity
  8
图框
370
    -3
100
AcDbLine
 10
770.6627180118547
 20
228.6999402701141
 30
0.0
 11
800.3155592811799
 21
228.6999402701141
 31
0.0
  0
MTEXT
  5
3F0
330
2
100
AcDbEntity
  8
图框
100
AcDbMText
 10
784.7145676723527
 20
232.0804957371877
 30
0.0
 40
0.6000023545570477
 41
6.859684067146692
 46
1.352222186885061
 71
     5
 72
     5
  1
{\f仿宋_GB2312|b0|i0|c134|p49;\C4;线径\Fromans|c134;/Wire Gauge}
  7
Romans字体
 73
     1
 44
1.0
1001
ACAD
1000
MTEXTBEGIN
1070
    73
1070
     1
1070
    44
1040
1.0
1070
    74
1070
     0
1000
MTEXTEND
1000
ACAD_MTEXT_DEFINED_HEIGHT_BEGIN
1070
    46
1040
1.352222186885061
1000
ACAD_MTEXT_DEFINED_HEIGHT_END
  0
LINE
  5
3F1
330
2
100
AcDbEntity
  8
图框
370
    -3
100
AcDbLine
 10
770.6627180118547
 20
227.3477180832989
 30
0.0
 11
800.3155592811799
 21
227.3477180832987
 31
0.0
  0
MTEXT
  5
3F2
330
2
100
AcDbEntity
  8
图框
100
AcDbMText
 10
786.6693392234711
 20
230.7282385163786
 30
0.0
 40
0.6000023545570477
 41
2.949904677997924
 46
1.352152118895874
 71
     5
 72
     5
  1
{\C4;AWG}
  7
Romans字体
 73
     1
 44
1.0
1001
ACAD
1000
MTEXTBEGIN
1070
    73
1070
     1
1070
    44
1040
1.0
1070
    74
1070
     0
1000
MTEXTEND
1000
ACAD_MTEXT_DEFINED_HEIGHT_BEGIN
1070
    46
1040
1.352152118895874
1000
ACAD_MTEXT_DEFINED_HEIGHT_END
  0
MTEXT
  5
3F3
330
2
100
AcDbEntity
  8
图框
100
AcDbMText
 10
783.2395562612926
 20
230.7282735503379
 30
0.0
 40
0.6000023545570477
 41
3.909661246359366
 46
1.352222186814757
 71
     5
 72
     5
  1
\A1;{\C4;mm\H0.7x;\S2^  ;}
  7
Romans字体
 73
     1
 44
1.0
1001
ACAD
1000
MTEXTBEGIN
1070
    73
1070
     1
1070
    44
1040
1.0
1070
    74
1070
     0
1000
MTEXTEND
1000
ACAD_MTEXT_DEFINED_HEIGHT_BEGIN
1070
    46
1040
1.352222186814757
1000
ACAD_MTEXT_DEFINED_HEIGHT_END
  0
MTEXT
  5
3F4
330
2
100
AcDbEntity
  8
图框
100
AcDbMText
 10
783.2395562616258
 20
229.376051363522
 30
0.0
 40
0.6000023545570477
 41
3.909661247026225
 46
1.3522221868165
 71
     5
 72
     5
  1
{\C4;0.09-0.25}
  7
Romans字体
 73
     1
 44
1.0
1001
ACAD
1000
MTEXTBEGIN
1070
    73
1070
     1
1070
    44
1040
1.0
1070
    74
1070
     0
1000
MTEXTEND
1000
ACAD_MTEXT_DEFINED_HEIGHT_BEGIN
1070
    46
1040
1.3522221868165
1000
ACAD_MTEXT_DEFINED_HEIGHT_END
  0
MTEXT
  5
3F5
330
2
100
AcDbEntity
  8
图框
100
AcDbMText
 10
783.2395562616258
 20
228.0238291767063
 30
0.0
 40
0.6000023545570477
 41
3.909661247026225
 46
1.352222186815229
 71
     5
 72
     5
  1
{\C4;0.13-0.33}
  7
Romans字体
 73
     1
 44
1.0
1001
ACAD
1000
MTEXTBEGIN
1070
    73
1070
     1
1070
    44
1040
1.0
1070
    74
1070
     0
1000
MTEXTEND
1000
ACAD_MTEXT_DEFINED_HEIGHT_BEGIN
1070
    46
1040
1.352222186815229
1000
ACAD_MTEXT_DEFINED_HEIGHT_END
  0
MTEXT
  5
3F6
330
2
100
AcDbEntity
  8
图框
100
AcDbMText
 10
786.6693392238041
 20
229.3760513635223
 30
0.0
 40
0.6000023545570477
 41
2.94990467866485
 46
1.352222186816635
 71
     5
 72
     5
  1
{\C4;28-24}
  7
Romans字体
 73
     1
 44
1.0
1001
ACAD
1000
MTEXTBEGIN
1070
    73
1070
     1
1070
    44
1040
1.0
1070
    74
1070
     0
1000
MTEXTEND
1000
ACAD_MTEXT_DEFINED_HEIGHT_BEGIN
1070
    46
1040
1.352222186816635
1000
ACAD_MTEXT_DEFINED_HEIGHT_END
  0
MTEXT
  5
3F7
330
2
100
AcDbEntity
  8
图框
100
AcDbMText
 10
786.6693392241377
 20
228.0238291767063
 30
0.0
 40
0.6000023545570477
 41
2.949904677998123
 46
1.352222186815164
 71
     5
 72
     5
  1
{\C4;26-22}
  7
Romans字体
 73
     1
 44
1.0
1001
ACAD
1000
MTEXTBEGIN
1070
    73
1070
     1
1070
    44
1040
1.0
1070
    74
1070
     0
1000
MTEXTEND
1000
ACAD_MTEXT_DEFINED_HEIGHT_BEGIN
1070
    46
1040
1.352222186815164
1000
ACAD_MTEXT_DEFINED_HEIGHT_END
  0
MTEXT
  5
3F8
330
2
100
AcDbEntity
  8
图框
100
AcDbMText
 10
778.2513086383541
 20
231.4043446080364
 30
0.0
 40
0.6000023545570477
 41
6.066833998183262
 46
2.704364302212839
 71
     5
 72
     5
  1
{\f仿宋_GB2312|b0|i0|c134|p49;\C4;产品料号\Fromans|c134;\PPart NO.}
  7
Romans字体
 73
     1
 44
1.0
1001
ACAD
1000
MTEXTBEGIN
1070
    73
1070
     1
1070
    44
1040
1.0
1070
    74
1070
     0
1000
MTEXTEND
1000
ACAD_MTEXT_DEFINED_HEIGHT_BEGIN
1070
    46
1040
2.704364302212839
1000
ACAD_MTEXT_DEFINED_HEIGHT_END
  0
MTEXT
  5
3F9
330
2
100
AcDbEntity
  8
图框
100
AcDbMText
 10
789.3607434253349
 20
231.4043446080367
 30
0.0
 40
0.6000023545570477
 41
2.432903725729715
 46
2.704364302212435
 71
     5
 72
     5
  1
{\C4;d}
  7
Romans字体
 73
     1
 44
1.0
1001
ACAD
1000
MTEXTBEGIN
1070
    73
1070
     1
1070
    44
1040
1.0
1070
    74
1070
     0
1000
MTEXTEND
1000
ACAD_MTEXT_DEFINED_HEIGHT_BEGIN
1070
    46
1040
2.704364302212435
1000
ACAD_MTEXT_DEFINED_HEIGHT_END
  0
MTEXT
  5
3FA
330
2
100
AcDbEntity
  8
图框
100
AcDbMText
 10
789.3607434253349
 20
229.3760513635223
 30
0.0
 40
0.6000023545570477
 41
2.43290372572948
 46
1.352222186816667
 71
     5
 72
     5
  1
{\C4;0.64}
  7
Romans字体
 73
     1
 44
1.0
1001
ACAD
1000
MTEXTBEGIN
1070
    73
1070
     1
1070
    44
1040
1.0
1070
    74
1070
     0
1000
MTEXTEND
1000
ACAD_MTEXT_DEFINED_HEIGHT_BEGIN
1070
    46
1040
1.352222186816667
1000
ACAD_MTEXT_DEFINED_HEIGHT_END
  0
MTEXT
  5
3FB
330
2
100
AcDbEntity
  8
图框
100
AcDbMText
 10
789.3607434253349
 20
228.0238291767062
 30
0.0
 40
0.6000023545570477
 41
2.432903725729469
 46
1.352222186815196
 71
     5
 72
     5
  1
{\C4;0.9}
  7
Romans字体
 73
     1
 44
1.0
1001
ACAD
1000
MTEXTBEGIN
1070
    73
1070
     1
1070
    44
1040
1.0
1070
    74
1070
     0
1000
MTEXTEND
1000
ACAD_MTEXT_DEFINED_HEIGHT_BEGIN
1070
    46
1040
1.352222186815196
1000
ACAD_MTEXT_DEFINED_HEIGHT_END
  0
LINE
  5
3FE
330
2
100
AcDbEntity
  8
图框
370
    35
380
     1
100
AcDbLine
 10
790.5771952881991
 20
232.7566068306302
 30
0.0
 11
790.5771952881991
 21
225.9954958964836
 31
0.0
  0
LINE
  5
3FF
330
2
100
AcDbEntity
  8
图框
370
    -3
100
AcDbLine
 10
788.1442915631364
 20
232.7566068306302
 30
0.0
 11
788.144291563137
 21
225.9954958964836
 31
0.0
  0
LINE
  5
400
330
2
100
AcDbEntity
  8
图框
370
    -3
100
AcDbLine
 10
785.194386885139
 20
231.4043946473137
 30
0.0
 11
785.1943868851385
 21
225.9954958964836
 31
0.0
  0
LINE
  5
401
330
2
100
AcDbEntity
  8
图框
370
    -3
100
AcDbLine
 10
775.2178916399294
 20
225.9954958964836
 30
0.0
 11
775.2178916399294
 21
231.4043946473129
 31
0.0
  0
LINE
  5
402
330
2
100
AcDbEntity
  8
图框
370
    -3
100
AcDbLine
 10
781.2847256381126
 20
225.9954958964836
 30
0.0
 11
781.2847256381126
 21
232.75660683063
 31
0.0
  0
MTEXT
  5
403
330
2
100
AcDbEntity
  8
图框
100
AcDbMText
 10
783.2395562619592
 20
226.6716069898911
 30
0.0
 40
0.59999791584616
 41
3.909661246359378
 46
1.352222186815279
 71
     5
 72
     5
  1
{\C4;0.33-0.52}
  7
Romans字体
 73
     1
 44
1.0
1001
ACAD
1000
MTEXTBEGIN
1070
    73
1070
     1
1070
    44
1040
1.0
1070
    74
1070
     0
1000
MTEXTEND
1000
ACAD_MTEXT_DEFINED_HEIGHT_BEGIN
1070
    46
1040
1.352222186815279
1000
ACAD_MTEXT_DEFINED_HEIGHT_END
  0
MTEXT
  5
404
330
2
100
AcDbEntity
  8
图框
100
AcDbMText
 10
786.6693392241377
 20
226.6716069898911
 30
0.0
 40
0.59999791584616
 41
2.949904677998274
 46
1.35222218681521
 71
     5
 72
     5
  1
{\C4;22-20}
  7
Romans字体
 73
     1
 44
1.0
1001
ACAD
1000
MTEXTBEGIN
1070
    73
1070
     1
1070
    44
1040
1.0
1070
    74
1070
     0
1000
MTEXTEND
1000
ACAD_MTEXT_DEFINED_HEIGHT_BEGIN
1070
    46
1040
1.35222218681521
1000
ACAD_MTEXT_DEFINED_HEIGHT_END
  0
MTEXT
  5
405
330
2
100
AcDbEntity
  8
图框
100
AcDbMText
 10
789.3607434256681
 20
226.6716069898911
 30
0.0
 40
0.59999791584616
 41
2.432903725062625
 46
1.352222186815245
 71
     5
 72
     5
  1
{\C4;1.12}
  7
Romans字体
 73
     1
 44
1.0
1001
ACAD
1000
MTEXTBEGIN
1070
    73
1070
     1
1070
    44
1040
1.0
1070
    74
1070
     0
1000
MTEXTEND
1000
ACAD_MTEXT_DEFINED_HEIGHT_BEGIN
1070
    46
1040
1.352222186815245
1000
ACAD_MTEXT_DEFINED_HEIGHT_END
  0
LINE
  5
406
330
2
100
AcDbEntity
  8
图框
370
    -3
100
AcDbLine
 10
788.1442915624699
 20
232.7565267591431
 30
0.0
 11
788.1442915624703
 21
225.9954958964836
 31
0.0
  0
LINE
  5
408
330
2
100
AcDbEntity
  8
图框
370
    -3
100
AcDbLine
 10
775.2178916392622
 20
225.9954958964836
 30
0.0
 11
775.2178916392622
 21
232.7565267591431
 31
0.0
  0
LINE
  5
409
330
2
100
AcDbEntity
  8
图框
370
    -3
100
AcDbLine
 10
781.284725637445
 20
225.9954958964836
 30
0.0
 11
781.284725637445
 21
232.7565267591431
 31
0.0
  0
LINE
  5
40A
330
2
100
AcDbEntity
  8
图框
370
    35
380
     1
100
AcDbLine
 10
796.4058980341533
 20
232.7566068306303
 30
0.0
 11
796.4058980341533
 21
225.9955759679707
 31
0.0
  0
LINE
  5
40B
330
2
100
AcDbEntity
  8
图框
370
    -3
100
AcDbLine
 10
770.6627180118547
 20
225.9954958964836
 30
0.0
 11
800.3155592811799
 21
225.9954958964835
 31
0.0
  0
MTEXT
  5
40C
102
{ACAD_XDICTIONARY
360
B3D
102
}
330
2
100
AcDbEntity
  8
打标文字
 62
     3
100
AcDbMText
 10
823.2373654103154
 20
219.4143675644123
 30
0.0
 40
0.75
 41
21.56370451087032
 46
26.95590277395973
 71
     1
 72
     5
  3
\A1;{\f仿宋_GB2312|b0|i0|c134|p49;技术参数}:\P- {\f仿宋_GB2312|b0|i0|c134|p49;材料}: {\f仿宋_GB2312|b0|i0|c134|p49;铜合金}\P- {\f仿宋_GB2312|b0|i0|c134|p49;表面处理}: {\f仿宋_GB2312|b0|i0|c134|p49;镀银}\P- {\f仿宋_GB2312|b0|i0|c134|p49;额定电流}: 5A\P- {\f仿宋_GB2312|b0|i0|c134|p49;
  3
接触电阻}: ≤3mΩ\P- {\f仿宋_GB2312|b0|i0|c134|p49;线径范围}: 0.13-0.33mm{\H0.7x;\S2^ ;}(26-22 AWG)\P- {\f仿宋_GB2312|b0|i0|c134|p49;可插拔次数}: {\f仿宋_GB2312|b0|i0|c134|p49;≥}500\P\PTechnical specification:\P- Material: copper alloy\P- Surface: hard-silver plated\P- Ra
  1
ted current: 5A\P- Contact resistance: ≤3mΩ\P- Wire gauge: 0.13-0.33mm{\H0.7x;\S2^ ;}(26-22 AWG)\P- Mating cycles: {\f仿宋_GB2312|b0|i0|c134|p49;≥}500
  7
Romans字体
 73
     1
 44
1.0
1001
ACAD
1000
MTEXTBEGIN
1070
    73
1070
     1
1070
    44
1040
1.0
1070
    74
1070
     0
1000
MTEXTEND
1000
ACAD_MTEXT_DEFINED_HEIGHT_BEGIN
1070
    46
1040
26.95590277395973
1000
ACAD_MTEXT_DEFINED_HEIGHT_END
  0
MTEXT
  5
40D
330
2
100
AcDbEntity
  8
图框
100
AcDbMText
 10
772.9403048255589
 20
231.4043896455289
 30
0.0
 40
0.6000023545570477
 41
4.555173627407302
 46
2.704274227227899
 71
     5
 72
     5
  1
{\f仿宋_GB2312|b0|i0|c134|p49;\C4;产品代号\fFangSong_GB2312|b0|i0|c134|p49;\P\Fromans|c134;Part Code}
  7
Romans字体
 73
     1
 44
1.0
1001
ACAD
1000
MTEXTBEGIN
1070
    73
1070
     1
1070
    44
1040
1.0
1070
    74
1070
     0
1000
MTEXTEND
1000
ACAD_MTEXT_DEFINED_HEIGHT_BEGIN
1070
    46
1040
2.704274227227899
1000
ACAD_MTEXT_DEFINED_HEIGHT_END
  0
MTEXT
  5
40E
330
2
100
AcDbEntity
  8
图框
100
AcDbMText
 10
798.3607286573327
 20
232.0805357729313
 30
0.0
 40
0.6000023545570477
 41
3.909661246359441
 46
1.352142115397727
 71
     5
 72
     5
  1
{\f仿宋_GB2312|b0|i0|c134|p49;\C4;重量\Fromans|c134;/Weight}
  7
Romans字体
 73
     1
 44
1.0
1001
ACAD
1000
MTEXTBEGIN
1070
    73
1070
     1
1070
    44
1040
1.0
1070
    74
1070
     0
1000
MTEXTEND
1000
ACAD_MTEXT_DEFINED_HEIGHT_BEGIN
1070
    46
1040
1.352142115397727
1000
ACAD_MTEXT_DEFINED_HEIGHT_END
  0
MTEXT
  5
40F
330
2
100
AcDbEntity
  8
图框
100
AcDbMText
 10
798.3607286573327
 20
230.728353621825
 30
0.0
 40
0.6000023545570477
 41
3.909661246359381
 46
1.352222186814967
 71
     5
 72
     5
  1
{\C4;g}
  7
Romans字体
 73
     1
 44
1.0
1001
ACAD
1000
MTEXTBEGIN
1070
    73
1070
     1
1070
    44
1040
1.0
1070
    74
1070
     0
1000
MTEXTEND
1000
ACAD_MTEXT_DEFINED_HEIGHT_BEGIN
1070
    46
1040
1.352222186814967
1000
ACAD_MTEXT_DEFINED_HEIGHT_END
  0
LINE
  5
410
330
2
100
AcDbEntity
  8
图框
370
    -3
100
AcDbLine
 10
781.2847256381126
 20
232.7565267591431
 30
0.0
 11
781.2847256381126
 21
225.9954958964836
 31
0.0
  0
MTEXT
  5
411
330
2
100
AcDbEntity
  8
图框
100
AcDbMText
 10
793.4915466611762
 20
231.4044246795239
 30
0.0
 40
0.6000023545570477
 41
5.828702745953783
 46
2.704364302212259
 71
     5
 72
     5
  1
{\f仿宋_GB2312|b0|i0|c134|p49;\C4;剥线长度\Fromans|c134;\PStripping Length}
  7
Romans字体
 73
     1
 44
1.0
1001
ACAD
1000
MTEXTBEGIN
1070
    73
1070
     1
1070
    44
1040
1.0
1070
    74
1070
     0
1000
MTEXTEND
1000
ACAD_MTEXT_DEFINED_HEIGHT_BEGIN
1070
    46
1040
2.704364302212259
1000
ACAD_MTEXT_DEFINED_HEIGHT_END
  0
LINE
  5
412
330
2
100
AcDbEntity
  8
图框
370
    35
380
     1
100
AcDbLine
 10
790.5771952881991
 20
232.7566068306302
 30
0.0
 11
790.5771952881991
 21
225.9955759679707
 31
0.0
  0
MTEXT
  5
413
330
2
100
AcDbEntity
  8
图框
100
AcDbMText
 10
793.4915466611762
 20
229.3761314350094
 30
0.0
 40
0.6000023545570477
 41
5.828702745953751
 46
1.35222218681682
 71
     5
 72
     5
  1
{\C4;5}
  7
Romans字体
 73
     1
 44
1.0
1001
ACAD
1000
MTEXTBEGIN
1070
    73
1070
     1
1070
    44
1040
1.0
1070
    74
1070
     0
1000
MTEXTEND
1000
ACAD_MTEXT_DEFINED_HEIGHT_BEGIN
1070
    46
1040
1.35222218681682
1000
ACAD_MTEXT_DEFINED_HEIGHT_END
  0
MTEXT
  5
414
330
2
100
AcDbEntity
  8
图框
100
AcDbMText
 10
798.360728656666
 20
229.3760513635218
 30
0.0
 40
0.6000023545570477
 41
3.90966124635945
 46
1.352222186816528
 71
     5
 72
     5
  1
{\C4;0.19}
  7
Romans字体
 73
     1
 44
1.0
1001
ACAD
1000
MTEXTBEGIN
1070
    73
1070
     1
1070
    44
1040
1.0
1070
    74
1070
     0
1000
MTEXTEND
1000
ACAD_MTEXT_DEFINED_HEIGHT_BEGIN
1070
    46
1040
1.352222186816528
1000
ACAD_MTEXT_DEFINED_HEIGHT_END
  0
MTEXT
  5
415
330
2
100
AcDbEntity
  8
图框
100
AcDbMText
 10
798.360728656666
 20
228.0238291767051
 30
0.0
 40
0.6000023545570477
 41
3.90966124635945
 46
1.352222186816528
 71
     5
 72
     5
  1
{\C4;0.18}
  7
Romans字体
 73
     1
 44
1.0
1001
ACAD
1000
MTEXTBEGIN
1070
    73
1070
     1
1070
    44
1040
1.0
1070
    74
1070
     0
1000
MTEXTEND
1000
ACAD_MTEXT_DEFINED_HEIGHT_BEGIN
1070
    46
1040
1.352222186816528
1000
ACAD_MTEXT_DEFINED_HEIGHT_END
  0
MTEXT
  5
416
330
2
100
AcDbEntity
  8
图框
100
AcDbMText
 10
798.360728656666
 20
226.67160698989
 30
0.0
 40
0.6000023545570477
 41
3.90966124635945
 46
1.352222186816528
 71
     5
 72
     5
  1
{\C4;0.17}
  7
Romans字体
 73
     1
 44
1.0
1001
ACAD
1000
MTEXTBEGIN
1070
    73
1070
     1
1070
    44
1040
1.0
1070
    74
1070
     0
1000
MTEXTEND
1000
ACAD_MTEXT_DEFINED_HEIGHT_BEGIN
1070
    46
1040
1.352222186816528
1000
ACAD_MTEXT_DEFINED_HEIGHT_END
  0
MTEXT
  5
419
330
2
100
AcDbEntity
  8
图框
100
AcDbMText
 10
793.4915466611762
 20
228.0239092481943
 30
0.0
 40
0.6000023545570477
 41
5.828702745953751
 46
1.35222218681682
 71
     5
 72
     5
  1
{\C4;5}
  7
Romans字体
 73
     1
 44
1.0
1001
ACAD
1000
MTEXTBEGIN
1070
    73
1070
     1
1070
    44
1040
1.0
1070
    74
1070
     0
1000
MTEXTEND
1000
ACAD_MTEXT_DEFINED_HEIGHT_BEGIN
1070
    46
1040
1.35222218681682
1000
ACAD_MTEXT_DEFINED_HEIGHT_END
  0
MTEXT
  5
41A
330
2
100
AcDbEntity
  8
图框
100
AcDbMText
 10
793.4915466611762
 20
226.6716870613789
 30
0.0
 40
0.6000023545570477
 41
5.828702745953751
 46
1.35222218681682
 71
     5
 72
     5
  1
{\C4;5}
  7
Romans字体
 73
     1
 44
1.0
1001
ACAD
1000
MTEXTBEGIN
1070
    73
1070
     1
1070
    44
1040
1.0
1070
    74
1070
     0
1000
MTEXTEND
1000
ACAD_MTEXT_DEFINED_HEIGHT_BEGIN
1070
    46
1040
1.35222218681682
1000
ACAD_MTEXT_DEFINED_HEIGHT_END
  0
HATCH
  5
41B
330
2
100
AcDbEntity
  8
hat
100
AcDbHatch
 10
0.0
 20
0.0
 30
0.0
210
0.0
220
0.0
230
1.0
  2
ANSI31
 70
     0
 71
     0
 91
        3
 92
        5
 93
       11
 72
     1
 10
801.6935099744122
 20
210.75777381474
 11
797.5836899744125
 21
210.7577738147403
 72
     1
 10
797.5836899744125
 20
210.7577738147403
 11
797.0435099744126
 21
210.6527738147399
 72
     1
 10
797.0435099744126
 20
210.6527738147399
 11
796.8935099744113
 21
210.6527738147403
 72
     1
 10
796.8935099744113
 20
210.6527738147403
 11
796.8935099744113
 21
210.9827738147408
 72
     1
 10
796.8935099744113
 20
210.9827738147408
 11
796.1616896621193
 21
210.9827738147403
 72
     4
 94
        3
 73
     0
 74
     0
 95
       10
 96
        6
 40
0.2043271184860989
 40
0.2043271184860989
 40
0.2043271184860989
 40
0.2043271184860989
 40
0.7664448258777755
 40
1.177207645214517
 40
1.459767263518128
 40
1.459767263518128
 40
1.459767263518128
 40
1.459767263518128
 10
796.1616896621181
 20
210.9827738147398
 10
796.281881810254
 20
210.7915964868894
 10
796.4105773471173
 20
210.4778028783591
 10
795.9120829130243
 20
210.2160045193893
 10
795.9600121695512
 20
210.0144991058258
 10
796.0031602115359
 20
209.9277738147401
 72
     1
 10
796.003160211535
 20
209.9277738147401
 11
797.4337023530272
 21
209.9277738147405
 72
     1
 10
797.4337023530272
 20
209.9277738147405
 11
797.6935099741632
 21
210.3777738147399
 72
     1
 10
797.6935099741632
 20
210.3777738147399
 11
801.5435099744118
 21
210.3777738147407
 72
     1
 10
801.5435099744118
 20
210.3777738147407
 11
801.6935099744122
 21
210.5277738147409
 72
     1
 10
801.6935099744122
 20
210.5277738147409
 11
801.6935099744122
 21
210.75777381474
 97
        0
 92
        5
 93
       10
 72
     1
 10
797.9935099744115
 20
209.4777738147397
 11
797.6935099741632
 21
209.4777738147397
 72
     1
 10
797.6935099741632
 20
209.4777738147397
 11
797.4337023530272
 21
209.9277738147401
 72
     1
 10
797.4337023530272
 20
209.9277738147401
 11
796.0031602115359
 21
209.9277738147401
 72
     4
 94
        3
 73
     0
 74
     0
 95
        9
 96
        5
 40
1.459767263518128
 40
1.459767263518128
 40
1.459767263518128
 40
1.459767263518128
 40
1.992118931636849
 40
2.649961579725133
 40
2.649961579725133
 40
2.649961579725133
 40
2.649961579725133
 10
796.0031602115359
 20
209.9277738147401
 10
796.0844525499983
 20
209.7643804974112
 10
796.453604538834
 20
209.3625490363632
 10
796.2365609375321
 20
209.0412435390906
 10
796.0501937421995
 20
208.8727738147398
 72
     1
 10
796.0501937421995
 20
208.8727738147398
 11
796.8935099744113
 21
208.8727738147392
 72
     1
 10
796.8935099744113
 20
208.8727738147392
 11
796.8935099744113
 21
209.2027738147402
 72
     1
 10
796.8935099744113
 20
209.2027738147402
 11
797.0435099744133
 21
209.2027738147402
 72
     1
 10
797.0435099744133
 20
209.2027738147402
 11
797.5836899744099
 21
209.0977738147401
 72
     1
 10
797.5836899744099
 20
209.0977738147401
 11
797.9935099744115
 21
209.0977738147401
 72
     1
 10
797.9935099744115
 20
209.0977738147401
 11
797.9935099744115
 21
209.4777738147397
 97
        0
 92
        7
 72
     0
 73
     1
 93
        5
 10
801.6935099744133
 20
209.3277738147396
 10
801.5435099744101
 20
209.4777738147401
 10
798.5935099744112
 20
209.4777738147401
 10
798.5935099744112
 20
209.0977738147405
 10
801.6935099744122
 20
209.0977738147405
 97
        0
 75
     0
 76
     1
 52
0.0
 41
2.0
 77
     0
 78
     1
 53
45.0
 43
-4334.914639478805
 44
3796.326045394901
 45
-0.1767766952966369
 46
0.1767766952966369
 79
     0
 47
0.0087395509262508
 98
        3
 10
799.3742781662295
 20
210.5301841245529
 10
797.4763261694715
 20
209.4115216461234
 10
799.3305467371079
 20
209.2454701380081
1001
ACAD
1010
0.0
1020
0.0
1030
0.0
  0
LINE
  5
41C
330
2
100
AcDbEntity
  8
0
 62
     0
100
AcDbLine
 10
801.6935099744122
 20
209.0977738147401
 30
0.0
 11
801.6935099744122
 21
210.75777381474
 31
0.0
  0
LINE
  5
41D
330
2
100
AcDbEntity
  8
0
 62
     0
100
AcDbLine
 10
794.9935099744117
 20
210.8327738147397
 30
0.0
 11
794.9935099744117
 21
209.0227738147393
 31
0.0
  0
LINE
  5
41E
330
2
100
AcDbEntity
  8
0
 62
     0
100
AcDbLine
 10
796.8935099744113
 20
208.8727738147398
 30
0.0
 11
796.8935099744113
 21
209.2027738147396
 31
0.0
  0
LINE
  5
41F
330
2
100
AcDbEntity
  8
0
 62
     0
100
AcDbLine
 10
796.8935099744113
 20
210.6527738147408
 30
0.0
 11
796.8935099744113
 21
210.9827738147403
 31
0.0
  0
LINE
  5
420
330
2
100
AcDbEntity
  8
0
 62
     0
100
AcDbLine
 10
796.8935099744113
 20
209.2027738147396
 30
0.0
 11
797.0435099744109
 21
209.2027738147396
 31
0.0
  0
LINE
  5
421
330
2
100
AcDbEntity
  8
0
 62
     0
100
AcDbLine
 10
797.0435099744109
 20
210.6527738147403
 30
0.0
 11
796.8935099744113
 21
210.6527738147403
 31
0.0
  0
LINE
  5
422
330
2
100
AcDbEntity
  8
0
 62
     0
100
AcDbLine
 10
797.0435099744109
 20
209.2027738147396
 30
0.0
 11
797.5836899744107
 21
209.0977738147401
 31
0.0
  0
LINE
  5
423
330
2
100
AcDbEntity
  8
0
 62
     0
100
AcDbLine
 10
797.5836899744107
 20
210.75777381474
 30
0.0
 11
797.0435099744109
 21
210.6527738147403
 31
0.0
  0
LINE
  5
424
330
2
100
AcDbEntity
  8
0
 62
     0
100
AcDbLine
 10
797.5836899744107
 20
209.0977738147401
 30
0.0
 11
797.9935099744115
 21
209.0977738147401
 31
0.0
  0
LINE
  5
425
330
2
100
AcDbEntity
  8
0
 62
     0
100
AcDbLine
 10
798.5935099744112
 20
209.0977738147401
 30
0.0
 11
801.6935099744122
 21
209.0977738147401
 31
0.0
  0
LINE
  5
426
330
2
100
AcDbEntity
  8
0
 62
     0
100
AcDbLine
 10
801.6935099744122
 20
210.75777381474
 30
0.0
 11
797.5836899744107
 21
210.75777381474
 31
0.0
  0
ARC
  5
427
330
2
100
AcDbEntity
  8
0
 62
     0
100
AcDbCircle
 10
787.3935099744113
 20
209.9277738147401
 30
0.0
 40
0.5
100
AcDbArc
 50
90.0
 51
180.0
  0
LINE
  5
428
330
2
100
AcDbEntity
  8
CEN
100
AcDbLine
 10
802.144619974411
 20
209.9277738147401
 30
0.0
 11
786.5840945565413
 21
209.9277738147401
 31
0.0
  0
LINE
  5
429
330
2
100
AcDbEntity
  8
0
 62
     0
100
AcDbLine
 10
787.3935099744113
 20
209.42777381474
 30
0.0
 11
794.9935099744117
 21
209.42777381474
 31
0.0
  0
LINE
  5
42A
330
2
100
AcDbEntity
  8
0
 62
     0
100
AcDbLine
 10
794.9935099744117
 20
210.4277738147401
 30
0.0
 11
787.3935099744113
 21
210.4277738147401
 31
0.0
  0
LINE
  5
42B
330
2
100
AcDbEntity
  8
0
 62
     0
100
AcDbLine
 10
795.1435099744113
 20
208.8727738147398
 30
0.0
 11
796.8935099744113
 21
208.8727738147398
 31
0.0
  0
LINE
  5
42C
330
2
100
AcDbEntity
  8
0
 62
     0
100
AcDbLine
 10
796.8935099744113
 20
210.9827738147403
 30
0.0
 11
795.1435099744113
 21
210.9827738147403
 31
0.0
  0
LINE
  5
42D
330
2
100
AcDbEntity
  8
0
 62
     0
100
AcDbLine
 10
795.1435099744113
 20
210.9827738147403
 30
0.0
 11
795.1435099744113
 21
208.8727738147398
 31
0.0
  0
LINE
  5
42E
330
2
100
AcDbEntity
  8
0
 62
     0
100
AcDbLine
 10
794.9935099744117
 20
210.8327738147397
 30
0.0
 11
795.1435099744113
 21
210.9827738147403
 31
0.0
  0
LINE
  5
42F
330
2
100
AcDbEntity
  8
0
 62
     0
100
AcDbLine
 10
795.1435099744113
 20
208.8727738147398
 30
0.0
 11
794.9935099744117
 21
209.0227738147393
 31
0.0
  0
ARC
  5
430
330
2
100
AcDbEntity
  8
0
 62
     0
100
AcDbCircle
 10
787.3935099744113
 20
209.9277738147401
 30
0.0
 40
0.5
100
AcDbArc
 50
180.0
 51
270.0
  0
LINE
  5
431
330
2
100
AcDbEntity
  8
CEN
100
AcDbLine
 10
787.3935099744113
 20
209.268116196962
 30
0.0
 11
787.3935099744113
 21
210.6003107929843
 31
0.0
  0
SPLINE
  5
432
330
2
100
AcDbEntity
  8
DIM
100
AcDbSpline
210
0.0
220
0.0
230
1.0
 70
     8
 71
     3
 72
    11
 73
     7
 74
     5
 42
0.0000000001
 43
0.0000000001
 44
0.0000000001
 40
0.0
 40
0.0
 40
0.0
 40
0.0
 40
0.5257827132565187
 40
0.9365455325933982
 40
1.751456819016042
 40
2.352136063939076
 40
2.352136063939076
 40
2.352136063939076
 40
2.352136063939076
 10
796.1616896621173
 20
210.9827738147403
 30
0.0
 10
796.2514722368439
 20
210.7952876994558
 30
0.0
 10
796.4113966070159
 20
210.461329812926
 30
0.0
 10
795.6877475451299
 20
210.1079379691041
 30
0.0
 10
796.523901807418
 20
209.4715146550014
 30
0.0
 10
796.1925743059926
 20
209.0511483557194
 30
0.0
 10
796.0519817059632
 20
208.8727738147398
 30
0.0
 11
796.1616896621173
 21
210.9827738147403
 31
0.0
 11
796.2586743113005
 21
210.4660132905299
 31
0.0
 11
795.9746307898337
 21
210.1692888869796
 31
0.0
 11
796.2974074953919
 21
209.4210271659969
 31
0.0
 11
796.0519817059632
 21
208.8727738147398
 31
0.0
  0
LINE
  5
433
330
2
100
AcDbEntity
  8
0
 62
     0
100
AcDbLine
 10
801.5435099744106
 20
210.3777738147403
 30
0.0
 11
797.6935099744125
 21
210.3777738147403
 31
0.0
  0
LINE
  5
434
330
2
100
AcDbEntity
  8
0
 62
     0
100
AcDbLine
 10
801.6935099744122
 20
210.52777381474
 30
0.0
 11
801.5435099744106
 21
210.3777738147403
 31
0.0
  0
LINE
  5
435
330
2
100
AcDbEntity
  8
0
 62
     0
100
AcDbLine
 10
797.6935099744125
 20
209.4777738147397
 30
0.0
 11
797.9935099744115
 21
209.4777738147397
 31
0.0
  0
LINE
  5
436
330
2
100
AcDbEntity
  8
0
 62
     0
100
AcDbLine
 10
798.5935099744112
 20
209.4777738147397
 30
0.0
 11
801.5435099744106
 21
209.4777738147397
 31
0.0
  0
LINE
  5
437
330
2
100
AcDbEntity
  8
0
 62
     0
100
AcDbLine
 10
801.5435099744106
 20
209.4777738147397
 30
0.0
 11
801.6935099744122
 21
209.32777381474
 31
0.0
  0
LINE
  5
438
330
2
100
AcDbEntity
  8
0
 62
     0
100
AcDbLine
 10
801.5435099744106
 20
210.3777738147403
 30
0.0
 11
801.5435099744106
 21
209.4777738147397
 31
0.0
  0
LINE
  5
439
330
2
100
AcDbEntity
  8
0
 62
     0
100
AcDbLine
 10
797.6935099744125
 20
210.3777738147403
 30
0.0
 11
797.6935099744125
 21
209.4777738147397
 31
0.0
  0
LINE
  5
43A
330
2
100
AcDbEntity
  8
0
 62
     0
100
AcDbLine
 10
797.9935099744115
 20
209.4777738147397
 30
0.0
 11
797.9935099744115
 21
209.0977738147397
 31
0.0
  0
LINE
  5
43B
330
2
100
AcDbEntity
  8
0
 62
     0
100
AcDbLine
 10
798.5935099744112
 20
209.4777738147397
 30
0.0
 11
798.5935099744112
 21
209.0977738138229
 31
0.0
  0
LINE
  5
43C
330
2
100
AcDbEntity
  8
CEN
 48
2.0
100
AcDbLine
 10
798.293509974411
 20
208.9573338178027
 30
0.0
 11
798.293509974411
 21
209.6267181180041
 31
0.0
  0
SPLINE
  5
43D
330
2
100
AcDbEntity
  8
0
100
AcDbSpline
210
0.0
220
0.0
230
1.0
 70
     8
 71
     3
 72
    14
 73
    10
 74
     0
 42
0.0000000001
 43
0.0000000001
 40
0.0
 40
0.0
 40
0.0
 40
0.0
 40
0.3509206317746202
 40
0.6930831308006296
 40
1.004201159996229
 40
1.265947766527742
 40
1.46372622764885
 40
1.586600448748185
 40
1.608033357262995
 40
1.608033357262995
 40
1.608033357262995
 40
1.608033357262995
 10
798.293509974411
 20
209.1469216808703
 30
0.0
 10
798.3157102624256
 20
209.1469216808703
 30
0.0
 10
798.3595742596545
 20
209.1452768188866
 30
0.0
 10
798.4227667720515
 20
209.1382788348483
 30
0.0
 10
798.4797981367091
 20
209.1281538511587
 30
0.0
 10
798.5272921261653
 20
209.1170657284129
 30
0.0
 10
798.5628135114786
 20
209.107255635655
 30
0.0
 10
798.5835162805352
 20
209.1009465866575
 30
0.0
 10
798.5922182299573
 20
209.0981859945842
 30
0.0
 10
798.5935099744112
 20
209.0977738138229
 30
0.0
  0
SPLINE
  5
43E
330
2
100
AcDbEntity
  8
0
100
AcDbSpline
210
0.0
220
0.0
230
1.0
 70
     8
 71
     3
 72
    13
 73
     9
 74
     0
 42
0.0000000001
 43
0.0000000001
 40
0.0202657874677855
 40
0.0202657874677855
 40
0.0202657874677855
 40
0.0202657874677855
 40
0.0569791226315694
 40
0.2234482909022824
 40
0.4868231516947263
 40
0.8271200037761762
 40
1.218961596530584
 40
1.628215596721354
 40
1.628215596721354
 40
1.628215596721354
 40
1.628215596721354
 10
797.9935099744115
 20
209.0977738147397
 30
0.0
 10
797.9957226583783
 20
209.0984798568391
 30
0.0
 10
798.0079795819594
 20
209.102352068093
 30
0.0
 10
798.0362674118097
 20
209.110789721197
 30
0.0
 10
798.0834429435181
 20
209.1230317667262
 30
0.0
 10
798.145218276196
 20
209.1355108300361
 30
0.0
 10
798.216912173074
 20
209.1447013383769
 30
0.0
 10
798.2676193431617
 20
209.1469216808703
 30
0.0
 10
798.293509974411
 20
209.1469216808703
 30
0.0
  0
SPLINE
  5
43F
330
2
100
AcDbEntity
  8
0
100
AcDbSpline
210
0.0
220
0.0
230
1.0
 70
     8
 71
     3
 72
    14
 73
    10
 74
     0
 42
0.0000000001
 43
0.0000000001
 40
0.0
 40
0.0
 40
0.0
 40
0.0
 40
0.3509206317746202
 40
0.6930831308006296
 40
1.004201159996229
 40
1.265947766527742
 40
1.46372622764885
 40
1.586600448748185
 40
1.608033357262995
 40
1.608033357262995
 40
1.608033357262995
 40
1.608033357262995
 10
798.293509974411
 20
209.526921681788
 30
0.0
 10
798.3157102624256
 20
209.526921681788
 30
0.0
 10
798.3595742596545
 20
209.5252768198044
 30
0.0
 10
798.4227667720515
 20
209.5182788357663
 30
0.0
 10
798.4797981367091
 20
209.5081538520757
 30
0.0
 10
798.5272921261653
 20
209.4970657293309
 30
0.0
 10
798.5628135114786
 20
209.4872556365719
 30
0.0
 10
798.5835162805352
 20
209.4809465875753
 30
0.0
 10
798.5922182299573
 20
209.4781859955021
 30
0.0
 10
798.5935099744112
 20
209.4777738147397
 30
0.0
  0
SPLINE
  5
440
330
2
100
AcDbEntity
  8
0
100
AcDbSpline
210
0.0
220
0.0
230
1.0
 70
     8
 71
     3
 72
    14
 73
    10
 74
     0
 42
0.0000000001
 43
0.0000000001
 40
0.0
 40
0.0
 40
0.0
 40
0.0
 40
0.3509206317746202
 40
0.6930831308006296
 40
1.004201159996229
 40
1.265947766527742
 40
1.46372622764885
 40
1.586600448748185
 40
1.608033357262995
 40
1.608033357262995
 40
1.608033357262995
 40
1.608033357262995
 10
798.293509974411
 20
209.526921681788
 30
0.0
 10
798.2713096863971
 20
209.526921681788
 30
0.0
 10
798.2274456891691
 20
209.5252768198044
 30
0.0
 10
798.1642531767707
 20
209.5182788357663
 30
0.0
 10
798.1072218121135
 20
209.5081538520757
 30
0.0
 10
798.0597278226587
 20
209.4970657293309
 30
0.0
 10
798.0242064373442
 20
209.4872556365719
 30
0.0
 10
798.0035036682874
 20
209.4809465875753
 30
0.0
 10
797.9948017188662
 20
209.4781859955021
 30
0.0
 10
797.9935099744115
 20
209.4777738147397
 30
0.0
  0
LINE
  5
441
330
2
100
AcDbEntity
  8
0
100
AcDbLine
 10
797.6935099744125
 20
209.4777738143094
 30
0.0
 11
797.4337023530287
 21
209.9277738147396
 31
0.0
  0
LINE
  5
442
330
2
100
AcDbEntity
  8
0
100
AcDbLine
 10
797.6935099744125
 20
210.3777738151696
 30
0.0
 11
797.4337023530287
 21
209.9277738147396
 31
0.0
  0
LINE
  5
443
330
2
100
AcDbEntity
  8
0
100
AcDbLine
 10
778.0472137346222
 20
193.7986741151953
 30
0.0
 11
777.5089667149227
 21
192.6656090419452
 31
0.0
  0
LINE
  5
444
330
2
100
AcDbEntity
  8
0
100
AcDbLine
 10
777.4693481791023
 20
192.1207593809562
 30
0.0
 11
776.1680568554687
 21
189.3814079391749
 31
0.0
  0
LINE
  5
445
330
2
100
AcDbEntity
  8
0
100
AcDbLine
 10
777.7731716696518
 20
192.5401021029667
 30
0.0
 11
777.7366130108072
 21
192.4631423831957
 31
0.0
  0
LINE
  5
446
330
2
100
AcDbEntity
  8
0
100
AcDbLine
 10
777.5005159691345
 20
192.1702468090053
 30
0.0
 11
777.4693481791023
 21
192.1207593809562
 31
0.0
  0
LINE
  5
447
330
2
100
AcDbEntity
  8
0
100
AcDbLine
 10
780.9639337843957
 20
198.785046914908
 30
0.0
 11
778.7082500606075
 21
194.0366017771883
 31
0.0
  0
LINE
  5
448
330
2
100
AcDbEntity
  8
0
100
AcDbLine
 10
777.7529041623671
 20
192.4833527427695
 30
0.0
 11
777.5005159691345
 21
192.1702468090053
 31
0.0
  0
LINE
  5
449
330
2
100
AcDbEntity
  8
0
100
AcDbLine
 10
778.9207473464645
 20
191.9285848589159
 30
0.0
 11
778.8374950621567
 21
191.535133231225
 31
0.0
  0
LINE
  5
44A
330
2
100
AcDbEntity
  8
0
100
AcDbLine
 10
778.6007602540396
 20
194.0377205572868
 30
0.0
 11
778.4519401580626
 21
194.0247078730904
 31
0.0
  0
LINE
  5
44B
330
2
100
AcDbEntity
  8
0
100
AcDbLine
 10
779.5899649388675
 20
193.5678124421605
 30
0.0
 11
779.6738988860725
 21
193.4442331417781
 31
0.0
  0
LINE
  5
44C
330
2
100
AcDbEntity
  8
0
100
AcDbLine
 10
781.776872106895
 20
198.3988717165898
 30
0.0
 11
779.5225351016568
 21
193.6532615587914
 31
0.0
  0
LINE
  5
44D
330
2
100
AcDbEntity
  8
0
100
AcDbLine
 10
778.9519322378329
 20
191.9801480650137
 30
0.0
 11
778.9153735783435
 21
191.9031883461058
 31
0.0
  0
LINE
  5
44E
330
2
100
AcDbEntity
  8
0
100
AcDbLine
 10
778.8188257947665
 20
191.4797085516075
 30
0.0
 11
777.5175344712419
 21
188.7403571105799
 31
0.0
  0
LINE
  5
44F
330
2
100
AcDbEntity
  8
0
100
AcDbLine
 10
779.7543842121457
 20
192.9877061985298
 30
0.0
 11
779.2161371925576
 21
191.8546411260344
 31
0.0
  0
SPLINE
  5
450
330
2
100
AcDbEntity
  8
0
100
AcDbSpline
210
0.0
220
0.0
230
1.0
 70
     8
 71
     3
 72
    17
 73
    13
 74
    11
 42
0.0000000001
 43
0.0000000001
 44
0.0000000001
 12
-0.429083553765312
 22
-0.9032648027506279
 32
0.0
 13
-0.3111944095716749
 23
0.9503462734452829
 33
0.0
 40
0.0
 40
0.0
 40
0.0
 40
0.0
 40
0.0579138850603131
 40
0.1210731233997217
 40
0.1889494786380351
 40
0.2599054189365597
 40
0.3308551583284358
 40
0.3984359705368364
 40
0.4593651508589833
 40
0.512293504382824
 40
0.5579586798365554
 40
0.5883334720447745
 40
0.5883334720447745
 40
0.5883334720447745
 40
0.5883334720447745
 10
778.0171697294804
 20
191.7503061834984
 30
0.0
 10
778.0088864309424
 20
191.7328689921766
 30
0.0
 10
777.9850837278058
 20
191.6992473451513
 30
0.0
 10
777.9342663662611
 20
191.6607658093051
 30
0.0
 10
777.87199111209
 20
191.6338839089662
 30
0.0
 10
777.8035056406811
 20
191.6183064791674
 30
0.0
 10
777.7336396493057
 20
191.6130948240064
 30
0.0
 10
777.6670682691651
 20
191.6173491182986
 30
0.0
 10
777.6077109601096
 20
191.6304147057577
 30
0.0
 10
777.5586510862674
 20
191.6520874844037
 30
0.0
 10
777.5254360111945
 20
191.68107486947
 30
0.0
 10
777.5138365430226
 20
191.704167884497
 30
0.0
 10
777.5106857211802
 20
191.7137900746909
 30
0.0
 11
778.0171697294804
 21
191.7503061834984
 31
0.0
 11
777.9841107082361
 21
191.7027549564149
 31
0.0
 11
777.9343368086369
 21
191.6638750347805
 31
0.0
 11
777.8723381245502
 21
191.6362460143134
 31
0.0
 11
777.8032534648448
 21
191.6200578934519
 31
0.0
 11
777.7325070724931
 21
191.6146900736899
 31
0.0
 11
777.665083140556
 21
191.6192922015548
 31
0.0
 11
777.6057327941368
 21
191.6330726730505
 31
0.0
 11
777.5578379634045
 21
191.6556003403925
 31
0.0
 11
777.524377563977
 21
191.6866762139824
 31
0.0
 11
777.5106857211802
 21
191.7137900746909
 31
0.0
  0
SPLINE
  5
451
330
2
100
AcDbEntity
  8
0
100
AcDbSpline
210
0.0
220
0.0
230
1.0
 70
     8
 71
     3
 72
     9
 73
     5
 74
     3
 42
0.0000000001
 43
0.0000000001
 44
0.0000000001
 12
-0.3073810411327341
 22
0.9515865150117232
 32
0.0
 13
-0.5614875645800371
 23
0.827485174986222
 33
0.0
 40
0.0
 40
0.0
 40
0.0
 40
0.0
 40
0.1564496180380755
 40
0.1969834184399734
 40
0.1969834184399734
 40
0.1969834184399734
 40
0.1969834184399734
 10
779.7622223749725
 20
193.2684886049805
 30
0.0
 10
779.7461924928134
 20
193.3181137205817
 30
0.0
 10
779.7170809910221
 20
193.3779170280291
 30
0.0
 10
779.6814991175281
 20
193.4330621482599
 30
0.0
 10
779.6739127092378
 20
193.4442425212327
 30
0.0
 11
779.7622223749725
 21
193.2684886049805
 31
0.0
 11
779.6958686995032
 21
193.4101701942431
 31
0.0
 11
779.6739127092378
 21
193.4442425212327
 31
0.0
  0
SPLINE
  5
452
330
2
100
AcDbEntity
  8
0
100
AcDbSpline
210
0.0
220
0.0
230
1.0
 70
     8
 71
     3
 72
    10
 73
     6
 74
     4
 42
0.0000000001
 43
0.0000000001
 44
0.0000000001
 12
0.3071420796273822
 22
-0.951663671116097
 32
0.0
 13
-0.4290835544543842
 23
-0.9032648024232935
 33
0.0
 40
0.0
 40
0.0
 40
0.0
 40
0.0
 40
0.0241898863390448
 40
0.0823395404018465
 40
0.1386033309758731
 40
0.1386033309758731
 40
0.1386033309758731
 40
0.1386033309758731
 10
778.0245140106353
 20
191.8796478982935
 30
0.0
 10
778.0269905879672
 20
191.8719743529477
 30
0.0
 10
778.0332774742262
 20
191.8450936962245
 30
0.0
 10
778.0316493562891
 20
191.798318968741
 30
0.0
 10
778.0222644539699
 20
191.7607607074914
 30
0.0
 10
778.0142171648877
 20
191.7438203402659
 30
0.0
 11
778.0245140106353
 21
191.8796478982935
 31
0.0
 11
778.0300584516423
 21
191.8561019904746
 31
0.0
 11
778.029550155442
 21
191.7979545580068
 31
0.0
 11
778.0142171648877
 21
191.7438203402659
 31
0.0
  0
LINE
  5
453
330
2
100
AcDbEntity
  8
0
100
AcDbLine
 10
778.0191170627476
 20
191.7552109941795
 30
0.0
 11
778.0084641510318
 21
191.7627668251397
 31
0.0
  0
SPLINE
  5
454
330
2
100
AcDbEntity
  8
0
100
AcDbSpline
210
0.0
220
0.0
230
1.0
 70
     8
 71
     3
 72
    16
 73
    12
 74
    10
 42
0.0000000001
 43
0.0000000001
 44
0.0000000001
 12
-0.8332250824083018
 22
0.5529339581231005
 32
0.0
 13
-0.5522081626158096
 23
-0.8337062703017602
 33
0.0
 40
0.0
 40
0.0
 40
0.0
 40
0.0
 40
0.0601706108081182
 40
0.1175144134278771
 40
0.1741117211602549
 40
0.2276808249111109
 40
0.2773285982679123
 40
0.3246536193330084
 40
0.3716728758014069
 40
0.4189125399133075
 40
0.4343264234730191
 40
0.4343264234730191
 40
0.4343264234730191
 40
0.4343264234730191
 10
778.0084641510318
 20
191.7627668251397
 30
0.0
 10
777.9917522636488
 20
191.7738569498053
 30
0.0
 10
777.9556918072524
 20
191.7909366043314
 30
0.0
 10
777.8972816393016
 20
191.7985741673969
 30
0.0
 10
777.841482391547
 20
191.7895202190448
 30
0.0
 10
777.7920580653062
 20
191.7686501335119
 30
0.0
 10
777.7498940185986
 20
191.7410807453149
 30
0.0
 10
777.7135835429321
 20
191.7095156251158
 30
0.0
 10
777.681509525029
 20
191.6747914268482
 30
0.0
 10
777.6592573534014
 20
191.645722700067
 30
0.0
 10
777.6474887548244
 20
191.6284680277028
 30
0.0
 10
777.644651530718
 20
191.624184477245
 30
0.0
 11
778.0084641510318
 21
191.7627668251397
 31
0.0
 11
777.9539427624447
 21
191.7882211094855
 31
0.0
 11
777.8970994821412
 21
191.7957810819214
 31
0.0
 11
777.8411670941675
 21
191.7871310404122
 31
0.0
 11
777.7916565991746
 21
191.7666771957313
 31
0.0
 11
777.7499529336933
 21
191.7397382706468
 31
0.0
 11
777.7141149424351
 21
191.7088304075471
 31
0.0
 11
777.6821139501308
 21
191.6743812135017
 31
0.0
 11
777.6533364310201
 21
191.6369186954438
 31
0.0
 11
777.644651530718
 21
191.624184477245
 31
0.0
  0
SPLINE
  5
455
330
2
100
AcDbEntity
  8
0
100
AcDbSpline
210
0.0
220
0.0
230
1.0
 70
     8
 71
     3
 72
    10
 73
     6
 74
     4
 42
0.0000000001
 43
0.0000000001
 44
0.0000000001
 12
0.3073810391696783
 22
-0.9515865156458286
 32
0.0
 13
-0.4311002515321979
 23
-0.9023040358597958
 33
0.0
 40
0.0
 40
0.0
 40
0.0
 40
0.0
 40
0.1373943039976609
 40
0.2616011484424669
 40
0.2865711916390709
 40
0.2865711916390709
 40
0.2865711916390709
 40
0.2865711916390709
 10
779.7622223749725
 20
193.2684886049805
 30
0.0
 10
779.7762998429521
 20
193.2249077493103
 30
0.0
 10
779.7930586828324
 20
193.1378134923736
 30
0.0
 10
779.777570330819
 20
193.0409646268406
 30
0.0
 10
779.7579325169026
 20
192.9952354490777
 30
0.0
 10
779.7543443196017
 20
192.9877252588271
 30
0.0
 11
779.7622223749725
 21
193.2684886049805
 31
0.0
 11
779.785380684251
 21
193.1330600722322
 31
0.0
 11
779.7641823726682
 21
193.0106755479124
 31
0.0
 11
779.7543443196017
 21
192.9877252588271
 31
0.0
  0
SPLINE
  5
456
330
2
100
AcDbEntity
  8
0
100
AcDbSpline
210
0.0
220
0.0
230
1.0
 70
     8
 71
     3
 72
    15
 73
    11
 74
     9
 42
0.0000000001
 43
0.0000000001
 44
0.0000000001
 12
0.9961830127623311
 22
0.0872892037067888
 32
0.0
 13
0.5610686412604295
 23
-0.8277692793249672
 33
0.0
 40
0.0
 40
0.0
 40
0.0
 40
0.0
 40
0.0982757467225027
 40
0.2116676333452802
 40
0.3309861738993503
 40
0.4529615455787523
 40
0.5751828775465436
 40
0.6944540111793427
 40
0.8060338589844622
 40
0.8708720761463426
 40
0.8708720761463426
 40
0.8708720761463426
 40
0.8708720761463426
 10
776.5648804060339
 20
189.4518167977627
 30
0.0
 10
776.5975139491843
 20
189.454676268321
 30
0.0
 10
776.6684156131637
 20
189.4545217753973
 30
0.0
 10
776.7778542578413
 20
189.4380882209495
 30
0.0
 10
776.8917699219977
 20
189.4052848510888
 30
0.0
 10
777.003568185159
 20
189.3578253264603
 30
0.0
 10
777.1089544964906
 20
189.2974543092267
 30
0.0
 10
777.2032882185771
 20
189.2265433812688
 30
0.0
 10
777.2734950076105
 20
189.1568150435003
 30
0.0
 10
777.3094348111798
 20
189.1101056738975
 30
0.0
 10
777.3215610413147
 20
189.0922153124666
 30
0.0
 11
776.5648804060339
 21
189.4518167977627
 31
0.0
 11
776.6631549617263
 21
189.4523006338282
 31
0.0
 11
776.7753713690481
 21
189.4360157365412
 31
0.0
 11
776.8901126640358
 21
189.4032842632393
 31
0.0
 11
777.0024201818539
 21
189.355692113279
 31
0.0
 11
777.108401585734
 21
189.2948152209503
 31
0.0
 11
777.2035102010439
 21
189.2228433194061
 31
0.0
 11
777.2822137736628
 21
189.1437496401818
 31
0.0
 11
777.3215610413147
 21
189.0922153124666
 31
0.0
  0
SPLINE
  5
457
330
2
100
AcDbEntity
  8
0
100
AcDbSpline
210
0.0
220
0.0
230
1.0
 70
     8
 71
     3
 72
    10
 73
     6
 74
     4
 42
0.0000000001
 43
0.0000000001
 44
0.0000000001
 12
0.3073810316869094
 22
-0.9515865180629091
 32
0.0
 13
-0.4296156249178726
 23
-0.9030118575226051
 33
0.0
 40
0.0
 40
0.0
 40
0.0
 40
0.0
 40
0.0536131876152578
 40
0.1036847497761978
 40
0.1228737552774642
 40
0.1228737552774642
 40
0.1228737552774642
 40
0.1228737552774642
 10
777.2753003002377
 20
189.1407407759885
 30
0.0
 10
777.2807935258781
 20
189.1237349138135
 30
0.0
 10
777.2877582715489
 20
189.0894083894492
 30
0.0
 10
777.2831419798185
 20
189.0478139616628
 30
0.0
 10
777.2746843576149
 20
189.0262430098512
 30
0.0
 10
777.2719363920848
 20
189.0204670433506
 30
0.0
 11
777.2753003002377
 21
189.1407407759885
 31
0.0
 11
777.2850924955085
 21
189.0880294223913
 31
0.0
 11
777.2789213458342
 21
189.038339602016
 31
0.0
 11
777.2719363920848
 21
189.0204670433506
 31
0.0
  0
SPLINE
  5
458
330
2
100
AcDbEntity
  8
0
100
AcDbSpline
210
0.0
220
0.0
230
1.0
 70
     8
 71
     3
 72
    19
 73
    15
 74
    13
 42
0.0000000001
 43
0.0000000001
 44
0.0000000001
 12
-0.307381039790212
 22
0.9515865154453841
 32
0.0
 13
-0.4290835536297053
 23
-0.9032648028150459
 33
0.0
 40
0.0
 40
0.0
 40
0.0
 40
0.0
 40
0.0977972188124716
 40
0.196585218415994
 40
0.287151123743075
 40
0.369100867869192
 40
0.4471564650900412
 40
0.5249229293854726
 40
0.6076442572520714
 40
0.6948663214560695
 40
0.7852603618094728
 40
0.8796238303771149
 40
0.9715875101160607
 40
1.071749190065443
 40
1.071749190065443
 40
1.071749190065443
 40
1.071749190065443
 10
781.7986168773972
 20
198.7302807835981
 30
0.0
 10
781.7885965404616
 20
198.7613016218214
 30
0.0
 10
781.7615587912132
 20
198.8216615901589
 30
0.0
 10
781.7039235399509
 20
198.8990183179602
 30
0.0
 10
781.6354555609923
 20
198.9590459469613
 30
0.0
 10
781.5629007904299
 20
199.0013428817211
 30
0.0
 10
781.4880691096873
 20
199.0286434947582
 30
0.0
 10
781.4094015055306
 20
199.0426731955506
 30
0.0
 10
781.3263632707942
 20
199.0425032327205
 30
0.0
 10
781.2406265546396
 20
199.025909141779
 30
0.0
 10
781.1561701057942
 20
198.9913106449334
 30
0.0
 10
781.0791801529348
 20
198.9392493364328
 30
0.0
 10
781.0123381988496
 20
198.8701821364561
 30
0.0
 10
780.9782596942525
 20
198.8152044216043
 30
0.0
 10
780.9639337843957
 20
198.785046914908
 30
0.0
 11
781.7986168773972
 21
198.7302807835981
 31
0.0
 11
781.758621364488
 21
198.8195256991652
 31
0.0
 11
781.6996111388282
 21
198.8987523495629
 31
0.0
 11
781.6315129065855
 21
198.9584584126816
 31
0.0
 11
781.5607170615843
 21
198.9997344213659
 31
0.0
 11
781.487389161631
 21
199.0264869043522
 31
0.0
 11
781.4108305205055
 21
199.0401396490595
 31
0.0
 11
781.3281093719514
 21
199.0399674111451
 31
0.0
 11
781.2424766051471
 21
199.0233928000353
 31
0.0
 11
781.1588313381547
 21
198.9891210647248
 31
0.0
 11
781.0806585939984
 21
198.9362676232929
 31
0.0
 11
781.0167132867611
 21
198.8701743855643
 31
0.0
 11
780.9639337843957
 21
198.785046914908
 31
0.0
  0
LINE
  5
459
330
2
100
AcDbEntity
  8
0
100
AcDbLine
 10
777.268331431892
 20
189.1596223433819
 30
0.0
 11
777.2753003002377
 21
189.1407407759885
 31
0.0
  0
SPLINE
  5
45A
330
2
100
AcDbEntity
  8
0
100
AcDbSpline
210
0.0
220
0.0
230
1.0
 70
     8
 71
     3
 72
     9
 73
     5
 74
     3
 42
0.0000000001
 43
0.0000000001
 44
0.0000000001
 12
0.4296444086495095
 22
0.9029981628531773
 32
0.0
 13
0.8206498180383261
 23
0.5714314273416034
 33
0.0
 40
0.0
 40
0.0
 40
0.0
 40
0.0
 40
0.0301825662544541
 40
0.0756303517035838
 40
0.0756303517035838
 40
0.0756303517035838
 40
0.0756303517035838
 10
776.5403010903317
 20
189.3678961407702
 30
0.0
 10
776.5446236806083
 20
189.3769810747295
 30
0.0
 10
776.5580104517466
 20
189.3986094462643
 30
0.0
 10
776.5770230349267
 20
189.415874259373
 30
0.0
 10
776.5894552738797
 20
189.4245310236759
 30
0.0
 11
776.5403010903317
 21
189.3678961407702
 31
0.0
 11
776.5562044622229
 21
189.3935490171819
 31
0.0
 11
776.5894552738797
 21
189.4245310236759
 31
0.0
  0
SPLINE
  5
45B
330
2
100
AcDbEntity
  8
0
100
AcDbSpline
210
0.0
220
0.0
230
1.0
 70
     8
 71
     3
 72
    10
 73
     6
 74
     4
 42
0.0000000001
 43
0.0000000001
 44
0.0000000001
 12
0.8206498228445653
 22
0.5714314204392191
 32
0.0
 13
0.9550920167066527
 23
0.2963093647241326
 33
0.0
 40
0.0
 40
0.0
 40
0.0
 40
0.0
 40
0.0064683536926612
 40
0.0637052833256854
 40
0.0648894837407146
 40
0.0648894837407146
 40
0.0648894837407146
 40
0.0648894837407146
 10
776.5894552738797
 20
189.4245310236759
 30
0.0
 10
776.5912246916504
 20
189.4257630971887
 30
0.0
 10
776.6088708562569
 20
189.4375756783076
 30
0.0
 10
776.6290204491046
 20
189.4464268440569
 30
0.0
 10
776.6476046713102
 20
189.4522376755101
 30
0.0
 10
776.6479816780977
 20
189.4523546387343
 30
0.0
 11
776.5894552738797
 21
189.4245310236759
 31
0.0
 11
776.5948301372451
 21
189.4281296961112
 31
0.0
 11
776.6468514464253
 21
189.4520012169047
 31
0.0
 11
776.6479816780977
 21
189.4523546387343
 31
0.0
  0
SPLINE
  5
45C
330
2
100
AcDbEntity
  8
0
100
AcDbSpline
210
0.0
220
0.0
230
1.0
 70
     8
 71
     3
 72
    10
 73
     6
 74
     4
 42
0.0000000001
 43
0.0000000001
 44
0.0000000001
 12
-0.4308145048760477
 22
-0.9024405035172158
 32
0.0
 13
0.3073810384969669
 23
-0.9515865158631275
 33
0.0
 40
0.0
 40
0.0
 40
0.0
 40
0.0
 40
0.0196606927198918
 40
0.1178432455088614
 40
0.226450171565968
 40
0.226450171565968
 40
0.226450171565968
 40
0.226450171565968
 10
776.1680549485206
 20
189.381322852432
 30
0.0
 10
776.1652315779874
 20
189.3754086506194
 30
0.0
 10
776.1497246340215
 20
189.3392823648368
 30
0.0
 10
776.1374855857415
 20
189.2627516271713
 30
0.0
 10
776.1507330706433
 20
189.1939057617363
 30
0.0
 10
776.1618609738831
 20
189.1594561329479
 30
0.0
 11
776.1680549485206
 21
189.381322852432
 31
0.0
 11
776.1603116426082
 21
189.3632512157664
 31
0.0
 11
776.1435548819559
 21
189.266509163666
 31
0.0
 11
776.1618609738831
 21
189.1594561329479
 31
0.0
  0
SPLINE
  5
45D
330
2
100
AcDbEntity
  8
0
100
AcDbSpline
210
0.0
220
0.0
230
1.0
 70
     8
 71
     3
 72
    11
 73
     7
 74
     5
 42
0.0000000001
 43
0.0000000001
 44
0.0000000001
 12
-0.4308145051555455
 22
-0.9024405033837867
 32
0.0
 13
-0.9893503473730714
 23
-0.145553736306504
 33
0.0
 40
0.0
 40
0.0
 40
0.0
 40
0.0
 40
0.0971931182165104
 40
0.2281435709618183
 40
0.3763925316460213
 40
0.4350422669802436
 40
0.4350422669802436
 40
0.4350422669802436
 40
0.4350422669802436
 10
779.2161396049833
 20
191.8547487666833
 30
0.0
 10
779.2021822032737
 20
191.8255117645071
 30
0.0
 10
779.1584253121912
 20
191.7616061978707
 30
0.0
 10
779.0548150454309
 20
191.6865799103866
 30
0.0
 10
778.947044255903
 20
191.6496618101652
 30
0.0
 10
778.8792144881575
 20
191.6370843953132
 30
0.0
 10
778.8598727761486
 20
191.6342388326095
 30
0.0
 11
779.2161396049833
 21
191.8547487666833
 31
0.0
 11
779.161443393002
 21
191.774406831036
 31
0.0
 11
779.0568916796472
 21
191.6955591277798
 31
0.0
 11
778.9175228736064
 21
191.6450211198382
 31
0.0
 11
778.8598727761486
 21
191.6342388326095
 31
0.0
  0
SPLINE
  5
45E
330
2
100
AcDbEntity
  8
0
100
AcDbSpline
210
0.0
220
0.0
230
1.0
 70
     8
 71
     3
 72
     8
 73
     4
 74
     2
 42
0.0000000001
 43
0.0000000001
 44
0.0000000001
 12
-0.5136318511909762
 22
0.8580106767646489
 32
0.0
 13
-0.3073810414047178
 23
0.951586514923867
 33
0.0
 40
0.0
 40
0.0
 40
0.0
 40
0.0
 40
0.1494185584559072
 40
0.1494185584559072
 40
0.1494185584559072
 40
0.1494185584559072
 10
777.5638230414362
 20
192.2491973381329
 30
0.0
 10
777.5382409978423
 20
192.2919315776202
 30
0.0
 10
777.5164380288234
 20
192.3374317412563
 30
0.0
 10
777.5011285514557
 20
192.3848266363583
 30
0.0
 11
777.5638230414362
 21
192.2491973381329
 31
0.0
 11
777.5011285514557
 21
192.3848266363583
 31
0.0
  0
SPLINE
  5
45F
330
2
100
AcDbEntity
  8
0
100
AcDbSpline
210
0.0
220
0.0
230
1.0
 70
     8
 71
     3
 72
    10
 73
     6
 74
     4
 42
0.0000000001
 43
0.0000000001
 44
0.0000000001
 12
-0.4308145049413584
 22
-0.9024405034860372
 32
0.0
 13
0.3073810407004566
 23
-0.9515865151513573
 33
0.0
 40
0.0
 40
0.0
 40
0.0
 40
0.0
 40
0.0248719595200727
 40
0.1490788039661973
 40
0.2864731077294787
 40
0.2864731077294787
 40
0.2864731077294787
 40
0.2864731077294787
 10
777.5089643025011
 20
192.6655014012972
 30
0.0
 10
777.5053925688585
 20
192.6580195800731
 30
0.0
 10
777.4857753506932
 20
192.6123176524362
 30
0.0
 10
777.4702922179558
 20
192.515501659285
 30
0.0
 10
777.4870510834301
 20
192.4284074919315
 30
0.0
 10
777.5011285514557
 20
192.3848266363583
 30
0.0
 11
777.5089643025011
 21
192.6655014012972
 31
0.0
 11
777.4991685545129
 21
192.6426396933181
 31
0.0
 11
777.4779702429285
 21
192.5202551689973
 31
0.0
 11
777.5011285514557
 21
192.3848266363583
 31
0.0
  0
SPLINE
  5
460
330
2
100
AcDbEntity
  8
0
100
AcDbSpline
210
0.0
220
0.0
230
1.0
 70
     8
 71
     3
 72
    15
 73
    11
 74
     9
 42
0.0000000001
 43
0.0000000001
 44
0.0000000001
 12
-0.5613691070817453
 22
0.8275655415822024
 32
0.0
 13
-0.9962307528410661
 23
-0.0867426486436906
 33
0.0
 40
0.0
 40
0.0
 40
0.0
 40
0.0
 40
0.1102018817272926
 40
0.2669263196104798
 40
0.4334424225629258
 40
0.6044969485077939
 40
0.7743652041768465
 40
0.9374432085820544
 40
1.088853447293843
 40
1.138279425697408
 40
1.138279425697408
 40
1.138279425697408
 40
1.138279425697408
 10
779.5900328815186
 20
193.5677363838464
 30
0.0
 10
779.5694115708705
 20
193.5981361438247
 30
0.0
 10
779.5136762039726
 20
193.6679077734158
 30
0.0
 10
779.4076490713373
 20
193.7668741940094
 30
0.0
 10
779.2721997900512
 20
193.861546663357
 30
0.0
 10
779.121820926683
 20
193.9399739299924
 30
0.0
 10
778.9637812776218
 20
193.9983487345553
 30
0.0
 10
778.8057812091867
 20
194.0338505065932
 30
0.0
 10
778.6841705917591
 20
194.0426433676728
 30
0.0
 10
778.6172677035692
 20
194.0391713526868
 30
0.0
 10
778.600854477011
 20
194.0377422392606
 30
0.0
 11
779.5900328815186
 21
193.5677363838464
 31
0.0
 11
779.5217609565793
 21
193.6542430252176
 31
0.0
 11
779.4078095489906
 21
193.7618424031821
 31
0.0
 11
779.2716098034246
 21
193.8576403251337
 31
0.0
 11
779.1199913420503
 21
193.9368330837464
 31
0.0
 11
778.9605569494963
 21
193.9954496236903
 31
0.0
 11
778.8013013301068
 21
194.0305506666045
 31
0.0
 11
778.6502102276312
 21
194.0403760999001
 31
0.0
 11
778.600854477011
 21
194.0377422392606
 31
0.0
  0
SPLINE
  5
461
330
2
100
AcDbEntity
  8
0
100
AcDbSpline
210
0.0
220
0.0
230
1.0
 70
     8
 71
     3
 72
     9
 73
     5
 74
     3
 42
0.0000000001
 43
0.0000000001
 44
0.0000000001
 12
-0.2060140497550428
 22
-0.9785490336735952
 32
0.0
 13
-0.431100253869288
 23
-0.9023040347431876
 33
0.0
 40
0.0
 40
0.0
 40
0.0
 40
0.0
 40
0.0388335432254962
 40
0.0585717680376236
 40
0.0585717680376236
 40
0.0585717680376236
 40
0.0585717680376236
 10
778.8374638004648
 20
191.5351398124845
 30
0.0
 10
778.8347970486293
 20
191.5224729704187
 30
0.0
 10
778.8293403553796
 20
191.5036177650064
 30
0.0
 10
778.8216306453286
 20
191.4856602444198
 30
0.0
 10
778.8187942607527
 20
191.4797236177909
 30
0.0
 11
778.8374638004648
 21
191.5351398124845
 31
0.0
 11
778.8265710076244
 21
191.4978652750148
 31
0.0
 11
778.8187942607527
 21
191.4797236177909
 31
0.0
  0
SPLINE
  5
462
330
2
100
AcDbEntity
  8
0
100
AcDbSpline
210
0.0
220
0.0
230
1.0
 70
     8
 71
     3
 72
    11
 73
     7
 74
     5
 42
0.0000000001
 43
0.0000000001
 44
0.0000000001
 12
-0.9962189567187254
 22
-0.0868780195115807
 32
0.0
 13
-0.4311002512570836
 23
-0.9023040359912391
 33
0.0
 40
0.0
 40
0.0
 40
0.0
 40
0.0
 40
0.1073751679290253
 40
0.2556241286135888
 40
0.3865745813567325
 40
0.4836706701314919
 40
0.4836706701314919
 40
0.4836706701314919
 40
0.4836706701314919
 10
778.4519387175962
 20
194.0247243882351
 30
0.0
 10
778.4162823250056
 20
194.0216148742569
 30
0.0
 10
778.3317869997838
 20
194.0089671738759
 30
0.0
 10
778.2085528058389
 20
193.9667383308091
 30
0.0
 10
778.1049487733633
 20
193.8917274302468
 30
0.0
 10
778.0612063433642
 20
193.8278584532449
 30
0.0
 10
778.0472536272752
 20
193.7986550556514
 30
0.0
 11
778.4519387175962
 21
194.0247243882351
 31
0.0
 11
778.3458280535742
 21
194.0082941213903
 31
0.0
 11
778.2064592475326
 21
193.9577561134498
 31
0.0
 11
778.1019075341799
 21
193.8789084101945
 31
0.0
 11
778.0472536272752
 21
193.7986550556514
 31
0.0
  0
SPLINE
  5
463
330
2
100
AcDbEntity
  8
0
100
AcDbSpline
210
0.0
220
0.0
230
1.0
 70
     8
 71
     3
 72
    19
 73
    15
 74
    13
 42
0.0000000001
 43
0.0000000001
 44
0.0000000001
 12
-0.4308145042823714
 22
-0.90244050380063
 32
0.0
 13
-0.3073810398524297
 23
0.9515865154252866
 33
0.0
 40
0.0
 40
0.0
 40
0.0
 40
0.0
 40
0.0768288459971744
 40
0.1803420602085372
 40
0.2975293342237559
 40
0.4306085718644827
 40
0.5784562173383855
 40
0.7376970917630197
 40
0.9035684475167247
 40
1.070598160980834
 40
1.233196238251723
 40
1.386233042302261
 40
1.525671332884567
 40
1.649341030985048
 40
1.649341030985048
 40
1.649341030985048
 40
1.649341030985048
 10
777.517536378192
 20
188.7404421973237
 30
0.0
 10
777.5065033844577
 20
188.717331043161
 30
0.0
 10
777.4719181947284
 20
188.6668158237211
 30
0.0
 10
777.3899948524637
 20
188.6075056205116
 30
0.0
 10
777.2772423553698
 20
188.568863664329
 30
0.0
 10
777.1444087235258
 20
188.5548208818256
 30
0.0
 10
776.9974396919566
 20
188.5654634903236
 30
0.0
 10
776.8431201822679
 20
188.6001277963474
 30
0.0
 10
776.6888098312964
 20
188.657129433523
 30
0.0
 10
776.5419659492468
 20
188.7337121966815
 30
0.0
 10
776.4097061082275
 20
188.8261535032734
 30
0.0
 10
776.2983819372707
 20
188.9300710868797
 30
0.0
 10
776.2133273085455
 20
189.0404870656615
 30
0.0
 10
776.1745322140166
 20
189.1202286605882
 30
0.0
 10
776.1618609738831
 20
189.1594561329479
 30
0.0
 11
777.517536378192
 21
188.7404421973237
 31
0.0
 11
777.474300324122
 21
188.6769338104309
 31
0.0
 11
777.3916546847173
 21
188.6146065787922
 31
0.0
 11
777.2814869617135
 21
188.5746574861957
 31
0.0
 11
777.1493214252966
 21
188.5590897479312
 31
0.0
 11
777.0017854069252
 21
188.5686839938782
 31
0.0
 11
776.8462769792082
 21
188.6029591305885
 31
0.0
 11
776.6905939837506
 21
188.6601964574384
 31
0.0
 11
776.5425430159288
 21
188.7375258574549
 31
0.0
 11
776.4095479698307
 21
188.8310697105163
 31
0.0
 11
776.2982777715563
 21
188.9361373381185
 31
0.0
 11
776.2143119743925
 21
189.0474602099247
 31
0.0
 11
776.1618609738831
 21
189.1594561329479
 31
0.0
  0
SPLINE
  5
464
330
2
100
AcDbEntity
  8
0
100
AcDbSpline
210
0.0
220
0.0
230
1.0
 70
     8
 71
     3
 72
    10
 73
     6
 74
     4
 42
0.0000000001
 43
0.0000000001
 44
0.0000000001
 12
0.429083553540493
 22
0.903264802857425
 32
0.0
 13
-0.3073810387305141
 23
0.9515865157876872
 33
0.0
 40
0.0
 40
0.0
 40
0.0
 40
0.0
 40
0.1119961651989366
 40
0.2252757920586959
 40
0.3392635874652123
 40
0.3392635874652123
 40
0.3392635874652123
 40
0.3392635874652123
 10
781.776872106895
 20
198.3988717165898
 30
0.0
 10
781.7928906777438
 20
198.4325924479495
 30
0.0
 10
781.816722670253
 20
198.5047852537808
 30
0.0
 10
781.8244552815573
 20
198.618708819423
 30
0.0
 10
781.8102961063822
 20
198.6941243672403
 30
0.0
 10
781.7986168773972
 20
198.7302807835981
 30
0.0
 11
781.776872106895
 21
198.3988717165898
 31
0.0
 11
781.8119656456148
 21
198.5052276499428
 31
0.0
 11
781.8196344413721
 21
198.6182473979213
 31
0.0
 11
781.7986168773972
 21
198.7302807835981
 31
0.0
  0
SPLINE
  5
465
330
2
100
AcDbEntity
  8
0
100
AcDbSpline
210
0.0
220
0.0
230
1.0
 70
     8
 71
     3
 72
    17
 73
    13
 74
    11
 42
0.0000000001
 43
0.0000000001
 44
0.0000000001
 12
0.4290835531558736
 22
0.9032648030401333
 32
0.0
 13
0.3071420783226583
 23
-0.9516636715371864
 33
0.0
 40
0.0
 40
0.0
 40
0.0
 40
0.0
 40
0.0608730191027699
 40
0.1296599384059059
 40
0.2016305499490679
 40
0.2732906720894977
 40
0.3424210178987328
 40
0.4085217886462874
 40
0.47183731350688
 40
0.5339020229611235
 40
0.5953567040261789
 40
0.6385626998601631
 40
0.6385626998601631
 40
0.6385626998601631
 40
0.6385626998601631
 10
777.5249277858569
 20
191.8215642133448
 30
0.0
 10
777.5336343229662
 20
191.8398923652149
 30
0.0
 10
777.5566338455464
 20
191.876860002414
 30
0.0
 10
777.6016601965452
 20
191.9271513451538
 30
0.0
 10
777.657466788479
 20
191.9713502784077
 30
0.0
 10
777.7207869738271
 20
192.00436824212
 30
0.0
 10
777.7880791062084
 20
192.0222447758036
 30
0.0
 10
777.8550998600486
 20
192.0223540102036
 30
0.0
 10
777.9172347126489
 20
192.0040982082898
 30
0.0
 10
777.9699186626088
 20
191.9691581613045
 30
0.0
 10
778.0056100396268
 20
191.925429748171
 30
0.0
 10
778.0200905508498
 20
191.8933537571694
 30
0.0
 10
778.0245140106353
 20
191.8796478982935
 30
0.0
 11
777.5249277858569
 21
191.8215642133448
 31
0.0
 11
777.5565426102713
 21
191.8735837032686
 31
0.0
 11
777.602274027906
 21
191.9249673359578
 31
0.0
 11
777.6588066247105
 21
191.969507592181
 31
0.0
 11
777.7225480742472
 21
192.0022520682975
 31
0.0
 11
777.7894992711763
 21
192.0194724614833
 31
0.0
 11
777.8555990922169
 21
192.0191181285711
 31
0.0
 11
777.9162812442335
 21
192.0010479289318
 31
0.0
 11
777.9679729125156
 21
191.966696806827
 31
0.0
 11
778.0067843743799
 21
191.9190486352696
 31
0.0
 11
778.0245140106353
 21
191.8796478982935
 31
0.0
  0
SPLINE
  5
466
330
2
100
AcDbEntity
  8
0
100
AcDbSpline
210
0.0
220
0.0
230
1.0
 70
     8
 71
     3
 72
    17
 73
    13
 74
    11
 42
0.0000000001
 43
0.0000000001
 44
0.0000000001
 12
-0.3073810395811054
 22
0.9515865155129295
 32
0.0
 13
-0.4972693516496486
 23
-0.8675962147853908
 33
0.0
 40
0.0
 40
0.0
 40
0.0
 40
0.0
 40
0.0877876559194776
 40
0.1883044363867931
 40
0.2989761615358535
 40
0.41544868958599
 40
0.5325103172092929
 40
0.6448673058311165
 40
0.7479064264866507
 40
0.8385712467254668
 40
0.9165167539427949
 40
0.9817164149570306
 40
0.9817164149570306
 40
0.9817164149570306
 40
0.9817164149570306
 10
781.7806045657111
 20
198.5325776241551
 30
0.0
 10
781.7716098120647
 20
198.5604234740222
 30
0.0
 10
781.7423862173259
 20
198.6170018451111
 30
0.0
 10
781.6775539149189
 20
198.6934276058363
 30
0.0
 10
781.5928276269401
 20
198.7631737451953
 30
0.0
 10
781.4936556158471
 20
198.8217084816142
 30
0.0
 10
781.3864545355881
 20
198.8652932325134
 30
0.0
 10
781.2781908000318
 20
198.8910782301793
 30
0.0
 10
781.1757528915522
 20
198.897392596007
 30
0.0
 10
781.0853789874889
 20
198.8835814053249
 30
0.0
 10
781.0133939226974
 20
198.8500953209253
 30
0.0
 10
780.979954255118
 20
198.8138757313376
 30
0.0
 10
780.9691469907312
 20
198.7950200716372
 30
0.0
 11
781.7806045657111
 21
198.5325776241551
 31
0.0
 11
781.741838384161
 21
198.6113421828085
 31
0.0
 11
781.6777594918874
 21
198.6887858314861
 31
0.0
 11
781.592734759022
 21
198.759630912816
 31
0.0
 11
781.4925584797174
 21
198.8190494524739
 31
0.0
 11
781.3840575033744
 21
198.8629921742196
 31
0.0
 11
781.2746259913921
 21
198.8884644547896
 31
0.0
 11
781.1717215201086
 21
198.8937303996571
 31
0.0
 11
781.0823568604051
 21
198.8784311439565
 31
0.0
 11
781.0126220647508
 21
198.8436093064054
 31
0.0
 11
780.9691469907312
 21
198.7950200716372
 31
0.0
  0
LINE
  5
467
330
2
100
AcDbEntity
  8
0
100
AcDbLine
 10
780.9691469907312
 20
198.7950200716372
 30
0.0
 11
780.9639448220268
 21
198.7850417060462
 31
0.0
  0
SPLINE
  5
468
330
2
100
AcDbEntity
  8
0
100
AcDbSpline
210
0.0
220
0.0
230
1.0
 70
     8
 71
     3
 72
    19
 73
    15
 74
    13
 42
0.0000000001
 43
0.0000000001
 44
0.0000000001
 12
-0.3073810396220766
 22
0.9515865154996951
 32
0.0
 13
-0.6257963801386606
 23
-0.7799864682193846
 33
0.0
 40
0.0
 40
0.0
 40
0.0
 40
0.0
 40
0.123669698098357
 40
0.2631079886838571
 40
0.4161447927319826
 40
0.578742870004744
 40
0.7457725834689941
 40
0.9116439393797254
 40
1.070884813749873
 40
1.218732459166046
 40
1.351811697001331
 40
1.468998971016171
 40
1.5725121857587
 40
1.590944540762774
 40
1.590944540762774
 40
1.590944540762774
 40
1.590944540762774
 10
778.8250216763501
 20
191.7016603578334
 30
0.0
 10
778.8123504362263
 20
191.7408878301955
 30
0.0
 10
778.7735553412821
 20
191.8206294246362
 30
0.0
 10
778.6885007146536
 20
191.9310454059124
 30
0.0
 10
778.5771765348867
 20
192.0349629790313
 30
0.0
 10
778.4449167296278
 20
192.1274043281971
 30
0.0
 10
778.2980727093322
 20
192.2039869268515
 30
0.0
 10
778.1437628663312
 20
192.2609891688222
 30
0.0
 10
777.9894415812089
 20
192.2956513634016
 30
0.0
 10
777.8424784658128
 20
192.3063010043927
 30
0.0
 10
777.7096259451009
 20
192.2922357734033
 30
0.0
 10
777.5969321720367
 20
192.2536636030361
 30
0.0
 10
777.5309484721121
 20
192.2058284420236
 30
0.0
 10
777.5043922126409
 20
192.1750140437962
 30
0.0
 10
777.5005472456279
 20
192.170221714636
 30
0.0
 11
778.8250216763501
 21
191.7016603578334
 31
0.0
 11
778.7725706758455
 21
191.8136562808566
 31
0.0
 11
778.6886048786766
 21
191.9249791526629
 31
0.0
 11
778.5773346804034
 21
192.0300467802629
 31
0.0
 11
778.4443396343045
 21
192.1235906333263
 31
0.0
 11
778.2962886664825
 21
192.2009200333429
 31
0.0
 11
778.1406056711354
 21
192.2581573609484
 31
0.0
 11
777.9850972433076
 21
192.2924324969032
 31
0.0
 11
777.8375612250431
 21
192.3020267436039
 31
0.0
 11
777.7053956885191
 21
192.2864590045854
 31
0.0
 11
777.5952279655157
 21
192.2465099119891
 31
0.0
 11
777.512582325361
 21
192.1841826804627
 31
0.0
 11
777.5005472456279
 21
192.170221714636
 31
0.0
  0
SPLINE
  5
469
330
2
100
AcDbEntity
  8
0
100
AcDbSpline
210
0.0
220
0.0
230
1.0
 70
     8
 71
     3
 72
    10
 73
     6
 74
     4
 42
0.0000000001
 43
0.0000000001
 44
0.0000000001
 12
0.4469706078516856
 22
-0.8945486435721059
 32
0.0
 13
0.7293547184098001
 23
-0.6841357282976541
 33
0.0
 40
0.0
 40
0.0
 40
0.0
 40
0.0
 40
0.039333467474922
 40
0.1297985694984264
 40
0.1454173566884311
 40
0.1454173566884311
 40
0.1454173566884311
 40
0.1454173566884311
 10
777.7552542429146
 20
191.743510379963
 30
0.0
 10
777.7611145442033
 20
191.7317818133041
 30
0.0
 10
777.783011801767
 20
191.6943477483197
 30
0.0
 10
777.8146388330212
 20
191.6570359102076
 30
0.0
 10
777.8400778421374
 20
191.6324877410074
 30
0.0
 10
777.8438750541818
 20
191.6289259508909
 30
0.0
 11
777.7552542429146
 21
191.743510379963
 31
0.0
 11
777.7749673439666
 21
191.709473410202
 31
0.0
 11
777.8326383464821
 21
191.6397741264683
 31
0.0
 11
777.8438750541818
 21
191.6289259508909
 31
0.0
  0
SPLINE
  5
46A
330
2
100
AcDbEntity
  8
0
100
AcDbSpline
210
0.0
220
0.0
230
1.0
 70
     8
 71
     3
 72
    10
 73
     6
 74
     4
 42
0.0000000001
 43
0.0000000001
 44
0.0000000001
 12
-0.3073810481095727
 22
0.951586512758068
 32
0.0
 13
0.4296444078713111
 23
0.9029981632234422
 33
0.0
 40
0.0
 40
0.0
 40
0.0
 40
0.0
 40
0.0535924830550596
 40
0.1036846445025257
 40
0.122872399145531
 40
0.122872399145531
 40
0.122872399145531
 40
0.122872399145531
 10
776.5369373844219
 20
189.2476278208124
 30
0.0
 10
776.5314462798844
 20
189.2646271154992
 30
0.0
 10
776.5244590489237
 20
189.2989497273641
 30
0.0
 10
776.5290912809269
 20
189.3405450661233
 30
0.0
 10
776.5375531198377
 20
189.3621206383705
 30
0.0
 10
776.5403010903317
 20
189.3678961407702
 30
0.0
 11
776.5369373844219
 21
189.2476278208124
 31
0.0
 11
776.5271342150752
 21
189.3003160748238
 31
0.0
 11
776.5333146766241
 21
189.3500254957973
 31
0.0
 11
776.5403010903317
 21
189.3678961407702
 31
0.0
  0
SPLINE
  5
46B
330
2
100
AcDbEntity
  8
0
100
AcDbSpline
210
0.0
220
0.0
230
1.0
 70
     8
 71
     3
 72
     9
 73
     5
 74
     3
 42
0.0000000001
 43
0.0000000001
 44
0.0000000001
 12
0.5610686398534897
 22
-0.8277692802786022
 32
0.0
 13
0.3073810021239907
 23
-0.9515865276123086
 33
0.0
 40
0.0
 40
0.0
 40
0.0
 40
0.0
 40
0.0352327019099276
 40
0.1216735495800137
 40
0.1216735495800137
 40
0.1216735495800137
 40
0.1216735495800137
 10
777.3215610413147
 20
189.0922153124666
 30
0.0
 10
777.3281503626943
 20
189.0824937963658
 30
0.0
 10
777.3497957559251
 20
189.0482003349447
 30
0.0
 10
777.3672010113863
 20
189.0111049744881
 30
0.0
 10
777.3760577695134
 20
188.9836863257953
 30
0.0
 11
777.3215610413147
 21
189.0922153124666
 31
0.0
 11
777.3403304335344
 21
189.0623983173199
 31
0.0
 11
777.3760577695134
 21
188.9836863257953
 31
0.0
  0
SPLINE
  5
46C
330
2
100
AcDbEntity
  8
0
100
AcDbSpline
210
0.0
220
0.0
230
1.0
 70
     8
 71
     3
 72
    18
 73
    14
 74
    12
 42
0.0000000001
 43
0.0000000001
 44
0.0000000001
 12
-0.3073810396729552
 22
0.9515865154832605
 32
0.0
 13
-0.6269472299378399
 23
-0.7790617246876331
 33
0.0
 40
0.0
 40
0.0
 40
0.0
 40
0.0
 40
0.1168740647685234
 40
0.2496181989788716
 40
0.3955941315611815
 40
0.5501210911938318
 40
0.7074143317230276
 40
0.8613594955430638
 40
1.006242729016476
 40
1.137534917238498
 40
1.25285386838357
 40
1.353233322661086
 40
1.389444840649945
 40
1.389444840649945
 40
1.389444840649945
 40
1.389444840649945
 10
778.909851918703
 20
192.0740453015988
 30
0.0
 10
778.8978769615233
 20
192.1111172296133
 30
0.0
 10
778.8601788055864
 20
192.1864724978828
 30
0.0
 10
778.7769937758469
 20
192.2896677291229
 30
0.0
 10
778.6681197832942
 20
192.3854942951204
 30
0.0
 10
778.539565636233
 20
192.4686378547926
 30
0.0
 10
778.3984612746181
 20
192.534546813147
 30
0.0
 10
778.2526873156293
 20
192.5795207442568
 30
0.0
 10
778.1103348122758
 20
192.6010701587506
 30
0.0
 10
777.9790380896313
 20
192.597887235807
 30
0.0
 10
777.8656966197754
 20
192.5698374506619
 30
0.0
 10
777.7918664374603
 20
192.5260155099696
 30
0.0
 10
777.7605347586054
 20
192.4927056928201
 30
0.0
 10
777.7529671883071
 20
192.4833020236008
 30
0.0
 11
778.909851918703
 21
192.0740453015988
 31
0.0
 11
778.8593329923956
 21
192.1794368814345
 31
0.0
 11
778.7771828728505
 21
192.2837075054184
 31
0.0
 11
778.6681758265938
 21
192.3807973440199
 31
0.0
 11
778.5386469471696
 21
192.4650638892703
 31
0.0
 11
778.3961239825607
 21
192.531609873937
 31
0.0
 11
778.2488898482088
 21
192.5765678892981
 31
0.0
 11
778.1055012574319
 21
192.5973251380735
 31
0.0
 11
777.9742914348275
 21
192.5926752842833
 31
0.0
 11
777.8628858172131
 21
192.56288856145
 31
0.0
 11
777.7777588941297
 21
192.5096960637891
 31
0.0
 11
777.7529671883071
 21
192.4833020236008
 31
0.0
  0
SPLINE
  5
46D
330
2
100
AcDbEntity
  8
0
100
AcDbSpline
210
0.0
220
0.0
230
1.0
 70
     8
 71
     3
 72
    18
 73
    14
 74
    12
 42
0.0000000001
 43
0.0000000001
 44
0.0000000001
 12
-0.3073810395719503
 22
0.9515865155158868
 32
0.0
 13
-0.4300696176279374
 23
-0.902795726614476
 33
0.0
 40
0.0
 40
0.0
 40
0.0
 40
0.0
 40
0.1168740647669708
 40
0.2496181995041955
 40
0.3955941320863449
 40
0.5501210913985297
 40
0.7074143321478421
 40
0.8613594959656449
 40
1.006242729441007
 40
1.13753491766549
 40
1.25285386910672
 40
1.353233322896
 40
1.440172198182833
 40
1.440172198182833
 40
1.440172198182833
 40
1.440172198182833
 10
778.9573443027594
 20
192.1740216311903
 30
0.0
 10
778.9453693455838
 20
192.2110935592055
 30
0.0
 10
778.9076711874983
 20
192.2864488252596
 30
0.0
 10
778.8244861682869
 20
192.3896440688967
 30
0.0
 10
778.7156121339235
 20
192.4854705857267
 30
0.0
 10
778.5870581544745
 20
192.5686143432211
 30
0.0
 10
778.4459531524433
 20
192.6345225445639
 30
0.0
 10
778.300181498345
 20
192.6794992020466
 30
0.0
 10
778.157821165754
 20
192.701039355503
 30
0.0
 10
778.0265496539486
 20
192.6978862541453
 30
0.0
 10
777.9131302075202
 20
192.6697442317419
 30
0.0
 10
777.8246698523791
 20
192.6173782631674
 30
0.0
 10
777.7856226631427
 20
192.5662304425999
 30
0.0
 10
777.7731594068588
 20
192.5400677609047
 30
0.0
 11
778.9573443027594
 21
192.1740216311903
 31
0.0
 11
778.9068253764512
 21
192.2794132110239
 31
0.0
 11
778.8246752570143
 21
192.3836838357637
 31
0.0
 11
778.7156682107577
 21
192.4807736743651
 31
0.0
 11
778.5861393312261
 21
192.5650402188627
 31
0.0
 11
778.4436163667253
 21
192.6315862042812
 31
0.0
 11
778.2963822323758
 21
192.6765442196425
 31
0.0
 11
778.1529936415966
 21
192.6973014684166
 31
0.0
 11
778.0217838189899
 21
192.6926516146275
 31
0.0
 11
777.9103782012704
 21
192.6628648910405
 31
0.0
 11
777.825251278293
 21
192.6096723941314
 31
0.0
 11
777.7731594068588
 21
192.5400677609047
 31
0.0
  0
SPLINE
  5
46E
330
2
100
AcDbEntity
  8
0
100
AcDbSpline
210
0.0
220
0.0
230
1.0
 70
     8
 71
     3
 72
    10
 73
     6
 74
     4
 42
0.0000000001
 43
0.0000000001
 44
0.0000000001
 12
0.3073810416077286
 22
-0.9515865148582907
 32
0.0
 13
-0.4300696187912549
 23
-0.9027957260603002
 33
0.0
 40
0.0
 40
0.0
 40
0.0
 40
0.0
 40
0.1016470402499062
 40
0.1933040083614923
 40
0.197605242288331
 40
0.197605242288331
 40
0.197605242288331
 40
0.197605242288331
 10
778.9573443027594
 20
192.1740216311903
 30
0.0
 10
778.9677590937956
 20
192.1417796469312
 30
0.0
 10
778.9796645497704
 20
192.0771177288401
 30
0.0
 10
778.9660158897723
 20
192.0104924439319
 30
0.0
 10
778.952561110636
 20
191.9814767856102
 30
0.0
 10
778.9519445006242
 20
191.9801824070749
 30
0.0
 11
778.9573443027594
 21
192.1740216311903
 31
0.0
 11
778.9732960599256
 21
192.0736340710303
 31
0.0
 11
778.953753589055
 21
191.9840846900404
 31
0.0
 11
778.9519445006242
 21
191.9801824070749
 31
0.0
  0
SPLINE
  5
46F
330
2
100
AcDbEntity
  8
0
100
AcDbSpline
210
0.0
220
0.0
230
1.0
 70
     8
 71
     3
 72
    19
 73
    15
 74
    13
 42
0.0000000001
 43
0.0000000001
 44
0.0000000001
 12
-0.3073810398208918
 22
0.9515865154354738
 32
0.0
 13
-0.4308145046343412
 23
-0.9024405036326037
 33
0.0
 40
0.0
 40
0.0
 40
0.0
 40
0.0
 40
0.1564496180361527
 40
0.3328474560734738
 40
0.52644823152138
 40
0.7321445946752061
 40
0.9434472440595344
 40
1.15328450109516
 40
1.35473380051393
 40
1.541769978274347
 40
1.710123231152723
 40
1.858372191841461
 40
1.989322644582497
 40
2.086515762799689
 40
2.086515762799689
 40
2.086515762799689
 40
2.086515762799689
 10
779.2239753560266
 20
192.1354235316221
 30
0.0
 10
779.2079454739361
 20
192.1850486472448
 30
0.0
 10
779.1588673418949
 20
192.2859265684876
 30
0.0
 10
779.0512681134714
 20
192.4256094336867
 30
0.0
 10
778.9104363299908
 20
192.5570714360335
 30
0.0
 10
778.7431196648271
 20
192.6740152590636
 30
0.0
 10
778.5573533069825
 20
192.7708970656766
 30
0.0
 10
778.3621414182532
 20
192.8430075736246
 30
0.0
 10
778.1669179414932
 20
192.8868600057669
 30
0.0
 10
777.9809932629891
 20
192.9003235497006
 30
0.0
 10
777.8129507169308
 20
192.8825585812525
 30
0.0
 10
777.6703120153243
 20
192.8336741801273
 30
0.0
 10
777.5666740513862
 20
192.7586432002929
 30
0.0
 10
777.522921704194
 20
192.6947384034817
 30
0.0
 10
777.5089643025011
 20
192.6655014012972
 30
0.0
 11
779.2239753560266
 21
192.1354235316221
 31
0.0
 11
779.1576216805601
 21
192.2771051208839
 31
0.0
 11
779.0513998888278
 21
192.417935260504
 31
0.0
 11
778.9106363852022
 21
192.5508521379164
 31
0.0
 11
778.742389640212
 21
192.6691907479087
 31
0.0
 11
778.5550962469885
 21
192.7670170965664
 31
0.0
 11
778.3581478798891
 21
192.8394257641213
 31
0.0
 11
778.1614203501747
 21
192.8827858758461
 31
0.0
 11
777.9747783995392
 21
192.8949231759664
 31
0.0
 11
777.8075810338781
 21
192.875229048143
 31
0.0
 11
777.6682122278331
 21
192.8246910401997
 31
0.0
 11
777.5636605144823
 21
192.7458433369453
 31
0.0
 11
777.5089643025011
 21
192.6655014012972
 31
0.0
  0
SPLINE
  5
470
330
2
100
AcDbEntity
  8
0
100
AcDbSpline
210
0.0
220
0.0
230
1.0
 70
     8
 71
     3
 72
    14
 73
    10
 74
     8
 42
0.0000000001
 43
0.0000000001
 44
0.0000000001
 12
-0.3073810307584328
 22
0.9515865183628251
 32
0.0
 13
0.9961830126899435
 23
0.0872892045329066
 33
0.0
 40
0.0
 40
0.0
 40
0.0
 40
0.0
 40
0.0771793056748206
 40
0.1495464398907125
 40
0.2205953452658732
 40
0.2954805639424691
 40
0.378176664162738
 40
0.4710755759606622
 40
0.4767190273730276
 40
0.4767190273730276
 40
0.4767190273730276
 40
0.4767190273730276
 10
776.3095335571972
 20
189.1380787239593
 30
0.0
 10
776.3016257390201
 20
189.1625596528849
 30
0.0
 10
776.2915967889008
 20
189.212093216146
 30
0.0
 10
776.2997202424879
 20
189.2866442088755
 30
0.0
 10
776.3344983197521
 20
189.3525997602898
 30
0.0
 10
776.3931450121448
 20
189.4035455918959
 30
0.0
 10
776.4704362715267
 20
189.4375116172119
 30
0.0
 10
776.530302885583
 20
189.4486174705659
 30
0.0
 10
776.5630064358906
 20
189.4516525936345
 30
0.0
 10
776.5648804060339
 20
189.4518167977627
 30
0.0
 11
776.3095335571972
 21
189.1380787239593
 31
0.0
 11
776.2954120615666
 21
189.2139551273111
 31
0.0
 11
776.304241546813
 21
189.2857816008769
 31
0.0
 11
776.3372493870233
 21
189.3486976516085
 31
0.0
 11
776.3929940240799
 21
189.3987009656554
 31
0.0
 11
776.4681349268526
 21
189.433233410141
 31
0.0
 11
776.5592611195807
 21
189.4512951047492
 31
0.0
 11
776.5648804060339
 21
189.4518167977627
 31
0.0
  0
SPLINE
  5
471
330
2
100
AcDbEntity
  8
0
100
AcDbSpline
210
0.0
220
0.0
230
1.0
 70
     8
 71
     3
 72
    20
 73
    16
 74
    14
 42
0.0000000001
 43
0.0000000001
 44
0.0000000001
 12
-0.4296156259236243
 22
-0.9030118570441103
 32
0.0
 13
-0.3073810668504122
 23
0.9515865067044101
 33
0.0
 40
0.0
 40
0.0
 40
0.0
 40
0.0
 40
0.0301873437333152
 40
0.0820189025230661
 40
0.139257706701219
 40
0.2035527490199119
 40
0.2754510765676596
 40
0.3539058504771687
 40
0.436450477683318
 40
0.5208352478892449
 40
0.6053981377690007
 40
0.687933846795843
 40
0.7651667953090825
 40
0.8343878593211773
 40
0.8944345128988913
 40
0.8944345128988913
 40
0.8944345128988913
 40
0.8944345128988913
 10
777.2719363920848
 20
189.0204670433506
 30
0.0
 10
777.2676134072271
 20
189.011380533576
 30
0.0
 10
777.2530809919283
 20
188.987916430366
 30
0.0
 10
777.2172909562292
 20
188.9568825647881
 30
0.0
 10
777.1637851416891
 20
188.9334126431962
 30
0.0
 10
777.0999517946534
 20
188.9215805293373
 30
0.0
 10
777.0280829563205
 20
188.9214774675947
 30
0.0
 10
776.95106150842
 20
188.9330483344427
 30
0.0
 10
776.8722552000516
 20
188.9557397889209
 30
0.0
 10
776.7949038540041
 20
188.9885655654007
 30
0.0
 10
776.7219851757593
 20
189.0303277950473
 30
0.0
 10
776.6566786762894
 20
189.0793724152597
 30
0.0
 10
776.602312798879
 20
189.1333549930131
 30
0.0
 10
776.5615416522377
 20
189.1892029998021
 30
0.0
 10
776.5430897859011
 20
189.2285812923733
 30
0.0
 10
776.5369373844219
 20
189.2476278208124
 30
0.0
 11
777.2719363920848
 21
189.0204670433506
 31
0.0
 11
777.2560291272935
 21
188.9948109593054
 31
0.0
 11
777.217409087156
 21
188.9602421440762
 31
0.0
 11
777.1653867290901
 21
188.9363684144765
 31
0.0
 11
777.1023146723205
 21
188.9238877044959
 31
0.0
 11
777.0304195835357
 21
188.9232052729689
 31
0.0
 11
776.9527793379997
 21
188.9344810799155
 31
0.0
 11
776.8734006892063
 21
188.9571227582176
 31
0.0
 11
776.7957010810629
 21
188.9900402359016
 31
0.0
 11
776.7223674439405
 21
189.032147955042
 31
0.0
 11
776.656534911002
 21
189.0819296873489
 31
0.0
 11
776.6020389082832
 21
189.1366573222669
 31
0.0
 11
776.5617577152458
 21
189.1929510269811
 31
0.0
 11
776.5369373844219
 21
189.2476278208124
 31
0.0
  0
SPLINE
  5
472
330
2
100
AcDbEntity
  8
0
100
AcDbSpline
210
0.0
220
0.0
230
1.0
 70
     8
 71
     3
 72
    10
 73
     6
 74
     4
 42
0.0000000001
 43
0.0000000001
 44
0.0000000001
 12
-0.3111944080725616
 22
0.9503462739361731
 32
0.0
 13
0.4290835539125116
 23
0.9032648026807027
 33
0.0
 40
0.0
 40
0.0
 40
0.0
 40
0.0
 40
0.0124134729459971
 40
0.0584733465978001
 40
0.1109281131528019
 40
0.1109281131528019
 40
0.1109281131528019
 40
0.1109281131528019
 10
777.5106857211802
 20
191.7137900746909
 30
0.0
 10
777.5093980533917
 20
191.7177224406112
 30
0.0
 10
777.5044642690947
 20
191.7366421036218
 30
0.0
 10
777.5060981077147
 20
191.7746076808811
 30
0.0
 10
777.5174252933059
 20
191.8057706985574
 30
0.0
 10
777.5249277858569
 20
191.8215642133448
 30
0.0
 11
777.5106857211802
 21
191.7137900746909
 31
0.0
 11
777.5075644109329
 21
191.7258047212908
 31
0.0
 11
777.5081628211559
 21
191.7718607075035
 31
0.0
 11
777.5249277858569
 21
191.8215642133448
 31
0.0
  0
SPLINE
  5
473
330
2
100
AcDbEntity
  8
0
100
AcDbSpline
210
0.0
220
0.0
230
1.0
 70
     8
 71
     3
 72
    22
 73
    18
 74
    16
 42
0.0000000001
 43
0.0000000001
 44
0.0000000001
 12
0.307381030564535
 22
-0.9515865184254581
 32
0.0
 13
-0.3073809998813065
 23
0.9515865283367396
 33
0.0
 40
0.0
 40
0.0
 40
0.0
 40
0.0
 40
0.077179305674814
 40
0.1495464398744259
 40
0.2205953452478508
 40
0.2954805639242
 40
0.3781766635055116
 40
0.4710755760238343
 40
0.5749742832692434
 40
0.6883661706528073
 40
0.8076847104537495
 40
0.9296600819384018
 40
1.051881414188788
 40
1.17115254782059
 40
1.282732395626876
 40
1.382710312616993
 40
1.469151160287122
 40
1.469151160287122
 40
1.469151160287122
 40
1.469151160287122
 10
777.3760577695134
 20
188.9836863257953
 30
0.0
 10
777.3839655876855
 20
188.9592053968681
 30
0.0
 10
777.393994454614
 20
188.9096718258302
 30
0.0
 10
777.3858713538909
 20
188.8351208661226
 30
0.0
 10
777.3510919965513
 20
188.7691651959229
 30
0.0
 10
777.2924504884002
 20
188.718219845251
 30
0.0
 10
777.2151367730666
 20
188.684251737271
 30
0.0
 10
777.1229141012098
 20
188.667134272682
 30
0.0
 10
777.0190533248834
 20
188.666966104584
 30
0.0
 10
776.9077316480943
 20
188.6836762520776
 30
0.0
 10
776.7938229738499
 20
188.7164803041334
 30
0.0
 10
776.682022528774
 20
188.7639399100055
 30
0.0
 10
776.5766376809267
 20
188.8243098909654
 30
0.0
 10
776.4823004573369
 20
188.8952247092191
 30
0.0
 10
776.4037616543991
 20
188.9732264271641
 30
0.0
 10
776.3450188368851
 20
189.0538860216128
 30
0.0
 10
776.3183903152597
 20
189.1106600752457
 30
0.0
 10
776.3095335571972
 20
189.1380787239593
 30
0.0
 11
777.3760577695134
 21
188.9836863257953
 31
0.0
 11
777.3901792651437
 21
188.9078099224435
 31
0.0
 11
777.3813497791413
 21
188.835983448987
 31
0.0
 11
777.3483419389332
 21
188.7730673982562
 31
0.0
 11
777.2925973018766
 21
188.7230640842097
 31
0.0
 11
777.2174563998575
 21
188.6885316396146
 31
0.0
 11
777.1263302063735
 21
188.6704699451148
 31
0.0
 11
777.0224363649856
 21
188.6694644159284
 31
0.0
 11
776.9102199569107
 21
188.6857493133236
 31
0.0
 11
776.7954786626749
 21
188.7184807865155
 31
0.0
 11
776.6831711447491
 21
188.7660729357229
 31
0.0
 11
776.5771897409762
 21
188.8269498288054
 31
0.0
 11
776.4820811256668
 21
188.8989217303486
 31
0.0
 11
776.4033775530472
 21
188.9780154095738
 31
0.0
 11
776.3452608931783
 21
189.0593667324356
 31
0.0
 11
776.3095335571972
 21
189.1380787239593
 31
0.0
  0
SPLINE
  5
474
330
2
100
AcDbEntity
  8
0
100
AcDbSpline
210
0.0
220
0.0
230
1.0
 70
     8
 71
     3
 72
    19
 73
    15
 74
    13
 42
0.0000000001
 43
0.0000000001
 44
0.0000000001
 12
-0.3073810398524297
 22
0.9515865154252866
 32
0.0
 13
-0.4308145042823714
 23
-0.90244050380063
 33
0.0
 40
0.0
 40
0.0
 40
0.0
 40
0.0
 40
0.1236696980992177
 40
0.2631079886830936
 40
0.4161447921098222
 40
0.5787428693797745
 40
0.7457725828448881
 40
0.9116439385991872
 40
1.07088481302395
 40
1.218732458498145
 40
1.351811696136636
 40
1.46899897015168
 40
1.572512184898909
 40
1.649341030562721
 40
1.649341030562721
 40
1.649341030562721
 40
1.649341030562721
 10
777.5237303520752
 20
188.962308916918
 30
0.0
 10
777.5110591119418
 20
189.0015363892773
 30
0.0
 10
777.4722640174355
 20
189.081277984228
 30
0.0
 10
777.3872093887228
 20
189.191693962722
 30
0.0
 10
777.2758852184376
 20
189.2956115467334
 30
0.0
 10
777.1436253774298
 20
189.3880528530365
 30
0.0
 10
776.9967814954249
 20
189.4646356162453
 30
0.0
 10
776.8424711444422
 20
189.5216372534012
 30
0.0
 10
776.6881516347457
 20
189.5563015594405
 30
0.0
 10
776.5411826032134
 20
189.5669441679005
 30
0.0
 10
776.4083489712523
 20
189.5529013855205
 30
0.0
 10
776.2955964743562
 20
189.5142594288934
 30
0.0
 10
776.2136731309785
 20
189.4549492267216
 30
0.0
 10
776.179087942207
 20
189.4044340064944
 30
0.0
 10
776.1680549485206
 20
189.381322852432
 30
0.0
 11
777.5237303520752
 21
188.962308916918
 31
0.0
 11
777.4712793515665
 21
189.0743048399402
 31
0.0
 11
777.3873135544016
 21
189.1856277117474
 31
0.0
 11
777.27604335688
 21
189.2906953392384
 31
0.0
 11
777.1430483107836
 21
189.3842391923006
 31
0.0
 11
776.9949973429612
 21
189.4615685923182
 31
0.0
 11
776.8393143475023
 21
189.5188059191661
 31
0.0
 11
776.6838059197851
 21
189.5530810558765
 31
0.0
 11
776.5362699014136
 21
189.5626753018245
 31
0.0
 11
776.404104364999
 21
189.5471075635598
 31
0.0
 11
776.2939366419953
 21
189.5071584709635
 31
0.0
 11
776.2112910018362
 21
189.444831239435
 31
0.0
 11
776.1680549485206
 21
189.381322852432
 31
0.0
  0
SPLINE
  5
475
330
2
100
AcDbEntity
  8
0
100
AcDbSpline
210
0.0
220
0.0
230
1.0
 70
     8
 71
     3
 72
     9
 73
     5
 74
     3
 42
0.0000000001
 43
0.0000000001
 44
0.0000000001
 12
0.3073810382846733
 22
-0.9515865159317026
 32
0.0
 13
-0.4267800468263492
 23
-0.9043554564610639
 33
0.0
 40
0.0
 40
0.0
 40
0.0
 40
0.0
 40
0.0754959601311123
 40
0.1362481968979901
 40
0.1362481968979901
 40
0.1362481968979901
 40
0.1362481968979901
 10
781.7806045657111
 20
198.5325776241551
 30
0.0
 10
781.7883399079148
 20
198.5086306449324
 30
0.0
 10
781.7963276274258
 20
198.462701396755
 30
0.0
 10
781.7855036834164
 20
198.4171907977234
 30
0.0
 10
781.7768610692657
 20
198.3988769254527
 30
0.0
 11
781.7806045657111
 21
198.5325776241551
 31
0.0
 11
781.7914161838062
 21
198.4578598290171
 31
0.0
 11
781.7768610692657
 21
198.3988769254527
 31
0.0
  0
SPLINE
  5
476
330
2
100
AcDbEntity
  8
0
100
AcDbSpline
210
0.0
220
0.0
230
1.0
 70
     8
 71
     3
 72
    10
 73
     6
 74
     4
 42
0.0000000001
 43
0.0000000001
 44
0.0000000001
 12
0.3073810384969669
 22
-0.9515865158631275
 32
0.0
 13
-0.4308145048760477
 23
-0.9024405035172158
 33
0.0
 40
0.0
 40
0.0
 40
0.0
 40
0.0
 40
0.108606926058146
 40
0.2067894788485787
 40
0.2264501713701789
 40
0.2264501713701789
 40
0.2264501713701789
 40
0.2264501713701789
 10
777.5237303520752
 20
188.962308916918
 30
0.0
 10
777.534858255315
 20
188.9278592881292
 30
0.0
 10
777.5481057410133
 20
188.8590134223527
 30
0.0
 10
777.5358666902969
 20
188.7824826858013
 30
0.0
 10
777.5203597486966
 20
188.7463563990765
 30
0.0
 10
777.517536378192
 20
188.7404421973237
 30
0.0
 11
777.5237303520752
 21
188.962308916918
 31
0.0
 11
777.5420364440031
 21
188.855255886199
 31
0.0
 11
777.5252796833482
 21
188.7585138340975
 31
0.0
 11
777.517536378192
 21
188.7404421973237
 31
0.0
  0
SPLINE
  5
477
330
2
100
AcDbEntity
  8
0
100
AcDbSpline
210
0.0
220
0.0
230
1.0
 70
     8
 71
     3
 72
     9
 73
     5
 74
     3
 42
0.0000000001
 43
0.0000000001
 44
0.0000000001
 12
0.3073810397016998
 22
-0.9515865154739751
 32
0.0
 13
-0.2060140456567377
 23
-0.9785490345364118
 33
0.0
 40
0.0
 40
0.0
 40
0.0
 40
0.0
 40
0.1086069260570697
 40
0.1683628581047042
 40
0.1683628581047042
 40
0.1683628581047042
 40
0.1683628581047042
 10
778.8250216763501
 20
191.7016603578334
 30
0.0
 10
778.8361495796334
 20
191.6672107290591
 30
0.0
 10
778.8469023154411
 20
191.6109624924374
 30
0.0
 10
778.8415673209025
 20
191.5546311823555
 30
0.0
 10
778.8374638004648
 20
191.5351398124845
 30
0.0
 11
778.8250216763501
 21
191.7016603578334
 31
0.0
 11
778.8433277682774
 21
191.5946073271154
 31
0.0
 11
778.8374638004648
 21
191.5351398124845
 31
0.0
  0
SPLINE
  5
478
330
2
100
AcDbEntity
  8
0
100
AcDbSpline
210
0.0
220
0.0
230
1.0
 70
     8
 71
     3
 72
     9
 73
     5
 74
     3
 42
0.0000000001
 43
0.0000000001
 44
0.0000000001
 12
-0.5614875631323402
 22
0.8274851759685525
 32
0.0
 13
-0.6772945032987867
 23
0.7357120060195089
 33
0.0
 40
0.0
 40
0.0
 40
0.0
 40
0.0
 40
0.1360071893727513
 40
0.1471959794125582
 40
0.1471959794125582
 40
0.1471959794125582
 40
0.1471959794125582
 10
779.6739127092378
 20
193.4442425212327
 30
0.0
 10
779.6484572607946
 20
193.4817571655764
 30
0.0
 10
779.6176873850722
 20
193.5202690197742
 30
0.0
 10
779.5846353312717
 20
193.5565252461524
 30
0.0
 10
779.582109295941
 20
193.5592691552075
 30
0.0
 11
779.6739127092378
 21
193.4442425212327
 31
0.0
 11
779.5896469084164
 21
193.5510003329984
 31
0.0
 11
779.582109295941
 21
193.5592691552075
 31
0.0
  0
SPLINE
  5
479
330
2
100
AcDbEntity
  8
0
100
AcDbSpline
210
0.0
220
0.0
230
1.0
 70
     8
 71
     3
 72
    13
 73
     9
 74
     7
 42
0.0000000001
 43
0.0000000001
 44
0.0000000001
 12
-0.6772945048406456
 22
0.7357120046000777
 32
0.0
 13
-0.9981392072620623
 23
0.0609764128681067
 33
0.0
 40
0.0
 40
0.0
 40
0.0
 40
0.0
 40
0.1824452682264515
 40
0.3881416313814558
 40
0.5994442807614862
 40
0.8092815383876672
 40
1.010730837098999
 40
1.11083934934784
 40
1.11083934934784
 40
1.11083934934784
 40
1.11083934934784
 10
779.582109295941
 20
193.5592691552075
 30
0.0
 10
779.540919570073
 20
193.6040115465464
 30
0.0
 10
779.4456138346085
 20
193.6922874514668
 30
0.0
 10
779.2813714615346
 20
193.8070760216364
 30
0.0
 10
779.0955948563643
 20
193.9039638040121
 30
0.0
 10
778.9004050536539
 20
193.9760703874909
 30
0.0
 10
778.7334820812453
 20
194.0135595115092
 30
0.0
 10
778.6334014135174
 20
194.0241534526909
 30
0.0
 10
778.6000940031652
 20
194.0261882053491
 30
0.0
 11
779.582109295941
 21
193.5592691552075
 31
0.0
 11
779.4488834048994
 21
193.6839172111667
 31
0.0
 11
779.280636659907
 21
193.8022558211579
 31
0.0
 11
779.0933432666884
 21
193.9000821698155
 31
0.0
 11
778.8963948987221
 21
193.972490836724
 31
0.0
 11
778.6996673698745
 21
194.0158509490951
 31
0.0
 11
778.6000940031652
 21
194.0261882053491
 31
0.0
  0
SPLINE
  5
47A
330
2
100
AcDbEntity
  8
0
100
AcDbSpline
210
0.0
220
0.0
230
1.0
 70
     8
 71
     3
 72
     9
 73
     5
 74
     3
 42
0.0000000001
 43
0.0000000001
 44
0.0000000001
 12
-0.9981392074181055
 22
0.060976410313794
 32
0.0
 13
-0.996218956668015
 23
-0.0868780200930691
 33
0.0
 40
0.0
 40
0.0
 40
0.0
 40
0.0
 40
0.0870871889628075
 40
0.14826102232
 40
0.14826102232
 40
0.14826102232
 40
0.14826102232
 10
778.6000940031652
 20
194.0261882053491
 30
0.0
 10
778.5711189572428
 20
194.0279582934048
 30
0.0
 10
778.5216436263695
 20
194.029060994474
 30
0.0
 10
778.472252895077
 20
194.0264959420763
 30
0.0
 10
778.4519387175962
 20
194.0247243882351
 30
0.0
 11
778.6000940031652
 21
194.0261882053491
 31
0.0
 11
778.5130254191281
 21
194.0279882484607
 31
0.0
 11
778.4519387175962
 21
194.0247243882351
 31
0.0
  0
SPLINE
  5
47B
330
2
100
AcDbEntity
  8
0
100
AcDbSpline
210
0.0
220
0.0
230
1.0
 70
     8
 71
     3
 72
     9
 73
     5
 74
     3
 42
0.0000000001
 43
0.0000000001
 44
0.0000000001
 12
0.3073810394915313
 22
-0.9515865155418637
 32
0.0
 13
-0.2065720139719843
 23
-0.9784313992526806
 33
0.0
 40
0.0
 40
0.0
 40
0.0
 40
0.0
 40
0.1016470409746281
 40
0.146996654629154
 40
0.146996654629154
 40
0.146996654629154
 40
0.146996654629154
 10
778.909851918703
 20
192.0740453015988
 30
0.0
 10
778.9202667097416
 20
192.0418033170867
 30
0.0
 10
778.9292747110943
 20
191.9923793210954
 30
0.0
 10
778.9238086072471
 20
191.9433883161381
 30
0.0
 10
778.9206859535719
 20
191.9285978208236
 30
0.0
 11
778.909851918703
 21
192.0740453015988
 31
0.0
 11
778.9258036757626
 21
191.9736577406881
 31
0.0
 11
778.9206859535719
 21
191.9285978208236
 31
0.0
  0
SPLINE
  5
47C
330
2
100
AcDbEntity
  8
0
100
AcDbSpline
210
0.0
220
0.0
230
1.0
 70
     8
 71
     3
 72
    10
 73
     6
 74
     4
 42
0.0000000001
 43
0.0000000001
 44
0.0000000001
 12
0.3073810407004566
 22
-0.9515865151513573
 32
0.0
 13
-0.4308145049413584
 23
-0.9024405034860372
 33
0.0
 40
0.0
 40
0.0
 40
0.0
 40
0.0
 40
0.137394303762522
 40
0.2616011482089507
 40
0.2864731077288183
 40
0.2864731077288183
 40
0.2864731077288183
 40
0.2864731077288183
 10
779.2239753560266
 20
192.1354235316221
 30
0.0
 10
779.2380528240522
 20
192.0918426760491
 30
0.0
 10
779.2548116895325
 20
192.0047485086945
 30
0.0
 10
779.2393285567817
 20
191.9079325155483
 30
0.0
 10
779.2197113386257
 20
191.8622305879072
 30
0.0
 10
779.2161396049833
 20
191.8547487666833
 30
0.0
 11
779.2239753560266
 21
192.1354235316221
 31
0.0
 11
779.2471336645554
 21
191.9999949989841
 31
0.0
 11
779.2259353529686
 21
191.8776104746634
 31
0.0
 11
779.2161396049833
 21
191.8547487666833
 31
0.0
  0
DIMENSION
  5
47D
330
2
100
AcDbEntity
  8
DIM
100
AcDbDimension
  2
*D2
 10
801.6935099744122
 20
206.2384242004426
 30
0.0
 11
794.2762954147021
 21
206.2384242004426
 31
0.0
 70
   160
 71
     5
 42
14.80000000000098
 73
     0
 74
     0
 75
     0
  3
01
100
AcDbAlignedDimension
 13
786.8935099744113
 23
209.9277738147401
 33
0.0
 14
801.6935099744122
 24
209.0241471089726
 34
0.0
100
AcDbRotatedDimension
1001
ACAD
1000
DSTYLE
1002
{
1070
   147
1040
0.2
1070
   140
1040
1.0
1070
    41
1040
0.8
1070
    44
1040
0.2
1002
}
  0
DIMENSION
  5
47E
330
2
100
AcDbEntity
  8
DIM
100
AcDbDimension
  2
*D3
 10
785.1259248821982
 20
210.4277738147401
 30
0.0
 11
784.4259248821986
 21
212.7099166718831
 31
0.0
 70
    32
  1
%%C<>
 71
     5
 42
1.000000000000113
 73
     0
 74
     0
 75
     0
  3
01
100
AcDbAlignedDimension
 13
787.3935099744113
 23
209.42777381474
 33
0.0
 14
787.3935099744113
 24
210.4277738147401
 34
0.0
 50
90.0
100
AcDbRotatedDimension
1001
ACAD
1000
DSTYLE
1002
{
1070
   147
1040
0.2
1070
   140
1040
1.0
1070
    41
1040
0.8
1070
    44
1040
0.2
1002
}
  0
DIMENSION
  5
47F
330
2
100
AcDbEntity
  8
DIM
100
AcDbDimension
  2
*D4
 10
794.9935099744117
 20
212.7027726867285
 30
0.0
 11
790.7688515611202
 21
212.7027726867285
 31
0.0
 70
   160
 71
     5
 42
8.100000000000591
 73
     0
 74
     0
 75
     0
  3
01
100
AcDbAlignedDimension
 13
786.8935099744113
 23
209.9277738147401
 33
0.0
 14
794.9935099744117
 24
210.8327738147397
 34
0.0
100
AcDbRotatedDimension
1001
ACAD
1000
DSTYLE
1002
{
1070
   147
1040
0.2
1070
   140
1040
1.0
1070
    41
1040
0.8
1070
    44
1040
0.2
1002
}
  0
DIMENSION
  5
480
330
2
100
AcDbEntity
  8
DIM
100
AcDbDimension
  2
*D5
 10
806.0306776069911
 20
210.75777381474
 30
0.0
 11
805.3306776069913
 21
214.0399166718829
 31
0.0
 70
    32
  1
%%C<>
 71
     5
 42
1.659999999999882
 73
     0
 74
     0
 75
     0
  3
01
100
AcDbAlignedDimension
 13
801.6795629426916
 23
209.0977738147401
 33
0.0
 14
801.6935099744122
 24
210.75777381474
 34
0.0
 50
90.0
100
AcDbRotatedDimension
1001
ACAD
1000
DSTYLE
1002
{
1070
   271
1070
     2
1070
   147
1040
0.2
1070
   140
1040
1.0
1070
    41
1040
0.8
1070
    44
1040
0.2
1002
}
  0
DIMENSION
  5
481
330
2
100
AcDbEntity
  8
DIM
100
AcDbDimension
  2
*D6
 10
804.062093790702
 20
210.3777738147403
 30
0.0
 11
803.3620937907022
 21
212.7313452433118
 31
0.0
 70
    32
  1
%%Cd
 71
     5
 42
0.9000000000006025
 73
     0
 74
     0
 75
     0
  3
01
100
AcDbAlignedDimension
 13
801.5435099744106
 23
209.4777738147397
 33
0.0
 14
801.5435099744106
 24
210.3777738147403
 34
0.0
 50
90.0
100
AcDbRotatedDimension
1001
ACAD
1000
DSTYLE
1002
{
1070
   147
1040
0.2
1070
   140
1040
1.0
1070
    41
1040
0.8
1070
    44
1040
0.2
1002
}
  0
DIMENSION
  5
482
330
2
100
AcDbEntity
  8
DIM
100
AcDbDimension
  2
*D7
 10
801.6935099744122
 20
212.7351906243113
 30
0.0
 11
799.6935099744121
 21
213.4351906243113
 31
0.0
 70
    32
 71
     5
 42
3.999999999999768
 73
     0
 74
     0
 75
     0
  3
01
100
AcDbAlignedDimension
 13
797.6935099744125
 23
210.3777738147403
 33
0.0
 14
801.6935099744122
 24
210.75777381474
 34
0.0
100
AcDbRotatedDimension
1001
ACAD
1000
DSTYLE
1002
{
1070
   147
1040
0.2
1070
   140
1040
1.0
1070
    41
1040
0.8
1070
    44
1040
0.2
1002
}
  0
MTEXT
  5
483
330
2
100
AcDbEntity
  8
图框
 62
     3
100
AcDbMText
 10
838.9650820299399
 20
193.3550414723957
 30
0.0
 40
0.746378394635083
 41
8.403098007973925
 46
2.17168637897189
 71
     5
 72
     5
  1
{\C4;CSSM-0.33}
  7
Romans字体
 73
     1
 44
1.0
1001
ACAD
1000
MTEXTBEGIN
1070
    73
1070
     1
1070
    44
1040
1.0
1070
    74
1070
     0
1000
MTEXTEND
1000
ACAD_MTEXT_DEFINED_HEIGHT_BEGIN
1070
    46
1040
2.17168637897189
1000
ACAD_MTEXT_DEFINED_HEIGHT_END
  0
MTEXT
  5
484
330
2
100
AcDbEntity
  8
图框
 62
     3
100
AcDbMText
 10
838.9650820299399
 20
191.1601788381113
 30
0.0
 40
0.746378394635083
 41
8.403098007973925
 46
2.218038889596384
 71
     5
 72
     5
  1
{\C4;1010141100201}
  7
Romans字体
 73
     1
 44
1.0
1001
ACAD
1000
MTEXTBEGIN
1070
    73
1070
     1
1070
    44
1040
1.0
1070
    74
1070
     0
1000
MTEXTEND
1000
ACAD_MTEXT_DEFINED_HEIGHT_BEGIN
1070
    46
1040
2.218038889596384
1000
ACAD_MTEXT_DEFINED_HEIGHT_END
  0
INSERT
  5
485
330
2
100
AcDbEntity
  8
DIM
100
AcDbBlockReference
  2
A4图框-NEW
 10
561.4345050504701
 20
63.87283444410518
 30
0.0
 41
0.25
 42
0.25
 43
0.25
  0
MTEXT
  5
486
330
2
100
AcDbEntity
  8
图框
 62
     3
100
AcDbMText
 10
827.3580150143684
 20
187.7667388273111
 30
0.0
 40
0.746378394635083
 41
2.707336787601192
 46
1.971523801091308
 71
     5
 72
     5
  1
0.18g
  7
Romans字体
 73
     1
 44
1.0
1001
ACAD
1000
MTEXTBEGIN
1070
    73
1070
     1
1070
    44
1040
1.0
1070
    74
1070
     0
1000
MTEXTEND
1000
ACAD_MTEXT_DEFINED_HEIGHT_BEGIN
1070
    46
1040
1.971523801091308
1000
ACAD_MTEXT_DEFINED_HEIGHT_END
  0
MTEXT
  5
487
330
2
100
AcDbEntity
  8
图框
 62
     3
100
AcDbMText
 10
821.9516654713622
 20
187.833269918939
 30
0.0
 40
0.7463783937585367
 41
2.707337108597616
 46
1.971523650302624
 71
     5
 72
     5
  1
4:1
  7
Romans字体
 73
     1
 44
1.0
1001
ACAD
1000
MTEXTBEGIN
1070
    73
1070
     1
1070
    44
1040
1.0
1070
    74
1070
     0
1000
MTEXTEND
1000
ACAD_MTEXT_DEFINED_HEIGHT_BEGIN
1070
    46
1040
1.971523650302624
1000
ACAD_MTEXT_DEFINED_HEIGHT_END
  0
LINE
  5
597
330
2
100
AcDbEntity
  8
图框
370
    -3
100
AcDbLine
 10
800.3155592811799
 20
232.7566068306301
 30
0.0
 11
800.3155592811799
 21
225.9954958964835
 31
0.0
  0
ENDSEC
  0
SECTION
  2
OBJECTS
  0
DICTIONARY
  5
B
330
0
100
AcDbDictionary
281
     1
  3
ACAD_COLOR
350
1EB
  3
ACAD_GROUP
350
1D8
  3
ACAD_LAYOUT
350
1B9
  3
ACAD_MATERIAL
350
D
  3
ACAD_MLEADERSTYLE
350
24C
  3
ACAD_MLINESTYLE
350
1D9
  3
ACAD_PLOTSETTINGS
350
1DA
  3
ACAD_PLOTSTYLENAME
350
A
  3
ACAD_SCALELIST
350
1EC
  3
ACAD_TABLESTYLE
350
1ED
  3
ACAD_VISUALSTYLE
350
1D2
  3
ACDB_RECOMPOSE_DATA
350
23C
  3
AcDbVariableDictionary
350
215
  0
DICTIONARY
  5
1D3
330
1CF
100
AcDbDictionary
280
     1
281
     1
  0
DICTIONARY
  5
1C4
330
1C3
100
AcDbDictionary
280
     1
281
     1
  3
ACAD_LAYERFILTERS
360
5A2
  3
ACAD_LAYERSTATES
360
1C6
  3
ACLYDICTIONARY
360
5A1
  0
DICTIONARY
  5
7
330
6
100
AcDbDictionary
280
     1
281
     1
  3
ADSK_XREC_LAYER_RECONCILED
360
8
  0
DICTIONARY
  5
18
330
17
100
AcDbDictionary
280
     1
281
     1
  3
ADSK_XREC_LAYER_RECONCILED
360
19
  0
DICTIONARY
  5
26
330
25
100
AcDbDictionary
280
     1
281
     1
  3
ADSK_XREC_LAYER_RECONCILED
360
27
  0
DICTIONARY
  5
3
330
2
100
AcDbDictionary
280
     1
281
     1
  3
ACAD_SORTENTS
360
214
  0
DICTIONARY
  5
A5A
330
25B
100
AcDbDictionary
280
     1
281
     1
  0
DICTIONARY
  5
B3F
330
9C5
100
AcDbDictionary
280
     1
281
     1
  3
ACAD_MTEXT_2008_RT
360
B40
  0
DICTIONARY
  5
B41
330
A09
100
AcDbDictionary
280
     1
281
     1
  3
ACAD_MTEXT_2008_RT
360
B42
  0
DICTIONARY
  5
B43
330
A0A
100
AcDbDictionary
280
     1
281
     1
  3
ACAD_MTEXT_2008_RT
360
B44
  0
DICTIONARY
  5
B45
330
A2F
100
AcDbDictionary
280
     1
281
     1
  3
ACAD_MTEXT_2008_RT
360
B46
  0
DICTIONARY
  5
B47
330
A32
100
AcDbDictionary
280
     1
281
     1
  3
ACAD_MTEXT_2008_RT
360
B48
  0
DICTIONARY
  5
B49
330
A33
100
AcDbDictionary
280
     1
281
     1
  3
ACAD_MTEXT_2008_RT
360
B4A
  0
DICTIONARY
  5
B4B
330
A3D
100
AcDbDictionary
280
     1
281
     1
  3
ACAD_MTEXT_2008_RT
360
B4C
  0
DICTIONARY
  5
B4D
330
A3E
100
AcDbDictionary
280
     1
281
     1
  3
ACAD_MTEXT_2008_RT
360
B4E
  0
DICTIONARY
  5
B4F
330
A3F
100
AcDbDictionary
280
     1
281
     1
  3
ACAD_MTEXT_2008_RT
360
B50
  0
DICTIONARY
  5
B51
330
A4D
100
AcDbDictionary
280
     1
281
     1
  3
ACAD_MTEXT_2008_RT
360
B52
  0
DICTIONARY
  5
B53
330
A4E
100
AcDbDictionary
280
     1
281
     1
  3
ACAD_MTEXT_2008_RT
360
B54
  0
DICTIONARY
  5
B55
330
A4F
100
AcDbDictionary
280
     1
281
     1
  3
ACAD_MTEXT_2008_RT
360
B56
  0
DICTIONARY
  5
B3D
330
40C
100
AcDbDictionary
280
     1
281
     1
  3
ACAD_MTEXT_2008_RT
360
B3E
  0
DICTIONARY
  5
1EB
102
{ACAD_REACTORS
330
B
102
}
330
B
100
AcDbDictionary
281
     1
  0
DICTIONARY
  5
1D8
102
{ACAD_REACTORS
330
B
102
}
330
B
100
AcDbDictionary
281
     1
  0
DICTIONARY
  5
1B9
102
{ACAD_REACTORS
330
B
102
}
330
B
100
AcDbDictionary
281
     1
  3
Layout1
350
1BE
  3
Layout2
350
1C2
  3
Model
350
1B8
  0
DICTIONARY
  5
D
102
{ACAD_REACTORS
330
B
102
}
330
B
100
AcDbDictionary
281
     1
  3
ByBlock
350
1E3
  3
ByLayer
350
1DB
  3
Global
350
C
  0
DICTIONARY
  5
24C
102
{ACAD_REACTORS
330
B
102
}
330
B
100
AcDbDictionary
281
     1
  3
Standard
350
24D
  0
DICTIONARY
  5
1D9
102
{ACAD_REACTORS
330
B
102
}
330
B
100
AcDbDictionary
281
     1
  3
Standard
350
1EE
  0
DICTIONARY
  5
1DA
102
{ACAD_REACTORS
330
B
102
}
330
B
100
AcDbDictionary
281
     1
  0
ACDBDICTIONARYWDFLT
  5
A
102
{ACAD_REACTORS
330
B
102
}
330
B
100
AcDbDictionary
281
     1
  3
Normal
350
9
100
AcDbDictionaryWithDefault
340
9
  0
DICTIONARY
  5
1EC
102
{ACAD_REACTORS
330
B
102
}
330
B
100
AcDbDictionary
281
     1
  3
A0
350
1F3
  3
A1
350
1F4
  3
A2
350
1F5
  3
A3
350
1F6
  3
A4
350
1F7
  3
A5
350
1F8
  3
A6
350
1F9
  3
A7
350
1FA
  3
A8
350
1FB
  3
A9
350
1FC
  3
B0
350
1FD
  3
B1
350
1FE
  3
B2
350
1FF
  3
B3
350
200
  3
B4
350
201
  3
B5
350
202
  3
B6
350
203
  3
B7
350
204
  3
B8
350
205
  3
B9
350
206
  3
C0
350
207
  3
C1
350
208
  3
C2
350
209
  3
C3
350
20A
  3
C4
350
20B
  3
C5
350
20C
  3
C6
350
20D
  3
C7
350
20E
  3
C8
350
20F
  3
C9
350
210
  3
D0
350
211
  3
D1
350
212
  3
D2
350
213
  0
DICTIONARY
  5
1ED
102
{ACAD_REACTORS
330
B
102
}
330
B
100
AcDbDictionary
281
     1
  3
Standard
350
1EF
  0
DICTIONARY
  5
1D2
102
{ACAD_REACTORS
330
B
102
}
330
B
100
AcDbDictionary
281
     1
  3
2dWireframe
350
1D1
  3
3D Hidden
350
244
  3
3dWireframe
350
1F2
  3
Basic
350
243
  3
Brighten
350
247
  3
ColorChange
350
24B
  3
Conceptual
350
245
  3
Dim
350
246
  3
Facepattern
350
24A
  3
Flat
350
23F
  3
FlatWithEdges
350
240
  3
Gouraud
350
241
  3
GouraudWithEdges
350
242
  3
Linepattern
350
249
  3
Realistic
350
1F1
  3
Thicken
350
248
  0
XRECORD
  5
23C
102
{ACAD_REACTORS
330
B
102
}
330
B
100
AcDbXrecord
280
     1
 90
        1
330
1EF
330
40C
330
9C5
330
A09
330
A0A
330
A2F
330
A32
330
A33
330
A3D
330
A3E
330
A3F
330
A4D
330
A4E
330
A4F
  0
DICTIONARY
  5
215
102
{ACAD_REACTORS
330
B
102
}
330
B
100
AcDbDictionary
281
     1
  3
CANNOSCALE
350
218
  3
CMLEADERSTYLE
350
217
  3
CTABLESTYLE
350
216
  3
DIMASSOC
350
518
  3
HIDETEXT
350
517
  3
INDEXCTL
350
516
  3
LIGHTINGUNITS
350
219
  3
MSLTSCALE
350
514
  3
SORTENTS
350
515
  0
DICTIONARY
  5
5A2
102
{ACAD_REACTORS
330
1C4
102
}
330
1C4
100
AcDbDictionary
281
     1
  0
DICTIONARY
  5
1C6
102
{ACAD_REACTORS
330
1C4
102
}
330
1C4
100
AcDbDictionary
281
     1
  0
DICTIONARY
  5
5A1
102
{ACAD_REACTORS
330
1C4
102
}
330
1C4
100
AcDbDictionary
281
     1
1001
ACAD
1000
<All
  0
XRECORD
  5
8
102
{ACAD_REACTORS
330
7
102
}
330
7
100
AcDbXrecord
280
     1
290
     1
  0
XRECORD
  5
19
102
{ACAD_REACTORS
330
18
102
}
330
18
100
AcDbXrecord
280
     1
290
     1
  0
XRECORD
  5
27
102
{ACAD_REACTORS
330
26
102
}
330
26
100
AcDbXrecord
280
     1
290
     1
  0
SORTENTSTABLE
  5
214
102
{ACAD_REACTORS
330
3
102
}
330
3
100
AcDbSortentsTable
330
2
  0
XRECORD
  5
B40
102
{ACAD_REACTORS
330
B3F
102
}
330
B3F
100
AcDbXrecord
280
     1
 40
1420.0
  1
\pxqc;YL GAO
  0
XRECORD
  5
B42
102
{ACAD_REACTORS
330
B41
102
}
330
B41
100
AcDbXrecord
280
     1
 40
3624820.0
  1
\pxqc;档案员{\H0.7x;\P\Fromans|c134;Filing Clerk\fFangSong_GB2312|b0|i0|c134|p49; }
  0
XRECORD
  5
B44
102
{ACAD_REACTORS
330
B43
102
}
330
B43
100
AcDbXrecord
280
     1
 40
2054623.0
  1
\pxqc;日期{\Fromans|c134;/Date}
  0
XRECORD
  5
B46
102
{ACAD_REACTORS
330
B45
102
}
330
B45
100
AcDbXrecord
280
     1
 40
1836818.0
  1
\pxsm0.7;{\fFangSong_GB2312|b0|i0|c134|p49;标准化}\PStand.
  0
XRECORD
  5
B48
102
{ACAD_REACTORS
330
B47
102
}
330
B47
100
AcDbXrecord
280
     1
 40
1476476.0
  1
\pxsm0.7;签名\P{\Fromans|c134;Signature} 
  0
XRECORD
  5
B4A
102
{ACAD_REACTORS
330
B49
102
}
330
B49
100
AcDbXrecord
280
     1
 40
1354713.0
  1
\pxsm0.7,qc;处数\P{\Fromans|c134;Number }
  0
XRECORD
  5
B4C
102
{ACAD_REACTORS
330
B4B
102
}
330
B4B
100
AcDbXrecord
280
     1
 40
1692934.0
  1
\pxsm0.7;标记\P{\Fromans|c134;Mark}
  0
XRECORD
  5
B4E
102
{ACAD_REACTORS
330
B4D
102
}
330
B4D
100
AcDbXrecord
280
     1
 40
1391581.0
  1
\pxsm0.7;审核\P{\Fromans|c134;Checked}
  0
XRECORD
  5
B50
102
{ACAD_REACTORS
330
B4F
102
}
330
B4F
100
AcDbXrecord
280
     1
 40
1546703.0
  1
\pxsm0.7;绘图\P{\Fromans|c134;Drawn\Ftxt|c134; }
  0
XRECORD
  5
B52
102
{ACAD_REACTORS
330
B51
102
}
330
B51
100
AcDbXrecord
280
     1
 40
1293614.0
  1
\pxsm0.7;批准\P{\Fromans|c134;Approved}
  0
XRECORD
  5
B54
102
{ACAD_REACTORS
330
B53
102
}
330
B53
100
AcDbXrecord
280
     1
 40
1583427.0
  1
\pxsm0.7;工艺\P{\Fromans|c134;Process}
  0
XRECORD
  5
B56
102
{ACAD_REACTORS
330
B55
102
}
330
B55
100
AcDbXrecord
280
     1
 40
1435325.0
  1
\pxsm0.7;日期\P{\Fromans|c134;Date}
  0
XRECORD
  5
B3E
102
{ACAD_REACTORS
330
B3D
102
}
330
B3D
100
AcDbXrecord
280
     1
 40
325330029.0
  1
\A1;{\f仿宋_GB2312|b0|i0|c134|p49;技术参数}:\P- {\f仿宋_GB2312|b0|i0|c134|p49;材料}: {\f仿宋_GB2312|b0|i0|c134|p49;铜合金}\P- {\f仿宋_GB2312|b0|i0|c134|p49;表面处理}: {\f仿宋_GB2312|b0|i0|c134|p49;镀银}\P\pxql;- {\f仿宋_GB2312|b0|i0|c134|p49;额定电流}: 5A\P- {\f仿宋_GB2312|b0|i0|c13
  1
4|p49;接触电阻}: ≤3mΩ\P- {\f仿宋_GB2312|b0|i0|c134|p49;线径范围}: 0.13-0.33mm{\H0.7x;\S2^ ;}(26-22 AWG)\P\pq*;- {\f仿宋_GB2312|b0|i0|c134|p49;可插拔次数}: {\f仿宋_GB2312|b0|i0|c134|p49;≥}500\P\P\pql;Technical specification:\P- Material: copper alloy\P- Surface: hard-sil
  1
ver plated\P- Rated current: 5A\P- Contact resistance: ≤3mΩ\P- Wire gauge: 0.13-0.33mm{\H0.7x;\S2^ ;}(26-22 AWG)\P- Mating cycles: {\f仿宋_GB2312|b0|i0|c134|p49;≥}500
  0
LAYOUT
  5
1BE
102
{ACAD_REACTORS
330
1B9
102
}
330
1B9
100
AcDbPlotSettings
  1

  2
none_device
  4

  6

 40
0.0
 41
0.0
 42
0.0
 43
0.0
 44
0.0
 45
0.0
 46
0.0
 47
0.0
 48
0.0
 49
0.0
140
0.0
141
0.0
142
1.0
143
1.0
 70
   688
 72
     0
 73
     0
 74
     5
  7

 75
    16
147
1.0
 76
     0
 77
     2
 78
   300
148
0.0
149
0.0
100
AcDbLayout
  1
Layout1
 70
     1
 71
     1
 10
0.0
 20
0.0
 11
12.0
 21
9.0
 12
0.0
 22
0.0
 32
0.0
 14
1.000000000000000E+20
 24
1.000000000000000E+20
 34
1.000000000000000E+20
 15
-1.000000000000000E+20
 25
-1.000000000000000E+20
 35
-1.000000000000000E+20
146
0.0
 13
0.0
 23
0.0
 33
0.0
 16
1.0
 26
0.0
 36
0.0
 17
0.0
 27
1.0
 37
0.0
 76
     0
330
1BB
  0
LAYOUT
  5
1C2
102
{ACAD_REACTORS
330
1B9
102
}
330
1B9
100
AcDbPlotSettings
  1

  2
none_device
  4

  6

 40
0.0
 41
0.0
 42
0.0
 43
0.0
 44
0.0
 45
0.0
 46
0.0
 47
0.0
 48
0.0
 49
0.0
140
0.0
141
0.0
142
1.0
143
1.0
 70
   688
 72
     0
 73
     0
 74
     5
  7

 75
    16
147
1.0
 76
     0
 77
     2
 78
   300
148
0.0
149
0.0
100
AcDbLayout
  1
Layout2
 70
     1
 71
     2
 10
0.0
 20
0.0
 11
0.0
 21
0.0
 12
0.0
 22
0.0
 32
0.0
 14
0.0
 24
0.0
 34
0.0
 15
0.0
 25
0.0
 35
0.0
146
0.0
 13
0.0
 23
0.0
 33
0.0
 16
1.0
 26
0.0
 36
0.0
 17
0.0
 27
1.0
 37
0.0
 76
     0
330
1BF
  0
LAYOUT
  5
1B8
102
{ACAD_REACTORS
330
1B9
102
}
330
1B9
100
AcDbPlotSettings
  1

  2
Adobe PDF Converter.pc3
  4
A4
  6

 40
3.174999952316281
 41
3.174999952316281
 42
3.17498779296875
 43
3.175003051757812
 44
297.0318298339844
 45
209.9733276367186
 46
0.0000000000000076
 47
1.630241740247063
 48
246.9897427644609
 49
39.36804549891383
140
544.952097801264
141
244.7492402188181
142
1.0
143
1.025046328645055
 70
  3764
 72
     1
 73
     0
 74
     4
  7
monochrome.ctb
 75
     0
147
0.9755656618192436
 76
     1
 77
     2
 78
   300
148
-246.9897427644609
149
-39.36804549891383
100
AcDbLayout
  1
Model
 70
     1
 71
     0
 10
0.0
 20
0.0
 11
12.0
 21
9.0
 12
0.0
 22
0.0
 32
0.0
 14
1.000000000000000E+20
 24
1.000000000000000E+20
 34
1.000000000000000E+20
 15
-1.000000000000000E+20
 25
-1.000000000000000E+20
 35
-1.000000000000000E+20
146
0.0
 13
0.0
 23
0.0
 33
0.0
 16
1.0
 26
0.0
 36
0.0
 17
0.0
 27
1.0
 37
0.0
 76
     0
330
2
331
1D0
1001
ACAD_PSEXT
1000
Adobe PDF Converter.pc3
1000
Adobe PDF Converter
1000
桌面\*.pdf
1000

1070
     0
  0
MATERIAL
  5
1E3
102
{ACAD_XDICTIONARY
360
1E4
102
}
102
{ACAD_REACTORS
330
D
102
}
330
D
100
AcDbMaterial
  1
ByBlock
 72
     0
 43
0.0208333333333333
 43
0.0
 43
0.0
 43
0.0
 43
0.0
 43
0.0208333333333333
 43
0.0
 43
0.0
 43
0.0
 43
0.0
 43
1.0
 43
0.0
 43
0.0
 43
0.0
 43
0.0
 43
1.0
 77
     0
 47
0.0208333333333333
 47
0.0
 47
0.0
 47
0.0
 47
0.0
 47
0.0208333333333333
 47
0.0
 47
0.0
 47
0.0
 47
0.0
 47
1.0
 47
0.0
 47
0.0
 47
0.0
 47
0.0
 47
1.0
171
     0
 49
0.0208333333333333
 49
0.0
 49
0.0
 49
0.0
 49
0.0
 49
0.0208333333333333
 49
0.0
 49
0.0
 49
0.0
 49
0.0
 49
1.0
 49
0.0
 49
0.0
 49
0.0
 49
0.0
 49
1.0
175
     0
142
0.0208333333333333
142
0.0
142
0.0
142
0.0
142
0.0
142
0.0208333333333333
142
0.0
142
0.0
142
0.0
142
0.0
142
1.0
142
0.0
142
0.0
142
0.0
142
0.0
142
1.0
179
     0
144
0.0208333333333333
144
0.0
144
0.0
144
0.0
144
0.0
144
0.0208333333333333
144
0.0
144
0.0
144
0.0
144
0.0
144
1.0
144
0.0
144
0.0
144
0.0
144
0.0
144
1.0
147
0.0208333333333333
147
0.0
147
0.0
147
0.0
147
0.0
147
0.0208333333333333
147
0.0
147
0.0
147
0.0
147
0.0
147
1.0
147
0.0
147
0.0
147
0.0
147
0.0
147
1.0
  0
MATERIAL
  5
1DB
102
{ACAD_XDICTIONARY
360
1DC
102
}
102
{ACAD_REACTORS
330
D
102
}
330
D
100
AcDbMaterial
  1
ByLayer
 72
     0
 43
0.0208333333333333
 43
0.0
 43
0.0
 43
0.0
 43
0.0
 43
0.0208333333333333
 43
0.0
 43
0.0
 43
0.0
 43
0.0
 43
1.0
 43
0.0
 43
0.0
 43
0.0
 43
0.0
 43
1.0
 77
     0
 47
0.0208333333333333
 47
0.0
 47
0.0
 47
0.0
 47
0.0
 47
0.0208333333333333
 47
0.0
 47
0.0
 47
0.0
 47
0.0
 47
1.0
 47
0.0
 47
0.0
 47
0.0
 47
0.0
 47
1.0
171
     0
 49
0.0208333333333333
 49
0.0
 49
0.0
 49
0.0
 49
0.0
 49
0.0208333333333333
 49
0.0
 49
0.0
 49
0.0
 49
0.0
 49
1.0
 49
0.0
 49
0.0
 49
0.0
 49
0.0
 49
1.0
175
     0
142
0.0208333333333333
142
0.0
142
0.0
142
0.0
142
0.0
142
0.0208333333333333
142
0.0
142
0.0
142
0.0
142
0.0
142
1.0
142
0.0
142
0.0
142
0.0
142
0.0
142
1.0
179
     0
144
0.0208333333333333
144
0.0
144
0.0
144
0.0
144
0.0
144
0.0208333333333333
144
0.0
144
0.0
144
0.0
144
0.0
144
1.0
144
0.0
144
0.0
144
0.0
144
0.0
144
1.0
147
0.0208333333333333
147
0.0
147
0.0
147
0.0
147
0.0
147
0.0208333333333333
147
0.0
147
0.0
147
0.0
147
0.0
147
1.0
147
0.0
147
0.0
147
0.0
147
0.0
147
1.0
  0
MATERIAL
  5
C
102
{ACAD_XDICTIONARY
360
E
102
}
102
{ACAD_REACTORS
330
D
102
}
330
D
100
AcDbMaterial
  1
Global
 72
     0
 43
0.0208333333333333
 43
0.0
 43
0.0
 43
0.0
 43
0.0
 43
0.0208333333333333
 43
0.0
 43
0.0
 43
0.0
 43
0.0
 43
1.0
 43
0.0
 43
0.0
 43
0.0
 43
0.0
 43
1.0
 77
     0
 47
0.0208333333333333
 47
0.0
 47
0.0
 47
0.0
 47
0.0
 47
0.0208333333333333
 47
0.0
 47
0.0
 47
0.0
 47
0.0
 47
1.0
 47
0.0
 47
0.0
 47
0.0
 47
0.0
 47
1.0
171
     0
 49
0.0208333333333333
 49
0.0
 49
0.0
 49
0.0
 49
0.0
 49
0.0208333333333333
 49
0.0
 49
0.0
 49
0.0
 49
0.0
 49
1.0
 49
0.0
 49
0.0
 49
0.0
 49
0.0
 49
1.0
175
     0
142
0.0208333333333333
142
0.0
142
0.0
142
0.0
142
0.0
142
0.0208333333333333
142
0.0
142
0.0
142
0.0
142
0.0
142
1.0
142
0.0
142
0.0
142
0.0
142
0.0
142
1.0
179
     0
144
0.0208333333333333
144
0.0
144
0.0
144
0.0
144
0.0
144
0.0208333333333333
144
0.0
144
0.0
144
0.0
144
0.0
144
1.0
144
0.0
144
0.0
144
0.0
144
0.0
144
1.0
147
0.0208333333333333
147
0.0
147
0.0
147
0.0
147
0.0
147
0.0208333333333333
147
0.0
147
0.0
147
0.0
147
0.0
147
1.0
147
0.0
147
0.0
147
0.0
147
0.0
147
1.0
  0
MLEADERSTYLE
  5
24D
102
{ACAD_REACTORS
330
24C
102
}
330
24C
100
AcDbMLeaderStyle
170
     2
171
     1
172
     0
 90
        2
 40
0.0
 41
0.0
173
     1
 91
-1056964608
340
1CB
 92
       -2
290
     1
 42
0.09
291
     1
 43
0.36
  3
Standard
 44
0.18
300

342
46
174
     1
178
     6
175
     1
176
     0
 93
-1056964608
 45
0.18
292
     0
297
     0
 46
0.18
 94
-1056964608
 47
1.0
 49
1.0
140
1.0
293
     1
141
0.0
294
     1
177
     0
142
1.0
295
     0
296
     0
143
0.125
1001
ACAD_MLEADERVER
1070
     2
  0
MLINESTYLE
  5
1EE
102
{ACAD_REACTORS
330
1D9
102
}
330
1D9
100
AcDbMlineStyle
  2
STANDARD
 70
     0
  3

 62
   256
 51
90.0
 52
90.0
 71
     2
 49
0.5
 62
   256
  6
BYLAYER
 49
-0.5
 62
   256
  6
BYLAYER
  0
ACDBPLACEHOLDER
  5
9
102
{ACAD_REACTORS
330
A
102
}
330
A
  0
SCALE
  5
1F3
102
{ACAD_REACTORS
330
1EC
102
}
330
1EC
100
AcDbScale
 70
     0
300
1:1
140
1.0
141
1.0
290
     1
  0
SCALE
  5
1F4
102
{ACAD_REACTORS
330
1EC
102
}
330
1EC
100
AcDbScale
 70
     0
300
1:2
140
1.0
141
2.0
290
     0
  0
SCALE
  5
1F5
102
{ACAD_REACTORS
330
1EC
102
}
330
1EC
100
AcDbScale
 70
     0
300
1:4
140
1.0
141
4.0
290
     0
  0
SCALE
  5
1F6
102
{ACAD_REACTORS
330
1EC
102
}
330
1EC
100
AcDbScale
 70
     0
300
1:5
140
1.0
141
5.0
290
     0
  0
SCALE
  5
1F7
102
{ACAD_REACTORS
330
1EC
102
}
330
1EC
100
AcDbScale
 70
     0
300
1:8
140
1.0
141
8.0
290
     0
  0
SCALE
  5
1F8
102
{ACAD_REACTORS
330
1EC
102
}
330
1EC
100
AcDbScale
 70
     0
300
1:10
140
1.0
141
10.0
290
     0
  0
SCALE
  5
1F9
102
{ACAD_REACTORS
330
1EC
102
}
330
1EC
100
AcDbScale
 70
     0
300
1:16
140
1.0
141
16.0
290
     0
  0
SCALE
  5
1FA
102
{ACAD_REACTORS
330
1EC
102
}
330
1EC
100
AcDbScale
 70
     0
300
1:20
140
1.0
141
20.0
290
     0
  0
SCALE
  5
1FB
102
{ACAD_REACTORS
330
1EC
102
}
330
1EC
100
AcDbScale
 70
     0
300
1:30
140
1.0
141
30.0
290
     0
  0
SCALE
  5
1FC
102
{ACAD_REACTORS
330
1EC
102
}
330
1EC
100
AcDbScale
 70
     0
300
1:40
140
1.0
141
40.0
290
     0
  0
SCALE
  5
1FD
102
{ACAD_REACTORS
330
1EC
102
}
330
1EC
100
AcDbScale
 70
     0
300
1:50
140
1.0
141
50.0
290
     0
  0
SCALE
  5
1FE
102
{ACAD_REACTORS
330
1EC
102
}
330
1EC
100
AcDbScale
 70
     0
300
1:100
140
1.0
141
100.0
290
     0
  0
SCALE
  5
1FF
102
{ACAD_REACTORS
330
1EC
102
}
330
1EC
100
AcDbScale
 70
     0
300
2:1
140
2.0
141
1.0
290
     0
  0
SCALE
  5
200
102
{ACAD_REACTORS
330
1EC
102
}
330
1EC
100
AcDbScale
 70
     0
300
4:1
140
4.0
141
1.0
290
     0
  0
SCALE
  5
201
102
{ACAD_REACTORS
330
1EC
102
}
330
1EC
100
AcDbScale
 70
     0
300
8:1
140
8.0
141
1.0
290
     0
  0
SCALE
  5
202
102
{ACAD_REACTORS
330
1EC
102
}
330
1EC
100
AcDbScale
 70
     0
300
10:1
140
10.0
141
1.0
290
     0
  0
SCALE
  5
203
102
{ACAD_REACTORS
330
1EC
102
}
330
1EC
100
AcDbScale
 70
     0
300
100:1
140
100.0
141
1.0
290
     0
  0
SCALE
  5
204
102
{ACAD_REACTORS
330
1EC
102
}
330
1EC
100
AcDbScale
 70
     0
300
1/128" = 1'-0"
140
0.0078125
141
12.0
290
     0
  0
SCALE
  5
205
102
{ACAD_REACTORS
330
1EC
102
}
330
1EC
100
AcDbScale
 70
     0
300
1/64" = 1'-0"
140
0.015625
141
12.0
290
     0
  0
SCALE
  5
206
102
{ACAD_REACTORS
330
1EC
102
}
330
1EC
100
AcDbScale
 70
     0
300
1/32" = 1'-0"
140
0.03125
141
12.0
290
     0
  0
SCALE
  5
207
102
{ACAD_REACTORS
330
1EC
102
}
330
1EC
100
AcDbScale
 70
     0
300
1/16" = 1'-0"
140
0.0625
141
12.0
290
     0
  0
SCALE
  5
208
102
{ACAD_REACTORS
330
1EC
102
}
330
1EC
100
AcDbScale
 70
     0
300
3/32" = 1'-0"
140
0.09375
141
12.0
290
     0
  0
SCALE
  5
209
102
{ACAD_REACTORS
330
1EC
102
}
330
1EC
100
AcDbScale
 70
     0
300
1/8" = 1'-0"
140
0.125
141
12.0
290
     0
  0
SCALE
  5
20A
102
{ACAD_REACTORS
330
1EC
102
}
330
1EC
100
AcDbScale
 70
     0
300
3/16" = 1'-0"
140
0.1875
141
12.0
290
     0
  0
SCALE
  5
20B
102
{ACAD_REACTORS
330
1EC
102
}
330
1EC
100
AcDbScale
 70
     0
300
1/4" = 1'-0"
140
0.25
141
12.0
290
     0
  0
SCALE
  5
20C
102
{ACAD_REACTORS
330
1EC
102
}
330
1EC
100
AcDbScale
 70
     0
300
3/8" = 1'-0"
140
0.375
141
12.0
290
     0
  0
SCALE
  5
20D
102
{ACAD_REACTORS
330
1EC
102
}
330
1EC
100
AcDbScale
 70
     0
300
1/2" = 1'-0"
140
0.5
141
12.0
290
     0
  0
SCALE
  5
20E
102
{ACAD_REACTORS
330
1EC
102
}
330
1EC
100
AcDbScale
 70
     0
300
3/4" = 1'-0"
140
0.75
141
12.0
290
     0
  0
SCALE
  5
20F
102
{ACAD_REACTORS
330
1EC
102
}
330
1EC
100
AcDbScale
 70
     0
300
1" = 1'-0"
140
1.0
141
12.0
290
     0
  0
SCALE
  5
210
102
{ACAD_REACTORS
330
1EC
102
}
330
1EC
100
AcDbScale
 70
     0
300
1-1/2" = 1'-0"
140
1.5
141
12.0
290
     0
  0
SCALE
  5
211
102
{ACAD_REACTORS
330
1EC
102
}
330
1EC
100
AcDbScale
 70
     0
300
3" = 1'-0"
140
3.0
141
12.0
290
     0
  0
SCALE
  5
212
102
{ACAD_REACTORS
330
1EC
102
}
330
1EC
100
AcDbScale
 70
     0
300
6" = 1'-0"
140
6.0
141
12.0
290
     0
  0
SCALE
  5
213
102
{ACAD_REACTORS
330
1EC
102
}
330
1EC
100
AcDbScale
 70
     0
300
1'-0" = 1'-0"
140
12.0
141
12.0
290
     0
  0
TABLESTYLE
  5
1EF
102
{ACAD_XDICTIONARY
360
1F0
102
}
102
{ACAD_REACTORS
330
1ED
102
}
330
1ED
100
AcDbTableStyle
  3
Standard
 70
     0
 71
     0
 40
0.06
 41
0.06
280
     0
281
     0
  7
Standard
140
0.18
170
     2
 62
     0
 63
     7
283
     0
 90
      512
 91
        0
  1

274
    -2
284
     1
 64
     0
275
    -2
285
     1
 65
     0
276
    -2
286
     1
 66
     0
277
    -2
287
     1
 67
     0
278
    -2
288
     1
 68
     0
279
    -2
289
     1
 69
     0
  7
Standard
140
0.25
170
     5
 62
     0
 63
     7
283
     0
 90
      512
 91
        0
  1

274
    -2
284
     1
 64
     0
275
    -2
285
     1
 65
     0
276
    -2
286
     1
 66
     0
277
    -2
287
     1
 67
     0
278
    -2
288
     1
 68
     0
279
    -2
289
     1
 69
     0
  7
Standard
140
0.18
170
     5
 62
     0
 63
     7
283
     0
 90
      512
 91
        0
  1

274
    -2
284
     1
 64
     0
275
    -2
285
     1
 65
     0
276
    -2
286
     1
 66
     0
277
    -2
287
     1
 67
     0
278
    -2
288
     1
 68
     0
279
    -2
289
     1
 69
     0
  0
VISUALSTYLE
  5
1D1
102
{ACAD_REACTORS
330
1D2
102
}
330
1D2
100
AcDbVisualStyle
  2
2dWireframe
 70
     4
 71
     0
 72
     2
 73
     0
 90
        0
 40
-0.6
 41
-30.0
 62
     5
 63
     7
 74
     1
 91
        4
 64
     7
 65
   257
 75
     1
175
     1
 42
1.0
 92
        0
 66
   257
 43
1.0
 76
     1
 77
     6
 78
     2
 67
     7
 79
     5
170
     0
171
     0
290
     0
174
     0
 93
        1
 44
0.0
173
     0
291
     0
 45
0.0
1001
ACAD
1000
AcDbSavedByObjectVersion
1070
     0
1000
AcDbSavedByObjectVersion
1070
     0
1000
AcDbSavedByObjectVersion
1070
     0
1000
AcDbSavedByObjectVersion
1070
     0
1000
AcDbSavedByObjectVersion
1070
     0
1000
AcDbSavedByObjectVersion
1070
     0
1000
AcDbSavedByObjectVersion
1070
     0
1000
AcDbSavedByObjectVersion
1070
     0
1000
AcDbSavedByObjectVersion
1070
     0
1000
AcDbSavedByObjectVersion
1070
     0
1000
AcDbSavedByObjectVersion
1070
     0
1000
AcDbSavedByObjectVersion
1070
     0
1000
AcDbSavedByObjectVersion
1070
     0
1000
AcDbSavedByObjectVersion
1070
     0
1000
AcDbSavedByObjectVersion
1070
     0
1000
AcDbSavedByObjectVersion
1070
     0
1000
AcDbSavedByObjectVersion
1070
     0
1000
AcDbSavedByObjectVersion
1070
     0
1000
AcDbSavedByObjectVersion
1070
     0
1000
AcDbSavedByObjectVersion
1070
     0
1000
AcDbSavedByObjectVersion
1070
     0
1000
AcDbSavedByObjectVersion
1070
     0
1000
AcDbSavedByObjectVersion
1070
     0
1000
AcDbSavedByObjectVersion
1070
     0
1000
AcDbSavedByObjectVersion
1070
     0
1000
AcDbSavedByObjectVersion
1070
     0
1000
AcDbSavedByObjectVersion
1070
     0
1000
AcDbSavedByObjectVersion
1070
     0
1000
AcDbSavedByObjectVersion
1070
     0
1000
AcDbSavedByObjectVersion
1070
     0
1000
AcDbSavedByObjectVersion
1070
     0
1000
AcDbSavedByObjectVersion
1070
     0
1000
AcDbSavedByObjectVersion
1070
     0
1000
AcDbSavedByObjectVersion
1070
     0
1000
AcDbSavedByObjectVersion
1070
     0
1000
AcDbSavedByObjectVersion
1070
     0
1000
AcDbSavedByObjectVersion
1070
     0
  0
VISUALSTYLE
  5
244
102
{ACAD_REACTORS
330
1D2
102
}
330
1D2
100
AcDbVisualStyle
  2
3D Hidden
 70
     6
 71
     1
 72
     2
 73
     2
 90
        0
 40
-0.6
 41
-30.0
 62
     5
 63
     7
 74
     2
 91
        2
 64
     7
 65
   257
 75
     2
175
     1
 42
40.0
 92
        0
 66
   257
 43
1.0
 76
     1
 77
     6
 78
     2
 67
     7
 79
     3
170
     0
171
     0
290
     0
174
     0
 93
        1
 44
0.0
173
     0
291
     0
 45
0.0
1001
ACAD
1000
AcDbSavedByObjectVersion
1070
     0
1000
AcDbSavedByObjectVersion
1070
     0
1000
AcDbSavedByObjectVersion
1070
     0
1000
AcDbSavedByObjectVersion
1070
     0
1000
AcDbSavedByObjectVersion
1070
     0
  0
VISUALSTYLE
  5
1F2
102
{ACAD_REACTORS
330
1D2
102
}
330
1D2
100
AcDbVisualStyle
  2
3dWireframe
 70
     5
 71
     0
 72
     2
 73
     0
 90
        0
 40
-0.6
 41
-30.0
 62
     5
 63
     7
 74
     1
 91
        4
 64
     7
 65
   257
 75
     1
175
     1
 42
1.0
 92
        0
 66
   257
 43
1.0
 76
     1
 77
     6
 78
     2
 67
     7
 79
     5
170
     0
171
     0
290
     0
174
     0
 93
        1
 44
0.0
173
     0
291
     0
 45
0.0
1001
ACAD
1000
AcDbSavedByObjectVersion
1070
     0
1000
AcDbSavedByObjectVersion
1070
     0
1000
AcDbSavedByObjectVersion
1070
     0
1000
AcDbSavedByObjectVersion
1070
     0
1000
AcDbSavedByObjectVersion
1070
     0
1000
AcDbSavedByObjectVersion
1070
     0
1000
AcDbSavedByObjectVersion
1070
     0
1000
AcDbSavedByObjectVersion
1070
     0
1000
AcDbSavedByObjectVersion
1070
     0
1000
AcDbSavedByObjectVersion
1070
     0
1000
AcDbSavedByObjectVersion
1070
     0
1000
AcDbSavedByObjectVersion
1070
     0
1000
AcDbSavedByObjectVersion
1070
     0
1000
AcDbSavedByObjectVersion
1070
     0
1000
AcDbSavedByObjectVersion
1070
     0
1000
AcDbSavedByObjectVersion
1070
     0
1000
AcDbSavedByObjectVersion
1070
     0
1000
AcDbSavedByObjectVersion
1070
     0
1000
AcDbSavedByObjectVersion
1070
     0
1000
AcDbSavedByObjectVersion
1070
     0
1000
AcDbSavedByObjectVersion
1070
     0
1000
AcDbSavedByObjectVersion
1070
     0
1000
AcDbSavedByObjectVersion
1070
     0
1000
AcDbSavedByObjectVersion
1070
     0
1000
AcDbSavedByObjectVersion
1070
     0
1000
AcDbSavedByObjectVersion
1070
     0
1000
AcDbSavedByObjectVersion
1070
     0
1000
AcDbSavedByObjectVersion
1070
     0
1000
AcDbSavedByObjectVersion
1070
     0
1000
AcDbSavedByObjectVersion
1070
     0
1000
AcDbSavedByObjectVersion
1070
     0
1000
AcDbSavedByObjectVersion
1070
     0
1000
AcDbSavedByObjectVersion
1070
     0
1000
AcDbSavedByObjectVersion
1070
     0
1000
AcDbSavedByObjectVersion
1070
     0
1000
AcDbSavedByObjectVersion
1070
     0
1000
AcDbSavedByObjectVersion
1070
     0
  0
VISUALSTYLE
  5
243
102
{ACAD_REACTORS
330
1D2
102
}
330
1D2
100
AcDbVisualStyle
  2
Basic
 70
     7
 71
     1
 72
     0
 73
     1
 90
        0
 40
-0.6
 41
-30.0
 62
     5
 63
     7
 74
     0
 91
        4
 64
     7
 65
   257
 75
     1
175
     1
 42
1.0
 92
        8
 66
     7
 43
1.0
 76
     1
 77
     6
 78
     2
 67
     7
 79
     5
170
     0
171
     0
290
     0
174
     0
 93
        1
 44
0.0
173
     0
291
     1
 45
0.0
1001
ACAD
1000
AcDbSavedByObjectVersion
1070
     0
1000
AcDbSavedByObjectVersion
1070
     0
1000
AcDbSavedByObjectVersion
1070
     0
1000
AcDbSavedByObjectVersion
1070
     0
1000
AcDbSavedByObjectVersion
1070
     0
  0
VISUALSTYLE
  5
247
102
{ACAD_REACTORS
330
1D2
102
}
330
1D2
100
AcDbVisualStyle
  2
Brighten
 70
    12
 71
     2
 72
     2
 73
     0
 90
        0
 40
-0.6
 41
-30.0
 62
     5
 63
     7
 74
     1
 91
        4
 64
     7
 65
   257
 75
     1
175
     1
 42
1.0
 92
        8
 66
     7
 43
1.0
 76
     1
 77
     6
 78
     2
 67
     7
 79
     5
170
     0
171
     0
290
     0
174
     0
 93
        1
 44
50.0
173
     0
291
     1
 45
0.0
1001
ACAD
1000
AcDbSavedByObjectVersion
1070
     0
1000
AcDbSavedByObjectVersion
1070
     0
1000
AcDbSavedByObjectVersion
1070
     0
1000
AcDbSavedByObjectVersion
1070
     0
1000
AcDbSavedByObjectVersion
1070
     0
  0
VISUALSTYLE
  5
24B
102
{ACAD_REACTORS
330
1D2
102
}
330
1D2
100
AcDbVisualStyle
  2
ColorChange
 70
    16
 71
     2
 72
     2
 73
     3
 90
        0
 40
-0.6
 41
-30.0
 62
     5
 63
     8
 74
     1
 91
        4
 64
     7
 65
   257
 75
     1
175
     1
 42
1.0
 92
        8
 66
     8
 43
1.0
 76
     1
 77
     6
 78
     2
 67
     7
 79
     5
170
     0
171
     0
290
     0
174
     0
 93
        1
 44
0.0
173
     0
291
     1
 45
0.0
1001
ACAD
1000
AcDbSavedByObjectVersion
1070
     0
1000
AcDbSavedByObjectVersion
1070
     0
1000
AcDbSavedByObjectVersion
1070
     0
1000
AcDbSavedByObjectVersion
1070
     0
1000
AcDbSavedByObjectVersion
1070
     0
  0
VISUALSTYLE
  5
245
102
{ACAD_REACTORS
330
1D2
102
}
330
1D2
100
AcDbVisualStyle
  2
Conceptual
 70
     9
 71
     3
 72
     2
 73
     0
 90
        0
 40
-0.6
 41
-30.0
 62
     5
 63
     7
 74
     2
 91
        2
 64
     7
 65
   257
 75
     1
175
     1
 42
40.0
 92
        8
 66
     7
 43
1.0
 76
     1
 77
     6
 78
     2
 67
     7
 79
     3
170
     0
171
     0
290
     0
174
     0
 93
        1
 44
0.0
173
     0
291
     0
 45
0.0
1001
ACAD
1000
AcDbSavedByObjectVersion
1070
     0
1000
AcDbSavedByObjectVersion
1070
     0
1000
AcDbSavedByObjectVersion
1070
     0
1000
AcDbSavedByObjectVersion
1070
     0
1000
AcDbSavedByObjectVersion
1070
     0
  0
VISUALSTYLE
  5
246
102
{ACAD_REACTORS
330
1D2
102
}
330
1D2
100
AcDbVisualStyle
  2
Dim
 70
    11
 71
     2
 72
     2
 73
     0
 90
        0
 40
-0.6
 41
-30.0
 62
     5
 63
     7
 74
     1
 91
        4
 64
     7
 65
   257
 75
     1
175
     1
 42
1.0
 92
        8
 66
     7
 43
1.0
 76
     1
 77
     6
 78
     2
 67
     7
 79
     5
170
     0
171
     0
290
     0
174
     0
 93
        1
 44
-50.0
173
     0
291
     1
 45
0.0
1001
ACAD
1000
AcDbSavedByObjectVersion
1070
     0
1000
AcDbSavedByObjectVersion
1070
     0
1000
AcDbSavedByObjectVersion
1070
     0
1000
AcDbSavedByObjectVersion
1070
     0
1000
AcDbSavedByObjectVersion
1070
     0
  0
VISUALSTYLE
  5
24A
102
{ACAD_REACTORS
330
1D2
102
}
330
1D2
100
AcDbVisualStyle
  2
Facepattern
 70
    15
 71
     2
 72
     2
 73
     0
 90
        0
 40
-0.6
 41
-30.0
 62
     5
 63
     7
 74
     1
 91
        4
 64
     7
 65
   257
 75
     1
175
     1
 42
1.0
 92
        8
 66
     7
 43
1.0
 76
     1
 77
     6
 78
     2
 67
     7
 79
     5
170
     0
171
     0
290
     0
174
     0
 93
        1
 44
0.0
173
     0
291
     1
 45
0.0
1001
ACAD
1000
AcDbSavedByObjectVersion
1070
     0
1000
AcDbSavedByObjectVersion
1070
     0
1000
AcDbSavedByObjectVersion
1070
     0
1000
AcDbSavedByObjectVersion
1070
     0
1000
AcDbSavedByObjectVersion
1070
     0
  0
VISUALSTYLE
  5
23F
102
{ACAD_REACTORS
330
1D2
102
}
330
1D2
100
AcDbVisualStyle
  2
Flat
 70
     0
 71
     2
 72
     1
 73
     1
 90
        2
 40
-0.6
 41
30.0
 62
     5
 63
     7
 74
     0
 91
        4
 64
     7
 65
   257
 75
     1
175
     1
 42
1.0
 92
        8
 66
     7
 43
1.0
 76
     1
 77
     6
 78
     2
 67
     7
 79
     5
170
     0
171
     0
290
     0
174
     0
 93
       13
 44
0.0
173
     0
291
     1
 45
0.0
1001
ACAD
1000
AcDbSavedByObjectVersion
1070
     0
1000
AcDbSavedByObjectVersion
1070
     0
1000
AcDbSavedByObjectVersion
1070
     0
1000
AcDbSavedByObjectVersion
1070
     0
1000
AcDbSavedByObjectVersion
1070
     0
  0
VISUALSTYLE
  5
240
102
{ACAD_REACTORS
330
1D2
102
}
330
1D2
100
AcDbVisualStyle
  2
FlatWithEdges
 70
     1
 71
     2
 72
     1
 73
     1
 90
        2
 40
-0.6
 41
30.0
 62
     5
 63
     7
 74
     1
 91
        4
 64
     7
 65
   257
 75
     1
175
     1
 42
1.0
 92
        0
 66
   257
 43
1.0
 76
     1
 77
     6
 78
     2
 67
     7
 79
     5
170
     0
171
     0
290
     0
174
     0
 93
       13
 44
0.0
173
     0
291
     1
 45
0.0
1001
ACAD
1000
AcDbSavedByObjectVersion
1070
     0
1000
AcDbSavedByObjectVersion
1070
     0
1000
AcDbSavedByObjectVersion
1070
     0
1000
AcDbSavedByObjectVersion
1070
     0
1000
AcDbSavedByObjectVersion
1070
     0
  0
VISUALSTYLE
  5
241
102
{ACAD_REACTORS
330
1D2
102
}
330
1D2
100
AcDbVisualStyle
  2
Gouraud
 70
     2
 71
     2
 72
     2
 73
     1
 90
        2
 40
-0.6
 41
30.0
 62
     5
 63
     7
 74
     0
 91
        4
 64
     7
 65
   257
 75
     1
175
     1
 42
1.0
 92
        0
 66
     7
 43
1.0
 76
     1
 77
     6
 78
     2
 67
     7
 79
     5
170
     0
171
     0
290
     0
174
     0
 93
       13
 44
0.0
173
     0
291
     1
 45
0.0
1001
ACAD
1000
AcDbSavedByObjectVersion
1070
     0
1000
AcDbSavedByObjectVersion
1070
     0
1000
AcDbSavedByObjectVersion
1070
     0
1000
AcDbSavedByObjectVersion
1070
     0
1000
AcDbSavedByObjectVersion
1070
     0
  0
VISUALSTYLE
  5
242
102
{ACAD_REACTORS
330
1D2
102
}
330
1D2
100
AcDbVisualStyle
  2
GouraudWithEdges
 70
     3
 71
     2
 72
     2
 73
     1
 90
        2
 40
-0.6
 41
30.0
 62
     5
 63
     7
 74
     1
 91
        4
 64
     7
 65
   257
 75
     1
175
     1
 42
1.0
 92
        0
 66
   257
 43
1.0
 76
     1
 77
     6
 78
     2
 67
     7
 79
     5
170
     0
171
     0
290
     0
174
     0
 93
       13
 44
0.0
173
     0
291
     1
 45
0.0
1001
ACAD
1000
AcDbSavedByObjectVersion
1070
     0
1000
AcDbSavedByObjectVersion
1070
     0
1000
AcDbSavedByObjectVersion
1070
     0
1000
AcDbSavedByObjectVersion
1070
     0
1000
AcDbSavedByObjectVersion
1070
     0
  0
VISUALSTYLE
  5
249
102
{ACAD_REACTORS
330
1D2
102
}
330
1D2
100
AcDbVisualStyle
  2
Linepattern
 70
    14
 71
     2
 72
     2
 73
     0
 90
        0
 40
-0.6
 41
-30.0
 62
     5
 63
     7
 74
     1
 91
        4
 64
     7
 65
   257
 75
     7
175
     7
 42
1.0
 92
        8
 66
     7
 43
1.0
 76
     1
 77
     6
 78
     2
 67
     7
 79
     5
170
     0
171
     0
290
     0
174
     0
 93
        1
 44
0.0
173
     0
291
     1
 45
0.0
1001
ACAD
1000
AcDbSavedByObjectVersion
1070
     0
1000
AcDbSavedByObjectVersion
1070
     0
1000
AcDbSavedByObjectVersion
1070
     0
1000
AcDbSavedByObjectVersion
1070
     0
1000
AcDbSavedByObjectVersion
1070
     0
  0
VISUALSTYLE
  5
1F1
102
{ACAD_REACTORS
330
1D2
102
}
330
1D2
100
AcDbVisualStyle
  2
Realistic
 70
     8
 71
     2
 72
     2
 73
     0
 90
        0
 40
-0.6
 41
-30.0
 62
     5
 63
     7
 74
     1
 91
        0
 64
     7
 65
   257
 75
     1
175
     1
 42
1.0
 92
        8
 66
     8
 43
1.0
 76
     1
 77
     6
 78
     2
 67
     7
 79
     5
170
     0
171
     0
290
     0
174
     0
 93
       13
 44
0.0
173
     0
291
     0
 45
0.0
1001
ACAD
1000
AcDbSavedByObjectVersion
1070
     0
1000
AcDbSavedByObjectVersion
1070
     0
1000
AcDbSavedByObjectVersion
1070
     0
1000
AcDbSavedByObjectVersion
1070
     0
1000
AcDbSavedByObjectVersion
1070
     0
1000
AcDbSavedByObjectVersion
1070
     0
1000
AcDbSavedByObjectVersion
1070
     0
1000
AcDbSavedByObjectVersion
1070
     0
1000
AcDbSavedByObjectVersion
1070
     0
1000
AcDbSavedByObjectVersion
1070
     0
1000
AcDbSavedByObjectVersion
1070
     0
1000
AcDbSavedByObjectVersion
1070
     0
1000
AcDbSavedByObjectVersion
1070
     0
1000
AcDbSavedByObjectVersion
1070
     0
1000
AcDbSavedByObjectVersion
1070
     0
1000
AcDbSavedByObjectVersion
1070
     0
1000
AcDbSavedByObjectVersion
1070
     0
1000
AcDbSavedByObjectVersion
1070
     0
1000
AcDbSavedByObjectVersion
1070
     0
1000
AcDbSavedByObjectVersion
1070
     0
1000
AcDbSavedByObjectVersion
1070
     0
1000
AcDbSavedByObjectVersion
1070
     0
1000
AcDbSavedByObjectVersion
1070
     0
1000
AcDbSavedByObjectVersion
1070
     0
1000
AcDbSavedByObjectVersion
1070
     0
1000
AcDbSavedByObjectVersion
1070
     0
1000
AcDbSavedByObjectVersion
1070
     0
1000
AcDbSavedByObjectVersion
1070
     0
1000
AcDbSavedByObjectVersion
1070
     0
1000
AcDbSavedByObjectVersion
1070
     0
1000
AcDbSavedByObjectVersion
1070
     0
1000
AcDbSavedByObjectVersion
1070
     0
1000
AcDbSavedByObjectVersion
1070
     0
1000
AcDbSavedByObjectVersion
1070
     0
1000
AcDbSavedByObjectVersion
1070
     0
1000
AcDbSavedByObjectVersion
1070
     0
1000
AcDbSavedByObjectVersion
1070
     0
  0
VISUALSTYLE
  5
248
102
{ACAD_REACTORS
330
1D2
102
}
330
1D2
100
AcDbVisualStyle
  2
Thicken
 70
    13
 71
     2
 72
     2
 73
     0
 90
        0
 40
-0.6
 41
-30.0
 62
     5
 63
     7
 74
     1
 91
        4
 64
     7
 65
   257
 75
     1
175
     1
 42
1.0
 92
       12
 66
     7
 43
1.0
 76
     1
 77
     6
 78
     2
 67
     7
 79
     5
170
     0
171
     0
290
     0
174
     0
 93
        1
 44
0.0
173
     0
291
     1
 45
0.0
1001
ACAD
1000
AcDbSavedByObjectVersion
1070
     0
1000
AcDbSavedByObjectVersion
1070
     0
1000
AcDbSavedByObjectVersion
1070
     0
1000
AcDbSavedByObjectVersion
1070
     0
1000
AcDbSavedByObjectVersion
1070
     0
  0
DICTIONARYVAR
  5
218
102
{ACAD_REACTORS
330
215
102
}
330
215
100
DictionaryVariables
280
     0
  1
1:1
  0
DICTIONARYVAR
  5
217
102
{ACAD_REACTORS
330
215
102
}
330
215
100
DictionaryVariables
280
     0
  1
STANDARD
  0
DICTIONARYVAR
  5
216
102
{ACAD_REACTORS
330
215
102
}
330
215
100
DictionaryVariables
280
     0
  1
STANDARD
  0
DICTIONARYVAR
  5
518
102
{ACAD_REACTORS
330
215
102
}
330
215
100
DictionaryVariables
280
     0
  1
1
  0
DICTIONARYVAR
  5
517
102
{ACAD_REACTORS
330
215
102
}
330
215
100
DictionaryVariables
280
     0
  1
1
  0
DICTIONARYVAR
  5
516
102
{ACAD_REACTORS
330
215
102
}
330
215
100
DictionaryVariables
280
     0
  1
0
  0
DICTIONARYVAR
  5
219
102
{ACAD_REACTORS
330
215
102
}
330
215
100
DictionaryVariables
280
     0
  1
0
  0
DICTIONARYVAR
  5
514
102
{ACAD_REACTORS
330
215
102
}
330
215
100
DictionaryVariables
280
     0
  1
1
  0
DICTIONARYVAR
  5
515
102
{ACAD_REACTORS
330
215
102
}
330
215
100
DictionaryVariables
280
     0
  1
127
  0
DICTIONARY
  5
1E4
330
1E3
100
AcDbDictionary
280
     1
281
     1
  3
ACAD_XREC_ROUNDTRIP
360
53F
  3
BUMPTILE
360
1E5
  3
DIFFUSETILE
360
1E6
  3
OPACITYTILE
360
1E7
  3
REFLECTIONTILE
360
1E8
  3
REFRACTIONTILE
360
1E9
  3
SPECULARTILE
360
1EA
  0
DICTIONARY
  5
1DC
330
1DB
100
AcDbDictionary
280
     1
281
     1
  3
ACAD_XREC_ROUNDTRIP
360
53E
  3
BUMPTILE
360
1DD
  3
DIFFUSETILE
360
1DE
  3
OPACITYTILE
360
1DF
  3
REFLECTIONTILE
360
1E0
  3
REFRACTIONTILE
360
1E1
  3
SPECULARTILE
360
1E2
  0
DICTIONARY
  5
E
330
C
100
AcDbDictionary
280
     1
281
     1
  3
ACAD_XREC_ROUNDTRIP
360
537
  3
BUMPTILE
360
F
  3
DIFFUSETILE
360
10
  3
OPACITYTILE
360
11
  3
REFLECTIONTILE
360
12
  3
REFRACTIONTILE
360
13
  3
SPECULARTILE
360
14
  0
DICTIONARY
  5
1F0
330
1EF
100
AcDbDictionary
280
     1
281
     1
  3
ACAD_ROUNDTRIP_2008_TABLESTYLE_CELLSTYLEMAP
360
B3C
  0
XRECORD
  5
53F
102
{ACAD_REACTORS
330
1E4
102
}
330
1E4
100
AcDbXrecord
280
     1
102
MATERIAL
148
0.0
149
0.0
149
0.0
 93
        0
 94
      127
282
     0
 72
     0
 77
     0
171
     0
175
     0
179
     0
273
     0
  0
XRECORD
  5
1E5
102
{ACAD_REACTORS
330
1E4
102
}
330
1E4
100
AcDbXrecord
280
     1
270
     1
271
     1
  0
XRECORD
  5
1E6
102
{ACAD_REACTORS
330
1E4
102
}
330
1E4
100
AcDbXrecord
280
     1
270
     1
271
     1
  0
XRECORD
  5
1E7
102
{ACAD_REACTORS
330
1E4
102
}
330
1E4
100
AcDbXrecord
280
     1
270
     1
271
     1
  0
XRECORD
  5
1E8
102
{ACAD_REACTORS
330
1E4
102
}
330
1E4
100
AcDbXrecord
280
     1
270
     1
271
     1
  0
XRECORD
  5
1E9
102
{ACAD_REACTORS
330
1E4
102
}
330
1E4
100
AcDbXrecord
280
     1
270
     1
271
     1
  0
XRECORD
  5
1EA
102
{ACAD_REACTORS
330
1E4
102
}
330
1E4
100
AcDbXrecord
280
     1
270
     1
271
     1
  0
XRECORD
  5
53E
102
{ACAD_REACTORS
330
1DC
102
}
330
1DC
100
AcDbXrecord
280
     1
102
MATERIAL
148
0.0
149
0.0
149
0.0
 93
        0
 94
      127
282
     0
 72
     0
 77
     0
171
     0
175
     0
179
     0
273
     0
  0
XRECORD
  5
1DD
102
{ACAD_REACTORS
330
1DC
102
}
330
1DC
100
AcDbXrecord
280
     1
270
     1
271
     1
  0
XRECORD
  5
1DE
102
{ACAD_REACTORS
330
1DC
102
}
330
1DC
100
AcDbXrecord
280
     1
270
     1
271
     1
  0
XRECORD
  5
1DF
102
{ACAD_REACTORS
330
1DC
102
}
330
1DC
100
AcDbXrecord
280
     1
270
     1
271
     1
  0
XRECORD
  5
1E0
102
{ACAD_REACTORS
330
1DC
102
}
330
1DC
100
AcDbXrecord
280
     1
270
     1
271
     1
  0
XRECORD
  5
1E1
102
{ACAD_REACTORS
330
1DC
102
}
330
1DC
100
AcDbXrecord
280
     1
270
     1
271
     1
  0
XRECORD
  5
1E2
102
{ACAD_REACTORS
330
1DC
102
}
330
1DC
100
AcDbXrecord
280
     1
270
     1
271
     1
  0
XRECORD
  5
537
102
{ACAD_REACTORS
330
E
102
}
330
E
100
AcDbXrecord
280
     1
102
MATERIAL
148
0.0
149
0.0
149
0.0
 93
        0
 94
      127
282
     0
 72
     0
 77
     0
171
     0
175
     0
179
     0
273
     0
  0
XRECORD
  5
F
102
{ACAD_REACTORS
330
E
102
}
330
E
100
AcDbXrecord
280
     1
270
     1
271
     1
  0
XRECORD
  5
10
102
{ACAD_REACTORS
330
E
102
}
330
E
100
AcDbXrecord
280
     1
270
     1
271
     1
  0
XRECORD
  5
11
102
{ACAD_REACTORS
330
E
102
}
330
E
100
AcDbXrecord
280
     1
270
     1
271
     1
  0
XRECORD
  5
12
102
{ACAD_REACTORS
330
E
102
}
330
E
100
AcDbXrecord
280
     1
270
     1
271
     1
  0
XRECORD
  5
13
102
{ACAD_REACTORS
330
E
102
}
330
E
100
AcDbXrecord
280
     1
270
     1
271
     1
  0
XRECORD
  5
14
102
{ACAD_REACTORS
330
E
102
}
330
E
100
AcDbXrecord
280
     1
270
     1
271
     1
  0
CELLSTYLEMAP
  5
B3C
102
{ACAD_REACTORS
330
1F0
102
}
330
1F0
100
AcDbCellStyleMap
 90
        3
300
CELLSTYLE
  1
TABLEFORMAT_BEGIN
 90
        5
170
     1
 91
        0
 92
    32768
 62
   257
 93
        1
300
CONTENTFORMAT
  1
CONTENTFORMAT_BEGIN
 90
        0
 91
        0
 92
      512
 93
        0
300

 40
0.0
140
1.0
 94
        5
 62
     0
340
46
144
0.25
309
CONTENTFORMAT_END
171
     1
301
MARGIN
  1
CELLMARGIN_BEGIN
 40
0.06
 40
0.06
 40
0.06
 40
0.06
 40
0.18
 40
0.18
309
CELLMARGIN_END
 94
        6
 95
        1
302
GRIDFORMAT
  1
GRIDFORMAT_BEGIN
 90
        0
 91
        1
 62
     0
 92
       -2
340
0
 93
        0
 40
0.045
309
GRIDFORMAT_END
 95
        2
302
GRIDFORMAT
  1
GRIDFORMAT_BEGIN
 90
        0
 91
        1
 62
     0
 92
       -2
340
0
 93
        0
 40
0.045
309
GRIDFORMAT_END
 95
        4
302
GRIDFORMAT
  1
GRIDFORMAT_BEGIN
 90
        0
 91
        1
 62
     0
 92
       -2
340
0
 93
        0
 40
0.045
309
GRIDFORMAT_END
 95
        8
302
GRIDFORMAT
  1
GRIDFORMAT_BEGIN
 90
        0
 91
        1
 62
     0
 92
       -2
340
0
 93
        0
 40
0.045
309
GRIDFORMAT_END
 95
       16
302
GRIDFORMAT
  1
GRIDFORMAT_BEGIN
 90
        0
 91
        1
 62
     0
 92
       -2
340
0
 93
        0
 40
0.045
309
GRIDFORMAT_END
 95
       32
302
GRIDFORMAT
  1
GRIDFORMAT_BEGIN
 90
        0
 91
        1
 62
     0
 92
       -2
340
0
 93
        0
 40
0.045
309
GRIDFORMAT_END
309
TABLEFORMAT_END
  1
CELLSTYLE_BEGIN
 90
        1
 91
        1
300
_TITLE
309
CELLSTYLE_END
300
CELLSTYLE
  1
TABLEFORMAT_BEGIN
 90
        5
170
     1
 91
        0
 92
        0
 62
   257
 93
        1
300
CONTENTFORMAT
  1
CONTENTFORMAT_BEGIN
 90
        0
 91
        0
 92
      512
 93
        0
300

 40
0.0
140
1.0
 94
        5
 62
     0
340
46
144
0.18
309
CONTENTFORMAT_END
171
     1
301
MARGIN
  1
CELLMARGIN_BEGIN
 40
0.06
 40
0.06
 40
0.06
 40
0.06
 40
0.18
 40
0.18
309
CELLMARGIN_END
 94
        6
 95
        1
302
GRIDFORMAT
  1
GRIDFORMAT_BEGIN
 90
        0
 91
        1
 62
     0
 92
       -2
340
0
 93
        0
 40
0.045
309
GRIDFORMAT_END
 95
        2
302
GRIDFORMAT
  1
GRIDFORMAT_BEGIN
 90
        0
 91
        1
 62
     0
 92
       -2
340
0
 93
        0
 40
0.045
309
GRIDFORMAT_END
 95
        4
302
GRIDFORMAT
  1
GRIDFORMAT_BEGIN
 90
        0
 91
        1
 62
     0
 92
       -2
340
0
 93
        0
 40
0.045
309
GRIDFORMAT_END
 95
        8
302
GRIDFORMAT
  1
GRIDFORMAT_BEGIN
 90
        0
 91
        1
 62
     0
 92
       -2
340
0
 93
        0
 40
0.045
309
GRIDFORMAT_END
 95
       16
302
GRIDFORMAT
  1
GRIDFORMAT_BEGIN
 90
        0
 91
        1
 62
     0
 92
       -2
340
0
 93
        0
 40
0.045
309
GRIDFORMAT_END
 95
       32
302
GRIDFORMAT
  1
GRIDFORMAT_BEGIN
 90
        0
 91
        1
 62
     0
 92
       -2
340
0
 93
        0
 40
0.045
309
GRIDFORMAT_END
309
TABLEFORMAT_END
  1
CELLSTYLE_BEGIN
 90
        2
 91
        1
300
_HEADER
309
CELLSTYLE_END
300
CELLSTYLE
  1
TABLEFORMAT_BEGIN
 90
        5
170
     1
 91
        0
 92
        0
 62
   257
 93
        1
300
CONTENTFORMAT
  1
CONTENTFORMAT_BEGIN
 90
        0
 91
        0
 92
      512
 93
        0
300

 40
0.0
140
1.0
 94
        2
 62
     0
340
46
144
0.18
309
CONTENTFORMAT_END
171
     1
301
MARGIN
  1
CELLMARGIN_BEGIN
 40
0.06
 40
0.06
 40
0.06
 40
0.06
 40
0.18
 40
0.18
309
CELLMARGIN_END
 94
        6
 95
        1
302
GRIDFORMAT
  1
GRIDFORMAT_BEGIN
 90
        0
 91
        1
 62
     0
 92
       -2
340
0
 93
        0
 40
0.045
309
GRIDFORMAT_END
 95
        2
302
GRIDFORMAT
  1
GRIDFORMAT_BEGIN
 90
        0
 91
        1
 62
     0
 92
       -2
340
0
 93
        0
 40
0.045
309
GRIDFORMAT_END
 95
        4
302
GRIDFORMAT
  1
GRIDFORMAT_BEGIN
 90
        0
 91
        1
 62
     0
 92
       -2
340
0
 93
        0
 40
0.045
309
GRIDFORMAT_END
 95
        8
302
GRIDFORMAT
  1
GRIDFORMAT_BEGIN
 90
        0
 91
        1
 62
     0
 92
       -2
340
0
 93
        0
 40
0.045
309
GRIDFORMAT_END
 95
       16
302
GRIDFORMAT
  1
GRIDFORMAT_BEGIN
 90
        0
 91
        1
 62
     0
 92
       -2
340
0
 93
        0
 40
0.045
309
GRIDFORMAT_END
 95
       32
302
GRIDFORMAT
  1
GRIDFORMAT_BEGIN
 90
        0
 91
        1
 62
     0
 92
       -2
340
0
 93
        0
 40
0.045
309
GRIDFORMAT_END
309
TABLEFORMAT_END
  1
CELLSTYLE_BEGIN
 90
        3
 91
        2
300
_DATA
309
CELLSTYLE_END
  0
ENDSEC
  0
EOF
