  0
SECTION
  2
HEADER
  9
$ACADVER
  1
AC1032
  9
$ACADMAINTVER
 90
        4
  9
$DWGCODEPAGE
  3
ANSI_936
  9
$LASTSAVEDBY
  1
14663
  9
$REQUIREDVERSIONS
160
                 0
  9
$INSBASE
 10
0.0
 20
0.0
 30
0.0
  9
$EXTMIN
 10
705.5483254505566
 20
158.1105656886554
 30
0.0
  9
$EXTMAX
 10
854.0477004184088
 20
263.1105656886575
 30
0.0
  9
$LIMMIN
 10
0.0
 20
0.0
  9
$LIMMAX
 10
12.0
 20
9.0
  9
$ORTHOMODE
 70
     0
  9
$REGENMODE
 70
     1
  9
$FILLMODE
 70
     1
  9
$QTEXTMODE
 70
     0
  9
$MIRRTEXT
 70
     1
  9
$LTSCALE
 40
1.0
  9
$ATTMODE
 70
     1
  9
$TEXTSIZE
 40
0.2
  9
$TRACEWID
 40
0.05
  9
$TEXTSTYLE
  7
Standard
  9
$CLAYER
  8
DIM
  9
$CELTYPE
  6
ByLayer
  9
$CECOLOR
 62
   256
  9
$CELTSCALE
 40
1.0
  9
$DISPSILH
 70
     0
  9
$DIMSCALE
 40
1.0
  9
$DIMASZ
 40
1.5
  9
$DIMEXO
 40
0.2
  9
$DIMDLI
 40
0.2
  9
$DIMRND
 40
0.0
  9
$DIMDLE
 40
0.0
  9
$DIMEXE
 40
0.5
  9
$DIMTP
 40
0.0
  9
$DIMTM
 40
0.0
  9
$DIMTXT
 40
2.0
  9
$DIMCEN
 40
0.0
  9
$DIMTSZ
 40
0.0
  9
$DIMTOL
 70
     0
  9
$DIMLIM
 70
     0
  9
$DIMTIH
 70
     0
  9
$DIMTOH
 70
     0
  9
$DIMSE1
 70
     0
  9
$DIMSE2
 70
     0
  9
$DIMTAD
 70
     1
  9
$DIMZIN
 70
     8
  9
$DIMBLK
  1

  9
$DIMASO
 70
     1
  9
$DIMSHO
 70
     1
  9
$DIMPOST
  1

  9
$DIMAPOST
  1

  9
$DIMALT
 70
     0
  9
$DIMALTD
 70
     2
  9
$DIMALTF
 40
25.4
  9
$DIMLFAC
 40
1.0
  9
$DIMTOFL
 70
     0
  9
$DIMTVP
 40
0.0
  9
$DIMTIX
 70
     0
  9
$DIMSOXD
 70
     0
  9
$DIMSAH
 70
     0
  9
$DIMBLK1
  1

  9
$DIMBLK2
  1

  9
$DIMSTYLE
  2
01
  9
$DIMCLRD
 70
     1
  9
$DIMCLRE
 70
     6
  9
$DIMCLRT
 70
     4
  9
$DIMTFAC
 40
1.0
  9
$DIMGAP
 40
0.5
  9
$DIMJUST
 70
     0
  9
$DIMSD1
 70
     0
  9
$DIMSD2
 70
     0
  9
$DIMTOLJ
 70
     1
  9
$DIMTZIN
 70
     0
  9
$DIMALTZ
 70
     0
  9
$DIMALTTZ
 70
     0
  9
$DIMUPT
 70
     0
  9
$DIMDEC
 70
     1
  9
$DIMTDEC
 70
     1
  9
$DIMALTU
 70
     2
  9
$DIMALTTD
 70
     2
  9
$DIMTXSTY
  7
Romans字体
  9
$DIMAUNIT
 70
     0
  9
$DIMADEC
 70
     2
  9
$DIMALTRND
 40
0.0
  9
$DIMAZIN
 70
     2
  9
$DIMDSEP
 70
    46
  9
$DIMATFIT
 70
     3
  9
$DIMFRAC
 70
     0
  9
$DIMLDRBLK
  1

  9
$DIMLUNIT
 70
     2
  9
$DIMLWD
 70
    -2
  9
$DIMLWE
 70
    -2
  9
$DIMTMOVE
 70
     0
  9
$DIMFXL
 40
1.0
  9
$DIMFXLON
 70
     0
  9
$DIMJOGANG
 40
0.7853981633974483
  9
$DIMTFILL
 70
     0
  9
$DIMTFILLCLR
 70
     0
  9
$DIMARCSYM
 70
     0
  9
$DIMLTYPE
  6

  9
$DIMLTEX1
  6

  9
$DIMLTEX2
  6

  9
$DIMTXTDIRECTION
 70
     0
  9
$LUNITS
 70
     2
  9
$LUPREC
 70
     4
  9
$SKETCHINC
 40
0.1
  9
$FILLETRAD
 40
0.5
  9
$AUNITS
 70
     0
  9
$AUPREC
 70
     0
  9
$MENU
  1
.
  9
$ELEVATION
 40
0.0
  9
$PELEVATION
 40
0.0
  9
$THICKNESS
 40
0.0
  9
$LIMCHECK
 70
     0
  9
$CHAMFERA
 40
0.5
  9
$CHAMFERB
 40
0.5
  9
$CHAMFERC
 40
1.0
  9
$CHAMFERD
 40
0.0
  9
$SKPOLY
 70
     0
  9
$TDCREATE
 40
2456524.383632986
  9
$TDUCREATE
 40
2456524.050299653
  9
$TDUPDATE
 40
2460339.535784491
  9
$TDUUPDATE
 40
2460339.202451157
  9
$TDINDWG
 40
1.230419294
  9
$TDUSRTIMER
 40
1.230400058
  9
$USRTIMER
 70
     1
  9
$ANGBASE
 50
0.0
  9
$ANGDIR
 70
     0
  9
$PDMODE
 70
     0
  9
$PDSIZE
 40
0.0
  9
$PLINEWID
 40
0.0
  9
$SPLFRAME
 70
     0
  9
$SPLINETYPE
 70
     6
  9
$SPLINESEGS
 70
     8
  9
$HANDSEED
  5
1333
  9
$SURFTAB1
 70
     6
  9
$SURFTAB2
 70
     6
  9
$SURFTYPE
 70
     6
  9
$SURFU
 70
     6
  9
$SURFV
 70
     6
  9
$UCSBASE
  2

  9
$UCSNAME
  2

  9
$UCSORG
 10
0.0
 20
0.0
 30
0.0
  9
$UCSXDIR
 10
1.0
 20
0.0
 30
0.0
  9
$UCSYDIR
 10
0.0
 20
1.0
 30
0.0
  9
$UCSORTHOREF
  2

  9
$UCSORTHOVIEW
 70
     0
  9
$UCSORGTOP
 10
0.0
 20
0.0
 30
0.0
  9
$UCSORGBOTTOM
 10
0.0
 20
0.0
 30
0.0
  9
$UCSORGLEFT
 10
0.0
 20
0.0
 30
0.0
  9
$UCSORGRIGHT
 10
0.0
 20
0.0
 30
0.0
  9
$UCSORGFRONT
 10
0.0
 20
0.0
 30
0.0
  9
$UCSORGBACK
 10
0.0
 20
0.0
 30
0.0
  9
$PUCSBASE
  2

  9
$PUCSNAME
  2

  9
$PUCSORG
 10
0.0
 20
0.0
 30
0.0
  9
$PUCSXDIR
 10
1.0
 20
0.0
 30
0.0
  9
$PUCSYDIR
 10
0.0
 20
1.0
 30
0.0
  9
$PUCSORTHOREF
  2

  9
$PUCSORTHOVIEW
 70
     0
  9
$PUCSORGTOP
 10
0.0
 20
0.0
 30
0.0
  9
$PUCSORGBOTTOM
 10
0.0
 20
0.0
 30
0.0
  9
$PUCSORGLEFT
 10
0.0
 20
0.0
 30
0.0
  9
$PUCSORGRIGHT
 10
0.0
 20
0.0
 30
0.0
  9
$PUCSORGFRONT
 10
0.0
 20
0.0
 30
0.0
  9
$PUCSORGBACK
 10
0.0
 20
0.0
 30
0.0
  9
$USERI1
 70
     0
  9
$USERI2
 70
     0
  9
$USERI3
 70
     0
  9
$USERI4
 70
     0
  9
$USERI5
 70
     0
  9
$USERR1
 40
0.0
  9
$USERR2
 40
0.0
  9
$USERR3
 40
0.0
  9
$USERR4
 40
0.0
  9
$USERR5
 40
0.0
  9
$WORLDVIEW
 70
     1
  9
$SHADEDGE
 70
     3
  9
$SHADEDIF
 70
    70
  9
$TILEMODE
 70
     1
  9
$MAXACTVP
 70
    64
  9
$PINSBASE
 10
0.0
 20
0.0
 30
0.0
  9
$PLIMCHECK
 70
     0
  9
$PEXTMIN
 10
1.000000000000000E+20
 20
1.000000000000000E+20
 30
1.000000000000000E+20
  9
$PEXTMAX
 10
-1.000000000000000E+20
 20
-1.000000000000000E+20
 30
-1.000000000000000E+20
  9
$PLIMMIN
 10
0.0
 20
0.0
  9
$PLIMMAX
 10
12.0
 20
9.0
  9
$UNITMODE
 70
     0
  9
$VISRETAIN
 70
     1
  9
$PLINEGEN
 70
     0
  9
$PSLTSCALE
 70
     1
  9
$TREEDEPTH
 70
  3020
  9
$CMLSTYLE
  2
Standard
  9
$CMLJUST
 70
     0
  9
$CMLSCALE
 40
1.0
  9
$PROXYGRAPHICS
 70
     1
  9
$MEASUREMENT
 70
     0
  9
$CELWEIGHT
370
    -1
  9
$ENDCAPS
280
     0
  9
$JOINSTYLE
280
     0
  9
$LWDISPLAY
290
     0
  9
$INSUNITS
 70
     4
  9
$HYPERLINKBASE
  1

  9
$STYLESHEET
  1

  9
$XEDIT
290
     1
  9
$CEPSNTYPE
380
     0
  9
$PSTYLEMODE
290
     1
  9
$FINGERPRINTGUID
  2
{781F03C1-C157-4842-AA39-6F5FCF8E8A6D}
  9
$VERSIONGUID
  2
{E0986B2E-0859-4D43-9973-7B5757A54BA4}
  9
$EXTNAMES
290
     1
  9
$PSVPSCALE
 40
0.0
  9
$OLESTARTUP
290
     0
  9
$SORTENTS
280
   127
  9
$INDEXCTL
280
     0
  9
$HIDETEXT
280
     1
  9
$XCLIPFRAME
280
     0
  9
$HALOGAP
280
     0
  9
$OBSCOLOR
 70
   257
  9
$OBSLTYPE
280
     0
  9
$INTERSECTIONDISPLAY
280
     0
  9
$INTERSECTIONCOLOR
 70
   257
  9
$DIMASSOC
280
     1
  9
$PROJECTNAME
  1

  9
$CAMERADISPLAY
290
     0
  9
$LENSLENGTH
 40
50.0
  9
$CAMERAHEIGHT
 40
0.0
  9
$STEPSPERSEC
 40
2.0
  9
$STEPSIZE
 40
6.0
  9
$3DDWFPREC
 40
2.0
  9
$PSOLWIDTH
 40
0.25
  9
$PSOLHEIGHT
 40
4.0
  9
$LOFTANG1
 40
1.570795999999999
  9
$LOFTANG2
 40
1.570795999999999
  9
$LOFTMAG1
 40
0.0
  9
$LOFTMAG2
 40
0.0
  9
$LOFTPARAM
 70
     7
  9
$LOFTNORMALS
280
     1
  9
$LATITUDE
 40
37.795
  9
$LONGITUDE
 40
-122.394
  9
$NORTHDIRECTION
 40
0.0
  9
$TIMEZONE
 70
 -8000
  9
$LIGHTGLYPHDISPLAY
280
     1
  9
$TILEMODELIGHTSYNCH
280
     1
  9
$CMATERIAL
347
1E4
  9
$SOLIDHIST
280
     0
  9
$SHOWHIST
280
     1
  9
$DWFFRAME
280
     2
  9
$DGNFRAME
280
     0
  9
$REALWORLDSCALE
290
     1
  9
$INTERFERECOLOR
 62
     1
  9
$INTERFEREOBJVS
345
1FA
  9
$INTERFEREVPVS
346
11C8
  9
$CSHADOW
280
     0
  9
$SHADOWPLANELOCATION
 40
0.0
  0
ENDSEC
  0
SECTION
  2
CLASSES
  0
CLASS
  1
ACDBDICTIONARYWDFLT
  2
AcDbDictionaryWithDefault
  3
ObjectDBX Classes
 90
        0
 91
        1
280
     0
281
     0
  0
CLASS
  1
VISUALSTYLE
  2
AcDbVisualStyle
  3
ObjectDBX Classes
 90
     4095
 91
       26
280
     0
281
     0
  0
CLASS
  1
MATERIAL
  2
AcDbMaterial
  3
ObjectDBX Classes
 90
     1153
 91
        3
280
     0
281
     0
  0
CLASS
  1
TABLESTYLE
  2
AcDbTableStyle
  3
ObjectDBX Classes
 90
     4095
 91
        1
280
     0
281
     0
  0
CLASS
  1
SCALE
  2
AcDbScale
  3
ObjectDBX Classes
 90
     1153
 91
       33
280
     0
281
     0
  0
CLASS
  1
MLEADERSTYLE
  2
AcDbMLeaderStyle
  3
ACDB_MLEADERSTYLE_CLASS
 90
     4095
 91
        1
280
     0
281
     0
  0
CLASS
  1
CELLSTYLEMAP
  2
AcDbCellStyleMap
  3
ObjectDBX Classes
 90
     1152
 91
        2
280
     0
281
     0
  0
CLASS
  1
DICTIONARYVAR
  2
AcDbDictionaryVar
  3
ObjectDBX Classes
 90
        0
 91
       13
280
     0
281
     0
  0
CLASS
  1
SORTENTSTABLE
  2
AcDbSortentsTable
  3
ObjectDBX Classes
 90
        0
 91
        1
280
     0
281
     0
  0
CLASS
  1
ACAD_EVALUATION_GRAPH
  2
AcDbEvalGraph
  3
ObjectDBX Classes
 90
     1153
 91
        0
280
     0
281
     0
  0
CLASS
  1
ACAECUSTOBJ
  2
AcAeEditorObj
  3
AcAeEditorObj
 90
     1024
 91
        0
280
     1
281
     0
  0
CLASS
  1
ACDB_DYNAMICBLOCKPURGEPREVENTER_VERSION
  2
AcDbDynamicBlockPurgePreventer
  3
ObjectDBX Classes
 90
     1153
 91
        0
280
     0
281
     0
  0
CLASS
  1
MENTALRAYRENDERSETTINGS
  2
AcDbMentalRayRenderSettings
  3
SCENEOE
 90
     1024
 91
        0
280
     0
281
     0
  0
CLASS
  1
ACDB_BLOCKREPRESENTATION_DATA
  2
AcDbBlockRepresentationData
  3
ObjectDBX Classes
 90
     1153
 91
        0
280
     0
281
     0
  0
CLASS
  1
DIMASSOC
  2
AcDbDimAssoc
  3
"AcDbDimAssoc|Product Desc:     AcDim ARX App For Dimension|Company:          Autodesk, Inc.|WEB Address:      www.autodesk.com"
 90
        0
 91
        2
280
     0
281
     0
  0
CLASS
  1
ACDBSECTIONVIEWSTYLE
  2
AcDbSectionViewStyle
  3
ObjectDBX Classes
 90
     1025
 91
        1
280
     0
281
     0
  0
CLASS
  1
ACDBDETAILVIEWSTYLE
  2
AcDbDetailViewStyle
  3
ObjectDBX Classes
 90
     1025
 91
        1
280
     0
281
     0
  0
CLASS
  1
RASTERVARIABLES
  2
AcDbRasterVariables
  3
ISM
 90
        0
 91
        1
280
     0
281
     0
  0
ENDSEC
  0
SECTION
  2
TABLES
  0
TABLE
  2
VPORT
  5
1D8
102
{ACAD_XDICTIONARY
360
1DC
102
}
330
0
100
AcDbSymbolTable
 70
     1
  0
VPORT
  5
1D9
330
1D8
100
AcDbSymbolTableRecord
100
AcDbViewportTableRecord
  2
*Active
 70
     0
 10
0.0
 20
0.0
 11
1.0
 21
1.0
 12
674.832516062574
 22
62.1083349200586
 13
0.0
 23
0.0
 14
0.5
 24
0.5
 15
0.5
 25
0.5
 16
0.0
 26
0.0
 36
1.0
 17
104.9654968719086
 27
148.5022307685978
 37
0.0
 40
105.7191780821938
 41
2.123287671232876
 42
50.0
 43
0.0
 44
0.0
 50
0.0
 51
0.0
 71
     0
 72
   100
 73
     1
 74
     3
 75
     0
 76
     0
 77
     0
 78
     0
281
     0
 65
     1
110
0.0
120
0.0
130
0.0
111
1.0
121
0.0
131
0.0
112
0.0
122
1.0
132
0.0
 79
     0
146
0.0
348
1DA
 60
     3
 61
     5
292
     1
282
     1
141
0.0
142
0.0
 63
   250
421
  3355443
1001
ACAD_NAV_VCDISPLAY
1070
     3
  0
ENDTAB
  0
TABLE
  2
LTYPE
  5
1D3
330
0
100
AcDbSymbolTable
 70
     3
  0
LTYPE
  5
1D4
330
1D3
100
AcDbSymbolTableRecord
100
AcDbLinetypeTableRecord
  2
ByBlock
 70
     0
  3

 72
    65
 73
     0
 40
0.0
  0
LTYPE
  5
1D5
330
1D3
100
AcDbSymbolTableRecord
100
AcDbLinetypeTableRecord
  2
ByLayer
 70
     0
  3

 72
    65
 73
     0
 40
0.0
  0
LTYPE
  5
15
330
1D3
100
AcDbSymbolTableRecord
100
AcDbLinetypeTableRecord
  2
Continuous
 70
     0
  3
Solid line
 72
    65
 73
     0
 40
0.0
  0
LTYPE
  5
100
330
1D3
100
AcDbSymbolTableRecord
100
AcDbLinetypeTableRecord
  2
CENTER
 70
     0
  3
Center ____ _ ____ _ ____ _ ____ _ ____ _ ____
 72
    65
 73
     4
 40
2.0
 49
1.25
 74
     0
 49
-0.25
 74
     0
 49
0.25
 74
     0
 49
-0.25
 74
     0
  0
LTYPE
  5
A72
330
1D3
100
AcDbSymbolTableRecord
100
AcDbLinetypeTableRecord
  2
CENTERX2
 70
     0
  3
Center (2x) ________  __  ________  __  _____
 72
    65
 73
     4
 40
4.0
 49
2.5
 74
     0
 49
-0.5
 74
     0
 49
0.5
 74
     0
 49
-0.5
 74
     0
  0
ENDTAB
  0
TABLE
  2
LAYER
  5
1CC
102
{ACAD_XDICTIONARY
360
1CD
102
}
330
0
100
AcDbSymbolTable
 70
     8
  0
LAYER
  5
6
102
{ACAD_XDICTIONARY
360
7
102
}
330
1CC
100
AcDbSymbolTableRecord
100
AcDbLayerTableRecord
  2
0
 70
     0
 62
     7
  6
Continuous
370
    30
390
9
347
C
348
0
  0
LAYER
  5
17
102
{ACAD_XDICTIONARY
360
18
102
}
330
1CC
100
AcDbSymbolTableRecord
100
AcDbLayerTableRecord
  2
图层 1
 70
     0
 62
     7
  6
Continuous
370
    -3
390
9
347
C
348
0
  0
LAYER
  5
25
102
{ACAD_XDICTIONARY
360
26
102
}
330
1CC
100
AcDbSymbolTableRecord
100
AcDbLayerTableRecord
  2
图框
 70
     0
 62
     7
  6
Continuous
370
    20
390
9
347
C
348
0
  0
LAYER
  5
12A
330
1CC
100
AcDbSymbolTableRecord
100
AcDbLayerTableRecord
  2
Defpoints
 70
     0
 62
     7
  6
Continuous
290
     0
370
    -3
390
9
347
C
348
0
  0
LAYER
  5
E7
330
1CC
100
AcDbSymbolTableRecord
100
AcDbLayerTableRecord
  2
打标文字
 70
     0
 62
     3
  6
Continuous
370
    20
390
9
347
C
348
0
  0
LAYER
  5
2FD
330
1CC
100
AcDbSymbolTableRecord
100
AcDbLayerTableRecord
  2
DIM
 70
     0
 62
     3
  6
Continuous
370
    15
390
9
347
C
348
0
1001
AcAecLayerStandard
1000

1000

  0
LAYER
  5
A73
330
1CC
100
AcDbSymbolTableRecord
100
AcDbLayerTableRecord
  2
center
 70
     0
 62
     1
  6
CENTER
370
     9
390
9
347
C
348
0
  0
LAYER
  5
FBB
330
1CC
100
AcDbSymbolTableRecord
100
AcDbLayerTableRecord
  2
epin
 70
     0
 62
    13
  6
Continuous
370
     9
390
9
347
C
348
0
  0
ENDTAB
  0
TABLE
  2
STYLE
  5
1D1
330
0
100
AcDbSymbolTable
 70
     4
  0
STYLE
  5
48
330
1D1
100
AcDbSymbolTableRecord
100
AcDbTextStyleTableRecord
  2
Standard
 70
     0
 40
0.0
 41
0.75
 50
0.0
 71
     0
 42
0.2
  3

  4

1001
ACAD
1000
仿宋_GB2312
1071
    34353
  0
STYLE
  5
28
330
1D1
100
AcDbSymbolTableRecord
100
AcDbTextStyleTableRecord
  2
Romans字体
 70
     0
 40
0.0
 41
0.75
 50
0.0
 71
     0
 42
0.2
  3
romans.shx
  4

  0
STYLE
  5
4A
330
1D1
100
AcDbSymbolTableRecord
100
AcDbTextStyleTableRecord
  2
工程字
 70
     0
 40
0.0
 41
1.0
 50
0.0
 71
     0
 42
3.5
  3
gbenor.shx
  4
gbcbig.shx
  0
STYLE
  5
4C
330
1D1
100
AcDbSymbolTableRecord
100
AcDbTextStyleTableRecord
  2
Chinese
 70
     0
 40
0.0
 41
1.0
 50
0.0
 71
     0
 42
2.5
  3
PMingLiU.ttf
  4

1001
ACAD
1000
PMingLiU
1071
    34834
  0
ENDTAB
  0
TABLE
  2
VIEW
  5
1D6
330
0
100
AcDbSymbolTable
 70
     0
  0
ENDTAB
  0
TABLE
  2
UCS
  5
1D7
330
0
100
AcDbSymbolTable
 70
     0
  0
ENDTAB
  0
TABLE
  2
APPID
  5
1DD
330
0
100
AcDbSymbolTable
 70
    17
  0
APPID
  5
29
330
1DD
100
AcDbSymbolTableRecord
100
AcDbRegAppTableRecord
  2
ACAD
 70
     0
  0
APPID
  5
37
330
1DD
100
AcDbSymbolTableRecord
100
AcDbRegAppTableRecord
  2
AcDbBlockRepETag
 70
     0
  0
APPID
  5
1C3
330
1DD
100
AcDbSymbolTableRecord
100
AcDbRegAppTableRecord
  2
ACAD_PSEXT
 70
     0
  0
APPID
  5
101
330
1DD
100
AcDbSymbolTableRecord
100
AcDbRegAppTableRecord
  2
AcAecLayerStandard
 70
     0
  0
APPID
  5
12F
330
1DD
100
AcDbSymbolTableRecord
100
AcDbRegAppTableRecord
  2
ACAD_DSTYLE_DIMJAG
 70
     0
  0
APPID
  5
130
330
1DD
100
AcDbSymbolTableRecord
100
AcDbRegAppTableRecord
  2
ACAD_DSTYLE_DIMTALN
 70
     0
  0
APPID
  5
257
330
1DD
100
AcDbSymbolTableRecord
100
AcDbRegAppTableRecord
  2
ACAD_MLEADERVER
 70
     0
  0
APPID
  5
2FE
330
1DD
100
AcDbSymbolTableRecord
100
AcDbRegAppTableRecord
  2
AcDbDynamicBlockGUID
 70
     0
  0
APPID
  5
4CC
330
1DD
100
AcDbSymbolTableRecord
100
AcDbRegAppTableRecord
  2
ACAD_DSTYLE_DIMBREAK
 70
     0
  0
APPID
  5
4CD
330
1DD
100
AcDbSymbolTableRecord
100
AcDbRegAppTableRecord
  2
ACAD_DSTYLE_DIMRADIAL_EXTENSION
 70
     0
  0
APPID
  5
BFC
330
1DD
100
AcDbSymbolTableRecord
100
AcDbRegAppTableRecord
  2
ACAD_EXEMPT_FROM_CAD_STANDARDS
 70
     0
  0
APPID
  5
11E2
330
1DD
100
AcDbSymbolTableRecord
100
AcDbRegAppTableRecord
  2
AcadAnnoPO
 70
     0
  0
APPID
  5
11E9
330
1DD
100
AcDbSymbolTableRecord
100
AcDbRegAppTableRecord
  2
ACAD_NAV_VCDISPLAY
 70
     0
  0
APPID
  5
1291
330
1DD
100
AcDbSymbolTableRecord
100
AcDbRegAppTableRecord
  2
ACAUTHENVIRON
 70
     0
  0
APPID
  5
1294
330
1DD
100
AcDbSymbolTableRecord
100
AcDbRegAppTableRecord
  2
AcDbDynamicBlockTrueName
 70
     0
  0
APPID
  5
12A3
330
1DD
100
AcDbSymbolTableRecord
100
AcDbRegAppTableRecord
  2
AcadAnnoMonitorAlertIconDisabled
 70
     0
  0
APPID
  5
1330
330
1DD
100
AcDbSymbolTableRecord
100
AcDbRegAppTableRecord
  2
PLOTTRANSPARENCY
 70
     0
  0
ENDTAB
  0
TABLE
  2
DIMSTYLE
  5
1DE
330
0
100
AcDbSymbolTable
 70
     3
100
AcDbDimStyleTable
 71
     2
340
12E
340
1DF
  0
DIMSTYLE
105
1DF
330
1DE
100
AcDbSymbolTableRecord
100
AcDbDimStyleTableRecord
  2
Standard
 70
     0
340
48
  0
DIMSTYLE
105
12E
102
{ACAD_REACTORS
330
10B0
330
10AD
330
1296
102
}
330
1DE
100
AcDbSymbolTableRecord
100
AcDbDimStyleTableRecord
  2
01
 70
     0
 41
1.5
 42
0.2
 43
0.2
 44
0.5
 73
     0
 74
     0
 77
     1
 78
     8
 79
     2
140
2.0
141
0.0
147
0.5
176
     1
177
     6
271
     1
178
     4
179
     2
271
     1
272
     1
340
28
1001
ACAD_DSTYLE_DIMJAG
1070
   388
1040
1.5
1001
ACAD_DSTYLE_DIMTALN
1070
   392
1070
     0
  0
DIMSTYLE
105
FBC
330
1DE
100
AcDbSymbolTableRecord
100
AcDbDimStyleTableRecord
  2
0.5
 70
     0
 40
0.65
 41
1.0
 42
0.2
 43
0.1
 44
0.5
 47
0.01
 48
0.000000001
 73
     0
 74
     0
 78
     8
 79
     2
140
1.199999999999999
141
0.0
146
0.7
147
0.2
176
     1
177
     6
271
     2
178
     4
179
     2
271
     2
272
     2
284
     8
340
4C
1001
ACAD_DSTYLE_DIMBREAK
1070
   391
1040
0.125
1001
ACAD_DSTYLE_DIMJAG
1070
   388
1040
1.5
1001
ACAD_DSTYLE_DIMTALN
1070
   392
1070
     0
  0
ENDTAB
  0
TABLE
  2
BLOCK_RECORD
  5
1
330
0
100
AcDbSymbolTable
 70
    10
  0
BLOCK_RECORD
  5
2
102
{ACAD_XDICTIONARY
360
3
102
}
330
1
100
AcDbSymbolTableRecord
100
AcDbBlockTableRecord
  2
*MODEL_SPACE
340
1C1
 70
     0
280
     1
281
     0
  0
BLOCK_RECORD
  5
1C4
330
1
100
AcDbSymbolTableRecord
100
AcDbBlockTableRecord
  2
*PAPER_SPACE
340
1C7
 70
     0
280
     1
281
     0
  0
BLOCK_RECORD
  5
1C8
330
1
100
AcDbSymbolTableRecord
100
AcDbBlockTableRecord
  2
*PAPER_SPACE0
340
1CB
 70
     0
280
     1
281
     0
  0
BLOCK_RECORD
  5
264
330
1
100
AcDbSymbolTableRecord
100
AcDbBlockTableRecord
  2
A4图框-NEW
340
0
310
2800000020000000200000000100080000000000000400000000000000000000000000000000000000000000000080000080000000808000800000008000800080800000C0C0C000C0DCC000F0CAA6000020400000206000002080000020A0000020C0000020E00000400000004020000040400000406000004080000040A0
310
000040C0000040E00000600000006020000060400000606000006080000060A0000060C0000060E00000800000008020000080400000806000008080000080A0000080C0000080E00000A0000000A0200000A0400000A0600000A0800000A0A00000A0C00000A0E00000C0000000C0200000C0400000C0600000C0800000C0
310
A00000C0C00000C0E00000E0000000E0200000E0400000E0600000E0800000E0A00000E0C00000E0E00040000000400020004000400040006000400080004000A0004000C0004000E00040200000402020004020400040206000402080004020A0004020C0004020E000404000004040200040404000404060004040800040
310
40A0004040C0004040E00040600000406020004060400040606000406080004060A0004060C0004060E00040800000408020004080400040806000408080004080A0004080C0004080E00040A0000040A0200040A0400040A0600040A0800040A0A00040A0C00040A0E00040C0000040C0200040C0400040C0600040C08000
310
40C0A00040C0C00040C0E00040E0000040E0200040E0400040E0600040E0800040E0A00040E0C00040E0E00080000000800020008000400080006000800080008000A0008000C0008000E00080200000802020008020400080206000802080008020A0008020C0008020E00080400000804020008040400080406000804080
310
008040A0008040C0008040E00080600000806020008060400080606000806080008060A0008060C0008060E00080800000808020008080400080806000808080008080A0008080C0008080E00080A0000080A0200080A0400080A0600080A0800080A0A00080A0C00080A0E00080C0000080C0200080C0400080C0600080C0
310
800080C0A00080C0C00080C0E00080E0000080E0200080E0400080E0600080E0800080E0A00080E0C00080E0E000C0000000C0002000C0004000C0006000C0008000C000A000C000C000C000E000C0200000C0202000C0204000C0206000C0208000C020A000C020C000C020E000C0400000C0402000C0404000C0406000C0
310
408000C040A000C040C000C040E000C0600000C0602000C0604000C0606000C0608000C060A000C060C000C060E000C0800000C0802000C0804000C0806000C0808000C080A000C080C000C080E000C0A00000C0A02000C0A04000C0A06000C0A08000C0A0A000C0A0C000C0A0E000C0C00000C0C02000C0C04000C0C06000
310
C0C08000C0C0A000F0FBFF00A4A0A000808080000000FF0000FF000000FFFF00FF000000FF00FF00FFFF0000FFFFFF0000000000000000000000000000000000000000000000000000000000000000000000000000000000000000000000000000000000000000000000000000000000000000000000000000000000000000
310
000000000000000000000000000000000000000000000000000000000000000000000000000000000000000000000000000000000000000000000000000000000000000000000000000000000000000000000000000000000000000000000000000000000000000000000000000000000000F9F9F9F9F9F9F9F9F9F9F9F9F9
310
F9F9F9F9F9F9F9F9F9F9F9F9F9F9FF00000000F9FF000000000000000000FFFFFFFFFFFFFFFFFFFFFFFFF9FAFAFAFF00000000F9FF000000000000000000FFFFFFFFFFFFFFFFFFFFFFFFFFFFFFFFFF00000000F9FD000000000000000000FFFFFFFFFFFFFFFFFFFFFFFFFFFFFFFFFF00000000F9FF000000000000000000FF
310
FFFFFFFFFFFFFFFFFFFFFFFFFFFFFFFF00000000F9FD000000000000000000FFFFFFFFFFFFFFFFFFFFFFFFFFFFFFFFFF00000000F9FF00000000000000000000000000000000000000000000000000FF00000000F9FD00000000000000000000000000000000000000000000000000FF00000000F9FF000000000000000000
310
00000000000000000000000000000000FF00000000F9FD00000000000000000000000000000000000000000000000000FF00000000F9FF00000000000000000000000000000000000000000000000000FF00000000F9FD00000000000000000000000000000000000000000000000000FF00000000F9FD0000000000000000
310
0000000000000000000000000000000000FF00000000F9FF00000000000000000000000000000000000000000000000000FF00000000F9FD00000000000000000000000000000000000000000000000000FF00000000F9FF00000000000000000000000000000000000000000000000000FF00000000F9FD00000000000000
310
000000000000000000000000000000000000FF00000000F9FF00000000000000000000000000000000000000000000000000FF00000000F9FFFFFFFFFFFFFFFFFFFFFFFFFFFFFFFFFFFFFFFFFFFFFFFFFFFFFF00000000F9FFFFFFF9F9F9F9F9F9F9F9F9F9F9F9F9F9F9F9F9F9F9F9F9F9F9F9000000000000000000000000
310
00000000000000000000000000000000000000000000000000000000000000000000000000000000000000000000000000000000000000000000000000000000000000000000000000000000000000000000000000000000000000000000000000000000000000000000000000000000000000000000000000000000000000
310
0000000000000000000000000000000000000000000000000000000000000000000000000000000000000000000000000000000000000000
102
{BLKREFS
331
30A
102
}
 70
     4
280
     1
281
     0
1001
AcDbBlockRepETag
1070
     1
1071
      149
1001
AcDbDynamicBlockGUID
1000
{837F5363-9927-BB4E-B38F-D33C12B55305}
  0
BLOCK_RECORD
  5
E3E
330
1
100
AcDbSymbolTableRecord
100
AcDbBlockTableRecord
  2
*D2
340
0
 70
     0
280
     1
281
     0
  0
BLOCK_RECORD
  5
E4B
330
1
100
AcDbSymbolTableRecord
100
AcDbBlockTableRecord
  2
*D3
340
0
 70
     0
280
     1
281
     0
  0
BLOCK_RECORD
  5
FA1
330
1
100
AcDbSymbolTableRecord
100
AcDbBlockTableRecord
  2
*D4
340
0
 70
     0
280
     1
281
     0
  0
BLOCK_RECORD
  5
FAE
330
1
100
AcDbSymbolTableRecord
100
AcDbBlockTableRecord
  2
*D5
340
0
 70
     0
280
     1
281
     0
  0
BLOCK_RECORD
  5
10B3
330
1
100
AcDbSymbolTableRecord
100
AcDbBlockTableRecord
  2
*D6
340
0
 70
     0
280
     1
281
     0
  0
BLOCK_RECORD
  5
10C0
330
1
100
AcDbSymbolTableRecord
100
AcDbBlockTableRecord
  2
*D7
340
0
 70
     0
280
     1
281
     0
  0
BLOCK_RECORD
  5
1297
330
1
100
AcDbSymbolTableRecord
100
AcDbBlockTableRecord
  2
*D8
340
0
 70
     0
280
     1
281
     0
  0
BLOCK_RECORD
  5
12C3
330
1
100
AcDbSymbolTableRecord
100
AcDbBlockTableRecord
  2
*D9
340
0
 70
     0
280
     1
281
     0
  0
ENDTAB
  0
ENDSEC
  0
SECTION
  2
BLOCKS
  0
BLOCK
  5
5
330
2
100
AcDbEntity
  8
0
100
AcDbBlockBegin
  2
*MODEL_SPACE
 70
     0
 10
0.0
 20
0.0
 30
0.0
  3
*MODEL_SPACE
  1

  0
ENDBLK
  5
1C0
330
2
100
AcDbEntity
  8
0
100
AcDbBlockEnd
  0
BLOCK
  5
1C5
330
1C4
100
AcDbEntity
 67
     1
  8
0
100
AcDbBlockBegin
  2
*PAPER_SPACE
 70
     0
 10
0.0
 20
0.0
 30
0.0
  3
*PAPER_SPACE
  1

  0
ENDBLK
  5
1C6
330
1C4
100
AcDbEntity
 67
     1
  8
0
100
AcDbBlockEnd
  0
BLOCK
  5
1C9
330
1C8
100
AcDbEntity
  8
0
100
AcDbBlockBegin
  2
*PAPER_SPACE0
 70
     0
 10
0.0
 20
0.0
 30
0.0
  3
*PAPER_SPACE0
  1

  0
ENDBLK
  5
1CA
330
1C8
100
AcDbEntity
  8
0
100
AcDbBlockEnd
  0
BLOCK
  5
266
330
264
100
AcDbEntity
  8
0
100
AcDbBlockBegin
  2
A4图框-NEW
 70
     0
 10
0.0
 20
0.0
 30
0.0
  3
A4图框-NEW
  1

  0
MTEXT
  5
11EF
102
{ACAD_XDICTIONARY
360
11F0
102
}
330
264
100
AcDbEntity
  8
图框
 62
     3
100
AcDbMText
 10
967.6594956750133
 20
499.7664151964293
 30
0.0
 40
2.985513575034151
 41
15.50176341157864
 46
6.292658374511018
 71
     5
 72
     5
  1
\pxqc;BQ LUO
  7
Romans字体
 73
     1
 44
1.0
1001
AcDbBlockRepETag
1070
     1
1071
        0
1005
11EF
1001
ACAD
1000
ACAD_MTEXT_DEFINED_HEIGHT_BEGIN
1070
    46
1040
6.292658374511018
1000
ACAD_MTEXT_DEFINED_HEIGHT_END
  0
MTEXT
  5
11F1
330
264
100
AcDbEntity
  8
图框
 62
     3
100
AcDbMText
 10
983.041569333247
 20
499.7664151964293
 30
0.0
 40
2.487927979195124
 41
15.26238390489062
 46
6.292658374511042
 71
     5
 72
     5
  1
{\W0.7;18.10.2010}
  7
Romans字体
 73
     1
 44
1.0
1001
AcDbBlockRepETag
1070
     1
1071
        1
1005
11F1
1001
ACAD
1000
ACAD_MTEXT_DEFINED_HEIGHT_BEGIN
1070
    46
1040
6.292658374511042
1000
ACAD_MTEXT_DEFINED_HEIGHT_END
  0
MTEXT
  5
11F2
330
264
100
AcDbEntity
  8
图框
 62
     3
100
AcDbMText
 10
1012.477254728976
 20
487.1810984474071
 30
0.0
 40
2.985513575034151
 41
17.64876416884615
 46
6.292658374511455
 71
     5
 72
     5
  1
YY LIN
  7
Romans字体
 73
     1
 44
1.0
1001
AcDbBlockRepETag
1070
     1
1071
        2
1005
11F2
1001
ACAD
1000
ACAD_MTEXT_DEFINED_HEIGHT_BEGIN
1070
    46
1040
6.292658374511455
1000
ACAD_MTEXT_DEFINED_HEIGHT_END
  0
MTEXT
  5
11F3
330
264
100
AcDbEntity
  8
图框
 62
     3
100
AcDbMText
 10
1028.977802139886
 20
487.1810984474071
 30
0.0
 40
2.487927979195124
 41
15.35233065297276
 46
6.292658374511495
 71
     5
 72
     5
  1
{\W0.7;18.10.2010}
  7
Romans字体
 73
     1
 44
1.0
1001
AcDbBlockRepETag
1070
     1
1071
        3
1005
11F3
1001
ACAD
1000
ACAD_MTEXT_DEFINED_HEIGHT_BEGIN
1070
    46
1040
6.292658374511495
1000
ACAD_MTEXT_DEFINED_HEIGHT_END
  0
MTEXT
  5
11F4
330
264
100
AcDbEntity
  8
图框
 62
     3
100
AcDbMText
 10
1063.722665487208
 20
525.4145966538831
 30
0.0
 40
2.985513575034151
 41
32.4973914334545
 46
11.82914190181707
 71
     5
 72
     5
  1
-
  7
Romans字体
 73
     1
 44
1.0
1001
AcDbBlockRepETag
1070
     1
1071
        4
1005
11F4
1001
ACAD
1000
ACAD_MTEXT_DEFINED_HEIGHT_BEGIN
1070
    46
1040
11.82914190181707
1000
ACAD_MTEXT_DEFINED_HEIGHT_END
  0
MTEXT
  5
11F5
330
264
100
AcDbEntity
  8
图框
 62
     3
100
AcDbMText
 10
1063.727338552349
 20
513.5854547520641
 30
0.0
 40
2.985513575034151
 41
32.48804530317308
 46
11.82914190182139
 71
     5
 72
     5
  1
-
  7
Romans字体
 73
     1
 44
1.0
1001
AcDbBlockRepETag
1070
     1
1071
        5
1005
11F5
1001
ACAD
1000
ACAD_MTEXT_DEFINED_HEIGHT_BEGIN
1070
    46
1040
11.82914190182139
1000
ACAD_MTEXT_DEFINED_HEIGHT_END
  0
MTEXT
  5
11F6
330
264
100
AcDbEntity
  8
图框
 62
     3
100
AcDbMText
 10
1110.122306614152
 20
526.8006839312707
 30
0.0
 40
2.985513575034151
 41
33.61239199242139
 46
9.05696734704178
 71
     5
 72
     5
  1
-
  7
Romans字体
 73
     1
 44
1.0
1001
AcDbBlockRepETag
1070
     1
1071
        6
1005
11F6
1001
ACAD
1000
ACAD_MTEXT_DEFINED_HEIGHT_BEGIN
1070
    46
1040
9.05696734704178
1000
ACAD_MTEXT_DEFINED_HEIGHT_END
  0
MTEXT
  5
11F7
330
264
100
AcDbEntity
  8
图框
 62
     3
100
AcDbMText
 10
1110.122306614152
 20
500.2775205517162
 30
0.0
 40
2.985513575034151
 41
33.61239199242139
 46
8.871557304763419
 71
     5
 72
     5
  1
-
  7
Romans字体
 73
     1
 44
1.0
1001
AcDbBlockRepETag
1070
     1
1071
        7
1005
11F7
1001
ACAD
1000
ACAD_MTEXT_DEFINED_HEIGHT_BEGIN
1070
    46
1040
8.871557304763419
1000
ACAD_MTEXT_DEFINED_HEIGHT_END
  0
MTEXT
  5
11F8
330
264
100
AcDbEntity
  8
图框
 62
     3
100
AcDbMText
 10
967.6594956750133
 20
493.4737568219182
 30
0.0
 40
2.985513575034151
 41
15.50176341157864
 46
6.292658374510335
 71
     5
 72
     5
  1
P RAO
  7
Romans字体
 73
     1
 44
1.0
1001
AcDbBlockRepETag
1070
     1
1071
        8
1005
11F8
1001
ACAD
1000
ACAD_MTEXT_DEFINED_HEIGHT_BEGIN
1070
    46
1040
6.292658374510335
1000
ACAD_MTEXT_DEFINED_HEIGHT_END
  0
MTEXT
  5
11F9
330
264
100
AcDbEntity
  8
图框
 62
     3
100
AcDbMText
 10
983.041569333247
 20
493.2441970450405
 30
0.0
 40
2.487927979195124
 41
15.26238390489051
 46
6.751777928266487
 71
     5
 72
     5
  1
{\W0.7;18.10.2010}
  7
Romans字体
 73
     1
 44
1.0
1001
AcDbBlockRepETag
1070
     1
1071
        9
1005
11F9
1001
ACAD
1000
ACAD_MTEXT_DEFINED_HEIGHT_BEGIN
1070
    46
1040
6.751777928266487
1000
ACAD_MTEXT_DEFINED_HEIGHT_END
  0
MTEXT
  5
11FA
330
264
100
AcDbEntity
  8
图框
 62
     3
100
AcDbMText
 10
1012.477254728976
 20
499.7664151964291
 30
0.0
 40
2.985513575034151
 41
17.64876416884615
 46
6.292658374511397
 71
     5
 72
     5
  1
-
  7
Romans字体
 73
     1
 44
1.0
1001
AcDbBlockRepETag
1070
     1
1071
       10
1005
11FA
1001
ACAD
1000
ACAD_MTEXT_DEFINED_HEIGHT_BEGIN
1070
    46
1040
6.292658374511397
1000
ACAD_MTEXT_DEFINED_HEIGHT_END
  0
MTEXT
  5
11FB
330
264
100
AcDbEntity
  8
图框
 62
     3
100
AcDbMText
 10
1028.977802139886
 20
499.7664151964289
 30
0.0
 40
2.487927979195124
 41
15.35233065297265
 46
6.292658374511382
 71
     5
 72
     5
  1
-
  7
Romans字体
 73
     1
 44
1.0
1001
AcDbBlockRepETag
1070
     1
1071
       11
1005
11FB
1001
ACAD
1000
ACAD_MTEXT_DEFINED_HEIGHT_BEGIN
1070
    46
1040
6.292658374511382
1000
ACAD_MTEXT_DEFINED_HEIGHT_END
  0
MTEXT
  5
11FC
330
264
100
AcDbEntity
  8
图框
 62
     3
100
AcDbMText
 10
967.6594956750133
 20
487.1810984474071
 30
0.0
 40
2.985513575034151
 41
15.50176341157863
 46
6.292658374511478
 71
     5
 72
     5
  1
-
  7
Romans字体
 73
     1
 44
1.0
1001
AcDbBlockRepETag
1070
     1
1071
       12
1005
11FC
1001
ACAD
1000
ACAD_MTEXT_DEFINED_HEIGHT_BEGIN
1070
    46
1040
6.292658374511478
1000
ACAD_MTEXT_DEFINED_HEIGHT_END
  0
MTEXT
  5
11FD
330
264
100
AcDbEntity
  8
图框
 62
     3
100
AcDbMText
 10
983.041569333247
 20
487.1810984474071
 30
0.0
 40
2.487927979195124
 41
15.26238390489062
 46
6.292658374511495
 71
     5
 72
     5
  1
-
  7
Romans字体
 73
     1
 44
1.0
1001
AcDbBlockRepETag
1070
     1
1071
       13
1005
11FD
1001
ACAD
1000
ACAD_MTEXT_DEFINED_HEIGHT_BEGIN
1070
    46
1040
6.292658374511495
1000
ACAD_MTEXT_DEFINED_HEIGHT_END
  0
MTEXT
  5
11FE
330
264
100
AcDbEntity
  8
图框
 62
     3
100
AcDbMText
 10
1074.556686986741
 20
495.8417418993361
 30
0.0
 40
2.985513575034151
 41
10.82934843438978
 46
7.886094601210427
 71
     5
 72
     5
  1
-
  7
Romans字体
 73
     1
 44
1.0
1001
AcDbBlockRepETag
1070
     1
1071
       14
1005
11FE
1001
ACAD
1000
ACAD_MTEXT_DEFINED_HEIGHT_BEGIN
1070
    46
1040
7.886094601210427
1000
ACAD_MTEXT_DEFINED_HEIGHT_END
  0
LINE
  5
11FF
330
264
100
AcDbEntity
  8
图框
370
    -3
100
AcDbLine
 10
1036.653967466372
 20
499.7847891999413
 30
0.0
 11
1079.971361203936
 21
499.7847891999413
 31
0.0
1001
AcDbBlockRepETag
1070
     1
1071
       15
1005
11FF
  0
MTEXT
  5
1200
330
264
100
AcDbEntity
  8
图框
 62
     1
370
    20
100
AcDbMText
 10
1108.26336443907
 20
491.5162596080882
 30
0.0
 40
2.699054613030988
 41
82.30831305643079
 46
0.0
 71
     5
 72
     5
  1
{\fSimHei|b0|i0|c134|p2;厦门唯恩电气有限公司}
 73
     1
 44
1.0
1001
AcDbBlockRepETag
1070
     1
1071
       16
1005
1200
  0
MTEXT
  5
1201
330
264
100
AcDbEntity
  8
图框
 62
     3
370
    20
100
AcDbMText
 10
1108.435451459908
 20
487.298967726064
 30
0.0
 40
1.652482416141417
 41
68.08558693693567
 46
0.0
 71
     5
 72
     5
  1
{\fArial Narrow|b0|i0|c0|p34;XIAMEN WAIN ELECTRICAL CO.LTD}
  7
工程字
 73
     1
 44
1.0
1001
AcDbBlockRepETag
1070
     1
1071
       17
1005
1201
  0
MTEXT
  5
1202
330
264
100
AcDbEntity
  8
图框
 62
     1
370
    20
100
AcDbMText
 10
1085.711816899387
 20
491.0944802995856
 30
0.0
 40
2.005930044038334
 41
5.047240019334847
 46
0.0
 71
     1
 72
     5
  1
{\fArial|b0|i0|c0|p34;A}
  7
Chinese
 73
     1
 44
1.0
1001
AcDbBlockRepETag
1070
     1
1071
       18
1005
1202
  0
MTEXT
  5
1203
330
264
100
AcDbEntity
  8
图框
 62
     1
370
    20
100
AcDbMText
 10
1088.213485935716
 20
491.0944802995856
 30
0.0
 40
2.005930044038334
 41
5.047240019334847
 46
0.0
 71
     1
 72
     5
  1
{\fArial|b0|i0|c0|p34;I}
  7
Chinese
 73
     1
 44
1.0
1001
AcDbBlockRepETag
1070
     1
1071
       19
1005
1203
  0
MTEXT
  5
1204
330
264
100
AcDbEntity
  8
图框
 62
     1
370
    20
100
AcDbMText
 10
1089.142375222864
 20
491.0822866326808
 30
0.0
 40
2.005930044038334
 41
5.047240019334847
 46
0.0
 71
     1
 72
     5
  1
{\fArial|b0|i0|c0|p34;N}
  7
Chinese
 73
     1
 44
1.0
1001
AcDbBlockRepETag
1070
     1
1071
       20
1005
1204
  0
MTEXT
  5
1205
330
264
100
AcDbEntity
  8
图框
100
AcDbMText
 10
1069.142012769545
 20
487.9667319294409
 30
0.0
 40
2.252848170144607
 41
21.65869686878327
 46
7.863925338579296
 71
     5
 72
     5
  1
{\W0.5;\C1;All Dimensions in mm\POriginal Size DIN A 4}
  7
Romans字体
 73
     1
 44
1.0
1001
AcDbBlockRepETag
1070
     1
1071
       21
1005
1205
1001
ACAD
1000
ACAD_MTEXT_DEFINED_HEIGHT_BEGIN
1070
    46
1040
7.863925338579296
1000
ACAD_MTEXT_DEFINED_HEIGHT_END
  0
MTEXT
  5
1206
330
264
100
AcDbEntity
  8
图框
  6
ByBlock
 62
     6
370
    18
100
AcDbMText
 10
1127.40434942308
 20
508.7896535755975
 30
0.0
 40
2.651776162684904
 41
2.557913877927211
 46
0.0
 71
     1
 72
     5
  1
A
  7
Romans字体
 11
0.0000000000000001
 21
1.0
 31
0.0
 73
     1
 44
1.0
1001
AcDbBlockRepETag
1070
     1
1071
       22
1005
1206
  0
MTEXT
  5
1207
330
264
100
AcDbEntity
  8
图框
 62
     6
100
AcDbMText
 10
1127.40434942308
 20
556.3746573232886
 30
0.0
 40
2.651776162684904
 41
2.557913877927211
 46
0.0
 71
     1
 72
     5
  1
B
  7
Romans字体
 11
0.0000000000000001
 21
1.0
 31
0.0
 73
     1
 44
1.0
1001
AcDbBlockRepETag
1070
     1
1071
       23
1005
1207
  0
MTEXT
  5
1208
330
264
100
AcDbEntity
  8
图框
 62
     6
100
AcDbMText
 10
1127.40434942308
 20
607.5539372630998
 30
0.0
 40
2.651776162684904
 41
2.557913877927211
 46
0.0
 71
     1
 72
     5
  1
C
  7
Romans字体
 11
0.0000000000000001
 21
1.0
 31
0.0
 73
     1
 44
1.0
1001
AcDbBlockRepETag
1070
     1
1071
       24
1005
1208
  0
MTEXT
  5
1209
330
264
100
AcDbEntity
  8
图框
 62
     6
100
AcDbMText
 10
1127.40434942308
 20
658.7332172029115
 30
0.0
 40
2.651776162684904
 41
2.557913877927211
 46
0.0
 71
     1
 72
     5
  1
D
  7
Romans字体
 11
0.0000000000000001
 21
1.0
 31
0.0
 73
     1
 44
1.0
1001
AcDbBlockRepETag
1070
     1
1071
       25
1005
1209
  0
LINE
  5
120A
330
264
100
AcDbEntity
  8
图框
 62
     6
100
AcDbLine
 10
1130.411601781241
 20
634.0726090796082
 30
0.0
 11
1126.928502610363
 21
634.0726090796082
 31
0.0
1001
AcDbBlockRepETag
1070
     1
1071
       26
1005
120A
  0
LINE
  5
120B
330
264
100
AcDbEntity
  8
图框
 62
     6
100
AcDbLine
 10
1130.411601781241
 20
582.89332913979
 30
0.0
 11
1126.928502610363
 21
582.89332913979
 31
0.0
1001
AcDbBlockRepETag
1070
     1
1071
       27
1005
120B
  0
MTEXT
  5
120C
330
264
100
AcDbEntity
  8
图框
 62
     6
100
AcDbMText
 10
1105.329704038389
 20
483.6164543011163
 30
0.0
 40
2.651776162684904
 41
2.557913877927211
 46
0.0
 71
     1
 72
     5
  1
6
  7
Romans字体
 73
     1
 44
1.0
1001
AcDbBlockRepETag
1070
     1
1071
       28
1005
120C
  0
LINE
  5
120D
330
264
100
AcDbEntity
  8
图框
 62
     6
100
AcDbLine
 10
1081.088565155284
 20
484.0347692601515
 30
0.0
 11
1081.088565155284
 21
480.5347692601475
 31
0.0
1001
AcDbBlockRepETag
1070
     1
1071
       29
1005
120D
  0
MTEXT
  5
120E
330
264
100
AcDbEntity
  8
图框
 62
     6
100
AcDbMText
 10
1055.900596365941
 20
483.520053108993
 30
0.0
 40
2.651776162684904
 41
2.557913877927211
 46
0.0
 71
     1
 72
     5
  1
5
  7
Romans字体
 73
     1
 44
1.0
1001
AcDbBlockRepETag
1070
     1
1071
       30
1005
120E
  0
LINE
  5
120F
330
264
100
AcDbEntity
  8
图框
 62
     6
100
AcDbLine
 10
1031.553386436349
 20
484.0347692601515
 30
0.0
 11
1031.553386436349
 21
480.5347692601475
 31
0.0
1001
AcDbBlockRepETag
1070
     1
1071
       31
1005
120F
  0
MTEXT
  5
1210
330
264
100
AcDbEntity
  8
图框
 62
     6
100
AcDbMText
 10
1006.383180575197
 20
483.5687958215896
 30
0.0
 40
2.651776162684904
 41
2.557913877927211
 46
0.0
 71
     1
 72
     5
  1
4
  7
Romans字体
 73
     1
 44
1.0
1001
AcDbBlockRepETag
1070
     1
1071
       32
1005
1210
  0
LINE
  5
1211
330
264
100
AcDbEntity
  8
图框
 62
     6
100
AcDbLine
 10
982.0182077173887
 20
484.0347692601515
 30
0.0
 11
982.0182077173887
 21
480.5347692601475
 31
0.0
1001
AcDbBlockRepETag
1070
     1
1071
       33
1005
1211
  0
MTEXT
  5
1212
330
264
100
AcDbEntity
  8
图框
 62
     6
100
AcDbMText
 10
956.8302389280352
 20
483.5989680297948
 30
0.0
 40
2.651776162684904
 41
2.557913877927211
 46
0.0
 71
     1
 72
     5
  1
3
  7
Romans字体
 73
     1
 44
1.0
1001
AcDbBlockRepETag
1070
     1
1071
       34
1005
1212
  0
LINE
  5
1213
330
264
100
AcDbEntity
  8
图框
 62
     6
100
AcDbLine
 10
932.4830289984245
 20
484.0347692601515
 30
0.0
 11
932.4830289984245
 21
480.5347692601475
 31
0.0
1001
AcDbBlockRepETag
1070
     1
1071
       35
1005
1213
  0
MTEXT
  5
1214
330
264
100
AcDbEntity
  8
图框
 62
     6
100
AcDbMText
 10
906.0252349826365
 20
483.6475250013156
 30
0.0
 40
2.651776162684904
 41
2.557913877927211
 46
0.0
 71
     1
 72
     5
  1
2
  7
Romans字体
 73
     1
 44
1.0
1001
AcDbBlockRepETag
1070
     1
1071
       36
1005
1214
  0
LINE
  5
1215
330
264
100
AcDbEntity
  8
图框
 62
     6
100
AcDbLine
 10
882.9478502794648
 20
484.0347692601515
 30
0.0
 11
882.9478502794648
 21
480.5347692601475
 31
0.0
1001
AcDbBlockRepETag
1070
     1
1071
       37
1005
1215
  0
MTEXT
  5
1216
330
264
100
AcDbEntity
  8
图框
 62
     6
100
AcDbMText
 10
857.7598814901191
 20
483.651829494754
 30
0.0
 40
2.651776162684904
 41
2.557913877927211
 46
0.0
 71
     1
 72
     5
  1
1
  7
Romans字体
 73
     1
 44
1.0
1001
AcDbBlockRepETag
1070
     1
1071
       38
1005
1216
  0
LINE
  5
1217
330
264
100
AcDbEntity
  8
图框
370
    50
100
AcDbLine
 10
836.8548209370597
 20
484.0347692601515
 30
0.0
 11
1126.928502610363
 21
484.0347692601515
 31
0.0
1001
AcDbBlockRepETag
1070
     1
1071
       39
1005
1217
  0
LINE
  5
1218
330
264
100
AcDbEntity
  8
图框
370
    50
100
AcDbLine
 10
836.9128518455362
 20
484.0178684310246
 30
0.0
 11
836.9128518455394
 21
675.0207195125422
 31
0.0
1001
AcDbBlockRepETag
1070
     1
1071
       40
1005
1218
  0
MTEXT
  5
1219
330
264
100
AcDbEntity
  8
图框
 62
     6
100
AcDbMText
 10
833.8475685789031
 20
658.7332172029115
 30
0.0
 40
2.651776162684904
 41
2.557913877927211
 46
0.0
 71
     1
 72
     5
  1
D
  7
Romans字体
 11
0.0000000000000001
 21
1.0
 31
0.0
 73
     1
 44
1.0
1001
AcDbBlockRepETag
1070
     1
1071
       41
1005
1219
  0
LINE
  5
121A
330
264
100
AcDbEntity
  8
图框
 62
     6
100
AcDbLine
 10
836.9128518455386
 20
634.0726090796082
 30
0.0
 11
833.4128518455365
 21
634.0726090796082
 31
0.0
1001
AcDbBlockRepETag
1070
     1
1071
       42
1005
121A
  0
MTEXT
  5
121B
330
264
100
AcDbEntity
  8
图框
 62
     6
100
AcDbMText
 10
833.9039177480142
 20
607.5539372630998
 30
0.0
 40
2.651776162684904
 41
2.557913877927211
 46
0.0
 71
     1
 72
     5
  1
C
  7
Romans字体
 11
0.0000000000000001
 21
1.0
 31
0.0
 73
     1
 44
1.0
1001
AcDbBlockRepETag
1070
     1
1071
       43
1005
121B
  0
LINE
  5
121C
330
264
100
AcDbEntity
  8
图框
 62
     6
100
AcDbLine
 10
836.9128518455378
 20
582.89332913979
 30
0.0
 11
833.4128518455365
 21
582.89332913979
 31
0.0
1001
AcDbBlockRepETag
1070
     1
1071
       44
1005
121C
  0
MTEXT
  5
121D
330
264
100
AcDbEntity
  8
图框
 62
     6
100
AcDbMText
 10
833.9039177480142
 20
556.3746573232886
 30
0.0
 40
2.651776162684904
 41
2.557913877927211
 46
0.0
 71
     1
 72
     5
  1
B
  7
Romans字体
 11
0.0000000000000001
 21
1.0
 31
0.0
 73
     1
 44
1.0
1001
AcDbBlockRepETag
1070
     1
1071
       45
1005
121D
  0
LINE
  5
121E
330
264
100
AcDbEntity
  8
图框
 62
     6
100
AcDbLine
 10
836.9128518455367
 20
531.714049199969
 30
0.0
 11
833.4128518455365
 21
531.714049199969
 31
0.0
1001
AcDbBlockRepETag
1070
     1
1071
       46
1005
121E
  0
MTEXT
  5
121F
330
264
100
AcDbEntity
  8
图框
 62
     6
100
AcDbMText
 10
833.9039177480142
 20
508.7896535755975
 30
0.0
 40
2.651776162684904
 41
2.557913877927211
 46
0.0
 71
     1
 72
     5
  1
A
  7
Romans字体
 11
0.0000000000000001
 21
1.0
 31
0.0
 73
     1
 44
1.0
1001
AcDbBlockRepETag
1070
     1
1071
       47
1005
121F
  0
LINE
  5
1220
330
264
100
AcDbEntity
  8
图框
370
    -3
100
AcDbLine
 10
836.9128518455394
 20
675.0207195125422
 30
0.0
 11
836.9128518455394
 21
684.5021384922564
 31
0.0
1001
AcDbBlockRepETag
1070
     1
1071
       48
1005
1220
  0
LINE
  5
1221
330
264
100
AcDbEntity
  8
图框
370
    -3
100
AcDbLine
 10
842.6237321475781
 20
675.5347692601515
 30
0.0
 11
842.6237321475781
 21
685.0161882398658
 31
0.0
1001
AcDbBlockRepETag
1070
     1
1071
       49
1005
1221
  0
LINE
  5
1222
330
264
100
AcDbEntity
  8
图框
370
    -3
100
AcDbLine
 10
848.3346124496179
 20
675.5347692601515
 30
0.0
 11
848.3346124496179
 21
685.0161882398658
 31
0.0
1001
AcDbBlockRepETag
1070
     1
1071
       50
1005
1222
  0
LINE
  5
1223
330
264
100
AcDbEntity
  8
图框
370
    -3
100
AcDbLine
 10
854.0454927516588
 20
675.5347692601515
 30
0.0
 11
854.0454927516588
 21
685.0161882398658
 31
0.0
1001
AcDbBlockRepETag
1070
     1
1071
       51
1005
1223
  0
LINE
  5
1224
330
264
100
AcDbEntity
  8
图框
370
    -3
100
AcDbLine
 10
861.5351874539182
 20
675.5347692601515
 30
0.0
 11
861.5351874539182
 21
686.7901958362482
 31
0.0
1001
AcDbBlockRepETag
1070
     1
1071
       52
1005
1224
  0
MTEXT
  5
1225
330
264
100
AcDbEntity
  8
图框
 62
     6
100
AcDbMText
 10
1105.329704038389
 20
678.859919059449
 30
0.0
 40
2.651776162684904
 41
2.557913877927211
 46
0.0
 71
     1
 72
     5
  1
6
  7
Romans字体
 73
     1
 44
1.0
1001
AcDbBlockRepETag
1070
     1
1071
       53
1005
1225
  0
LINE
  5
1226
330
264
100
AcDbEntity
  8
图框
 62
     6
100
AcDbLine
 10
1081.088565155284
 20
679.0347692601516
 30
0.0
 11
1081.088565155284
 21
675.5347692601515
 31
0.0
1001
AcDbBlockRepETag
1070
     1
1071
       54
1005
1226
  0
MTEXT
  5
1227
330
264
100
AcDbEntity
  8
图框
 62
     6
100
AcDbMText
 10
1055.900596365941
 20
678.859919059449
 30
0.0
 40
2.651776162684904
 41
2.557913877927211
 46
0.0
 71
     1
 72
     5
  1
5
  7
Romans字体
 73
     1
 44
1.0
1001
AcDbBlockRepETag
1070
     1
1071
       55
1005
1227
  0
LINE
  5
1228
330
264
100
AcDbEntity
  8
图框
 62
     6
100
AcDbLine
 10
1031.553386436349
 20
679.0347692601516
 30
0.0
 11
1031.553386436349
 21
675.5347692601515
 31
0.0
1001
AcDbBlockRepETag
1070
     1
1071
       56
1005
1228
  0
MTEXT
  5
1229
330
264
100
AcDbEntity
  8
图框
 62
     6
100
AcDbMText
 10
1006.36541764698
 20
678.7312083656147
 30
0.0
 40
2.651776162684904
 41
2.557913877927211
 46
0.0
 71
     1
 72
     5
  1
4
  7
Romans字体
 73
     1
 44
1.0
1001
AcDbBlockRepETag
1070
     1
1071
       57
1005
1229
  0
LINE
  5
122A
330
264
100
AcDbEntity
  8
图框
 62
     6
100
AcDbLine
 10
982.0182077173887
 20
679.0347692601516
 30
0.0
 11
982.0182077173887
 21
675.5347692601515
 31
0.0
1001
AcDbBlockRepETag
1070
     1
1071
       58
1005
122A
  0
MTEXT
  5
122B
330
264
100
AcDbEntity
  8
图框
 62
     6
100
AcDbMText
 10
956.8302389280352
 20
678.859919059449
 30
0.0
 40
2.651776162684904
 41
2.557913877927211
 46
0.0
 71
     1
 72
     5
  1
3
  7
Romans字体
 73
     1
 44
1.0
1001
AcDbBlockRepETag
1070
     1
1071
       59
1005
122B
  0
LINE
  5
122C
330
264
100
AcDbEntity
  8
图框
 62
     6
100
AcDbLine
 10
932.4830289984245
 20
679.0347692601516
 30
0.0
 11
932.4830289984245
 21
675.5347692601515
 31
0.0
1001
AcDbBlockRepETag
1070
     1
1071
       60
1005
122C
  0
MTEXT
  5
122D
330
264
100
AcDbEntity
  8
图框
 62
     6
100
AcDbMText
 10
907.295060209082
 20
678.859919059449
 30
0.0
 40
2.651776162684904
 41
2.557913877927211
 46
0.0
 71
     1
 72
     5
  1
2
  7
Romans字体
 73
     1
 44
1.0
1001
AcDbBlockRepETag
1070
     1
1071
       61
1005
122D
  0
LINE
  5
122E
330
264
100
AcDbEntity
  8
图框
 62
     6
100
AcDbLine
 10
882.9478502794648
 20
678.7962435131815
 30
0.0
 11
882.9478502794648
 21
675.5347692601515
 31
0.0
1001
AcDbBlockRepETag
1070
     1
1071
       62
1005
122E
  0
MTEXT
  5
122F
330
264
100
AcDbEntity
  8
图框
 62
     6
100
AcDbMText
 10
862.6286629643733
 20
678.859919059449
 30
0.0
 40
2.651776162684904
 41
2.557913877927211
 46
0.0
 71
     1
 72
     5
  1
1
  7
Romans字体
 73
     1
 44
1.0
1001
AcDbBlockRepETag
1070
     1
1071
       63
1005
122F
  0
LINE
  5
1230
330
264
100
AcDbEntity
  8
图框
370
    -3
100
AcDbLine
 10
836.9128518455394
 20
675.0207195125422
 30
0.0
 11
836.9128518455394
 21
686.7901958362482
 31
0.0
1001
AcDbBlockRepETag
1070
     1
1071
       64
1005
1230
  0
LINE
  5
1231
330
264
100
AcDbEntity
  8
图框
370
    50
100
AcDbLine
 10
836.9128518455394
 20
675.5347692601515
 30
0.0
 11
1126.928502610363
 21
675.5347692601515
 31
0.0
1001
AcDbBlockRepETag
1070
     1
1071
       65
1005
1231
  0
LINE
  5
1232
330
264
100
AcDbEntity
  8
图框
370
    -3
100
AcDbLine
 10
842.6237321475781
 20
675.5347692601515
 30
0.0
 11
842.6237321475781
 21
686.7901958362482
 31
0.0
1001
AcDbBlockRepETag
1070
     1
1071
       66
1005
1232
  0
LINE
  5
1233
330
264
100
AcDbEntity
  8
图框
370
    -3
100
AcDbLine
 10
848.3346124496179
 20
675.5347692601515
 30
0.0
 11
848.3346124496179
 21
686.7901958362482
 31
0.0
1001
AcDbBlockRepETag
1070
     1
1071
       67
1005
1233
  0
MTEXT
  5
1234
102
{ACAD_XDICTIONARY
360
1235
102
}
330
264
100
AcDbEntity
  8
图框
100
AcDbMText
 10
857.7903401027889
 20
686.7901958362482
 30
0.0
 40
1.958998408821398
 41
11.25542657609672
 46
7.489694702258906
 71
     4
 72
     5
  1
\pxqc;档案员{\H0.7x;\P\Fromans|c134;Filing Clerk\fFangSong_GB2312|b0|i0|c134|p49; }
 11
-0.0000000000000002
 21
-1.0
 31
0.0
 73
     1
 44
1.0
1001
AcDbBlockRepETag
1070
     1
1071
       68
1005
1234
1001
ACAD
1000
ACAD_MTEXT_DEFINED_HEIGHT_BEGIN
1070
    46
1040
7.489694702258906
1000
ACAD_MTEXT_DEFINED_HEIGHT_END
  0
MTEXT
  5
1236
102
{ACAD_XDICTIONARY
360
1237
102
}
330
264
100
AcDbEntity
  8
图框
100
AcDbMText
 10
845.479172298598
 20
686.7901958362482
 30
0.0
 40
1.958998408821398
 41
11.25542657609672
 46
5.710880302039671
 71
     4
 72
     5
  1
\pxqc;日期{\Fromans|c134;/Date}
 11
-0.0000000000000002
 21
-1.0
 31
0.0
 73
     1
 44
1.0
1001
AcDbBlockRepETag
1070
     1
1071
       69
1005
1236
1001
ACAD
1000
ACAD_MTEXT_DEFINED_HEIGHT_BEGIN
1070
    46
1040
5.710880302039671
1000
ACAD_MTEXT_DEFINED_HEIGHT_END
  0
LINE
  5
1238
330
264
100
AcDbEntity
  8
图框
370
    -3
100
AcDbLine
 10
854.0454927516588
 20
675.5347692601515
 30
0.0
 11
854.0454927516588
 21
686.7901958362482
 31
0.0
1001
AcDbBlockRepETag
1070
     1
1071
       70
1005
1238
  0
LINE
  5
1239
330
264
100
AcDbEntity
  8
图框
370
    -3
100
AcDbLine
 10
1036.653967466372
 20
531.3291676047914
 30
0.0
 11
1036.653967466372
 21
484.0126019753161
 31
0.0
1001
AcDbBlockRepETag
1070
     1
1071
       71
1005
1239
  0
LINE
  5
123A
330
264
100
AcDbEntity
  8
图框
370
    -3
100
AcDbLine
 10
1047.483315900763
 20
507.6708838011533
 30
0.0
 11
1047.483315900763
 21
491.8986945987308
 31
0.0
1001
AcDbBlockRepETag
1070
     1
1071
       72
1005
123A
  0
LINE
  5
123B
330
264
100
AcDbEntity
  8
图框
370
    -3
100
AcDbLine
 10
1058.312664335153
 20
507.6708838011533
 30
0.0
 11
1058.312664335153
 21
484.0347692601515
 31
0.0
1001
AcDbBlockRepETag
1070
     1
1071
       73
1005
123B
  0
LINE
  5
123C
330
264
100
AcDbEntity
  8
图框
370
    25
100
AcDbLine
 10
1048.474135214456
 20
488.1095628329926
 30
0.0
 11
1054.946420288459
 21
488.1095628329926
 31
0.0
1001
AcDbBlockRepETag
1070
     1
1071
       74
1005
123C
  0
LINE
  5
123D
330
264
100
AcDbEntity
  8
图框
370
    25
100
AcDbLine
 10
1054.232527365989
 20
487.0761716842634
 30
0.0
 11
1049.156490914508
 21
486.4576273751
 31
0.0
1001
AcDbBlockRepETag
1070
     1
1071
       75
1005
123D
  0
LINE
  5
123E
330
264
100
AcDbEntity
  8
图框
370
    25
100
AcDbLine
 10
1054.232527365989
 20
489.1429539817209
 30
0.0
 11
1049.156490914508
 21
489.7614982908846
 31
0.0
1001
AcDbBlockRepETag
1070
     1
1071
       76
1005
123E
  0
LINE
  5
123F
330
264
100
AcDbEntity
  8
图框
370
    25
100
AcDbLine
 10
1049.156490914508
 20
489.7614982908846
 30
0.0
 11
1049.156490914508
 21
486.4576273751
 31
0.0
1001
AcDbBlockRepETag
1070
     1
1071
       77
1005
123F
  0
LINE
  5
1240
330
264
100
AcDbEntity
  8
图框
370
    25
100
AcDbLine
 10
1054.232527365989
 20
489.1429539817209
 30
0.0
 11
1054.232527365989
 21
487.0761716842634
 31
0.0
1001
AcDbBlockRepETag
1070
     1
1071
       78
1005
1240
  0
CIRCLE
  5
1241
330
264
100
AcDbEntity
  8
图框
370
    25
100
AcDbCircle
 10
1042.502700458579
 20
488.1095628329926
 30
0.0
 40
1.651935457891863
1001
AcDbBlockRepETag
1070
     1
1071
       79
1005
1241
  0
CIRCLE
  5
1242
330
264
100
AcDbEntity
  8
图框
370
    25
100
AcDbCircle
 10
1042.502700458579
 20
488.1095628329926
 30
0.0
 40
1.033391148728775
1001
AcDbBlockRepETag
1070
     1
1071
       80
1005
1242
  0
LINE
  5
1243
330
264
100
AcDbEntity
  8
图框
370
    25
100
AcDbLine
 10
1040.136872078216
 20
488.1095628329926
 30
0.0
 11
1044.868528838943
 21
488.1095628329926
 31
0.0
1001
AcDbBlockRepETag
1070
     1
1071
       81
1005
1243
  0
LINE
  5
1244
330
264
100
AcDbEntity
  8
图框
370
    25
100
AcDbLine
 10
1042.502700458579
 20
490.475391213355
 30
0.0
 11
1042.502700458579
 21
485.743734452629
 31
0.0
1001
AcDbBlockRepETag
1070
     1
1071
       82
1005
1244
  0
LINE
  5
1245
330
264
100
AcDbEntity
  8
图框
370
    -3
100
AcDbLine
 10
1069.142012769546
 20
507.6708838011533
 30
0.0
 11
1069.142012769546
 21
491.8986945987308
 31
0.0
1001
AcDbBlockRepETag
1070
     1
1071
       83
1005
1245
  0
MTEXT
  5
1246
330
264
100
AcDbEntity
  8
图框
100
AcDbMText
 10
1086.643735910939
 20
526.8006839312707
 30
0.0
 40
2.154898249703542
 41
13.34474941400573
 46
9.056967347041775
 71
     5
 72
     5
  1
图号{\Ftxt|c134;\P\Fromans|c134;\W0.65;Drawing No.}
 73
     1
 44
1.0
1001
AcDbBlockRepETag
1070
     1
1071
       84
1005
1246
1001
ACAD
1000
ACAD_MTEXT_DEFINED_HEIGHT_BEGIN
1070
    46
1040
9.056967347041775
1000
ACAD_MTEXT_DEFINED_HEIGHT_END
  0
LINE
  5
1247
330
264
100
AcDbEntity
  8
图框
370
    -3
100
AcDbLine
 10
1093.316110617942
 20
531.3291676047914
 30
0.0
 11
1093.316110617942
 21
495.8417418993347
 31
0.0
1001
AcDbBlockRepETag
1070
     1
1071
       85
1005
1247
  0
LINE
  5
1248
330
264
100
AcDbEntity
  8
图框
370
    -3
100
AcDbLine
 10
1047.473969770481
 20
531.3291676047914
 30
0.0
 11
1047.473969770481
 21
507.6708838011533
 31
0.0
1001
AcDbBlockRepETag
1070
     1
1071
       86
1005
1248
  0
MTEXT
  5
1249
330
264
100
AcDbEntity
  8
图框
100
AcDbMText
 10
1063.72733855235
 20
503.7278365005473
 30
0.0
 40
2.252848170144607
 41
10.82934843439208
 46
7.886094601212128
 71
     5
 72
     5
  1
重量\P{\Fromans|c134;Weight}
 73
     1
 44
1.0
1001
AcDbBlockRepETag
1070
     1
1071
       87
1005
1249
1001
ACAD
1000
ACAD_MTEXT_DEFINED_HEIGHT_BEGIN
1070
    46
1040
7.886094601212128
1000
ACAD_MTEXT_DEFINED_HEIGHT_END
  0
LINE
  5
124A
330
264
100
AcDbEntity
  8
图框
370
    -3
100
AcDbLine
 10
1036.653967466372
 20
519.5000257029746
 30
0.0
 11
1079.971361203936
 21
519.5000257029746
 31
0.0
1001
AcDbBlockRepETag
1070
     1
1071
       88
1005
124A
  0
MTEXT
  5
124B
330
264
100
AcDbEntity
  8
图框
100
AcDbMText
 10
1074.556686986741
 20
503.7278365005473
 30
0.0
 40
2.252848170144607
 41
10.82934843438984
 46
7.886094601212141
 71
     5
 72
     5
  1
数量\P{\Fromans|c134;Qty.}
 73
     1
 44
1.0
1001
AcDbBlockRepETag
1070
     1
1071
       89
1005
124B
1001
ACAD
1000
ACAD_MTEXT_DEFINED_HEIGHT_BEGIN
1070
    46
1040
7.886094601212141
1000
ACAD_MTEXT_DEFINED_HEIGHT_END
  0
LINE
  5
124C
330
264
100
AcDbEntity
  8
图框
370
    -3
100
AcDbLine
 10
1079.971361203936
 20
495.8417418993347
 30
0.0
 11
1126.928502610363
 21
495.8417418993342
 31
0.0
1001
AcDbBlockRepETag
1070
     1
1071
       90
1005
124C
  0
LINE
  5
124D
330
264
100
AcDbEntity
  8
图框
370
    -3
100
AcDbLine
 10
1079.971361203936
 20
504.7132992040975
 30
0.0
 11
1126.928502610363
 21
504.7132992040975
 31
0.0
1001
AcDbBlockRepETag
1070
     1
1071
       91
1005
124D
  0
MTEXT
  5
124E
330
264
100
AcDbEntity
  8
图框
100
AcDbMText
 10
1052.893317052817
 20
503.7278365005473
 30
0.0
 40
2.252848170144607
 41
10.83869456467139
 46
7.886094601212101
 71
     5
 72
     5
  1
版本\P{\Fromans|c134;REV.}
 73
     1
 44
1.0
1001
AcDbBlockRepETag
1070
     1
1071
       92
1005
124E
1001
ACAD
1000
ACAD_MTEXT_DEFINED_HEIGHT_BEGIN
1070
    46
1040
7.886094601212101
1000
ACAD_MTEXT_DEFINED_HEIGHT_END
  0
MTEXT
  5
124F
330
264
100
AcDbEntity
  8
图框
100
AcDbMText
 10
1042.068641683568
 20
503.7278365005473
 30
0.0
 40
2.252848170144607
 41
10.8293484343908
 46
7.886094601212136
 71
     5
 72
     5
  1
比例\P{\Fromans|c134;Scale}
 73
     1
 44
1.0
1001
AcDbBlockRepETag
1070
     1
1071
       93
1005
124F
1001
ACAD
1000
ACAD_MTEXT_DEFINED_HEIGHT_BEGIN
1070
    46
1040
7.886094601212136
1000
ACAD_MTEXT_DEFINED_HEIGHT_END
  0
LINE
  5
1250
330
264
100
AcDbEntity
  8
图框
370
    -3
100
AcDbLine
 10
1036.653967466372
 20
507.6708838011533
 30
0.0
 11
1079.971361203936
 21
507.6708838011533
 31
0.0
1001
AcDbBlockRepETag
1070
     1
1071
       94
1005
1250
  0
LINE
  5
1251
330
264
100
AcDbEntity
  8
图框
370
    -3
100
AcDbLine
 10
1036.653967466372
 20
491.8986945987308
 30
0.0
 11
1079.971361203936
 21
491.8986945987308
 31
0.0
1001
AcDbBlockRepETag
1070
     1
1071
       95
1005
1251
  0
LINE
  5
1252
330
264
100
AcDbEntity
  8
图框
370
    -3
100
AcDbLine
 10
1079.971361203936
 20
531.3291676047914
 30
0.0
 11
1079.971361203936
 21
484.0125999975168
 31
0.0
1001
AcDbBlockRepETag
1070
     1
1071
       96
1005
1252
  0
MTEXT
  5
1253
330
264
100
AcDbEntity
  8
图框
100
AcDbMText
 10
1042.063968618426
 20
525.4145966538832
 30
0.0
 40
2.252848170144607
 41
10.82000230410933
 46
11.82914190181708
 71
     5
 72
     5
  1
表面处理\P{\Fromans|c134;Finish}
 73
     1
 44
1.0
1001
AcDbBlockRepETag
1070
     1
1071
       97
1005
1253
1001
ACAD
1000
ACAD_MTEXT_DEFINED_HEIGHT_BEGIN
1070
    46
1040
11.82914190181708
1000
ACAD_MTEXT_DEFINED_HEIGHT_END
  0
MTEXT
  5
1254
330
264
100
AcDbEntity
  8
图框
100
AcDbMText
 10
1042.063968618426
 20
513.5854547520639
 30
0.0
 40
2.252848170144607
 41
10.82000230410933
 46
11.8291419018212
 71
     5
 72
     5
  1
材料\P{\Fromans|c134;Material}
 73
     1
 44
1.0
1001
AcDbBlockRepETag
1070
     1
1071
       98
1005
1254
1001
ACAD
1000
ACAD_MTEXT_DEFINED_HEIGHT_BEGIN
1070
    46
1040
11.8291419018212
1000
ACAD_MTEXT_DEFINED_HEIGHT_END
  0
LINE
  5
1255
330
264
100
AcDbEntity
  8
图框
370
    -3
100
AcDbLine
 10
1079.971361203936
 20
522.27220025775
 30
0.0
 11
1126.928502610363
 21
522.27220025775
 31
0.0
1001
AcDbBlockRepETag
1070
     1
1071
       99
1005
1255
  0
LINE
  5
1256
330
264
100
AcDbEntity
  8
图框
370
    -3
100
AcDbLine
 10
1079.971361203936
 20
513.5854547520641
 30
0.0
 11
1126.928502610363
 21
513.5854547520639
 31
0.0
1001
AcDbBlockRepETag
1070
     1
1071
      100
1005
1256
  0
MTEXT
  5
1257
330
264
100
AcDbEntity
  8
图框
100
AcDbMText
 10
1086.643735910939
 20
517.9288275049072
 30
0.0
 40
1.958998408821398
 41
13.34474941400573
 46
8.686745505685811
 71
     5
 72
     5
  1
产品代号\P{\Fromans|c134;Part Code}
 73
     1
 44
1.0
1001
AcDbBlockRepETag
1070
     1
1071
      101
1005
1257
1001
ACAD
1000
ACAD_MTEXT_DEFINED_HEIGHT_BEGIN
1070
    46
1040
8.686745505685811
1000
ACAD_MTEXT_DEFINED_HEIGHT_END
  0
LINE
  5
1258
330
264
100
AcDbEntity
  8
图框
370
    -3
100
AcDbLine
 10
946.9285026103634
 20
525.7982263931411
 30
0.0
 11
1036.653967466372
 21
525.7982263931411
 31
0.0
1001
AcDbBlockRepETag
1070
     1
1071
      102
1005
1258
  0
LINE
  5
1259
330
264
100
AcDbEntity
  8
图框
370
    -3
100
AcDbLine
 10
946.9285026103634
 20
520.2672851814959
 30
0.0
 11
1036.653967466372
 21
520.2672851814959
 31
0.0
1001
AcDbBlockRepETag
1070
     1
1071
      103
1005
1259
  0
LINE
  5
125A
330
264
100
AcDbEntity
  8
图框
370
    35
100
AcDbLine
 10
946.9285026103634
 20
531.3291676047914
 30
0.0
 11
1126.928502610363
 21
531.3291676047914
 31
0.0
1001
AcDbBlockRepETag
1070
     1
1071
      104
1005
125A
  0
LINE
  5
125B
330
264
100
AcDbEntity
  8
图框
370
    -3
100
AcDbLine
 10
990.6727612856927
 20
509.2054027581959
 30
0.0
 11
990.6727612856927
 21
484.0347692601515
 31
0.0
1001
AcDbBlockRepETag
1070
     1
1071
      105
1005
125B
  0
MTEXT
  5
125C
102
{ACAD_XDICTIONARY
360
125D
102
}
330
264
100
AcDbEntity
  8
图框
100
AcDbMText
 10
997.1628169651232
 20
499.816589978722
 30
0.0
 40
2.252848170144607
 41
12.98011135886052
 46
6.19230880992475
 71
     5
 72
     5
  1
\pxsm0.7;{\fFangSong_GB2312|b0|i0|c134|p49;标准化}\PStand.
  7
Romans字体
 73
     1
 44
1.0
1001
AcDbBlockRepETag
1070
     1
1071
      106
1005
125C
1001
ACAD
1000
ACAD_MTEXT_DEFINED_HEIGHT_BEGIN
1070
    46
1040
6.19230880992475
1000
ACAD_MTEXT_DEFINED_HEIGHT_END
  0
LINE
  5
125E
330
264
100
AcDbEntity
  8
图框
370
    -3
100
AcDbLine
 10
975.4103773808022
 20
509.2054027581959
 30
0.0
 11
975.4103773808022
 21
484.0347692601515
 31
0.0
1001
AcDbBlockRepETag
1070
     1
1071
      107
1005
125E
  0
MTEXT
  5
125F
330
264
100
AcDbEntity
  8
图框
100
AcDbMText
 10
984.5089229802068
 20
511.9708733640202
 30
0.0
 40
2.448748011026752
 41
38.287899328693
 46
5.530941211648832
 71
     5
 72
     5
  1
  变更描述{\Fromans|c134;/Description}
 73
     1
 44
1.0
1001
AcDbBlockRepETag
1070
     1
1071
      108
1005
125F
1001
ACAD
1000
ACAD_MTEXT_DEFINED_HEIGHT_BEGIN
1070
    46
1040
5.530941211648832
1000
ACAD_MTEXT_DEFINED_HEIGHT_END
  0
MTEXT
  5
1260
102
{ACAD_XDICTIONARY
360
1261
102
}
330
264
100
AcDbEntity
  8
图框
100
AcDbMText
 10
1012.466086049227
 20
511.9708733640202
 30
0.0
 40
1.958998408821398
 41
17.6264268093469
 46
5.530941211648825
 71
     5
 72
     5
  1
\pxsm0.7;签名\P{\Fromans|c134;Signature} 
 73
     1
 44
1.0
1001
AcDbBlockRepETag
1070
     1
1071
      109
1005
1260
1001
ACAD
1000
ACAD_MTEXT_DEFINED_HEIGHT_BEGIN
1070
    46
1040
5.530941211648825
1000
ACAD_MTEXT_DEFINED_HEIGHT_END
  0
MTEXT
  5
1262
102
{ACAD_XDICTIONARY
360
1263
102
}
330
264
100
AcDbEntity
  8
图框
100
AcDbMText
 10
960.7558556394856
 20
511.9708733640202
 30
0.0
 40
1.958998408821398
 41
9.218235352749283
 46
5.530941211648841
 71
     5
 72
     5
  1
\pxsm0.7,qc;处数\P{\Fromans|c134;Number }
 73
     1
 44
1.0
1001
AcDbBlockRepETag
1070
     1
1071
      110
1005
1262
1001
ACAD
1000
ACAD_MTEXT_DEFINED_HEIGHT_BEGIN
1070
    46
1040
5.530941211648841
1000
ACAD_MTEXT_DEFINED_HEIGHT_END
  0
LINE
  5
1264
330
264
100
AcDbEntity
  8
图框
370
    -3
100
AcDbLine
 10
946.9285026103634
 20
514.7363439698449
 30
0.0
 11
1036.653967466372
 21
514.7363439698449
 31
0.0
1001
AcDbBlockRepETag
1070
     1
1071
      111
1005
1264
  0
LINE
  5
1265
330
264
100
AcDbEntity
  8
图框
370
    -3
100
AcDbLine
 10
946.9285026103634
 20
509.2054027581959
 30
0.0
 11
1036.653967466372
 21
509.2054027581959
 31
0.0
1001
AcDbBlockRepETag
1070
     1
1071
      112
1005
1265
  0
LINE
  5
1266
330
264
100
AcDbEntity
  8
图框
370
    -3
100
AcDbLine
 10
946.9285026103634
 20
502.9127443836848
 30
0.0
 11
1036.653967466372
 21
502.9127443836848
 31
0.0
1001
AcDbBlockRepETag
1070
     1
1071
      113
1005
1266
  0
LINE
  5
1267
330
264
100
AcDbEntity
  8
图框
370
    -3
100
AcDbLine
 10
946.9285026103634
 20
496.620086009173
 30
0.0
 11
1036.653967466372
 21
496.620086009173
 31
0.0
1001
AcDbBlockRepETag
1070
     1
1071
      114
1005
1267
  0
LINE
  5
1268
330
264
100
AcDbEntity
  8
图框
370
    35
380
     1
100
AcDbLine
 10
946.9285026103634
 20
531.3291676047914
 30
0.0
 11
946.9285026103634
 21
484.0347692601515
 31
0.0
1001
AcDbBlockRepETag
1070
     1
1071
      115
1005
1268
  0
LINE
  5
1269
330
264
100
AcDbEntity
  8
图框
370
    -3
100
AcDbLine
 10
1021.301636813399
 20
531.3291676047914
 30
0.0
 11
1021.301636813399
 21
484.0347692601515
 31
0.0
1001
AcDbBlockRepETag
1070
     1
1071
      116
1005
1269
  0
LINE
  5
126A
330
264
100
AcDbEntity
  8
图框
370
    -3
100
AcDbLine
 10
1003.652872644553
 20
531.3291676047914
 30
0.0
 11
1003.652872644553
 21
484.0347692601515
 31
0.0
1001
AcDbBlockRepETag
1070
     1
1071
      117
1005
126A
  0
LINE
  5
126B
330
264
100
AcDbEntity
  8
图框
370
    -3
100
AcDbLine
 10
965.3649733158603
 20
531.3291676047914
 30
0.0
 11
965.3649733158603
 21
509.2054027581959
 31
0.0
1001
AcDbBlockRepETag
1070
     1
1071
      118
1005
126B
  0
LINE
  5
126C
330
264
100
AcDbEntity
  8
图框
370
    -3
100
AcDbLine
 10
956.1467379631109
 20
531.3291676047914
 30
0.0
 11
956.1467379631109
 21
509.2054027581959
 31
0.0
1001
AcDbBlockRepETag
1070
     1
1071
      119
1005
126C
  0
MTEXT
  5
126D
102
{ACAD_XDICTIONARY
360
126E
102
}
330
264
100
AcDbEntity
  8
图框
100
AcDbMText
 10
951.537620286737
 20
511.9708733640202
 30
0.0
 40
1.958998408821398
 41
9.218235352747692
 46
5.530941211648832
 71
     5
 72
     5
  1
\pxsm0.7;标记\P{\Fromans|c134;Mark}
 73
     1
 44
1.0
1001
AcDbBlockRepETag
1070
     1
1071
      120
1005
126D
1001
ACAD
1000
ACAD_MTEXT_DEFINED_HEIGHT_BEGIN
1070
    46
1040
5.530941211648832
1000
ACAD_MTEXT_DEFINED_HEIGHT_END
  0
MTEXT
  5
126F
102
{ACAD_XDICTIONARY
360
1270
102
}
330
264
100
AcDbEntity
  8
图框
100
AcDbMText
 10
953.4185582897936
 20
493.4737568219182
 30
0.0
 40
2.252848170144607
 41
12.98011135886041
 46
6.292658374510382
 71
     5
 72
     5
  1
\pxsm0.7;审核\P{\Fromans|c134;Checked}
 73
     1
 44
1.0
1001
AcDbBlockRepETag
1070
     1
1071
      121
1005
126F
1001
ACAD
1000
ACAD_MTEXT_DEFINED_HEIGHT_BEGIN
1070
    46
1040
6.292658374510382
1000
ACAD_MTEXT_DEFINED_HEIGHT_END
  0
MTEXT
  5
1271
102
{ACAD_XDICTIONARY
360
1272
102
}
330
264
100
AcDbEntity
  8
图框
100
AcDbMText
 10
953.4185582897936
 20
499.8775635376777
 30
0.0
 40
2.252848170144607
 41
12.98011135886041
 46
6.070361692014189
 71
     5
 72
     5
  1
\pxsm0.7;绘图\P{\Fromans|c134;Drawn\Ftxt|c134; }
 73
     1
 44
1.0
1001
AcDbBlockRepETag
1070
     1
1071
      122
1005
1271
1001
ACAD
1000
ACAD_MTEXT_DEFINED_HEIGHT_BEGIN
1070
    46
1040
6.070361692014189
1000
ACAD_MTEXT_DEFINED_HEIGHT_END
  0
ARC
  5
1273
330
264
100
AcDbEntity
  8
图框
 62
     4
370
    35
100
AcDbCircle
 10
1086.900627017421
 20
490.0179944151195
 30
0.0
 40
4.063310408393665
100
AcDbArc
 50
18.95237904564806
 51
161.0476209543519
1001
AcDbBlockRepETag
1070
     1
1071
      123
1005
1273
  0
ARC
  5
1274
330
264
100
AcDbEntity
  8
图框
 62
     4
370
    35
100
AcDbCircle
 10
1086.900627017421
 20
490.0179944151195
 30
0.0
 40
4.063310408393665
100
AcDbArc
 50
198.952379045648
 51
341.0476209543519
1001
AcDbBlockRepETag
1070
     1
1071
      124
1005
1274
  0
LINE
  5
1275
330
264
100
AcDbEntity
  8
图框
 62
     4
370
    35
100
AcDbLine
 10
1083.057593369548
 20
488.6983035966752
 30
0.0
 11
1090.74366066529
 21
488.6983035966752
 31
0.0
1001
AcDbBlockRepETag
1070
     1
1071
      125
1005
1275
  0
LINE
  5
1276
330
264
100
AcDbEntity
  8
图框
 62
     4
370
    35
100
AcDbLine
 10
1083.057593369548
 20
491.3376852335652
 30
0.0
 11
1090.74366066529
 21
491.3376852335652
 31
0.0
1001
AcDbBlockRepETag
1070
     1
1071
      126
1005
1276
  0
MTEXT
  5
1277
330
264
100
AcDbEntity
  8
图框
 62
     1
370
    20
100
AcDbMText
 10
1083.034582879669
 20
491.0506288081688
 30
0.0
 40
2.005930044038334
 41
5.047240019334847
 46
0.0
 71
     1
 72
     5
  1
{\fArial|b0|i0|c0|p34;W}
  7
Chinese
 73
     1
 44
1.0
1001
AcDbBlockRepETag
1070
     1
1071
      127
1005
1277
  0
LINE
  5
1278
330
264
100
AcDbEntity
  8
图框
370
    -3
100
AcDbLine
 10
946.9285026103634
 20
490.327427634663
 30
0.0
 11
1036.653967466372
 21
490.327427634663
 31
0.0
1001
AcDbBlockRepETag
1070
     1
1071
      128
1005
1278
  0
LINE
  5
1279
330
264
100
AcDbEntity
  8
图框
370
    -3
100
AcDbLine
 10
959.9086139692238
 20
509.2054027581959
 30
0.0
 11
959.9086139692238
 21
484.0347692601515
 31
0.0
1001
AcDbBlockRepETag
1070
     1
1071
      129
1005
1279
  0
MTEXT
  5
127A
330
264
100
AcDbEntity
  8
图框
100
AcDbMText
 10
967.6594956750129
 20
506.0590735709403
 30
0.0
 40
2.252848170144607
 41
15.50176341157869
 46
6.292658374511246
 71
     5
 72
     5
  1
姓名{\Fromans|c134;/Name\Ftxt|c134; }
 73
     1
 44
1.0
1001
AcDbBlockRepETag
1070
     1
1071
      130
1005
127A
1001
ACAD
1000
ACAD_MTEXT_DEFINED_HEIGHT_BEGIN
1070
    46
1040
6.292658374511246
1000
ACAD_MTEXT_DEFINED_HEIGHT_END
  0
MTEXT
  5
127B
330
264
100
AcDbEntity
  8
图框
100
AcDbMText
 10
983.0415693332477
 20
506.0590735709403
 30
0.0
 40
2.252848170144607
 41
15.26238390489042
 46
6.2926583745112
 71
     5
 72
     5
  1
日期{\Fromans|c134;/Date}
 73
     1
 44
1.0
1001
AcDbBlockRepETag
1070
     1
1071
      131
1005
127B
1001
ACAD
1000
ACAD_MTEXT_DEFINED_HEIGHT_BEGIN
1070
    46
1040
6.2926583745112
1000
ACAD_MTEXT_DEFINED_HEIGHT_END
  0
LINE
  5
127C
330
264
100
AcDbEntity
  8
图框
370
    -3
100
AcDbLine
 10
946.9285026103634
 20
509.2054027581959
 30
0.0
 11
959.9086139692238
 21
502.9127443836848
 31
0.0
1001
AcDbBlockRepETag
1070
     1
1071
      132
1005
127C
  0
MTEXT
  5
127D
330
264
100
AcDbEntity
  8
图框
100
AcDbMText
 10
1012.931405110086
 20
506.0185715840725
 30
0.0
 40
2.252848170144607
 41
16.93492221063566
 46
0.0
 71
     5
 72
     5
  1
姓名{\Fromans|c134;/Name}
 73
     1
 44
1.0
1001
AcDbBlockRepETag
1070
     1
1071
      133
1005
127D
  0
MTEXT
  5
127E
330
264
100
AcDbEntity
  8
图框
100
AcDbMText
 10
1028.977802139886
 20
506.0590735709403
 30
0.0
 40
2.252848170144607
 41
15.35233065297283
 46
6.292658374511256
 71
     5
 72
     5
  1
日期{\Fromans|c134;/Date}
 73
     1
 44
1.0
1001
AcDbBlockRepETag
1070
     1
1071
      134
1005
127E
1001
ACAD
1000
ACAD_MTEXT_DEFINED_HEIGHT_BEGIN
1070
    46
1040
6.292658374511256
1000
ACAD_MTEXT_DEFINED_HEIGHT_END
  0
LINE
  5
127F
330
264
100
AcDbEntity
  8
图框
370
    -3
100
AcDbLine
 10
1003.652872644553
 20
502.9127443836848
 30
0.0
 11
990.6727612856927
 21
509.2054027581959
 31
0.0
1001
AcDbBlockRepETag
1070
     1
1071
      135
1005
127F
  0
MTEXT
  5
1280
102
{ACAD_XDICTIONARY
360
1281
102
}
330
264
100
AcDbEntity
  8
图框
100
AcDbMText
 10
997.1628169651232
 20
487.1810984474071
 30
0.0
 40
2.252848170144607
 41
12.98011135886052
 46
6.292658374511517
 71
     5
 72
     5
  1
\pxsm0.7;批准\P{\Fromans|c134;Approved}
 73
     1
 44
1.0
1001
AcDbBlockRepETag
1070
     1
1071
      136
1005
1280
1001
ACAD
1000
ACAD_MTEXT_DEFINED_HEIGHT_BEGIN
1070
    46
1040
6.292658374511517
1000
ACAD_MTEXT_DEFINED_HEIGHT_END
  0
MTEXT
  5
1282
102
{ACAD_XDICTIONARY
360
1283
102
}
330
264
100
AcDbEntity
  8
图框
100
AcDbMText
 10
953.4185582897936
 20
487.1810984474071
 30
0.0
 40
2.252848170144607
 41
12.98011135886041
 46
6.292658374511495
 71
     5
 72
     5
  1
\pxsm0.7;工艺\P{\Fromans|c134;Process}
 73
     1
 44
1.0
1001
AcDbBlockRepETag
1070
     1
1071
      137
1005
1282
1001
ACAD
1000
ACAD_MTEXT_DEFINED_HEIGHT_BEGIN
1070
    46
1040
6.292658374511495
1000
ACAD_MTEXT_DEFINED_HEIGHT_END
  0
MTEXT
  5
1284
102
{ACAD_XDICTIONARY
360
1285
102
}
330
264
100
AcDbEntity
  8
图框
100
AcDbMText
 10
1028.977802139886
 20
511.8287965307664
 30
0.0
 40
1.958998408821398
 41
15.3523306529728
 46
5.246787545140668
 71
     5
 72
     5
  1
\pxsm0.7;日期\P{\Fromans|c134;Date}
 73
     1
 44
1.0
1001
AcDbBlockRepETag
1070
     1
1071
      138
1005
1284
1001
ACAD
1000
ACAD_MTEXT_DEFINED_HEIGHT_BEGIN
1070
    46
1040
5.246787545140668
1000
ACAD_MTEXT_DEFINED_HEIGHT_END
  0
MTEXT
  5
1286
330
264
100
AcDbEntity
  8
图框
100
AcDbMText
 10
1086.643735910939
 20
509.1493769780809
 30
0.0
 40
2.154898249703542
 41
13.34474941400573
 46
8.87215554796615
 71
     5
 72
     5
  1
产品料号\P{\Fromans|c134;Part No.}
 73
     1
 44
1.0
1001
AcDbBlockRepETag
1070
     1
1071
      139
1005
1286
1001
ACAD
1000
ACAD_MTEXT_DEFINED_HEIGHT_BEGIN
1070
    46
1040
8.87215554796615
1000
ACAD_MTEXT_DEFINED_HEIGHT_END
  0
MTEXT
  5
1287
330
264
100
AcDbEntity
  8
图框
100
AcDbMText
 10
1086.643735910939
 20
500.2775205517163
 30
0.0
 40
1.958998408821398
 41
13.34474941400573
 46
8.871557304763321
 71
     5
 72
     5
  1
产品名称\P{\Fromans|c134;Part Name}
 73
     1
 44
1.0
1001
AcDbBlockRepETag
1070
     1
1071
      140
1005
1287
1001
ACAD
1000
ACAD_MTEXT_DEFINED_HEIGHT_BEGIN
1070
    46
1040
8.871557304763321
1000
ACAD_MTEXT_DEFINED_HEIGHT_END
  0
LINE
  5
1288
330
264
100
AcDbEntity
  8
图框
 62
     1
370
    18
100
AcDbLine
 10
833.4128518455365
 20
690.5347692601515
 30
0.0
 11
833.4128518455365
 21
480.5347692601515
 31
0.0
1001
AcDbBlockRepETag
1070
     1
1071
      141
1005
1288
  0
LINE
  5
1289
330
264
100
AcDbEntity
  8
图框
 62
     1
370
    18
100
AcDbLine
 10
833.4128518455365
 20
480.5347692601515
 30
0.0
 11
1130.411601781236
 21
480.5347692601515
 31
0.0
1001
AcDbBlockRepETag
1070
     1
1071
      142
1005
1289
  0
LINE
  5
128A
330
264
100
AcDbEntity
  8
图框
 62
     1
370
    18
100
AcDbLine
 10
833.4128518455365
 20
690.5347692601515
 30
0.0
 11
1130.411601781236
 21
690.5347692601515
 31
0.0
1001
AcDbBlockRepETag
1070
     1
1071
      143
1005
128A
  0
LINE
  5
128B
330
264
100
AcDbEntity
  8
图框
 62
     1
370
    18
100
AcDbLine
 10
1130.411601781236
 20
480.5347692601515
 30
0.0
 11
1130.411601781236
 21
690.5347692601515
 31
0.0
1001
AcDbBlockRepETag
1070
     1
1071
      144
1005
128B
  0
LINE
  5
128C
330
264
100
AcDbEntity
  8
图框
370
    18
100
AcDbLine
 10
836.9128518455394
 20
686.7901958362482
 30
0.0
 11
861.5351874539182
 21
686.7901958362482
 31
0.0
1001
AcDbBlockRepETag
1070
     1
1071
      145
1005
128C
  0
LINE
  5
128D
330
264
100
AcDbEntity
  8
图框
370
    50
100
AcDbLine
 10
1126.928502610363
 20
484.3410054693078
 30
0.0
 11
1126.928502610363
 21
675.5347692601515
 31
0.0
1001
AcDbBlockRepETag
1070
     1
1071
      146
1005
128D
  0
MTEXT
  5
128E
330
264
100
AcDbEntity
  8
图框
 62
     3
100
AcDbMText
 10
1052.897990117958
 20
495.8417418993364
 30
0.0
 40
2.985513575034151
 41
10.82934843439114
 46
7.886094601211307
 71
     5
 72
     5
  1
V1.1
  7
Romans字体
 73
     1
 44
1.0
1001
AcDbBlockRepETag
1070
     1
1071
      147
1005
128E
1001
ACAD
1000
ACAD_MTEXT_DEFINED_HEIGHT_BEGIN
1070
    46
1040
7.886094601211307
1000
ACAD_MTEXT_DEFINED_HEIGHT_END
  0
LINE
  5
128F
330
264
100
AcDbEntity
  8
图框
 62
     6
100
AcDbLine
 10
1126.911601781236
 20
531.714049199969
 30
0.0
 11
1130.411601781236
 21
531.714049199969
 31
0.0
1001
AcDbBlockRepETag
1070
     1
1071
      148
1005
128F
  0
ENDBLK
  5
2FC
330
264
100
AcDbEntity
  8
0
100
AcDbBlockEnd
  0
BLOCK
  5
E3F
330
E3E
100
AcDbEntity
  8
0
100
AcDbBlockBegin
  2
*D2
 70
     1
 10
0.0
 20
0.0
 30
0.0
  3
*D2
  1

  0
LINE
  5
F25
330
E3E
100
AcDbEntity
  8
DIM
 62
     6
370
    -2
100
AcDbLine
 10
781.6954278828282
 20
217.7973247775199
 30
0.0
 11
781.6954278828282
 21
211.4228087390358
 31
0.0
  0
LINE
  5
F26
330
E3E
100
AcDbEntity
  8
DIM
 62
     6
370
    -2
100
AcDbLine
 10
758.895427882828
 20
215.660683201279
 30
0.0
 11
758.895427882828
 21
211.4228087390358
 31
0.0
  0
LINE
  5
F27
330
E3E
100
AcDbEntity
  8
DIM
 62
     1
370
    -2
100
AcDbLine
 10
780.1954278828282
 20
211.9228087390359
 30
0.0
 11
760.395427882828
 21
211.9228087390359
 31
0.0
  0
SOLID
  5
F28
330
E3E
100
AcDbEntity
  8
DIM
 62
     1
100
AcDbTrace
 10
780.1954278828282
 20
212.1728087390359
 30
0.0
 11
780.1954278828282
 21
211.6728087390359
 31
0.0
 12
781.6954278828282
 22
211.9228087390359
 32
0.0
 13
781.6954278828282
 23
211.9228087390359
 33
0.0
  0
SOLID
  5
F29
330
E3E
100
AcDbEntity
  8
DIM
 62
     1
100
AcDbTrace
 10
760.395427882828
 20
212.1728087390359
 30
0.0
 11
760.395427882828
 21
211.6728087390359
 31
0.0
 12
758.895427882828
 22
211.9228087390359
 32
0.0
 13
758.895427882828
 23
211.9228087390359
 33
0.0
  0
MTEXT
  5
F2A
330
E3E
100
AcDbEntity
  8
DIM
 62
     4
100
AcDbMText
 10
770.3811745066936
 20
214.4228087390358
 30
0.0
 40
2.0
 41
0.0
 46
0.0
 71
     2
 72
     1
  1
\A1;22.8
  7
Romans字体
 73
     1
 44
1.0
  0
POINT
  5
F2B
330
E3E
100
AcDbEntity
  8
Defpoints
 62
     0
100
AcDbPoint
 10
781.6954278828282
 20
217.9973247775199
 30
0.0
  0
POINT
  5
F2C
330
E3E
100
AcDbEntity
  8
Defpoints
 62
     0
100
AcDbPoint
 10
758.895427882828
 20
215.860683201279
 30
0.0
  0
POINT
  5
F2D
330
E3E
100
AcDbEntity
  8
Defpoints
 62
     0
100
AcDbPoint
 10
758.895427882828
 20
211.9228087390359
 30
0.0
  0
ENDBLK
  5
E40
330
E3E
100
AcDbEntity
  8
0
100
AcDbBlockEnd
  0
BLOCK
  5
E4C
330
E4B
100
AcDbEntity
  8
0
100
AcDbBlockBegin
  2
*D3
 70
     1
 10
0.0
 20
0.0
 30
0.0
  3
*D3
  1

  0
LINE
  5
F2E
330
E4B
100
AcDbEntity
  8
DIM
 62
     6
370
    -2
100
AcDbLine
 10
758.8954278828286
 20
215.6606832012787
 30
0.0
 11
755.3773271462135
 21
215.6606832012787
 31
0.0
  0
LINE
  5
F2F
330
E4B
100
AcDbEntity
  8
DIM
 62
     6
370
    -2
100
AcDbLine
 10
758.8954278828286
 20
223.860683201279
 30
0.0
 11
755.3773271462135
 21
223.860683201279
 31
0.0
  0
LINE
  5
F30
330
E4B
100
AcDbEntity
  8
DIM
 62
     1
370
    -2
100
AcDbLine
 10
755.8773271462135
 20
217.1606832012787
 30
0.0
 11
755.8773271462135
 21
222.360683201279
 31
0.0
  0
SOLID
  5
F31
330
E4B
100
AcDbEntity
  8
DIM
 62
     1
100
AcDbTrace
 10
755.6273271462137
 20
217.1606832012787
 30
0.0
 11
756.1273271462137
 21
217.1606832012787
 31
0.0
 12
755.8773271462135
 22
215.6606832012787
 32
0.0
 13
755.8773271462135
 23
215.6606832012787
 33
0.0
  0
SOLID
  5
F32
330
E4B
100
AcDbEntity
  8
DIM
 62
     1
100
AcDbTrace
 10
755.6273271462137
 20
222.360683201279
 30
0.0
 11
756.1273271462137
 21
222.360683201279
 31
0.0
 12
755.8773271462135
 22
223.860683201279
 32
0.0
 13
755.8773271462135
 23
223.860683201279
 33
0.0
  0
MTEXT
  5
F33
330
E4B
100
AcDbEntity
  8
DIM
 62
     4
100
AcDbMText
 10
753.3773271462137
 20
221.598989092294
 30
0.0
 40
2.0
 41
0.0
 46
0.0
 71
     3
 72
     1
  1
\A1;%%c8.2
  7
Romans字体
 11
0.0000000000000001
 21
1.0
 31
0.0
 73
     1
 44
1.0
  0
POINT
  5
F34
330
E4B
100
AcDbEntity
  8
Defpoints
 62
     0
100
AcDbPoint
 10
759.0954278828286
 20
215.6606832012787
 30
0.0
  0
POINT
  5
F35
330
E4B
100
AcDbEntity
  8
Defpoints
 62
     0
100
AcDbPoint
 10
759.0954278828286
 20
223.860683201279
 30
0.0
  0
POINT
  5
F36
330
E4B
100
AcDbEntity
  8
Defpoints
 62
     0
100
AcDbPoint
 10
755.8773271462135
 20
223.860683201279
 30
0.0
  0
ENDBLK
  5
E4D
330
E4B
100
AcDbEntity
  8
0
100
AcDbBlockEnd
  0
BLOCK
  5
FA2
330
FA1
100
AcDbEntity
  8
0
100
AcDbBlockBegin
  2
*D4
 70
     1
 10
0.0
 20
0.0
 30
0.0
  3
*D4
  1

  0
LINE
  5
FA3
330
FA1
100
AcDbEntity
  8
epin
 62
     6
370
    -2
100
AcDbLine
 10
3578.505588183921
 20
-2435.019788969198
 30
0.0
 11
3575.064386255891
 21
-2435.019788969198
 31
0.0
  0
LINE
  5
FA4
330
FA1
100
AcDbEntity
  8
epin
 62
     6
370
    -2
100
AcDbLine
 10
3578.505588183921
 20
-2443.219721228447
 30
0.0
 11
3575.064386255891
 21
-2443.219721228447
 31
0.0
  0
LINE
  5
FA5
330
FA1
100
AcDbEntity
  8
epin
 62
     1
370
    -2
100
AcDbLine
 10
3575.389386255891
 20
-2435.669788969197
 30
0.0
 11
3575.389386255891
 21
-2438.024040813108
 31
0.0
  0
LINE
  5
FA6
330
FA1
100
AcDbEntity
  8
epin
 62
     1
370
    -2
100
AcDbLine
 10
3575.389386255891
 20
-2442.569721228447
 30
0.0
 11
3575.389386255891
 21
-2440.215469384536
 31
0.0
  0
SOLID
  5
FA7
330
FA1
100
AcDbEntity
  8
epin
 62
     1
100
AcDbTrace
 10
3575.281052922559
 20
-2435.669788969197
 30
0.0
 11
3575.497719589225
 21
-2435.669788969197
 31
0.0
 12
3575.389386255891
 22
-2435.019788969198
 32
0.0
 13
3575.389386255891
 23
-2435.019788969198
 33
0.0
  0
SOLID
  5
FA8
330
FA1
100
AcDbEntity
  8
epin
 62
     1
100
AcDbTrace
 10
3575.281052922559
 20
-2442.569721228447
 30
0.0
 11
3575.497719589225
 21
-2442.569721228447
 31
0.0
 12
3575.389386255891
 22
-2443.219721228447
 32
0.0
 13
3575.389386255891
 23
-2443.219721228447
 33
0.0
  0
MTEXT
  5
FA9
330
FA1
100
AcDbEntity
  8
epin
 62
     4
100
AcDbMText
 10
3575.389386255891
 20
-2439.119755098821
 30
0.0
 40
0.7800000000000003
 41
0.0
 46
0.0
 71
     5
 72
     1
  1
\A1;%%c8.2
  7
Chinese
 11
0.0000000000000001
 21
1.0
 31
0.0
 73
     1
 44
1.0
  0
POINT
  5
FAA
330
FA1
100
AcDbEntity
  8
Defpoints
 62
     0
100
AcDbPoint
 10
3578.635588183921
 20
-2435.019788969198
 30
0.0
  0
POINT
  5
FAB
330
FA1
100
AcDbEntity
  8
Defpoints
 62
     0
100
AcDbPoint
 10
3578.635588183921
 20
-2443.219721228447
 30
0.0
  0
POINT
  5
FAC
330
FA1
100
AcDbEntity
  8
Defpoints
 62
     0
100
AcDbPoint
 10
3575.389386255891
 20
-2443.219721228447
 30
0.0
  0
ENDBLK
  5
FAD
330
FA1
100
AcDbEntity
  8
0
100
AcDbBlockEnd
  0
BLOCK
  5
FAF
330
FAE
100
AcDbEntity
  8
0
100
AcDbBlockBegin
  2
*D5
 70
     1
 10
0.0
 20
0.0
 30
0.0
  3
*D5
  1

  0
LINE
  5
FB0
330
FAE
100
AcDbEntity
  8
epin
 62
     6
370
    -2
100
AcDbLine
 10
3578.635588183921
 20
-2443.349721228447
 30
0.0
 11
3578.635588183921
 21
-2446.737440047361
 31
0.0
  0
LINE
  5
FB1
330
FAE
100
AcDbEntity
  8
epin
 62
     6
370
    -2
100
AcDbLine
 10
3604.135588183922
 20
-2440.249758305766
 30
0.0
 11
3604.135588183922
 21
-2446.737440047361
 31
0.0
  0
LINE
  5
FB2
330
FAE
100
AcDbEntity
  8
epin
 62
     1
370
    -2
100
AcDbLine
 10
3579.285588183922
 20
-2446.41244004736
 30
0.0
 11
3590.289873898207
 21
-2446.41244004736
 31
0.0
  0
LINE
  5
FB3
330
FAE
100
AcDbEntity
  8
epin
 62
     1
370
    -2
100
AcDbLine
 10
3603.485588183922
 20
-2446.41244004736
 30
0.0
 11
3592.481302469636
 21
-2446.41244004736
 31
0.0
  0
SOLID
  5
FB4
330
FAE
100
AcDbEntity
  8
epin
 62
     1
100
AcDbTrace
 10
3579.285588183922
 20
-2446.304106714027
 30
0.0
 11
3579.285588183922
 21
-2446.520773380694
 31
0.0
 12
3578.635588183921
 22
-2446.41244004736
 32
0.0
 13
3578.635588183921
 23
-2446.41244004736
 33
0.0
  0
SOLID
  5
FB5
330
FAE
100
AcDbEntity
  8
epin
 62
     1
100
AcDbTrace
 10
3603.485588183922
 20
-2446.304106714027
 30
0.0
 11
3603.485588183922
 21
-2446.520773380694
 31
0.0
 12
3604.135588183922
 22
-2446.41244004736
 32
0.0
 13
3604.135588183922
 23
-2446.41244004736
 33
0.0
  0
MTEXT
  5
FB6
330
FAE
100
AcDbEntity
  8
epin
 62
     4
100
AcDbMText
 10
3591.385588183921
 20
-2446.41244004736
 30
0.0
 40
0.7800000000000003
 41
0.0
 46
0.0
 71
     5
 72
     1
  1
\A1;25.5
  7
Chinese
 73
     1
 44
1.0
  0
POINT
  5
FB7
330
FAE
100
AcDbEntity
  8
Defpoints
 62
     0
100
AcDbPoint
 10
3578.635588183921
 20
-2443.219721228447
 30
0.0
  0
POINT
  5
FB8
330
FAE
100
AcDbEntity
  8
Defpoints
 62
     0
100
AcDbPoint
 10
3604.135588183922
 20
-2440.119758305766
 30
0.0
  0
POINT
  5
FB9
330
FAE
100
AcDbEntity
  8
Defpoints
 62
     0
100
AcDbPoint
 10
3604.135588183922
 20
-2446.41244004736
 30
0.0
  0
ENDBLK
  5
FBA
330
FAE
100
AcDbEntity
  8
0
100
AcDbBlockEnd
  0
BLOCK
  5
10B4
330
10B3
100
AcDbEntity
  8
0
100
AcDbBlockBegin
  2
*D6
 70
     1
 10
0.0
 20
0.0
 30
0.0
  3
*D6
  1

  0
LINE
  5
1108
330
10B3
100
AcDbEntity
  8
DIM
 62
     6
440
 16777216
370
    -2
100
AcDbLine
 10
757.7285803521547
 20
218.0858362478043
 30
0.0
 11
754.1823784241244
 21
218.0858362478043
 31
0.0
  0
LINE
  5
1109
330
10B3
100
AcDbEntity
  8
DIM
 62
     6
440
 16777216
370
    -2
100
AcDbLine
 10
757.7285803521547
 20
209.8859039885542
 30
0.0
 11
754.1823784241244
 21
209.8859039885542
 31
0.0
  0
LINE
  5
110A
330
10B3
100
AcDbEntity
  8
DIM
 62
     1
440
 16777216
370
    -2
100
AcDbLine
 10
754.6823784241244
 20
216.5858362478043
 30
0.0
 11
754.6823784241244
 21
211.3859039885542
 31
0.0
  0
SOLID
  5
110B
330
10B3
100
AcDbEntity
  8
DIM
 62
     1
440
 16777216
100
AcDbTrace
 10
754.4323784241242
 20
216.5858362478043
 30
0.0
 11
754.9323784241244
 21
216.5858362478043
 31
0.0
 12
754.6823784241244
 22
218.0858362478043
 32
0.0
 13
754.6823784241244
 23
218.0858362478043
 33
0.0
  0
SOLID
  5
110C
330
10B3
100
AcDbEntity
  8
DIM
 62
     1
440
 16777216
100
AcDbTrace
 10
754.4323784241242
 20
211.3859039885542
 30
0.0
 11
754.9323784241244
 21
211.3859039885542
 31
0.0
 12
754.6823784241244
 22
209.8859039885542
 32
0.0
 13
754.6823784241244
 23
209.8859039885542
 33
0.0
  0
MTEXT
  5
110D
330
10B3
100
AcDbEntity
  8
DIM
 62
     4
440
 16777216
100
AcDbMText
 10
753.1823784241244
 20
213.9858701181793
 30
0.0
 40
2.0
 41
0.0
 46
0.0
 71
     5
 72
     1
  1
\A1;%%c8.2
  7
Romans字体
 11
0.0000000000000001
 21
1.0
 31
0.0
 73
     1
 44
1.0
  0
POINT
  5
110E
330
10B3
100
AcDbEntity
  8
Defpoints
 62
     0
440
 16777216
100
AcDbPoint
 10
757.9285803521551
 20
218.0858362478043
 30
0.0
  0
POINT
  5
110F
330
10B3
100
AcDbEntity
  8
Defpoints
 62
     0
440
 16777216
100
AcDbPoint
 10
757.9285803521551
 20
209.8859039885542
 30
0.0
  0
POINT
  5
1110
330
10B3
100
AcDbEntity
  8
Defpoints
 62
     0
440
 16777216
100
AcDbPoint
 10
754.6823784241244
 20
209.8859039885542
 30
0.0
  0
ENDBLK
  5
10B5
330
10B3
100
AcDbEntity
  8
0
100
AcDbBlockEnd
  0
BLOCK
  5
10C1
330
10C0
100
AcDbEntity
  8
0
100
AcDbBlockBegin
  2
*D7
 70
     1
 10
0.0
 20
0.0
 30
0.0
  3
*D7
  1

  0
LINE
  5
1111
330
10C0
100
AcDbEntity
  8
DIM
 62
     6
440
 16777216
370
    -2
100
AcDbLine
 10
757.9285803521551
 20
209.6859039885542
 30
0.0
 11
757.9285803521551
 21
206.1931851696404
 31
0.0
  0
LINE
  5
1112
330
10C0
100
AcDbEntity
  8
DIM
 62
     6
440
 16777216
370
    -2
100
AcDbLine
 10
783.4285803521551
 20
212.7858669112345
 30
0.0
 11
783.4285803521551
 21
206.1931851696404
 31
0.0
  0
LINE
  5
1113
330
10C0
100
AcDbEntity
  8
DIM
 62
     1
440
 16777216
370
    -2
100
AcDbLine
 10
759.4285803521549
 20
206.6931851696404
 30
0.0
 11
781.9285803521551
 21
206.6931851696404
 31
0.0
  0
SOLID
  5
1114
330
10C0
100
AcDbEntity
  8
DIM
 62
     1
440
 16777216
100
AcDbTrace
 10
759.4285803521549
 20
206.9431851696404
 30
0.0
 11
759.4285803521549
 21
206.4431851696404
 31
0.0
 12
757.9285803521551
 22
206.6931851696404
 32
0.0
 13
757.9285803521551
 23
206.6931851696404
 33
0.0
  0
SOLID
  5
1115
330
10C0
100
AcDbEntity
  8
DIM
 62
     1
440
 16777216
100
AcDbTrace
 10
781.9285803521551
 20
206.9431851696404
 30
0.0
 11
781.9285803521551
 21
206.4431851696404
 31
0.0
 12
783.4285803521551
 22
206.6931851696404
 32
0.0
 13
783.4285803521551
 23
206.6931851696404
 33
0.0
  0
MTEXT
  5
1116
330
10C0
100
AcDbEntity
  8
DIM
 62
     4
440
 16777216
100
AcDbMText
 10
770.6785803521551
 20
208.1931851696404
 30
0.0
 40
2.0
 41
0.0
 46
0.0
 71
     5
 72
     1
  1
\A1;25.5
  7
Romans字体
 73
     1
 44
1.0
  0
POINT
  5
1117
330
10C0
100
AcDbEntity
  8
Defpoints
 62
     0
440
 16777216
100
AcDbPoint
 10
757.9285803521551
 20
209.8859039885542
 30
0.0
  0
POINT
  5
1118
330
10C0
100
AcDbEntity
  8
Defpoints
 62
     0
440
 16777216
100
AcDbPoint
 10
783.4285803521551
 20
212.9858669112345
 30
0.0
  0
POINT
  5
1119
330
10C0
100
AcDbEntity
  8
Defpoints
 62
     0
440
 16777216
100
AcDbPoint
 10
783.4285803521551
 20
206.6931851696404
 30
0.0
  0
ENDBLK
  5
10C2
330
10C0
100
AcDbEntity
  8
0
100
AcDbBlockEnd
  0
BLOCK
  5
1298
330
1297
100
AcDbEntity
  8
0
100
AcDbBlockBegin
  2
*D8
 70
     1
 10
0.0
 20
0.0
 30
0.0
  3
*D8
  1

  0
LINE
  5
12B8
330
1297
100
AcDbEntity
  8
DIM
 62
     6
440
 16777216
370
    -2
100
AcDbLine
 10
775.7285803521552
 20
216.5858362478044
 30
0.0
 11
787.8628888890365
 21
216.5858362478044
 31
0.0
  0
LINE
  5
12B9
330
1297
100
AcDbEntity
  8
DIM
 62
     6
440
 16777216
370
    -2
100
AcDbLine
 10
775.7285803521552
 20
211.3858362478043
 30
0.0
 11
787.8628888890365
 21
211.3858362478043
 31
0.0
  0
LINE
  5
12BA
330
1297
100
AcDbEntity
  8
DIM
 62
     1
440
 16777216
370
    -2
100
AcDbLine
 10
787.3628888890365
 20
212.8858362478043
 30
0.0
 11
787.3628888890365
 21
215.0858362478044
 31
0.0
  0
LINE
  5
12BB
330
1297
100
AcDbEntity
  8
DIM
 62
     1
440
 16777216
370
    -2
100
AcDbLine
 10
787.3628888890365
 20
216.5858362478044
 30
0.0
 11
787.3628888890365
 21
223.5858362478044
 31
0.0
  0
SOLID
  5
12BC
330
1297
100
AcDbEntity
  8
DIM
 62
     1
440
 16777216
100
AcDbTrace
 10
787.1128888890365
 20
212.8858362478043
 30
0.0
 11
787.6128888890365
 21
212.8858362478043
 31
0.0
 12
787.3628888890365
 22
211.3858362478043
 32
0.0
 13
787.3628888890365
 23
211.3858362478043
 33
0.0
  0
SOLID
  5
12BD
330
1297
100
AcDbEntity
  8
DIM
 62
     1
440
 16777216
100
AcDbTrace
 10
787.1128888890365
 20
215.0858362478044
 30
0.0
 11
787.6128888890365
 21
215.0858362478044
 31
0.0
 12
787.3628888890365
 22
216.5858362478044
 32
0.0
 13
787.3628888890365
 23
216.5858362478044
 33
0.0
  0
MTEXT
  5
12BE
330
1297
100
AcDbEntity
  8
DIM
 62
     4
440
 16777216
100
AcDbMText
 10
785.8628888890363
 20
220.8358362478041
 30
0.0
 40
2.0
 41
0.0
 46
0.0
 71
     5
 72
     1
  1
\A1;%%C5.2
  7
Romans字体
 11
0.0000000000000001
 21
1.0
 31
0.0
 73
     1
 44
1.0
  0
POINT
  5
12BF
330
1297
100
AcDbEntity
  8
Defpoints
 62
     0
440
 16777216
100
AcDbPoint
 10
775.5285803521553
 20
216.5858362478044
 30
0.0
  0
POINT
  5
12C0
330
1297
100
AcDbEntity
  8
Defpoints
 62
     0
440
 16777216
100
AcDbPoint
 10
775.5285803521553
 20
211.3858362478043
 30
0.0
  0
POINT
  5
12C1
330
1297
100
AcDbEntity
  8
Defpoints
 62
     0
440
 16777216
100
AcDbPoint
 10
787.3628888890365
 20
211.3858362478043
 30
0.0
  0
ENDBLK
  5
1299
330
1297
100
AcDbEntity
  8
0
100
AcDbBlockEnd
  0
BLOCK
  5
12C4
330
12C3
100
AcDbEntity
  8
0
100
AcDbBlockBegin
  2
*D9
 70
     1
 10
0.0
 20
0.0
 30
0.0
  3
*D9
  1

  0
LINE
  5
12CF
330
12C3
100
AcDbEntity
  8
DIM
 62
     6
440
 16777216
370
    -2
100
AcDbLine
 10
764.2285803521547
 20
216.7858362478043
 30
0.0
 11
764.2285803521547
 21
220.4915420340987
 31
0.0
  0
LINE
  5
12D0
330
12C3
100
AcDbEntity
  8
DIM
 62
     6
440
 16777216
370
    -2
100
AcDbLine
 10
783.428565022455
 20
215.1858209136041
 30
0.0
 11
783.428565022455
 21
220.4915420340987
 31
0.0
  0
LINE
  5
12D1
330
12C3
100
AcDbEntity
  8
DIM
 62
     1
440
 16777216
370
    -2
100
AcDbLine
 10
765.7285803521546
 20
219.9915420340987
 30
0.0
 11
781.928565022455
 21
219.9915420340987
 31
0.0
  0
SOLID
  5
12D2
330
12C3
100
AcDbEntity
  8
DIM
 62
     1
440
 16777216
100
AcDbTrace
 10
765.7285803521546
 20
220.2415420340987
 30
0.0
 11
765.7285803521546
 21
219.7415420340987
 31
0.0
 12
764.2285803521547
 22
219.9915420340987
 32
0.0
 13
764.2285803521547
 23
219.9915420340987
 33
0.0
  0
SOLID
  5
12D3
330
12C3
100
AcDbEntity
  8
DIM
 62
     1
440
 16777216
100
AcDbTrace
 10
781.928565022455
 20
220.2415420340987
 30
0.0
 11
781.928565022455
 21
219.7415420340987
 31
0.0
 12
783.428565022455
 22
219.9915420340987
 32
0.0
 13
783.428565022455
 23
219.9915420340987
 33
0.0
  0
MTEXT
  5
12D4
330
12C3
100
AcDbEntity
  8
DIM
 62
     4
440
 16777216
100
AcDbMText
 10
773.8285726873047
 20
221.4915420340987
 30
0.0
 40
2.0
 41
0.0
 46
0.0
 71
     5
 72
     1
  1
\A1;19.2
  7
Romans字体
 73
     1
 44
1.0
  0
POINT
  5
12D5
330
12C3
100
AcDbEntity
  8
Defpoints
 62
     0
440
 16777216
100
AcDbPoint
 10
764.2285803521547
 20
216.5858362478043
 30
0.0
  0
POINT
  5
12D6
330
12C3
100
AcDbEntity
  8
Defpoints
 62
     0
440
 16777216
100
AcDbPoint
 10
783.428565022455
 20
214.9858209136041
 30
0.0
  0
POINT
  5
12D7
330
12C3
100
AcDbEntity
  8
Defpoints
 62
     0
440
 16777216
100
AcDbPoint
 10
783.428565022455
 20
219.9915420340987
 30
0.0
  0
ENDBLK
  5
12C5
330
12C3
100
AcDbEntity
  8
0
100
AcDbBlockEnd
  0
ENDSEC
  0
SECTION
  2
ENTITIES
  0
MTEXT
  5
E6
102
{ACAD_XDICTIONARY
360
119D
102
}
330
2
100
AcDbEntity
  8
打标文字
 62
     3
100
AcDbMText
 10
811.5228820062633
 20
228.1821962816525
 30
0.0
 40
1.5
 41
43.12740902174064
 46
53.91180554791946
 71
     1
 72
     5
  3
\A1;\pxql;{\f仿宋_GB2312|b0|i0|c134|p49;技术参数}:\P\pq*;- {\f仿宋_GB2312|b0|i0|c134|p49;材料}: {\f仿宋_GB2312|b0|i0|c134|p49;聚甲醛}\P- {\f仿宋_GB2312|b0|i0|c134|p49;颜色}: {\f仿宋_GB2312|b0|i0|c134|p49;黑色}\P- {\f仿宋_GB2312|b0|i0|c134|p49;软管内径}: 3.0mm\P\pql;- {\f仿宋_GB231
  3
2|b0|i0|c134|p49;工作压力}: {\f仿宋_GB2312|b0|i0|c134|p49;最大} 8 bar/116 psi\P- {\f仿宋_GB2312|b0|i0|c134|p49;密封圈材料}: {\f仿宋_GB2312|b0|i0|c134|p49;氟橡胶}\P- {\f仿宋_GB2312|b0|i0|c134|p49;可插拔次数}: {\f仿宋_GB2312|b0|i0|c134|p49;≥}500\P\pq*;\P\pql;Technical specificatio
  1
n:\P- Material: delrin acetal\P- Colour: black\P\pq*;- Tube termination: \P  Internal diameter(ID): 3.0mm\P\pql;- Working pressure: up to 8 bar/116 psi\P- Sealing material: FPM\P- Mating cycles: {\f仿宋_GB2312|b0|i0|c134|p49;≥}500
  7
Romans字体
 73
     1
 44
1.0
1001
ACAD
1000
ACAD_MTEXT_DEFINED_HEIGHT_BEGIN
1070
    46
1040
53.91180554791946
1000
ACAD_MTEXT_DEFINED_HEIGHT_END
  0
MTEXT
  5
309
330
2
100
AcDbEntity
  8
图框
 62
     3
100
AcDbMText
 10
843.9030534867272
 20
172.4178698465939
 30
0.0
 40
1.492756789270166
 41
16.80619601594785
 46
4.436077779192768
 71
     5
 72
     5
  1
1011000020002
  7
Romans字体
 73
     1
 44
1.0
1001
ACAD
1000
ACAD_MTEXT_DEFINED_HEIGHT_BEGIN
1070
    46
1040
4.436077779192768
1000
ACAD_MTEXT_DEFINED_HEIGHT_END
  0
INSERT
  5
30A
330
2
100
AcDbEntity
  8
DIM
100
AcDbBlockReference
  2
A4图框-NEW
 10
288.8418995277883
 20
-82.15681894141829
 30
0.0
 41
0.5
 42
0.5
 43
0.5
  0
MTEXT
  5
30B
330
2
100
AcDbEntity
  8
图框
 62
     3
100
AcDbMText
 10
820.7055691249598
 20
165.764052159038
 30
0.0
 40
1.492756789270166
 41
5.414673575202384
 46
3.943047602182616
 71
     5
 72
     5
  1
0.6g
  7
Romans字体
 73
     1
 44
1.0
1001
ACAD
1000
ACAD_MTEXT_DEFINED_HEIGHT_BEGIN
1070
    46
1040
3.943047602182616
1000
ACAD_MTEXT_DEFINED_HEIGHT_END
  0
MTEXT
  5
30C
330
2
100
AcDbEntity
  8
图框
 62
     3
100
AcDbMText
 10
809.8762203695715
 20
165.7640520082494
 30
0.0
 40
1.492756787517073
 41
5.414674217195232
 46
3.943047300605248
 71
     5
 72
     5
  1
2:1
  7
Romans字体
 73
     1
 44
1.0
1001
ACAD
1000
ACAD_MTEXT_DEFINED_HEIGHT_BEGIN
1070
    46
1040
3.943047300605248
1000
ACAD_MTEXT_DEFINED_HEIGHT_END
  0
MTEXT
  5
30D
330
2
100
AcDbEntity
  8
图框
 62
     3
100
AcDbMText
 10
843.9030528348641
 20
176.8075948110354
 30
0.0
 40
1.492756787517073
 41
16.80619599621068
 46
4.343372752842928
 71
     5
 72
     5
  1
PCF-3.0
  7
Romans字体
 73
     1
 44
1.0
1001
ACAD
1000
ACAD_MTEXT_DEFINED_HEIGHT_BEGIN
1070
    46
1040
4.343372752842928
1000
ACAD_MTEXT_DEFINED_HEIGHT_END
  0
LINE
  5
103B
102
{ACAD_REACTORS
330
10AF
102
}
330
2
100
AcDbEntity
  8
0
100
AcDbLine
 10
757.9285803521551
 20
218.0857685071041
 30
0.0
 11
757.9285803521551
 21
209.8859039885542
 31
0.0
  0
LINE
  5
103C
330
2
100
AcDbEntity
  8
0
100
AcDbLine
 10
763.8285803521553
 20
209.8858362478045
 30
0.0
 11
763.8285803521553
 21
218.0858362478043
 31
0.0
  0
LINE
  5
103D
330
2
100
AcDbEntity
  8
0
100
AcDbLine
 10
764.2285803521547
 20
217.6858362478042
 30
0.0
 11
764.2285803521547
 21
210.2858362478041
 31
0.0
  0
LINE
  5
103E
330
2
100
AcDbEntity
  8
0
100
AcDbLine
 10
757.9285803521551
 20
209.8858362478045
 30
0.0
 11
763.8285803521553
 21
209.8858362478045
 31
0.0
  0
LINE
  5
103F
330
2
100
AcDbEntity
  8
0
100
AcDbLine
 10
781.6285803521546
 20
212.7858362478041
 30
0.0
 11
778.3285803521551
 21
212.2358362478039
 31
0.0
  0
LINE
  5
1040
330
2
100
AcDbEntity
  8
0
100
AcDbLine
 10
764.2285803521547
 20
211.3858362478044
 30
0.0
 11
775.528580352155
 21
211.3858362478044
 31
0.0
  0
LINE
  5
1041
330
2
100
AcDbEntity
  8
0
100
AcDbLine
 10
768.1285803521546
 20
211.3858362478044
 30
0.0
 11
768.1285803521546
 21
216.5858362478043
 31
0.0
  0
LINE
  5
1042
330
2
100
AcDbEntity
  8
0
100
AcDbLine
 10
778.3285803521551
 20
212.7858362478041
 30
0.0
 11
776.0928367859547
 21
212.5175470198541
 31
0.0
  0
LINE
  5
1043
330
2
100
AcDbEntity
  8
0
100
AcDbLine
 10
769.3285803521551
 20
211.3858362478044
 30
0.0
 11
769.3285803521551
 21
216.5858362478043
 31
0.0
  0
LINE
  5
1044
330
2
100
AcDbEntity
  8
0
100
AcDbLine
 10
783.2285803521547
 20
212.7858362478041
 30
0.0
 11
781.6285803521546
 21
212.7858362478041
 31
0.0
  0
LINE
  5
1045
330
2
100
AcDbEntity
  8
0
100
AcDbLine
 10
783.2285803521547
 20
215.1858362478042
 30
0.0
 11
781.6285803521546
 21
215.1858362478042
 31
0.0
  0
LINE
  5
1046
330
2
100
AcDbEntity
  8
0
100
AcDbLine
 10
764.2285803521547
 20
216.5858362478043
 30
0.0
 11
775.528580352155
 21
216.5858362478043
 31
0.0
  0
LINE
  5
1047
330
2
100
AcDbEntity
  8
0
100
AcDbLine
 10
778.3285803521551
 20
215.1858362478042
 30
0.0
 11
776.0928367859547
 21
215.4541254757541
 31
0.0
  0
LINE
  5
1048
330
2
100
AcDbEntity
  8
0
100
AcDbLine
 10
781.6285803521546
 20
215.1858362478042
 30
0.0
 11
778.3285803521551
 21
215.7358362478039
 31
0.0
  0
LINE
  5
1049
102
{ACAD_REACTORS
330
10AF
102
}
330
2
100
AcDbEntity
  8
0
100
AcDbLine
 10
757.9285803521551
 20
218.0858362478043
 30
0.0
 11
763.8285803521553
 21
218.0858362478043
 31
0.0
  0
LINE
  5
104A
330
2
100
AcDbEntity
  8
0
100
AcDbLine
 10
775.528580352155
 20
216.5858362478043
 30
0.0
 11
775.528580352155
 21
211.3858362478044
 31
0.0
  0
LINE
  5
104B
330
2
100
AcDbEntity
  8
0
100
AcDbLine
 10
775.8285803521553
 20
216.2858362478041
 30
0.0
 11
775.8285803521553
 21
211.6858362478042
 31
0.0
  0
LINE
  5
104C
330
2
100
AcDbEntity
  8
0
100
AcDbLine
 10
776.0928367859547
 20
215.4541254757541
 30
0.0
 11
776.0928367859547
 21
212.5175470198541
 31
0.0
  0
LINE
  5
104D
330
2
100
AcDbEntity
  8
0
100
AcDbLine
 10
778.3285803521551
 20
212.2358362478039
 30
0.0
 11
778.3285803521551
 21
215.7358362478039
 31
0.0
  0
LINE
  5
104E
102
{ACAD_REACTORS
330
10B2
102
}
330
2
100
AcDbEntity
  8
0
100
AcDbLine
 10
783.4285650232547
 20
212.9858515828041
 30
0.0
 11
783.2285619575047
 21
212.7858546498041
 31
0.0
  0
LINE
  5
104F
330
2
100
AcDbEntity
  8
0
100
AcDbLine
 10
783.428565022455
 20
214.9858209136041
 30
0.0
 11
783.2285619565549
 21
215.1858178468041
 31
0.0
  0
LINE
  5
1050
330
2
100
AcDbEntity
  8
0
100
AcDbLine
 10
781.6285803521546
 20
212.7858362478041
 30
0.0
 11
781.6285803521546
 21
215.1858362478042
 31
0.0
  0
LINE
  5
1051
330
2
100
AcDbEntity
  8
0
100
AcDbLine
 10
783.2285803521547
 20
215.1858362478042
 30
0.0
 11
783.2285803521547
 21
212.7858362478041
 31
0.0
  0
LINE
  5
1052
102
{ACAD_REACTORS
330
10B2
102
}
330
2
100
AcDbEntity
  8
0
100
AcDbLine
 10
783.4285803521551
 20
214.9858362478539
 30
0.0
 11
783.4285803521551
 21
212.9858362477539
 31
0.0
  0
ARC
  5
1053
330
2
100
AcDbEntity
  8
0
100
AcDbCircle
 10
763.8285803521553
 20
210.2858362478041
 30
0.0
 40
0.4
100
AcDbArc
 50
270.0
 51
0.0
  0
ARC
  5
1054
330
2
100
AcDbEntity
  8
0
100
AcDbCircle
 10
763.8285803521553
 20
217.6858362478042
 30
0.0
 40
0.4
100
AcDbArc
 50
0.0
 51
90.0
  0
ARC
  5
1055
330
2
100
AcDbEntity
  8
0
100
AcDbCircle
 10
776.1285803521547
 20
212.2196839683542
 30
0.0
 40
0.3
100
AcDbArc
 50
96.84277341798946
 51
179.999999984888
  0
ARC
  5
1056
330
2
100
AcDbEntity
  8
0
100
AcDbCircle
 10
776.1285803521547
 20
215.7519885273045
 30
0.0
 40
0.3
100
AcDbArc
 50
180.0000000058884
 51
263.157226585107
  0
ARC
  5
1057
330
2
100
AcDbEntity
  8
0
100
AcDbCircle
 10
775.528580352155
 20
211.6858362478042
 30
0.0
 40
0.3
100
AcDbArc
 50
270.0
 51
0.0
  0
ARC
  5
1058
330
2
100
AcDbEntity
  8
0
100
AcDbCircle
 10
775.528580352155
 20
216.2858362478041
 30
0.0
 40
0.3
100
AcDbArc
 50
0.0
 51
90.0
  0
SPLINE
  5
1059
330
2
100
AcDbEntity
  8
0
100
AcDbSpline
210
0.0
220
0.0
230
1.0
 70
     8
 71
     3
 72
    16
 73
    12
 74
     0
 42
0.000000001
 43
0.0000000001
 40
0.0
 40
0.0
 40
0.0
 40
0.0
 40
0.1250026624
 40
0.2500103333
 40
0.375016039
 40
0.5000220314
 40
0.6250223028999999
 40
0.7500022996000001
 40
0.8748892169999999
 40
0.9374600162
 40
1.0
 40
1.0
 40
1.0
 40
1.0
 10
768.1285803521546
 20
212.5921002613545
 30
0.0
 10
768.1963447505547
 20
212.6339343090544
 30
0.0
 10
768.3305916817053
 20
212.7197176029544
 30
0.0
 10
768.5268296695053
 20
212.8561244655043
 30
0.0
 10
768.7160735301547
 20
213.0021745845542
 30
0.0
 10
768.8953597442549
 20
213.1604247441041
 30
0.0
 10
769.0597494022052
 20
213.334413742154
 30
0.0
 10
769.2005623970053
 20
213.5283575139542
 30
0.0
 10
769.2855207204553
 20
213.7106397534539
 30
0.0
 10
769.3221897728553
 20
213.8661513765542
 30
0.0
 10
769.328580352055
 20
213.9459929669042
 30
0.0
 10
769.328580352105
 20
213.9858362472045
 30
0.0
  0
SPLINE
  5
105A
330
2
100
AcDbEntity
  8
0
100
AcDbSpline
210
0.0
220
0.0
230
1.0
 70
     8
 71
     3
 72
    17
 73
    13
 74
     0
 42
0.000000001
 43
0.0000000001
 40
0.0
 40
0.0
 40
0.0
 40
0.0
 40
0.062533417
 40
0.1251287057
 40
0.1876865072
 40
0.2502243375
 40
0.3751912293
 40
0.5001606435000002
 40
0.6251255987
 40
0.7500839923
 40
0.8750465058999999
 40
1.0
 40
1.0
 40
1.0
 40
1.0
 10
769.328580352105
 20
213.9858362472045
 30
0.0
 10
769.3285803521551
 20
214.0256837274041
 30
0.0
 10
769.3221400622547
 20
214.1055439706542
 30
0.0
 10
769.2946629026047
 20
214.2223498588041
 30
0.0
 10
769.2514301243047
 20
214.3342166696043
 30
0.0
 10
769.1771692350552
 20
214.4755113104543
 30
0.0
 10
769.0596363207547
 20
214.6374417863039
 30
0.0
 10
768.895262178455
 20
214.8113264160042
 30
0.0
 10
768.7159737849049
 20
214.969566305404
 30
0.0
 10
768.5267683940049
 20
215.115599960804
 30
0.0
 10
768.3305594877049
 20
215.2519817536044
 30
0.0
 10
768.196332350655
 20
215.3377458415539
 30
0.0
 10
768.1285803521546
 20
215.3795722343043
 30
0.0
  0
LINE
  5
105B
330
2
100
AcDbEntity
  8
0
100
AcDbLine
 10
721.4293074730767
 20
166.9700029548807
 30
0.0
 11
721.3293169558351
 21
167.1553229987861
 31
0.0
  0
LINE
  5
105C
330
2
100
AcDbEntity
  8
0
100
AcDbLine
 10
722.8893366498226
 20
166.4755765559356
 30
0.0
 11
723.0813536318593
 21
166.5620101277104
 31
0.0
  0
LINE
  5
105D
330
2
100
AcDbEntity
  8
0
100
AcDbLine
 10
731.6041448556989
 20
184.3870507891483
 30
0.0
 11
730.1417929933417
 21
180.0687633873408
 31
0.0
  0
LINE
  5
105E
330
2
100
AcDbEntity
  8
0
100
AcDbLine
 10
728.7260815996441
 20
179.6294447936416
 30
0.0
 11
727.9394141365718
 21
177.306436027667
 31
0.0
  0
LINE
  5
105F
330
2
100
AcDbEntity
  8
0
100
AcDbLine
 10
727.6352291661524
 20
176.4081856411535
 30
0.0
 11
726.1052779024252
 21
171.8902789474232
 31
0.0
  0
LINE
  5
1060
330
2
100
AcDbEntity
  8
0
100
AcDbLine
 10
723.5280648698932
 20
167.7746457988046
 30
0.0
 11
724.7606957726047
 21
170.0441534132392
 31
0.0
  0
LINE
  5
1061
330
2
100
AcDbEntity
  8
0
100
AcDbLine
 10
723.6943148667405
 20
177.7205682861108
 30
0.0
 11
723.7255309747561
 21
178.6830349425768
 31
0.0
  0
LINE
  5
1062
330
2
100
AcDbEntity
  8
0
100
AcDbLine
 10
724.3474239760862
 20
170.1927537497199
 30
0.0
 11
725.029887470314
 21
171.6048992871428
 31
0.0
  0
LINE
  5
1063
330
2
100
AcDbEntity
  8
0
100
AcDbLine
 10
728.0729717666527
 20
177.020507144206
 30
0.0
 11
728.1973290515239
 21
177.1987563707066
 31
0.0
  0
LINE
  5
1064
330
2
100
AcDbEntity
  8
0
100
AcDbLine
 10
727.6224669519892
 20
176.3903324812677
 30
0.0
 11
728.0747319330728
 21
177.0230094536827
 31
0.0
  0
LINE
  5
1065
330
2
100
AcDbEntity
  8
0
100
AcDbLine
 10
723.1359610575936
 20
166.6137874065584
 30
0.0
 11
723.5307505788482
 21
167.7795906991045
 31
0.0
  0
LINE
  5
1066
330
2
100
AcDbEntity
  8
0
100
AcDbLine
 10
726.9809018404039
 20
177.0829850102726
 30
0.0
 11
728.1973290515239
 21
177.1987563707066
 31
0.0
  0
LINE
  5
1067
330
2
100
AcDbEntity
  8
0
100
AcDbLine
 10
723.9663975252287
 20
178.31199270261
 30
0.0
 11
725.7029955238331
 21
177.4192257959089
 31
0.0
  0
LINE
  5
1068
330
2
100
AcDbEntity
  8
0
100
AcDbLine
 10
721.3174058720316
 20
167.2296258894934
 30
0.0
 11
721.7121953932855
 21
168.3954291820396
 31
0.0
  0
LINE
  5
1069
330
2
100
AcDbEntity
  8
0
100
AcDbLine
 10
722.5298090785741
 20
170.8082738119815
 30
0.0
 11
722.8461980631633
 21
172.3464831680198
 31
0.0
  0
LINE
  5
106A
330
2
100
AcDbEntity
  8
0
100
AcDbLine
 10
723.7412963204037
 20
178.7484323977509
 30
0.0
 11
723.7255332017521
 21
178.682959573945
 31
0.0
  0
LINE
  5
106B
330
2
100
AcDbEntity
  8
0
100
AcDbLine
 10
724.7846926299447
 20
180.9602590794406
 30
0.0
 11
723.9992112345198
 21
178.6407527406931
 31
0.0
  0
LINE
  5
106C
330
2
100
AcDbEntity
  8
0
100
AcDbLine
 10
723.6950262641007
 20
177.7425023541795
 30
0.0
 11
722.1647319823712
 21
173.2235696429024
 31
0.0
  0
LINE
  5
106D
330
2
100
AcDbEntity
  8
0
100
AcDbLine
 10
721.7113239477263
 20
168.3898698966354
 30
0.0
 11
722.1112819277776
 21
170.941355222576
 31
0.0
  0
LINE
  5
106E
330
2
100
AcDbEntity
  8
0
100
AcDbLine
 10
724.0454797692287
 20
178.7773825325207
 30
0.0
 11
723.7412963195811
 21
178.7484323976918
 31
0.0
  0
LINE
  5
106F
330
2
100
AcDbEntity
  8
0
100
AcDbLine
 10
725.3907479716936
 20
186.4911656058433
 30
0.0
 11
723.9283961093365
 21
182.1728782040358
 31
0.0
  0
ARC
  5
1070
330
2
100
AcDbEntity
  8
0
100
AcDbCircle
 10
725.8977753915642
 20
177.9329253996252
 30
0.0
 40
6.371306328759999
100
AcDbArc
 50
246.2890036557092
 51
246.4948768897202
  0
ARC
  5
1071
330
2
100
AcDbEntity
  8
0
100
AcDbCircle
 10
725.3401854603221
 20
177.0019869016555
 30
0.0
 40
5.11853674672
100
AcDbArc
 50
241.268216120406
 51
242.8005961319284
  0
ARC
  5
1072
330
2
100
AcDbEntity
  8
0
100
AcDbCircle
 10
725.8099752058324
 20
176.3841190762504
 30
0.0
 40
4.677637913999999
100
AcDbArc
 50
261.3357321158145
 51
261.5864008110079
  0
ARC
  5
1073
330
2
100
AcDbEntity
  8
0
100
AcDbCircle
 10
725.1224160911702
 20
176.600534155455
 30
0.0
 40
4.661827535119996
100
AcDbArc
 50
240.8402650375204
 51
241.2433301564963
  0
ARC
  5
1074
330
2
100
AcDbEntity
  8
0
100
AcDbCircle
 10
724.6537676860953
 20
174.6120093674971
 30
0.0
 40
2.842784363119998
100
AcDbArc
 50
240.8242981984221
 51
242.8053742145048
  0
ARC
  5
1075
330
2
100
AcDbEntity
  8
0
100
AcDbCircle
 10
723.4673513618504
 20
167.8076490898506
 30
0.0
 40
0.06910243468
100
AcDbArc
 50
325.1064093042141
 51
331.4717194184087
  0
SPLINE
  5
1076
330
2
100
AcDbEntity
  8
0
100
AcDbSpline
210
0.0
220
0.0
230
1.0
 70
     8
 71
     3
 72
    30
 73
    26
 74
     0
 42
0.000000001
 43
0.0000000001
 40
0.0
 40
0.0
 40
0.0
 40
0.0
 40
0.024150698
 40
0.0507721046
 40
0.0797399679
 40
0.1109158752
 40
0.1792314101
 40
0.2541840899999999
 40
0.3339835292
 40
0.4166691993000002
 40
0.5001869759000001
 40
0.5824562475000003
 40
0.6614368844
 40
0.7351976315000001
 40
0.8019881620999999
 40
0.8322977203
 40
0.8603362548999998
 40
0.8859767618000001
 40
0.9091317318999999
 40
0.9297557911
 40
0.9478711869999999
 40
0.9635889171999998
 40
0.9771638094
 40
0.9890568155
 40
1.0
 40
1.0
 40
1.0
 40
1.0
 10
725.9431420607373
 20
186.7522494068066
 30
0.0
 10
725.9945770040372
 20
186.7571446387604
 30
0.0
 10
726.1031015799792
 20
186.7634594998944
 30
0.0
 10
726.2737617484003
 20
186.7637510868403
 30
0.0
 10
726.4592529656364
 20
186.755262752049
 30
0.0
 10
726.7331124299621
 20
186.7315727153654
 30
0.0
 10
727.1029224421954
 20
186.6793194666493
 30
0.0
 10
727.5711718110366
 20
186.5861990006533
 30
0.0
 10
728.0641881019652
 20
186.4631033169765
 30
0.0
 10
728.5688619839882
 20
186.313254077469
 30
0.0
 10
729.0717816159854
 20
186.1405930823421
 30
0.0
 10
729.5595754763311
 20
185.9497148480513
 30
0.0
 10
730.0193177359822
 20
185.7457285673021
 30
0.0
 10
730.4388233825497
 20
185.5341023545347
 30
0.0
 10
730.755348320207
 20
185.350664740456
 30
0.0
 10
730.9790060788391
 20
185.2034035371957
 30
0.0
 10
731.124740628371
 20
185.0981848558835
 30
0.0
 10
731.2530250780852
 20
184.9952761170948
 30
0.0
 10
731.3630575914833
 20
184.895361072868
 30
0.0
 10
731.4541566814756
 20
184.799045838667
 30
0.0
 10
731.5258162203645
 20
184.7068903469775
 30
0.0
 10
731.5776156833592
 20
184.619282446461
 30
0.0
 10
731.6091649484323
 20
184.5363972280479
 30
0.0
 10
731.6197026140415
 20
184.4583544614128
 30
0.0
 10
731.6116473291035
 20
184.4092155130356
 30
0.0
 10
731.6041392158085
 20
184.387040541073
 30
0.0
  0
SPLINE
  5
1077
330
2
100
AcDbEntity
  8
0
100
AcDbSpline
210
0.0
220
0.0
230
1.0
 70
     8
 71
     3
 72
    18
 73
    14
 74
     0
 42
0.000000001
 43
0.0000000001
 40
0.0
 40
0.0
 40
0.0
 40
0.0
 40
0.1300667657
 40
0.2684261995
 40
0.4101747469000001
 40
0.5502264234
 40
0.6835834216
 40
0.7462785872
 40
0.8055854218
 40
0.8610105924999999
 40
0.9121173154
 40
0.9585510105
 40
1.0
 40
1.0
 40
1.0
 40
1.0
 10
726.8937101092082
 20
185.2864753625303
 30
0.0
 10
727.0504097685527
 20
185.2059177031383
 30
0.0
 10
727.3795096919725
 20
185.0506540319974
 30
0.0
 10
727.8945462153972
 20
184.8415362169012
 30
0.0
 10
728.4323351787461
 20
184.654407663234
 30
0.0
 10
728.972329139111
 20
184.4964540694954
 30
0.0
 10
729.4157659792681
 20
184.3919713765767
 30
0.0
 10
729.7558664148986
 20
184.3284891439966
 30
0.0
 10
729.9935581856143
 20
184.2924790125339
 30
0.0
 10
730.2168662424747
 20
184.2673815386019
 30
0.0
 10
730.4236944976718
 20
184.253426403809
 30
0.0
 10
730.6120491962773
 20
184.2507353209098
 30
0.0
 10
730.7310793288952
 20
184.25676548022
 30
0.0
 10
730.7869753154599
 20
184.2620852842969
 30
0.0
  0
SPLINE
  5
1078
330
2
100
AcDbEntity
  8
0
100
AcDbSpline
210
0.0
220
0.0
230
1.0
 70
     8
 71
     3
 72
    11
 73
     7
 74
     0
 42
0.000000001
 43
0.0000000001
 40
0.0
 40
0.0
 40
0.0
 40
0.0
 40
0.2878812202
 40
0.550334699
 40
0.7874344343999999
 40
1.0
 40
1.0
 40
1.0
 40
1.0
 10
730.7869753154599
 20
184.2620852842969
 30
0.0
 10
730.8192523016941
 20
184.2651571907458
 30
0.0
 10
730.8808229998971
 20
184.2726287958443
 30
0.0
 10
730.9680689487172
 20
184.2889502099337
 30
0.0
 10
731.0456015108607
 20
184.3098184375194
 30
0.0
 10
731.0931220907961
 20
184.3276752481369
 30
0.0
 10
731.1149516865907
 20
184.3375042566226
 30
0.0
  0
SPLINE
  5
1079
330
2
100
AcDbEntity
  8
0
100
AcDbSpline
210
0.0
220
0.0
230
1.0
 70
     8
 71
     3
 72
    15
 73
    11
 74
     0
 42
0.000000001
 43
0.0000000001
 40
0.0
 40
0.0
 40
0.0
 40
0.0
 40
0.0910955761
 40
0.1849378017
 40
0.2862605521999999
 40
0.3987794863
 40
0.5250855428
 40
0.6668340986
 40
0.8249928578
 40
1.0
 40
1.0
 40
1.0
 40
1.0
 10
728.1973290507013
 20
177.1987563706475
 30
0.0
 10
728.2030410390565
 20
177.2106465052766
 30
0.0
 10
728.2116434421167
 20
177.2363628263387
 30
0.0
 10
728.214604396403
 20
177.2780896557915
 30
0.0
 10
728.2077822413222
 20
177.3224326263802
 30
0.0
 10
728.1914915445631
 20
177.3691419878423
 30
0.0
 10
728.1659493895131
 20
177.41814368944
 30
0.0
 10
728.1312947821719
 20
177.4693414646239
 30
0.0
 10
728.0876637625453
 20
177.5225938033913
 30
0.0
 10
728.0543761001545
 20
177.5575715544073
 30
0.0
 10
728.0363799241902
 20
177.5754136231321
 30
0.0
  0
SPLINE
  5
107A
330
2
100
AcDbEntity
  8
0
100
AcDbSpline
210
0.0
220
0.0
230
1.0
 70
     8
 71
     3
 72
    11
 73
     7
 74
     0
 42
0.000000001
 43
0.0000000001
 40
0.0
 40
0.0
 40
0.0
 40
0.0
 40
0.2898952254
 40
0.5473787299000003
 40
0.7803625827
 40
1.0
 40
1.0
 40
1.0
 40
1.0
 10
721.3293086094317
 20
167.1553066481487
 30
0.0
 10
721.3257600028259
 20
167.1618824385276
 30
0.0
 10
721.319796844582
 20
167.1747321479865
 30
0.0
 10
721.3144251150201
 20
167.1942361346968
 30
0.0
 10
721.313340170047
 20
167.2126631232126
 30
0.0
 10
721.3155979584126
 20
167.2242673764562
 30
0.0
 10
721.3174127164903
 20
167.2296298880878
 30
0.0
  0
SPLINE
  5
107B
330
2
100
AcDbEntity
  8
0
100
AcDbSpline
210
0.0
220
0.0
230
1.0
 70
     8
 71
     3
 72
    18
 73
    14
 74
     0
 42
0.000000001
 43
0.0000000001
 40
0.0
 40
0.0
 40
0.0
 40
0.0
 40
0.0308110759
 40
0.0679144649
 40
0.1114244669
 40
0.1611288524
 40
0.2166327752
 40
0.2773806225
 40
0.4118872074000003
 40
0.5585087669
 40
0.7102572676000002
 40
0.8598064093999997
 40
1.0
 40
1.0
 40
1.0
 40
1.0
 10
722.8893029520413
 20
166.475543581479
 30
0.0
 10
722.8780865564276
 20
166.470496449107
 30
0.0
 10
722.8520603750194
 20
166.4622880271112
 30
0.0
 10
722.8080944326773
 20
166.4550436190261
 30
0.0
 10
722.7560969784434
 20
166.4518440257447
 30
0.0
 10
722.6966942397007
 20
166.4527297321424
 30
0.0
 10
722.6305997483972
 20
166.4577229105857
 30
0.0
 10
722.531248699745
 20
166.470216597303
 30
0.0
 10
722.3970812971606
 20
166.4959933488957
 30
0.0
 10
722.2298010151016
 20
166.539721837792
 30
0.0
 10
722.0596831791928
 20
166.5951300448537
 30
0.0
 10
721.8954731634855
 20
166.6593859615518
 30
0.0
 10
721.7904938901455
 20
166.7082033303772
 30
0.0
 10
721.7407212621706
 20
166.7337909200064
 30
0.0
  0
SPLINE
  5
107C
330
2
100
AcDbEntity
  8
0
100
AcDbSpline
210
0.0
220
0.0
230
1.0
 70
     8
 71
     3
 72
    24
 73
    20
 74
     0
 42
0.000000001
 43
0.0000000001
 40
0.0
 40
0.0
 40
0.0
 40
0.0
 40
0.0245164153
 40
0.0479763039
 40
0.070903713
 40
0.0933614974
 40
0.1152373371
 40
0.1369088501
 40
0.1588342823
 40
0.1813321679
 40
0.2289810476
 40
0.2811973995
 40
0.3384773447
 40
0.4007733919
 40
0.4677135084000001
 40
0.5386764950999999
 40
0.6894705264000001
 40
0.8459040523
 40
1.0
 40
1.0
 40
1.0
 40
1.0
 10
726.1052779024252
 20
171.8902789474232
 30
0.0
 10
726.0975587905457
 20
171.8674846087701
 30
0.0
 10
726.0780439094337
 20
171.824216780034
 30
0.0
 10
726.0373882480321
 20
171.7672462444746
 30
0.0
 10
725.9888630890109
 20
171.719772343577
 30
0.0
 10
725.935106316102
 20
171.6810742899283
 30
0.0
 10
725.8778777828256
 20
171.6503386876051
 30
0.0
 10
725.817980833662
 20
171.6267145496917
 30
0.0
 10
725.7556286563931
 20
171.6085310198341
 30
0.0
 10
725.6671800308636
 20
171.5896200062416
 30
0.0
 10
725.5475448430348
 20
171.5761386352783
 30
0.0
 10
725.3931787501827
 20
171.572977413035
 30
0.0
 10
725.2246415298241
 20
171.5814801510923
 30
0.0
 10
725.0425179284477
 20
171.600990656278
 30
0.0
 10
724.8482621323601
 20
171.631164163869
 30
0.0
 10
724.570187243984
 20
171.6861233795725
 30
0.0
 10
724.2102323345211
 20
171.7782766404338
 30
0.0
 10
723.7792428153329
 20
171.918081007205
 30
0.0
 10
723.4954131915808
 20
172.0299525985133
 30
0.0
 10
723.3567004941877
 20
172.0902819310108
 30
0.0
  0
SPLINE
  5
107D
330
2
100
AcDbEntity
  8
0
100
AcDbSpline
210
0.0
220
0.0
230
1.0
 70
     8
 71
     3
 72
     9
 73
     5
 74
     0
 42
0.000000001
 43
0.0000000001
 40
0.0
 40
0.0
 40
0.0
 40
0.0
 40
0.2569533666
 40
1.0
 40
1.0
 40
1.0
 40
1.0
 10
723.3357233565117
 20
172.0994501314025
 30
0.0
 10
723.3084663754497
 20
172.111421465061
 30
0.0
 10
723.2027209616262
 20
172.158760210365
 30
0.0
 10
723.0983100139066
 20
172.209105713709
 30
0.0
 10
723.0217471282511
 20
172.2484658941789
 30
0.0
  0
SPLINE
  5
107E
330
2
100
AcDbEntity
  8
0
100
AcDbSpline
210
0.0
220
0.0
230
1.0
 70
     8
 71
     3
 72
    13
 73
     9
 74
     0
 42
0.000000001
 43
0.0000000001
 40
0.0
 40
0.0
 40
0.0
 40
0.0
 40
0.3243588485
 40
0.6034538781000001
 40
0.7234709937999999
 40
0.8296090253
 40
0.9216775122000001
 40
1.0
 40
1.0
 40
1.0
 40
1.0
 10
721.7407212621706
 20
166.7337909200064
 30
0.0
 10
721.7027309554663
 20
166.7533213396059
 30
0.0
 10
721.6331359597984
 20
166.791822454707
 30
0.0
 10
721.5535705475422
 20
166.8445584201376
 30
0.0
 10
721.5016527162743
 20
166.8862480679722
 30
0.0
 10
721.4709840121185
 20
166.9148866856012
 30
0.0
 10
721.4468207709479
 20
166.9422137063538
 30
0.0
 10
721.4342025006523
 20
166.960906293712
 30
0.0
 10
721.4293036129556
 20
166.9699834026318
 30
0.0
  0
SPLINE
  5
107F
330
2
100
AcDbEntity
  8
0
100
AcDbSpline
210
0.0
220
0.0
230
1.0
 70
     8
 71
     3
 72
    18
 73
    14
 74
     0
 42
0.000000001
 43
0.0000000001
 40
0.0
 40
0.0
 40
0.0
 40
0.0
 40
0.1606910982
 40
0.3088633613
 40
0.4431503374
 40
0.5639342093000002
 40
0.6735860788
 40
0.7259404149
 40
0.7779183137000001
 40
0.8309365110999998
 40
0.8856215668
 40
0.9415902954999999
 40
1.0
 40
1.0
 40
1.0
 40
1.0
 10
723.0217471282511
 20
172.2484658941789
 30
0.0
 10
722.9551478041567
 20
172.2827039115995
 30
0.0
 10
722.8285737198372
 20
172.351378477952
 30
0.0
 10
722.6525088741209
 20
172.4595294167716
 30
0.0
 10
722.4991385293683
 20
172.5684340321536
 30
0.0
 10
722.3693505176811
 20
172.6785525527829
 30
0.0
 10
722.2794671235774
 20
172.7756729319594
 30
0.0
 10
722.2220150601213
 20
172.8573594484636
 30
0.0
 10
722.1865674434982
 20
172.9217781167949
 30
0.0
 10
722.1603236286625
 20
172.9917181519963
 30
0.0
 10
722.1452680776955
 20
173.0668933572537
 30
0.0
 10
722.1447909566217
 20
173.1462219478071
 30
0.0
 10
722.1563442488603
 20
173.1988139760019
 30
0.0
 10
722.1650750003732
 20
173.2245956604492
 30
0.0
  0
SPLINE
  5
1080
330
2
100
AcDbEntity
  8
0
100
AcDbSpline
210
0.0
220
0.0
230
1.0
 70
     8
 71
     3
 72
    16
 73
    12
 74
     0
 42
0.000000001
 43
0.0000000001
 40
0.0
 40
0.0
 40
0.0
 40
0.0
 40
0.0360882913
 40
0.0723552104
 40
0.1501225426
 40
0.2417652791
 40
0.3519305743999999
 40
0.4827116433
 40
0.6346717795
 40
0.8074294635999999
 40
1.0
 40
1.0
 40
1.0
 40
1.0
 10
722.1112935165193
 20
170.9414077676806
 30
0.0
 10
722.1122599548189
 20
170.9475624069405
 30
0.0
 10
722.1154050306677
 20
170.9597520418365
 30
0.0
 10
722.1268506816671
 20
170.9831833768916
 30
0.0
 10
722.1516276148204
 20
171.0096976317504
 30
0.0
 10
722.1937668955156
 20
171.0340937261648
 30
0.0
 10
722.2483436024865
 20
171.0527178153388
 30
0.0
 10
722.315089972747
 20
171.0656068672737
 30
0.0
 10
722.3934986459099
 20
171.072733240639
 30
0.0
 10
722.4828565418111
 20
171.0740095324022
 30
0.0
 10
722.545893146279
 20
171.0710850883037
 30
0.0
 10
722.5790558181929
 20
171.0687588006039
 30
0.0
  0
SPLINE
  5
1081
330
2
100
AcDbEntity
  8
0
100
AcDbSpline
210
0.0
220
0.0
230
1.0
 70
     8
 71
     3
 72
    14
 73
    10
 74
     0
 42
0.000000001
 43
0.0000000001
 40
0.0
 40
0.0
 40
0.0
 40
0.0
 40
0.1295967446
 40
0.2552598132
 40
0.3778778973
 40
0.4973624901
 40
0.6167307529000004
 40
0.7388928748
 40
1.0
 40
1.0
 40
1.0
 40
1.0
 10
730.1417929933417
 20
180.0687633873408
 30
0.0
 10
730.1286891965608
 20
180.0300682128004
 30
0.0
 10
730.0937508339442
 20
179.9565665370832
 30
0.0
 10
730.0186218628144
 20
179.8630131180093
 30
0.0
 10
729.9293810953872
 20
179.7879681441113
 30
0.0
 10
729.8304053508935
 20
179.7306027576855
 30
0.0
 10
729.7249385235382
 20
179.687125409961
 30
0.0
 10
729.5725026753416
 20
179.6430662784441
 30
0.0
 10
729.4524573348535
 20
179.6250289614217
 30
0.0
 10
729.3705169253762
 20
179.6172304243541
 30
0.0
  0
SPLINE
  5
1082
330
2
100
AcDbEntity
  8
0
100
AcDbSpline
210
0.0
220
0.0
230
1.0
 70
     8
 71
     3
 72
    33
 73
    29
 74
     0
 42
0.000000001
 43
0.0000000001
 40
0.0
 40
0.0
 40
0.0
 40
0.0
 40
0.0247946434
 40
0.0515415159
 40
0.1104145426
 40
0.1761307221
 40
0.2476631001
 40
0.3234663397
 40
0.4017784113000002
 40
0.4806940152000001
 40
0.5582806354
 40
0.6326725753
 40
0.7021783486
 40
0.765413895
 40
0.7943847279999999
 40
0.8215147926
 40
0.8468274409000001
 40
0.8704583356
 40
0.8817112743999999
 40
0.8926507565999999
 40
0.9033360776999998
 40
0.9138336823999999
 40
0.9345817536
 40
0.9557059116999999
 40
0.9664868764999999
 40
0.9773923962999999
 40
0.9885089879
 40
1.0
 40
1.0
 40
1.0
 40
1.0
 10
729.3705169253762
 20
179.6172304243541
 30
0.0
 10
729.3176171269507
 20
179.6121957773316
 30
0.0
 10
729.2072572328232
 20
179.6056985286991
 30
0.0
 10
728.970530743472
 20
179.6052236701193
 30
0.0
 10
728.6465878906001
 20
179.6282943119804
 30
0.0
 10
728.2302169897437
 20
179.6874920447048
 30
0.0
 10
727.7823173593551
 20
179.7773344733509
 30
0.0
 10
727.3132333818303
 20
179.8956297152776
 30
0.0
 10
726.8347521532173
 20
180.0392823247825
 30
0.0
 10
726.3592643804918
 20
180.2045747151341
 30
0.0
 10
725.8991776681177
 20
180.3871893678865
 30
0.0
 10
725.466320568267
 20
180.5824664945111
 30
0.0
 10
725.071424506069
 20
180.7857017709611
 30
0.0
 10
724.7732079278221
 20
180.9629093356047
 30
0.0
 10
724.5615654703591
 20
181.1066293433881
 30
0.0
 10
724.4217971802162
 20
181.2111973732385
 30
0.0
 10
724.2966746084602
 20
181.3158644109739
 30
0.0
 10
724.2033502455909
 20
181.4051314572347
 30
0.0
 10
724.1367198855559
 20
181.477316222878
 30
0.0
 10
724.0914000380167
 20
181.5313084318054
 30
0.0
 10
724.0499724907762
 20
181.5863392655851
 30
0.0
 10
724.0000863116174
 20
181.6611300829786
 30
0.0
 10
723.9475519425659
 20
181.7608569366306
 30
0.0
 10
723.9138231973292
 20
181.8694241287808
 30
0.0
 10
723.9010259457566
 20
181.9604571041923
 30
0.0
 10
723.8997946199297
 20
182.0309495404417
 30
0.0
 10
723.9081416679503
 20
182.1025027510318
 30
0.0
 10
723.9204970007498
 20
182.1495523397397
 30
0.0
 10
723.9283961093365
 20
182.1728782040358
 30
0.0
  0
SPLINE
  5
1083
330
2
100
AcDbEntity
  8
0
100
AcDbSpline
210
0.0
220
0.0
230
1.0
 70
     8
 71
     3
 72
    15
 73
    11
 74
     0
 42
0.000000001
 43
0.0000000001
 40
0.0
 40
0.0
 40
0.0
 40
0.0
 40
0.0873022786
 40
0.1795801694
 40
0.2809861157
 40
0.3945682378
 40
0.5223325502
 40
0.6655282913000004
 40
0.824728531
 40
1.0
 40
1.0
 40
1.0
 40
1.0
 10
725.3907536115971
 20
186.491175853956
 30
0.0
 10
725.3967363067877
 20
186.5088455524169
 30
0.0
 10
725.4138542939077
 20
186.5437248751172
 30
0.0
 10
725.4528240838091
 20
186.5900304023871
 30
0.0
 10
725.5047199819827
 20
186.6308597491611
 30
0.0
 10
725.5691409104573
 20
186.6662346902098
 30
0.0
 10
725.6458224029586
 20
186.6962550409106
 30
0.0
 10
725.7345172162927
 20
186.7208650730776
 30
0.0
 10
725.8348640748226
 20
186.7400201948161
 30
0.0
 10
725.9058579312628
 20
186.7487009541568
 30
0.0
 10
725.9431420607373
 20
186.7522494068066
 30
0.0
  0
SPLINE
  5
1084
330
2
100
AcDbEntity
  8
0
100
AcDbSpline
210
0.0
220
0.0
230
1.0
 70
     8
 71
     3
 72
    11
 73
     7
 74
     0
 42
0.000000001
 43
0.0000000001
 40
0.0
 40
0.0
 40
0.0
 40
0.0
 40
0.2196098741
 40
0.452639661
 40
0.7101496537000001
 40
1.0
 40
1.0
 40
1.0
 40
1.0
 10
723.1359539447708
 20
166.6137826154904
 30
0.0
 10
723.1341399545331
 20
166.6084223722677
 30
0.0
 10
723.1288873433792
 20
166.5978334883607
 30
0.0
 10
723.1168176667384
 20
166.5838725721387
 30
0.0
 10
723.1007085859069
 20
166.5716466942271
 30
0.0
 10
723.0881722370752
 20
166.5650594567382
 30
0.0
 10
723.0813621229936
 20
166.5619926237491
 30
0.0
  0
SPLINE
  5
1085
330
2
100
AcDbEntity
  8
0
100
AcDbSpline
210
0.0
220
0.0
230
1.0
 70
     8
 71
     3
 72
    16
 73
    12
 74
     0
 42
0.000000001
 43
0.0000000001
 40
0.0
 40
0.0
 40
0.0
 40
0.0
 40
0.0360891443
 40
0.0723571218
 40
0.1501268668
 40
0.2417711038
 40
0.3519397461
 40
0.4827336442
 40
0.6347047379000001
 40
0.8074416323999999
 40
1.0
 40
1.0
 40
1.0
 40
1.0
 10
724.7607187406529
 20
170.044202102219
 30
0.0
 10
724.7636907245277
 20
170.0496777216562
 30
0.0
 10
724.7685991364012
 20
170.0612705395055
 30
0.0
 10
724.7737450626332
 20
170.0868358131838
 30
0.0
 10
724.7701758674333
 20
170.1229496472747
 30
0.0
 10
724.7515304799385
 20
170.1679311646334
 30
0.0
 10
724.7194976418422
 20
170.2158864711668
 30
0.0
 10
724.6743111754034
 20
170.2666801190703
 30
0.0
 10
724.6163646135072
 20
170.3199803020801
 30
0.0
 10
724.5461739961838
 20
170.3752883643837
 30
0.0
 10
724.4943361119847
 20
170.4112641782789
 30
0.0
 10
724.4665850128232
 20
170.4295645052516
 30
0.0
  0
SPLINE
  5
1086
330
2
100
AcDbEntity
  8
0
100
AcDbSpline
210
0.0
220
0.0
230
1.0
 70
     8
 71
     3
 72
    15
 73
    11
 74
     0
 42
0.000000001
 43
0.0000000001
 40
0.0
 40
0.0
 40
0.0
 40
0.0
 40
0.0783076527
 40
0.1703387199
 40
0.2764570657
 40
0.3964686617
 40
0.5297727453
 40
0.6755315528
 40
0.8327336297
 40
1.0
 40
1.0
 40
1.0
 40
1.0
 10
725.7491972299371
 20
186.1545484712119
 30
0.0
 10
725.7671967517552
 20
186.1211874620398
 30
0.0
 10
725.8135739823662
 20
186.0525062799597
 30
0.0
 10
725.9023399062841
 20
185.9520606390637
 30
0.0
 10
726.0150618095167
 20
185.8468277079468
 30
0.0
 10
726.1507885428186
 20
185.7377688173773
 30
0.0
 10
726.3083471897673
 20
185.6258271638298
 30
0.0
 10
726.4863493556868
 20
185.5120517042841
 30
0.0
 10
726.6831347132257
 20
185.3975336625111
 30
0.0
 10
726.8216988044577
 20
185.3234956227261
 30
0.0
 10
726.8937101092082
 20
185.2864753625303
 30
0.0
  0
SPLINE
  5
1087
330
2
100
AcDbEntity
  8
0
100
AcDbSpline
210
0.0
220
0.0
230
1.0
 70
     8
 71
     3
 72
    16
 73
    12
 74
     0
 42
0.000000001
 43
0.0000000001
 40
0.0
 40
0.0
 40
0.0
 40
0.0
 40
0.0424371193
 40
0.0895042042
 40
0.1410925945
 40
0.1966999328
 40
0.317158585
 40
0.446161653
 40
0.5805178781000003
 40
0.7183045747
 40
1.0
 40
1.0
 40
1.0
 40
1.0
 10
727.2916879482527
 20
176.2625749477251
 30
0.0
 10
727.3073049806016
 20
176.2640612718014
 30
0.0
 10
727.3399090459832
 20
176.2710156983248
 30
0.0
 10
727.3885506650398
 20
176.2902861811285
 30
0.0
 10
727.4385292196142
 20
176.318002289869
 30
0.0
 10
727.5080054644035
 20
176.3656479635191
 30
0.0
 10
727.5937462352207
 20
176.4393379345269
 30
0.0
 10
727.6932833165893
 20
176.5405558142297
 30
0.0
 10
727.7911716640477
 20
176.6520297115034
 30
0.0
 10
727.9200823308119
 20
176.8111256854349
 30
0.0
 10
728.0124116247328
 20
176.9358061801381
 30
0.0
 10
728.0729596382971
 20
177.0205276280476
 30
0.0
  0
SPLINE
  5
1088
330
2
100
AcDbEntity
  8
0
100
AcDbSpline
210
0.0
220
0.0
230
1.0
 70
     8
 71
     3
 72
    14
 73
    10
 74
     0
 42
0.000000001
 43
0.0000000001
 40
0.0
 40
0.0
 40
0.0
 40
0.0
 40
0.3343285725
 40
0.4775673408
 40
0.6053609115
 40
0.7189639040000002
 40
0.8203857591
 40
0.9126774721
 40
1.0
 40
1.0
 40
1.0
 40
1.0
 10
727.5891154459827
 20
177.1408706904835
 30
0.0
 10
727.6342074226573
 20
177.1451622415424
 30
0.0
 10
727.6985253359377
 20
177.1544465780857
 30
0.0
 10
727.7776611111876
 20
177.1763759512109
 30
0.0
 10
727.8262921287172
 20
177.1954199616693
 30
0.0
 10
727.8671439714626
 20
177.2178533435839
 30
0.0
 10
727.9000544855936
 20
177.2437443861449
 30
0.0
 10
727.9247599359742
 20
177.273114638685
 30
0.0
 10
727.9356175105291
 20
177.2952318513116
 30
0.0
 10
727.9394126453524
 20
177.306437306081
 30
0.0
  0
SPLINE
  5
1089
330
2
100
AcDbEntity
  8
0
100
AcDbSpline
210
0.0
220
0.0
230
1.0
 70
     8
 71
     3
 72
    18
 73
    14
 74
     0
 42
0.000000001
 43
0.0000000001
 40
0.0
 40
0.0
 40
0.0
 40
0.0
 40
0.0308050231
 40
0.0679025475
 40
0.1114075173
 40
0.1611080078
 40
0.2166091242
 40
0.2773554664
 40
0.4118629162
 40
0.5584884839999999
 40
0.7102436302
 40
0.8598038911999999
 40
1.0
 40
1.0
 40
1.0
 40
1.0
 10
723.0813621229936
 20
166.5619926237491
 30
0.0
 10
723.067906388881
 20
166.5559330351766
 30
0.0
 10
723.0366812399037
 20
166.5460772379442
 30
0.0
 10
722.9839293100607
 20
166.5373774976255
 30
0.0
 10
722.9215374382802
 20
166.5335320474891
 30
0.0
 10
722.8502570092172
 20
166.5345898708997
 30
0.0
 10
722.7709442629357
 20
166.5405777139221
 30
0.0
 10
722.6517196594422
 20
166.5555660021395
 30
0.0
 10
722.4907097009986
 20
166.5864929840654
 30
0.0
 10
722.2899615155001
 20
166.6389730608502
 30
0.0
 10
722.0857972024687
 20
166.7054541267548
 30
0.0
 10
721.8887408174678
 20
166.7825971214529
 30
0.0
 10
721.7627447960717
 20
166.8411601895472
 30
0.0
 10
721.7030143455095
 20
166.8718669949744
 30
0.0
  0
SPLINE
  5
108A
330
2
100
AcDbEntity
  8
0
100
AcDbSpline
210
0.0
220
0.0
230
1.0
 70
     8
 71
     3
 72
    15
 73
    11
 74
     0
 42
0.000000001
 43
0.0000000001
 40
0.0
 40
0.0
 40
0.0
 40
0.0
 40
0.1752729794
 40
0.3344730017
 40
0.4776669789
 40
0.6054304498
 40
0.7190121073000002
 40
0.8204179920999996
 40
0.9126963183999999
 40
1.0
 40
1.0
 40
1.0
 40
1.0
 10
729.5893989042979
 20
179.8076795863767
 30
0.0
 10
729.6266840627638
 20
179.8112281369953
 30
0.0
 10
729.6976795413201
 20
179.8199090531275
 30
0.0
 10
729.7980282259259
 20
179.8390645231551
 30
0.0
 10
729.8867239205601
 20
179.8636756667706
 30
0.0
 10
729.963406104574
 20
179.8936967234926
 30
0.0
 10
730.0278276050947
 20
179.9290730161942
 30
0.0
 10
730.0797236657185
 20
179.9699040857681
 30
0.0
 10
730.1186937901189
 20
180.0162115095513
 30
0.0
 10
730.1358100069132
 20
180.0510930972345
 30
0.0
 10
730.1417917980963
 20
180.0687637921005
 30
0.0
  0
SPLINE
  5
108B
330
2
100
AcDbEntity
  8
0
100
AcDbSpline
210
0.0
220
0.0
230
1.0
 70
     8
 71
     3
 72
    13
 73
     9
 74
     0
 42
0.000000001
 43
0.0000000001
 40
0.0
 40
0.0
 40
0.0
 40
0.0
 40
0.3224389332
 40
0.4642579021000002
 40
0.593309196
 40
0.7102099040000001
 40
0.8159746720000001
 40
1.0
 40
1.0
 40
1.0
 40
1.0
 10
727.2916879408369
 20
176.2625749470266
 30
0.0
 10
727.3306024431162
 20
176.266278568778
 30
0.0
 10
727.3865165144597
 20
176.2740197016382
 30
0.0
 10
727.4564566466165
 20
176.2910607666713
 30
0.0
 10
727.5011565790472
 20
176.3057853616187
 30
0.0
 10
727.540284032539
 20
176.3229990997556
 30
0.0
 10
727.5828270619122
 20
176.3479486118289
 30
0.0
 10
727.6094842346719
 20
176.3721853661003
 30
0.0
 10
727.6224597046574
 20
176.3903340157598
 30
0.0
  0
SPLINE
  5
108C
330
2
100
AcDbEntity
  8
0
100
AcDbSpline
210
0.0
220
0.0
230
1.0
 70
     8
 71
     3
 72
    18
 73
    14
 74
     0
 42
0.000000001
 43
0.0000000001
 40
0.0
 40
0.0
 40
0.0
 40
0.0
 40
0.191557185
 40
0.3656489163
 40
0.5204447991
 40
0.654644358
 40
0.7677063461
 40
0.8165066512
 40
0.8604343513999999
 40
0.8999267444999999
 40
0.9356569235
 40
0.9685919132999998
 40
1.0
 40
1.0
 40
1.0
 40
1.0
 10
722.8509588701378
 20
172.5295246909595
 30
0.0
 10
722.7938501987495
 20
172.5613914388436
 30
0.0
 10
722.6861092846327
 20
172.6245529264219
 30
0.0
 10
722.5376632100601
 20
172.7223610108511
 30
0.0
 10
722.4113920766471
 20
172.8177453658422
 30
0.0
 10
722.308974833411
 20
172.909387027877
 30
0.0
 10
722.2413935758051
 20
172.985056138882
 30
0.0
 10
722.2016813615546
 20
173.0431311159932
 30
0.0
 10
722.1801276825242
 20
173.0829048602531
 30
0.0
 10
722.1653945975584
 20
173.1209649434325
 30
0.0
 10
722.1576087250197
 20
173.1572539133362
 30
0.0
 10
722.1569234352442
 20
173.1916447961407
 30
0.0
 10
722.1613727221637
 20
173.2133866478116
 30
0.0
 10
722.1647330609537
 20
173.223569278241
 30
0.0
  0
SPLINE
  5
108D
330
2
100
AcDbEntity
  8
0
100
AcDbSpline
210
0.0
220
0.0
230
1.0
 70
     8
 71
     3
 72
    19
 73
    15
 74
     0
 42
0.000000001
 43
0.0000000001
 40
0.0
 40
0.0
 40
0.0
 40
0.0
 40
0.0312557546
 40
0.0640177349
 40
0.0995779736
 40
0.1389242707
 40
0.1827398541
 40
0.2314661142
 40
0.2853716106
 40
0.3445760811
 40
0.4788978115
 40
0.6339077729
 40
0.8082431875000001
 40
1.0
 40
1.0
 40
1.0
 40
1.0
 10
726.1052768286438
 20
171.89027931105
 30
0.0
 10
726.1018077555595
 20
171.8800349972047
 30
0.0
 10
726.0921824415727
 20
171.8598246176638
 30
0.0
 10
726.0706600211829
 20
171.8326074298333
 30
0.0
 10
726.0422095048032
 20
171.8082493723118
 30
0.0
 10
726.0070301235896
 20
171.7867646345334
 30
0.0
 10
725.9652637666086
 20
171.7681211894782
 30
0.0
 10
725.9170343393475
 20
171.7523291659208
 30
0.0
 10
725.8624836910637
 20
171.739425626753
 30
0.0
 10
725.777942966738
 20
171.7255251586834
 30
0.0
 10
725.6574371204951
 20
171.7166239689663
 30
0.0
 10
725.4968752448461
 20
171.718034837289
 30
0.0
 10
725.3169342916818
 20
171.7312409500714
 30
0.0
 10
725.1911948922051
 20
171.7471151349686
 30
0.0
 10
725.125553382109
 20
171.756823621939
 30
0.0
  0
SPLINE
  5
108E
330
2
100
AcDbEntity
  8
0
100
AcDbSpline
210
0.0
220
0.0
230
1.0
 70
     8
 71
     3
 72
    15
 73
    11
 74
     0
 42
0.000000001
 43
0.0000000001
 40
0.0
 40
0.0
 40
0.0
 40
0.0
 40
0.1146224524
 40
0.2367913199
 40
0.3643240127
 40
0.4949085786
 40
0.6261505682000001
 40
0.7556403550000002
 40
0.8810100310999999
 40
1.0
 40
1.0
 40
1.0
 40
1.0
 10
725.1053156066546
 20
171.7598622382743
 30
0.0
 10
725.0213415414914
 20
171.7726578086861
 30
0.0
 10
724.8485513973117
 20
171.8037147595782
 30
0.0
 10
724.5851066121713
 20
171.8631258698624
 30
0.0
 10
724.3127970902195
 20
171.9359895173911
 30
0.0
 10
724.0369618209056
 20
172.020892526471
 30
0.0
 10
723.7630037302283
 20
172.1161783382585
 30
0.0
 10
723.4962947438289
 20
172.2199773808019
 30
0.0
 10
723.2420618755659
 20
172.3302431145798
 30
0.0
 10
723.0789839209396
 20
172.4091353990593
 30
0.0
 10
723.0005602903903
 20
172.4494521690344
 30
0.0
  0
SPLINE
  5
108F
330
2
100
AcDbEntity
  8
0
100
AcDbSpline
210
0.0
220
0.0
230
1.0
 70
     8
 71
     3
 72
    17
 73
    13
 74
     0
 42
0.000000001
 43
0.0000000001
 40
0.0
 40
0.0
 40
0.0
 40
0.0
 40
0.1891115244
 40
0.3627222542
 40
0.5182000647000004
 40
0.6538856342
 40
0.7687693536
 40
0.8628092601999998
 40
0.9025781365
 40
0.9381052431999995
 40
0.9701912023
 40
1.0
 40
1.0
 40
1.0
 40
1.0
 10
722.9175099600155
 20
170.4582412778495
 30
0.0
 10
722.8870418887863
 20
170.4739045952901
 30
0.0
 10
722.829210305906
 20
170.5051548235719
 30
0.0
 10
722.7488660060103
 20
170.5537922067582
 30
0.0
 10
722.6795198653993
 20
170.6016449996768
 30
0.0
 10
722.6222223263463
 20
170.6479338049643
 30
0.0
 10
722.5777882527037
 20
170.6919404832255
 30
0.0
 10
722.5504633121006
 20
170.7281418895995
 30
0.0
 10
722.5365688553679
 20
170.7555829601337
 30
0.0
 10
722.5303546867152
 20
170.7741082587481
 30
0.0
 10
722.5278403489253
 20
170.7916892861326
 30
0.0
 10
722.5287284236392
 20
170.8029878636748
 30
0.0
 10
722.5298165409947
 20
170.8082771068216
 30
0.0
  0
SPLINE
  5
1090
330
2
100
AcDbEntity
  8
0
100
AcDbSpline
210
0.0
220
0.0
230
1.0
 70
     8
 71
     3
 72
    21
 73
    17
 74
     0
 42
0.000000001
 43
0.0000000001
 40
0.0
 40
0.0
 40
0.0
 40
0.0
 40
0.1520986817
 40
0.314468159
 40
0.4771697574
 40
0.6301871252000001
 40
0.7001564931000001
 40
0.7643700678
 40
0.8219561990999999
 40
0.8722323864999999
 40
0.9147635657999998
 40
0.9495332398
 40
0.9642019306999999
 40
0.9772805393999998
 40
0.9890699168999999
 40
1.0
 40
1.0
 40
1.0
 40
1.0
 10
722.9175099600155
 20
170.4582412778495
 30
0.0
 10
722.985433217905
 20
170.4233226398287
 30
0.0
 10
723.1291223214757
 20
170.3573944966315
 30
0.0
 10
723.3534196014708
 20
170.2726811372863
 30
0.0
 10
723.583199795652
 20
170.2026036278234
 30
0.0
 10
723.7720759172561
 20
170.1588589678016
 30
0.0
 10
723.9144136647046
 20
170.1354068807131
 30
0.0
 10
724.0101278657013
 20
170.1244362023553
 30
0.0
 10
724.0964594950801
 20
170.1196886951929
 30
0.0
 10
724.1720659322172
 20
170.1211971718534
 30
0.0
 10
724.2357691162355
 20
170.1289268012633
 30
0.0
 10
724.2806597791264
 20
170.1410223229072
 30
0.0
 10
724.3091183001202
 20
170.1544727477726
 30
0.0
 10
724.3257171215587
 20
170.1655246468944
 30
0.0
 10
724.3387133120967
 20
170.178108932183
 30
0.0
 10
724.3450121995419
 20
170.1877732878078
 30
0.0
 10
724.3474019514897
 20
170.1927140122911
 30
0.0
  0
SPLINE
  5
1091
330
2
100
AcDbEntity
  8
0
100
AcDbSpline
210
0.0
220
0.0
230
1.0
 70
     8
 71
     3
 72
    21
 73
    17
 74
     0
 42
0.000000001
 43
0.0000000001
 40
0.0
 40
0.0
 40
0.0
 40
0.0
 40
0.1514664862
 40
0.3131601311
 40
0.4753006285
 40
0.6280239345
 40
0.6979808078000001
 40
0.7622923503
 40
0.8200863277999999
 40
0.8706759999999999
 40
0.91362301
 40
0.9488569498999998
 40
0.9637606160999999
 40
0.9770463827
 40
0.9889913955
 40
1.0
 40
1.0
 40
1.0
 40
1.0
 10
722.6774950028723
 20
170.4353982685438
 30
0.0
 10
722.775939110179
 20
170.384789180382
 30
0.0
 10
722.9841657553659
 20
170.2891839184626
 30
0.0
 10
723.3092520789647
 20
170.1661824148413
 30
0.0
 10
723.6425014148871
 20
170.0642011601125
 30
0.0
 10
723.9166711102423
 20
170.0002707830931
 30
0.0
 10
724.1236009765639
 20
169.9657100013287
 30
0.0
 10
724.2630646890602
 20
169.9493021885568
 30
0.0
 10
724.3891322429799
 20
169.9418599425207
 30
0.0
 10
724.4998557849692
 20
169.9434506960765
 30
0.0
 10
724.5935260964637
 20
169.9539872653331
 30
0.0
 10
724.6598421946463
 20
169.9709312102154
 30
0.0
 10
724.7022682547231
 20
169.9898755907215
 30
0.0
 10
724.7272281819395
 20
170.0055089660813
 30
0.0
 10
724.7470042113318
 20
170.0233558239829
 30
0.0
 10
724.7568810092446
 20
170.0371314189182
 30
0.0
 10
724.7607187406529
 20
170.044202102219
 30
0.0
  0
SPLINE
  5
1092
330
2
100
AcDbEntity
  8
0
100
AcDbSpline
210
0.0
220
0.0
230
1.0
 70
     8
 71
     3
 72
    20
 73
    16
 74
     0
 42
0.000000001
 43
0.0000000001
 40
0.0
 40
0.0
 40
0.0
 40
0.0
 40
0.1499106252
 40
0.3099414048
 40
0.4706953807
 40
0.622672841
 40
0.6925964607
 40
0.7571281576000001
 40
0.8154200379
 40
0.8667758322999999
 40
0.9107247148999999
 40
0.9471274618
 40
0.9626161492999999
 40
0.9764434641000001
 40
1.0
 40
1.0
 40
1.0
 40
1.0
 10
722.0995843420869
 20
168.0429279853119
 30
0.0
 10
722.1660474574382
 20
168.0087599913254
 30
0.0
 10
722.3065810898637
 20
167.9441236942607
 30
0.0
 10
722.5260606506407
 20
167.8607086814595
 30
0.0
 10
722.7514041255347
 20
167.7911589970426
 30
0.0
 10
722.9372070999817
 20
167.7471283623094
 30
0.0
 10
723.0779521669873
 20
167.722816005627
 30
0.0
 10
723.173339135059
 20
167.7109022766589
 30
0.0
 10
723.2600153861754
 20
167.7049341951974
 30
0.0
 10
723.3366698723187
 20
167.7049817573192
 30
0.0
 10
723.4021495279335
 20
167.7110231026808
 30
0.0
 10
723.4490163823852
 20
167.7214100213272
 30
0.0
 10
723.4796297642104
 20
167.7333324179457
 30
0.0
 10
723.5028275884582
 20
167.7458395456783
 30
0.0
 10
723.5173182941789
 20
167.7584829030879
 30
0.0
 10
723.5240302756201
 20
167.7681187570292
 30
0.0
  0
SPLINE
  5
1093
330
2
100
AcDbEntity
  8
0
100
AcDbSpline
210
0.0
220
0.0
230
1.0
 70
     8
 71
     3
 72
    17
 73
    13
 74
     0
 42
0.000000001
 43
0.0000000001
 40
0.0
 40
0.0
 40
0.0
 40
0.0
 40
0.1879872836
 40
0.3607458156
 40
0.5157740755
 40
0.6514445621000001
 40
0.7667308506000003
 40
0.8615101005999999
 40
0.9017162607999999
 40
0.9376528670999999
 40
0.9700595900999999
 40
1.0
 40
1.0
 40
1.0
 40
1.0
 10
722.6774950028723
 20
170.4353982685438
 30
0.0
 10
722.6335775792204
 20
170.4579757576616
 30
0.0
 10
722.5501648290982
 20
170.5030204357585
 30
0.0
 10
722.4341476461795
 20
170.5731136000226
 30
0.0
 10
722.3337453375147
 20
170.6421093131111
 30
0.0
 10
722.2504476353736
 20
170.7089254425159
 30
0.0
 10
722.1854081490387
 20
170.7725330793441
 30
0.0
 10
722.14497954947
 20
170.8248902400414
 30
0.0
 10
722.1238767037074
 20
170.8646442774183
 30
0.0
 10
722.1140798712767
 20
170.8915461105748
 30
0.0
 10
722.1095137399339
 20
170.9171052071965
 30
0.0
 10
722.1100734839998
 20
170.9336381463094
 30
0.0
 10
722.1112935165193
 20
170.9414077676806
 30
0.0
  0
SPLINE
  5
1094
330
2
100
AcDbEntity
  8
0
100
AcDbSpline
210
0.0
220
0.0
230
1.0
 70
     8
 71
     3
 72
    13
 73
     9
 74
     0
 42
0.000000001
 43
0.0000000001
 40
0.0
 40
0.0
 40
0.0
 40
0.0
 40
0.3244023592
 40
0.6034678538
 40
0.7234676595
 40
0.8296085342999999
 40
0.9216828518999999
 40
1.0
 40
1.0
 40
1.0
 40
1.0
 10
721.7030143455095
 20
166.8718669949744
 30
0.0
 10
721.6574190835731
 20
166.8953070409529
 30
0.0
 10
721.5739136550445
 20
166.9415314158482
 30
0.0
 10
721.4784258757892
 20
167.0048014527142
 30
0.0
 10
721.4161242487234
 20
167.0548202615946
 30
0.0
 10
721.3793237041131
 20
167.0891880551512
 30
0.0
 10
721.3503285372756
 20
167.1219827238191
 30
0.0
 10
721.3351865544763
 20
167.1444144477113
 30
0.0
 10
721.3293086094317
 20
167.1553066481487
 30
0.0
  0
SPLINE
  5
1095
330
2
100
AcDbEntity
  8
0
100
AcDbSpline
210
0.0
220
0.0
230
1.0
 70
     8
 71
     3
 72
    14
 73
    10
 74
     0
 42
0.000000001
 43
0.0000000001
 40
0.0
 40
0.0
 40
0.0
 40
0.0
 40
0.3436341343
 40
0.4945731367000001
 40
0.6295173224
 40
0.7475014537000001
 40
0.8480925442
 40
0.9316274829999999
 40
1.0
 40
1.0
 40
1.0
 40
1.0
 10
722.0995843420869
 20
168.0429279853119
 30
0.0
 10
722.0473816661888
 20
168.0697648361378
 30
0.0
 10
721.9734641558892
 20
168.1109713842602
 30
0.0
 10
721.8838404633157
 20
168.1704705835004
 30
0.0
 10
721.8287783037571
 20
168.2121241017321
 30
0.0
 10
721.7835551738287
 20
168.2522508904253
 30
0.0
 10
721.7486164193497
 20
168.2904176349579
 30
0.0
 10
721.7243166615725
 20
168.326255690124
 30
0.0
 10
721.7145817552546
 20
168.3507331033856
 30
0.0
 10
721.7122528476545
 20
168.3621774181306
 30
0.0
  0
SPLINE
  5
1096
330
2
100
AcDbEntity
  8
0
100
AcDbSpline
210
0.0
220
0.0
230
1.0
 70
     8
 71
     3
 72
     9
 73
     5
 74
     0
 42
0.000000001
 43
0.0000000001
 40
0.0
 40
0.0
 40
0.0
 40
0.0
 40
0.2629872071
 40
1.0
 40
1.0
 40
1.0
 40
1.0
 10
721.7122528476545
 20
168.3621774181306
 30
0.0
 10
721.7117671120457
 20
168.3645643361854
 30
0.0
 10
721.7102623138185
 20
168.3737022646414
 30
0.0
 10
721.7102727754401
 20
168.383123879973
 30
0.0
 10
721.711330296829
 20
168.3898678281134
 30
0.0
  0
SPLINE
  5
1097
330
2
100
AcDbEntity
  8
0
100
AcDbSpline
210
0.0
220
0.0
230
1.0
 70
     8
 71
     3
 72
    17
 73
    13
 74
     0
 42
0.000000001
 43
0.0000000001
 40
0.0
 40
0.0
 40
0.0
 40
0.0
 40
0.0414454734
 40
0.0878831278
 40
0.13899355
 40
0.194416804
 40
0.316403952
 40
0.4497639728000002
 40
0.5898182502
 40
0.7315703153000001
 40
0.8699322215
 40
1.0
 40
1.0
 40
1.0
 40
1.0
 10
727.2916879408369
 20
176.2625749470266
 30
0.0
 10
727.2521465507982
 20
176.258811662285
 30
0.0
 10
727.1679357126379
 20
176.254548312369
 30
0.0
 10
727.0346766197957
 20
176.2564476685033
 30
0.0
 10
726.8883453780914
 20
176.2663197976212
 30
0.0
 10
726.6706538726593
 20
176.2908034170418
 30
0.0
 10
726.3768931149858
 20
176.3414681201434
 30
0.0
 10
726.0078653100058
 20
176.4283766604526
 30
0.0
 10
725.6258156813914
 20
176.5401401397652
 30
0.0
 10
725.2453412769638
 20
176.6725265911968
 30
0.0
 10
724.8809612795143
 20
176.8204749042301
 30
0.0
 10
724.6481302293788
 20
176.9303209192821
 30
0.0
 10
724.5372690270977
 20
176.9873135065063
 30
0.0
  0
SPLINE
  5
1098
330
2
100
AcDbEntity
  8
0
100
AcDbSpline
210
0.0
220
0.0
230
1.0
 70
     8
 71
     3
 72
    11
 73
     7
 74
     0
 42
0.000000001
 43
0.0000000001
 40
0.0
 40
0.0
 40
0.0
 40
0.0
 40
0.2612161668
 40
0.5183294864
 40
0.7662168562
 40
1.0
 40
1.0
 40
1.0
 40
1.0
 10
725.7029955226848
 20
177.4192257965087
 30
0.0
 10
725.8117824513387
 20
177.3813929291404
 30
0.0
 10
726.029087360137
 20
177.3103901962908
 30
0.0
 10
726.3540709032208
 20
177.2177467307897
 30
0.0
 10
726.670754923337
 20
177.1410501130735
 30
0.0
 10
726.8792605458575
 20
177.1001576016528
 30
0.0
 10
726.9809018412265
 20
177.0829850103323
 30
0.0
  0
SPLINE
  5
1099
330
2
100
AcDbEntity
  8
0
100
AcDbSpline
210
0.0
220
0.0
230
1.0
 70
     8
 71
     3
 72
     9
 73
     5
 74
     0
 42
0.000000001
 43
0.0000000001
 40
0.0
 40
0.0
 40
0.0
 40
0.0
 40
0.4709021003000001
 40
1.0
 40
1.0
 40
1.0
 40
1.0
 10
731.0517507666554
 20
184.1259669881842
 30
0.0
 10
730.9873608889453
 20
184.119838792702
 30
0.0
 10
730.8500136130877
 20
184.1130734428838
 30
0.0
 10
730.7125973190712
 20
184.1154263143539
 30
0.0
 10
730.6399896708787
 20
184.1185389262059
 30
0.0
  0
SPLINE
  5
109A
330
2
100
AcDbEntity
  8
0
100
AcDbSpline
210
0.0
220
0.0
230
1.0
 70
     8
 71
     3
 72
    19
 73
    15
 74
     0
 42
0.000000001
 43
0.0000000001
 40
0.0
 40
0.0
 40
0.0
 40
0.0
 40
0.050762776
 40
0.1060416247
 40
0.1653262125
 40
0.22804006
 40
0.3611973547
 40
0.5000945625
 40
0.6389781944
 40
0.7720971334000001
 40
0.8347835137999998
 40
0.8940355698000001
 40
0.9492775892999999
 40
1.0
 40
1.0
 40
1.0
 40
1.0
 10
730.6399896708787
 20
184.1185389262059
 30
0.0
 10
730.5562195082829
 20
184.1221300630431
 30
0.0
 10
730.3814310064677
 20
184.1348153968942
 30
0.0
 10
730.1102198734199
 20
184.1673240625282
 30
0.0
 10
729.8210460268892
 20
184.2138307245072
 30
0.0
 10
729.4075194657531
 20
184.2955458639089
 30
0.0
 10
728.8705758348977
 20
184.4291678274043
 30
0.0
 10
728.2217671517877
 20
184.6296803684085
 30
0.0
 10
727.5847416455166
 20
184.8647761156116
 30
0.0
 10
727.077263461479
 20
185.0849686934856
 30
0.0
 10
726.6993774561842
 20
185.2713736180289
 30
0.0
 10
726.4416280284617
 20
185.410139787647
 30
0.0
 10
726.2066808292347
 20
185.5491118960403
 30
0.0
 10
726.060298071139
 20
185.6452337941059
 30
0.0
 10
725.9916616583637
 20
185.6932775554391
 30
0.0
  0
SPLINE
  5
109B
330
2
100
AcDbEntity
  8
0
100
AcDbSpline
210
0.0
220
0.0
230
1.0
 70
     8
 71
     3
 72
    17
 73
    13
 74
     0
 42
0.000000001
 43
0.0000000001
 40
0.0
 40
0.0
 40
0.0
 40
0.0
 40
0.1866425842
 40
0.3551230965
 40
0.5048196705
 40
0.6355540784000003
 40
0.7478692519
 40
0.7976166108000001
 40
0.8434976142
 40
0.9255099726
 40
0.9632679669999999
 40
1.0
 40
1.0
 40
1.0
 40
1.0
 10
725.9916616583637
 20
185.6932775554391
 30
0.0
 10
725.9380947962323
 20
185.7307730106463
 30
0.0
 10
725.8377951729138
 20
185.8044939893115
 30
0.0
 10
725.7015905387125
 20
185.9174806080785
 30
0.0
 10
725.588017562014
 20
186.0265295262628
 30
0.0
 10
725.4979489792754
 20
186.1308436887789
 30
0.0
 10
725.4407613009471
 20
186.2165042027822
 30
0.0
 10
725.4087323562742
 20
186.2820766769268
 30
0.0
 10
725.3872358324811
 20
186.3405243274281
 30
0.0
 10
725.3768037288454
 20
186.3985403019009
 30
0.0
 10
725.3804414244477
 20
186.4534713844881
 30
0.0
 10
725.3866267595758
 20
186.4789873288273
 30
0.0
 10
725.3907536115971
 20
186.491175853956
 30
0.0
  0
SPLINE
  5
109C
330
2
100
AcDbEntity
  8
0
100
AcDbSpline
210
0.0
220
0.0
230
1.0
 70
     8
 71
     3
 72
    17
 73
    13
 74
     0
 42
0.000000001
 43
0.0000000001
 40
0.0
 40
0.0
 40
0.0
 40
0.0
 40
0.0631240509
 40
0.1251124233
 40
0.2471561332999999
 40
0.3083068458
 40
0.3697002864
 40
0.4934030225
 40
0.6184656397000003
 40
0.7447109296
 40
0.8719515119
 40
1.0
 40
1.0
 40
1.0
 40
1.0
 10
724.5372690267067
 20
176.9873135067232
 30
0.0
 10
724.5617914718649
 20
176.9747067735893
 30
0.0
 10
724.612692099557
 20
176.9539098805443
 30
0.0
 10
724.7185991730498
 20
176.9307289565098
 30
0.0
 10
724.8273280871686
 20
176.9336881695248
 30
0.0
 10
724.9320723785362
 20
176.9550737301065
 30
0.0
 10
725.0351492600991
 20
176.9863415790828
 30
0.0
 10
725.1597760233948
 20
177.0405051198481
 30
0.0
 10
725.3026287399234
 20
177.1210282352872
 30
0.0
 10
725.4403768646342
 20
177.2127094989414
 30
0.0
 10
725.5738639500407
 20
177.3125891622453
 30
0.0
 10
725.6602648959536
 20
177.3831346744059
 30
0.0
 10
725.7029955238331
 20
177.4192257959089
 30
0.0
  0
SPLINE
  5
109D
330
2
100
AcDbEntity
  8
0
100
AcDbSpline
210
0.0
220
0.0
230
1.0
 70
     8
 71
     3
 72
    18
 73
    14
 74
     0
 42
0.000000001
 43
0.0000000001
 40
0.0
 40
0.0
 40
0.0
 40
0.0
 40
0.1300667657
 40
0.2684261995
 40
0.4101747469000001
 40
0.5502264234
 40
0.6835834216
 40
0.7462785872
 40
0.8055854218
 40
0.8610105924999999
 40
0.9121173154
 40
0.9585510105
 40
1.0
 40
1.0
 40
1.0
 40
1.0
 10
730.1011827181846
 20
185.5917410324614
 30
0.0
 10
729.9444830588527
 20
185.6722986918907
 30
0.0
 10
729.61538313542
 20
185.8275623629938
 30
0.0
 10
729.1003466120082
 20
186.0366801781283
 30
0.0
 10
728.5625576486467
 20
186.2238087317575
 30
0.0
 10
728.0225636882817
 20
186.3817623254958
 30
0.0
 10
727.579126848138
 20
186.4862450184526
 30
0.0
 10
727.2390264124942
 20
186.5497272509946
 30
0.0
 10
727.0013346417786
 20
186.5857373824578
 30
0.0
 10
726.7780265849315
 20
186.6108348564275
 30
0.0
 10
726.5711983297213
 20
186.6247899911826
 30
0.0
 10
726.3828436311282
 20
186.6274810741197
 30
0.0
 10
726.2638134984974
 20
186.6214509147707
 30
0.0
 10
726.2079175119456
 20
186.6161311107325
 30
0.0
  0
SPLINE
  5
109E
330
2
100
AcDbEntity
  8
0
100
AcDbSpline
210
0.0
220
0.0
230
1.0
 70
     8
 71
     3
 72
    19
 73
    15
 74
     0
 42
0.000000001
 43
0.0000000001
 40
0.0
 40
0.0
 40
0.0
 40
0.0
 40
0.1839471277
 40
0.3416634429
 40
0.4743340724000002
 40
0.5323994495000001
 40
0.5858306546000001
 40
0.6356349916
 40
0.6830838795
 40
0.7296753806
 40
0.7769961236000002
 40
0.8793340909000001
 40
0.9370003335999999
 40
1.0
 40
1.0
 40
1.0
 40
1.0
 10
726.2079175119456
 20
186.6161311107325
 30
0.0
 10
726.1583985255769
 20
186.6114182266501
 30
0.0
 10
726.0666586541843
 20
186.5990580853745
 30
0.0
 10
725.9419334905893
 20
186.5679058635323
 30
0.0
 10
725.8544889162483
 20
186.5310898806887
 30
0.0
 10
725.7988511759204
 20
186.4952348634319
 30
0.0
 10
725.7655726691372
 20
186.4667983334133
 30
0.0
 10
725.7389988908534
 20
186.4356540182411
 30
0.0
 10
725.7193164307641
 20
186.4018393172
 30
0.0
 10
725.7067006296988
 20
186.3654965186219
 30
0.0
 10
725.6991702091283
 20
186.3126633821179
 30
0.0
 10
725.7070300989203
 20
186.2559982025471
 30
0.0
 10
725.7269091533485
 20
186.1990187968135
 30
0.0
 10
725.7411078220926
 20
186.1695416923106
 30
0.0
 10
725.7491972299371
 20
186.1545484712119
 30
0.0
  0
SPLINE
  5
109F
330
2
100
AcDbEntity
  8
0
100
AcDbSpline
210
0.0
220
0.0
230
1.0
 70
     8
 71
     3
 72
    17
 73
    13
 74
     0
 42
0.000000001
 43
0.0000000001
 40
0.0
 40
0.0
 40
0.0
 40
0.0
 40
0.1300682914
 40
0.2684303144
 40
0.4101820703000004
 40
0.5502358389000001
 40
0.6835954383000003
 40
0.8055824788
 40
0.8610057815000001
 40
0.9121164285999999
 40
0.9585543831999999
 40
1.0
 40
1.0
 40
1.0
 40
1.0
 10
724.8346965245372
 20
177.8656092492783
 30
0.0
 10
724.9455581577333
 20
177.8086164406609
 30
0.0
 10
725.1783898097865
 20
177.6987703093623
 30
0.0
 10
725.5427701849048
 20
177.5508221714021
 30
0.0
 10
725.9232440147761
 20
177.4184361888736
 30
0.0
 10
726.3052925076022
 20
177.3066731499743
 30
0.0
 10
726.6743192986064
 20
177.2197647584375
 30
0.0
 10
726.9680795402682
 20
177.1690998860199
 30
0.0
 10
727.1857711621617
 20
177.1446160092896
 30
0.0
 10
727.3321029300477
 20
177.1347435960264
 30
0.0
 10
727.4653626538832
 20
177.1328441652367
 30
0.0
 10
727.5495739213006
 20
177.1371073941135
 30
0.0
 10
727.5891154459827
 20
177.1408706904835
 30
0.0
  0
SPLINE
  5
10A0
330
2
100
AcDbEntity
  8
0
100
AcDbSpline
210
0.0
220
0.0
230
1.0
 70
     8
 71
     3
 72
    14
 73
    10
 74
     0
 42
0.000000001
 43
0.0000000001
 40
0.0
 40
0.0
 40
0.0
 40
0.0
 40
0.0863641557
 40
0.1807372442
 40
0.2853838535
 40
0.4018667171
 40
0.5311726886
 40
0.6738932986
 40
1.0
 40
1.0
 40
1.0
 40
1.0
 10
723.7255325105261
 20
178.6829597924815
 30
0.0
 10
723.7251116414086
 20
178.6698847255633
 30
0.0
 10
723.7272649536735
 20
178.6423756722319
 30
0.0
 10
723.7384842617621
 20
178.6004417749864
 30
0.0
 10
723.7575909854212
 20
178.5564793076205
 30
0.0
 10
723.7844809503207
 20
178.5105969605583
 30
0.0
 10
723.8190417014752
 20
178.4628719706838
 30
0.0
 10
723.8778776627396
 20
178.3938845779744
 30
0.0
 10
723.9293224780023
 20
178.3446338048365
 30
0.0
 10
723.9663975264147
 20
178.3119927019974
 30
0.0
  0
SPLINE
  5
10A1
330
2
100
AcDbEntity
  8
0
100
AcDbSpline
210
0.0
220
0.0
230
1.0
 70
     8
 71
     3
 72
    18
 73
    14
 74
     0
 42
0.000000001
 43
0.0000000001
 40
0.0
 40
0.0
 40
0.0
 40
0.0
 40
0.0305081148
 40
0.0639086434
 40
0.1010250962
 40
0.1424052321
 40
0.1884023563
 40
0.2392118674
 40
0.3554648879
 40
0.4910018920000001
 40
0.6447427015000004
 40
0.8151399659
 40
1.0
 40
1.0
 40
1.0
 40
1.0
 10
723.6943187134015
 20
177.7205669622712
 30
0.0
 10
723.6939393369352
 20
177.708854093038
 30
0.0
 10
723.6959058437648
 20
177.6841839744252
 30
0.0
 10
723.7061223837778
 20
177.6465738160253
 30
0.0
 10
723.7235263904532
 20
177.607127657649
 30
0.0
 10
723.74799315775
 20
177.5659337253182
 30
0.0
 10
723.7794384696785
 20
177.5230844624497
 30
0.0
 10
723.8329819476502
 20
177.4610983645956
 30
0.0
 10
723.9176215724142
 20
177.3810313124868
 30
0.0
 10
724.0401497983821
 20
177.2846190777299
 30
0.0
 10
724.1862908053381
 20
177.1853026859503
 30
0.0
 10
724.3539521397001
 20
177.0845633833919
 30
0.0
 10
724.4741157898387
 20
177.019779926793
 30
0.0
 10
724.5372690270977
 20
176.9873135065063
 30
0.0
  0
SPLINE
  5
10A2
330
2
100
AcDbEntity
  8
0
100
AcDbSpline
210
0.0
220
0.0
230
1.0
 70
     8
 71
     3
 72
    17
 73
    13
 74
     0
 42
0.000000001
 43
0.0000000001
 40
0.0
 40
0.0
 40
0.0
 40
0.0
 40
0.130067801
 40
0.2684297131
 40
0.4101817684000002
 40
0.5502360282
 40
0.6835960331000001
 40
0.8055831743999998
 40
0.8610064278999999
 40
0.9121168566999999
 40
0.9585545213999999
 40
1.0
 40
1.0
 40
1.0
 40
1.0
 10
729.7590591786805
 20
185.2050181008853
 30
0.0
 10
729.6236805713498
 20
185.274614830087
 30
0.0
 10
729.3393580074658
 20
185.408753727051
 30
0.0
 10
728.8943939491027
 20
185.5894213832375
 30
0.0
 10
728.4297761878697
 20
185.7510855955965
 30
0.0
 10
727.9632348613652
 20
185.8875659822283
 30
0.0
 10
727.5125951828662
 20
185.9936946709044
 30
0.0
 10
727.1538681300597
 20
186.0555640672259
 30
0.0
 10
726.8880333112462
 20
186.0854623358786
 30
0.0
 10
726.7093403331243
 20
186.0975177310388
 30
0.0
 10
726.5466104530212
 20
186.0998371313694
 30
0.0
 10
726.4437760456329
 20
186.094630928162
 30
0.0
 10
726.3954899188775
 20
186.0900353793608
 30
0.0
  0
SPLINE
  5
10A3
330
2
100
AcDbEntity
  8
0
100
AcDbSpline
210
0.0
220
0.0
230
1.0
 70
     8
 71
     3
 72
    15
 73
    11
 74
     0
 42
0.000000001
 43
0.0000000001
 40
0.0
 40
0.0
 40
0.0
 40
0.0
 40
0.1743931541
 40
0.3331165744
 40
0.4762260271
 40
0.6042153989
 40
0.7182449289
 40
0.8201682414
 40
0.9127976848999999
 40
1.0
 40
1.0
 40
1.0
 40
1.0
 10
726.3954899188775
 20
186.0900353793608
 30
0.0
 10
726.367125718672
 20
186.087335865564
 30
0.0
 10
726.3130629498314
 20
186.080750108078
 30
0.0
 10
726.2365464052682
 20
186.0662918342318
 30
0.0
 10
726.1687142204837
 20
186.0477656900598
 30
0.0
 10
726.1098421710758
 20
186.0251949338685
 30
0.0
 10
726.0601186619823
 20
185.9986328999234
 30
0.0
 10
726.0197265202788
 20
185.9680204266537
 30
0.0
 10
725.9889536812798
 20
185.9333311897266
 30
0.0
 10
725.9749302553477
 20
185.9071191557372
 30
0.0
 10
725.9698608065541
 20
185.893804456798
 30
0.0
  0
SPLINE
  5
10A4
330
2
100
AcDbEntity
  8
0
100
AcDbSpline
210
0.0
220
0.0
230
1.0
 70
     8
 71
     3
 72
    19
 73
    15
 74
     0
 42
0.000000001
 43
0.0000000001
 40
0.0
 40
0.0
 40
0.0
 40
0.0
 40
0.0296991679
 40
0.061088926
 40
0.0955879942
 40
0.1342320936
 40
0.1776924765
 40
0.2263850655
 40
0.2805218282
 40
0.3401756647
 40
0.475830679
 40
0.6323345034000001
 40
0.8079093834
 40
1.0
 40
1.0
 40
1.0
 40
1.0
 10
723.9992127257527
 20
178.6407514623174
 30
0.0
 10
723.9954178901875
 20
178.6295468909997
 30
0.0
 10
723.9906013033478
 20
178.6053853894095
 30
0.0
 10
723.9923781481703
 20
178.5670478653578
 30
0.0
 10
724.0027900990248
 20
178.5264873349374
 30
0.0
 10
724.0216080733383
 20
178.4838493149468
 30
0.0
 10
724.048654000884
 20
178.4391881630631
 30
0.0
 10
724.0838274580574
 20
178.3926306866528
 30
0.0
 10
724.1269793357758
 20
178.344316614883
 30
0.0
 10
724.1980407547899
 20
178.2747874253291
 30
0.0
 10
724.3064486897487
 20
178.1856039947856
 30
0.0
 10
724.4593532971768
 20
178.0789317287785
 30
0.0
 10
724.6377906215331
 20
177.9703097670585
 30
0.0
 10
724.7666486223366
 20
177.9005919655723
 30
0.0
 10
724.8346965245372
 20
177.8656092492783
 30
0.0
  0
SPLINE
  5
10A5
330
2
100
AcDbEntity
  8
0
100
AcDbSpline
210
0.0
220
0.0
230
1.0
 70
     8
 71
     3
 72
    17
 73
    13
 74
     0
 42
0.000000001
 43
0.0000000001
 40
0.0
 40
0.0
 40
0.0
 40
0.0
 40
0.1283895217
 40
0.2566365877
 40
0.3846056278
 40
0.5120622544
 40
0.6385453435000003
 40
0.7631452976000001
 40
0.8243040180999996
 40
0.884328814
 40
0.9429525054999999
 40
1.0
 40
1.0
 40
1.0
 40
1.0
 10
723.9663975252287
 20
178.31199270261
 30
0.0
 10
723.9756611025756
 20
178.2490185996962
 30
0.0
 10
723.9958151211192
 20
178.123371566271
 30
0.0
 10
724.0321358582323
 20
177.936143694505
 30
0.0
 10
724.0761656865731
 20
177.7510252321162
 30
0.0
 10
724.1302040711075
 20
177.5694134762657
 30
0.0
 10
724.1975094714462
 20
177.393998795786
 30
0.0
 10
724.2690699519553
 20
177.2560572245824
 30
0.0
 10
724.338869759059
 20
177.1559556294141
 30
0.0
 10
724.3976384857205
 20
177.0886312610823
 30
0.0
 10
724.4633541114357
 20
177.031022281797
 30
0.0
 10
724.5121157450316
 20
177.0002445463792
 30
0.0
 10
724.5372690267067
 20
176.9873135067232
 30
0.0
  0
SPLINE
  5
10A6
330
2
100
AcDbEntity
  8
0
100
AcDbSpline
210
0.0
220
0.0
230
1.0
 70
     8
 71
     3
 72
    30
 73
    26
 74
     0
 42
0.000000001
 43
0.0000000001
 40
0.0
 40
0.0
 40
0.0
 40
0.0
 40
0.0109434363
 40
0.022836737
 40
0.0364118751
 40
0.0521299027
 40
0.0702456558
 40
0.090870124
 40
0.1140255566
 40
0.139666532
 40
0.1677055837
 40
0.1980156077
 40
0.264807012
 40
0.3385683562
 40
0.4175491329
 40
0.4998179424000001
 40
0.5833346663000001
 40
0.6660187925
 40
0.7458166826000002
 40
0.8207696667
 40
0.8890846726999999
 40
0.9202602833
 40
0.9492279861
 40
0.9758493484999998
 40
1.0
 40
1.0
 40
1.0
 40
1.0
 10
723.9283973045817
 20
182.1728777992762
 30
0.0
 10
723.9208904275082
 20
182.1507018772385
 30
0.0
 10
723.9128374917315
 20
182.1015615404935
 30
0.0
 10
723.9233781066586
 20
182.0235176053688
 30
0.0
 10
723.9549307401721
 20
181.9406318898249
 30
0.0
 10
724.0067335044722
 20
181.853023933932
 30
0.0
 10
724.0783958056007
 20
181.7608679697718
 30
0.0
 10
724.1694977766712
 20
181.6645521138175
 30
0.0
 10
724.2795333714846
 20
181.5646365407255
 30
0.0
 10
724.4078208634451
 20
181.461727040551
 30
0.0
 10
724.5535586110772
 20
181.356507945848
 30
0.0
 10
724.7772201628618
 20
181.2092460203371
 30
0.0
 10
725.0937492642237
 20
181.0258084143397
 30
0.0
 10
725.5132582723863
 20
180.8141827992417
 30
0.0
 10
725.9730011697273
 20
180.6101983675293
 30
0.0
 10
726.4607921804607
 20
180.4193230899077
 30
0.0
 10
726.9637053532167
 20
180.2466659054784
 30
0.0
 10
727.4683702852613
 20
180.0968204718778
 30
0.0
 10
727.9613802467665
 20
179.9737272566621
 30
0.0
 10
728.4296252718681
 20
179.8806080533527
 30
0.0
 10
728.7994336971428
 20
179.8283555611428
 30
0.0
 10
729.0732906676351
 20
179.8046659738161
 30
0.0
 10
729.2587805433554
 20
179.7961778540352
 30
0.0
 10
729.4294399155577
 20
179.7964695791902
 30
0.0
 10
729.5379641371178
 20
179.8027843711784
 30
0.0
 10
729.5893989042979
 20
179.8076795863767
 30
0.0
  0
SPLINE
  5
10A7
330
2
100
AcDbEntity
  8
0
100
AcDbSpline
210
0.0
220
0.0
230
1.0
 70
     8
 71
     3
 72
    15
 73
    11
 74
     0
 42
0.000000001
 43
0.0000000001
 40
0.0
 40
0.0
 40
0.0
 40
0.0
 40
0.0873022786
 40
0.1795801694
 40
0.2809861157
 40
0.3945682378
 40
0.5223325502
 40
0.6655282913000004
 40
0.824728531
 40
1.0
 40
1.0
 40
1.0
 40
1.0
 10
731.6041392158085
 20
184.387040541073
 30
0.0
 10
731.5981565206176
 20
184.3693708426121
 30
0.0
 10
731.5810385334852
 20
184.3344915198745
 30
0.0
 10
731.5420687435968
 20
184.2881859926423
 30
0.0
 10
731.4901728454229
 20
184.2473566458679
 30
0.0
 10
731.4257519169354
 20
184.2119817047819
 30
0.0
 10
731.349070424434
 20
184.1819613540805
 30
0.0
 10
731.2603756110997
 20
184.1573513219131
 30
0.0
 10
731.1600287525701
 20
184.1381962001755
 30
0.0
 10
731.0890348961427
 20
184.1295154408721
 30
0.0
 10
731.0517507666554
 20
184.1259669881842
 30
0.0
  0
SPLINE
  5
10A8
330
2
100
AcDbEntity
  8
0
100
AcDbSpline
210
0.0
220
0.0
230
1.0
 70
     8
 71
     3
 72
    13
 73
     9
 74
     0
 42
0.000000001
 43
0.0000000001
 40
0.0
 40
0.0
 40
0.0
 40
0.0
 40
0.1124481918
 40
0.2334355406
 40
0.4914673856000002
 40
0.7538725756
 40
0.8802599820999999
 40
1.0
 40
1.0
 40
1.0
 40
1.0
 10
724.5874480777533
 20
171.6876835896296
 30
0.0
 10
724.5391525114666
 20
171.6941811219812
 30
0.0
 10
724.4392794452838
 20
171.7106261886092
 30
0.0
 10
724.2309537781042
 20
171.7552012559131
 30
0.0
 10
723.963090740845
 20
171.830611339817
 30
0.0
 10
723.6992764541652
 20
171.9261720161462
 30
0.0
 10
723.4968286366791
 20
172.0133712483166
 30
0.0
 10
723.4007234418122
 20
172.0597435966078
 30
0.0
 10
723.3545740123124
 20
172.0834685366521
 30
0.0
  0
SPLINE
  5
10A9
330
2
100
AcDbEntity
  8
0
100
AcDbSpline
210
0.0
220
0.0
230
1.0
 70
     8
 71
     3
 72
    22
 73
    18
 74
     0
 42
0.000000001
 43
0.0000000001
 40
0.0
 40
0.0
 40
0.0
 40
0.0
 40
0.0427408921
 40
0.0798772629
 40
0.1133827831
 40
0.1460054547
 40
0.1807299828
 40
0.2200167752
 40
0.2654919499
 40
0.3180768589
 40
0.3782119875
 40
0.4460197003000001
 40
0.5214148809
 40
0.6041447477000002
 40
0.693849811
 40
0.7900990281999999
 40
1.0
 40
1.0
 40
1.0
 40
1.0
 10
731.1149516865907
 20
184.3375042566226
 30
0.0
 10
731.1399634758167
 20
184.348766081624
 30
0.0
 10
731.1853545939625
 20
184.3732745444663
 30
0.0
 10
731.2412333466742
 20
184.4209730142864
 30
0.0
 10
731.2784266266649
 20
184.4770989487378
 30
0.0
 10
731.2951556050375
 20
184.5408274414834
 30
0.0
 10
731.2912165603059
 20
184.6100732259355
 30
0.0
 10
731.2678410351097
 20
184.683724512382
 30
0.0
 10
731.2259161896918
 20
184.7616794876498
 30
0.0
 10
731.1658608108126
 20
184.8438324223152
 30
0.0
 10
731.0880224852635
 20
184.9298639044295
 30
0.0
 10
730.9928502361694
 20
185.0193136955763
 30
0.0
 10
730.8809149563492
 20
185.1116126502124
 30
0.0
 10
730.7529427676151
 20
185.2061668878873
 30
0.0
 10
730.609754954416
 20
185.3023391788947
 30
0.0
 10
730.3934936771756
 20
185.4357430111431
 30
0.0
 10
730.2209884290387
 20
185.5301501669177
 30
0.0
 10
730.1011827181846
 20
185.5917410324614
 30
0.0
  0
SPLINE
  5
10AA
330
2
100
AcDbEntity
  8
0
100
AcDbSpline
210
0.0
220
0.0
230
1.0
 70
     8
 71
     3
 72
    19
 73
    15
 74
     0
 42
0.000000001
 43
0.0000000001
 40
0.0
 40
0.0
 40
0.0
 40
0.0
 40
0.0296928745
 40
0.0611809763
 40
0.0958398497
 40
0.134665522
 40
0.1783017676
 40
0.2271469512
 40
0.281400837
 40
0.3411307192000001
 40
0.4768024006
 40
0.63314092
 40
0.8083832260999999
 40
1.0
 40
1.0
 40
1.0
 40
1.0
 10
730.7803890427557
 20
184.2617283831291
 30
0.0
 10
730.7847329584729
 20
184.275466935312
 30
0.0
 10
730.7900241986852
 20
184.3050498233592
 30
0.0
 10
730.7870967536792
 20
184.3518241042961
 30
0.0
 10
730.7737531065075
 20
184.4012749105944
 30
0.0
 10
730.750264042088
 20
184.4532356591694
 30
0.0
 10
730.7168349014367
 20
184.5076378808675
 30
0.0
 10
730.6735862137927
 20
184.5643241358434
 30
0.0
 10
730.6207008461232
 20
184.6231255098136
 30
0.0
 10
730.5338396290344
 20
184.7076795199877
 30
0.0
 10
730.4016350193879
 20
184.81610243284
 30
0.0
 10
730.2154393436368
 20
184.9457696041439
 30
0.0
 10
729.9984051735819
 20
185.0777706241051
 30
0.0
 10
729.8417562546374
 20
185.162504397192
 30
0.0
 10
729.7590591786805
 20
185.2050181008853
 30
0.0
  0
SPLINE
  5
10AB
330
2
100
AcDbEntity
  8
0
100
AcDbSpline
210
0.0
220
0.0
230
1.0
 70
     8
 71
     3
 72
    19
 73
    15
 74
     0
 42
0.000000001
 43
0.0000000001
 40
0.0
 40
0.0
 40
0.0
 40
0.0
 40
0.1486753878
 40
0.293326298
 40
0.4327421526000001
 40
0.5652110877000001
 40
0.6281460825
 40
0.6884103536000003
 40
0.7456502715000001
 40
0.799637541
 40
0.8504917419999998
 40
0.8991842145000001
 40
0.9479556914999999
 40
1.0
 40
1.0
 40
1.0
 40
1.0
 10
726.9809018404039
 20
177.0829850102726
 30
0.0
 10
726.982345433913
 20
177.0356680198601
 30
0.0
 10
726.986413511976
 20
176.9423449527967
 30
0.0
 10
726.9971701357079
 20
176.8049390111696
 30
0.0
 10
727.0137505526027
 20
176.6732978566619
 30
0.0
 10
727.0341611769244
 20
176.5685077983125
 30
0.0
 10
727.0560764589331
 20
176.4900580856724
 30
0.0
 10
727.0753251961978
 20
176.435864040793
 30
0.0
 10
727.0982072260112
 20
176.3861781388427
 30
0.0
 10
727.1254593325227
 20
176.3421489583588
 30
0.0
 10
727.1579767163173
 20
176.3052354239298
 30
0.0
 10
727.1968813738472
 20
176.2775078523268
 30
0.0
 10
727.2425993603624
 20
176.2618900577676
 30
0.0
 10
727.2751913177278
 20
176.2610049094387
 30
0.0
 10
727.2916879482527
 20
176.2625749477251
 30
0.0
  0
LINE
  5
10AC
330
2
100
AcDbEntity
  8
center
  6
CENTERX2
 48
1.5
100
AcDbLine
 10
756.8726452730482
 20
213.9858362478294
 30
0.0
 11
785.1243350666976
 21
213.9858362478294
 31
0.0
  0
DIMENSION
  5
10AD
102
{ACAD_XDICTIONARY
360
10AE
102
}
102
{ACAD_REACTORS
330
10AF
102
}
330
2
100
AcDbEntity
  8
DIM
100
AcDbDimension
280
     0
  2
*D6
 10
754.6823784241244
 20
209.8859039885542
 30
0.0
 11
753.1823784241244
 21
213.9858701181793
 31
0.0
 70
    32
  1
%%c8.2
 71
     5
 42
8.19993225925009
 73
     0
 74
     0
 75
     0
  3
01
100
AcDbAlignedDimension
 13
757.9285803521551
 23
218.0858362478043
 33
0.0
 14
757.9285803521551
 24
209.8859039885542
 34
0.0
 50
90.0
100
AcDbRotatedDimension
  0
DIMENSION
  5
10B0
102
{ACAD_XDICTIONARY
360
10B1
102
}
102
{ACAD_REACTORS
330
10B2
102
}
330
2
100
AcDbEntity
  8
DIM
100
AcDbDimension
280
     0
  2
*D7
 10
783.4285803521551
 20
206.6931851696404
 30
0.0
 11
770.6785803521551
 21
208.1931851696404
 31
0.0
 70
    32
 71
     5
 42
25.5
 73
     0
 74
     0
 75
     0
  3
01
100
AcDbAlignedDimension
 13
757.9285803521551
 23
209.8859039885542
 33
0.0
 14
783.4285803521551
 24
212.9858669112345
 34
0.0
 50
0.0
100
AcDbRotatedDimension
  0
DIMENSION
  5
1296
330
2
100
AcDbEntity
  8
DIM
100
AcDbDimension
280
     0
  2
*D8
 10
787.3628888890365
 20
211.3858362478043
 30
0.0
 11
787.3628888890363
 21
220.8358362478041
 31
0.0
 70
   160
  1
%%C<>
 71
     5
 42
5.200000000000128
 73
     0
 74
     0
 75
     0
  3
01
100
AcDbAlignedDimension
 13
775.528580352155
 23
216.5858362478043
 33
0.0
 14
775.528580352155
 24
211.3858362478042
 34
0.0
 50
90.0
100
AcDbRotatedDimension
  0
ENDSEC
  0
SECTION
  2
OBJECTS
  0
DICTIONARY
  5
B
330
0
100
AcDbDictionary
281
     1
  3
ACAD_CIP_PREVIOUS_PRODUCT_INFO
350
11DF
  3
ACAD_COLOR
350
1F4
  3
ACAD_DATALINK
350
132E
  3
ACAD_DETAILVIEWSTYLE
350
11D4
  3
ACAD_GROUP
350
1E1
  3
ACAD_IMAGE_VARS
350
1331
  3
ACAD_LAYOUT
350
1C2
  3
ACAD_MATERIAL
350
D
  3
ACAD_MLEADERSTYLE
350
255
  3
ACAD_MLINESTYLE
350
1E2
  3
ACAD_PLOTSETTINGS
350
1E3
  3
ACAD_PLOTSTYLENAME
350
A
  3
ACAD_SCALELIST
350
1F5
  3
ACAD_SECTIONVIEWSTYLE
350
11D2
  3
ACAD_TABLESTYLE
350
1F6
  3
ACAD_VISUALSTYLE
350
1DB
  3
ACDB_RECOMPOSE_DATA
350
132D
  3
AcDbVariableDictionary
350
21E
  0
DICTIONARY
  5
1DC
330
1D8
100
AcDbDictionary
280
     1
281
     1
  0
DICTIONARY
  5
1CD
330
1CC
100
AcDbDictionary
280
     1
281
     1
  3
ACAD_LAYERFILTERS
360
3D5
  3
ACAD_LAYERSTATES
360
1CF
  3
ACLYDICTIONARY
360
3D4
  0
DICTIONARY
  5
7
330
6
100
AcDbDictionary
280
     1
281
     1
  3
ADSK_XREC_LAYER_RECONCILED
360
8
  0
DICTIONARY
  5
18
330
17
100
AcDbDictionary
280
     1
281
     1
  3
ADSK_XREC_LAYER_RECONCILED
360
19
  0
DICTIONARY
  5
26
330
25
100
AcDbDictionary
280
     1
281
     1
  3
ADSK_XREC_LAYER_RECONCILED
360
27
  0
DICTIONARY
  5
3
330
2
100
AcDbDictionary
280
     1
281
     1
  3
ACAD_SORTENTS
360
21D
  0
DICTIONARY
  5
11F0
330
11EF
100
AcDbDictionary
280
     1
281
     1
  0
DICTIONARY
  5
1235
330
1234
100
AcDbDictionary
280
     1
281
     1
  0
DICTIONARY
  5
1237
330
1236
100
AcDbDictionary
280
     1
281
     1
  0
DICTIONARY
  5
125D
330
125C
100
AcDbDictionary
280
     1
281
     1
  0
DICTIONARY
  5
1261
330
1260
100
AcDbDictionary
280
     1
281
     1
  0
DICTIONARY
  5
1263
330
1262
100
AcDbDictionary
280
     1
281
     1
  0
DICTIONARY
  5
126E
330
126D
100
AcDbDictionary
280
     1
281
     1
  0
DICTIONARY
  5
1270
330
126F
100
AcDbDictionary
280
     1
281
     1
  0
DICTIONARY
  5
1272
330
1271
100
AcDbDictionary
280
     1
281
     1
  0
DICTIONARY
  5
1281
330
1280
100
AcDbDictionary
280
     1
281
     1
  0
DICTIONARY
  5
1283
330
1282
100
AcDbDictionary
280
     1
281
     1
  0
DICTIONARY
  5
1285
330
1284
100
AcDbDictionary
280
     1
281
     1
  0
DICTIONARY
  5
119D
330
E6
100
AcDbDictionary
280
     1
281
     1
  0
DICTIONARY
  5
10AE
330
10AD
100
AcDbDictionary
280
     1
281
     1
  3
ACAD_DIMASSOC
360
10AF
  0
DICTIONARY
  5
10B1
330
10B0
100
AcDbDictionary
280
     1
281
     1
  3
ACAD_DIMASSOC
360
10B2
  0
XRECORD
  5
11DF
102
{ACAD_REACTORS
330
B
102
}
330
B
100
AcDbXrecord
280
     1
300
ACD
300
2018
300
ACD_F_S
  0
DICTIONARY
  5
1F4
102
{ACAD_REACTORS
330
B
102
}
330
B
100
AcDbDictionary
281
     1
  0
DICTIONARY
  5
132E
102
{ACAD_REACTORS
330
B
102
}
330
B
100
AcDbDictionary
280
     1
281
     1
  0
DICTIONARY
  5
11D4
102
{ACAD_REACTORS
330
B
102
}
330
B
100
AcDbDictionary
281
     1
  3
Imperial24
350
11D5
  0
DICTIONARY
  5
1E1
102
{ACAD_REACTORS
330
B
102
}
330
B
100
AcDbDictionary
281
     1
  0
RASTERVARIABLES
  5
1331
102
{ACAD_REACTORS
330
B
102
}
330
B
100
AcDbRasterVariables
 90
        0
 70
     1
 71
     1
 72
     1
  0
DICTIONARY
  5
1C2
102
{ACAD_REACTORS
330
B
102
}
330
B
100
AcDbDictionary
281
     1
  3
Layout1
350
1C7
  3
Layout2
350
1CB
  3
Model
350
1C1
  0
DICTIONARY
  5
D
102
{ACAD_REACTORS
330
B
102
}
330
B
100
AcDbDictionary
281
     1
  3
ByBlock
350
1EC
  3
ByLayer
350
1E4
  3
Global
350
C
  0
DICTIONARY
  5
255
102
{ACAD_REACTORS
330
B
102
}
330
B
100
AcDbDictionary
281
     1
  3
Standard
350
256
  0
DICTIONARY
  5
1E2
102
{ACAD_REACTORS
330
B
102
}
330
B
100
AcDbDictionary
281
     1
  3
Standard
350
1F7
  0
DICTIONARY
  5
1E3
102
{ACAD_REACTORS
330
B
102
}
330
B
100
AcDbDictionary
281
     1
  0
ACDBDICTIONARYWDFLT
  5
A
102
{ACAD_REACTORS
330
B
102
}
330
B
100
AcDbDictionary
281
     1
  3
Normal
350
9
100
AcDbDictionaryWithDefault
340
9
  0
DICTIONARY
  5
1F5
102
{ACAD_REACTORS
330
B
102
}
330
B
100
AcDbDictionary
281
     1
  3
A0
350
1FC
  3
A1
350
1FD
  3
A2
350
1FE
  3
A3
350
1FF
  3
A4
350
200
  3
A5
350
201
  3
A6
350
202
  3
A7
350
203
  3
A8
350
204
  3
A9
350
205
  3
B0
350
206
  3
B1
350
207
  3
B2
350
208
  3
B3
350
209
  3
B4
350
20A
  3
B5
350
20B
  3
B6
350
20C
  3
B7
350
20D
  3
B8
350
20E
  3
B9
350
20F
  3
C0
350
210
  3
C1
350
211
  3
C2
350
212
  3
C3
350
213
  3
C4
350
214
  3
C5
350
215
  3
C6
350
216
  3
C7
350
217
  3
C8
350
218
  3
C9
350
219
  3
D0
350
21A
  3
D1
350
21B
  3
D2
350
21C
  0
DICTIONARY
  5
11D2
102
{ACAD_REACTORS
330
B
102
}
330
B
100
AcDbDictionary
281
     1
  3
Imperial24
350
11D3
  0
DICTIONARY
  5
1F6
102
{ACAD_REACTORS
330
B
102
}
330
B
100
AcDbDictionary
281
     1
  3
Standard
350
1F8
  0
DICTIONARY
  5
1DB
102
{ACAD_REACTORS
330
B
102
}
330
B
100
AcDbDictionary
281
     1
  3
2dWireframe
350
1DA
  3
3D Hidden
350
24D
  3
3dWireframe
350
1FB
  3
Basic
350
24C
  3
Brighten
350
250
  3
ColorChange
350
254
  3
Conceptual
350
24E
  3
Dim
350
24F
  3
EdgeColorOff
350
11D1
  3
Facepattern
350
253
  3
Flat
350
248
  3
FlatWithEdges
350
249
  3
Gouraud
350
24A
  3
GouraudWithEdges
350
24B
  3
Hidden
350
11C9
  3
JitterOff
350
11CF
  3
Linepattern
350
252
  3
OverhangOff
350
11D0
  3
Realistic
350
1FA
  3
Shaded
350
11CE
  3
Shaded with edges
350
11CD
  3
Shades of Gray
350
11CA
  3
Sketchy
350
11CB
  3
Thicken
350
251
  3
Wireframe
350
11C8
  3
X-Ray
350
11CC
  0
XRECORD
  5
132D
102
{ACAD_REACTORS
330
B
102
}
330
B
100
AcDbXrecord
280
     1
 90
        1
330
1F8
  0
DICTIONARY
  5
21E
102
{ACAD_REACTORS
330
B
102
}
330
B
100
AcDbDictionary
281
     1
  3
CANNOSCALE
350
221
  3
CMLEADERSTYLE
350
220
  3
CTABLESTYLE
350
21F
  3
CVIEWDETAILSTYLE
350
11E5
  3
CVIEWSECTIONSTYLE
350
11E6
  3
DIMASSOC
350
357
  3
HIDETEXT
350
356
  3
INDEXCTL
350
355
  3
LAYEREVAL
350
11E7
  3
LAYERNOTIFY
350
11E8
  3
LIGHTINGUNITS
350
222
  3
MSLTSCALE
350
353
  3
SORTENTS
350
354
  0
DICTIONARY
  5
3D5
102
{ACAD_REACTORS
330
1CD
102
}
330
1CD
100
AcDbDictionary
281
     1
  0
DICTIONARY
  5
1CF
102
{ACAD_REACTORS
330
1CD
102
}
330
1CD
100
AcDbDictionary
281
     1
  0
DICTIONARY
  5
3D4
102
{ACAD_REACTORS
330
1CD
102
}
330
1CD
100
AcDbDictionary
281
     1
1001
ACAD
1000
<All
  0
XRECORD
  5
8
102
{ACAD_REACTORS
330
7
102
}
330
7
100
AcDbXrecord
280
     1
290
     1
  0
XRECORD
  5
19
102
{ACAD_REACTORS
330
18
102
}
330
18
100
AcDbXrecord
280
     1
290
     1
  0
XRECORD
  5
27
102
{ACAD_REACTORS
330
26
102
}
330
26
100
AcDbXrecord
280
     1
290
     1
  0
SORTENTSTABLE
  5
21D
102
{ACAD_REACTORS
330
3
102
}
330
3
100
AcDbSortentsTable
330
2
331
30C
  5
39F
331
30A
  5
39D
331
30D
  5
3A0
331
309
  5
39C
331
30B
  5
39E
331
E6
  5
F6
  0
DIMASSOC
  5
10AF
102
{ACAD_REACTORS
330
10AE
102
}
330
10AE
100
AcDbDimAssoc
330
10AD
 90
        3
 70
     0
 71
     0
  1
AcDbOsnapPointRef
 72
    13
331
1049
 73
     2
 91
        0
 40
0.0
 10
0.0
 20
0.0
 30
1.999999999999999E+50
 75
     0
  1
AcDbOsnapPointRef
 72
     1
331
103B
 73
     2
 91
        0
 40
1.0
 10
0.0
 20
0.0
 30
1.999999999999999E+50
 75
     0
  0
DIMASSOC
  5
10B2
102
{ACAD_REACTORS
330
10B1
102
}
330
10B1
100
AcDbDimAssoc
330
10B0
 90
        2
 70
     0
 71
     0
  1
AcDbOsnapPointRef
 72
    11
331
1052
 73
     2
 91
        0
 40
0.9999846682597995
 10
0.0
 20
0.0
 30
0.0
332
104E
 74
     2
 92
        0
 75
     0
  0
ACDBDETAILVIEWSTYLE
  5
11D5
102
{ACAD_REACTORS
330
11D4
102
}
330
11D4
100
AcDbModelDocViewStyle
 70
     0
  3
Imperial24
290
     0
300
Imperial24
 90
        0
100
AcDbDetailViewStyle
 70
     0
 71
     0
 90
        3
 71
     1
340
48
 62
   256
 40
0.24
340
0
 62
   256
 40
0.24
300

 40
0.36
280
     3
 71
     2
340
15
 90
       25
 62
   256
 71
     3
340
48
 62
   256
 40
0.24
 90
        1
 40
0.75
 90
        1
300
%<\AcVar ViewType \f "%tc1">% %<\AcVar ViewDetailId>%\PSCALE %<\AcVar ViewScale \f "%sn">%
 71
     4
340
15
 90
       25
 62
   256
340
15
 90
       25
 62
   256
280
     0
  0
LAYOUT
  5
1C7
102
{ACAD_REACTORS
330
1C2
102
}
330
1C2
100
AcDbPlotSettings
  1

  2
none_device
  4

  6

 40
0.0
 41
0.0
 42
0.0
 43
0.0
 44
0.0
 45
0.0
 46
0.0
 47
0.0
 48
0.0
 49
0.0
140
0.0
141
0.0
142
1.0
143
1.0
 70
   688
 72
     0
 73
     0
 74
     5
  7

 75
    16
 76
     0
 77
     2
 78
   300
147
1.0
148
0.0
149
0.0
100
AcDbLayout
  1
Layout1
 70
     1
 71
     1
 10
0.0
 20
0.0
 11
12.0
 21
9.0
 12
0.0
 22
0.0
 32
0.0
 14
1.000000000000000E+20
 24
1.000000000000000E+20
 34
1.000000000000000E+20
 15
-1.000000000000000E+20
 25
-1.000000000000000E+20
 35
-1.000000000000000E+20
146
0.0
 13
0.0
 23
0.0
 33
0.0
 16
1.0
 26
0.0
 36
0.0
 17
0.0
 27
1.0
 37
0.0
 76
     0
330
1C4
  0
LAYOUT
  5
1CB
102
{ACAD_REACTORS
330
1C2
102
}
330
1C2
100
AcDbPlotSettings
  1

  2
none_device
  4

  6

 40
0.0
 41
0.0
 42
0.0
 43
0.0
 44
0.0
 45
0.0
 46
0.0
 47
0.0
 48
0.0
 49
0.0
140
0.0
141
0.0
142
1.0
143
1.0
 70
   688
 72
     0
 73
     0
 74
     5
  7

 75
    16
 76
     0
 77
     2
 78
   300
147
1.0
148
0.0
149
0.0
100
AcDbLayout
  1
Layout2
 70
     1
 71
     2
 10
0.0
 20
0.0
 11
0.0
 21
0.0
 12
0.0
 22
0.0
 32
0.0
 14
0.0
 24
0.0
 34
0.0
 15
0.0
 25
0.0
 35
0.0
146
0.0
 13
0.0
 23
0.0
 33
0.0
 16
1.0
 26
0.0
 36
0.0
 17
0.0
 27
1.0
 37
0.0
 76
     0
330
1C8
  0
LAYOUT
  5
1C1
102
{ACAD_REACTORS
330
1C2
102
}
330
1C2
100
AcDbPlotSettings
  1

  2
Microsoft Print to PDF_3.pc5
  4
A4
  6

 40
0.0
 41
0.0
 42
0.0
 43
0.0
 44
297.0106666666667
 45
210.0156666666666
 46
0.0
 47
0.0036203314259353
 48
600.5828285799999
 49
9.60833492
140
749.08220355
141
114.60833492
142
1.0
143
0.4999799388910838
 70
  3764
 72
     1
 73
     0
 74
     4
  7
monochrome.ctb
 75
     0
 76
     1
 77
     2
 78
   300
147
2.000080247655378
148
-600.5828285799999
149
-9.60833492
100
AcDbLayout
  1
Model
 70
     1
 71
     0
 10
0.0
 20
0.0
 11
12.0
 21
9.0
 12
0.0
 22
0.0
 32
0.0
 14
1.000000000000000E+20
 24
1.000000000000000E+20
 34
1.000000000000000E+20
 15
-1.000000000000000E+20
 25
-1.000000000000000E+20
 35
-1.000000000000000E+20
146
0.0
 13
0.0
 23
0.0
 33
0.0
 16
1.0
 26
0.0
 36
0.0
 17
0.0
 27
1.0
 37
0.0
 76
     0
330
2
331
1D9
1001
ACAD_PSEXT
1000
Microsoft Print to PDF_3.pc5
1000
Microsoft Print to PDF_3
1000
PORTPROMPT:
1000

1070
     0
  0
MATERIAL
  5
1EC
102
{ACAD_XDICTIONARY
360
1ED
102
}
102
{ACAD_REACTORS
330
D
102
}
330
D
100
AcDbMaterial
  1
ByBlock
 72
     0
 73
     2
 43
0.0208333333333333
 43
0.0
 43
0.0
 43
0.0
 43
0.0
 43
0.0208333333333333
 43
0.0
 43
0.0
 43
0.0
 43
0.0
 43
1.0
 43
0.0
 43
0.0
 43
0.0
 43
0.0
 43
1.0
 77
     0
 78
     2
 47
0.0208333333333333
 47
0.0
 47
0.0
 47
0.0
 47
0.0
 47
0.0208333333333333
 47
0.0
 47
0.0
 47
0.0
 47
0.0
 47
1.0
 47
0.0
 47
0.0
 47
0.0
 47
0.0
 47
1.0
171
     0
172
     2
 49
0.0208333333333333
 49
0.0
 49
0.0
 49
0.0
 49
0.0
 49
0.0208333333333333
 49
0.0
 49
0.0
 49
0.0
 49
0.0
 49
1.0
 49
0.0
 49
0.0
 49
0.0
 49
0.0
 49
1.0
175
     0
176
     2
142
0.0208333333333333
142
0.0
142
0.0
142
0.0
142
0.0
142
0.0208333333333333
142
0.0
142
0.0
142
0.0
142
0.0
142
1.0
142
0.0
142
0.0
142
0.0
142
0.0
142
1.0
179
     0
270
     2
144
0.0208333333333333
144
0.0
144
0.0
144
0.0
144
0.0
144
0.0208333333333333
144
0.0
144
0.0
144
0.0
144
0.0
144
1.0
144
0.0
144
0.0
144
0.0
144
0.0
144
1.0
274
     2
147
0.0208333333333333
147
0.0
147
0.0
147
0.0
147
0.0
147
0.0208333333333333
147
0.0
147
0.0
147
0.0
147
0.0
147
1.0
147
0.0
147
0.0
147
0.0
147
0.0
147
1.0
 94
      127
  0
MATERIAL
  5
1E4
102
{ACAD_XDICTIONARY
360
1E5
102
}
102
{ACAD_REACTORS
330
D
102
}
330
D
100
AcDbMaterial
  1
ByLayer
 72
     0
 73
     2
 43
0.0208333333333333
 43
0.0
 43
0.0
 43
0.0
 43
0.0
 43
0.0208333333333333
 43
0.0
 43
0.0
 43
0.0
 43
0.0
 43
1.0
 43
0.0
 43
0.0
 43
0.0
 43
0.0
 43
1.0
 77
     0
 78
     2
 47
0.0208333333333333
 47
0.0
 47
0.0
 47
0.0
 47
0.0
 47
0.0208333333333333
 47
0.0
 47
0.0
 47
0.0
 47
0.0
 47
1.0
 47
0.0
 47
0.0
 47
0.0
 47
0.0
 47
1.0
171
     0
172
     2
 49
0.0208333333333333
 49
0.0
 49
0.0
 49
0.0
 49
0.0
 49
0.0208333333333333
 49
0.0
 49
0.0
 49
0.0
 49
0.0
 49
1.0
 49
0.0
 49
0.0
 49
0.0
 49
0.0
 49
1.0
175
     0
176
     2
142
0.0208333333333333
142
0.0
142
0.0
142
0.0
142
0.0
142
0.0208333333333333
142
0.0
142
0.0
142
0.0
142
0.0
142
1.0
142
0.0
142
0.0
142
0.0
142
0.0
142
1.0
179
     0
270
     2
144
0.0208333333333333
144
0.0
144
0.0
144
0.0
144
0.0
144
0.0208333333333333
144
0.0
144
0.0
144
0.0
144
0.0
144
1.0
144
0.0
144
0.0
144
0.0
144
0.0
144
1.0
274
     2
147
0.0208333333333333
147
0.0
147
0.0
147
0.0
147
0.0
147
0.0208333333333333
147
0.0
147
0.0
147
0.0
147
0.0
147
1.0
147
0.0
147
0.0
147
0.0
147
0.0
147
1.0
 94
      127
  0
MATERIAL
  5
C
102
{ACAD_XDICTIONARY
360
E
102
}
102
{ACAD_REACTORS
330
D
102
}
330
D
100
AcDbMaterial
  1
Global
 72
     0
 73
     2
 43
0.0208333333333333
 43
0.0
 43
0.0
 43
0.0
 43
0.0
 43
0.0208333333333333
 43
0.0
 43
0.0
 43
0.0
 43
0.0
 43
1.0
 43
0.0
 43
0.0
 43
0.0
 43
0.0
 43
1.0
 77
     0
 78
     2
 47
0.0208333333333333
 47
0.0
 47
0.0
 47
0.0
 47
0.0
 47
0.0208333333333333
 47
0.0
 47
0.0
 47
0.0
 47
0.0
 47
1.0
 47
0.0
 47
0.0
 47
0.0
 47
0.0
 47
1.0
171
     0
172
     2
 49
0.0208333333333333
 49
0.0
 49
0.0
 49
0.0
 49
0.0
 49
0.0208333333333333
 49
0.0
 49
0.0
 49
0.0
 49
0.0
 49
1.0
 49
0.0
 49
0.0
 49
0.0
 49
0.0
 49
1.0
175
     0
176
     2
142
0.0208333333333333
142
0.0
142
0.0
142
0.0
142
0.0
142
0.0208333333333333
142
0.0
142
0.0
142
0.0
142
0.0
142
1.0
142
0.0
142
0.0
142
0.0
142
0.0
142
1.0
179
     0
270
     2
144
0.0208333333333333
144
0.0
144
0.0
144
0.0
144
0.0
144
0.0208333333333333
144
0.0
144
0.0
144
0.0
144
0.0
144
1.0
144
0.0
144
0.0
144
0.0
144
0.0
144
1.0
274
     2
147
0.0208333333333333
147
0.0
147
0.0
147
0.0
147
0.0
147
0.0208333333333333
147
0.0
147
0.0
147
0.0
147
0.0
147
1.0
147
0.0
147
0.0
147
0.0
147
0.0
147
1.0
 94
      127
  0
MLEADERSTYLE
  5
256
102
{ACAD_REACTORS
330
255
102
}
330
255
100
AcDbMLeaderStyle
179
     2
170
     2
171
     1
172
     0
 90
        2
 40
0.0
 41
0.0
173
     1
 91
-1056964608
340
1D4
 92
       -2
290
     1
 42
0.09
291
     1
 43
0.36
  3
Standard
 44
0.18
300

342
48
174
     1
178
     6
175
     1
176
     0
 93
-1056964608
 45
0.18
292
     0
297
     0
 46
0.18
 94
-1056964608
 47
1.0
 49
1.0
140
1.0
293
     1
141
0.0
294
     1
177
     0
142
1.0
295
     0
296
     0
143
0.125
271
     0
272
     9
273
     9
298
     0
1001
ACAD_MLEADERVER
1070
     2
  0
MLINESTYLE
  5
1F7
102
{ACAD_REACTORS
330
1E2
102
}
330
1E2
100
AcDbMlineStyle
  2
STANDARD
 70
     0
  3

 62
   256
 51
90.0
 52
90.0
 71
     2
 49
0.5
 62
   256
  6
BYLAYER
 49
-0.5
 62
   256
  6
BYLAYER
  0
ACDBPLACEHOLDER
  5
9
102
{ACAD_REACTORS
330
A
102
}
330
A
  0
SCALE
  5
1FC
102
{ACAD_REACTORS
330
1F5
102
}
330
1F5
100
AcDbScale
 70
     0
300
1:1
140
1.0
141
1.0
290
     1
  0
SCALE
  5
1FD
102
{ACAD_REACTORS
330
1F5
102
}
330
1F5
100
AcDbScale
 70
     0
300
1:2
140
1.0
141
2.0
290
     0
  0
SCALE
  5
1FE
102
{ACAD_REACTORS
330
1F5
102
}
330
1F5
100
AcDbScale
 70
     0
300
1:4
140
1.0
141
4.0
290
     0
  0
SCALE
  5
1FF
102
{ACAD_REACTORS
330
1F5
102
}
330
1F5
100
AcDbScale
 70
     0
300
1:5
140
1.0
141
5.0
290
     0
  0
SCALE
  5
200
102
{ACAD_REACTORS
330
1F5
102
}
330
1F5
100
AcDbScale
 70
     0
300
1:8
140
1.0
141
8.0
290
     0
  0
SCALE
  5
201
102
{ACAD_REACTORS
330
1F5
102
}
330
1F5
100
AcDbScale
 70
     0
300
1:10
140
1.0
141
10.0
290
     0
  0
SCALE
  5
202
102
{ACAD_REACTORS
330
1F5
102
}
330
1F5
100
AcDbScale
 70
     0
300
1:16
140
1.0
141
16.0
290
     0
  0
SCALE
  5
203
102
{ACAD_REACTORS
330
1F5
102
}
330
1F5
100
AcDbScale
 70
     0
300
1:20
140
1.0
141
20.0
290
     0
  0
SCALE
  5
204
102
{ACAD_REACTORS
330
1F5
102
}
330
1F5
100
AcDbScale
 70
     0
300
1:30
140
1.0
141
30.0
290
     0
  0
SCALE
  5
205
102
{ACAD_REACTORS
330
1F5
102
}
330
1F5
100
AcDbScale
 70
     0
300
1:40
140
1.0
141
40.0
290
     0
  0
SCALE
  5
206
102
{ACAD_REACTORS
330
1F5
102
}
330
1F5
100
AcDbScale
 70
     0
300
1:50
140
1.0
141
50.0
290
     0
  0
SCALE
  5
207
102
{ACAD_REACTORS
330
1F5
102
}
330
1F5
100
AcDbScale
 70
     0
300
1:100
140
1.0
141
100.0
290
     0
  0
SCALE
  5
208
102
{ACAD_REACTORS
330
1F5
102
}
330
1F5
100
AcDbScale
 70
     0
300
2:1
140
2.0
141
1.0
290
     0
  0
SCALE
  5
209
102
{ACAD_REACTORS
330
1F5
102
}
330
1F5
100
AcDbScale
 70
     0
300
4:1
140
4.0
141
1.0
290
     0
  0
SCALE
  5
20A
102
{ACAD_REACTORS
330
1F5
102
}
330
1F5
100
AcDbScale
 70
     0
300
8:1
140
8.0
141
1.0
290
     0
  0
SCALE
  5
20B
102
{ACAD_REACTORS
330
1F5
102
}
330
1F5
100
AcDbScale
 70
     0
300
10:1
140
10.0
141
1.0
290
     0
  0
SCALE
  5
20C
102
{ACAD_REACTORS
330
1F5
102
}
330
1F5
100
AcDbScale
 70
     0
300
100:1
140
100.0
141
1.0
290
     0
  0
SCALE
  5
20D
102
{ACAD_REACTORS
330
1F5
102
}
330
1F5
100
AcDbScale
 70
     0
300
1/128" = 1'-0"
140
0.0078125
141
12.0
290
     0
  0
SCALE
  5
20E
102
{ACAD_REACTORS
330
1F5
102
}
330
1F5
100
AcDbScale
 70
     0
300
1/64" = 1'-0"
140
0.015625
141
12.0
290
     0
  0
SCALE
  5
20F
102
{ACAD_REACTORS
330
1F5
102
}
330
1F5
100
AcDbScale
 70
     0
300
1/32" = 1'-0"
140
0.03125
141
12.0
290
     0
  0
SCALE
  5
210
102
{ACAD_REACTORS
330
1F5
102
}
330
1F5
100
AcDbScale
 70
     0
300
1/16" = 1'-0"
140
0.0625
141
12.0
290
     0
  0
SCALE
  5
211
102
{ACAD_REACTORS
330
1F5
102
}
330
1F5
100
AcDbScale
 70
     0
300
3/32" = 1'-0"
140
0.09375
141
12.0
290
     0
  0
SCALE
  5
212
102
{ACAD_REACTORS
330
1F5
102
}
330
1F5
100
AcDbScale
 70
     0
300
1/8" = 1'-0"
140
0.125
141
12.0
290
     0
  0
SCALE
  5
213
102
{ACAD_REACTORS
330
1F5
102
}
330
1F5
100
AcDbScale
 70
     0
300
3/16" = 1'-0"
140
0.1875
141
12.0
290
     0
  0
SCALE
  5
214
102
{ACAD_REACTORS
330
1F5
102
}
330
1F5
100
AcDbScale
 70
     0
300
1/4" = 1'-0"
140
0.25
141
12.0
290
     0
  0
SCALE
  5
215
102
{ACAD_REACTORS
330
1F5
102
}
330
1F5
100
AcDbScale
 70
     0
300
3/8" = 1'-0"
140
0.375
141
12.0
290
     0
  0
SCALE
  5
216
102
{ACAD_REACTORS
330
1F5
102
}
330
1F5
100
AcDbScale
 70
     0
300
1/2" = 1'-0"
140
0.5
141
12.0
290
     0
  0
SCALE
  5
217
102
{ACAD_REACTORS
330
1F5
102
}
330
1F5
100
AcDbScale
 70
     0
300
3/4" = 1'-0"
140
0.75
141
12.0
290
     0
  0
SCALE
  5
218
102
{ACAD_REACTORS
330
1F5
102
}
330
1F5
100
AcDbScale
 70
     0
300
1" = 1'-0"
140
1.0
141
12.0
290
     0
  0
SCALE
  5
219
102
{ACAD_REACTORS
330
1F5
102
}
330
1F5
100
AcDbScale
 70
     0
300
1-1/2" = 1'-0"
140
1.5
141
12.0
290
     0
  0
SCALE
  5
21A
102
{ACAD_REACTORS
330
1F5
102
}
330
1F5
100
AcDbScale
 70
     0
300
3" = 1'-0"
140
3.0
141
12.0
290
     0
  0
SCALE
  5
21B
102
{ACAD_REACTORS
330
1F5
102
}
330
1F5
100
AcDbScale
 70
     0
300
6" = 1'-0"
140
6.0
141
12.0
290
     0
  0
SCALE
  5
21C
102
{ACAD_REACTORS
330
1F5
102
}
330
1F5
100
AcDbScale
 70
     0
300
1'-0" = 1'-0"
140
12.0
141
12.0
290
     0
  0
ACDBSECTIONVIEWSTYLE
  5
11D3
102
{ACAD_REACTORS
330
11D2
102
}
330
11D2
100
AcDbModelDocViewStyle
 70
     0
  3
Imperial24
290
     0
300
Imperial24
 90
        0
100
AcDbSectionViewStyle
 70
     0
 71
     0
 90
       78
 71
     1
340
48
 62
   256
 40
0.24
340
0
340
0
 62
   256
 40
0.24
300
I, O, Q, S, X, Z
 40
0.48
 90
        3
 40
0.18
 90
        1
 71
     2
340
15
 90
       25
 62
   256
340
15
 90
       50
 62
   256
 40
0.24
 40
0.0
 40
0.24
 71
     3
340
48
 62
   256
 40
0.24
 90
        1
 40
0.75
 90
        1
300
%<\AcVar ViewType \f "%tc1">% %<\AcVar ViewSectionStartId>%-%<\AcVar ViewSectionEndId>%\PSCALE %<\AcVar ViewScale \f "%sn">%
 71
     4
 62
   256
 62
   257
300
ANSI31
 40
1.0
 90
        0
290
     0
290
     0
 90
        6
 40
0.0
 40
1.570796326794896
 40
0.2617993877991494
 40
1.308996938995747
 40
-0.2617993877991494
 40
1.832595714594044
  0
TABLESTYLE
  5
1F8
102
{ACAD_XDICTIONARY
360
1F9
102
}
102
{ACAD_REACTORS
330
1F6
102
}
330
1F6
100
AcDbTableStyle
280
     0
  3
Standard
 70
     0
 71
     0
 40
0.06
 41
0.06
280
     0
281
     0
  7
Standard
140
0.18
170
     2
 62
     0
 63
     7
283
     0
 90
      512
 91
        0
  1

274
    -2
284
     1
 64
     0
275
    -2
285
     1
 65
     0
276
    -2
286
     1
 66
     0
277
    -2
287
     1
 67
     0
278
    -2
288
     1
 68
     0
279
    -2
289
     1
 69
     0
  7
Standard
140
0.25
170
     5
 62
     0
 63
     7
283
     0
 90
      512
 91
        0
  1

274
    -2
284
     1
 64
     0
275
    -2
285
     1
 65
     0
276
    -2
286
     1
 66
     0
277
    -2
287
     1
 67
     0
278
    -2
288
     1
 68
     0
279
    -2
289
     1
 69
     0
  7
Standard
140
0.18
170
     5
 62
     0
 63
     7
283
     0
 90
      512
 91
        0
  1

274
    -2
284
     1
 64
     0
275
    -2
285
     1
 65
     0
276
    -2
286
     1
 66
     0
277
    -2
287
     1
 67
     0
278
    -2
288
     1
 68
     0
279
    -2
289
     1
 69
     0
  0
VISUALSTYLE
  5
1DA
102
{ACAD_REACTORS
330
1DB
102
}
330
1DB
100
AcDbVisualStyle
  2

 70
     4
177
     3
291
     0
 70
    58
 90
        0
176
     1
 90
        2
176
     1
 90
        0
176
     1
 90
        0
176
     1
 40
0.6
176
     1
 40
30.0
176
     1
 62
     7
176
     1
 90
        1
176
     1
 90
        4
176
     1
 62
     7
176
     1
 62
   257
176
     1
 90
        1
176
     1
 90
        1
176
     1
 40
1.0
176
     1
 90
        0
176
     1
 62
   257
176
     1
 40
1.0
176
     1
 90
        1
176
     1
 90
        6
176
     1
 90
        2
176
     1
 62
     7
176
     1
 90
        5
176
     1
 90
        0
176
     1
 90
        0
176
     1
290
     0
176
     1
 90
        1
176
     1
 40
0.0
176
     1
 90
        0
176
     1
290
     1
176
     1
290
     1
176
     1
290
     0
176
     1
290
     0
176
     1
290
     0
176
     1
290
     0
176
     1
290
     0
176
     1
290
     0
176
     1
290
     0
176
     1
 90
       50
176
     1
 40
0.0
176
     1
 40
1.0
176
     1
 90
        0
176
     1
 62
    18
176
     1
 90
       50
176
     1
 90
        3
176
     1
 62
     5
420
      255
176
     1
290
     0
176
     1
 90
       50
176
     1
 90
       50
176
     1
 90
       50
176
     1
290
     0
176
     1
 90
       50
176
     1
 62
   256
176
     0
 40
1.0
176
     0
 90
        2
176
     1
  1
strokes_ogs.tif
176
     1
290
     0
176
     1
 40
1.0
176
     1
 40
1.0
176
     1
1001
ACAD
1000
AcDbSavedByObjectVersion
1070
     0
1000
AcDbSavedByObjectVersion
1070
     0
1000
AcDbSavedByObjectVersion
1070
     0
1000
AcDbSavedByObjectVersion
1070
     0
1000
AcDbSavedByObjectVersion
1070
     0
1000
AcDbSavedByObjectVersion
1070
     0
1000
AcDbSavedByObjectVersion
1070
     0
1000
AcDbSavedByObjectVersion
1070
     0
1000
AcDbSavedByObjectVersion
1070
     0
1000
AcDbSavedByObjectVersion
1070
     0
1000
AcDbSavedByObjectVersion
1070
     0
1000
AcDbSavedByObjectVersion
1070
     0
1000
AcDbSavedByObjectVersion
1070
     0
1000
AcDbSavedByObjectVersion
1070
     0
1000
AcDbSavedByObjectVersion
1070
     0
1000
AcDbSavedByObjectVersion
1070
     0
1000
AcDbSavedByObjectVersion
1070
     0
1000
AcDbSavedByObjectVersion
1070
     0
1000
AcDbSavedByObjectVersion
1070
     0
1000
AcDbSavedByObjectVersion
1070
     0
1000
AcDbSavedByObjectVersion
1070
     0
1000
AcDbSavedByObjectVersion
1070
     0
1000
AcDbSavedByObjectVersion
1070
     0
1000
AcDbSavedByObjectVersion
1070
     0
1000
AcDbSavedByObjectVersion
1070
     0
1000
AcDbSavedByObjectVersion
1070
     0
1000
AcDbSavedByObjectVersion
1070
     0
1000
AcDbSavedByObjectVersion
1070
     0
1000
AcDbSavedByObjectVersion
1070
     0
1000
AcDbSavedByObjectVersion
1070
     0
1000
AcDbSavedByObjectVersion
1070
     0
1000
AcDbSavedByObjectVersion
1070
     0
1000
AcDbSavedByObjectVersion
1070
     0
1000
AcDbSavedByObjectVersion
1070
     0
1000
AcDbSavedByObjectVersion
1070
     0
1000
AcDbSavedByObjectVersion
1070
     0
1000
AcDbSavedByObjectVersion
1070
     0
  0
VISUALSTYLE
  5
24D
102
{ACAD_REACTORS
330
1DB
102
}
330
1DB
100
AcDbVisualStyle
  2

 70
     6
177
     3
291
     0
 70
    58
 90
        1
176
     1
 90
        2
176
     1
 90
        2
176
     1
 90
        0
176
     1
 40
0.6
176
     1
 40
30.0
176
     1
 62
     7
176
     1
 90
        2
176
     1
 90
        2
176
     1
 62
     7
176
     1
 62
   257
176
     1
 90
        2
176
     1
 90
        1
176
     1
 40
40.0
176
     1
 90
        0
176
     1
 62
   257
176
     1
 40
1.0
176
     1
 90
        1
176
     1
 90
        6
176
     1
 90
        2
176
     1
 62
     7
176
     1
 90
        3
176
     1
 90
        0
176
     1
 90
        0
176
     1
290
     0
176
     1
 90
        1
176
     1
 40
0.0
176
     1
 90
        0
176
     1
290
     0
176
     1
290
     1
176
     1
290
     1
176
     1
290
     0
176
     1
290
     0
176
     1
290
     0
176
     1
290
     0
176
     1
290
     0
176
     1
290
     0
176
     1
 90
       50
176
     1
 40
0.0
176
     1
 40
1.0
176
     1
 90
        0
176
     1
 62
    18
176
     1
 90
       50
176
     1
 90
        3
176
     1
 62
     5
420
      255
176
     1
290
     0
176
     1
 90
       50
176
     1
 90
       50
176
     1
 90
       50
176
     1
290
     0
176
     1
 90
       50
176
     1
 62
   256
176
     0
 40
1.0
176
     0
 90
        2
176
     1
  1
strokes_ogs.tif
176
     1
290
     0
176
     1
 40
1.0
176
     1
 40
1.0
176
     1
1001
ACAD
1000
AcDbSavedByObjectVersion
1070
     0
1000
AcDbSavedByObjectVersion
1070
     0
1000
AcDbSavedByObjectVersion
1070
     0
1000
AcDbSavedByObjectVersion
1070
     0
  0
VISUALSTYLE
  5
1FB
102
{ACAD_REACTORS
330
1DB
102
}
330
1DB
100
AcDbVisualStyle
  2

 70
     5
177
     3
291
     0
 70
    58
 90
        0
176
     1
 90
        2
176
     1
 90
        0
176
     1
 90
        0
176
     1
 40
0.6
176
     1
 40
30.0
176
     1
 62
     7
176
     1
 90
        1
176
     1
 90
        4
176
     1
 62
     7
176
     1
 62
   257
176
     1
 90
        1
176
     1
 90
        1
176
     1
 40
1.0
176
     1
 90
        0
176
     1
 62
   257
176
     1
 40
1.0
176
     1
 90
        1
176
     1
 90
        6
176
     1
 90
        2
176
     1
 62
     7
176
     1
 90
        5
176
     1
 90
        0
176
     1
 90
        0
176
     1
290
     0
176
     1
 90
        1
176
     1
 40
0.0
176
     1
 90
        0
176
     1
290
     0
176
     1
290
     1
176
     1
290
     1
176
     1
290
     0
176
     1
290
     0
176
     1
290
     0
176
     1
290
     0
176
     1
290
     0
176
     1
290
     0
176
     1
 90
       50
176
     1
 40
0.0
176
     1
 40
1.0
176
     1
 90
        0
176
     1
 62
    18
176
     1
 90
       50
176
     1
 90
        3
176
     1
 62
     5
420
      255
176
     1
290
     0
176
     1
 90
       50
176
     1
 90
       50
176
     1
 90
       50
176
     1
290
     0
176
     1
 90
       50
176
     1
 62
   256
176
     0
 40
1.0
176
     0
 90
        2
176
     1
  1
strokes_ogs.tif
176
     1
290
     0
176
     1
 40
1.0
176
     1
 40
1.0
176
     1
1001
ACAD
1000
AcDbSavedByObjectVersion
1070
     0
1000
AcDbSavedByObjectVersion
1070
     0
1000
AcDbSavedByObjectVersion
1070
     0
1000
AcDbSavedByObjectVersion
1070
     0
1000
AcDbSavedByObjectVersion
1070
     0
1000
AcDbSavedByObjectVersion
1070
     0
1000
AcDbSavedByObjectVersion
1070
     0
1000
AcDbSavedByObjectVersion
1070
     0
1000
AcDbSavedByObjectVersion
1070
     0
1000
AcDbSavedByObjectVersion
1070
     0
1000
AcDbSavedByObjectVersion
1070
     0
1000
AcDbSavedByObjectVersion
1070
     0
1000
AcDbSavedByObjectVersion
1070
     0
1000
AcDbSavedByObjectVersion
1070
     0
1000
AcDbSavedByObjectVersion
1070
     0
1000
AcDbSavedByObjectVersion
1070
     0
1000
AcDbSavedByObjectVersion
1070
     0
1000
AcDbSavedByObjectVersion
1070
     0
1000
AcDbSavedByObjectVersion
1070
     0
1000
AcDbSavedByObjectVersion
1070
     0
1000
AcDbSavedByObjectVersion
1070
     0
1000
AcDbSavedByObjectVersion
1070
     0
1000
AcDbSavedByObjectVersion
1070
     0
1000
AcDbSavedByObjectVersion
1070
     0
1000
AcDbSavedByObjectVersion
1070
     0
1000
AcDbSavedByObjectVersion
1070
     0
1000
AcDbSavedByObjectVersion
1070
     0
1000
AcDbSavedByObjectVersion
1070
     0
1000
AcDbSavedByObjectVersion
1070
     0
1000
AcDbSavedByObjectVersion
1070
     0
1000
AcDbSavedByObjectVersion
1070
     0
1000
AcDbSavedByObjectVersion
1070
     0
1000
AcDbSavedByObjectVersion
1070
     0
1000
AcDbSavedByObjectVersion
1070
     0
1000
AcDbSavedByObjectVersion
1070
     0
1000
AcDbSavedByObjectVersion
1070
     0
1000
AcDbSavedByObjectVersion
1070
     0
  0
VISUALSTYLE
  5
24C
102
{ACAD_REACTORS
330
1DB
102
}
330
1DB
100
AcDbVisualStyle
  2

 70
     7
177
     3
291
     1
 70
    58
 90
        1
176
     1
 90
        0
176
     1
 90
        1
176
     1
 90
        0
176
     1
 40
0.6
176
     1
 40
30.0
176
     1
 62
     7
176
     1
 90
        0
176
     1
 90
        4
176
     1
 62
     7
176
     1
 62
   257
176
     1
 90
        1
176
     1
 90
        1
176
     1
 40
1.0
176
     1
 90
        8
176
     1
 62
     7
176
     1
 40
1.0
176
     1
 90
        1
176
     1
 90
        6
176
     1
 90
        2
176
     1
 62
     7
176
     1
 90
        5
176
     1
 90
        0
176
     1
 90
        0
176
     1
290
     0
176
     1
 90
        1
176
     1
 40
0.0
176
     1
 90
        0
176
     1
290
     0
176
     1
290
     1
176
     1
290
     1
176
     1
290
     0
176
     1
290
     0
176
     1
290
     0
176
     1
290
     0
176
     1
290
     0
176
     1
290
     0
176
     1
 90
       50
176
     1
 40
0.0
176
     1
 40
1.0
176
     1
 90
        0
176
     1
 62
    18
176
     1
 90
       50
176
     1
 90
        3
176
     1
 62
     5
420
      255
176
     1
290
     0
176
     1
 90
       50
176
     1
 90
       50
176
     1
 90
       50
176
     1
290
     0
176
     1
 90
       50
176
     1
 62
   256
176
     0
 40
1.0
176
     0
 90
        2
176
     1
  1
strokes_ogs.tif
176
     1
290
     0
176
     1
 40
1.0
176
     1
 40
1.0
176
     1
1001
ACAD
1000
AcDbSavedByObjectVersion
1070
     0
1000
AcDbSavedByObjectVersion
1070
     0
1000
AcDbSavedByObjectVersion
1070
     0
1000
AcDbSavedByObjectVersion
1070
     0
  0
VISUALSTYLE
  5
250
102
{ACAD_REACTORS
330
1DB
102
}
330
1DB
100
AcDbVisualStyle
  2

 70
    12
177
     3
291
     1
 70
    58
 90
        2
176
     1
 90
        2
176
     1
 90
        0
176
     1
 90
        0
176
     1
 40
0.6
176
     1
 40
30.0
176
     1
 62
     7
176
     1
 90
        1
176
     1
 90
        4
176
     1
 62
     7
176
     1
 62
   257
176
     1
 90
        1
176
     1
 90
        1
176
     1
 40
1.0
176
     1
 90
        8
176
     1
 62
     7
176
     1
 40
1.0
176
     1
 90
        1
176
     1
 90
        6
176
     1
 90
        2
176
     1
 62
     7
176
     1
 90
        5
176
     1
 90
        0
176
     1
 90
        0
176
     1
290
     0
176
     1
 90
        1
176
     1
 40
50.0
176
     1
 90
        0
176
     1
290
     0
176
     1
290
     1
176
     1
290
     1
176
     1
290
     0
176
     1
290
     0
176
     1
290
     0
176
     1
290
     0
176
     1
290
     0
176
     1
290
     0
176
     1
 90
       50
176
     1
 40
0.0
176
     1
 40
1.0
176
     1
 90
        0
176
     1
 62
    18
176
     1
 90
       50
176
     1
 90
        3
176
     1
 62
     5
420
      255
176
     1
290
     0
176
     1
 90
       50
176
     1
 90
       50
176
     1
 90
       50
176
     1
290
     0
176
     1
 90
       50
176
     1
 62
   256
176
     0
 40
1.0
176
     0
 90
        2
176
     1
  1
strokes_ogs.tif
176
     1
290
     0
176
     1
 40
1.0
176
     1
 40
1.0
176
     1
1001
ACAD
1000
AcDbSavedByObjectVersion
1070
     0
1000
AcDbSavedByObjectVersion
1070
     0
1000
AcDbSavedByObjectVersion
1070
     0
1000
AcDbSavedByObjectVersion
1070
     0
  0
VISUALSTYLE
  5
254
102
{ACAD_REACTORS
330
1DB
102
}
330
1DB
100
AcDbVisualStyle
  2

 70
    16
177
     3
291
     1
 70
    58
 90
        2
176
     1
 90
        2
176
     1
 90
        3
176
     1
 90
        0
176
     1
 40
0.6
176
     1
 40
30.0
176
     1
 62
     8
176
     1
 90
        1
176
     1
 90
        4
176
     1
 62
     7
176
     1
 62
   257
176
     1
 90
        1
176
     1
 90
        1
176
     1
 40
1.0
176
     1
 90
        8
176
     1
 62
     8
176
     1
 40
1.0
176
     1
 90
        1
176
     1
 90
        6
176
     1
 90
        2
176
     1
 62
     7
176
     1
 90
        5
176
     1
 90
        0
176
     1
 90
        0
176
     1
290
     0
176
     1
 90
        1
176
     1
 40
0.0
176
     1
 90
        0
176
     1
290
     0
176
     1
290
     1
176
     1
290
     1
176
     1
290
     0
176
     1
290
     0
176
     1
290
     0
176
     1
290
     0
176
     1
290
     0
176
     1
290
     0
176
     1
 90
       50
176
     1
 40
0.0
176
     1
 40
1.0
176
     1
 90
        0
176
     1
 62
    18
176
     1
 90
       50
176
     1
 90
        3
176
     1
 62
     5
420
      255
176
     1
290
     0
176
     1
 90
       50
176
     1
 90
       50
176
     1
 90
       50
176
     1
290
     0
176
     1
 90
       50
176
     1
 62
   256
176
     0
 40
1.0
176
     0
 90
        2
176
     1
  1
strokes_ogs.tif
176
     1
290
     0
176
     1
 40
1.0
176
     1
 40
1.0
176
     1
1001
ACAD
1000
AcDbSavedByObjectVersion
1070
     0
1000
AcDbSavedByObjectVersion
1070
     0
1000
AcDbSavedByObjectVersion
1070
     0
1000
AcDbSavedByObjectVersion
1070
     0
  0
VISUALSTYLE
  5
24E
102
{ACAD_REACTORS
330
1DB
102
}
330
1DB
100
AcDbVisualStyle
  2

 70
     9
177
     3
291
     0
 70
    58
 90
        3
176
     1
 90
        2
176
     1
 90
        0
176
     1
 90
        0
176
     1
 40
0.6
176
     1
 40
30.0
176
     1
 62
     7
176
     1
 90
        2
176
     1
 90
        2
176
     1
 62
     7
176
     1
 62
   257
176
     1
 90
        1
176
     1
 90
        1
176
     1
 40
40.0
176
     1
 90
        8
176
     1
 62
     7
176
     1
 40
1.0
176
     1
 90
        1
176
     1
 90
        6
176
     1
 90
        2
176
     1
 62
     7
176
     1
 90
        3
176
     1
 90
        0
176
     1
 90
        0
176
     1
290
     0
176
     1
 90
        1
176
     1
 40
0.0
176
     1
 90
        0
176
     1
290
     0
176
     1
290
     1
176
     1
290
     1
176
     1
290
     0
176
     1
290
     0
176
     1
290
     0
176
     1
290
     0
176
     1
290
     0
176
     1
290
     0
176
     1
 90
       50
176
     1
 40
0.0
176
     1
 40
1.0
176
     1
 90
        0
176
     1
 62
    18
176
     1
 90
       50
176
     1
 90
        3
176
     1
 62
     5
420
      255
176
     1
290
     0
176
     1
 90
       50
176
     1
 90
       50
176
     1
 90
       50
176
     1
290
     0
176
     1
 90
       50
176
     1
 62
   256
176
     0
 40
1.0
176
     0
 90
        2
176
     1
  1
strokes_ogs.tif
176
     1
290
     0
176
     1
 40
1.0
176
     1
 40
1.0
176
     1
1001
ACAD
1000
AcDbSavedByObjectVersion
1070
     0
1000
AcDbSavedByObjectVersion
1070
     0
1000
AcDbSavedByObjectVersion
1070
     0
1000
AcDbSavedByObjectVersion
1070
     0
  0
VISUALSTYLE
  5
24F
102
{ACAD_REACTORS
330
1DB
102
}
330
1DB
100
AcDbVisualStyle
  2

 70
    11
177
     3
291
     1
 70
    58
 90
        2
176
     1
 90
        2
176
     1
 90
        0
176
     1
 90
        0
176
     1
 40
0.6
176
     1
 40
30.0
176
     1
 62
     7
176
     1
 90
        1
176
     1
 90
        4
176
     1
 62
     7
176
     1
 62
   257
176
     1
 90
        1
176
     1
 90
        1
176
     1
 40
1.0
176
     1
 90
        8
176
     1
 62
     7
176
     1
 40
1.0
176
     1
 90
        1
176
     1
 90
        6
176
     1
 90
        2
176
     1
 62
     7
176
     1
 90
        5
176
     1
 90
        0
176
     1
 90
        0
176
     1
290
     0
176
     1
 90
        1
176
     1
 40
-50.0
176
     1
 90
        0
176
     1
290
     0
176
     1
290
     1
176
     1
290
     1
176
     1
290
     0
176
     1
290
     0
176
     1
290
     0
176
     1
290
     0
176
     1
290
     0
176
     1
290
     0
176
     1
 90
       50
176
     1
 40
0.0
176
     1
 40
1.0
176
     1
 90
        0
176
     1
 62
    18
176
     1
 90
       50
176
     1
 90
        3
176
     1
 62
     5
420
      255
176
     1
290
     0
176
     1
 90
       50
176
     1
 90
       50
176
     1
 90
       50
176
     1
290
     0
176
     1
 90
       50
176
     1
 62
   256
176
     0
 40
1.0
176
     0
 90
        2
176
     1
  1
strokes_ogs.tif
176
     1
290
     0
176
     1
 40
1.0
176
     1
 40
1.0
176
     1
1001
ACAD
1000
AcDbSavedByObjectVersion
1070
     0
1000
AcDbSavedByObjectVersion
1070
     0
1000
AcDbSavedByObjectVersion
1070
     0
1000
AcDbSavedByObjectVersion
1070
     0
  0
VISUALSTYLE
  5
11D1
102
{ACAD_REACTORS
330
1DB
102
}
330
1DB
100
AcDbVisualStyle
  2
EdgeColorOff
 70
    22
177
     3
291
     1
 70
    58
 90
        2
176
     0
 90
        2
176
     0
 90
        0
176
     0
 90
        0
176
     0
 40
0.6
176
     0
 40
30.0
176
     0
 62
     7
420
 16777215
176
     0
 90
        1
176
     0
 90
        4
176
     0
 62
     7
176
     0
 62
   257
176
     0
 90
        1
176
     0
 90
        1
176
     0
 40
1.0
176
     0
 90
        8
176
     2
 62
     7
176
     0
 40
1.0
176
     0
 90
        1
176
     0
 90
        6
176
     0
 90
        2
176
     0
 62
     7
176
     0
 90
        5
176
     0
 90
        0
176
     0
 90
        0
176
     0
290
     0
176
     0
 90
        1
176
     0
 40
0.0
176
     0
 90
        0
176
     0
290
     0
176
     1
290
     1
176
     1
290
     1
176
     1
290
     0
176
     1
290
     0
176
     1
290
     0
176
     1
290
     0
176
     1
290
     0
176
     1
290
     0
176
     1
 90
       50
176
     0
 40
0.0
176
     0
 40
1.0
176
     0
 90
        0
176
     0
 62
    18
176
     0
 90
       50
176
     0
 90
        3
176
     0
 62
     5
420
      255
176
     0
290
     0
176
     1
 90
       50
176
     0
 90
       50
176
     0
 90
       50
176
     0
290
     0
176
     1
 90
       50
176
     0
 62
   256
176
     0
 40
1.0
176
     0
 90
        2
176
     0
  1
strokes_ogs.tif
176
     0
290
     0
176
     1
 40
1.0
176
     0
 40
1.0
176
     0
  0
VISUALSTYLE
  5
253
102
{ACAD_REACTORS
330
1DB
102
}
330
1DB
100
AcDbVisualStyle
  2

 70
    15
177
     3
291
     1
 70
    58
 90
        2
176
     1
 90
        2
176
     1
 90
        0
176
     1
 90
        0
176
     1
 40
0.6
176
     1
 40
30.0
176
     1
 62
     7
176
     1
 90
        1
176
     1
 90
        4
176
     1
 62
     7
176
     1
 62
   257
176
     1
 90
        1
176
     1
 90
        1
176
     1
 40
1.0
176
     1
 90
        8
176
     1
 62
     7
176
     1
 40
1.0
176
     1
 90
        1
176
     1
 90
        6
176
     1
 90
        2
176
     1
 62
     7
176
     1
 90
        5
176
     1
 90
        0
176
     1
 90
        0
176
     1
290
     0
176
     1
 90
        1
176
     1
 40
0.0
176
     1
 90
        0
176
     1
290
     0
176
     1
290
     1
176
     1
290
     1
176
     1
290
     0
176
     1
290
     0
176
     1
290
     0
176
     1
290
     0
176
     1
290
     0
176
     1
290
     0
176
     1
 90
       50
176
     1
 40
0.0
176
     1
 40
1.0
176
     1
 90
        0
176
     1
 62
    18
176
     1
 90
       50
176
     1
 90
        3
176
     1
 62
     5
420
      255
176
     1
290
     0
176
     1
 90
       50
176
     1
 90
       50
176
     1
 90
       50
176
     1
290
     0
176
     1
 90
       50
176
     1
 62
   256
176
     0
 40
1.0
176
     0
 90
        2
176
     1
  1
strokes_ogs.tif
176
     1
290
     0
176
     1
 40
1.0
176
     1
 40
1.0
176
     1
1001
ACAD
1000
AcDbSavedByObjectVersion
1070
     0
1000
AcDbSavedByObjectVersion
1070
     0
1000
AcDbSavedByObjectVersion
1070
     0
1000
AcDbSavedByObjectVersion
1070
     0
  0
VISUALSTYLE
  5
248
102
{ACAD_REACTORS
330
1DB
102
}
330
1DB
100
AcDbVisualStyle
  2

 70
     0
177
     3
291
     1
 70
    58
 90
        2
176
     1
 90
        1
176
     1
 90
        1
176
     1
 90
        2
176
     1
 40
0.6
176
     1
 40
30.0
176
     1
 62
     7
176
     1
 90
        0
176
     1
 90
        4
176
     1
 62
     7
176
     1
 62
   257
176
     1
 90
        1
176
     1
 90
        1
176
     1
 40
1.0
176
     1
 90
        8
176
     1
 62
     7
176
     1
 40
1.0
176
     1
 90
        1
176
     1
 90
        6
176
     1
 90
        2
176
     1
 62
     7
176
     1
 90
        5
176
     1
 90
        0
176
     1
 90
        0
176
     1
290
     0
176
     1
 90
       13
176
     1
 40
0.0
176
     1
 90
        0
176
     1
290
     0
176
     1
290
     1
176
     1
290
     1
176
     1
290
     0
176
     1
290
     0
176
     1
290
     0
176
     1
290
     0
176
     1
290
     0
176
     1
290
     0
176
     1
 90
       50
176
     1
 40
0.0
176
     1
 40
1.0
176
     1
 90
        0
176
     1
 62
    18
176
     1
 90
       50
176
     1
 90
        3
176
     1
 62
     5
420
      255
176
     1
290
     0
176
     1
 90
       50
176
     1
 90
       50
176
     1
 90
       50
176
     1
290
     0
176
     1
 90
       50
176
     1
 62
   256
176
     0
 40
1.0
176
     0
 90
        2
176
     1
  1
strokes_ogs.tif
176
     1
290
     0
176
     1
 40
1.0
176
     1
 40
1.0
176
     1
1001
ACAD
1000
AcDbSavedByObjectVersion
1070
     0
1000
AcDbSavedByObjectVersion
1070
     0
1000
AcDbSavedByObjectVersion
1070
     0
1000
AcDbSavedByObjectVersion
1070
     0
  0
VISUALSTYLE
  5
249
102
{ACAD_REACTORS
330
1DB
102
}
330
1DB
100
AcDbVisualStyle
  2

 70
     1
177
     3
291
     1
 70
    58
 90
        2
176
     1
 90
        1
176
     1
 90
        1
176
     1
 90
        2
176
     1
 40
0.6
176
     1
 40
30.0
176
     1
 62
     7
176
     1
 90
        1
176
     1
 90
        4
176
     1
 62
     7
176
     1
 62
   257
176
     1
 90
        1
176
     1
 90
        1
176
     1
 40
1.0
176
     1
 90
        0
176
     1
 62
   257
176
     1
 40
1.0
176
     1
 90
        1
176
     1
 90
        6
176
     1
 90
        2
176
     1
 62
     7
176
     1
 90
        5
176
     1
 90
        0
176
     1
 90
        0
176
     1
290
     0
176
     1
 90
       13
176
     1
 40
0.0
176
     1
 90
        0
176
     1
290
     0
176
     1
290
     1
176
     1
290
     1
176
     1
290
     0
176
     1
290
     0
176
     1
290
     0
176
     1
290
     0
176
     1
290
     0
176
     1
290
     0
176
     1
 90
       50
176
     1
 40
0.0
176
     1
 40
1.0
176
     1
 90
        0
176
     1
 62
    18
176
     1
 90
       50
176
     1
 90
        3
176
     1
 62
     5
420
      255
176
     1
290
     0
176
     1
 90
       50
176
     1
 90
       50
176
     1
 90
       50
176
     1
290
     0
176
     1
 90
       50
176
     1
 62
   256
176
     0
 40
1.0
176
     0
 90
        2
176
     1
  1
strokes_ogs.tif
176
     1
290
     0
176
     1
 40
1.0
176
     1
 40
1.0
176
     1
1001
ACAD
1000
AcDbSavedByObjectVersion
1070
     0
1000
AcDbSavedByObjectVersion
1070
     0
1000
AcDbSavedByObjectVersion
1070
     0
1000
AcDbSavedByObjectVersion
1070
     0
  0
VISUALSTYLE
  5
24A
102
{ACAD_REACTORS
330
1DB
102
}
330
1DB
100
AcDbVisualStyle
  2

 70
     2
177
     3
291
     1
 70
    58
 90
        2
176
     1
 90
        2
176
     1
 90
        1
176
     1
 90
        2
176
     1
 40
0.6
176
     1
 40
30.0
176
     1
 62
     7
176
     1
 90
        0
176
     1
 90
        4
176
     1
 62
     7
176
     1
 62
   257
176
     1
 90
        1
176
     1
 90
        1
176
     1
 40
1.0
176
     1
 90
        0
176
     1
 62
     7
176
     1
 40
1.0
176
     1
 90
        1
176
     1
 90
        6
176
     1
 90
        2
176
     1
 62
     7
176
     1
 90
        5
176
     1
 90
        0
176
     1
 90
        0
176
     1
290
     0
176
     1
 90
       13
176
     1
 40
0.0
176
     1
 90
        0
176
     1
290
     0
176
     1
290
     1
176
     1
290
     1
176
     1
290
     0
176
     1
290
     0
176
     1
290
     0
176
     1
290
     0
176
     1
290
     0
176
     1
290
     0
176
     1
 90
       50
176
     1
 40
0.0
176
     1
 40
1.0
176
     1
 90
        0
176
     1
 62
    18
176
     1
 90
       50
176
     1
 90
        3
176
     1
 62
     5
420
      255
176
     1
290
     0
176
     1
 90
       50
176
     1
 90
       50
176
     1
 90
       50
176
     1
290
     0
176
     1
 90
       50
176
     1
 62
   256
176
     0
 40
1.0
176
     0
 90
        2
176
     1
  1
strokes_ogs.tif
176
     1
290
     0
176
     1
 40
1.0
176
     1
 40
1.0
176
     1
1001
ACAD
1000
AcDbSavedByObjectVersion
1070
     0
1000
AcDbSavedByObjectVersion
1070
     0
1000
AcDbSavedByObjectVersion
1070
     0
1000
AcDbSavedByObjectVersion
1070
     0
  0
VISUALSTYLE
  5
24B
102
{ACAD_REACTORS
330
1DB
102
}
330
1DB
100
AcDbVisualStyle
  2

 70
     3
177
     3
291
     1
 70
    58
 90
        2
176
     1
 90
        2
176
     1
 90
        1
176
     1
 90
        2
176
     1
 40
0.6
176
     1
 40
30.0
176
     1
 62
     7
176
     1
 90
        1
176
     1
 90
        4
176
     1
 62
     7
176
     1
 62
   257
176
     1
 90
        1
176
     1
 90
        1
176
     1
 40
1.0
176
     1
 90
        0
176
     1
 62
   257
176
     1
 40
1.0
176
     1
 90
        1
176
     1
 90
        6
176
     1
 90
        2
176
     1
 62
     7
176
     1
 90
        5
176
     1
 90
        0
176
     1
 90
        0
176
     1
290
     0
176
     1
 90
       13
176
     1
 40
0.0
176
     1
 90
        0
176
     1
290
     0
176
     1
290
     1
176
     1
290
     1
176
     1
290
     0
176
     1
290
     0
176
     1
290
     0
176
     1
290
     0
176
     1
290
     0
176
     1
290
     0
176
     1
 90
       50
176
     1
 40
0.0
176
     1
 40
1.0
176
     1
 90
        0
176
     1
 62
    18
176
     1
 90
       50
176
     1
 90
        3
176
     1
 62
     5
420
      255
176
     1
290
     0
176
     1
 90
       50
176
     1
 90
       50
176
     1
 90
       50
176
     1
290
     0
176
     1
 90
       50
176
     1
 62
   256
176
     0
 40
1.0
176
     0
 90
        2
176
     1
  1
strokes_ogs.tif
176
     1
290
     0
176
     1
 40
1.0
176
     1
 40
1.0
176
     1
1001
ACAD
1000
AcDbSavedByObjectVersion
1070
     0
1000
AcDbSavedByObjectVersion
1070
     0
1000
AcDbSavedByObjectVersion
1070
     0
1000
AcDbSavedByObjectVersion
1070
     0
  0
VISUALSTYLE
  5
11C9
102
{ACAD_REACTORS
330
1DB
102
}
330
1DB
100
AcDbVisualStyle
  2
Hidden
 70
     6
177
     3
291
     0
 70
    58
 90
        1
176
     1
 90
        2
176
     1
 90
        2
176
     1
 90
        0
176
     1
 40
0.6
176
     1
 40
30.0
176
     1
 62
     7
420
 16777215
176
     1
 90
        2
176
     1
 90
        2
176
     1
 62
     7
176
     1
 62
   257
176
     1
 90
        2
176
     1
 90
        1
176
     1
 40
40.0
176
     1
 90
        0
176
     1
 62
   257
176
     1
 40
1.0
176
     1
 90
        1
176
     1
 90
        6
176
     1
 90
        2
176
     1
 62
     7
176
     1
 90
        3
176
     1
 90
        0
176
     1
 90
        0
176
     1
290
     0
176
     1
 90
        1
176
     1
 40
0.0
176
     1
 90
        0
176
     1
290
     0
176
     1
290
     1
176
     1
290
     1
176
     1
290
     0
176
     1
290
     0
176
     1
290
     0
176
     1
290
     0
176
     1
290
     0
176
     1
290
     0
176
     1
 90
       50
176
     1
 40
0.0
176
     1
 40
1.0
176
     1
 90
        0
176
     1
 62
    18
176
     1
 90
       50
176
     1
 90
        3
176
     1
 62
     5
420
      255
176
     1
290
     0
176
     1
 90
       50
176
     1
 90
       50
176
     1
 90
       50
176
     1
290
     0
176
     1
 90
       50
176
     1
 62
   256
176
     0
 40
1.0
176
     0
 90
        2
176
     1
  1
strokes_ogs.tif
176
     1
290
     0
176
     1
 40
1.0
176
     1
 40
1.0
176
     1
  0
VISUALSTYLE
  5
11CF
102
{ACAD_REACTORS
330
1DB
102
}
330
1DB
100
AcDbVisualStyle
  2
JitterOff
 70
    20
177
     3
291
     1
 70
    58
 90
        2
176
     0
 90
        2
176
     0
 90
        0
176
     0
 90
        0
176
     0
 40
0.6
176
     0
 40
30.0
176
     0
 62
     7
420
 16777215
176
     0
 90
        1
176
     0
 90
        4
176
     0
 62
     7
176
     0
 62
   257
176
     0
 90
        1
176
     0
 90
        1
176
     0
 40
1.0
176
     0
 90
       10
176
     2
 62
     7
176
     0
 40
1.0
176
     0
 90
        1
176
     0
 90
        6
176
     0
 90
        2
176
     0
 62
     7
176
     0
 90
        5
176
     0
 90
        0
176
     0
 90
        0
176
     0
290
     0
176
     0
 90
        1
176
     0
 40
0.0
176
     0
 90
        0
176
     0
290
     0
176
     1
290
     1
176
     1
290
     1
176
     1
290
     0
176
     1
290
     0
176
     1
290
     0
176
     1
290
     0
176
     1
290
     0
176
     1
290
     0
176
     1
 90
       50
176
     0
 40
0.0
176
     0
 40
1.0
176
     0
 90
        0
176
     0
 62
    18
176
     0
 90
       50
176
     0
 90
        3
176
     0
 62
     5
420
      255
176
     0
290
     0
176
     1
 90
       50
176
     0
 90
       50
176
     0
 90
       50
176
     0
290
     0
176
     1
 90
       50
176
     0
 62
   256
176
     0
 40
1.0
176
     0
 90
        2
176
     0
  1
strokes_ogs.tif
176
     0
290
     0
176
     1
 40
1.0
176
     0
 40
1.0
176
     0
  0
VISUALSTYLE
  5
252
102
{ACAD_REACTORS
330
1DB
102
}
330
1DB
100
AcDbVisualStyle
  2

 70
    14
177
     3
291
     1
 70
    58
 90
        2
176
     1
 90
        2
176
     1
 90
        0
176
     1
 90
        0
176
     1
 40
0.6
176
     1
 40
30.0
176
     1
 62
     7
176
     1
 90
        1
176
     1
 90
        4
176
     1
 62
     7
176
     1
 62
   257
176
     1
 90
        7
176
     1
 90
        7
176
     1
 40
1.0
176
     1
 90
        8
176
     1
 62
     7
176
     1
 40
1.0
176
     1
 90
        1
176
     1
 90
        6
176
     1
 90
        2
176
     1
 62
     7
176
     1
 90
        5
176
     1
 90
        0
176
     1
 90
        0
176
     1
290
     0
176
     1
 90
        1
176
     1
 40
0.0
176
     1
 90
        0
176
     1
290
     0
176
     1
290
     1
176
     1
290
     1
176
     1
290
     0
176
     1
290
     0
176
     1
290
     0
176
     1
290
     0
176
     1
290
     0
176
     1
290
     0
176
     1
 90
       50
176
     1
 40
0.0
176
     1
 40
1.0
176
     1
 90
        0
176
     1
 62
    18
176
     1
 90
       50
176
     1
 90
        3
176
     1
 62
     5
420
      255
176
     1
290
     0
176
     1
 90
       50
176
     1
 90
       50
176
     1
 90
       50
176
     1
290
     0
176
     1
 90
       50
176
     1
 62
   256
176
     0
 40
1.0
176
     0
 90
        2
176
     1
  1
strokes_ogs.tif
176
     1
290
     0
176
     1
 40
1.0
176
     1
 40
1.0
176
     1
1001
ACAD
1000
AcDbSavedByObjectVersion
1070
     0
1000
AcDbSavedByObjectVersion
1070
     0
1000
AcDbSavedByObjectVersion
1070
     0
1000
AcDbSavedByObjectVersion
1070
     0
  0
VISUALSTYLE
  5
11D0
102
{ACAD_REACTORS
330
1DB
102
}
330
1DB
100
AcDbVisualStyle
  2
OverhangOff
 70
    21
177
     3
291
     1
 70
    58
 90
        2
176
     0
 90
        2
176
     0
 90
        0
176
     0
 90
        0
176
     0
 40
0.6
176
     0
 40
30.0
176
     0
 62
     7
420
 16777215
176
     0
 90
        1
176
     0
 90
        4
176
     0
 62
     7
176
     0
 62
   257
176
     0
 90
        1
176
     0
 90
        1
176
     0
 40
1.0
176
     0
 90
        9
176
     2
 62
     7
176
     0
 40
1.0
176
     0
 90
        1
176
     0
 90
        6
176
     0
 90
        2
176
     0
 62
     7
176
     0
 90
        5
176
     0
 90
        0
176
     0
 90
        0
176
     0
290
     0
176
     0
 90
        1
176
     0
 40
0.0
176
     0
 90
        0
176
     0
290
     0
176
     1
290
     1
176
     1
290
     1
176
     1
290
     0
176
     1
290
     0
176
     1
290
     0
176
     1
290
     0
176
     1
290
     0
176
     1
290
     0
176
     1
 90
       50
176
     0
 40
0.0
176
     0
 40
1.0
176
     0
 90
        0
176
     0
 62
    18
176
     0
 90
       50
176
     0
 90
        3
176
     0
 62
     5
420
      255
176
     0
290
     0
176
     1
 90
       50
176
     0
 90
       50
176
     0
 90
       50
176
     0
290
     0
176
     1
 90
       50
176
     0
 62
   256
176
     0
 40
1.0
176
     0
 90
        2
176
     0
  1
strokes_ogs.tif
176
     0
290
     0
176
     1
 40
1.0
176
     0
 40
1.0
176
     0
  0
VISUALSTYLE
  5
1FA
102
{ACAD_REACTORS
330
1DB
102
}
330
1DB
100
AcDbVisualStyle
  2

 70
     8
177
     3
291
     0
 70
    58
 90
        2
176
     1
 90
        2
176
     1
 90
        0
176
     1
 90
        0
176
     1
 40
0.6
176
     1
 40
30.0
176
     1
 62
     7
176
     1
 90
        1
176
     1
 90
        0
176
     1
 62
     7
176
     1
 62
   257
176
     1
 90
        1
176
     1
 90
        1
176
     1
 40
1.0
176
     1
 90
        8
176
     1
 62
     8
176
     1
 40
1.0
176
     1
 90
        1
176
     1
 90
        6
176
     1
 90
        2
176
     1
 62
     7
176
     1
 90
        5
176
     1
 90
        0
176
     1
 90
        0
176
     1
290
     0
176
     1
 90
       13
176
     1
 40
0.0
176
     1
 90
        0
176
     1
290
     0
176
     1
290
     1
176
     1
290
     1
176
     1
290
     0
176
     1
290
     0
176
     1
290
     0
176
     1
290
     0
176
     1
290
     0
176
     1
290
     0
176
     1
 90
       50
176
     1
 40
0.0
176
     1
 40
1.0
176
     1
 90
        0
176
     1
 62
    18
176
     1
 90
       50
176
     1
 90
        3
176
     1
 62
     5
420
      255
176
     1
290
     0
176
     1
 90
       50
176
     1
 90
       50
176
     1
 90
       50
176
     1
290
     0
176
     1
 90
       50
176
     1
 62
   256
176
     0
 40
1.0
176
     0
 90
        2
176
     1
  1
strokes_ogs.tif
176
     1
290
     0
176
     1
 40
1.0
176
     1
 40
1.0
176
     1
1001
ACAD
1000
AcDbSavedByObjectVersion
1070
     0
1000
AcDbSavedByObjectVersion
1070
     0
1000
AcDbSavedByObjectVersion
1070
     0
1000
AcDbSavedByObjectVersion
1070
     0
1000
AcDbSavedByObjectVersion
1070
     0
1000
AcDbSavedByObjectVersion
1070
     0
1000
AcDbSavedByObjectVersion
1070
     0
1000
AcDbSavedByObjectVersion
1070
     0
1000
AcDbSavedByObjectVersion
1070
     0
1000
AcDbSavedByObjectVersion
1070
     0
1000
AcDbSavedByObjectVersion
1070
     0
1000
AcDbSavedByObjectVersion
1070
     0
1000
AcDbSavedByObjectVersion
1070
     0
1000
AcDbSavedByObjectVersion
1070
     0
1000
AcDbSavedByObjectVersion
1070
     0
1000
AcDbSavedByObjectVersion
1070
     0
1000
AcDbSavedByObjectVersion
1070
     0
1000
AcDbSavedByObjectVersion
1070
     0
1000
AcDbSavedByObjectVersion
1070
     0
1000
AcDbSavedByObjectVersion
1070
     0
1000
AcDbSavedByObjectVersion
1070
     0
1000
AcDbSavedByObjectVersion
1070
     0
1000
AcDbSavedByObjectVersion
1070
     0
1000
AcDbSavedByObjectVersion
1070
     0
1000
AcDbSavedByObjectVersion
1070
     0
1000
AcDbSavedByObjectVersion
1070
     0
1000
AcDbSavedByObjectVersion
1070
     0
1000
AcDbSavedByObjectVersion
1070
     0
1000
AcDbSavedByObjectVersion
1070
     0
1000
AcDbSavedByObjectVersion
1070
     0
1000
AcDbSavedByObjectVersion
1070
     0
1000
AcDbSavedByObjectVersion
1070
     0
1000
AcDbSavedByObjectVersion
1070
     0
1000
AcDbSavedByObjectVersion
1070
     0
1000
AcDbSavedByObjectVersion
1070
     0
1000
AcDbSavedByObjectVersion
1070
     0
1000
AcDbSavedByObjectVersion
1070
     0
  0
VISUALSTYLE
  5
11CE
102
{ACAD_REACTORS
330
1DB
102
}
330
1DB
100
AcDbVisualStyle
  2
Shaded
 70
    27
177
     3
291
     0
 70
    58
 90
        2
176
     1
 90
        2
176
     1
 90
        1
176
     1
 90
        2
176
     1
 40
0.6
176
     1
 40
30.0
176
     1
 62
     7
420
 16777215
176
     1
 90
        0
176
     1
 90
        4
176
     1
 62
     7
176
     1
 62
   257
176
     1
 90
        1
176
     1
 90
        1
176
     1
 40
1.0
176
     1
 90
        8
176
     1
 62
   257
176
     1
 40
1.0
176
     1
 90
        1
176
     1
 90
        6
176
     1
 90
        2
176
     1
 62
     8
420
  7895160
176
     1
 90
        3
176
     1
 90
        0
176
     1
 90
        0
176
     1
290
     0
176
     1
 90
        5
176
     1
 40
0.0
176
     1
 90
        0
176
     1
290
     0
176
     1
290
     1
176
     1
290
     1
176
     1
290
     0
176
     1
290
     0
176
     1
290
     0
176
     1
290
     0
176
     1
290
     0
176
     1
290
     0
176
     1
 90
       50
176
     1
 40
0.0
176
     1
 40
1.0
176
     1
 90
        0
176
     1
 62
    18
176
     1
 90
       50
176
     1
 90
        3
176
     1
 62
     5
420
      255
176
     1
290
     0
176
     1
 90
       50
176
     1
 90
       50
176
     1
 90
       50
176
     1
290
     0
176
     1
 90
       50
176
     1
 62
   256
176
     0
 40
1.0
176
     0
 90
        2
176
     1
  1
strokes_ogs.tif
176
     1
290
     0
176
     1
 40
1.0
176
     1
 40
1.0
176
     1
  0
VISUALSTYLE
  5
11CD
102
{ACAD_REACTORS
330
1DB
102
}
330
1DB
100
AcDbVisualStyle
  2
Shaded with edges
 70
    26
177
     3
291
     0
 70
    58
 90
        2
176
     1
 90
        2
176
     1
 90
        1
176
     1
 90
        2
176
     1
 40
0.6
176
     1
 40
30.0
176
     1
 62
     7
420
 16777215
176
     1
 90
        1
176
     1
 90
        2
176
     1
 62
     7
176
     1
 62
   257
176
     1
 90
        2
176
     1
 90
        1
176
     1
 40
1.0
176
     1
 90
        8
176
     1
 62
   257
176
     1
 40
1.0
176
     1
 90
        1
176
     1
 90
        6
176
     1
 90
        2
176
     1
 62
     7
176
     1
 90
        3
176
     1
 90
        0
176
     1
 90
        0
176
     1
290
     0
176
     1
 90
        5
176
     1
 40
0.0
176
     1
 90
        0
176
     1
290
     0
176
     1
290
     1
176
     1
290
     1
176
     1
290
     0
176
     1
290
     0
176
     1
290
     0
176
     1
290
     0
176
     1
290
     0
176
     1
290
     0
176
     1
 90
       50
176
     1
 40
0.0
176
     1
 40
1.0
176
     1
 90
        0
176
     1
 62
    18
176
     1
 90
       50
176
     1
 90
        3
176
     1
 62
     5
420
      255
176
     1
290
     0
176
     1
 90
       50
176
     1
 90
       50
176
     1
 90
       50
176
     1
290
     0
176
     1
 90
       50
176
     1
 62
   256
176
     0
 40
1.0
176
     0
 90
        2
176
     1
  1
strokes_ogs.tif
176
     1
290
     0
176
     1
 40
1.0
176
     1
 40
1.0
176
     1
  0
VISUALSTYLE
  5
11CA
102
{ACAD_REACTORS
330
1DB
102
}
330
1DB
100
AcDbVisualStyle
  2
Shades of Gray
 70
    23
177
     3
291
     0
 70
    58
 90
        2
176
     1
 90
        2
176
     1
 90
        3
176
     1
 90
        0
176
     1
 40
0.6
176
     1
 40
30.0
176
     1
 62
     7
420
 16777215
176
     1
 90
        2
176
     1
 90
        2
176
     1
 62
     7
176
     1
 62
     7
176
     1
 90
        1
176
     1
 90
        1
176
     1
 40
40.0
176
     1
 90
        8
176
     1
 62
     7
176
     1
 40
1.0
176
     1
 90
        1
176
     1
 90
        6
176
     1
 90
        2
176
     1
 62
     7
176
     1
 90
        3
176
     1
 90
        0
176
     1
 90
        0
176
     1
290
     0
176
     1
 90
        1
176
     1
 40
0.0
176
     1
 90
        0
176
     1
290
     0
176
     1
290
     1
176
     1
290
     1
176
     1
290
     0
176
     1
290
     0
176
     1
290
     0
176
     1
290
     0
176
     1
290
     0
176
     1
290
     0
176
     1
 90
       50
176
     1
 40
0.0
176
     1
 40
1.0
176
     1
 90
        0
176
     1
 62
    18
176
     1
 90
       50
176
     1
 90
        3
176
     1
 62
     5
420
      255
176
     1
290
     0
176
     1
 90
       50
176
     1
 90
       50
176
     1
 90
       50
176
     1
290
     0
176
     1
 90
       50
176
     1
 62
   256
176
     0
 40
1.0
176
     0
 90
        2
176
     1
  1
strokes_ogs.tif
176
     1
290
     0
176
     1
 40
1.0
176
     1
 40
1.0
176
     1
  0
VISUALSTYLE
  5
11CB
102
{ACAD_REACTORS
330
1DB
102
}
330
1DB
100
AcDbVisualStyle
  2
Sketchy
 70
    24
177
     3
291
     0
 70
    58
 90
        1
176
     1
 90
        2
176
     1
 90
        2
176
     1
 90
        0
176
     1
 40
0.6
176
     1
 40
30.0
176
     1
 62
     7
420
 16777215
176
     1
 90
        2
176
     1
 90
        2
176
     1
 62
     7
176
     1
 62
     7
176
     1
 90
        1
176
     1
 90
        1
176
     1
 40
40.0
176
     1
 90
       11
176
     1
 62
     7
176
     1
 40
1.0
176
     1
 90
        1
176
     1
 90
        6
176
     1
 90
        2
176
     1
 62
     7
176
     1
 90
        6
176
     1
 90
        0
176
     1
 90
        0
176
     1
290
     0
176
     1
 90
        1
176
     1
 40
0.0
176
     1
 90
        0
176
     1
290
     0
176
     1
290
     1
176
     1
290
     1
176
     1
290
     0
176
     1
290
     0
176
     1
290
     0
176
     1
290
     0
176
     1
290
     0
176
     1
290
     0
176
     1
 90
       50
176
     1
 40
0.0
176
     1
 40
1.0
176
     1
 90
        0
176
     1
 62
    18
176
     1
 90
       50
176
     1
 90
        3
176
     1
 62
     5
420
      255
176
     1
290
     0
176
     1
 90
       50
176
     1
 90
       50
176
     1
 90
       50
176
     1
290
     0
176
     1
 90
       50
176
     1
 62
   256
176
     0
 40
1.0
176
     0
 90
        2
176
     1
  1
strokes_ogs.tif
176
     1
290
     0
176
     1
 40
1.0
176
     1
 40
1.0
176
     1
  0
VISUALSTYLE
  5
251
102
{ACAD_REACTORS
330
1DB
102
}
330
1DB
100
AcDbVisualStyle
  2

 70
    13
177
     3
291
     1
 70
    58
 90
        2
176
     1
 90
        2
176
     1
 90
        0
176
     1
 90
        0
176
     1
 40
0.6
176
     1
 40
30.0
176
     1
 62
     7
176
     1
 90
        1
176
     1
 90
        4
176
     1
 62
     7
176
     1
 62
   257
176
     1
 90
        1
176
     1
 90
        1
176
     1
 40
1.0
176
     1
 90
       12
176
     1
 62
     7
176
     1
 40
1.0
176
     1
 90
        1
176
     1
 90
        6
176
     1
 90
        2
176
     1
 62
     7
176
     1
 90
        5
176
     1
 90
        0
176
     1
 90
        0
176
     1
290
     0
176
     1
 90
        1
176
     1
 40
0.0
176
     1
 90
        0
176
     1
290
     0
176
     1
290
     1
176
     1
290
     1
176
     1
290
     0
176
     1
290
     0
176
     1
290
     0
176
     1
290
     0
176
     1
290
     0
176
     1
290
     0
176
     1
 90
       50
176
     1
 40
0.0
176
     1
 40
1.0
176
     1
 90
        0
176
     1
 62
    18
176
     1
 90
       50
176
     1
 90
        3
176
     1
 62
     5
420
      255
176
     1
290
     0
176
     1
 90
       50
176
     1
 90
       50
176
     1
 90
       50
176
     1
290
     0
176
     1
 90
       50
176
     1
 62
   256
176
     0
 40
1.0
176
     0
 90
        2
176
     1
  1
strokes_ogs.tif
176
     1
290
     0
176
     1
 40
1.0
176
     1
 40
1.0
176
     1
1001
ACAD
1000
AcDbSavedByObjectVersion
1070
     0
1000
AcDbSavedByObjectVersion
1070
     0
1000
AcDbSavedByObjectVersion
1070
     0
1000
AcDbSavedByObjectVersion
1070
     0
  0
VISUALSTYLE
  5
11C8
102
{ACAD_REACTORS
330
1DB
102
}
330
1DB
100
AcDbVisualStyle
  2
Wireframe
 70
     5
177
     3
291
     0
 70
    58
 90
        0
176
     1
 90
        2
176
     1
 90
        0
176
     1
 90
        0
176
     1
 40
0.6
176
     1
 40
30.0
176
     1
 62
     7
420
 16777215
176
     1
 90
        1
176
     1
 90
        4
176
     1
 62
     7
176
     1
 62
   257
176
     1
 90
        1
176
     1
 90
        1
176
     1
 40
1.0
176
     1
 90
        0
176
     1
 62
   257
176
     1
 40
1.0
176
     1
 90
        1
176
     1
 90
        6
176
     1
 90
        2
176
     1
 62
     7
176
     1
 90
        3
176
     1
 90
        0
176
     1
 90
        0
176
     1
290
     0
176
     1
 90
        1
176
     1
 40
0.0
176
     1
 90
        0
176
     1
290
     0
176
     1
290
     1
176
     1
290
     1
176
     1
290
     0
176
     1
290
     0
176
     1
290
     0
176
     1
290
     0
176
     1
290
     0
176
     1
290
     0
176
     1
 90
       50
176
     1
 40
0.0
176
     1
 40
1.0
176
     1
 90
        0
176
     1
 62
    18
176
     1
 90
       50
176
     1
 90
        3
176
     1
 62
     5
420
      255
176
     1
290
     0
176
     1
 90
       50
176
     1
 90
       50
176
     1
 90
       50
176
     1
290
     0
176
     1
 90
       50
176
     1
 62
   256
176
     0
 40
1.0
176
     0
 90
        2
176
     1
  1
strokes_ogs.tif
176
     1
290
     0
176
     1
 40
1.0
176
     1
 40
1.0
176
     1
  0
VISUALSTYLE
  5
11CC
102
{ACAD_REACTORS
330
1DB
102
}
330
1DB
100
AcDbVisualStyle
  2
X-Ray
 70
    25
177
     3
291
     0
 70
    58
 90
        2
176
     1
 90
        2
176
     1
 90
        1
176
     1
 90
        1
176
     1
 40
0.5
176
     1
 40
30.0
176
     1
 62
     7
420
 16777215
176
     1
 90
        1
176
     1
 90
        0
176
     1
 62
     7
176
     1
 62
   257
176
     1
 90
        1
176
     1
 90
        1
176
     1
 40
1.0
176
     1
 90
        8
176
     1
 62
     7
176
     1
 40
1.0
176
     1
 90
        1
176
     1
 90
        6
176
     1
 90
        2
176
     1
 62
     7
176
     1
 90
        3
176
     1
 90
        0
176
     1
 90
        0
176
     1
290
     0
176
     1
 90
       13
176
     1
 40
0.0
176
     1
 90
        0
176
     1
290
     0
176
     1
290
     1
176
     1
290
     1
176
     1
290
     0
176
     1
290
     0
176
     1
290
     0
176
     1
290
     0
176
     1
290
     0
176
     1
290
     0
176
     1
 90
       50
176
     1
 40
0.0
176
     1
 40
1.0
176
     1
 90
        0
176
     1
 62
    18
176
     1
 90
       50
176
     1
 90
        3
176
     1
 62
     5
420
      255
176
     1
290
     0
176
     1
 90
       50
176
     1
 90
       50
176
     1
 90
       50
176
     1
290
     0
176
     1
 90
       50
176
     1
 62
   256
176
     0
 40
1.0
176
     0
 90
        2
176
     1
  1
strokes_ogs.tif
176
     1
290
     0
176
     1
 40
1.0
176
     1
 40
1.0
176
     1
  0
DICTIONARYVAR
  5
221
102
{ACAD_REACTORS
330
21E
102
}
330
21E
100
DictionaryVariables
280
     0
  1
1:1
  0
DICTIONARYVAR
  5
220
102
{ACAD_REACTORS
330
21E
102
}
330
21E
100
DictionaryVariables
280
     0
  1
STANDARD
  0
DICTIONARYVAR
  5
21F
102
{ACAD_REACTORS
330
21E
102
}
330
21E
100
DictionaryVariables
280
     0
  1
STANDARD
  0
DICTIONARYVAR
  5
11E5
102
{ACAD_REACTORS
330
21E
102
}
330
21E
100
DictionaryVariables
280
     0
  1
Imperial24
  0
DICTIONARYVAR
  5
11E6
102
{ACAD_REACTORS
330
21E
102
}
330
21E
100
DictionaryVariables
280
     0
  1
Imperial24
  0
DICTIONARYVAR
  5
357
102
{ACAD_REACTORS
330
21E
102
}
330
21E
100
DictionaryVariables
280
     0
  1
1
  0
DICTIONARYVAR
  5
356
102
{ACAD_REACTORS
330
21E
102
}
330
21E
100
DictionaryVariables
280
     0
  1
1
  0
DICTIONARYVAR
  5
355
102
{ACAD_REACTORS
330
21E
102
}
330
21E
100
DictionaryVariables
280
     0
  1
0
  0
DICTIONARYVAR
  5
11E7
102
{ACAD_REACTORS
330
21E
102
}
330
21E
100
DictionaryVariables
280
     0
  1
1
  0
DICTIONARYVAR
  5
11E8
102
{ACAD_REACTORS
330
21E
102
}
330
21E
100
DictionaryVariables
280
     0
  1
15
  0
DICTIONARYVAR
  5
222
102
{ACAD_REACTORS
330
21E
102
}
330
21E
100
DictionaryVariables
280
     0
  1
0
  0
DICTIONARYVAR
  5
353
102
{ACAD_REACTORS
330
21E
102
}
330
21E
100
DictionaryVariables
280
     0
  1
1
  0
DICTIONARYVAR
  5
354
102
{ACAD_REACTORS
330
21E
102
}
330
21E
100
DictionaryVariables
280
     0
  1
127
  0
DICTIONARY
  5
1ED
330
1EC
100
AcDbDictionary
280
     1
281
     1
  3
ACAD_XREC_ROUNDTRIP
360
37F
  3
BUMPTILE
360
1EE
  3
DIFFUSETILE
360
1EF
  3
OPACITYTILE
360
1F0
  3
REFLECTIONTILE
360
1F1
  3
REFRACTIONTILE
360
1F2
  3
SPECULARTILE
360
1F3
  0
DICTIONARY
  5
1E5
330
1E4
100
AcDbDictionary
280
     1
281
     1
  3
ACAD_XREC_ROUNDTRIP
360
37E
  3
BUMPTILE
360
1E6
  3
DIFFUSETILE
360
1E7
  3
OPACITYTILE
360
1E8
  3
REFLECTIONTILE
360
1E9
  3
REFRACTIONTILE
360
1EA
  3
SPECULARTILE
360
1EB
  0
DICTIONARY
  5
E
330
C
100
AcDbDictionary
280
     1
281
     1
  3
ACAD_XREC_ROUNDTRIP
360
376
  3
BUMPTILE
360
F
  3
DIFFUSETILE
360
10
  3
FBXASSET
360
12E9
  3
OPACITYTILE
360
11
  3
REFLECTIONTILE
360
12
  3
REFRACTIONTILE
360
13
  3
SPECULARTILE
360
14
  0
DICTIONARY
  5
1F9
330
1F8
100
AcDbDictionary
280
     1
281
     1
  3
ACAD_ROUNDTRIP_2008_TABLESTYLE_CELLSTYLEMAP
360
1332
  0
XRECORD
  5
37F
102
{ACAD_REACTORS
330
1ED
102
}
330
1ED
100
AcDbXrecord
280
     1
102
MATERIAL
148
0.0
149
0.0
149
0.0
 93
        0
 94
      127
282
     0
 72
     0
 77
     0
171
     0
175
     0
179
     0
273
     0
  0
XRECORD
  5
1EE
102
{ACAD_REACTORS
330
1ED
102
}
330
1ED
100
AcDbXrecord
280
     1
270
     1
271
     1
  0
XRECORD
  5
1EF
102
{ACAD_REACTORS
330
1ED
102
}
330
1ED
100
AcDbXrecord
280
     1
270
     1
271
     1
  0
XRECORD
  5
1F0
102
{ACAD_REACTORS
330
1ED
102
}
330
1ED
100
AcDbXrecord
280
     1
270
     1
271
     1
  0
XRECORD
  5
1F1
102
{ACAD_REACTORS
330
1ED
102
}
330
1ED
100
AcDbXrecord
280
     1
270
     1
271
     1
  0
XRECORD
  5
1F2
102
{ACAD_REACTORS
330
1ED
102
}
330
1ED
100
AcDbXrecord
280
     1
270
     1
271
     1
  0
XRECORD
  5
1F3
102
{ACAD_REACTORS
330
1ED
102
}
330
1ED
100
AcDbXrecord
280
     1
270
     1
271
     1
  0
XRECORD
  5
37E
102
{ACAD_REACTORS
330
1E5
102
}
330
1E5
100
AcDbXrecord
280
     1
102
MATERIAL
148
0.0
149
0.0
149
0.0
 93
        0
 94
      127
282
     0
 72
     0
 77
     0
171
     0
175
     0
179
     0
273
     0
  0
XRECORD
  5
1E6
102
{ACAD_REACTORS
330
1E5
102
}
330
1E5
100
AcDbXrecord
280
     1
270
     1
271
     1
  0
XRECORD
  5
1E7
102
{ACAD_REACTORS
330
1E5
102
}
330
1E5
100
AcDbXrecord
280
     1
270
     1
271
     1
  0
XRECORD
  5
1E8
102
{ACAD_REACTORS
330
1E5
102
}
330
1E5
100
AcDbXrecord
280
     1
270
     1
271
     1
  0
XRECORD
  5
1E9
102
{ACAD_REACTORS
330
1E5
102
}
330
1E5
100
AcDbXrecord
280
     1
270
     1
271
     1
  0
XRECORD
  5
1EA
102
{ACAD_REACTORS
330
1E5
102
}
330
1E5
100
AcDbXrecord
280
     1
270
     1
271
     1
  0
XRECORD
  5
1EB
102
{ACAD_REACTORS
330
1E5
102
}
330
1E5
100
AcDbXrecord
280
     1
270
     1
271
     1
  0
XRECORD
  5
376
102
{ACAD_REACTORS
330
E
102
}
330
E
100
AcDbXrecord
280
     1
102
MATERIAL
148
0.0
149
0.0
149
0.0
 93
        0
 94
      127
282
     0
 72
     0
 77
     0
171
     0
175
     0
179
     0
273
     0
  0
XRECORD
  5
F
102
{ACAD_REACTORS
330
E
102
}
330
E
100
AcDbXrecord
280
     1
270
     1
271
     1
  0
XRECORD
  5
10
102
{ACAD_REACTORS
330
E
102
}
330
E
100
AcDbXrecord
280
     1
270
     1
271
     1
  0
XRECORD
  5
12E9
102
{ACAD_REACTORS
330
E
102
}
330
E
100
AcDbXrecord
280
     1
 70
     1
 90
652598616
 71
     1
  1
7C7E8B2D-2873-4928-BC88-4CB9E765AE51
311
504B0304140006080800297E845769C6EF1F0E010000A80100004F00000042393238323231362D334442422D343034372D394134342D3241413341324239374439382F4173736574446174612F446566696E6974696F6E4974657261746F7250726F706572746965732E62696E7550C14EC3300C0D1C401C3880F8000E700C
311
E9D2B4499010244DC789CBF8009495B055CADA6969C50DEDC85F0F6714691A9AA5673BCFB1FDE46F84D0663048D111600DFE1CE2B36BDCAAAE5EABB95B58741219DF4EADBF812C31639AC994E144E50633356658099E62911454B122558697C7F0EF1460DC87ED7D1747BED4A172DEDBC6B57DB80062D871BDB01DECB2FE2E
311
369D2114C31A80FE0A214E9AFD2A8A223F01F67D79FF684370DD03D1920A4A47394E8DD698258C63A918C354A954512DB991824C5C68FB55E502E1052F85A606D3A89A4133D6851098155A963CCF54998D4837EFE369AEA28C69636B4F123248785B3633A0FFD9EE2D778B4FF05080AFCBC99666B7E5361E72FB737E00504B
311
0304140006080800297E8457FBA99D8A11010000300200004500000042393238323231362D334442422D343034372D394134342D3241413341324239374439382F4173736574446174612F496E7374616E636550726F706572746965732E62696E6D513B4EC340101D3E120DA01C224590B5125EFF2B3BBB361C20724763D9
311
9642418A0889764B3AEEE11BD07206D2730437D4E1EDDAB1839C9166DECC9BF776A5DD7722DAF78196CE900AF506F8586FEAED73B92AD7F54B310711C8200B054F190F0387B9110F999061C85C29A22CF0BD65E6D957A3515B1CDB4D33EE45CC735D587C6E33F120526607CEBDF4A58C96590499B997EE9E3EBE7E17DF31F0
311
1C9C421E668398116DDCA9896609CD0C65CA3C19FB931D8C5D0CCD4919C841D05E6052C8DEFAD3E335A869E8771C37C3211361F5994CB87FC4D4AA8F5E1C69DAF81293FEAD5BE4EAAD782DD74C6C8B4D55577AD3E42864A9DD4E59BAA35C292B6FCCD48359773A1A282D3D72C1D7ECB5E6C0FD01504B030414000608080029
311
7E845788E57597CD3F0000904100006B00000042393238323231362D334442422D343034372D394134342D3241413341324239374439382F5265736F75726365732F37433745384232442D323837332D343932382D424338382D3443423945373635414535312F7468756D626E61696C2F302F67656E657269635F706E6735
311
5B773CD4FF1FBF73E71C0E67EF7576C9DEF3EC995D46C6A1EC5046649CBDF79E192942562825CE965D8A868C2842C8DE9FDFD1F7E7F138F7078FCF6B3F5FCFD7EBFDFEC41B196891913091804020321D6D7513FC77D8C5070EC3FFEE51B21F068154CC75D455CC028A3EA68992803810109FDDE5D5CEC5521B28A1B422BF80
311
741695D5B529DA1C2D058AD2388BDA9F476F7C2CADC939304173DBF48A452BF8A700C0C70C3D121C1AA15A5270C22E2B9E28763651F7DA0D12CE11077B2ECD0D560B5E3DE2368B1E65C5E1C87384A4CC5F2D9FB8BE39E9B77C753783A37998F5CEF1B4FEE553463245C9712270880DF339E0B882A6BA713D865F6F384C842D
311
440934EF264F4A304F8DE4EEFA1E2BF5E2D91F5ADD9613D6E31DDB33ED31DB1D7916CAF091286EA3D31B9CFECB78BB0060245B943C4C040119FF780A74DD308BA9D028678674EB5504ECF284EE814DAED07440BAF649BE4B55DA2890F4D73E2D489A59EE54FDB0A85B59F2F52C4858A02705C4815A792B0C4A996A2023ECB1
311
95073E115E3E3647F64243A8338F2000BCB58DA5692C7E7C3D413F963FEDF3CF00FBB0F831A9D51360FECA43819F527B89FA260EB63C5DA676830AA3626A3693B23F1A17A0DFFCE3EE164E31B5365EDF0C89EF64D8E38AB0BA9A1117D7C3A0EC44F44F4023095E80BA610DE336D0F99593A88BFC5306E72DF98F7FD132ED95
311
878DF2964EA7E43071359FD83B2BDF9C6B5BDF768F0F3C0FC351199526F53D9460A34511F75D1B63E488178569472C91A94497807A3FD4A390C6558F26D416365C3656DE6E769DA9D8FC73774E1709812842DD8EF96AED1960F79D21B395CDDFE6F92CB4EB962A4668C76990E2EF29798C8941D67DA50F4A5F947872460F1F
311
6FDB794E8A29FD7AC0C0D6E0714339CE258FB17AE8535221E3464A10F29A0BE5EEECEFC5675926A89F49EB14E5711894F6586DB5754EB4D5DA9C6437EBA57DB97A24F8B8A8DB295FFD73266CF57E82694DF5166DDF93573AFE9C9C5EB05F8FEF8E89E0A8917B0B3724DB7BEBB53252581EFC3E38166BA131A3A5B42FE2AD00
311
A769BBFA4458D2DE7822F8C4F63D0B8E21B285AE13325F3410A435C648C9D91FDEB109E73CEDA7BC796961AF79175E1A3CE4C5E8B0D009B0C9E29EFD98BC8E97554E3D8D838424E270F7685226E5AC268E021EDE3522D583E8F20C0BDE2959EF5BBFEEDAB32FE9A3ED0E39F211A86AA9DEBFC68182EDED132AB8BB794442D2
311
D7EA9F4D8BFF52BC4D55BB165124EE90A42D101E67BBBB292FFB4F66DE5BF2300E44546757DA7CEF8932BFC9F92A0707953491A55C5A5ACEDABD9FA1AEA01BAC3DC5A24E22E7C47213493996EFBC369D086ED9397C9BA6C7F9855C7BD5E15BFC8C53DB3D2A4C5901A57ACD2FBDF4D1676E95338B2C2BCE65FDA4C64F5FEFDC
311
7D9CA5AA1FCF11E193F2FDABF0F4916BF13FB916A224380E6462A9815F2300DC49CC4DF8D055CEF76462F4B7A7ACA7365C2707891370BC1D0AA6203C44CCAB47084FEC057F27FFCD57F89B8B9852459798A675C66BD7CE572CAF71FF7E6D7ECF7BF62CAB7B3F1107DCD04DC55A3F9961700286141C94A4F771FEB2BCDA2DDE
311
E0CB0BAE402FF1DB0100F8E475DFFFC074DDB4498AB7D186A7654DDB1CB680D703D47CEB4E72F8CB13D86A4AA68116E26387B93FD6738779B34FEDB8E517EDF2BAF28D9BE93A1D3A164320E07D42E514725C29515FF361754213EDE06B079A2E99EB1CA82A02019EADEEB87B9AF005BD04BBCECB14AACD6B24EFBE482194A9
311
7DD32400685FF1FEF1544D1B14EFB1E7F08E6D2CD2AF52DE757F35F5E62332EE88EA26417AD5C3E0E319D68F25414E6D672BD4522B278C57D18F0113921C71D96527E091F00CEB15AE23D24667369BD3CEFA10C7549D930890BA4366F4EBC55F01F746109F98ABCDD5A3EE06619C6AD78AB33E48E4C9BD21BF7478B385EC05
311
C4F8987E2C1BFA0A60EBEDAA0AE0B015C2720ECE180FB6F2DEFBEB822D96338C9B63822183BBF52FB664A7AE57003AABCE512BF77E7E31BDA2E739AC4C131657DDFE5225E900FB56CC01CDE808FA4A9C9DA16AC679656BB64796283D89812B8F91136AE18EE5EBBAF47A73BE3C153EB5D4CD491B4BFB4FE690A4CF9ABA08C0
311
D8AA64220C438C96EA6CA80B58FE5761E697B3A292EB9FBDA502FA863E49FE694ADDFFF9D62C520BDD1A22014147A0903A05B9B729F54272EF83931FEEC057BFF8C8055C279EAC5C0011804828734024F6CFA319C9CC6867C727184465CD9BB7ED386AFFD96B294A85E3802FAE47244602D8273615952B98C4F23F7EAE4463
311
D9D638EEE374A20959E0FE519C4CFB0FBFE5DD80C2AA3F9DB961D1BDE57E67C9BB47B77FDD74EE3094F5DBBE3EBC1FBDB7393F5116263009E2EFE1AF9A221B2AE234C902BF70E9F280ED23E73908361565964333A3F01D0B006AF32FB21AA1316744B489D5A198E85299241735BE559675130955C902A8ED761FC0DBE337A9
311
F91919AF5CE32AF902ADF9AB2615E00E8A94586BA1A90839B61832FF1BFB76D2EFADE6DB1BA04CCAD3DA649E7E2A0219F592E22F2AD54847EEA8E42271011E9074F8F3DD9FBA6CDF88FFC9FC7E811AD1CA8F4557CE4AFC7BBEDCF0114A48689F20A584520C74DA8127124B767E2FB91A6B186246727BE63C9445BAE02088D5
311
8B8EFDC0F1072407CD9B89A13F6303B4A928F593AD489B58E6869325790ADC406036C591729FE14021F94B7796BB11848D463536A092A26F077F94639F7CEEE2A724C66EC885F4A24F8B8A0AC321F8FD149BA529460FAA34E4663C02D41FDF80BCA222D42F0ABFF8490F4FA74C673807C2051D8E467B47B616072860069A9A
311
303ABA9B319D58404461401B0A0F9BE5E1E151C14BC33B32ABE03DDE91708DFAEB15E7C0D593C86BB7D7EC17BE56E57975F077BFD5525F3A1A361D584A75E08CF29FC7B44B2B3085014F3A5A14517377C3F6B8F37E59514C3B12F8AACDEDDA4DFC49BE5710101534CD6FB6DE15B50F11A09472AABA727F0C49D9CB906B1580
311
30065F48EB3625E010CEC1D511D0053474B11E6A4F01C0D6EF1BED3A944FDEC70E0DDCDC756C86545910E0DAE3BE3AA9A404574C2995CD5CAF9549226BC94B4F4F0F5F9086F418F6B32346464610D8BC7391D3C3A3CCF04CFC1FB2A3A3170E369511868F14EEA4E5E438CC73DB1F3248AA94B6B2FF33B222FF3D1E7BF146CA
311
D229770158063BCE4F5391964DF62F7E52A7BE0EEA829C9E13C4C147D6F93FE59E111DAB5E4594D6F3CD1AD375EE039930EFE5AF2BB2D41C83C7DABD8C659BAFBE8FAB392CA634F3D15C1D945DB4588D2B0824A4EC928AAC565557CA2F0DAA588CA5BE30B3A8004F7BF005E96CBF891D7F18112A3619FDF530DC8AA6495425
311
8E1811789B5189B49B4EB53F5F89F7D37523894F3EB57B373763C91E502F52CC99EB7BDDF933FC324C4FFC2561DFFA7339FAFDD0A4BFBE6D3A8FF9ED1FC49898139864602458968913181918F719CCF5A68B2EE9C1FF050E34E63107003B8120FA982C21B30A874E4F5E4B38D5A8290C4B8D9BE48A0BE31EA995BDC37AC6DE
311
90BA17D259DEF53605D55922FEB1855D915B659FBEB350EE0DFB2F9F766E1C84CC8964B75D08667445EAB966015F63A18A9E0A325C1B3DC628C0D3CB60F767FA93CC65F25458BD23C3B312716E5F40E5858AC06EBA9AB14F95DB99147B832069201541D09A0D856E12C629CF32683760EE855537D1901988D5EBC156676C7D
311
D51D7207CF3267AF1D76C2AD867315E44618015313A98B19941C696FED3461CAA9B5415F918556D7802EDACEFD6B2E45853A9735DFC9DBF7E440F9319F8B6805A973BCCDC76C069A9144E51F187EDCC12FC31B5DEAAF0A76137199B106EC84ADA6B6EE697D4E6A96E007417F4E880E8B1E89B4BCE9D81EF611E2ED8F0C1A6C
311
25F620FAFAAB656A7C42D464880E8AFAB0E0FC8EA38CA9A8AEEAEE3E4648BA4680270A89743CDD3E6C6CBF34B7B640EFA285ABC7EA0A1E28F3CC963D114A80123EE66D0AF7D5380EB41909B605AB4765B709B808590458157E69BA1378FEC4B48CAF6A730E3BE3C5EF2DD1A5EAF94B1DDE50CEB55DDFD7EE9A16747FA4B223
311
359FB1FCC69E1194892BABB93A1D5C4E807AC0EA2E30180811E77A2291F6E7F7FAA5E0F60215BC6024E48DE436C511F0628B8CA189982D4D83CCA17D305A7E923C37941CFDFDCD93ACAF735EF5F0E61BBD3E6C41A59B242790D3A3BAC7064DCD89AA2E37214EC839820949D5CAA31E240D2948E48F690298974A96BA9A8432
311
BC90F5071D6537C9666EA4564796B7AFFFA548077BEEA75F63083435074BA182F3699557397F71548383FDA8CA34D99B981E72835ECDA5DDDC151315173D05A21F651AAF8524E88209E2E7A737ED1045800CE3390050BCFB8BE588DF111617874C62575039CA588EEFDEFEFE319B739DE2EDC147092A262611E159650E7879
311
17885EF08F1F51B8F2D8A71D60B58B190FEF9541A1BE94BC19FEA50784DA1419FE4B0FB51B8D36B5FF8E1286FD8AF42B91E59A5F1CC4D60174E764045FD8C57B18209B217F89A62252BD20BE0E63E12B8E8F029FE19E0E8D0870F58721A557082250D5424F7909369376E41666C0EE77CD87CB283F661D5FB6D0DA023CB673
311
20A20DC7BE661E9E1BFE5463085C557DA1FF9BE835733766C3D139F2CF9E2208873AD0EB4814DE9E6BF2CAF81614D4D43906ED1C05A3265CABBFE192770FC2F64F940CB6B17B5F166F133C9AEEAD2641807C3E69515171DD74C4A85311513D6EC9530B3B601B6BA3EBFF3B5C3D2F7D69765141E345F75433953D013ADDF8F6
311
AA7DC3F4A7563FE5C7D367937E2900D7EAD0F9FC9A4A1A9B5BDF1FEF08532660C01C5D6DE22199AA774383E306DAB87E301ABB7D213887F9869D4942D0D71E94B27EDF216A318BD488D45DF84529EF575AF3C3938C0AAA0215B01994153E2054A0B894DA5C784980633AAD48576957CF4AEAEAFADC7C587368551C73DBE1E5
311
7C58AC713303A8BFC258BD04B51724459FF9E24C03A81E0E0679CEB9B348C0DC998FEB9C6D6EFA77D247CC8F92D3848599ED89A23218D0636465AD1CEEB7DC140D7426F83491C4E8E8281C2FB35240918FFECE880CA2A42D70E8B20B34DF5221C7DB0CF90ECCB9C745B37A47E9B716FF7A97B7A252C1F3814DC7B1E1A7F72B
311
8751D524EF7CAE45B0C73B3BE7D08ED39781B380DDFC9AA4A4749C9493DB5BAD07A6EA6C092FBD0E85DB004DF06B8C9D3089C5320187E4CE1846158C7EA7DDAE8AD9AFFF21AA3A1026BB06A259845E8232DEE62811A4DA9CEAB3A4887320B76E2AE5615EAB7BDF738CBDD01F1E64064BC13D9EC53576751CA8CACD58B3CEB0
311
E6CA585BD089B2A59B9FC101403387AADBDBE70586B93D64BF3AD4453EF9C3B6A93817E8346991798601344F79A83C51F3D50F7BF2683A3605F51A72449489E0EE6169C749C60B1035651103AEE24D24E51A759C840DD3FC6504DA6FE107510E447B43461C79D22970B75DE5E1BD3007D1AFC619A4A4A69B5626AF5E9B8374
311
E20677F77E2F8E73DF868E8BEC7EBA7B6A75EEF7205E1AB9486CB642741D6E03FF13FCCEDB1C4AC129886268B01CDF4B124AF797CF784F3C6DEC97A17D4B558070A0F1C04DA4FF9BDBF34159AEFE958479824B3F58EBD1E19088A2AFDE501B6F2052368A3FD0E650A179EFAB1561E1D27527077136E652676C3670F42DCB33
311
52F48F6BC86D2C3B0051727E41A0A4DC6CE2BE9D47F5CAA2935A3C0539AF080665997194ABECD723B08129CC5B6B21D2E7D54CD4D12610E7E9FB8306771A89576C7A982002775ED44F3F744CF21EEBB27A631671D921938AAEE3EB0D19CD1E083727F607823E817BF599DCED5394E37EEBC2E88782E638920CA641EF74D4CD
311
FCDEF06F4278ECB18E31E7E9876F2D783C8BF429C75395F57E98C2B495A3DA077EB3AC3C158608B6B57FE3EA48484D9A480096FCEE0DE880950E7E5A5714131C5C41AAA29FD19AE81AC145FA1B9E85C7169A5AB837B213493DF7E9AA4B5FBF9CDEB36EBD21EF1181B7CF7366AB2A951D01E37AF4EB835D1BE8C117CFBE7625
311
D2EBCDB0B20C5A4B45CED0BCDE3EE8DA9DA78C2E21DEAAFFD1197E463C33CC6A80FB785669B856EFF7A8CCCA2841B5A5369173320B1170C368B2748D81062EA0296E5E2D95D7667A4A46D98A6FF475C76AAB0A8C8D45E226FAFC9FE0133EA9F60111F99CA81ACE03A1D14C89E8B0D69079C91464FA1D99E651D0EAF606F345
311
C42A8A1AA9BA391031582B96D5B4176A77AADB01F12FD298A75DEEBB2C82F0B8650E880722F8DDD90C56A7A058E5FDEF1AC93545BA27367C76F5D8F9690CB6F8DAE141EDD7971F0FB548A2AE435F224D6E5954CA155512F7332029D5A1230854B79F258EC5FFDB09F5F6343A8EB193229B7F7E79B3E48F8E183860B38C8269
311
D1B53738FF1E0BACF6AADA6D4869E9DE708E79B5DADCC09B1BC76F649731CFAF59A83FD8BAE4C749D66FA87A3810D4D62FFE826FA400C0F325D2BC0F3CA35F5847B82A2ACC7961745C823E4D863D54460AF792CE6F79B5C7A33B25C3AEA6CDE15A919B6367D781E9D44F61BF828672594A3E1D9EDD6DF179A81F27EAC05B93
311
6575D73E05C209DDD2115CFB705DF9BBF3C911589B3640735E9E618FC9C36A7326C82B2205E244C55D56FDB9D5DC93CE958D4BF8174D2B3DA54CB3C09F2C2A6DFF73D23B2197355761AD421EC581284A7EF8DE2CE3497C0C804D49B41DFD6A7360844E5BEFFB495CFCDB97A4595911CDBA623274CE852B5E278AF0BEB1770E
311
9D37CD977B2766A7DED0E94B840E1E95E8C77DE5CB6354AF7871427C28ADBEEF7BA0A28E19DE9ACD75F379FE373EAE6DDDAE3834692F9C2B03B4FCA8FCA9ABE8EEEBEBB725B88A7C90941E850682CA04061A7DF0CE82ED49BFAFFD42C309818FAE14755CAAE78B0F73243ECCCAD7DF58FCB9CDFAE7A4D3E6671A613639130D
311
056C8383C8F4FCF4808C331E544DD26E4755D09EA05253B3049A1E32587CC25D72E073E2CD96D04A71BBCB0038FEC3F53D254199C3CDC67CD66640269431860225392B2CB3ECD0B4498AAE78BA1994246AE1EE78F2EDFB79F6C6CB6B5E279C4D373FBC21CB2698C9ACBBEB6A4BB6B39E16AB0E421CCBFC7654D81ED86022F9
311
BB522146F9F4772E2D0E4FA70120C95A85A417BF5078B232F4754363EB1750B2AC2148EB46B1EA72AD9B4D23ADCBC589D70106C3EC2ABEEED84DFE28E718C6C83502C28E9FDD3B09DA0A6F6F7B72B706A31C9E2A331EE70DA56A083D2177BFD63C55B11D8D949FAFCF90B23A1E24B9B5018B9A17E99F2890EC302F330FE793
311
6E2C23F0D237EC8916F5166AB84B62A21BB0B950146962D754F92CC2C8877BED8FC7B7B25726DD19545392570B3A2C66B58F027BEF412E552D12A588C4A3CC5C3193FCB3485EFFF700D0B9EEC077754A33DC1FB9E25AF814628F91DDFECB667D3F7690803F38D13F8AE39353523BB08FC6760144AFA2CE28236F65EDBB3D5F
311
59A57D612B99E3D7E5F8A851666BF9B5A6658EFC96EEB37A378ABB0EB3FDDF1303AF32C41BD1C8560745D7BD81066B0D6313359CF488563D3BA3F8E2185D1FAA3EBA1397C9D0E3DD232180A4DCADB6AF25DB3AC3CC26589C8239E66E81547BC7E2F328F9884764CA37EB5DBE390DFC03A5246B456A7C3684C4377D0EEF9A35
311
0680FA9A077E8B2957B489E09AB1AD41316944C2254B5984830F691C93CAA767EECF976FA5647538830B5E63236A6F0365C1E0F3E327F24FE35EDDBD7360B0F7374837409F7A6311BECC12B7026D4FA1AE204FA3F5FE904B1F420C7A9044AE58E403E7C4848E7DA25DC9EDAC79DD756FAA26B9EA83ACE8A214A2612A22AFA1
311
9DAE7DBAC5F8CDE1292A485F98DAC731A29FE01A3966E96BCB9FB5A4C8830E1B9AF0C54B87FBE221A097036E5D28D1F869F810C06A9BB0AC0612F69AEBAF893C6E7AD59460208BAB3A6B09CA4F6BDDAB8CF0D1F84B72487498395A70DCD754796E271099A567A55CF242BBED64696378BB6CF25EF0FCDB589F3A82F1116D01
311
0A9AB9FA4358809EE0C973A2B4229BAA876A70B03AB49CBA7FBE71DB1832FFD32F9BF2C8E98075CACAFB36921235D0F552B6A67E94E094097A5D7DF681B40623DA535ADA7A9AD8E9A62407D7C9A5AE51D62A17A83A23728DE86BB56115804D3F2675F2C6B87541A0FC497BF0CA86420F558C9859EBE9FAD62747E323E3AADC
311
03FDCDDFE7407B09DA90B44E3185723C5381EAEF589765E2F7A099BA46695BAD60CEF3491B8A171F5F56444F7CE9455312C3498C74173AEA0214EC029833B34B650CBB5A5508D5091665309642791708ECF27CF11DB3D797D6CFE474453BD4BFADB768094B2147814D81C7CBAF8228DCAF5564B5891F5EF6A860EB2E323CB8
311
2AB868D8EA048880D63B0DE5341F1B3D53297B928A11E15F25E5148990F710747C3509ED14909C552EBE3973246FCE55D00564D8310BC3EBC5085D08D806799B77D6C57FDF5E55837F9E934F09C03C729271B64F12D0A9F9E938107CAF7BF1EC8CF1BB9B42363D33070F4CACB425E605DDB0A34A12BB936DE286B9887A4E2E
311
558F0886498BFF49C311D96C277CF6A9FC0D75AD0ECC5226D7E0E3572012E56D7FDE4410CEC7A6D0F997F225A2055B8B92E3956E875AE4993CB3D4C9063AF98FD45E1BAB165640A43439A2C9181A7C355B297C0A0CCFFAE19B6FA3C2BA238A885FBC98B8F6DAF4B94B97304878DF4D8BFF6A4AEDF79E90ED4E68F00CD7299F
311
4E0D83E35601AF0CBEF18C1E870E74758FA91F5131075004DB3CFCF09AE1DABC11957FD9808C92E8A678CE9DBE40DDA0E0D1D505AAFBCBA208232BFB6FB3704E8985E61ADE53DE74152F5C7DE74B1DEDCD37DC3E8FB30D7EBA8B9EFFC3606BF90B8D438279CB7709FC7C00D327F41817EEA71CD9E49FE9C8C9A81C70915D9F
311
0F15958EC5AA4C3BBFAF46986B90F188BDB24B89DE3C6F29EC3E6F66D84856EE96A35E657CA41B41EFD8DBFA16AD6E91439EA92B40B21C053249F51AE50EB0B24C770FFAF40DF12C8436366819C48E36547D4E7B72FE2BBF10828583057814A668BDF183F6B2E58DFB151103E56303E63D00F39C27C4661605DB644D19175D
311
02E3F0241E8FC3458D17AAAADB117CE9EEA690D0DB01E634878C04C2C9310B69FCAB831151E3AD293BEF6E46B0ABCECB50F5939B39C613D41E81FAE8D34CAE3C4566B761D37185FE864AC32FCB71AEF39DAA5BAB88609BB980CD2F07A8F941653B529567726E2B2A58D079DD57E1E5E31426CF184A04D7B03B985F276D4740
311
6AF276FE32E3328BA866EB1FD39BEF57863A317634AA5FE467409B3873F5069EF0D71AF00AD189D17BA1974ECDB2D623E9E14086386A6AAB5807825C37B015BFE892AFD154920EC437EB945D958E18622E1E0FE2FA06557CE4BB9BBD05A2D40E774DA2B65473791E314B7D6C886820B2FCFE4AA272B3B8B15E7344A145E8AF
311
919B5454D89D36D413E87211186BF6F645E5EC94DCCE8E1C799022E4EC9BC86D7A0F2AFB1FC4B2CE48F84B3F49ECE65BAD24CADCC07EFF39AB06BE9E6B27A059938EA7208838455383DDBCFCD967DDE4650EF92A14FF933C975DB20BD7FEEBC4487576485963D757D16340D9599FEB362F775F38CA4185A86F74B629C81B13
311
3644A3B18FD056E997E0734F9BE26D11C0AAFC669E2AC9FC41D281F8B2E1C35AE27BCE05F3DA295488096688719D974DF1B5D182DB7792288697F8763CFB43562C1CDEE11C4AABD5C22B6E33F6F389CFC3477C5919DC0D533F8A7A1846B7ADB60ABDC26C43D0CFC8910B7C15EE22675BD02702ED39DB77A87A192CA7A543E6
311
205B979B9F5A6B512A3CA799E198B2D5797C0AF8D1D872CA455D4D431A7879D4DD76110B5FF7F4176B54477A9EB5E4A5D11214FDA585F0382751D8E2582BA5D2075053298FEB8F1537304E32CB22C2E2B693DC0A760B1DFCA751BDC445AFDCBB12820ED85F6D5298933C7EF1211E9E057684056CDA3FEF3BB6052355E162DF
311
27C59E965A8DDB7F9437EB72CDDA3A090DE65A5B2F50326247B7EC67B73ACC7047FC9B353D6EE990F772207C6EC52B39DC2F3C0754821DAB559F7C1809C7D0DD5B0499D0442E0A6E391B3D5DB46D11E731E6794EC77523FBDAA242ED67F9FA1FB684255671F63C9BCFE6E7E896D51001A6113EF2298BA494E0B0980D1FA5B9
311
D60796554C02256B1E0345FB7C6186B6A19D2DCA270416262845FA4F42DB5D9B0A0B6F07FCA2E56C242522E001E0CEB734AF310FC8BFB57E38E03AACE93B3326A2197891E68452B26A6307FDABFEE0223D3C03C3C73D2D5BC054C8311F12004CAE488E5C29287F8156A2CAA4AD0D7BE6B97264E4139F437CE73ADF52E5134C
311
52B819777C18B323A5924E4F67AFD13B1CDC3A61793A79FAF5C0CEB718E441071E797C6DCCB9EFCF7E4A1E9F3DF3C2F9C9E8294E9586868788C972857FB0556D7A26941A7EEB9B580AD78EC40B85DC906B4120A563CA3B87797ED612D3B035962BB75F6515A393F4CB057F564CDF54F2E5A024514E6A1F901DB80C7E70B1FC
311
05E356A7E72FABF4775B3E3FB8F70A2A8E7B6A94542BB304157978CCC999E707A29CC795E67A59CC546A5D47B368954CA7B6E75EC9E1F6FC73CE3B4F71F8CB1A6B15923D61EAAEB14626AAA9D04A26EB9C66CD1BE86CA31A5D8703DE04CD1EBCE4F5CCB62F93909AD11E55799A781A956ED27D3E738F4538CB04ADABC7DAEF
311
20BC35BA6A90BCC1DC61BA05F20D8832FFB9BC9B15E2DB838A0AFBB7E0C82A562127E0446894F427794C3037186F622BF24DE1B00AA10A23BFA47B2A180D6DA5AD6F7326FEB8C100C2D7142EB2A0B2A9D1008A09BA343D70E054AB69E2A7EDB783CBD92537FAF4A44D1296AC2792729104B3276C276C951D0CF3CF3F1E6B01
311
7720A7B8505A5FF9589365979678C36F1BAF759EAF57C60F1FF5FE9DCF5F8E764FF25A2D06CF25117A8FED51884C13B2B750DB0E4F5E3D64124FCF11F0AD8F1CC3B3DA4B38ED22BF1CB2585EE6BFEBBA63FBFD44F9537B9B37BDD6B358720F98A8125AED4349CCFEB0E135F19E208A04CA7E2B10711185D72E381F448036EF
311
57C9F874E54A971CA37A639E986AC0226DC5AA00D5B14FEA9192234B3DE617814FC221C92F33F1D392F297731B567FD98FD91D989379AF567A65B8ADF177591DB90FBEA99BF4ED11B16E50A0AB1DBF1156D034BBE04D69D08F939D8E92BF525A1DDAFF80ECBC95D8F45D3FDD289FD23F7D8B452F8EBB34EC082DEEE68E18ED
311
DF072060FAD2AB1504DD4879BF67099FC58F6E9DEFBF645D16334A3E9A127C6F1AF6132CF287E433B43A0EE93812B4AA0B194E03EE3FF91EF9C6ED0074A2F6EB18A96A7C9890B1FCDA1F2095E944DB911ED54C60DF16FB74C8CE9BDC7C54C4F14078CF73C2FFF1F1BBCCD7CF64F71407EA1683DBC410D226627F66E509060D
311
5C0AFD611DE681D509DB8DD12FB1265B03C6F5C55FF4C30BD94187FF692B4F152982502F193098A789526A038AB529A52BC0DC4FB6285CBAC10A8B8DB75DCD9BDABBB221E27D1F8DA9F5EE5926A1C8AA9BA9BC09239C6A7F12914EA3B59EFF7AAEC3FFCCE56F1C5C2980AD072793527565E774F4631DB178CEEC691B1F367B
311
EA0CF2907E1D6B854D527065979DDEF002D8B2ACEA7CE21AE297737EDE1D45B31233B73FEA35BCFDD0B09721FDBAF6432681F2FD10C3E9EFB246FD6E854B344ACC9D8A0EEF876A7314B49B6A499FC650B099D650DBFEC7638ADFD245E2B7839DA5AC5F7D5623FC0ECEEC8653FC9B2BDD1AD4D00A566FBA7186DD3C9CD26512
311
551637498CADB950FEC71ADB9A5524285DE328B8EC7EC75D2345AEC6A27C42AF6D9B92155315C80DBFCABBB7DA0FAE425C4FB896B15C9BFAC4FE67DF5A23D30C93DA4D8F36FB15D100050DA6062E22AEC5F4DAC4F6FEEF97AE05DE63C6D38F9E068A20BC5E3B6BCD75320C5090924E7F93640A7735B1A43451C2D91EE62C62
311
38B797349E59890AF3A520DF4A87095F3ABEC2E61F0593416CE46CDCBE0E00E2523FCCD04408588B5B6C9DB6459C786CE378770B54F51DA3A5E1DF2A3349BEAAC234A6CF8993B598B3B25B4B113E353A4D750FA7534749430F3EBF2512E7EA3FD43C6AB9A1F765A58463B306721A15D224FAFE8C6F5E3432D57EE697DA0DD5
311
A9D4866A8BCCAAA9DFF1F06047851408FEC060471D0E3EB86BFAF46E4B5E60311DC3E3CEA147C75CF971BE74689507154FF2D2E92F15CDB2B9182B11459FD8ACAC5A85F174BC94A7F4EE4C4F5CAFA7C02E37BF0BC77B7DCD0C047BC316F562A01A441AFA7931CC84A28CB9F4AA367EB515778F29BFE61195FA671F4352E5E4
311
6E3A64773F1F76EE5EB36D7BCE9BCEAD837A4D77F8DB8C92AEEF6711920D7C7D0F76B0FD0EB7AB83724CD35BCA7D36DDDF5FBB7FF6F04A91F3E2BB3B8F1A43CD659639507FF6331C5F697BCC782AE57D757A27D97F1AB9E0AEDB43F92F1B2AACDF5FEC8ADBAF9F814E2027003BA2F9E144B1938A7A04050AE5D953B82C4561
311
9165C813A10E76DD6906B3C16438064D14CDA713AEC420034613E1AC7241904A49FBF87409AFB1FCB9B72FE7933A87D8FBEDACECE4EDCF6A4FE9FB94D5DEB74FAB7CFEAE17EE965DF980DCCA2D04134994F9A2E94D2265DA4FE6AA7B7AC15FACAC2B5ABBCD7DFF542C5314FDAB2E1B9D8B65220B8E2B638BE008E8DCA22678
311
C820C5053664D15E89F2D735B51A84955E81A443545E9FF787BE0FA700A76D136C27DA179A7C6E8939E01BE756E19CB292798063D8B97F44E8A27BCF3A614FEB8BE974A718E86F7EC99B53CA35FA24F61F2B07266684623A3D4CF073E511F3A10A8FDAFAF0078C577F4DF9D339FE7862E5FA47CF4344209E5BF76D783B1B48
311
E152AD281B15FCB934DCDA49CEC5706B1EE8B460F435324A5CAD154725E21AB8044B75A557A79F6C807B9340AA3D92503E866F4274412926C8C504E4D5EF8C0E68DD0B028781A6B4054F11CF18941F101C57CCC796773ABC8DED9CD91FE5788806C05E548895354AEAC96546D55B0E94A59F148D061F42AA398D822CDECA4C
311
DE79E13469BDCC44FDC990F366BA5978C15F97ED80CBFD73B0CD9B8B83A4F6845BDFBFAF034019473FB9A63BD55D3A4A7284757071574029A4D016DCCBE95DD679EF3C4880BF169422F8C89B68A988D2B13793CAED4F74DE7486C72DC94DF46B8E93D8E02EFCB1FF9B3BA10C8AE7F653DF94F4AF466CDDCEF5776687F7C4C1
311
4B63E4EED1719DC2EC482D7DBCC7AE518CDE3D5FF86D39000EC3673C0044E1D308BF05F74D1B5F033A7D1BE7F74BC55BBE3E4A20F920946CA0271EB17BD2B80E5660ACB8A29A79F5E4BBA49D4D945B6EEF4A7EFEAA65E5555BBB57A7E15D2F83C69F30BBB978D2B39F1F26FC097424D39BB33CA3D87ABF64E307938B685BAD
311
44F71556A30B7E712CA4FE600613C3E554B69ADE949A7CFE214DF1FFF05CB82151EC6FC31950239F94CF7AD39DC473F6EA356E5EC2C4EFA04383CEFE985A127484366FBEE3C0EC4FEA363E4F6632AE781392FD45D67B63FB8DF70E82734F431FD3443172A0E30A83D60982D55FA6A2CF86DBA8382502ACC6CDEF3B907982EE
311
D1160E14863FA242F9757347E1544275CCDCF71ECD5F8621CBEA326B8BA884AD7F825781923E66971F04010D574C541D8427A438A37EEF8AF88240EED7362C953F5A81DE2D56109CDE2524EA0F5D2F87308C0C47BD97AD605878AB8589E17CA83930CB5E0DCCD75853D68B1AB136594926DE426C367428E9334AFAFF90ECE2
311
21BB5DC9E5BB53D2CDEF954EAA9CD814F0E5725F1965DD458E5F8487683AD86B9D0076BE3EE91EB1CECC5331A67A3F79D8B27587C12EC2A6A70474749F27B4C0BBAFB94B34189E88DC18964BE4121B9137FD516C7755356E50D6714E31ACD222621EBBCD1CFF81D87479056A9DA0E0B8EA19D24CF937DA89F78E8650CCBDC1
311
10AAB6C4E46DCBFD0446BA9E2060E81F314AC2031E88135E5476AC0160EF5C0DD2EEF1B8B5CB2D198BE9A554A9093B5F7D7E4B5407DDFCA1D9C152FD97F55BFFFDFE802954DFEC8995B983E28AC92F1971E28F531DC407A1280EB125F64A72E617EFB27DFBCEDCDA2D6F2BDADA36873EE46B9BE1782998C63DA7182BC383FB
311
6FD15DA472B175D7E8B4FC88F38D6E07FEAA3FA3CBB8F6B449ECF14D2175E5C5CCA3A42ABF24CA6C9395AF74535F4DDB38CB84F56614B0FD32D7E19CA5CF988DB4449C40E23DF2B16772594554579094450F56F253CD25EA7F77366FB1CFE79696C428BB64D5A41E986189427E5E4D7E2DAE3D5BB4972B3DC44EAABDDDD63A
311
2264ECFA5C786EB0EE1FDC5BE34FA0F08376869FD1E61EA06CAE15191135445EE8F0394161C3266A596AA035572BB0C8876180D8B9C77D307DF9DCDF7365ABDA6F3A2366436457A4DFC1F259666569A9E4A79C817BDD5610E5200FCE894A358EC72858D50EF67545DA81C6FACE3D457BAF70367E1E6BDD9A952FB4F56247F5
311
8F523B97E640246051A72F79BE42FFA0B3187F63097F91C48B868586F714B0EBD5A00A8412C1236E1298F60C72BE6C96B82B404CADAA304AE9F303176B14BA53FBC2D5E86377E35542019E24D97B96A49B2C0E5006E7795954DEAF5DA58958839043C6C70BD3B1B33B6DC5C31316D8A6923F142E26F6711A2258AF977DDF1F
311
970ECC4F1F2B434B96D81BEB6E89BF3BBB3C7C8CC80505070723D6D7D7D3C8CA27CA164A26024FED94B12A86031867241DA53D929636DA600F050BC40CE48B8BA03D69224720DEE2ED2127390BDF5E6EA64527BBD4C4C63FA76BB801FEEC0E61218EC98A8A86CD8313781617877E66692839B9468CF4DB8E50A73986E558E3
311
09C0D6F676F921BE02F1185454DC75B111572FF9D27D85EA14C05AD7271225B391C4275659CA4A43759D0BA44639BE4C30A84DB7F67A41399FB95CBF923B1B1672ABC807C1590557FB18D811983FA97F5E609516D62281D38B1281F68FC75528C35E4CD7DF0F7DBB5E5DD69C414EBEA2F4A5B241B996BA77AE6C772E367408
311
C633EA3E438B68563EA8BE7667F3A4C4FDEEA52ABD78A2820F443B7914A15F180018D231E64519C56A12F6CA7C8DAE18F06F6B769DBF92329EF6A5D18FBCE600F36BD8E8198DE5CDAA96181F3A756EBA5501CEE58F497EA4F418A2B82565B9BCC611713C0B708CCA1F398B78C5F7D03B3437CC18F13061F55C7BEDADD5ACB1
311
DB0E36D3CE47FF6EA1A563A57E9649EA5D14D1A50EAA457463381C073777EF1600607BAF6428A7DDC079D47A204EF1E1F1F0589FB054D45E02CE623B3823C317C601E589E22B1E88B448524B86A82828E32345EC18AE17214B42F8C41C6D428016D9BA31DDCB47572561E5A402E5BA4FCE55F78AF7268524AA04130F3A20BA
311
5D1E9F9948EA48FC8F5314FDB35E21898198060034ACE5E3E2BBCA34092518F275190AF65F45867FF0900AA4B81F25427414C372BF51DC29AA855C5428EE1EEDD6B849AD60F6E73475C2D2523F8A2772C840A478DED18A8C5C91B085F255DC4F54EA7AA8947354FD17ECF8FB3B4A0DE7B483CAF3A1165EE05BBA413E5C1FEF
311
3DE1D6B8F2F3F3251C17D9FCAB48A9AAF63AC773A0E413BBC46A9ADF84A566FC920E4D8C52C9769EE3301CADEEEDD92B312E02E2A7E35B7F1E7D203FE5A7D75578B06E99D0E46FFADB8FDA17ED8880390DA29094202D6F645F76F6F96409CDA05495A96E84B04A00D1A6C6C81D7F3DE9376E828CCF144EE50E364ACCE7237E
311
A0BFB5607ED1AC3CFE73794E5B61739D14DF1743441B1AC98F00ECEDE9E7301FA29755FBEFA68C91EF2B314CF510537EF1ABFC9A762496280B546F5EDAAF8A5B387D469FC9A878A92828C88608453ACEC6094DCA54111E7AD5B2663DFE2DD151B7F123B9F4FEF8EE36AB125FD7AD52A59B1B765B3E3F73E3F73DEA93875004
311
D2AFFE3CDE9493B87A9904DD052028949041A91DC0E1BA47BA714343FD5B25E0A6A09503AFC17C790058A836A324FE31D7893512E28230332F153181C1E018E1124EBE1BA262AA428A518237D1EA7275E48C5C561BD19ED6912EDD8367DA0F31E40EEAE9683DA9257525AEA7B632B97119E17145A90231768A4F3B9120FF32
311
E8319B015E3CBE26F1A754177D8185345817C096B0CE443A955D13AC15E1FB5DEEA0239EC32A3C92241A237B0B02FFCB4F93CF2B02570C8D192E2F2A68CEEB42F12E6F8CEEFF46C251E22B4341C56FB08CCE550E7A9D6F4D6564B9EA52A83D5BF2C6E03FA19D2775E15A8A7ACF30A13C259EE7F5EF2AC3BA354F1500E1A07F
311
C63FB4686E2F12EC69719F9ECF5FE3F35598DF2CE944008CE78F0911BA5BE5D0A34E0098FF038669C26030BA9B300303039852A8F6F496341737CA7E0D2E3AAA36DE0A70AA7D9CA0D54D9AD84B18A44C9E625475E1C97B93BEBB38DCE7D227E67A2D00F531436136355F243D1FC0D712C5765754FA22FCFFAE97919161F46D
311
6E61ACB37D83777B385889770B50765B127768443A5C4D3A4E35A3151111F146B7CA116F918A049F1C272F2CD7976C69A0068773451659A97E0F4A08FE604C3FF6CE7385DB19F4D3ABC8A0D80DA8A42096AC377DB49382B36E270B6FA7570188B4B7D1DDDDA82ACA487CCA5D38BD3BD039ADBAFA4ACFF27809239B722081E2
311
EB9F145320553D183F28471C388BC8814E5045676767AB58A8E72D1CED2CA731379515D2E533E4CF0B39DFC625F97AC4836831A4DE330E87A8126FA17EBE583D614E71E22A8DBF2825599743E0640037303E8E1B1E8EA4E1ABFA4F62907B5E4E0E5DCFDAB417C36C6848A2B8D15F1E505434C0707E16B1CFC2A1C36A42BBF5
311
5734F8F4301DDC2A5110CEE8C0747F69519265012A2174BF4E955ECD4FDE095A3ABC70536B7AD0B9D7892F81287D667C108703C9B66A221E9A0929D030008F77FF6F5D2108EF5706FC87A3069B976F7C9FC3239D13D283CDEA83597461079FEEE049B0F392889898B7D87D31F8D60ED7B56B91823A8E4EDDB36C6172ECEE42
311
BD42B12CD67994FA0F0DFAE9389356F4CD4425A4B8AA55CBF7ECD585C6A2C2316791E43D5C06841ADBB226A87FD61515FFBB0167B74E56BD7F3E90A57A97FEDCBDF483A0D6699A8C0849CAEB4947FAA90D8E332D9DEBD9F4738C37DA0CAF9CF3DAA68BCB67C420459C7A64498D6E848E5CADE92BB6901F607AA331104A67F7
311
CD650EE169B1DAE94D2C31C2F993632259B6957E246EFE4C5481107B07118607700040E5812A2A2A38DA0076875258C753F60E0F2662C748EDD5F3F3686B8FC3BD6FE631ECCAA1E8B1C1E565AD117E54893E79F4672E32F9E46B2A183DFDCF3EECB4D4D077DBEA0DA254D256045109670050129E9B9B1A9E4A11344D61497A
311
992778095151510C4BB7EF2009B63AA4360635312E4CF668B7E0D3D85A8688E2BD83B569439892ADB63461930D428E0DE42E4AC57CE48DA5CC1449530D8BD3D6A0F08DF20C8E8F570F2CFFFCEA286E30969B4654D498A58D9DA782E19FE3F002181838925592C4A1EF0B332D88B61A92C644547BED490D3A42CFFAB70E36D9
311
61F694F6307F72FF15A1C79D5B1B5CEFD353D9E2B52566DEC8F8F09CB3E8359C0F68EBBB7898243E34E12A015B2685AB303C04D3A9E00671FF3DFF0A184E4A2ABEB2B666AF5B3A209C73D8EF29DCDB069C9F391EEE9DD0F74C7BCDE16F8F02E3B8816122BBEB50665775B600549D8BB33A54A6BF940C028118BC6878C79958
311
D6784F9DEAA6E26748386FFAF8D0D0101E2847B6563F5D8DC1D78F787BE00E2C941AE12148D4A81599FE8F68D4DA5CDED75530ADE138240300EE13B0FC13A1687FED6774662C05A2B7DFB186732F0D7A93545D8B0A6390AE5054D9CB582DA846D7A061B3358B45E2B52DDE63E114397EDB7E09233A579155D795BE76102CF2
311
77F4DF8B188C4F2879BEAE3C08347124BF9ED23B128259FE107D31E34A652F090B30B39E0D9AF917B76A2806135621A8A60681F16AF216514BBD02711585B5B1AE823F4B2D0369EA5B6BCB863072727FFC871CA6C9AB79A814D989057E9470A3D238BC87CBB4A0EA49AFE2B86F22E499793CAA9047080450166BDC35752456
311
1E258C77CB697F1ABB32562CF87C3B7AA12F911EF19FB3E5C02222E887D08202A60A17151F5E053A86B437771088B4FEE14D652C43E8D939995D34545E12E2FF93D4E366EAD25F10CB7DED141563C3D0C447AF06078A91135FD4B9611583CB4BF3BD167F2399CEAB0E0100F8FFC305F00F1711717173138B4B48C83022295D
311
E657EFEDD97F238ECA80F528AFB4F8D67AD4E2594B9A3AA86D7487EFC313BA95745C186F0CDD84CC12DC9CB0424B42203D351FD9C0A3AF10CC7F388E0329279087386421F194F4A29464C1DEF7EF8BE515E4A199DCD5B909342598D8FE6A231F71336248D5CEC5454455C7BE383B3BC7B260FED27F703FDC39A170F3827239
311
102F59D4DEE7FEF82EAA1A5E4BA94DCC4CC44E7E2EDE20F24244E4454369D2E87C3F823F193FD4FD27E1C23984B01898D15ABC20711A8A558054951A6AE280096BA36CBA439603B7B0B4C45F248C14B2383B4B5CD8ECECE4FF859AD4A6CA2326D020EF090F4041D28DB66E5256B56232CC52829DE8060BAE6BBF37D4B7469B
311
822454FE93210A3E8D15E69FFCF01123222611C51C4FD0A041A0CFA2471CF6BE38D2B20FA4C3525B5B8B586759475CF80ADFE67A284AC24651E52B8E683D24C2622642F27E7C3C22783BCF63648BC398BD6CD0D9C97E7E7E3EACB6126DB7A6C1FD9F1031302EE67ED96F22B77C7CA0239BB324207559B105E4693EB26EC461
311
82A92C9C0DBD24F29B31C5C5AC1F84300E0E17CEEAC15F5736FA4A98971E2F1423BFCD68D4BBD5F86E74B40A369F39507C88FCDB35D2DD8DEBEA4AF999E23CF2816D204200DF6E611781B9884C1AC8888B4DE397320472959434323A5A36B22A8E1F721A270DF3BD65E4A31C11FF048AFB0D8B7B6881423793963A23CFCE93
311
5FC189ED36FAE35C46DA3574C979E4394BE52084F3081837BE033396D2EBD80F1F691B273F660D2B32FA27A33B1DE4ADA5F0FA4651511102DFA410DDA86E065272CA314D5249DF91B06BB92807B28EFD54F08F7B525252782CD276DD02E6B0319B13DF87B1F6361AD6B28FC0D711CF445429B9E5A433CD493051C49A9E03DD
311
B1B147D880253514A5DED88009018620EE229101C041950E2D8AA8E1F5F5438E0C0C0C60EEDEE9E3E0C051948C69F84BB7B2A48A1F3C8EB9E6864687F4F4F6F6E2FA87608ADAF9C5E117B7C1A737E710769DA1D15ECE6A84502AA855398712D5FB51BE92E4EF824969CE18278798AC303C2C7980DD2500ADF8FB1E6D6C2FAA
311
FF9987178923334A244758BAA01A9A1B70FA5097D01E1CC2A58DAD0EC94CE6430AA9B0C10D75E3C6BAC670EFBADEE1607739CE0FC18A2587E3EC3058562014C64219C69BC269082D5C2F4A659278D585755912176D78A1B641719C2A394CED495A1AC5D583FD2F5EDD93308EA7EAE8A6DD396598BDBD3D4CFED62D18A5BDFD
311
E0DD5C80D1A89BA62697B131AE7CE9A6594138582F1B37D68F1749AC7CB67A70695D48A4A056AC1FBD4E82358CEAE38F54B95A9016F9000F9879C0D9D131768635CA798895F27D6F1614F11F2838A83611AA51C9A3DDB539D42979C29F10465655C17BEC3E2760B80DCBF609198C7B171A531905F3EC218D696025975E986C
311
6B4C666666787271F202805577DD5A3EF0CAFAF91B62DC4B2DB4217A7606282F31D8DDBC290593BAA93EA6353AFA9939B877978481E15CFC9F2755CDC00C538F63A4BA3E80AE009B73CA0185687D339A507D165B74290D6EE46D5C58148F020C3668ABE9EF2F7549170DC80DB41FFC1D678FF19AEB10C7133832B104B80F69
311
1B3138F97A92D26E551F1F110400D45AC71A9B9AC41A1A1B1DAEED0B0810638EFFB511D46B121C6FEA0F38CD00E03CFFEB9713FE1F9C263E4DDEC160D0497FA9A132BA608584057FB15380825DE6C7FC3C667EE947D488A09898D8E939C4953BF4EC9836344D2CC6B2971B2A21A572B06096F4982D2CC7232D46E8EA69DC83
311
722E267754D777F97F96D5DA74E1E75178084D0E70F12AD33E5F71EF2AFA599B2BEBF60A5BE475F444F240CBFE8143C334E7ED9150FEEFEF7EB020C4DBED388DD1D6A167A76F3CBF119B578AE8CFA7736ACAFA4440A1C47185638A0D2F3EB5BDDEFDA958FB13CE4AA4923D5BF840392D45544329525749734866684BF7F8D9
311
D54D892E19BCA9F829A0F8BFCBEEA6CFDFC61D74EA1A645ED7A1FF241739F15694BD835B66FEC5677E40FE69BD3F91AE402F036537218A401CB0828604AD189E575015C6F3F6BBC8AC79CF6C70653847254B31551EFCBEB5978B9DB85D58D0FA41A9DFE9C624834AA04949D24B5AE6D299E072D152D12097920F14AA92C31C
311
3B97E28B6C2E6E9C23D63043ECBBC0A60FDF5BD0C33C127EA8A3308B8B6AFFEB28B4455BF6E7AF4FC6222728357EB8E46E85053E6A8843AB23295BF838ABDA94658FEF3F832F147046B4ACD6F7D48E8FCC9618582961C898D1C7A253C91BFECBDA6BA18A1FCF70755DCCEE2222F41B76D23CA98D0CB3D95F0CF66D57FFF65E
311
2A90F5DF40FC3187621E981BD0BC1D992787212688976B94A8F0C6EF646624B570B78E068826F87CE27041A95C9A4871FF65CC17FCB1639629AD6A9517000D63AC231F3D741CB8430777E7ECF80CE7A3F73C0F162F7E56AA71F4DA80A33CD6ACEE78E2C11FAC03DAFCE929B106F8F6B3ED2DC71FF994BD9CEF4E9A94896EF1
311
B6E2B7B4978168BCF0847A3D2A4F1B0500B926E634B174548E9FBAD27153FB5FC36799B1E6C7C38A94E1F9E996796D7B485E635D5287A2AE76FBD11A341DB3F8F810385BB7296391973DC6C37C452A9305AEBBE0CDB6C566DB59FE60C8E94B1FD090354BF51439FFD1B48D725228FFA88C84F686F547107A7A235665A4593B
311
7C34D748C1AC8D56DD5DA861EEFBADDECBBD65117E65851F90351AEB65F0EFCFF4BCFEF24CB7A5879699FAC437A7AF9099186CF006BB923A59E37D7A36A29FD8D2CBB914A5E9D0A8FD212FBF796AE9A67958FF1D5D8B85F78F96219D4714EB919929241B6C018AAE0C02069F8D919961EC5DDFBFB7573E3AC8E08BFB7C8534
311
BE6DE045B3CD63DBD71F7638BA2309CAE398EA3A7D8F98BBBC7AEB367EFA5CFA27A9F8F2F52FE878058E6209C026453F8E7E8A237DFC389E9590F6059B397CFD65183BBF936E86896612A5B5FEE49DAC8455D026218AFEBEC12B3523A45B57B82C9C97E02ACFA1184DB18E48CF615DBF39C3CC6F0B4AE6BBEEA2E39D944E29
311
0302FA3DE33FA7E40296E2EF7BF1CD855BBECFAD0FD622BEE9746FC4FDFDE545AE6E3BC234CADF83A0FB76DFB145BF3828AE3436368AC24989454F8FF70A177672C711CAA1A76107218CF948CA01F873520E7A2B118EBB161ABAD432932029628B6761590C98AB590C8C8C79798CE9F715BA696E839E9131A4BB68BE923F17
311
47FBFF165331FFDD4D05997ACD168F12CA75348DAC04C7F509FE83898A8B421181AF492861CE81E4A2DD0A30850CFA95E05F097FF70F9E777310D584A75BA7018922E271DAB1D785671157685B7D383D3E074DDB4F1E44EF04B07BAAC75A062077C54B9752C738C9D804D402E02851F3F89605AF189738C18C021D2139EAF7
311
2513824E10DDD3047BACC8521ED7E98B257D1166903B1B08FA6F918FD7E162913FEC7D0EF4787E29C35FBA8C6E2C9C20E9AB30AE42CA2A01A090E7D010C1B5BF9CEE2A304BF3A987FB40D836979B79E18D70F257DA61E808472DD85B82761825779D6B90CAEB0F23360C6F80A7D7D77545E95B3DFF0CF96A827F9B5BCECD2C
311
9698718417EF80FEEDEE938AFF55859D0D540B7FE09435583A6F04874A0C7E8CF234DF4879722000167F5872CEC6BF3EF7E5A8CC8121E6A359227C8A29C95212F9F735BC72A887D56B8F309FC525BFB4FD767AAEC4AEFF249CFBBD2DE1AB9969A6155C7D8DABC307E47324C1F916C7BCFF40ABA5644E9FFB9238D19ADADA49
311
D9610F01ABBA57E4DFCBDCCBB2B93C8953206C91DE01B0E2651A6D6C31721915B31F7B7CBCE55466F6D70402788FA91D73BE4ADCBA99A35F17D6B83383704917D6833F0FA3CD45C926ADB8BC17999A4A0AFBCE2541F7B8CF4C2F5FBA611B3E626D64407CB32C122DFF4EF8674D6EDBB86C8F7C6A16D50FA685E2CCA34F8F7D
311
1D8265BB0042E9D7F1F666F7BE5FAA5184DF58E12122A42EF02F461B3F369AC746F96528AD208512AB56844CF75B97F352DF7995024FB02855385854F3798670D01CAC771AC3E1889EC25F61A20C1F8CAB46898817F9C47E2CDA1F286BF2F358298709FE567C91133E2638C8B53975E753EA8BFD3578B5F7186B7BF084EBA3
311
F77BAC3132A5779902EC22AF2D2E79F42D324E083386DAEE9810D1B44A5DAA54513C7A71E52A4AB9257D975B621308FE4D2141CC3DCFE946C154A3C1DFCCA7629EC69ACFA831634ADDA93C0388D2A9A2DDAFCF957C6995BCE7FBB6DC4EBAE79E63EB08E9A25F52F67076F7093CA545CA3053B5BF576DEAD4E0017143C5F759
311
F32B2D6F145B52B67B48909B7C7FCA6586EE385A2189C16932CB6DDFD9152AE317C430492A578ED27B72D85D40C7C93C097939E1B50F4D67F05334FE9DC362C30B7FF561B95259138ECFD9274C8D695C31B14D4EAA9F3D7FA8DDF652F8C5DEFA23284C799B7D94416DEE81E05A866302DC70192A5368EA65E1CED8BF107A1E
311
2D3119A71E85DC1A7B0C1E93274CE04DD0F2ABC8AC7C987FDB002B6F81757B43502EF7A0D92E416494FAEEA4C9C090CD9557AA4D532F4996A272B94355C5A0E4974EEA9627476F30809B94D8D8D860062E02204643BEC7D0438AF800FC7E2B26955D595421E83C69E1A07E0E3122285835F014AD538188CF9737CE76D464A3
311
53FA55A001AB2526B84E985083693BC76FE211CA1D000679C889E3C009832C87E1AC2EDD05C302557422DF0800E316FCAC86978A371F025A6C7DAA9F333E7BD160403A1A06EA75AA9888FF01504B0304140006080800297E845728BB58AF800100009E0500003D00000042393238323231362D334442422D343034372D3941
311
34342D3241413341324239374439382F536368656D61732F436F6D6D6F6E536368656D612E786D6CBD544D4FC23018BEFB2B96DE15493C78601010A34B880709DEDFB52FD0D8B54BD70DF6EFED3AC0B12E6442E2716BFB3CEFF3D18E26FB440405EA8C2B1992E1C323095052C5B8DC842437EBFB673219DF8DA659866649B7
311
98C078B48AE6410122242F2A4994AC7F93815DF85C049C8564CA0A901499DD886B2EB9B1E02448F358701A9235880C49A0119892A20C89D1B9FD768815CAD268CB5E0355B40B1E47F3E37A2020464BED06AA57CE8FCC20C3C3446D46761A2632A8C1283D07031EFF2AE7CCB1BFEEE916E406DFAC8E36FFD99A9D60A6944090
311
EEDC3B670C7DC13DE86B6B2C5C240D6E503BB85ACD579D513F1B9F9A69DC9CC22AFA80C426D40AF0B21EA168559156B6276F0F726A6BFF04DCD513A87A62CAD41FB24FCB2858B3952E3D852084DA25B9303C15687973CC8E8AAE11DF2836C38C6A9E765E8C1BA1BFB1DC29CDFE518C8B5A7655A4ED7E77291ABEB80DBD82EC
311
866ADE1B8D05AF9E35CF09D7A061F38A986D9EC412B8F0F65E5D81534D9B231D1E5A8FE577A241F3A5FD01504B0304140006080800297E8457E336299B9F040000341300003E00000042393238323231362D334442422D343034372D394134342D3241413341324239374439382F536368656D61732F47656E657269635363
311
68656D612E786D6CD5585B6FE238147EDF5F61E5BD1498E9A895A02398AA5D1E2A5665BAAF96710C78D6B9C87168D95FBFE7F81242134A968E469A4855437C72AEDFB965F4F53551642B7421B3741C0D7AFD88889467B14CD7E3A834AB8BEBE8EBED1FA3495108B3E01B91B0DBD1F3EC8E6C991A470F22155A72F73CBABC1D
311
4D5921DCD1934863A11F990102A6F61466977B8AC49FB13C174CB3940BE4504A22E3713489B7F82406516225536940BD88E4E552493E8E564C1522225AB0384BD56E1C195DC26FAB13882C2EBD62E1FF9E5B0FCC453132C99548446A1872B62267078F1EF14C3DB1DD1952DDBBB384AD456779F387C51992E0ADCE12FED262
311
2BC5CB1952FC9BDF3295E9206E961AB116DA7ACE45F76F07A26EFC3FD762FD7362FC3C0BAA4DB34C09E682CA5167BADCD16CF94370E331E2F1A3D852008AAD5D64BA2373478338AEB1583B905396D158182655E1B938D07926CF007CC7E85E6709999B0D3827C0BF406BEF55C68CF5579DA32C8C85BE03EFE788787E8FEC95
311
DC85C3E31A615658D81F9A34499612004CE69CAB12531B15A887ACA642C110F8C1A8C1974A85853F407794695C905C688E69B116550ACA946B9B4785FC179E0E229240B62665328E86D5BD2C800CF5D80289F35AC25E3DD51508F4BF9A74A0F5A557BB3D284BC6FF59312E282F956A75C5D453906F48D11A876599E4942560
311
2400842995BDF02C4D012E226658F78A710416AC552831FDDEF0E6F0BABEBEA9DC36718CCEF4DAC5A0DF871AECBDD8F448F015F8DA113A473609D1751672B723874B2CAB21ECD6E284E51DCC7D1A47A00F60EC21DC4CC3CDC406DC03760A4E6C772F2F4D561A9AE58C4B03F5B4838701472139EDCB36819A66C472B52AB113
311
9C648956F43E0DAEC067B56B0818F5961D3D446B8F1E1E78C0EAD7EE02AF2895D813E88AC5014A7B436DBB20F778D40A1D9737EFE45B47D49CC8360F9966B15AABAC802C1005548A93EE469F5D55317CD8BF0AA86CABADB2A009D4D6F60CFE53AE370AFE8C45415B15D362A5A038E766E34B00F8C2E3E7098E2093B1C96349
311
FDAEA158903B4BDAEA665F473FECE72186E3BDDCACCADA31839CD6D4FA7D47DF5469006ED340EBE71DF960DDEE88A3E17557039B58C278A1795BA8079419DA8FC5BA1BAA1A66238BF69C7B2BE4E6274839122B7D00BE8B7D52CF61B2D63216046008C8B330FC10F8907787DEF061F47965BBA02FD8F53BA12F9827614979F5
311
3563D0BB1AD67A03DC0E00E2FB2CF3EFB457E70E65A3D7C78E7D700DBB45132AE9BBA5E468CD861408961AD8B00A55C2FCC677F4456039FD9F1907A5B3E2D0EE845FDBA2DAFA88C64195671AD6D282DA2E45B1F50A0D632B0D0B6718757DCC7C84A70A3656F222CDA6DBF07E204AB358961D1BE31E53A82C2C0D56DBF61A56
311
08B5A252A932A1DC6E32462430853353EA30417C8199A662E946A4EF352268B8CDB9A9C6762515ACE8E09BBC031C608A02C4BA89C9DDC074E46E0E26A17BCBD4ED43270D03E3645ADB81F6D62CC07A3243EB81C07E01681DDF2DB4730631E6DDA6CBBD048BE9F06AEB3CF06B31DD6C9575E37E9FF17161342C4C76D9551967
311
2A6509E0F5C4E71B4B1916440059F57D0921F496237E473A83E3E4E06353BD9D27593594D7B6707C08D22FEBDFBFFE03504B0304140006080800297E84578DFFFC99640100009B0300004500000042393238323231362D334442422D343034372D394134342D3241413341324239374439382F536368656D61732F52656E64
311
65724D6174657269616C536368656D612E786D6CA5535D6BC230147DDFAF08799F5FDB600FADA20EA430D968A7AF12D36B1B481349529DFF7EF9A85A718860DFDA73EFB987734EA3D16FC5D10E946652C4B8DFE9610482CA9C8922C6B5D93CBFE3D1F0291A6B0D26A3255464182D920FB4233CC629881CD49C18508CF000E3
311
EE309A100D61622AAB4A8A33B2483F11CB639C545B0E1508438C3D3C0361192846DB7ACD198DF186700D182920B914FC1063A36AFBEE8FBA03FFD3CC1D1F4FC9E151A2AF59F628C5B7821D83FDFD3489305080F2EE04BF962195FB285E9D2DD352320A9E827AE357594914E42B1F5FE35F83688F60C4C91A6C946ED0668E8F
311
244BC2EB0BA6E3BCCFC0B6A4B507F9F9F8D51EB315D9BA9E08D308E89F96931666E577837E2B4172199C68C4FE306156D47DF51C698C7B9D97FE5BEFE2190C3C38BB054E6E8163FB039CB4B993C80BF18D969203116D6BBD26238B821F9BB909AD6D9C71B85BCD8C33D66FEA3D31B4BC0AD45BEA46BBEDDFEC0F504B030414
311
0006080800297E8457D549AF5751000000570000004700000042393238323231362D334442422D343034372D394134342D3241413341324239374439382F4173736574446174612F41737365745461626C654F66436F6E74656E74732E62696E5361606030773677B5703272D135B23037D635B134B2D07572B6B0D0357176
311
B274353733757435351402AACB4D2C492DCA4CCC492C28484D2C4ACC4B4E050A82012F90744FCD03CA26072767A4E6260200504B0304140006080800297E8457C55C663656000000680000004500000042393238323231362D334442422D343034372D394134342D3241413341324239374439382F4173736574446174612F
311
53747265616D56657273696F6E5461626C652E696E665D8CBD0A80300C06F73E4B29FE6CDD8A2E82A083B8B7F209014925C9FBA3AEAEC7DD2555D896CB85E51C2A1BD834F6A1F56EC4494C4695278364ABB24ABD2146F88CCEBB89D5321FF8F3F43D672A3B44DF3CB6A1710F504B0304140006080800297E845792F9678F37
311
010000A20400003600000042393238323231362D334442422D343034372D394134342D3241413341324239374439382F4173736574446174612F636E782E786D6CCD94314FC3301085FF4A64893176128A4491E30AC1D209242A06B6AB7329561D3BB22F08FE3D769B0154C4D4A1EBE9BBBBE727BF93ABCFC1161F18A2F1AE
311
6535AF58814EFBCEB85DCB26EACB5B56AC940CDED30F8C150E066C592E332577C14FE35CEAB087C9E6AA356E3F17EF6344DAC0D6E253FFE01DA1A3C80A6D21C69645FD8E037098C87718F7BC03025EF380D14F41639A4466C079920E08841D534DD55C977553568B4D7D73B758DED5CB372932A9E4D67B3BF3262D0B7EBC6A
311
2A7DDCCB54254506949C8299A9FC1AA6FE52C9B7C6499148252385E4CADC415F63EA8071B4460325F384D7845426086190E2082B29B20BBFBC78C4DE38935BD6491A900FCF4920063278819EFCA7F6FCDEAC5D24701A2FD991538DE7F7E1E5F08B5E8FB13CE4E6F2D272AA911BD79F212BE2704E5274F27551DF504B030414
311
0006080800297E8457786A6235E8000000600100006700000042393238323231362D334442422D343034372D394134342D3241413341324239374439382F5265736F75726365732F37433745384232442D323837332D343932382D424338382D3443423945373635414535312F7468756D626E61696C2F302F636E782E786D
311
6C4D90C16EC32010447FC542EAD1C67653A989D6E42772EAA5A278E3A26016C152357F1F6839E434ABD9A7D5CEC0F97777DD0FC664C92F621A46D1A137B45ABF2D22F3B57F17DD594124E2274C745EEFB8886A0B055BA41C9AB5E25567575D67FDAD991B7A8CD67C06BF89CE389DD22292F9C65D0F3A33AD986EC3AA590FD3
311
1031518E06CB01B63BB60326A2665C859AC7F9B59FE67E3C5CA6B7D3E1789A8E1F202BA9E08BC835DE7AC648E1651E0D95D1977F4690155090A36D540D21D4D37320CB5241E258F23788EFA1403A04678DE6529324C3C87D8150EF20FF6105B2E62DF25746D1DA8D7A00504B0304140006080800297E8457A233C2345D0000
311
00800000006500000042393238323231362D334442422D343034372D394134342D3241413341324239374439382F5265736F75726365732F37433745384232442D323837332D343932382D424338382D3443423945373635414535312F7468756D626E61696C2F636E782E786D6C4D8B490E80201004BF42E6EE76F3C0F216
311
234B883063108CCF170C074F95AE5473F5C4C06E932E4F28601967600677D21E9D8092EDB002539227A2FCCB80E1168D80A6417297A89C5D6963B7129A0D1E8F2EE73AA7B62BBEB8B27DE50B504B0304140006080800297E8457BE89762363000000880000005B00000042393238323231362D334442422D343034372D3941
311
34342D3241413341324239374439382F5265736F75726365732F37433745384232442D323837332D343932382D424338382D3443423945373635414535312F636E782E786D6C4DCC3B0E80201004D0AB90EDFD75167CCE820A4A845D83603CBE602CAC26799919AEEEE0D965E2E908050C6D0FCCE04C8BC355404EB6198129
311
C92351FAD580A10E464065907C8D948F8F166375F655BDC3FDC3B4E530A176BE7057BDC43B2A593FE403504B0304140006080800297E8457F0B372C87E000000A30000003600000042393238323231362D334442422D343034372D394134342D3241413341324239374439382F5265736F75726365732F636E782E786D6C4D
311
8CD10AC22018465F45FE7BABD9960ED491E6838CE686E4346C468F9FC62EBAFAE0F09DC387CFEAD1DBA6978B4140733801B2E11E27171601799B310334489E62DCFE6E80C2B85A011583E44B8AF9B9A3C9CE63F6957A171E3BA49A1AA6C80D1346CFB8ED09C34A33865BAD7A432FDDD5744D318E5529F3EB95AD79F905504B
311
0304140006080800297E84577DAE2A3C0C010000550300003400000042393238323231362D334442422D343034372D394134342D3241413341324239374439382F536368656D61732F636E782E786D6CCD93CD4E032114855F6542E2726066AC896D18BA70E1CA8DBA728770DB920277C28FD1B7172A8B3671A78BEEE0E4CB
311
CD39072EDF7E3ADB7D408806FD4C463A900EBC426DFC7E2639EDFA7BD26D050F88E90C239D970E66526522F83E605E9AA46127B3ADAA35FED8C407740EFD8B3A8093A45356C6389378BA5299136A8847AA659274A40122E6A0A04C48C6419BA002C8049A8869986EFB71EA87D5EB78B759AD37E3FA8DB34A0AFE8E681B6F7C
311
8280CBCD34282C475F0C0D9C5540F01C4CA36A0A22CEDDD1D2076785103CA6505A6864FA5A0A2997C51A2553298B9DC01F467056C35E447E040FC1A86BCD7C61EFDF423F83D7109ECA4B0523EDB566FFCDE5DF2A60A70D28DFA02E84F806504B0304140006080800297E8457E3603EBE7A000000C20000002C000000423932
311
38323231362D334442422D343034372D394134342D3241413341324239374439382F636E782E786D6C6DCD410EC2201085E1AB90D9DBEACE05D09878023D01A1D34A8419C380F1F82DA68B9AB8FDFEC93C3D7C52546FCC12980C9CBA232824CF63A0D9402DD3E10C6AB03A3397DD192872090D3406ABE7CCF5B5D18893ABB1
311
690CF4DCF02282E5EA8A5BB96FFE536F285CB347F95BEFFE81C9ED5AFF9D5B1FB575BB00504B0304140006080800297E845778348C737C000000A300000007000000636E782E786D6C4D8CD10A832018465F45FE7B5B992C0535945E249685CC74B88C3DFE7474B1AB0F0EDF3962FCEC1E9D36BD5D0C12BAA60564C3232E2E
311
6C12F2B16206685422C578FCDD008579B7122A0625B614F3EB428B5DE7EC2BF52E3C2F683861847477DC4FC660DAD201734D29265AF79A183E4C9C15E3569532BF5ED99A575F504B0304140006080800297E8457CA1DF9C9A900000073010000130000005B436F6E74656E745F54797065735D2E786D6CA590410EC2300C04
311
BF12E5DEBA70400835E500FC800F84E0B411AD13252E2ABF27A55740421CEDDDD9B55CEFA7A117778CC979527255565220197F75D42A39B22DB652EC9BFAFC089844F65252B2630E3B80643A1C742A7D40CA8AF571D09CC7D842D0E6A65B8475556DC07862242E78CE904D7D44ABC79EC569CAEBA537E3521C16DF5CA5A40E
311
A17746733E0B6615DE7217475F386F18B9481C510F1F021CD9FF027EA0E1F5C4E609504B0304140006080800297E84573DEE336E64000000790000001B0000006175746F6465736B2D64657369676E2D7061636B6167652E786D6C35CBC10E83200C00D05F21DCA56CA76D41FC96062B120735B69A7DBE268BB7777961F8D5
311
AF396893C2ADB70FE7ADA196782C2DF776D7A97B5933C430F15651E5469C55D70F80A4992A3ADC954792C525AE70A1E4D6AD9816CC044FEFDF01FE3FDE907802504B0304140006080800297E8457A9F27E20F9000000960100003700000042393238323231362D334442422D343034372D394134342D324141334132423937
311
4439382F4173736574446174612F636F72652E786D6C8550CB6EC32010FC156BEFD8C6C1AF0813396DF3053DF586803828315806AA7E7E2176A5F6D4D3AE66676677879EBEE647F6A956A7AD1900E72564CA082BB5990608FE8A3AC84E8CAED6FA5F34C80C9FD500090646A7D586658784355E99841A2BD50E72E794874C3C
311
623380133735F39C071F19EE9E2F5CDCF9A4729C6F3C4643D072976A19DDF455AB15588FCBE6DC3723AADA4B830839BFA08EB4232297BAAD4B4CEAEEADA2451233EAF5FCB35DAC8A7B258155657540B8422579C7F591F447DC7FD0223119757E8D3FEF4BD377C0C674F52BF79C16DBF48F6B58E4FFAE411B7FA876D74DE180
311
E178E473C06891528AE51961AC2951F60D504B0304140006080800297E84576D97D455F40000008E0100006800000042393238323231362D334442422D343034372D394134342D3241413341324239374439382F5265736F75726365732F37433745384232442D323837332D343932382D424338382D344342394537363541
311
4535312F7468756D626E61696C2F302F636F72652E786D6C8550CB6EC32010FC156BEFD886E057848992AAF9829E7A43405C94182C03553FBF10BB527BEA6957B333B3BBC34E5FF3A3F8D4AB37CE8E80CB1A0A6DA553C64E23C470433D1427CE56E7C22F1A1456CC7A840C0367D3EAE2B243D2D9A06D46AD537A0785F73A40
311
211FA919C1CB0F3D8B52C49018FE5E2E42DEC5A44B5C6E3CCE62346A971A95DCCCCDE815F880EBF632B46744BA6B8B28BDBCA09E766744AF4DD7D49836FD2B6155167316CCFCB35DAE5A04AD80939A1C1026A8A66FB839D2E1888777566526673EACE9E77D69FE0E78CDAA0DFDE31617F5BF5B34361CC8EEB6293C709C8E7B
311
0E38AB723AA93CA34B3527C9BF01504B0304140006080800297E8457C93C4F22FA000000960100006600000042393238323231362D334442422D343034372D394134342D3241413341324239374439382F5265736F75726365732F37433745384232442D323837332D343932382D424338382D344342394537363541453531
311
2F7468756D626E61696C2F636F72652E786D6C8550CB6EC32010FC156BEFD8C6C1AF08132555F3053DF546813828365806AA7E7E2176A5F6D4D3AE66676677879EBEE629FB54ABD3D60C80F31232658495DA8C03047F431D642746576BFD2F1A6486CF6A800403A3E36AC3B243C21AAF4C428D956A07B973CA4326A6D80CE0
311
C45DCD3CE7C147867BE40B170F3EAA1CE71B8FD110B4DCA55A46377DD36A05D6E3B2B9F4CD1955EDB541845C5E5047DA3322D7BAAD4B4CEAEEB5A2451233EAF5FCB35DAC8A7B258155657540B8422579C3F591F447DCBFD3223119757E8D3FEF4BD377C0FC3DCC1F86EB8916DBF48F6B58E4FFAE411B7FA876D74DE180E178
311
E473C06891528AE51961AC2951F60D504B0304140006080800297E8457484732710D010000B10100005C00000042393238323231362D334442422D343034372D394134342D3241413341324239374439382F5265736F75726365732F37433745384232442D323837332D343932382D424338382D3443423945373635414535
311
312F636F72652E786D6C8590C16E842014457FC5B0478541C1093251EB7C4157DD1165A6644630024D3FBF506DD2AEBA7AE472EF3B79975F3E9767F6A136A7AD6901CA4B902933D9599B7B0B82BF4106B28BE09BB5FE970D64462EAA05490682DF371BD6439AACF1CA24D5D8591DA2744E79904DCFF868819BDED52273197C
311
74B847BECAE921EF2A47F9EE133C043D1F513DC76DFAA6D5064483CABA6FEA0E627AAD2121FD0019A11D24D78A562522151B312F525870AF971FFAB429E9D50C042EF109220C4BF28AAA3369CEA879E345720AEEFC166F3EA0E93A20E84047D6E31788193D41D26006FB81314886BE19695D75638578B107FF00C33AFF0F0C
311
DAF8133E807BC2011117EE1F8217A9C038BEDB8D33952DBE00504B0304140006080800297E84573DAE197DFB000000960100003700000042393238323231362D334442422D343034372D394134342D3241413341324239374439382F5265736F75726365732F636F72652E786D6C8550CB6EC23010FC9568EF4EE2E0240439
311
4650950FA87AEACD729660416CE447D5CFAF0DA9D49E7ADAD5ECCCECEEF0FDD7722B3ED1796DCD08B4ACA140A3ECA4CD3C420C67B285622FB8B336FCA24161E482236418049F9D8DF71552D60434193576C21594DE638042DD52338257175C642963480C7F2DEF525DE58C252D9F3CC163D4D32AD55372D3678D0EC440EBEE
311
387407D2F4A78E30767C215BD61F083BB57D5B53D66E5F1B5E65B1E0412F3FDB9543197002D1D4CD86D086D4EC9DB63B36ECE8F0C1ABCC14DC07977E5E97E6EF40BCA1B7D129F4BC7A4EFFB8C6FBF4BF6BD4266C9AD5F5A9F020683AF23110BCCA29A5F28830D59CA8F806504B0304140006080800297E845758139B74F700
311
0000940100003500000042393238323231362D334442422D343034372D394134342D3241413341324239374439382F536368656D61732F636F72652E786D6C8550CB6EC32010FC156BEFD8C6C1AF08132555F303EDA93704C44189C13250F5F30BB62BB5A79E76353B33BB3BF4F4353DB34FB5386DCD00382F21534658A9CD
311
3840F037D441766274B1D6FFA24166F8A4064830303A2E36CC3B24ACF1CA24D458A976903BA73C64E2199B019CB8AB89E73CF8C8708F7CE6E2C14795E37CE3311A8296BB54CBE8A66F5A2DC07A5C3697BE39A3AABD368890CB0BEA487B46E45AB7758949DDBD56B4486246BD9E7EB68B4571AF24B0AAAC0E0857A824EFB83E
311
92FE88FB0F5A2426A3CE2FF1E77D69FA0ED8DB7AA7A3C536FBE31966F9BF67D0C61FAADD73533860389EB80E182D5246B1AC01C69AF264DF504B0304140006080800297E84577C064F1A01010000D80100002D00000042393238323231362D334442422D343034372D394134342D3241413341324239374439382F636F7265
311
2E786D6C9591C16E842010865FC5CC1D1564BBBA41369A7D849E7AA332EB925DC100367DFC62B5697B6B4F909FEF9FE19F11E7F7E991BDA10FC6D916685E42867670DAD8B185255E490DD9590AEF5CFC814166D5842DAC3248317AB7CCBB34381BD1AEAA751A7751858011B2E1912E2D84E18693CAD5121311EEF9AC86BB1A
311
31A7F9C64911CDF4651D3CAA881A242B59452823257FA687136F4EB47911C54A4AB1181B2BB637C3E91575E6E69822813C54A2D89E13B618BD4346A74F9AAB410FB26F58CD187D22D5A5EF092FF991341DE784755DD5B1BE395E9A3A1549662942F469347B9175087FB56FC65FD19659FF33DAE60820E977A8629DB314C5E7
311
12D2B9EE447E00504B0304140006080800297E8457F42156CB08010000B201000008000000636F72652E786D6C8D50416EC32010FC0ADA3BB621D88E234C9454CD0B7AEA8D1AE2A0D860191CB5BF2FC4AED4DE7A5A3433BB330C3F7E8E037AE8D91B675B20590148DBCE2963FB169670C57B4047C167E7C22F19202B47DD42
311
8241F07E76CBB4419DB341DB845AA7F4064AEF7500D40DF1D182EF6E7A94995C4254F87B36C9EE2E7B9D916CD5091ECCF8B3DACD5A06AD40D082EE30A1B8606FA43CB0E6409A779E27A5E0CB62D4666554743757A367100D29AA73539D30AD2F1566ECFC82F7AC3E617629EBB220ACDCBF529EA765C17D98E39FB723316740
311
5E3E922FCF574AF00FE7864D104329E4ECF005A2E07922FE845E26F58FD0C6861DDD0EAE1B1E0489819E44344E0DC6F1AC37CED4B6F806504B01021400140006080800297E845769C6EF1F0E010000A80100004F000000000000000000000000000000000042393238323231362D334442422D343034372D394134342D3241
311
413341324239374439382F4173736574446174612F446566696E6974696F6E4974657261746F7250726F706572746965732E62696E504B01021400140006080800297E8457FBA99D8A110100003002000045000000000000000000000000007B01000042393238323231362D334442422D343034372D394134342D32414133
311
41324239374439382F4173736574446174612F496E7374616E636550726F706572746965732E62696E504B01021400140006080800297E845788E57597CD3F0000904100006B00000000000000000000000000EF02000042393238323231362D334442422D343034372D394134342D3241413341324239374439382F526573
311
6F75726365732F37433745384232442D323837332D343932382D424338382D3443423945373635414535312F7468756D626E61696C2F302F67656E657269635F706E67504B01021400140006080800297E845728BB58AF800100009E0500003D000000000000000000000000004543000042393238323231362D334442422D
311
343034372D394134342D3241413341324239374439382F536368656D61732F436F6D6D6F6E536368656D612E786D6C504B01021400140006080800297E8457E336299B9F040000341300003E000000000000000000000000002045000042393238323231362D334442422D343034372D394134342D32414133413242393744
311
39382F536368656D61732F47656E65726963536368656D612E786D6C504B01021400140006080800297E84578DFFFC99640100009B03000045000000000000000000000000001B4A000042393238323231362D334442422D343034372D394134342D3241413341324239374439382F536368656D61732F52656E6465724D61
311
74657269616C536368656D612E786D6C504B01021400140006080800297E8457D549AF5751000000570000004700000000000000000000000000E24B000042393238323231362D334442422D343034372D394134342D3241413341324239374439382F4173736574446174612F41737365745461626C654F66436F6E74656E
311
74732E62696E504B01021400140006080800297E8457C55C663656000000680000004500000000000000000000000000984C000042393238323231362D334442422D343034372D394134342D3241413341324239374439382F4173736574446174612F53747265616D56657273696F6E5461626C652E696E66504B01021400
311
140006080800297E845792F9678F37010000A20400003600000000000000000000000000514D000042393238323231362D334442422D343034372D394134342D3241413341324239374439382F4173736574446174612F636E782E786D6C504B01021400140006080800297E8457786A6235E8000000600100006700000000
311
000000000000000000DC4E000042393238323231362D334442422D343034372D394134342D3241413341324239374439382F5265736F75726365732F37433745384232442D323837332D343932382D424338382D3443423945373635414535312F7468756D626E61696C2F302F636E782E786D6C504B010214001400060808
311
00297E8457A233C2345D0000008000000065000000000000000000000000004950000042393238323231362D334442422D343034372D394134342D3241413341324239374439382F5265736F75726365732F37433745384232442D323837332D343932382D424338382D3443423945373635414535312F7468756D626E6169
311
6C2F636E782E786D6C504B01021400140006080800297E8457BE89762363000000880000005B000000000000000000000000002951000042393238323231362D334442422D343034372D394134342D3241413341324239374439382F5265736F75726365732F37433745384232442D323837332D343932382D424338382D34
311
43423945373635414535312F636E782E786D6C504B01021400140006080800297E8457F0B372C87E000000A300000036000000000000000000000000000552000042393238323231362D334442422D343034372D394134342D3241413341324239374439382F5265736F75726365732F636E782E786D6C504B010214001400
311
06080800297E84577DAE2A3C0C010000550300003400000000000000000000000000D752000042393238323231362D334442422D343034372D394134342D3241413341324239374439382F536368656D61732F636E782E786D6C504B01021400140006080800297E8457E3603EBE7A000000C20000002C0000000000000000
311
00000000003554000042393238323231362D334442422D343034372D394134342D3241413341324239374439382F636E782E786D6C504B01021400140006080800297E845778348C737C000000A30000000700000000000000000000000000F9540000636E782E786D6C504B01021400140006080800297E8457CA1DF9C9A9
311
0000007301000013000000000000000000000000009A5500005B436F6E74656E745F54797065735D2E786D6C504B01021400140006080800297E84573DEE336E64000000790000001B00000000000000000000000000745600006175746F6465736B2D64657369676E2D7061636B6167652E786D6C504B0102140014000608
311
0800297E8457A9F27E20F90000009601000037000000000000000000000000001157000042393238323231362D334442422D343034372D394134342D3241413341324239374439382F4173736574446174612F636F72652E786D6C504B01021400140006080800297E84576D97D455F40000008E0100006800000000000000
311
0000000000005F58000042393238323231362D334442422D343034372D394134342D3241413341324239374439382F5265736F75726365732F37433745384232442D323837332D343932382D424338382D3443423945373635414535312F7468756D626E61696C2F302F636F72652E786D6C504B0102140014000608080029
311
7E8457C93C4F22FA000000960100006600000000000000000000000000D959000042393238323231362D334442422D343034372D394134342D3241413341324239374439382F5265736F75726365732F37433745384232442D323837332D343932382D424338382D3443423945373635414535312F7468756D626E61696C2F
311
636F72652E786D6C504B01021400140006080800297E8457484732710D010000B10100005C00000000000000000000000000575B000042393238323231362D334442422D343034372D394134342D3241413341324239374439382F5265736F75726365732F37433745384232442D323837332D343932382D424338382D3443
311
423945373635414535312F636F72652E786D6C504B01021400140006080800297E84573DAE197DFB000000960100003700000000000000000000000000DE5C000042393238323231362D334442422D343034372D394134342D3241413341324239374439382F5265736F75726365732F636F72652E786D6C504B0102140014
311
0006080800297E845758139B74F70000009401000035000000000000000000000000002E5E000042393238323231362D334442422D343034372D394134342D3241413341324239374439382F536368656D61732F636F72652E786D6C504B01021400140006080800297E84577C064F1A01010000D80100002D000000000000
311
00000000000000785F000042393238323231362D334442422D343034372D394134342D3241413341324239374439382F636F72652E786D6C504B01021400140006080800297E8457F42156CB08010000B20100000800000000000000000000000000C4600000636F72652E786D6C504B0506000000001A001A00210B0000F2
311
6100000000
310
504B0304140006080800297E8457000000000000000000000000370000006662782F32313146393141422D334430372D343930462D383342392D4645463032373735313243432F617474726962757465732E62696E504B0304140006080800297E8457000000000000000000000000350000006662782F3231314639314142
310
2D334430372D343930462D383342392D4645463032373735313243432F76657274696365732E62696E504B0304140006080800297E8457F270F1330600000004000000360000006662782F32313146393141422D334430372D343930462D383342392D4645463032373735313243432F747269616E676C65732E62696E6366
310
60600000504B0304140006080800297E845788E57597CD3F000090410000420000006662782F32313146393141422D334430372D343930462D383342392D4645463032373735313243432F7265736F75726365732F322F305F67656E657269632E706E67355B773CD4FF1FBF73E71C0E67EF7576C9DEF3EC995D46C6A1EC50
310
46649CBDF79E192942562825CE965D8A868C2842C8DE9FDFD1F7E7F138F7078FCF6B3F5FCFD7EBFDFEC41B196891913091804020321D6D7513FC77D8C5070EC3FFEE51B21F068154CC75D455CC028A3EA68992803810109FDDE5D5CEC5521B28A1B422BF80741695D5B529DA1C2D058AD2388BDA9F476F7C2CADC939304173
310
DBF48A452BF8A700C0C70C3D121C1AA15A5270C22E2B9E28763651F7DA0D12CE11077B2ECD0D560B5E3DE2368B1E65C5E1C87384A4CC5F2D9FB8BE39E9B77C753783A37998F5CEF1B4FEE553463245C9712270880DF339E0B882A6BA713D865F6F384C842D440934EF264F4A304F8DE4EEFA1E2BF5E2D91F5ADD9613D6E31D
310
DB33ED31DB1D7916CAF091286EA3D31B9CFECB78BB0060245B943C4C040119FF780A74DD308BA9D028678674EB5504ECF284EE814DAED07440BAF649BE4B55DA2890F4D73E2D489A59EE54FDB0A85B59F2F52C4858A02705C4815A792B0C4A996A2023ECB195073E115E3E3647F64243A8338F2000BCB58DA5692C7E7C3D41
310
3F963FEDF3CF00FBB0F831A9D51360FECA43819F527B89FA260EB63C5DA676830AA3626A3693B23F1A17A0DFFCE3EE164E31B5365EDF0C89EF64D8E38AB0BA9A1117D7C3A0EC44F44F4023095E80BA610DE336D0F99593A88BFC5306E72DF98F7FD132ED95878DF2964EA7E43071359FD83B2BDF9C6B5BDF768F0F3C0FC351
310
199526F53D9460A34511F75D1B63E488178569472C91A94497807A3FD4A390C6558F26D416365C3656DE6E769DA9D8FC73774E1709812842DD8EF96AED1960F79D21B395CDDFE6F92CB4EB962A4668C76990E2EF29798C8941D67DA50F4A5F947872460F1F6FDB794E8A29FD7AC0C0D6E0714339CE258FB17AE8535221E346
310
4A10F29A0BE5EEECEFC5675926A89F49EB14E5711894F6586DB5754EB4D5DA9C6437EBA57DB97A24F8B8A8DB295FFD73266CF57E82694DF5166DDF93573AFE9C9C5EB05F8FEF8E89E0A8917B0B3724DB7BEBB53252581EFC3E38166BA131A3A5B42FE2AD00A769BBFA4458D2DE7822F8C4F63D0B8E21B285AE13325F3410A4
310
35C648C9D91FDEB109E73CEDA7BC796961AF79175E1A3CE4C5E8B0D009B0C9E29EFD98BC8E97554E3D8D838424E270F7685226E5AC268E021EDE3522D583E8F20C0BDE2959EF5BBFEEDAB32FE9A3ED0E39F211A86AA9DEBFC68182EDED132AB8BB794442D2D7EA9F4D8BFF52BC4D55BB165124EE90A42D101E67BBBB292FFB
310
4F66DE5BF2300E44546757DA7CEF8932BFC9F92A0707953491A55C5A5ACEDABD9FA1AEA01BAC3DC5A24E22E7C47213493996EFBC369D086ED9397C9BA6C7F9855C7BD5E15BFC8C53DB3D2A4C5901A57ACD2FBDF4D1676E95338B2C2BCE65FDA4C64F5FEFDC7D9CA5AA1FCF11E193F2FDABF0F4916BF13FB916A224380E6462
310
A9815F2300DC49CC4DF8D055CEF76462F4B7A7ACA7365C2707891370BC1D0AA6203C44CCAB47084FEC057F27FFCD57F89B8B9852459798A675C66BD7CE572CAF71FF7E6D7ECF7BF62CAB7B3F1107DCD04DC55A3F9961700286141C94A4F771FEB2BCDA2DDEE0CB0BAE402FF1DB0100F8E475DFFFC074DDB4498AB7D186A765
310
4DDB1CB680D703D47CEB4E72F8CB13D86A4AA68116E26387B93FD6738779B34FEDB8E517EDF2BAF28D9BE93A1D3A164320E07D42E514725C29515FF361754213EDE06B079A2E99EB1CA82A02019EADEEB87B9AF005BD04BBCECB14AACD6B24EFBE482194A97DD32400685FF1FEF1544D1B14EFB1E7F08E6D2CD2AF52DE757F
310
35F5E62332EE88EA26417AD5C3E0E319D68F25414E6D672BD4522B278C57D18F0113921C71D96527E091F00CEB15AE23D24667369BD3CEFA10C7549D930890BA4366F4EBC55F01F746109F98ABCDD5A3EE06619C6AD78AB33E48E4C9BD21BF7478B385EC05C4F8987E2C1BFA0A60EBEDAA0AE0B015C2720ECE180FB6F2DEFB
310
EB822D96338C9B63822183BBF52FB664A7AE57003AABCE512BF77E7E31BDA2E739AC4C131657DDFE5225E900FB56CC01CDE808FA4A9C9DA16AC679656BB64796283D89812B8F91136AE18EE5EBBAF47A73BE3C153EB5D4CD491B4BFB4FE690A4CF9ABA08C0D8AA64220C438C96EA6CA80B58FE5761E697B3A292EB9FBDA502
310
FA863E49FE694ADDFFF9D62C520BDD1A22014147A0903A05B9B729F54272EF83931FEEC057BFF8C8055C279EAC5C0011804828734024F6CFA319C9CC6867C727184465CD9BB7ED386AFFD96B294A85E3802FAE47244602D8273615952B98C4F23F7EAE4463D9D638EEE374A20959E0FE519C4CFB0FBFE5DD80C2AA3F9DB961
310
D1BDE57E67C9BB47B77FDD74EE3094F5DBBE3EBC1FBDB7393F5116263009E2EFE1AF9A221B2AE234C902BF70E9F280ED23E73908361565964333A3F01D0B006AF32FB21AA1316744B489D5A198E85299241735BE559675130955C902A8ED761FC0DBE337A9F91919AF5CE32AF902ADF9AB2615E00E8A94586BA1A90839B618
310
32FF1BFB76D2EFADE6DB1BA04CCAD3DA649E7E2A0219F592E22F2AD54847EEA8E42271011E9074F8F3DD9FBA6CDF88FFC9FC7E811AD1CA8F4557CE4AFC7BBEDCF0114A48689F20A584520C74DA8127124B767E2FB91A6B186246727BE63C9445BAE02088D58B8EFDC0F1072407CD9B89A13F6303B4A928F593AD489B58E686
310
9325790ADC406036C591729FE14021F94B7796BB11848D463536A092A26F077F94639F7CEEE2A724C66EC885F4A24F8B8A0AC321F8FD149BA529460FAA34E4663C02D41FDF80BCA222D42F0ABFF8490F4FA74C673807C2051D8E467B47B616072860069A9A303ABA9B319D58404461401B0A0F9BE5E1E151C14BC33B32ABE0
310
3DDE91708DFAEB15E7C0D593C86BB7D7EC17BE56E57975F077BFD5525F3A1A361D584A75E08CF29FC7B44B2B3085014F3A5A14517377C3F6B8F37E59514C3B12F8AACDEDDA4DFC49BE5710101534CD6FB6DE15B50F11A09472AABA727F0C49D9CB906B158030065F48EB3625E010CEC1D511D0053474B11E6A4F01C0D6EF1B
310
ED3A944FDEC70E0DDCDC756C86545910E0DAE3BE3AA9A404574C2995CD5CAF9549226BC94B4F4F0F5F9086F418F6B32346464610D8BC7391D3C3A3CCF04CFC1FB2A3A3170E369511868F14EEA4E5E438CC73DB1F3248AA94B6B2FF33B222FF3D1E7BF146CAD229770158063BCE4F5391964DF62F7E52A7BE0EEA829C9E13C4
310
C147D6F93FE59E111DAB5E4594D6F3CD1AD375EE039930EFE5AF2BB2D41C83C7DABD8C659BAFBE8FAB392CA634F3D15C1D945DB4588D2B0824A4EC928AAC565557CA2F0DAA588CA5BE30B3A8004F7BF005E96CBF891D7F18112A3619FDF530DC8AA64954258E1811789B5189B49B4EB53F5F89F7D37523894F3EB57B373763
310
C91E502F52CC99EB7BDDF933FC324C4FFC2561DFFA7339FAFDD0A4BFBE6D3A8FF9ED1FC49898139864602458968913181918F719CCF5A68B2EE9C1FF050E34E63107003B8120FA982C21B30A874E4F5E4B38D5A8290C4B8D9BE48A0BE31EA995BDC37AC6DE90BA17D259DEF53605D55922FEB1855D915B659FBEB350EE0DFB
310
2F9F766E1C84CC8964B75D08667445EAB966015F63A18A9E0A325C1B3DC628C0D3CB60F767FA93CC65F25458BD23C3B312716E5F40E5858AC06EBA9AB14F95DB99147B832069201541D09A0D856E12C629CF32683760EE855537D1901988D5EBC156676C7DD51D7207CF3267AF1D76C2AD867315E44618015313A98B19941C
310
696FED3461CAA9B5415F918556D7802EDACEFD6B2E45853A9735DFC9DBF7E440F9319F8B6805A973BCCDC76C069A9144E51F187EDCC12FC31B5DEAAF0A76137199B106EC84ADA6B6EE697D4E6A96E007417F4E880E8B1E89B4BCE9D81EF611E2ED8F0C1A6C25F620FAFAAB656A7C42D464880E8AFAB0E0FC8EA38CA9A8AEEA
310
EE3E4648BA4680270A89743CDD3E6C6CBF34B7B640EFA285ABC7EA0A1E28F3CC963D114A80123EE66D0AF7D5380EB41909B605AB4765B709B808590458157E69BA1378FEC4B48CAF6A730E3BE3C5EF2DD1A5EAF94B1DDE50CEB55DDFD7EE9A16747FA4B223359FB1FCC69E1194892BABB93A1D5C4E807AC0EA2E30180811E7
310
7A2291F6E7F7FAA5E0F60215BC6024E48DE436C511F0628B8CA189982D4D83CCA17D305A7E923C37941CFDFDCD93ACAF735EF5F0E61BBD3E6C41A59B242790D3A3BAC7064DCD89AA2E37214EC839820949D5CAA31E240D2948E48F690298974A96BA9A8432BC90F5071D6537C9666EA4564796B7AFFFA548077BEEA75F6308
310
3435074BA182F3699557397F71548383FDA8CA34D99B981E72835ECDA5DDDC151315173D05A21F651AAF8524E88209E2E7A737ED1045800CE3390050BCFB8BE588DF111617874C62575039CA588EEFDEFEFE319B739DE2EDC147092A262611E159650E787917885EF08F1F51B8F2D8A71D60B58B190FEF9541A1BE94BC19FE
310
A50784DA1419FE4B0FB51B8D36B5FF8E1286FD8AF42B91E59A5F1CC4D60174E764045FD8C57B18209B217F89A62252BD20BE0E63E12B8E8F029FE19E0E8D0870F58721A557082250D5424F7909369376E41666C0EE77CD87CB283F661D5FB6D0DA023CB67320A20DC7BE661E9E1BFE5463085C557DA1FF9BE835733766C3D1
310
39F2CF9E2208873AD0EB4814DE9E6BF2CAF81614D4D43906ED1C05A3265CABBFE192770FC2F64F940CB6B17B5F166F133C9AEEAD2641807C3E69515171DD74C4A85311513D6EC9530B3B601B6BA3EBFF3B5C3D2F7D69765141E345F75433953D013ADDF8F6AA7DC3F4A7563FE5C7D367937E2900D7EAD0F9FC9A4A1A9B5BDF
310
1FEF08532660C01C5D6DE22199AA774383E306DAB87E301ABB7D213887F9869D4942D0D71E94B27EDF216A318BD488D45DF84529EF575AF3C3938C0AAA0215B01994153E2054A0B894DA5C784980633AAD48576957CF4AEAEAFADC7C587368551C73DBE1E57C58AC713303A8BFC258BD04B51724459FF9E24C03A81E0E0679
310
CEB9B348C0DC998FEB9C6D6EFA77D247CC8F92D3848599ED89A23218D0636465AD1CEEB7DC140D7426F83491C4E8E8281C2FB35240918FFECE880CA2A42D70E8B20B34DF5221C7DB0CF90ECCB9C745B37A47E9B716FF7A97B7A252C1F3814DC7B1E1A7F72B8751D524EF7CAE45B0C73B3BE7D08ED39781B380DDFC9AA4A474
310
9C9493DB5BAD07A6EA6C092FBD0E85DB004DF06B8C9D3089C5320187E4CE1846158C7EA7DDAE8AD9AFFF21AA3A1026BB06A259845E8232DEE62811A4DA9CEAB3A4887320B76E2AE5615EAB7BDF738CBDD01F1E64064BC13D9EC53576751CA8CACD58B3CEB0E6CA585BD089B2A59B9FC101403387AADBDBE70586B93D64BF3A
310
D4453EF9C3B6A93817E8346991798601344F79A83C51F3D50F7BF2683A3605F51A72449489E0EE6169C749C60B1035651103AEE24D24E51A759C840DD3FC6504DA6FE107510E447B43461C79D22970B75DE5E1BD3007D1AFC619A4A4A69B5626AF5E9B8374E20677F77E2F8E73DF868E8BEC7EBA7B6A75EEF7205E1AB9486C
310
B642741D6E03FF13FCCEDB1C4AC129886268B01CDF4B124AF797CF784F3C6DEC97A17D4B558070A0F1C04DA4FF9BDBF34159AEFE958479824B3F58EBD1E19088A2AFDE501B6F2052368A3FD0E650A179EFAB1561E1D27527077136E652676C3670F42DCB3352F48F6BC86D2C3B0051727E41A0A4DC6CE2BE9D47F5CAA2935A
310
3C0539AF080665997194ABECD723B08129CC5B6B21D2E7D54CD4D12610E7E9FB8306771A89576C7A982002775ED44F3F744CF21EEBB27A631671D921938AAEE3EB0D19CD1E083727F607823E817BF599DCED5394E37EEBC2E88782E638920CA641EF74D4CDFCDEF06F4278ECB18E31E7E9876F2D783C8BF429C75395F57E98
310
C2B495A3DA077EB3AC3C158608B6B57FE3EA48484D9A480096FCEE0DE880950E7E5A5714131C5C41AAA29FD19AE81AC145FA1B9E85C7169A5AB837B213493DF7E9AA4B5FBF9CDEB36EBD21EF1181B7CF7366AB2A951D01E37AF4EB835D1BE8C117CFBE7625D2EBCDB0B20C5A4B45CED0BCDE3EE8DA9DA78C2E21DEAAFFD119
310
7E463C33CC6A80FB785669B856EFF7A8CCCA2841B5A5369173320B1170C368B2748D81062EA0296E5E2D95D7667A4A46D98A6FF475C76AAB0A8C8D45E226FAFC9FE0133EA9F60111F99CA81ACE03A1D14C89E8B0D69079C91464FA1D99E651D0EAF606F345C42A8A1AA9BA391031582B96D5B4176A77AADB01F12FD298A75D
310
EEBB2C82F0B8650E880722F8DDD90C56A7A058E5FDEF1AC93545BA27367C76F5D8F9690CB6F8DAE141EDD7971F0FB548A2AE435F224D6E5954CA155512F7332029D5A1230854B79F258EC5FFDB09F5F6343A8EB193229B7F7E79B3E48F8E183860B38C8269D1B53738FF1E0BACF6AADA6D4869E9DE708E79B5DADCC09B1BC7
310
6F649731CFAF59A83FD8BAE4C749D66FA87A3810D4D62FFE826FA400C0F325D2BC0F3CA35F5847B82A2ACC7961745C823E4D863D54460AF792CE6F79B5C7A33B25C3AEA6CDE15A919B6367D781E9D44F61BF828672594A3E1D9EDD6DF179A81F27EAC05B936575D73E05C209DDD2115CFB705DF9BBF3C911589B3640735E9E
310
618FC9C36A7326C82B2205E244C55D56FDB9D5DC93CE958D4BF8174D2B3DA54CB3C09F2C2A6DFF73D23B2197355761AD421EC581284A7EF8DE2CE3497C0C804D49B41DFD6A7360844E5BEFFB495CFCDB97A4595911CDBA623274CE852B5E278AF0BEB1770E9D37CD977B2766A7DED0E94B840E1E95E8C77DE5CB6354AF7871
310
427C28ADBEEF7BA0A28E19DE9ACD75F379FE373EAE6DDDAE3834692F9C2B03B4FCA8FCA9ABE8EEEBEBB725B88A7C90941E850682CA04061A7DF0CE82ED49BFAFFD42C309818FAE14755CAAE78B0F73243ECCCAD7DF58FCB9CDFAE7A4D3E6671A613639130D056C8383C8F4FCF4808C331E544DD26E4755D09EA05253B3049A
310
1E32587CC25D72E073E2CD96D04A71BBCB0038FEC3F53D254199C3CDC67CD66640269431860225392B2CB3ECD0B4498AAE78BA1994246AE1EE78F2EDFB79F6C6CB6B5E279C4D373FBC21CB2698C9ACBBEB6A4BB6B39E16AB0E421CCBFC7654D81ED86022F9BB522146F9F4772E2D0E4FA70120C95A85A417BF5078B232F475
310
4363EB1750B2AC2148EB46B1EA72AD9B4D23ADCBC589D70106C3EC2ABEEED84DFE28E718C6C83502C28E9FDD3B09DA0A6F6F7B72B706A31C9E2A331EE70DA56A083D2177BFD63C55B11D8D949FAFCF90B23A1E24B9B5018B9A17E99F2890EC302F330FE7936E2C23F0D237EC8916F5166AB84B62A21BB0B950146962D754F9
310
2CC2C8877BED8FC7B7B25726DD19545392570B3A2C66B58F027BEF412E552D12A588C4A3CC5C3193FCB3485EFFF700D0B9EEC077754A33DC1FB9E25AF814628F91DDFECB667D3F7690803F38D13F8AE39353523BB08FC6760144AFA2CE28236F65EDBB3D5F59A57D612B99E3D7E5F8A851666BF9B5A6658EFC96EEB37A378A
310
BB0EB3FDDF1303AF32C41BD1C8560745D7BD81066B0D6313359CF488563D3BA3F8E2185D1FAA3EBA1397C9D0E3DD232180A4DCADB6AF25DB3AC3CC26589C8239E66E81547BC7E2F328F9884764CA37EB5DBE390DFC03A5246B456A7C3684C4377D0EEF9A350680FA9A077E8B2957B489E09AB1AD41316944C2254B5984830F
310
691C93CAA767EECF976FA5647538830B5E63236A6F0365C1E0F3E327F24FE35EDDBD7360B0F7374837409F7A6311BECC12B7026D4FA1AE204FA3F5FE904B1F420C7A9044AE58E403E7C4848E7DA25DC9EDAC79DD756FAA26B9EA83ACE8A214A2612A22AFA19DAE7DBAC5F8CDE1292A485F98DAC731A29FE01A3966E96BCB9F
310
B5A4C8830E1B9AF0C54B87FBE221A097036E5D28D1F869F810C06A9BB0AC0612F69AEBAF893C6E7AD59460208BAB3A6B09CA4F6BDDAB8CF0D1F84B72487498395A70DCD754796E271099A567A55CF242BBED64696378BB6CF25EF0FCDB589F3A82F1116D010A9AB9FA4358809EE0C973A2B4229BAA876A70B03AB49CBA7FBE
310
71DB1832FFD32F9BF2C8E98075CACAFB36921235D0F552B6A67E94E094097A5D7DF681B40623DA535ADA7A9AD8E9A62407D7C9A5AE51D62A17A83A23728DE86BB56115804D3F2675F2C6B87541A0FC497BF0CA86420F558C9859EBE9FAD62747E323E3AADC03FDCDDFE7407B09DA90B44E3185723C5381EAEF589765E2F7A0
310
99BA46695BAD60CEF3491B8A171F5F56444F7CE9455312C3498C74173AEA0214EC029833B34B650CBB5A5508D5091665309642791708ECF27CF11DB3D797D6CFE474453BD4BFADB768094B2147814D81C7CBAF8228DCAF5564B5891F5EF6A860EB2E323CB82AB868D8EA048880D63B0DE5341F1B3D53297B928A11E15F25E5
310
148990F710747C3509ED14909C552EBE3973246FCE55D00564D8310BC3EBC5085D08D806799B77D6C57FDF5E55837F9E934F09C03C729271B64F12D0A9F9E938107CAF7BF1EC8CF1BB9B42363D33070F4CACB425E605DDB0A34A12BB936DE286B9887A4E2E558F0886498BFF49C311D96C277CF6A9FC0D75AD0ECC5226D7E0
310
E3572012E56D7FDE4410CEC7A6D0F997F225A2055B8B92E3956E875AE4993CB3D4C9063AF98FD45E1BAB165640A43439A2C9181A7C355B297C0A0CCFFAE19B6FA3C2BA238A885FBC98B8F6DAF4B94B97304878DF4D8BFF6A4AEDF79E90ED4E68F00CD7299F4E0D83E35601AF0CBEF18C1E870E74758FA91F5131075004DB3C
310
FCF09AE1DABC11957FD9808C92E8A678CE9DBE40DDA0E0D1D505AAFBCBA208232BFB6FB3704E8985E61ADE53DE74152F5C7DE74B1DEDCD37DC3E8FB30D7EBA8B9EFFC3606BF90B8D438279CB7709FC7C00D327F41817EEA71CD9E49FE9C8C9A81C70915D9F0F15958EC5AA4C3BBFAF46986B90F188BDB24B89DE3C6F29EC3E
310
6F66D84856EE96A35E657CA41B41EFD8DBFA16AD6E91439EA92B40B21C053249F51AE50EB0B24C770FFAF40DF12C8436366819C48E36547D4E7B72FE2BBF10828583057814A668BDF183F6B2E58DFB151103E56303E63D00F39C27C4661605DB644D19175D02E3F0241E8FC3458D17AAAADB117CE9EEA690D0DB01E634878C
310
04C2C9310B69FCAB831151E3AD293BEF6E46B0ABCECB50F5939B39C613D41E81FAE8D34CAE3C4566B761D37185FE864AC32FCB71AEF39DAA5BAB88609BB980CD2F07A8F941653B529567726E2B2A58D079DD57E1E5E31426CF184A04D7B03B985F276D47406AF276FE32E3328BA866EB1FD39BEF57863A317634AA5FE46740
310
9B3873F5069EF0D71AF00AD189D17BA1974ECDB2D623E9E14086386A6AAB5807825C37B015BFE892AFD154920EC437EB945D958E18622E1E0FE2FA06557CE4BB9BBD05A2D40E774DA2B65473791E314B7D6C886820B2FCFE4AA272B3B8B15E7344A145E8AF919B5454D89D36D413E87211186BF6F645E5EC94DCCE8E1C7990
310
22E4EC9BC86D7A0F2AFB1FC4B2CE48F84B3F49ECE65BAD24CADCC07EFF39AB06BE9E6B27A059938EA7208838455383DDBCFCD967DDE4650EF92A14FF933C975DB20BD7FEEBC4487576485963D757D16340D9599FEB362F775F38CA4185A86F74B629C81B133644A3B18FD056E997E0734F9BE26D11C0AAFC669E2AC9FC41D2
310
81F8B2E1C35AE27BCE05F3DA295488096688719D974DF1B5D182DB7792288697F8763CFB43562C1CDEE11C4AABD5C22B6E33F6F389CFC3477C5919DC0D533F8A7A1846B7ADB60ABDC26C43D0CFC8910B7C15EE22675BD02702ED39DB77A87A192CA7A543E6205B979B9F5A6B512A3CA799E198B2D5797C0AF8D1D872CA455D
310
4D431A7879D4DD76110B5FF7F4176B54477A9EB5E4A5D11214FDA585F0382751D8E2582BA5D2075053298FEB8F1537304E32CB22C2E2B693DC0A760B1DFCA751BDC445AFDCBB12820ED85F6D5298933C7EF1211E9E057684056CDA3FEF3BB6052355E162DF27C59E965A8DDB7F9437EB72CDDA3A090DE65A5B2F50326247B7
310
EC67B73ACC7047FC9B353D6EE990F772207C6EC52B39DC2F3C0754821DAB559F7C1809C7D0DD5B0499D0442E0A6E391B3D5DB46D11E731E6794EC77523FBDAA242ED67F9FA1FB684255671F63C9BCFE6E7E896D51001A6113EF2298BA494E0B0980D1FA5B9D60796554C02256B1E0345FB7C6186B6A19D2DCA270416262845
310
FA4F42DB5D9B0A0B6F07FCA2E56C242522E001E0CEB734AF310FC8BFB57E38E03AACE93B3326A2197891E68452B26A6307FDABFEE0223D3C03C3C73D2D5BC054C8311F12004CAE488E5C29287F8156A2CAA4AD0D7BE6B97264E4139F437CE73ADF52E5134C52B819777C18B323A5924E4F67AFD13B1CDC3A61793A79FAF5C0
310
CEB718E441071E797C6DCCB9EFCF7E4A1E9F3DF3C2F9C9E8294E9586868788C972857FB0556D7A26941A7EEB9B580AD78EC40B85DC906B4120A563CA3B87797ED612D3B035962BB75F6515A393F4CB057F564CDF54F2E5A024514E6A1F901DB80C7E70B1FC05E356A7E72FABF4775B3E3FB8F70A2A8E7B6A94542BB3041579
310
78CCC999E707A29CC795E67A59CC546A5D47B368954CA7B6E75EC9E1F6FC73CE3B4F71F8CB1A6B15923D61EAAEB14626AAA9D04A26EB9C66CD1BE86CA31A5D8703DE04CD1EBCE4F5CCB62F93909AD11E55799A781A956ED27D3E738F4538CB04ADABC7DAEF20BC35BA6A90BCC1DC61BA05F20D8832FFB9BC9B15E2DB838A0A
310
FBB7E0C82A562127E0446894F427794C3037186F622BF24DE1B00AA10A23BFA47B2A180D6DA5AD6F7326FEB8C100C2D7142EB2A0B2A9D1008A09BA343D70E054AB69E2A7EDB783CBD92537FAF4A44D1296AC2792729104B3276C276C951D0CF3CF3F1E6B017720A7B8505A5FF9589365979678C36F1BAF759EAF57C60F1FF5
310
FE9DCF5F8E764FF25A2D06CF25117A8FED51884C13B2B750DB0E4F5E3D64124FCF11F0AD8F1CC3B3DA4B38ED22BF1CB2585EE6BFEBBA63FBFD44F9537B9B37BDD6B358720F98A8125AED4349CCFEB0E135F19E208A04CA7E2B10711185D72E381F448036EF57C9F874E54A971CA37A639E986AC0226DC5AA00D5B14FEA9192
310
234B3DE617814FC221C92F33F1D392F297731B567FD98FD91D989379AF567A65B8ADF177591DB90FBEA99BF4ED11B16E50A0AB1DBF1156D034BBE04D69D08F939D8E92BF525A1DDAFF80ECBC95D8F45D3FDD289FD23F7D8B452F8EBB34EC082DEEE68E18EDDF072060FAD2AB1504DD4879BF67099FC58F6E9DEFBF645D1633
310
4A3E9A127C6F1AF6132CF287E433B43A0EE93812B4AA0B194E03EE3FF91EF9C6ED0074A2F6EB18A96A7C9890B1FCDA1F2095E944DB911ED54C60DF16FB74C8CE9BDC7C54C4F14078CF73C2FFF1F1BBCCD7CF64F71407EA1683DBC410D226627F66E509060D5C0AFD611DE681D509DB8DD12FB1265B03C6F5C55FF4C30BD941
310
87FF692B4F152982502F193098A789526A038AB529A52BC0DC4FB6285CBAC10A8B8DB75DCD9BDABBB221E27D1F8DA9F5EE5926A1C8AA9BA9BC09239C6A7F12914EA3B59EFF7AAEC3FFCCE56F1C5C2980AD072793527565E774F4631DB178CEEC691B1F367BEA0CF2907E1D6B854D527065979DDEF002D8B2ACEA7CE21AE297
310
737EDE1D45B31233B73FEA35BCFDD0B09721FDBAF6432681F2FD10C3E9EFB246FD6E854B344ACC9D8A0EEF876A7314B49B6A499FC650B099D650DBFEC7638ADFD245E2B7839DA5AC5F7D5623FC0ECEEC8653FC9B2BDD1AD4D00A566FBA7186DD3C9CD26512551637498CADB950FEC71ADB9A5524285DE328B8EC7EC75D2345
310
AEC6A27C42AF6D9B92155315C80DBFCABBB7DA0FAE425C4FB896B15C9BFAC4FE67DF5A23D30C93DA4D8F36FB15D100050DA6062E22AEC5F4DAC4F6FEEF97AE05DE63C6D38F9E068A20BC5E3B6BCD75320C5090924E7F93640A7735B1A43451C2D91EE62C6238B797349E59890AF3A520DF4A87095F3ABEC2E61F0593416CE4
310
6CDCBE0E00E2523FCCD04408588B5B6C9DB6459C786CE378770B54F51DA3A5E1DF2A3349BEAAC234A6CF8993B598B3B25B4B113E353A4D750FA7534749430F3EBF2512E7EA3FD43C6AB9A1F765A58463B306721A15D224FAFE8C6F5E3432D57EE697DA0DD5A9D4866A8BCCAAA9DFF1F06047851408FEC060471D0E3EB86BFA
310
F46E4B5E60311DC3E3CEA147C75CF971BE74689507154FF2D2E92F15CDB2B9182B11459FD8ACAC5A85F174BC94A7F4EE4C4F5CAFA7C02E37BF0BC77B7DCD0C047BC316F562A01A441AFA7931CC84A28CB9F4AA367EB515778F29BFE61195FA671F4352E5E46E3A64773F1F76EE5EB36D7BCE9BCEAD837A4D77F8DB8C92AEEF
310
6711920D7C7D0F76B0FD0EB7AB83724CD35BCA7D36DDDF5FBB7FF6F04A91F3E2BB3B8F1A43CD659639507FF6331C5F697BCC782AE57D757A27D97F1AB9E0AEDB43F92F1B2AACDF5FEC8ADBAF9F814E2027003BA2F9E144B1938A7A04050AE5D953B82C45619165C813A10E76DD6906B3C16438064D14CDA713AEC420034613
310
E1AC7241904A49FBF87409AFB1FCB9B72FE7933A87D8FBEDACECE4EDCF6A4FE9FB94D5DEB74FAB7CFEAE17EE965DF980DCCA2D04134994F9A2E94D2265DA4FE6AA7B7AC15FACAC2B5ABBCD7DFF542C5314FDAB2E1B9D8B65220B8E2B638BE008E8DCA22678C820C5053664D15E89F2D735B51A84955E81A443545E9FF787BE
310
0FA700A76D136C27DA179A7C6E8939E01BE756E19CB292798063D8B97F44E8A27BCF3A614FEB8BE974A718E86F7EC99B53CA35FA24F61F2B07266684623A3D4CF073E511F3A10A8FDAFAF0078C577F4DF9D339FE7862E5FA47CF4344209E5BF76D783B1B48E152AD281B15FCB934DCDA49CEC5706B1EE8B460F435324A5CAD
310
154725E21AB8044B75A557A79F6C807B9340AA3D92503E866F4274412926C8C504E4D5EF8C0E68DD0B028781A6B4054F11CF18941F101C57CCC796773ABC8DED9CD91FE5788806C05E548895354AEAC96546D55B0E94A59F148D061F42AA398D822CDECA4CDE79E13469BDCC44FDC990F366BA5978C15F97ED80CBFD73B0CD
310
9B8B83A4F6845BDFBFAF034019473FB9A63BD55D3A4A7284757071574029A4D016DCCBE95DD679EF3C4880BF169422F8C89B68A988D2B13793CAED4F74DE7486C72DC94DF46B8E93D8E02EFCB1FF9B3BA10C8AE7F653DF94F4AF466CDDCEF5776687F7C4C14B63E4EED1719DC2EC482D7DBCC7AE518CDE3D5FF86D39000EC3
310
673C0044E1D308BF05F74D1B5F033A7D1BE7F74BC55BBE3E4A20F920946CA0271EB17BD2B80E5660ACB8A29A79F5E4BBA49D4D945B6EEF4A7EFEAA65E5555BBB57A7E15D2F83C69F30BBB978D2B39F1F26FC097424D39BB33CA3D87ABF64E307938B685BAD44F71556A30B7E712CA4FE600613C3E554B69ADE949A7CFE214D
310
F1FFF05CB82151EC6FC31950239F94CF7AD39DC473F6EA356E5EC2C4EFA04383CEFE985A127484366FBEE3C0EC4FEA363E4F6632AE781392FD45D67B63FB8DF70E82734F431FD3443172A0E30A83D60982D55FA6A2CF86DBA8382502ACC6CDEF3B907982EED1160E14863FA242F9757347E1544275CCDCF71ECD5F8621CBEA
310
326B8BA884AD7F825781923E66971F04010D574C541D8427A438A37EEF8AF88240EED7362C953F5A81DE2D56109CDE2524EA0F5D2F87308C0C47BD97AD605878AB8589E17CA83930CB5E0DCCD75853D68B1AB136594926DE426C367428E9334AFAFF90ECE221BB5DC9E5BB53D2CDEF954EAA9CD814F0E5725F1965DD458E5F
310
8487683AD86B9D0076BE3EE91EB1CECC5331A67A3F79D8B27587C12EC2A6A70474749F27B4C0BBAFB94B34189E88DC18964BE4121B9137FD516C7755356E50D6714E31ACD222621EBBCD1CFF81D87479056A9DA0E0B8EA19D24CF937DA89F78E8650CCBDC110AAB6C4E46DCBFD0446BA9E2060E81F314AC2031E88135E5476
310
AC0160EF5C0DD2EEF1B8B5CB2D198BE9A554A9093B5F7D7E4B5407DDFCA1D9C152FD97F55BFFFDFE802954DFEC8995B983E28AC92F1971E28F531DC407A1280EB125F64A72E617EFB27DFBCEDCDA2D6F2BDADA36873EE46B9BE1782998C63DA7182BC383FB6FD15DA472B175D7E8B4FC88F38D6E07FEAA3FA3CBB8F6B449EC
310
F14D2175E5C5CCA3A42ABF24CA6C9395AF74535F4DDB38CB84F56614B0FD32D7E19CA5CF988DB4449C40E23DF2B16772594554579094450F56F253CD25EA7F77366FB1CFE79696C428BB64D5A41E986189427E5E4D7E2DAE3D5BB4972B3DC44EAABDDDD63A2264ECFA5C786EB0EE1FDC5BE34FA0F08376869FD1E61EA06CAE
310
15191135445EE8F0394161C3266A596AA035572BB0C8876180D8B9C77D307DF9DCDF7365ABDA6F3A2366436457A4DFC1F259666569A9E4A79C817BDD5610E5200FCE894A358EC72858D50EF67545DA81C6FACE3D457BAF70367E1E6BDD9A952FB4F56247F58F523B97E640246051A72F79BE42FFA0B3187F63097F91C48B86
310
8586F714B0EBD5A00A8412C1236E1298F60C72BE6C96B82B404CADAA304AE9F303176B14BA53FBC2D5E86377E35542019E24D97B96A49B2C0E5006E7795954DEAF5DA58958839043C6C70BD3B1B33B6DC5C31316D8A6923F142E26F6711A2258AF977DDF1F970ECC4F1F2B434B96D81BEB6E89BF3BBB3C7C8CC80505070723
310
D6D7D7D3C8CA27CA164A26024FED94B12A86031867241DA53D929636DA600F050BC40CE48B8BA03D69224720DEE2ED2127390BDF5E6EA64527BBD4C4C63FA76BB801FEEC0E61218EC98A8A86CD8313781617877E66692839B9468CF4DB8E50A73986E558E309C0D6F676F921BE02F1185454DC75B111572FF9D27D85EA14C0
310
5AD7271225B391C4275659CA4A43759D0BA44639BE4C30A84DB7F67A41399FB95CBF923B1B1672ABC807C1590557FB18D811983FA97F5E609516D62281D38B1281F68FC75528C35E4CD7DF0F7DBB5E5DD69C414EBEA2F4A5B241B996BA77AE6C772E367408C633EA3E438B68563EA8BE7667F3A4C4FDEEA52ABD78A2820F44
310
3B7914A15F180018D231E64519C56A12F6CA7C8DAE18F06F6B769DBF92329EF6A5D18FBCE600F36BD8E8198DE5CDAA96181F3A756EBA5501CEE58F497EA4F418A2B82565B9BCC611713C0B708CCA1F398B78C5F7D03B3437CC18F13061F55C7BEDADD5ACB1DB0E36D3CE47FF6EA1A563A57E9649EA5D14D1A50EAA45746338
310
1C073777EF1600607BAF6428A7DDC079D47A204EF1E1F1F0589FB054D45E02CE623B3823C317C601E589E22B1E88B448524B86A82828E32345EC18AE17214B42F8C41C6D428016D9BA31DDCB47572561E5A402E5BA4FCE55F78AF7268524AA04130F3A20BA5D1E9F9948EA48FC8F5314FDB35E21898198060034ACE5E3E2BB
310
CA34092518F275190AF65F45867FF0900AA4B81F25427414C372BF51DC29AA855C5428EE1EEDD6B849AD60F6E73475C2D2523F8A2772C840A478DED18A8C5C91B085F255DC4F54EA7AA8947354FD17ECF8FB3B4A0DE7B483CAF3A1165EE05BBA413E5C1FEF3DE1D6B8F2F3F3251C17D9FCAB48A9AAF63AC773A0E413BBC46A
310
9ADF84A566FC920E4D8C52C9769EE3301CADEEEDD92B312E02E2A7E35B7F1E7D203FE5A7D75578B06E99D0E46FFADB8FDA17ED8880390DA29094202D6F645F76F6F96409CDA05495A96E84B04A00D1A6C6C81D7F3DE9376E828CCF144EE50E364ACCE7237EA0BFB5607ED1AC3CFE73794E5B61739D14DF1743441B1AC98F00
310
ECEDE9E7301FA29755FBEFA68C91EF2B314CF510537EF1ABFC9A762496280B546F5EDAAF8A5B387D469FC9A878A92828C88608453ACEC6094DCA54111E7AD5B2663DFE2DD151B7F123B9F4FEF8EE36AB125FD7AD52A59B1B765B3E3F73E3F73DEA93875004D2AFFE3CDE9493B87A9904DD052028949041A91DC0E1BA47BA71
310
4343FD5B25E0A6A09503AFC17C790058A836A324FE31D7893512E28230332F153181C1E018E1124EBE1BA262AA428A518237D1EA7275E48C5C561BD19ED6912EDD8367DA0F31E40EEAE9683DA9257525AEA7B632B97119E17145A90231768A4F3B9120FF32E8319B015E3CBE26F1A754177D8185345817C096B0CE443A955D
310
13AC15E1FB5DEEA0239EC32A3C92241A237B0B02FFCB4F93CF2B02570C8D192E2F2A68CEEB42F12E6F8CEEFF46C251E22B4341C56FB08CCE550E7A9D6F4D6564B9EA52A83D5BF2C6E03FA19D2775E15A8A7ACF30A13C259EE7F5EF2AC3BA354F1500E1A07FC63FB4686E2F12EC69719F9ECF5FE3F35598DF2CE944008CE78F
310
0911BA5BE5D0A34E0098FF038669C26030BA9B300303039852A8F6F496341737CA7E0D2E3AAA36DE0A70AA7D9CA0D54D9AD84B18A44C9E625475E1C97B93BEBB38DCE7D227E67A2D00F531436136355F243D1FC0D712C5765754FA22FCFFAE97919161F46D6E61ACB37D83777B385889770B50765B127768443A5C4D3A4E35
310
A3151111F146B7CA116F918A049F1C272F2CD7976C69A0068773451659A97E0F4A08FE604C3FF6CE7385DB19F4D3ABC8A0D80DA8A42096AC377DB49382B36E270B6FA7570188B4B7D1DDDDA82ACA487CCA5D38BD3BD039ADBAFA4ACFF27809239B722081E2EB9F145320553D183F28471C388BC8814E5045676767AB58A8E7
310
2D1CED2CA731379515D2E533E4CF0B39DFC625F97AC4836831A4DE330E87A8126FA17EBE583D614E71E22A8DBF2825599743E0640037303E8E1B1E8EA4E1ABFA4F62907B5E4E0E5DCFDAB417C36C6848A2B8D15F1E505434C0707E16B1CFC2A1C36A42BBF55734F8F4301DDC2A5110CEE8C0747F69519265012A2174BF4E95
310
5ECD4FDE095A3ABC70536B7AD0B9D7892F81287D667C108703C9B66A221E9A0929D030008F77FF6F5D2108EF5706FC87A3069B976F7C9FC3239D13D283CDEA83597461079FEEE049B0F392889898B7D87D31F8D60ED7B56B91823A8E4EDDB36C6172ECEE42BD42B12CD67994FA0F0DFAE9389356F4CD4425A4B8AA55CBF7EC
310
D585C6A2C2316791E43D5C06841ADBB226A87FD61515FFBB0167B74E56BD7F3E90A57A97FEDCBDF483A0D6699A8C0849CAEB4947FAA90D8E332D9DEBD9F4738C37DA0CAF9CF3DAA68BCB67C420459C7A64498D6E848E5CADE92BB6901F607AA331104A67F7CD650EE169B1DAE94D2C31C2F993632259B6957E246EFE4C5481
310
107B07118607700040E5812A2A2A38DA0076875258C753F60E0F2662C748EDD5F3F3686B8FC3BD6FE631ECCAA1E8B1C1E565AD117E54893E79F4672E32F9E46B2A183DFDCF3EECB4D4D077DBEA0DA254D256045109670050129E9B9B1A9E4A11344D61497A992778095151510C4BB7EF2009B63AA4360635312E4CF668B7E0
310
D3D85A8688E2BD83B569439892ADB63461930D428E0DE42E4AC57CE48DA5CC1449530D8BD3D6A0F08DF20C8E8F570F2CFFFCEA286E30969B4654D498A58D9DA782E19FE3F002181838925592C4A1EF0B332D88B61A92C644547BED490D3A42CFFAB70E36D961F694F6307F72FF15A1C79D5B1B5CEFD353D9E2B52566DEC8F8
310
F09CB3E8359C0F68EBBB7898243E34E12A015B2685AB303C04D3A9E00671FF3DFF0A184E4A2ABEB2B666AF5B3A209C73D8EF29DCDB069C9F391EEE9DD0F74C7BCDE16F8F02E3B8816122BBEB50665775B600549D8BB33A54A6BF940C028118BC6878C79958D6784F9DEAA6E26748386FFAF8D0D0101E2847B6563F5D8DC1D7
310
8F787BE00E2C941AE12148D4A81599FE8F68D4DA5CDED75530ADE138240300EE13B0FC13A1687FED6774662C05A2B7DFB186732F0D7A93545D8B0A6390AE5054D9CB582DA846D7A061B3358B45E2B52DDE63E114397EDB7E09233A579155D795BE76102CF277F4DF8B188C4F2879BEAE3C08347124BF9ED23B128259FE107D
310
31E34A652F090B30B39E0D9AF917B76A2806135621A8A60681F16AF216514BBD02711585B5B1AE823F4B2D0369EA5B6BCB863072727FFC871CA6C9AB79A814D989057E9470A3D238BC87CBB4A0EA49AFE2B86F22E499793CAA9047080450166BDC357524561E258C77CB697F1ABB32562CF87C3B7AA12F911EF19FB3E5C022
310
22E887D08202A60A17151F5E053A86B437771088B4FEE14D652C43E8D939995D34545E12E2FF93D4E366EAD25F10CB7DED141563C3D0C447AF06078A91135FD4B9611583CB4BF3BD167F2399CEAB0E0100F8FFC305F00F1711717173138B4B48C83022295DE657EFEDD97F238ECA80F528AFB4F8D67AD4E2594B9A3AA86D74
310
87EFC313BA95745C186F0CDD84CC12DC9CB0424B42203D351FD9C0A3AF10CC7F388E0329279087386421F194F4A29464C1DEF7EF8BE515E4A199DCD5B909342598D8FE6A231F71336248D5CEC5454455C7BE383B3BC7B260FED27F703FDC39A170F3827239102F59D4DEE7FEF82EAA1A5E4BA94DCC4CC44E7E2EDE20F24244
310
E4454369D2E87C3F823F193FD4FD27E1C23984B01898D15ABC20711A8A558054951A6AE280096BA36CBA439603B7B0B4C45F248C14B2383B4B5CD8ECECE4FF859AD4A6CA2326D020EF090F4041D28DB66E5256B56232CC52829DE8060BAE6BBF37D4B7469B822454FE93210A3E8D15E69FFCF01123222611C51C4FD0A041A0
310
CFA2471CF6BE38D2B20FA4C3525B5B8B586759475CF80ADFE67A284AC24651E52B8E683D24C2622642F27E7C3C22783BCF63648BC398BD6CD0D9C97E7E7E3EACB6126DB7A6C1FD9F1031302EE67ED96F22B77C7CA0239BB324207559B105E4693EB26EC46182A92C9C0DBD24F29B31C5C5AC1F84300E0E17CEEAC15F5736FA
310
4A98971E2F1423BFCD68D4BBD5F86E74B40A369F39507C88FCDB35D2DD8DEBEA4AF999E23CF2816D204200DF6E611781B9884C1AC8888B4DE397320472959434323A5A36B22A8E1F721A270DF3BD65E4A31C11FF048AFB0D8B7B6881423793963A23CFCE935FC189ED36FAE35C46DA3574C979E4394BE52084F3081837BE03
310
3396D2EBD80F1F691B273F660D2B32FA27A33B1DE4ADA5F0FA4651511102DFA410DDA86E065272CA314D5249DF91B06BB92807B28EFD54F08F7B525252782CD276DD02E6B0319B13DF87B1F6361AD6B28FC0D711CF445429B9E5A433CD493051C49A9E03DDB1B147D880253514A5DED88009018620EE229101C041950E2D8A
310
A8E1F5F5438E0C0C0C60EEDEE9E3E0C051948C69F84BB7B2A48A1F3C8EB9E6864687F4F4F6F6E2FA87608ADAF9C5E117B7C1A737E710769DA1D15ECE6A84502AA855398712D5FB51BE92E4EF824969CE18278798AC303C2C7980DD2500ADF8FB1E6D6C2FAAFF9987178923334A244758BAA01A9A1B70FA5097D01E1CC2A58D
310
AD0EC94CE6430AA9B0C10D75E3C6BAC670EFBADEE1607739CE0FC18A2587E3EC3058562014C64219C69BC269082D5C2F4A659278D585755912176D78A1B641719C2A394CED495A1AC5D583FD2F5EDD93308EA7EAE8A6DD396598BDBD3D4CFED62D18A5BDFDE0DD5C80D1A89BA62697B131AE7CE9A6594138582F1B37D68F17
310
49AC7CB67A70695D48A4A056AC1FBD4E82358CEAE38F54B95A9016F9000F9879C0D9D131768635CA798895F27D6F1614F11F2838A83611AA51C9A3DDB539D42979C29F10465655C17BEC3E2760B80DCBF609198C7B171A531905F3EC218D696025975E986C6B4C666666787271F202805577DD5A3EF0CAFAF91B62DC4B2DB4
310
217A7606282F31D8DDBC290593BAA93EA6353AFA9939B877978481E15CFC9F2755CDC00C538F63A4BA3E80AE009B73CA0185687D339A507D165B74290D6EE46D5C58148F020C3668ABE9EF2F7549170DC80DB41FFC1D678FF19AEB10C7133832B104B80F691B3138F97A92D26E551F1F110400D45AC71A9B9AC41A1A1B1DAE
310
ED0B0810638EFFB511D46B121C6FEA0F38CD00E03CFFEB9713FE1F9C263E4DDEC160D0497FA9A132BA608584057FB15380825DE6C7FC3C667EE947D488A09898D8E939C4953BF4EC9836344D2CC6B2971B2A21A572B06096F4982D2CC7232D46E8EA69DC83722E267754D777F97F96D5DA74E1E75178084D0E70F12AD33E5F
310
71EF2AFA599B2BEBF60A5BE475F444F240CBFE8143C334E7ED9150FEEFEF7EB020C4DBED388DD1D6A167A76F3CBF119B578AE8CFA7736ACAFA4440A1C47185638A0D2F3EB5BDDEFDA958FB13CE4AA4923D5BF840392D45544329525749734866684BF7F8D9D54D892E19BCA9F829A0F8BFCBEEA6CFDFC61D74EA1A645ED7A1
310
FF241739F15694BD835B66FEC5677E40FE69BD3F91AE402F036537218A401CB0828604AD189E575015C6F3F6BBC8AC79CF6C70653847254B31551EFCBEB5978B9DB85D58D0FA41A9DFE9C624834AA04949D24B5AE6D299E072D152D12097920F14AA92C31C3B97E28B6C2E6E9C23D63043ECBBC0A60FDF5BD0C33C127EA8A3
310
308B8B6AFFEB28B4455BF6E7AF4FC6222728357EB8E46E85053E6A8843AB23295BF838ABDA94658FEF3F832F147046B4ACD6F7D48E8FCC9618582961C898D1C7A253C91BFECBDA6BA18A1FCF70755DCCEE2222F41B76D23CA98D0CB3D95F0CF66D57FFF65E2A90F5DF40FC3187621E981BD0BC1D992787212688976B94A8F0
310
C6EF646624B570B78E068826F87CE27041A95C9A4871FF65CC17FCB1639629AD6A9517000D63AC231F3D741CB8430777E7ECF80CE7A3F73C0F162F7E56AA71F4DA80A33CD6ACEE78E2C11FAC03DAFCE929B106F8F6B3ED2DC71FF994BD9CEF4E9A94896EF1B6E2B7B4978168BCF0847A3D2A4F1B0500B926E634B174548E9F
310
BAD27153FB5FC36799B1E6C7C38A94E1F9E996796D7B485E635D5287A2AE76FBD11A341DB3F8F810385BB7296391973DC6C37C452A9305AEBBE0CDB6C566DB59FE60C8E94B1FD090354BF51439FFD1B48D725228FFA88C84F686F547107A7A235665A4593B7C34D748C1AC8D56DD5DA861EEFBADDECBBD65117E65851F9035
310
1AEB65F0EFCFF4BCFEF24CB7A5879699FAC437A7AF9099186CF006BB923A59E37D7A36A29FD8D2CBB914A5E9D0A8FD212FBF796AE9A67958FF1D5D8B85F78F96219D4714EB919929241B6C018AAE0C02069F8D919961EC5DDFBFB7573E3AC8E08BFB7C8534BE6DE045B3CD63DBD71F7638BA2309CAE398EA3A7D8F98BBBC7A
310
EB367EFA5CFA27A9F8F2F52FE878058E6209C026453F8E7E8A237DFC389E9590F6059B397CFD65183BBF936E86896612A5B5FEE49DAC8455D026218AFEBEC12B3523A45B57B82C9C97E02ACFA1184DB18E48CF615DBF39C3CC6F0B4AE6BBEEA2E39D944E290302FA3DE33FA7E40296E2EF7BF1CD855BBECFAD0FD622BEE974
310
6FC4FDFDE545AE6E3BC234CADF83A0FB76DFB145BF3828AE3436368AC24989454F8FF70A177672C711CAA1A76107218CF948CA01F873520E7A2B118EBB161ABAD432932029628B6761590C98AB590C8C8C79798CE9F715BA696E839E9131A4BB68BE923F1747FBFF165331FFDD4D05997ACD168F12CA75348DAC04C7F509FE
310
83898A8B421181AF492861CE81E4A2DD0A30850CFA95E05F097FF70F9E777310D584A75BA7018922E271DAB1D785671157685B7D383D3E074DDB4F1E44EF04B07BAAC75A062077C54B9752C738C9D804D402E02851F3F89605AF189738C18C021D2139EAF72513824E10DDD3047BACC8521ED7E98B257D1166903B1B08FA6F
310
918FD7E162913FEC7D0EF4787E29C35FBA8C6E2C9C20E9AB30AE42CA2A01A090E7D010C1B5BF9CEE2A304BF3A987FB40D836979B79E18D70F257DA61E808472DD85B82761825779D6B90CAEB0F23360C6F80A7D7D77545E95B3DFF0CF96A827F9B5BCECD2C9698718417EF80FEEDEE938AFF55859D0D540B7FE09435583A6F
310
04874A0C7E8CF234DF4879722000167F5872CEC6BF3EF7E5A8CC8121E6A359227C8A29C95212F9F735BC72A887D56B8F309FC525BFB4FD767AAEC4AEFF249CFBBD2DE1AB9969A6155C7D8DABC307E47324C1F916C7BCFF40ABA5644E9FFB9238D19ADADA49D9610F01ABBA57E4DFCBDCCBB2B93C8953206C91DE01B0E2651A
310
6D6C31721915B31F7B7CBCE55466F6D70402788FA91D73BE4ADCBA99A35F17D6B83383704917D6833F0FA3CD45C926ADB8BC17999A4A0AFBCE2541F7B8CF4C2F5FBA611B3E626D64407CB32C122DFF4EF8674D6EDBB86C8F7C6A16D50FA685E2CCA34F8F7D1D8265BB0042E9D7F1F666F7BE5FAA5184DF58E12122A42EF02F
310
461B3F369AC746F96528AD208512AB56844CF75B97F352DF7995024FB02855385854F3798670D01CAC771AC3E1889EC25F61A20C1F8CAB46898817F9C47E2CDA1F286BF2F358298709FE567C91133E2638C8B53975E753EA8BFD3578B5F7186B7BF084EBA3F77BAC3132A5779902EC22AF2D2E79F42D324E083386DAEE9810
310
D1B44A5DAA54513C7A71E52A4AB9257D975B621308FE4D2141CC3DCFE946C154A3C1DFCCA7629EC69ACFA831634ADDA93C0388D2A9A2DDAFCF957C6995BCE7FBB6DC4EBAE79E63EB08E9A25F52F67076F7093CA545CA3053B5BF576DEAD4E0017143C5F759F32B2D6F145B52B67B48909B7C7FCA6586EE385A2189C16932CB
310
6DDFD9152AE317C430492A578ED27B72D85D40C7C93C097939E1B50F4D67F05334FE9DC362C30B7FF561B95259138ECFD9274C8D695C31B14D4EAA9F3D7FA8DDF652F8C5DEFA23284C799B7D94416DEE81E05A866302DC70192A5368EA65E1CED8BF107A1E2D3119A71E85DC1A7B0C1E93274CE04DD0F2ABC8AC7C987FDB00
310
2B6F81757B43502EF7A0D92E416494FAEEA4C9C090CD9557AA4D532F4996A272B94355C5A0E4974EEA9627476F30809B94D8D8D860062E02204643BEC7D0438AF800FC7E2B26955D595421E83C69E1A07E0E3122285835F014AD538188CF9737CE76D464A353FA55A001AB2526B84E985083693BC76FE211CA1D000679C889
310
E3C009832C87E1AC2EDD05C302557422DF0800E316FCAC86978A371F025A6C7DAA9F333E7BD160403A1A06EA75AA9888FF01504B0304140006080800297E845751464CB48900000043010000360000006662782F32313146393141422D334430372D343930462D383342392D4645463032373735313243432F646972656374
310
6F72792E786D6C9D8F310EC2300C45AF127987122606C71DD918B841D4B851A43646695A717C52A85029031293A5A76FBF6FACEF7DA7264E43906840EF0FA03836E242F406C6DCEE4EA06AC22492573150D1F66C60C640E8938CB705396EEDD86DE9B5042FE27813D640EA63BB001C722AF6E55CB61E4863F58284D5D3F53D
310
D715CE1C3985E63FD7F1B7EBDD617E9F1E504B0304140006080800297E8457BADD9DA947070000541C0000340000006662782F32313146393141422D334430372D343930462D383342392D4645463032373735313243432F6F626A656374732E786D6CDD595B6FE23814FE2B56F665F781DC800223CAA8403B42A3CE8C06CD
310
6ADF22130CF5D6B9C8495ABABF7E8F1D3BC46980742ED26A5BA950C73E3EE73BF793E9FB43C4D013E1194DE26BCBB35D0B91384CB634DE5F5B45BEEB8D2DF47E86A63C49F2DA3E0BC53822D79658B666D33D4F8A542D6DC90E17ACB97A37FF0B65218989854286B3ECDACAC20712611B1779B225D9A3BDC539B6F7BB83EDD9
310
E54693EC9EE3F4A171558A3989736015D663A0A238F0CC7F4124673675C406635BBFDB36FFCC36470A6E324AE32CC771F88AABC675FE09AE1AD7F5BDC1F2D61F4E7AC3C1A0DF1B5CF95E6F7E375FF6BC51DF5D5C2D16939BDB898566D34D92B04A012989B7A0C5176BE64D1DF1A4125FA1D0C67798C43109159A6D1BB644D1
310
A5246B626200EB49D16A0A2965AD2DF43B0A7F625B27500C960CB4B570FAB36EBDC9E66F0021EB62A53C23C2CAB39C83AE15F6A53FB853A75C35F4423314E19C708A196274C3310705C1D652410619E12D82141298492D6A7A755EC1B02FFB521B97BB8231E1BFD64C7A5A00FE48F24C7246FF21FCC87DFD36E009A42D689C
310
8F95B0F94B0A242653472E96CFFABE7A580289760CEFC15A404CB1A9EF37F05A8858B05A5AB38F779BC35AC487F6CB539EA484E7C2F2A4332BBFD31AAC9916185F07504A5C4DDD1D51F90AD07F02E42B5ED01434C7E961701868D9398EB35DC223D00E7251CF853F2E125F5F7D9B3AD5E1194246AC3C8529B8ED4FC2D410C3
310
B8BB06E96CFA04469FF0BE126E1D6206367D4F63E1E760288825B004F17EB73958B31504535884539881F4F03B75C457041F251D88370D0DB585DF0E8AD20ED3F4B3A3AE3E80CD701A56AA32643C85EFF0A7E07BB35C7F5C177C874372AF1C7B497634A63924D376860CD00D97FFB6FA243DF2034B36981D4F1B9B42B8669F
310
88B8D1A296B5520B927A014E441A2E352357EE29783B6338264991A9F5B63815262CE1C1E625285DB8F5AE3FB50D94972903688D6590DC434E5381893553DAAA02A15D13142C0C736581FB52ABC1A688D2004749118B50FBDA149B7C409C1196085425356DD8DA6B35D92DDDED8A0C82572BC98501A4F2674DB8B4F001C4B1
310
367E39D9710C493489030A39189CA5F506E3820ABCF33C6784ED02CA5811053BCA208F04114E4FD0EF28413D733D9297E7846F5B099A96A57D52DB90005C01AB41D2D9AA8CF94AA79C3C515166CA7CA6B381B143D5A1D66C70225D884CD102A8364669E6A3C5E8763CF7973D7F3C828A69E28F7BF3C578DC1B2CE693DBD1D5
310
F0E67678445C22708C56F57C07AA14658EE17FF943116D624C193C1062E36DFAEEBDCC9ED70E8446C7F7BCBB897733EFF597EE08EE76EF7AE3FE7CD2BBBBBD73FDD168E8F98B85C34996143C2499E33B6EA04D328DF74DF42EC750286B2E273BADAFA630FFE318DACC098612FFAB41B48A5D2D0561D7202A8E3643280E1F45
310
8A0A42A8FA5ADDA711449B7CB4C5B937C665D7EEBBF2C7F326BE0B2E3919D69CF06CA89637FD70A46B932184CEB3C88324C521CDDB536A039963DC38CBF29BB28BDDF7862536FAAFEF23C0ABF36AC5D4F9CCA4980A6884F724D861D157B484D24B12B766BD3D4BB28CC624937DE1AB7AB141D3B5A1FC32B3748BD9D22C8848
310
8EBFC76265A3D1F00288E62C800E361733848B7544E502AA67394551F4CB90EAA5FC2F4186A39495BDF1250C3C5F43A0BBA2360B154C8B2B9EC03E039C07EE96C851C725EA15FBBAA268D55A93FAE4BBC99F80475742BF101E7D45F762CB1E7A13F13386307435F4FA57A34A1597D0D297E5A2F7630574ABE14BF04CE8FEA1
310
5371DA4D2BB532AF2CC4731241EB8BF38277F2D82B8826DAB6B4402A32345CA276D31B0B4AD9F3E9AE0F2E934DDFA992B8760DD4AE3486D95827415E49D16AC45217720E28C65D6FF06C8DCD45AA3F1C317F79955D77BF480E8C2EE3001576198255FC31EAF0D64ADDA8A1B2679C87104AD7F2B337078FD892EDB19933C8B5
310
95F5BAB6BD5471AF44488D60CA8B45A4BD175FD8570CAA868E3B733E94859E53AEAF446AB361A07DE4C360DAA4F5F9C3BA4105563A9FFE223022CF0D0A6A75213AE833A4BEAD8E7382060525D1B7D599E3FF892E442BB0367A83097296300A837CB2457B9240FE865145870E8547249379198C570529FD16A1C3E9A7720E9B
310
E30DD3A7C3070CC36CA6FAB72284412AE4CC6B4BADA3DF60742AA69772A0653F42EBA66298850A4EAF2DB0D89C4287666F600426078E927A63C4098E8DE3BDC8F8E5A9EAFFE331810E44A5A35CD59E2EB828C90C6782523895EF16A0EE2B1FCCA6DF2FBA6607E11CBE6E8ABC12E6B870944681A05F2294C2C1A4F051C17B80
310
92E2BC5C9E2DF71890749AE69FB583926A2FC77C2F47F235BC6F965F1C314D5F7D46292BF6429DE73A6683524F74EAAC28275753300C25668A4515B978E77CE109BC968AD01D052340BF1FC6577F388B248A92B85C726ED4CB2DB47E8057555B478F09A1F577BDB1232707EA5540B0C119B1F1367B8405502DA7629E5A426C
310
1840154D6B06A035227401C78CFDAB2552D5516DAA520FBB021EF91E00812389F73FC26DEA1B6A434BF005E04A3E3C7ED10B5387C3E07CF62F504B0304140006080800297E84573E6DA2A8E2000000550100003C0000006662782F32313146393141422D334430372D343930462D383342392D464546303237373531324343
310
2F7265736F75726365732F322F636E782E786D6C4D90CD6AC33010845FC5087AB42CB9293441565E22A75E822A6F5C11496BF453DAB7EF2A55A1A75D663E96D951E7AFE0874F48D9615C98E4820D102DAE2E6E0BABE536BEB2E1AC55422CFF3036441360614D665A6D09EBDEA5156EA6FAA67A17EF5D14D70D222467AF7BDC
310
D860BDC97961D97E4030DCD4822BE43B5F4D315CF204196BB240278A0BD04FD804A6C0CAF42CE6E751CEA3385CE4CBE9703CC9E39B9A1AA9D53BA2EFBC8B0512EE4FB3B0486BA444424D0DD0AA26D7A9F606197FF138C55313D95AE592A8838E95EF9D3017CC06D303F975B59ADA93341E0DD06C85E81F504B030414000608
310
0800297E8457FF15A4A45D000000800000003A0000006662782F32313146393141422D334430372D343930462D383342392D4645463032373735313243432F7265736F75726365732F636E782E786D6C4D8B3B0E80201005AF42B6F75B59F0390B113044D83508C6E30BC6C26AF226F3B8BA6360974DA7271430F523308B2B
310
198F9B80925DB700539227A2FCCB80A18E5640D320F996A81C9F32D6E9129A0D1EF74FCE750E6D57BC7165FBCA07504B0304140006080800297E8457D35B04624301000056050000300000006662782F32313146393141422D334430372D343930462D383342392D4645463032373735313243432F636E782E786D6CCD9441
310
4EC3301045AF125962193B0945A295E34A2C38010BC4CE71A6C1D4B1237B82E8EDB14BDA8250058B48EDCE1A3F4BFFCF7C0F5F7FF4267B071FB4B33529694132B0CAB5DA7635197193DF936C2DB8770EBF6124B3B2879AA43211BCF36E1CA6520B1B399A5435DA6EA7A244F4BA191102C9949121D424A857E8259523BA16C2
310
96B612252DA987E046AF20BE47DDC3F45E7990082D115551DDE66595178BA7F26EB558AECAE50B678914BC71CE4CBCB608DE0D3755A15C3CDA28A7E02C01828F5E4F54F240C4491B6DB4E52CDE0B1EA25EDB4D1CEE86C40D83D14A626C14730A01F30881EC39FB820567C9F10FDF8F0FCF270DF1D46A0F0A9DDF5DAC0DE5B9
310
361CA5D19888FF75610FFE65DE356FD1F2E5E67ED6F0246C36BB87E48618DDDF49887992B633D7F8018ED2E6CF7F5C2CA8D5359A3E289BC933DBAFC038F8B411C527504B0304140006080800297E845713C8E29B7E000000A30000000B0000006662782F636E782E786D6C4D8CD10AC22018465F45FE7B4B5DE10475B495EF
310
319A1B92D3B0193D7E1ABBE8EA83C3778EEC3EAB476F9B5E2E0605F44000D9708F930B8B82BCCDB805D4699962DCFE6E80C2B85A051583964B8AF9B9A3C9CE63F6957A171E3B64941A412F3D6EAE84E3932006B74D2FB0B919C2383F53360CC53856A5CCAF57B6E6F517504B0304140006080800297E8457A6D797065F0000
310
008200000007000000636E782E786D6C4DCB3B0E80201045D1AD90E9FD7516806B51190811670C8A61F982B1B0BAC9C97B72CA7B1037C6D3332918DA1E04D2CAC69353902EDB8C20262D23F3F59B81A079470595414B17391D1F19B4730A5583A7ED43BBE4025D9592775E5ADFFA01504B0304140006080800297E8457ECFD
310
112DA800000026010000130000005B436F6E74656E745F54797065735D2E786D6C7D4F4B0EC22010BD0A61DF525D18634ABB506FE00510A79458060253536F2FD89D5197F3FED3F68B9BD80362B21E25DFD40D6780DADF2C1AC9671AAA3D677DD75E9E0112CB5A4C928F44E12044D22338956A1F003333F8E814E5331A1194
310
BE2B0362DB343BA13D122055543278D79E6050F344ECBC6478EDCD76CE8EABAE5449AE4298AC56946789C28AAFBEABC53F3EAF09A84A1441B91F0101CD4780756578C173A578FFDDBD00504B0304140006080800297E84573DEE336E64000000790000001B0000006175746F6465736B2D64657369676E2D7061636B616765
310
2E786D6C35CBC10E83200C00D05F21DCA56CA76D41FC96062B120735B69A7DBE268BB7777961F8D5AF396893C2ADB70FE7ADA196782C2DF776D7A97B5933C430F15651E5469C55D70F80A4992A3ADC954792C525AE70A1E4D6AD9816CC044FEFDF01FE3FDE907802504B0304140006080800297E845770944FECF50000008E
310
0100003D0000006662782F32313146393141422D334430372D343930462D383342392D4645463032373735313243432F7265736F75726365732F322F636F72652E786D6C8550CB6E833010FC15B4770326A494C8380A8F7C414FBD59B643AD041BF951F5F36B072AB5A79E76353B33BB3BE4FCB53CB24F699D32BA039C9790
310
49CD8D507AEE20F81B7A85EC4C8935C6FFA241A6D9223B483050325B13D61DE2467BA913AA8D903BC89C931E32FE884D078E7FC885E52CF8C870F77C65FCCE6699E37CE351128212BB5489E8A66E4A5AA07D394EF8D8D7E83A355754BF0C03BAB4538B70D38FE378299B69A84891C49478B5FC6CE756322F05D0AAAC0E0857
310
A8ACDFF0F154B727DCBE9322312971DEC69FF7A5E9BB4827C586FE710BABF8DF2D28ED0FD5EEB6291C501C8F7B0E2829523AB13CA38B352549BF01504B0304140006080800297E84577E1EE2EAFA000000960100003B0000006662782F32313146393141422D334430372D343930462D383342392D46454630323737353132
310
43432F7265736F75726365732F636F72652E786D6C8550CB6E833010FC15B4770326A42991719404F2053DF566D91B6A25D8911F553FBF76A0527BEA6957B333B3BBC30E5FF3BDF844E7B5353DD0B286028DB44A9BA98718AEE4158A0367CEDAF08B06851133F69061E06C72363E56485A13D064D458852B28BCC70085BCA7
310
A6072F3F7016A5882131FCAD7C0879131396B45C789CC5A8D52AD52AB9E9AB4607FC540F23DD9E5A72197717D2BE9CCFE4D88D1DA1BBD3300CC77A379E1B5665316741CF3FDBA5431150016FEA66436843EAF68D6EF76DB7A7DD3BAB3293331F5CFA795D9ABF03EED0DBE8247A562DD33FAEF1A1FE778DDA844DB3BA2E0A0F
310
9CA6239F03CEAA9C522ACF0853CD89F26F504B0304140006080800297E84573A0E963CF2000000B1010000310000006662782F32313146393141422D334430372D343930462D383342392D4645463032373735313243432F636F72652E786D6C8D50CB6EC32010FC158B3B3660478E234CD4A4F517F4D41B828D8B1283C5A3
310
EAE71712576A6F392D9A9D6166871FBF975BF5053E186747446B822AB0CA6963E711A578C17B541D05F7CEC53F345459B9C0880A8C049FBD4BEB06296723D8825AA7610365081051A56EF931A2A03E6191B54C3133C2B55EA5BACA196A5A3F788247B3FC4A9507194123C1086B31659874EF7477E886031D3E78539882A764
310
F4666574763717033E4B289D06FA72C2ED2BE971379009EFDBD380A7B789B0BEDF51763EF3A688050FD1E79BB74FCA75CFCA1FC27F99D3AA9FC86C6C6CD966F850042468CE735F08DE9402F3B8B79B67295BFC00504B0304140006080800297E84577057B4C655010000DD0200000C0000006662782F636F72652E786D6C8D
310
525D6F832014FD2B867754AC5DD70669DA6A7FC19EF646913A52058360FAF3077EC4F9B06E314172EEBDE7DC73023E3E9B3AE8B9EE84921940610C022E992A85AC3260CD1DBE83E048B056CAFC680381A40DCF808701C19556B69D20A6A4E1D2A352957C0269D771030256BB4B063AF6C51B1A526B5C47F7085BCA1EB4E221
310
0AC73E82AD15E5342A4AC726EE826B40CE715EA0ED3985D7627785E9DBE5024FFB620FD1EE9CE7F929DE159704477E9860239A599D694E0D2F0149E264035102E3F4036D0FE9FE80F69F38F29D0477463BCF93A87707C8FDF6C4D188AFF86C5BFECD6785349B64E21B273A40905B6F28101CF97CDC6F086F9DA11376F9197A
310
AB670B0F07F59C19A5535729955D4A3DAD2D77D471307C381AAB8E7920F88D2779C1F39AC3054565E556A3C65D6FD678F5F54E2DD7B037CF402ADDD07A596E5C713917A195A5799CA95AE9FF4CCF56E73023FF30C937504B0304140006080800297E845716F7FC4109010000B201000008000000636F72652E786D6C8D50CB
310
6EC32010FC15B4776CE338751D61A2F8912FE8A9376A8883628305386AFFBE90B8527BEB69D1CCECCE30F4F8394FE82EAD5346D740920C90D483114A8F35ACFE825F011D19B5C6F85F32409ACFB2860803A3A335EBB24183D15EEA886A23E40672E7A407344CE151831BAE72E6095F7D50B85BB2F0E1C6479990E4A963D4AB
310
F96775B0927B2980E559BEC324C759F146F687A23A90EA9DA651C9E8BA2AB1592911DCD545490BACC9BA9EEC9B029FFBF28C8B97B6C5A7AAAF30299BAEEB4E59D9B7394DE332A3CEDBF0E7ED48C8E991E3F7E84BD327C5E88731D32608A104327AFA0296D134127F42AF8BF84768A5FD2EDF0E3E371C3012023D88601C1B0C
310
E3516F98B16DF60D504B01021400140006080800297E84570000000000000000000000003700000000000000000000000000000000006662782F32313146393141422D334430372D343930462D383342392D4645463032373735313243432F617474726962757465732E62696E504B01021400140006080800297E84570000
310
000000000000000000003500000000000000000000000000550000006662782F32313146393141422D334430372D343930462D383342392D4645463032373735313243432F76657274696365732E62696E504B01021400140006080800297E8457F270F13306000000040000003600000000000000000000000000A8000000
310
6662782F32313146393141422D334430372D343930462D383342392D4645463032373735313243432F747269616E676C65732E62696E504B01021400140006080800297E845788E57597CD3F0000904100004200000000000000000000000000020100006662782F32313146393141422D334430372D343930462D38334239
310
2D4645463032373735313243432F7265736F75726365732F322F305F67656E657269632E706E67504B01021400140006080800297E845751464CB4890000004301000036000000000000000000000000002F4100006662782F32313146393141422D334430372D343930462D383342392D4645463032373735313243432F64
310
69726563746F72792E786D6C504B01021400140006080800297E8457BADD9DA947070000541C000034000000000000000000000000000C4200006662782F32313146393141422D334430372D343930462D383342392D4645463032373735313243432F6F626A656374732E786D6C504B01021400140006080800297E84573E
310
6DA2A8E2000000550100003C00000000000000000000000000A54900006662782F32313146393141422D334430372D343930462D383342392D4645463032373735313243432F7265736F75726365732F322F636E782E786D6C504B01021400140006080800297E8457FF15A4A45D000000800000003A000000000000000000
310
00000000E14A00006662782F32313146393141422D334430372D343930462D383342392D4645463032373735313243432F7265736F75726365732F636E782E786D6C504B01021400140006080800297E8457D35B046243010000560500003000000000000000000000000000964B00006662782F32313146393141422D3344
310
30372D343930462D383342392D4645463032373735313243432F636E782E786D6C504B01021400140006080800297E845713C8E29B7E000000A30000000B00000000000000000000000000274D00006662782F636E782E786D6C504B01021400140006080800297E8457A6D797065F00000082000000070000000000000000
310
0000000000CE4D0000636E782E786D6C504B01021400140006080800297E8457ECFD112DA8000000260100001300000000000000000000000000524E00005B436F6E74656E745F54797065735D2E786D6C504B01021400140006080800297E84573DEE336E64000000790000001B000000000000000000000000002B4F0000
310
6175746F6465736B2D64657369676E2D7061636B6167652E786D6C504B01021400140006080800297E845770944FECF50000008E0100003D00000000000000000000000000C84F00006662782F32313146393141422D334430372D343930462D383342392D4645463032373735313243432F7265736F75726365732F322F63
310
6F72652E786D6C504B01021400140006080800297E84577E1EE2EAFA000000960100003B00000000000000000000000000185100006662782F32313146393141422D334430372D343930462D383342392D4645463032373735313243432F7265736F75726365732F636F72652E786D6C504B01021400140006080800297E84
310
573A0E963CF2000000B101000031000000000000000000000000006B5200006662782F32313146393141422D334430372D343930462D383342392D4645463032373735313243432F636F72652E786D6C504B01021400140006080800297E84577057B4C655010000DD0200000C00000000000000000000000000AC53000066
310
62782F636F72652E786D6C504B01021400140006080800297E845716F7FC4109010000B201000008000000000000000000000000002B550000636F72652E786D6C504B050600000000120012002D0600005A5600000000
  0
XRECORD
  5
11
102
{ACAD_REACTORS
330
E
102
}
330
E
100
AcDbXrecord
280
     1
270
     1
271
     1
  0
XRECORD
  5
12
102
{ACAD_REACTORS
330
E
102
}
330
E
100
AcDbXrecord
280
     1
270
     1
271
     1
  0
XRECORD
  5
13
102
{ACAD_REACTORS
330
E
102
}
330
E
100
AcDbXrecord
280
     1
270
     1
271
     1
  0
XRECORD
  5
14
102
{ACAD_REACTORS
330
E
102
}
330
E
100
AcDbXrecord
280
     1
270
     1
271
     1
  0
CELLSTYLEMAP
  5
1332
102
{ACAD_REACTORS
330
1F9
102
}
330
1F9
100
AcDbCellStyleMap
 90
        3
300
CELLSTYLE
  1
TABLEFORMAT_BEGIN
 90
        5
170
     1
 91
        0
 92
    32768
 62
   257
 93
        1
300
CONTENTFORMAT
  1
CONTENTFORMAT_BEGIN
 90
        0
 91
        0
 92
      512
 93
        0
300

 40
0.0
140
1.0
 94
        5
 62
     0
340
48
144
0.25
309
CONTENTFORMAT_END
171
     1
301
MARGIN
  1
CELLMARGIN_BEGIN
 40
0.06
 40
0.06
 40
0.06
 40
0.06
 40
0.18
 40
0.18
309
CELLMARGIN_END
 94
        6
 95
        1
302
GRIDFORMAT
  1
GRIDFORMAT_BEGIN
 90
        0
 91
        1
 62
     0
 92
       -2
340
0
 93
        0
 40
0.045
309
GRIDFORMAT_END
 95
        2
302
GRIDFORMAT
  1
GRIDFORMAT_BEGIN
 90
        0
 91
        1
 62
     0
 92
       -2
340
0
 93
        0
 40
0.045
309
GRIDFORMAT_END
 95
        4
302
GRIDFORMAT
  1
GRIDFORMAT_BEGIN
 90
        0
 91
        1
 62
     0
 92
       -2
340
0
 93
        0
 40
0.045
309
GRIDFORMAT_END
 95
        8
302
GRIDFORMAT
  1
GRIDFORMAT_BEGIN
 90
        0
 91
        1
 62
     0
 92
       -2
340
0
 93
        0
 40
0.045
309
GRIDFORMAT_END
 95
       16
302
GRIDFORMAT
  1
GRIDFORMAT_BEGIN
 90
        0
 91
        1
 62
     0
 92
       -2
340
0
 93
        0
 40
0.045
309
GRIDFORMAT_END
 95
       32
302
GRIDFORMAT
  1
GRIDFORMAT_BEGIN
 90
        0
 91
        1
 62
     0
 92
       -2
340
0
 93
        0
 40
0.045
309
GRIDFORMAT_END
309
TABLEFORMAT_END
  1
CELLSTYLE_BEGIN
 90
        1
 91
        1
300
_TITLE
309
CELLSTYLE_END
300
CELLSTYLE
  1
TABLEFORMAT_BEGIN
 90
        5
170
     1
 91
        0
 92
        0
 62
   257
 93
        1
300
CONTENTFORMAT
  1
CONTENTFORMAT_BEGIN
 90
        0
 91
        0
 92
      512
 93
        0
300

 40
0.0
140
1.0
 94
        5
 62
     0
340
48
144
0.18
309
CONTENTFORMAT_END
171
     1
301
MARGIN
  1
CELLMARGIN_BEGIN
 40
0.06
 40
0.06
 40
0.06
 40
0.06
 40
0.18
 40
0.18
309
CELLMARGIN_END
 94
        6
 95
        1
302
GRIDFORMAT
  1
GRIDFORMAT_BEGIN
 90
        0
 91
        1
 62
     0
 92
       -2
340
0
 93
        0
 40
0.045
309
GRIDFORMAT_END
 95
        2
302
GRIDFORMAT
  1
GRIDFORMAT_BEGIN
 90
        0
 91
        1
 62
     0
 92
       -2
340
0
 93
        0
 40
0.045
309
GRIDFORMAT_END
 95
        4
302
GRIDFORMAT
  1
GRIDFORMAT_BEGIN
 90
        0
 91
        1
 62
     0
 92
       -2
340
0
 93
        0
 40
0.045
309
GRIDFORMAT_END
 95
        8
302
GRIDFORMAT
  1
GRIDFORMAT_BEGIN
 90
        0
 91
        1
 62
     0
 92
       -2
340
0
 93
        0
 40
0.045
309
GRIDFORMAT_END
 95
       16
302
GRIDFORMAT
  1
GRIDFORMAT_BEGIN
 90
        0
 91
        1
 62
     0
 92
       -2
340
0
 93
        0
 40
0.045
309
GRIDFORMAT_END
 95
       32
302
GRIDFORMAT
  1
GRIDFORMAT_BEGIN
 90
        0
 91
        1
 62
     0
 92
       -2
340
0
 93
        0
 40
0.045
309
GRIDFORMAT_END
309
TABLEFORMAT_END
  1
CELLSTYLE_BEGIN
 90
        2
 91
        1
300
_HEADER
309
CELLSTYLE_END
300
CELLSTYLE
  1
TABLEFORMAT_BEGIN
 90
        5
170
     1
 91
        0
 92
        0
 62
   257
 93
        1
300
CONTENTFORMAT
  1
CONTENTFORMAT_BEGIN
 90
        0
 91
        0
 92
      512
 93
        0
300

 40
0.0
140
1.0
 94
        2
 62
     0
340
48
144
0.18
309
CONTENTFORMAT_END
171
     1
301
MARGIN
  1
CELLMARGIN_BEGIN
 40
0.06
 40
0.06
 40
0.06
 40
0.06
 40
0.18
 40
0.18
309
CELLMARGIN_END
 94
        6
 95
        1
302
GRIDFORMAT
  1
GRIDFORMAT_BEGIN
 90
        0
 91
        1
 62
     0
 92
       -2
340
0
 93
        0
 40
0.045
309
GRIDFORMAT_END
 95
        2
302
GRIDFORMAT
  1
GRIDFORMAT_BEGIN
 90
        0
 91
        1
 62
     0
 92
       -2
340
0
 93
        0
 40
0.045
309
GRIDFORMAT_END
 95
        4
302
GRIDFORMAT
  1
GRIDFORMAT_BEGIN
 90
        0
 91
        1
 62
     0
 92
       -2
340
0
 93
        0
 40
0.045
309
GRIDFORMAT_END
 95
        8
302
GRIDFORMAT
  1
GRIDFORMAT_BEGIN
 90
        0
 91
        1
 62
     0
 92
       -2
340
0
 93
        0
 40
0.045
309
GRIDFORMAT_END
 95
       16
302
GRIDFORMAT
  1
GRIDFORMAT_BEGIN
 90
        0
 91
        1
 62
     0
 92
       -2
340
0
 93
        0
 40
0.045
309
GRIDFORMAT_END
 95
       32
302
GRIDFORMAT
  1
GRIDFORMAT_BEGIN
 90
        0
 91
        1
 62
     0
 92
       -2
340
0
 93
        0
 40
0.045
309
GRIDFORMAT_END
309
TABLEFORMAT_END
  1
CELLSTYLE_BEGIN
 90
        3
 91
        2
300
_DATA
309
CELLSTYLE_END
  0
ENDSEC
  0
SECTION
  2
ACDSDATA
 70
     2
 71
     2
  0
ACDSSCHEMA
 90
        0
  1
AcDb_Thumbnail_Schema
  2
AcDbDs::ID
280
    10
 91
        0
  2
Thumbnail_Data
280
    15
 91
        0
101
ACDSRECORD
 95
        0
 90
        2
  2
AcDbDs::TreatedAsObjectData
280
     1
291
     1
101
ACDSRECORD
 95
        0
 90
        3
  2
AcDbDs::Legacy
280
     1
291
     1
101
ACDSRECORD
  1
AcDbDs::ID
 90
        4
  2
AcDs:Indexable
280
     1
291
     1
101
ACDSRECORD
  1
AcDbDs::ID
 90
        5
  2
AcDbDs::HandleAttribute
280
     7
282
     1
  0
ACDSSCHEMA
 90
        1
  1
AcDb3DSolid_ASM_Data
  2
AcDbDs::ID
280
    10
 91
        0
  2
ASM_Data
280
    15
 91
        0
101
ACDSRECORD
 95
        1
 90
        2
  2
AcDbDs::TreatedAsObjectData
280
     1
291
     1
101
ACDSRECORD
 95
        1
 90
        3
  2
AcDbDs::Legacy
280
     1
291
     1
101
ACDSRECORD
  1
AcDbDs::ID
 90
        4
  2
AcDs:Indexable
280
     1
291
     1
101
ACDSRECORD
  1
AcDbDs::ID
 90
        5
  2
AcDbDs::HandleAttribute
280
     7
282
     1
  0
ACDSSCHEMA
 90
        2
  1
AcDbDs::TreatedAsObjectDataSchema
  2
AcDbDs::TreatedAsObjectData
280
     1
 91
        0
  0
ACDSSCHEMA
 90
        3
  1
AcDbDs::LegacySchema
  2
AcDbDs::Legacy
280
     1
 91
        0
  0
ACDSSCHEMA
 90
        4
  1
AcDbDs::IndexedPropertySchema
  2
AcDs:Indexable
280
     1
 91
        0
  0
ACDSSCHEMA
 90
        5
  1
AcDbDs::HandleAttributeSchema
  2
AcDbDs::HandleAttribute
280
     7
 91
        8
  0
ACDSRECORD
 90
        0
  2
AcDbDs::ID
280
    10
320
1C1
  2
Thumbnail_Data
280
    15
 94
     1910
310
89504E470D0A1A0A0000000D4948445200000100000000700803000000C6F95E2100000300504C5445000000FFFFFF0000000000000000000000000000000000000000000000000000000000330000660000990000CC0000FF0033000033330033660033990033CC0033FF0066000066330066660066990066CC0066FF0099
310
000099330099660099990099CC0099FF00CC0000CC3300CC6600CC9900CCCC00CCFF00FF0000FF3300FF6600FF9900FFCC00FFFF3300003300333300663300993300CC3300FF3333003333333333663333993333CC3333FF3366003366333366663366993366CC3366FF3399003399333399663399993399CC3399FF33CC00
310
33CC3333CC6633CC9933CCCC33CCFF33FF0033FF3333FF6633FF9933FFCC33FFFF6600006600336600666600996600CC6600FF6633006633336633666633996633CC6633FF6666006666336666666666996666CC6666FF6699006699336699666699996699CC6699FF66CC0066CC3366CC6666CC9966CCCC66CCFF66FF0066
310
FF3366FF6666FF9966FFCC66FFFF9900009900339900669900999900CC9900FF9933009933339933669933999933CC9933FF9966009966339966669966999966CC9966FF9999009999339999669999999999CC9999FF99CC0099CC3399CC6699CC9999CCCC99CCFF99FF0099FF3399FF6699FF9999FFCC99FFFFCC0000CC00
310
33CC0066CC0099CC00CCCC00FFCC3300CC3333CC3366CC3399CC33CCCC33FFCC6600CC6633CC6666CC6699CC66CCCC66FFCC9900CC9933CC9966CC9999CC99CCCC99FFCCCC00CCCC33CCCC66CCCC99CCCCCCCCCCFFCCFF00CCFF33CCFF66CCFF99CCFFCCCCFFFFFF0000FF0033FF0066FF0099FF00CCFF00FFFF3300FF3333
310
FF3366FF3399FF33CCFF33FFFF6600FF6633FF6666FF6699FF66CCFF66FFFF9900FF9933FF9966FF9999FF99CCFF99FFFFCC00FFCC33FFCC66FFCC99FFCCCCFFCCFFFFFF00FFFF33FFFF66FFFF99FFFFCCFFFFFF0000000D0D0D1A1A1A2828283535354343435050505D5D5D6B6B6B787878868686939393A1A1A1AEAEAEBB
310
BBBBC9C9C9D6D6D6E4E4E4F1F1F1FFFFFF0000000000000000000000000000000000000000000000000000000000003AE5ACE900000001624B47440088051D48000000097048597300000EC400000EC401952B0E1B0000040F49444154789CED9D4D9A83200C86731C36BDFFAE1BCFC47E5A01099260645AFE9A6FE641AB28
310
F29A04506B01EEEA39B46E57E7BE5A9451AD36006CA20645CAD50800847F371948ED00D89F07605DAA004400B69A55356B7A008847931CD7863FF16BE0B31F7AB40223A99D058C2905A00014408352148002F875005BA15FD7577653000D4A511750000AA041295552000A400134284501280005D0A0942A29001D0DAA0534
310
284501280005D0A0942A290005B02200B30B8C20AB025812C00DAD09C0205D649D17C0E3F5C76B34005F180C3D1E250062CD7C6B8C0720F780894783650B9003983706485CC0C015871900D0DB9600200F9816C0F68A1BE678968FD92B2FAADE24856101BC8FCB6F841F6B345BD4B31059B105C03121A80C0AE065DF0800B8
310
87CC21B0087B650F3D750140959F05003000DC33F71E42E9CB2E475D6385CD91600D0A60B780ABAFFA0862C07563383200DA02EC6E01EF2A495C6056009C0B1C31E01DFF042E10BC9FCF382A00492B60D85620B38019FB01A6D80FB81A5B8C06A06E30E437DAEBFF78245D3FF9FE8A0E30F86008D7B21AC085867581B7B618
310
E61E29805227F09E860650E8049487B9FB055113FA3EAE2FC8686800D5CA5B0136102E0EE0FAF2E89A008036022ADF9A004EA7FEF7000080091190B91012B42680C302AE4602AB0200F87900591BC0655C1380AFFB4000BA3F27C8F70326BE355614D50A52C630F468F03F1203583206E44A2B8E66D70480CEF6F9F49F23E3
310
9A0000CA00E01700B85BC370FC211F30285D13C0A92B1C66A8AC6B0200500009805247684900B90B8C08A0F0E8C307340B8036EF16E46A0F7D017CDB0844EA371AB4A729A7CFBD358CD4D6649C4659804D26BC6C9AD07B39F3CCB2B2AF72ECE7029639D42C5F9A506BF10C1359CE008EA0D01380ECED9A7596ED378EF564C0
310
F404E00EEB72DBDB2E405BC070002C5BA773C634A1D6E2990B0084AD7403207CB9689D0BE4F54405E29E515700A23EC0875A01EC026300888FBE95F51D00D01B803402DC7781A4B9CB5A01227F2700A226D0E58C0E8CFDD9A265103AD6A57E009A242BFA7485AD300426E72E3F8F079430B26001845C2655B71B23E4519212
310
5ABE50BD00503140380C744E0DF8EC8614D2B38ECE7D96266BD3DDF78A01D261B0AB2661FDF4E21004433CA018A5F9BB00901B404D2BE053C00B8F72CFBBEF04407E1DC4FAE8EE9DF698FAC5311BCA9E01487B82D07F3478E33706C2A15300DC6EFC1D1E3773651FF9EE87B780BB2EB0C7F6086BD02028577401482DC0AF85
310
74C603000CE09DF0C08607E0250690A6C102B86F5ACE03E09FF2CFDB67BFB134018064729E86AE1D20CB881DA458D3573D9FB30270B1CB52D11EF698072900BF2207F02260CE9A05408CDFF6BC380380E20206B0BF6FA0238061D5080012FB8337A5DFD2A9DA48F6A10980A175BB3A7F0D58B5F6D35913E80000000049454E
310
44AE426082
  0
ENDSEC
  0
EOF
